0
SECTION
2
HEADER
9
$ACADVER
1
AC1015
9
$DWGCODEPAGE
3
ANSI_1252
9
$HANDSEED
5
195
9
$ANGBASE
50
0
9
$ANGDIR
70
0
9
$ATTMODE
70
1
9
$AUNITS
70
0
9
$AUPREC
70
0
9
$CECOLOR
62
256
9
$CELTSCALE
40
1
9
$CELTYPE
6
ByLayer
9
$CELWEIGHT
370
18
9
$CLAYER
8
0
9
$CMLJUST
70
0
9
$CMLSCALE
40
1
9
$CMLSTYLE
2
Standard
9
$DIMSTYLE
2
Standard
9
$TEXTSIZE
40
0.2
9
$TEXTSTYLE
7
Standard
9
$LUNITS
70
2
9
$LUPREC
70
4
9
$EXTNAMES
290
1
9
$INSUNITS
70
4
9
$LTSCALE
40
1
9
$LWDISPLAY
290
1
9
$PDMODE
70
0
9
$PDSIZE
40
0
9
$PLINEGEN
70
0
0
ENDSEC
0
SECTION
2
CLASSES
0
CLASS
1
RASTERVARIABLES
2
AcDbRasterVariables
3
ISM
90
0
280
0
281
0
0
ENDSEC
0
SECTION
2
TABLES
0
TABLE
2
VPORT
5
18b
100
AcDbSymbolTable
0
VPORT
5
1
100
AcDbSymbolTableRecord
100
AcDbViewportTableRecord
2
*Active
70
0
10
0
20
0
11
1
21
1
12
-1
22
1
13
0
23
0
14
0.5
24
0.5
15
10
25
10
16
0
26
0
36
1
17
0
27
0
37
0
0
ENDTAB
0
TABLE
2
LTYPE
5
18c
100
AcDbSymbolTable
0
LTYPE
5
14
100
AcDbSymbolTableRecord
100
AcDbLinetypeTableRecord
70
0
2
ByBlock
3

72
65
73
0
40
0
0
LTYPE
5
15
100
AcDbSymbolTableRecord
100
AcDbLinetypeTableRecord
70
0
2
ByLayer
3

72
65
73
0
40
0
0
LTYPE
5
16
100
AcDbSymbolTableRecord
100
AcDbLinetypeTableRecord
70
0
2
CONTINUOUS
3
Solid line
72
65
73
0
40
0
0
LTYPE
5
6A
100
AcDbSymbolTableRecord
100
AcDbLinetypeTableRecord
70
0
2
CENTER
3
____ _ ____ _ ____ _ ____
72
65
73
4
40
47.5
49
22
74
0
49
-8.5
74
0
49
8.5
74
0
49
-8.5
74
0
0
LTYPE
5
6B
100
AcDbSymbolTableRecord
100
AcDbLinetypeTableRecord
70
0
2
DASHED
3
__ __ __ __ __ __ __ __ __
72
65
73
2
40
25.72
49
12.86
74
0
49
-12.86
74
0
0
ENDTAB
0
TABLE
2
LAYER
5
18d
100
AcDbSymbolTable
0
LAYER
5
10
100
AcDbSymbolTableRecord
100
AcDbLayerTableRecord
2
0
70
0
62
7
6
CONTINUOUS
290
1
370
-3
390
0
0
LAYER
5
6D
100
AcDbSymbolTableRecord
100
AcDbLayerTableRecord
2
81
70
0
62
-3
6
CONTINUOUS
290
1
370
-3
390
0
0
LAYER
5
6F
100
AcDbSymbolTableRecord
100
AcDbLayerTableRecord
2
80
70
0
62
-6
6
CONTINUOUS
290
1
370
-3
390
0
0
LAYER
5
74
100
AcDbSymbolTableRecord
100
AcDbLayerTableRecord
2
2
70
0
62
7
6
CONTINUOUS
290
1
370
-3
390
0
0
LAYER
5
78
100
AcDbSymbolTableRecord
100
AcDbLayerTableRecord
2
1
70
0
62
4
6
CONTINUOUS
290
1
370
-3
390
0
0
LAYER
5
86
100
AcDbSymbolTableRecord
100
AcDbLayerTableRecord
2
4
70
0
62
-2
6
CENTER
290
1
370
-3
390
0
0
LAYER
5
177
100
AcDbSymbolTableRecord
100
AcDbLayerTableRecord
2
SK2
70
0
62
7
6
CONTINUOUS
290
1
370
-3
390
0
0
LAYER
5
178
100
AcDbSymbolTableRecord
100
AcDbLayerTableRecord
2
SK1
70
0
62
4
6
CONTINUOUS
290
1
370
-3
390
0
0
LAYER
5
179
100
AcDbSymbolTableRecord
100
AcDbLayerTableRecord
2
SK4
70
0
62
2
6
CENTER
290
1
370
-3
390
0
0
LAYER
5
17a
100
AcDbSymbolTableRecord
100
AcDbLayerTableRecord
2
SK6
70
0
62
5
6
CONTINUOUS
290
1
370
-3
390
0
0
ENDTAB
0
TABLE
2
STYLE
5
18e
100
AcDbSymbolTable
0
STYLE
5
11
100
AcDbSymbolTableRecord
100
AcDbTextStyleTableRecord
2
Standard
3
txt
70
0
71
0
40
0
41
1
42
0
50
0
0
STYLE
5
D3
100
AcDbSymbolTableRecord
100
AcDbTextStyleTableRecord
2
iso_b_vert
3
simplex.shx
70
0
71
0
40
0
41
1
42
0
50
0
0
STYLE
5
D4
100
AcDbSymbolTableRecord
100
AcDbTextStyleTableRecord
2
DWGDirectTextStyle
3
simplex
70
0
71
0
40
0
41
1
42
0
50
0
0
ENDTAB
0
TABLE
2
DIMSTYLE
5
18f
100
AcDbSymbolTable
100
AcDbDimStyleTable
0
DIMSTYLE
105
27
100
AcDbSymbolTableRecord
100
AcDbDimStyleTableRecord
2
Standard
70
0
3
<>
41
0.18
42
0.0625
44
0.18
140
0.18
147
0.09
73
0
74
0
77
1
271
2
275
0
278
52
280
0
340
11
0
ENDTAB
0
TABLE
2
VIEW
5
190
100
AcDbSymbolTable
0
ENDTAB
0
TABLE
2
UCS
5
191
100
AcDbSymbolTable
0
ENDTAB
0
TABLE
2
APPID
5
192
100
AcDbSymbolTable
0
APPID
5
12
100
AcDbSymbolTableRecord
100
AcDbRegAppTableRecord
2
ACAD
70
0
0
ENDTAB
0
TABLE
2
BLOCK_RECORD
5
193
100
AcDbSymbolTable
0
BLOCK_RECORD
5
1F
100
AcDbSymbolTableRecord
100
AcDbBlockTableRecord
2
*Model_Space
340
0
70
0
0
BLOCK_RECORD
5
1B
100
AcDbSymbolTableRecord
100
AcDbBlockTableRecord
2
*Paper_Space
340
0
70
0
0
BLOCK_RECORD
5
23
100
AcDbSymbolTableRecord
100
AcDbBlockTableRecord
2
*Paper_Space0
340
0
70
0
0
BLOCK_RECORD
5
D6
100
AcDbSymbolTableRecord
100
AcDbBlockTableRecord
2
DimnDraft3D1
340
0
70
0
0
BLOCK_RECORD
5
E0
100
AcDbSymbolTableRecord
100
AcDbBlockTableRecord
2
DimnDraft3D2
340
0
70
0
0
BLOCK_RECORD
5
EA
100
AcDbSymbolTableRecord
100
AcDbBlockTableRecord
2
DimnDraft3D3
340
0
70
0
0
BLOCK_RECORD
5
F4
100
AcDbSymbolTableRecord
100
AcDbBlockTableRecord
2
DimnDraft3D4
340
0
70
0
0
BLOCK_RECORD
5
FE
100
AcDbSymbolTableRecord
100
AcDbBlockTableRecord
2
DimnDraft3D5
340
0
70
0
0
BLOCK_RECORD
5
108
100
AcDbSymbolTableRecord
100
AcDbBlockTableRecord
2
DimnDraft3D6
340
0
70
0
0
BLOCK_RECORD
5
113
100
AcDbSymbolTableRecord
100
AcDbBlockTableRecord
2
DimnDraft3D7
340
0
70
0
0
ENDTAB
0
ENDSEC
0
SECTION
2
BLOCKS
0
BLOCK
5
20
100
AcDbEntity
8
0
100
AcDbBlockBegin
2
*Model_Space
70
0
10
0
20
0
30
0
3
*Model_Space
0
ENDBLK
5
21
100
AcDbEntity
8
0
100
AcDbBlockEnd
0
BLOCK
5
1C
100
AcDbEntity
8
0
100
AcDbBlockBegin
2
*Paper_Space
70
0
10
0
20
0
30
0
3
*Paper_Space
0
ENDBLK
5
1D
100
AcDbEntity
8
0
100
AcDbBlockEnd
0
BLOCK
5
24
100
AcDbEntity
8
0
100
AcDbBlockBegin
2
*Paper_Space0
70
0
10
0
20
0
30
0
3
*Paper_Space0
0
ENDBLK
5
25
100
AcDbEntity
8
0
100
AcDbBlockEnd
0
BLOCK
5
DD
100
AcDbEntity
8
0
100
AcDbBlockBegin
2
DimnDraft3D1
70
0
10
0
20
0
30
0
3
DimnDraft3D1
0
MTEXT
5
D7
100
AcDbEntity
8
SK2
62
256
6
ByLayer
370
13
48
1
60
0
100
AcDbMText
10
39.578264
20
-17.838398
30
0
210
0
220
0
230
1
1
\W0.7581;92,46
40
3.5
41
0
44
1.084337
50
0
71
7
72
5
7
iso_b_vert
0
LINE
5
D8
100
AcDbEntity
8
SK2
62
256
6
ByLayer
370
13
48
1
60
0
100
AcDbLine
10
0
20
-1.5875
30
0
11
0
21
-20.713398
31
0
39
0
210
0
220
0
230
1
0
LINE
5
D9
100
AcDbEntity
8
SK2
62
256
6
ByLayer
370
13
48
1
60
0
100
AcDbLine
10
92.4611
20
-10.0875
30
0
11
92.4611
21
-20.713398
31
0
39
0
210
0
220
0
230
1
0
LINE
5
DA
100
AcDbEntity
8
SK2
62
256
6
ByLayer
370
13
48
1
60
0
100
AcDbLine
10
0
20
-18.713398
30
0
11
92.4611
21
-18.713398
31
0
39
0
210
0
220
0
230
1
0
SOLID
5
DB
100
AcDbEntity
8
SK2
62
256
6
ByLayer
370
13
48
1
60
0
100
AcDbTrace
10
0
20
-18.713398
30
0
11
3.499998
21
-18.252615
31
0
12
3.500002
22
-19.174182
32
0
13
0
23
-18.713398
33
0
39
0
210
0
220
0
230
1
0
SOLID
5
DC
100
AcDbEntity
8
SK2
62
256
6
ByLayer
370
13
48
1
60
0
100
AcDbTrace
10
92.4611
20
-18.713398
30
0
11
88.961102
21
-19.174182
31
0
12
88.961098
22
-18.252615
32
0
13
92.4611
23
-18.713398
33
0
39
0
210
0
220
0
230
1
0
ENDBLK
5
DE
100
AcDbEntity
8
0
100
AcDbBlockEnd
0
BLOCK
5
E7
100
AcDbEntity
8
0
100
AcDbBlockBegin
2
DimnDraft3D2
70
0
10
0
20
0
30
0
3
DimnDraft3D2
0
MTEXT
5
E1
100
AcDbEntity
8
SK2
62
256
6
ByLayer
370
13
48
1
60
0
100
AcDbMText
10
16.799111
20
-36.817985
30
0
210
0
220
0
230
1
1
\W0.7145;143,00
40
3.5
41
0
44
1.084337
50
0
71
7
72
5
7
iso_b_vert
0
LINE
5
E2
100
AcDbEntity
8
SK2
62
256
6
ByLayer
370
13
48
1
60
0
100
AcDbLine
10
-48
20
-10.5875
30
0
11
-48
21
-39.692985
31
0
39
0
210
0
220
0
230
1
0
LINE
5
E3
100
AcDbEntity
8
SK2
62
256
6
ByLayer
370
13
48
1
60
0
100
AcDbLine
10
95
20
-1.5875
30
0
11
95
21
-39.692985
31
0
39
0
210
0
220
0
230
1
0
LINE
5
E4
100
AcDbEntity
8
SK2
62
256
6
ByLayer
370
13
48
1
60
0
100
AcDbLine
10
-48
20
-37.692985
30
0
11
95
21
-37.692985
31
0
39
0
210
0
220
0
230
1
0
SOLID
5
E5
100
AcDbEntity
8
SK2
62
256
6
ByLayer
370
13
48
1
60
0
100
AcDbTrace
10
-48
20
-37.692985
30
0
11
-44.500002
21
-37.232202
31
0
12
-44.499998
22
-38.153769
32
0
13
-48
23
-37.692985
33
0
39
0
210
0
220
0
230
1
0
SOLID
5
E6
100
AcDbEntity
8
SK2
62
256
6
ByLayer
370
13
48
1
60
0
100
AcDbTrace
10
95
20
-37.692985
30
0
11
91.500002
21
-38.153769
31
0
12
91.499998
22
-37.232202
32
0
13
95
23
-37.692985
33
0
39
0
210
0
220
0
230
1
0
ENDBLK
5
E8
100
AcDbEntity
8
0
100
AcDbBlockEnd
0
BLOCK
5
F1
100
AcDbEntity
8
0
100
AcDbBlockBegin
2
DimnDraft3D3
70
0
10
0
20
0
30
0
3
DimnDraft3D3
0
MTEXT
5
EB
100
AcDbEntity
8
SK2
62
256
6
ByLayer
370
13
48
1
60
0
100
AcDbMText
10
52.551316
20
20.984119
30
0
210
0
220
0
230
1
1
\W0.7317;76,00
40
3.5
41
0
44
1.084337
50
0
71
7
72
5
7
iso_b_vert
0
LINE
5
EC
100
AcDbEntity
8
SK2
62
256
6
ByLayer
370
13
48
1
60
0
100
AcDbLine
10
19
20
10.0875
30
0
11
19
21
22.109119
31
0
39
0
210
0
220
0
230
1
0
LINE
5
ED
100
AcDbEntity
8
SK2
62
256
6
ByLayer
370
13
48
1
60
0
100
AcDbLine
10
95
20
1.5875
30
0
11
95
21
22.109119
31
0
39
0
210
0
220
0
230
1
0
LINE
5
EE
100
AcDbEntity
8
SK2
62
256
6
ByLayer
370
13
48
1
60
0
100
AcDbLine
10
19
20
20.109119
30
0
11
95
21
20.109119
31
0
39
0
210
0
220
0
230
1
0
SOLID
5
EF
100
AcDbEntity
8
SK2
62
256
6
ByLayer
370
13
48
1
60
0
100
AcDbTrace
10
19
20
20.109119
30
0
11
22.499998
21
20.569903
31
0
12
22.500002
22
19.648335
32
0
13
19
23
20.109119
33
0
39
0
210
0
220
0
230
1
0
SOLID
5
F0
100
AcDbEntity
8
SK2
62
256
6
ByLayer
370
13
48
1
60
0
100
AcDbTrace
10
95
20
20.109119
30
0
11
91.500002
21
19.648335
31
0
12
91.499998
22
20.569903
32
0
13
95
23
20.109119
33
0
39
0
210
0
220
0
230
1
0
ENDBLK
5
F2
100
AcDbEntity
8
0
100
AcDbBlockEnd
0
BLOCK
5
FB
100
AcDbEntity
8
0
100
AcDbBlockBegin
2
DimnDraft3D4
70
0
10
0
20
0
30
0
3
DimnDraft3D4
0
MTEXT
5
F5
100
AcDbEntity
8
SK2
62
256
6
ByLayer
370
13
48
1
60
0
100
AcDbMText
10
101.656425
20
-20.427503
30
0
210
0
220
0
230
1
1
\W0.7383;2,54
40
3.5
41
0
44
1.084337
50
0
71
7
72
5
7
iso_b_vert
0
LINE
5
F6
100
AcDbEntity
8
SK2
62
256
6
ByLayer
370
13
48
1
60
0
100
AcDbLine
10
95
20
-1.5875
30
0
11
95
21
-23.302503
31
0
39
0
210
0
220
0
230
1
0
LINE
5
F7
100
AcDbEntity
8
SK2
62
256
6
ByLayer
370
13
48
1
60
0
100
AcDbLine
10
92.4611
20
-10.0875
30
0
11
92.4611
21
-23.302503
31
0
39
0
210
0
220
0
230
1
0
LINE
5
F8
100
AcDbEntity
8
SK2
62
256
6
ByLayer
370
13
48
1
60
0
100
AcDbLine
10
83.7111
20
-21.302503
30
0
11
109.181425
21
-21.302503
31
0
39
0
210
0
220
0
230
1
0
SOLID
5
F9
100
AcDbEntity
8
SK2
62
256
6
ByLayer
370
13
48
1
60
0
100
AcDbTrace
10
95
20
-21.302503
30
0
11
98.499998
21
-20.841719
31
0
12
98.500002
22
-21.763287
32
0
13
95
23
-21.302503
33
0
39
0
210
0
220
0
230
1
0
SOLID
5
FA
100
AcDbEntity
8
SK2
62
256
6
ByLayer
370
13
48
1
60
0
100
AcDbTrace
10
92.4611
20
-21.302503
30
0
11
88.961102
21
-21.763287
31
0
12
88.961098
22
-20.841719
32
0
13
92.4611
23
-21.302503
33
0
39
0
210
0
220
0
230
1
0
ENDBLK
5
FC
100
AcDbEntity
8
0
100
AcDbBlockEnd
0
BLOCK
5
105
100
AcDbEntity
8
0
100
AcDbBlockBegin
2
DimnDraft3D5
70
0
10
0
20
0
30
0
3
DimnDraft3D5
0
MTEXT
5
FF
100
AcDbEntity
8
SK2
62
256
6
ByLayer
370
13
48
1
60
0
100
AcDbMText
10
13.534276
20
-26.468428
30
0
210
0
220
0
230
1
1
\W0.7329;140,46
40
3.5
41
0
44
1.084337
50
0
71
7
72
5
7
iso_b_vert
0
LINE
5
100
100
AcDbEntity
8
SK2
62
256
6
ByLayer
370
13
48
1
60
0
100
AcDbLine
10
-48
20
-10.5875
30
0
11
-48
21
-29.343428
31
0
39
0
210
0
220
0
230
1
0
LINE
5
101
100
AcDbEntity
8
SK2
62
256
6
ByLayer
370
13
48
1
60
0
100
AcDbLine
10
92.4611
20
-10.0875
30
0
11
92.4611
21
-29.343428
31
0
39
0
210
0
220
0
230
1
0
LINE
5
102
100
AcDbEntity
8
SK2
62
256
6
ByLayer
370
13
48
1
60
0
100
AcDbLine
10
-48
20
-27.343428
30
0
11
92.4611
21
-27.343428
31
0
39
0
210
0
220
0
230
1
0
SOLID
5
103
100
AcDbEntity
8
SK2
62
256
6
ByLayer
370
13
48
1
60
0
100
AcDbTrace
10
-48
20
-27.343428
30
0
11
-44.500002
21
-26.882645
31
0
12
-44.499998
22
-27.804212
32
0
13
-48
23
-27.343428
33
0
39
0
210
0
220
0
230
1
0
SOLID
5
104
100
AcDbEntity
8
SK2
62
256
6
ByLayer
370
13
48
1
60
0
100
AcDbTrace
10
92.4611
20
-27.343428
30
0
11
88.961102
21
-27.804212
31
0
12
88.961098
22
-26.882645
32
0
13
92.4611
23
-27.343428
33
0
39
0
210
0
220
0
230
1
0
ENDBLK
5
106
100
AcDbEntity
8
0
100
AcDbBlockEnd
0
BLOCK
5
110
100
AcDbEntity
8
0
100
AcDbBlockBegin
2
DimnDraft3D6
70
0
10
0
20
0
30
0
3
DimnDraft3D6
0
MTEXT
5
109
100
AcDbEntity
8
SK2
62
256
6
ByLayer
370
13
48
1
60
0
100
AcDbMText
10
-58.375163
20
28.34918
30
0
210
0
220
0
230
1
1
\W0.6930;18,000
40
3.5
41
0
44
1.084337
50
90
71
7
72
5
7
iso_b_vert
0
MTEXT
5
10A
100
AcDbEntity
8
SK2
62
256
6
ByLayer
370
13
48
1
60
0
100
AcDbMText
10
-58.375163
20
23.126524
30
0
210
0
220
0
230
1
1
%%c
40
3.5
41
0
44
1.084337
50
90
71
7
72
5
7
iso_b_vert
0
LINE
5
10B
100
AcDbEntity
8
SK2
62
256
6
ByLayer
370
13
48
1
60
0
100
AcDbLine
10
-49.5875
20
-9
30
0
11
-58.625163
21
-9
31
0
39
0
210
0
220
0
230
1
0
LINE
5
10C
100
AcDbEntity
8
SK2
62
256
6
ByLayer
370
13
48
1
60
0
100
AcDbLine
10
-49.5875
20
9
30
0
11
-58.625163
21
9
31
0
39
0
210
0
220
0
230
1
0
LINE
5
10D
100
AcDbEntity
8
SK2
62
256
6
ByLayer
370
13
48
1
60
0
100
AcDbLine
10
-56.625163
20
-9
30
0
11
-56.625163
21
39.862338
31
0
39
0
210
0
220
0
230
1
0
SOLID
5
10E
100
AcDbEntity
8
SK2
62
256
6
ByLayer
370
13
48
1
60
0
100
AcDbTrace
10
-56.625163
20
-9
30
0
11
-57.085946
21
-5.500002
31
0
12
-56.164379
22
-5.499998
32
0
13
-56.625163
23
-9
33
0
39
0
210
0
220
0
230
1
0
SOLID
5
10F
100
AcDbEntity
8
SK2
62
256
6
ByLayer
370
13
48
1
60
0
100
AcDbTrace
10
-56.625163
20
9
30
0
11
-56.164379
21
5.500002
31
0
12
-57.085946
22
5.499998
32
0
13
-56.625163
23
9
33
0
39
0
210
0
220
0
230
1
0
ENDBLK
5
111
100
AcDbEntity
8
0
100
AcDbBlockEnd
0
BLOCK
5
11B
100
AcDbEntity
8
0
100
AcDbBlockBegin
2
DimnDraft3D7
70
0
10
0
20
0
30
0
3
DimnDraft3D7
0
MTEXT
5
114
100
AcDbEntity
8
2
62
256
6
ByLayer
370
13
48
1
60
0
100
AcDbMText
10
105.333343
20
26.442266
30
0
210
0
220
0
230
1
1
\W0.6930;17,000
40
3.5
41
0
44
1.084337
50
90
71
7
72
5
7
iso_b_vert
0
MTEXT
5
115
100
AcDbEntity
8
2
62
256
6
ByLayer
370
13
48
1
60
0
100
AcDbMText
10
105.333343
20
21.21961
30
0
210
0
220
0
230
1
1
%%c
40
3.5
41
0
44
1.084337
50
90
71
7
72
5
7
iso_b_vert
0
LINE
5
116
100
AcDbEntity
8
2
62
256
6
ByLayer
370
13
48
1
60
0
100
AcDbLine
10
94.0486
20
-8.5
30
0
11
109.083343
21
-8.5
31
0
39
0
210
0
220
0
230
1
0
LINE
5
117
100
AcDbEntity
8
2
62
256
6
ByLayer
370
13
48
1
60
0
100
AcDbLine
10
94.0486
20
8.5
30
0
11
109.083343
21
8.5
31
0
39
0
210
0
220
0
230
1
0
LINE
5
118
100
AcDbEntity
8
2
62
256
6
ByLayer
370
13
48
1
60
0
100
AcDbLine
10
107.083343
20
-8.5
30
0
11
107.083343
21
37.955424
31
0
39
0
210
0
220
0
230
1
0
SOLID
5
119
100
AcDbEntity
8
2
62
256
6
ByLayer
370
13
48
1
60
0
100
AcDbTrace
10
107.083343
20
-8.5
30
0
11
106.622559
21
-5.000002
31
0
12
107.544126
22
-4.999998
32
0
13
107.083343
23
-8.5
33
0
39
0
210
0
220
0
230
1
0
SOLID
5
11A
100
AcDbEntity
8
2
62
256
6
ByLayer
370
13
48
1
60
0
100
AcDbTrace
10
107.083343
20
8.5
30
0
11
107.544126
21
5.000002
31
0
12
106.622559
22
4.999998
32
0
13
107.083343
23
8.5
33
0
39
0
210
0
220
0
230
1
0
ENDBLK
5
11C
100
AcDbEntity
8
0
100
AcDbBlockEnd
0
ENDSEC
0
SECTION
2
ENTITIES
0
ARC
5
93
100
AcDbEntity
8
1
62
256
6
ByLayer
370
18
48
1
60
0
100
AcDbCircle
39
0
10
-0.333333
20
8.775761
30
0
40
0.33333300000001
210
0
220
0
230
-1
100
AcDbArc
50
269.96419
51
0
0
ARC
5
94
100
AcDbEntity
8
1
62
256
6
ByLayer
370
18
48
1
60
0
100
AcDbCircle
39
0
10
-0.333333
20
-8.775761
30
0
40
0.33333300000001
210
0
220
0
230
-1
100
AcDbArc
50
0
51
90.03581
0
ELLIPSE
5
95
100
AcDbEntity
8
1
62
256
6
ByLayer
370
18
48
1
60
0
100
AcDbEllipse
10
1.69849
20
8.268818
30
0
11
0.25
21
0
31
0
210
0
220
0
230
1
40
0.999992
41
-3.12169037273765
42
-1.5656448277228
0
ELLIPSE
5
96
100
AcDbEntity
8
1
62
256
6
ByLayer
370
18
48
1
60
0
100
AcDbEllipse
10
1.69849
20
-8.268818
30
0
11
0.25
21
0
31
0
210
0
220
0
230
1
40
0.999992
41
1.57022472963141
42
3.12169037273766
0
POINT
5
6C
100
AcDbEntity
8
81
62
256
6
ByLayer
370
18
48
1
60
0
100
AcDbPoint
10
95
20
0
30
0
39
0
210
0
220
0
230
1
50
360
0
POINT
5
6E
100
AcDbEntity
8
80
62
256
6
ByLayer
370
18
48
1
60
0
100
AcDbPoint
10
0
20
0
30
0
39
0
210
0
220
0
230
1
50
360
0
POINT
5
70
100
AcDbEntity
8
SK2
62
256
6
ByLayer
370
18
48
1
60
1
100
AcDbPoint
10
-48
20
-9
30
0
39
0
210
0
220
0
230
1
50
360
0
POINT
5
72
100
AcDbEntity
8
SK2
62
256
6
ByLayer
370
18
48
1
60
1
100
AcDbPoint
10
-48
20
9
30
0
39
0
210
0
220
0
230
1
50
360
0
POINT
5
73
100
AcDbEntity
8
2
62
256
6
ByLayer
370
18
48
1
60
1
100
AcDbPoint
10
92.4611
20
-8.5
30
0
39
0
210
0
220
0
230
1
50
360
0
POINT
5
75
100
AcDbEntity
8
2
62
256
6
ByLayer
370
18
48
1
60
1
100
AcDbPoint
10
92.4611
20
8.5
30
0
39
0
210
0
220
0
230
1
50
360
0
SPLINE
5
97
100
AcDbEntity
8
1
62
256
6
ByLayer
370
18
48
1
60
0
100
AcDbSpline
70
4
71
3
72
31
73
27
40
0
40
0
40
0
40
0
40
0.0623083738497678
40
0.129827841446557
40
0.186163638153372
40
0.235283690140455
40
0.271234920778311
40
0.299524997662424
40
0.327134689740176
40
0.354095167401871
40
0.380521890428145
40
0.426226337265863
40
0.478889451982862
40
0.532699189298557
40
0.566679242390773
40
0.598098896043892
40
0.637261426891909
40
0.684433527982198
40
0.717509471977189
40
0.742648858057376
40
0.760839738747575
40
0.782565724349027
40
0.843166755515979
40
0.90402445810065
40
0.954848061324785
40
1
40
1
40
1
40
1
41
1
10
1.69920447648479
20
-8.01873525940471
30
0
41
1
10
2.01342046898941
20
-8.0197071110037
30
0
41
1
10
2.66814958669511
20
-8.02132693236348
30
0
41
1
10
3.60708141044202
20
-8.02220481434699
30
0
41
1
10
4.47946907684479
20
-8.02234680022804
30
0
41
1
10
5.1926301677567
20
-8.02231742459804
30
0
41
1
10
5.76436494289965
20
-8.02242598759938
30
0
41
1
10
6.22761202141828
20
-8.02271919553684
30
0
41
1
10
6.64551562400771
20
-8.02317799657567
30
0
41
1
10
7.05402094708094
20
-8.02382456136434
30
0
41
1
10
7.55378587891232
20
-8.0245404390605
30
0
41
1
10
8.18318077310673
20
-8.02497798477387
30
0
41
1
10
8.95067889071623
20
-8.02518393627889
30
0
41
1
10
9.65904449615999
20
-8.02579124313877
30
0
41
1
10
10.2602737756709
20
-8.02659625593009
30
0
41
1
10
10.7876309542508
20
-8.02676261712759
30
0
41
1
10
11.3815215880469
20
-8.0266904175956
30
0
41
1
10
11.9837652840566
20
-8.02691701797187
30
0
41
1
10
12.5152839218032
20
-8.02754011244647
30
0
41
1
10
12.9006363681426
20
-8.0280154505393
30
0
41
1
10
13.2287462674918
20
-8.02823638744897
30
0
41
1
10
13.7357035735175
20
-8.02827314358547
30
0
41
1
10
14.4578435272281
20
-8.02785133121023
30
0
41
1
10
15.3267442337202
20
-8.02884911852422
30
0
41
1
10
16.1177271206437
20
-8.02957323380753
30
0
41
1
10
16.6017774785649
20
-8.02964610255958
30
0
41
1
10
16.8295003363105
20
-8.02961938451409
30
0
0
SPLINE
5
98
100
AcDbEntity
8
1
62
256
6
ByLayer
370
18
48
1
60
0
100
AcDbSpline
70
4
71
2
72
6
73
3
40
0
40
0
40
0
40
1
40
1
40
1
41
1
10
91.4538697152955
20
-8.07450344458977
30
0
41
1
10
91.7569666346723
20
-8.07409391547125
30
0
41
1
10
92.0597170388941
20
-8.0747947797031
30
0
0
SPLINE
5
99
100
AcDbEntity
8
1
62
256
6
ByLayer
370
18
48
1
60
0
100
AcDbSpline
70
4
71
3
72
38
73
34
40
0
40
0
40
0
40
0
40
0.0285716741439639
40
0.0610047722871362
40
0.0936899210454843
40
0.126571151960113
40
0.154617369111977
40
0.177207404273283
40
0.197638213677754
40
0.225585644829664
40
0.24803548445405
40
0.262447713556317
40
0.280034765921248
40
0.303405604089693
40
0.332270822636297
40
0.361380296359036
40
0.388801547400069
40
0.418687768901779
40
0.445114085449069
40
0.465275811767394
40
0.483454375313926
40
0.508318856257116
40
0.538293940181479
40
0.574945360566705
40
0.609012028010708
40
0.637314613897384
40
0.668676054619506
40
0.731654016854333
40
0.786769252648054
40
0.855203385453242
40
0.925276740804018
40
0.988633927863025
40
1
40
1
40
1
40
1
41
1
10
42.3970056567506
20
-8.04306496504725
30
0
41
1
10
42.6095125135387
20
-8.042341393111
30
0
41
1
10
43.0701002494661
20
-8.04101135028901
30
0
41
1
10
43.8088955269151
20
-8.03663162544501
30
0
41
1
10
44.5879537213425
20
-8.03922520723933
30
0
41
1
10
45.3075611867199
20
-8.04484346848969
30
0
41
1
10
45.9568556510668
20
-8.0463167854854
30
0
41
1
10
46.5133925528202
20
-8.04624992936886
30
0
41
1
10
47.0752111405608
20
-8.04622779839914
30
0
41
1
10
47.6341749942873
20
-8.04674449915998
30
0
41
1
10
48.1450296633873
20
-8.04723565008899
30
0
41
1
10
48.5756549713357
20
-8.04782725528742
30
0
41
1
10
49.0133060309742
20
-8.04828447434664
30
0
41
1
10
49.5651643315162
20
-8.04844076649925
30
0
41
1
10
50.207711377587
20
-8.04820384189395
30
0
41
1
10
50.8826088967444
20
-8.04862872358004
30
0
41
1
10
51.5658314703397
20
-8.04957114829494
30
0
41
1
10
52.2276802631031
20
-8.05000183491475
30
0
41
1
10
52.8311014595481
20
-8.0499275472811
30
0
41
1
10
53.3431144745376
20
-8.04989446185388
30
0
41
1
10
53.8427589200973
20
-8.05076011856414
30
0
41
1
10
54.4199935742421
20
-8.05152940634386
30
0
41
1
10
55.1432781765681
20
-8.05178743022563
30
0
41
1
10
55.9392153591744
20
-8.05101901644929
30
0
41
1
10
56.7222743054156
20
-8.05243188993617
30
0
41
1
10
57.461732752038
20
-8.05267319234434
30
0
41
1
10
58.4318769250202
20
-8.0522251158821
30
0
41
1
10
59.6122968031329
20
-8.0544729357043
30
0
41
1
10
61.08703372447
20
-8.05361004398728
30
0
41
1
10
62.6183025189936
20
-8.05671641494916
30
0
41
1
10
64.2111722123271
20
-8.05487835818559
30
0
41
1
10
65.3573220773853
20
-8.05643575237144
30
0
41
1
10
65.9467608970036
20
-8.05680237417909
30
0
41
1
10
66.0364052663896
20
-8.0568614913349
30
0
0
SPLINE
5
9A
100
AcDbEntity
8
1
62
256
6
ByLayer
370
18
48
1
60
0
100
AcDbSpline
70
4
71
3
72
28
73
24
40
0
40
0
40
0
40
0
40
0.0084109442686406
40
0.0507411450802779
40
0.102351339575578
40
0.15842450128951
40
0.221184553341041
40
0.272453115945309
40
0.317342536832298
40
0.3686022376901
40
0.425897184411723
40
0.488186610211466
40
0.551890077687514
40
0.584069073165613
40
0.613864931384237
40
0.641216095556901
40
0.666114917915349
40
0.692099979404735
40
0.72693194850351
40
0.779785299205602
40
0.845548055645061
40
0.924404427219076
40
1
40
1
40
1
40
1
41
1
10
16.8099010177473
20
8.02962999431585
30
0
41
1
10
16.7675424570564
20
8.02961893113175
30
0
41
1
10
16.5119995130726
20
8.02954701388305
30
0
41
1
10
15.9964190648166
20
8.02955394540419
30
0
41
1
10
15.2408230545668
20
8.02869393846433
30
0
41
1
10
14.3823372029612
20
8.02785213241614
30
0
41
1
10
13.5255369379164
20
8.02845174766966
30
0
41
1
10
12.7250701236265
20
8.02786793500641
30
0
41
1
10
11.9825321990933
20
8.02685929473594
30
0
41
1
10
11.2096371548542
20
8.02667684042297
30
0
41
1
10
10.3490995291517
20
8.02683873562194
30
0
41
1
10
9.42588379683554
20
8.02539110294958
30
0
41
1
10
8.62917878646368
20
8.02513336236555
30
0
41
1
10
7.99614201962447
20
8.02484763605821
30
0
41
1
10
7.54620893890782
20
8.02450543629692
30
0
41
1
10
7.13294566165928
20
8.02395326823245
30
0
41
1
10
6.73887978902854
20
8.02332074595077
30
0
41
1
10
6.3071277693046
20
8.02278595562845
30
0
41
1
10
5.7345932186191
20
8.02237970760908
30
0
41
1
10
4.96171499926822
20
8.02230235664601
30
0
41
1
10
3.96707032107534
20
8.02233317324172
30
0
41
1
10
2.857819620328
20
8.02170468620233
30
0
41
1
10
2.07992927024367
20
8.01986467543583
30
0
41
1
10
1.69920870849785
20
8.01870199444255
30
0
0
SPLINE
5
9B
100
AcDbEntity
8
1
62
256
6
ByLayer
370
18
48
1
60
0
100
AcDbSpline
70
4
71
3
72
30
73
26
40
0
40
0
40
0
40
0
40
0.0071715819424385
40
0.0509057531282019
40
0.0857975222410397
40
0.135684808464336
40
0.18587531029681
40
0.234218326806063
40
0.281741910066333
40
0.336785069850459
40
0.393482510700526
40
0.466047925755138
40
0.554081715221438
40
0.630905745845231
40
0.708425538653371
40
0.774087607942329
40
0.843241109154361
40
0.862689651809589
40
0.879439568022014
40
0.893523192808621
40
0.911956748161623
40
0.942609666537328
40
0.974520586392942
40
0.995355461457393
40
1
40
1
40
1
40
1
41
1
10
66.0214251582267
20
8.05695842019304
30
0
41
1
10
65.976091084546
20
8.05694127057475
30
0
41
1
10
65.6542937261896
20
8.056809384632
30
0
41
1
10
65.1107334533132
20
8.05656506656513
30
0
41
1
10
64.2995173165763
20
8.05565031231779
30
0
41
1
10
63.4462412818372
20
8.05574038315882
30
0
41
1
10
62.5070228288956
20
8.05615442228364
30
0
41
1
10
61.5829386251089
20
8.05430604064577
30
0
41
1
10
60.6281094729206
20
8.05408619226444
30
0
41
1
10
59.6204233989387
20
8.05419473484497
30
0
41
1
10
58.454323717791
20
8.05231062353317
30
0
41
1
10
57.0793600318651
20
8.05307139078292
30
0
41
1
10
55.5775986710773
20
8.05127476953885
30
0
41
1
10
54.0425321095435
20
8.05120718084305
30
0
41
1
10
52.6557750476922
20
8.05018538534227
30
0
41
1
10
51.318334589399
20
8.04403241123845
30
0
41
1
10
50.3492746356389
20
8.04775593650891
30
0
41
1
10
49.688505363362
20
8.04834295876503
30
0
41
1
10
49.3714828472012
20
8.04836435417184
30
0
41
1
10
49.0597706381442
20
8.04825652716562
30
0
41
1
10
48.6600622474299
20
8.04798975697463
30
0
41
1
10
48.1477647417665
20
8.04718117109482
30
0
41
1
10
47.6194079507125
20
8.0468519951188
30
0
41
1
10
47.2577879579887
20
8.04665798175361
30
0
41
1
10
47.0969153142301
20
8.04653448943589
30
0
41
1
10
47.0675812223312
20
8.04651205202995
30
0
0
SPLINE
5
9C
100
AcDbEntity
8
1
62
256
6
ByLayer
370
18
48
1
60
0
100
AcDbSpline
70
4
71
2
72
6
73
3
40
0
40
0
40
0
40
1
40
1
40
1
41
1
10
66.7425887525424
20
-0.0003062368101041
30
0
41
1
10
66.7425762650475
20
-0.0002987903075109
30
0
41
1
10
66.7425637774968
20
-0.0002910776614442
30
0
0
SPLINE
5
9D
100
AcDbEntity
8
SK1
62
256
6
ByLayer
370
18
48
1
60
0
100
AcDbSpline
70
4
71
3
72
14
73
10
40
0
40
0
40
0
40
0
40
0.499999999999993
40
0.499999999999993
40
0.74999999999999
40
0.74999999999999
40
0.874999999999995
40
0.874999999999995
40
1
40
1
40
1
40
1
41
1
10
-45.6
20
-8.65573946487564
30
0
41
1
10
-45.5789465118596
20
-8.69207579132819
30
0
41
1
10
-45.5585985142981
20
-8.72709398153941
30
0
41
1
10
-45.5303873672755
20
-8.77527318172656
30
0
41
1
10
-45.5214287539013
20
-8.79050274813835
30
0
41
1
10
-45.5102864584886
20
-8.80920620248816
30
0
41
1
10
-45.50688945626
20
-8.81485949696867
30
0
41
1
10
-45.5017228477084
20
-8.82325885279766
30
0
41
1
10
-45.5
20
-8.82592217206533
30
0
41
1
10
-45.5
20
-8.82557340938729
30
0
0
SPLINE
5
9E
100
AcDbEntity
8
SK1
62
256
6
ByLayer
370
18
48
1
60
0
100
AcDbSpline
70
4
71
3
72
16
73
12
40
0
40
0
40
0
40
0
40
0.125
40
0.125
40
0.249999999999999
40
0.249999999999999
40
0.5
40
0.5
40
0.75
40
0.75
40
1
40
1
40
1
40
1
41
1
10
-47.2498862685565
20
-5.01349011319112
30
0
41
1
10
-47.2737104791228
20
-4.95032388043785
30
0
41
1
10
-47.2988277319989
20
-4.88592747595783
30
0
41
1
10
-47.3508796785548
20
-4.75690307964391
30
0
41
1
10
-47.3779298514471
20
-4.69196602529271
30
0
41
1
10
-47.4623357625061
20
-4.49601170336018
30
0
41
1
10
-47.5235176931955
20
-4.36274685691717
30
0
41
1
10
-47.6504360122614
20
-4.10577271706526
30
0
41
1
10
-47.7167863503512
20
-3.98051149092959
30
0
41
1
10
-47.856306157184
20
-3.7388532603953
30
0
41
1
10
-47.9272922460293
20
-3.62621063942299
30
0
41
1
10
-48
20
-3.52276845699788
30
0
0
SPLINE
5
9F
100
AcDbEntity
8
SK1
62
256
6
ByLayer
370
18
48
1
60
0
100
AcDbSpline
70
4
71
3
72
10
73
6
40
0
40
0
40
0
40
0
40
0.5
40
0.5
40
1
40
1
40
1
40
1
41
1
10
-48
20
-4.42782448595608
30
0
41
1
10
-47.6125196316341
20
-5.13873140598298
30
0
41
1
10
-47.214090377025
20
-5.84423572777942
30
0
41
1
10
-46.4112708205166
20
-7.25230296319373
30
0
41
1
10
-46.0063463409205
20
-7.95442416747807
30
0
41
1
10
-45.6
20
-8.65573946487564
30
0
0
SPLINE
5
A0
100
AcDbEntity
8
SK1
62
256
6
ByLayer
370
18
48
1
60
0
100
AcDbSpline
70
4
71
3
72
10
73
6
40
0
40
0
40
0
40
0
40
0.589470114056406
40
0.589470114056406
40
1
40
1
40
1
40
1
41
1
10
-48
20
4.42782448595608
30
0
41
1
10
-47.6125196316341
20
5.13873140598298
30
0
41
1
10
-47.214090377025
20
5.84423572777942
30
0
41
1
10
-46.5331232360585
20
7.03858570569838
30
0
41
1
10
-46.251861148066
20
7.52797449363851
30
0
41
1
10
-45.9696012787601
20
8.01680947801995
30
0
0
SPLINE
5
A1
100
AcDbEntity
8
SK1
62
256
6
ByLayer
370
18
48
1
60
0
100
AcDbSpline
70
4
71
3
72
8
73
4
40
0
40
0
40
0
40
0
40
1
40
1
40
1
40
1
41
1
10
-45.6
20
-7.89165691424651
30
0
41
1
10
-46.154461219171
20
-6.93470936566649
30
0
41
1
10
-46.7067015570116
20
-5.97651422539823
30
0
41
1
10
-47.2498862685565
20
-5.01349011319112
30
0
0
SPLINE
5
A2
100
AcDbEntity
8
SK1
62
256
6
ByLayer
370
18
48
1
60
0
100
AcDbSpline
70
4
71
3
72
14
73
10
40
0
40
0
40
0
40
0
40
0.124999999999998
40
0.124999999999998
40
0.249999999999996
40
0.249999999999996
40
0.499999999999992
40
0.499999999999992
40
1
40
1
40
1
40
1
41
1
10
-45.5
20
-8.10515271879407
30
0
41
1
10
-45.5
20
-8.10086861935508
30
0
41
1
10
-45.5017107697461
20
-8.09392233775705
30
0
41
1
10
-45.5068845888984
20
-8.07805730814238
30
0
41
1
10
-45.5102281895671
20
-8.06937894675099
30
0
41
1
10
-45.521528237522
20
-8.04209397589682
30
0
41
1
10
-45.5303630420009
20
-8.02314039891252
30
0
41
1
10
-45.558525242781
20
-7.96576319128019
30
0
41
1
10
-45.5788396428357
20
-7.9281776865121
30
0
41
1
10
-45.6
20
-7.89165691424651
30
0
0
SPLINE
5
A3
100
AcDbEntity
8
1
62
256
6
ByLayer
370
13
48
1
60
0
100
AcDbSpline
70
4
71
3
72
42
73
38
40
0
40
0
40
0
40
0
40
0.0797638966260171
40
0.0797638966260171
40
0.121592810415744
40
0.121592810415744
40
0.16342172420547
40
0.205250637995196
40
0.205250637995196
40
0.247079551784922
40
0.247079551784922
40
0.330737379364375
40
0.330737379364375
40
0.372566293154102
40
0.372566293154102
40
0.414395206943828
40
0.414395206943828
40
0.498053034523281
40
0.498053034523281
40
0.539881948313008
40
0.539881948313008
40
0.581710862102735
40
0.581710862102735
40
0.665368689682188
40
0.749026517261641
40
0.749026517261641
40
0.790855431051367
40
0.790855431051367
40
0.832684344841094
40
0.832684344841094
40
0.916342172420547
40
0.916342172420547
40
0.958171086210273
40
0.958171086210273
40
0.979085543105137
40
0.979085543105137
40
1
40
1
40
1
40
1
41
1
10
1.69921070519402
20
-8.01888341343013
30
0
41
1
10
1.69923928823439
20
-8.01922843563221
30
0
41
1
10
1.6992668075728
20
-7.99938407535618
30
0
41
1
10
1.69930779121609
20
-7.93772875990584
30
0
41
1
10
1.69932174925645
20
-7.9107451241386
30
0
41
1
10
1.69934923052423
20
-7.84552708539181
30
0
41
1
10
1.69937623102788
20
-7.76924371827778
30
0
41
1
10
1.69940246473718
20
-7.67100142178592
30
0
41
1
10
1.69942838861164
20
-7.56172450294099
30
0
41
1
10
1.69944121012574
20
-7.50147225533411
30
0
41
1
10
1.69947900303768
20
-7.30546703379238
30
0
41
1
10
1.69950340532083
20
-7.15421330219809
30
0
41
1
10
1.69953896137144
20
-6.89633987717062
30
0
41
1
10
1.69955061395032
20
-6.8053163543193
30
0
41
1
10
1.69957330122477
20
-6.61501607626758
30
0
41
1
10
1.69958436769593
20
-6.51551466290039
30
0
41
1
10
1.69961670712402
20
-6.2041763323702
30
0
41
1
10
1.69963713367508
20
-5.97955808964781
30
0
41
1
10
1.6996657178056
20
-5.6169425744194
30
0
41
1
10
1.69967489991336
20
-5.49177624312784
30
0
41
1
10
1.6996924695396
20
-5.23267283895925
30
0
41
1
10
1.69970087041997
20
-5.09842048089646
30
0
41
1
10
1.69972435599149
20
-4.68816819261835
30
0
41
1
10
1.69975136139033
20
-4.1179585624368
30
0
41
1
10
1.6997680107435
20
-3.50254447460887
30
0
41
1
10
1.69977562971383
20
-3.02361993035476
30
0
41
1
10
1.69977735482442
20
-2.860449618167
30
0
41
1
10
1.69977895039347
20
-2.53200290990867
30
0
41
1
10
1.69977882992541
20
-2.36668069570459
30
0
41
1
10
1.6997755368975
20
-1.86749276098428
30
0
41
1
10
1.69976944428654
20
-1.53041883127645
30
0
41
1
10
1.69975355919138
20
-1.01843681600656
30
0
41
1
10
1.69974713705142
20
-0.846710990344121
30
0
41
1
10
1.69973567205045
20
-0.587500710380453
30
0
41
1
10
1.69973154486499
20
-0.500826812647574
30
0
41
1
10
1.69972265304247
20
-0.326931424533825
30
0
41
1
10
1.69971786196777
20
-0.239287352502799
30
0
41
1
10
1.69971279077487
20
-0.15221066537049
30
0
0
SPLINE
5
A4
100
AcDbEntity
8
1
62
256
6
ByLayer
370
18
48
1
60
0
100
AcDbSpline
70
4
71
3
72
14
73
10
40
0
40
0
40
0
40
0
40
0.25
40
0.25
40
0.5
40
0.5
40
0.75
40
0.75
40
1
40
1
40
1
40
1
41
1
10
92.1458591377716
20
-8.06699951451662
30
0
41
1
10
92.1493119653727
20
-8.06638417223178
30
0
41
1
10
92.1521262001299
20
-8.06745782059011
30
0
41
1
10
92.1560654068643
20
-8.07406045038096
30
0
41
1
10
92.1571362050049
20
-8.07967196283374
30
0
41
1
10
92.1563357273845
20
-8.09651878051594
30
0
41
1
10
92.1543837668145
20
-8.10779872609666
30
0
41
1
10
92.1474612257941
20
-8.13347698390572
30
0
41
1
10
92.1425752322705
20
-8.14759716770055
30
0
41
1
10
92.1371833974484
20
-8.16094906538447
30
0
0
SPLINE
5
A5
100
AcDbEntity
8
1
62
256
6
ByLayer
370
18
48
1
60
0
100
AcDbSpline
70
4
71
3
72
108
73
104
40
0
40
0
40
0
40
0
40
0.0156260804260896
40
0.0156260804260896
40
0.0332041861327666
40
0.0332041861327666
40
0.0507822918394436
40
0.0507822918394436
40
0.0683603975461206
40
0.0683603975461206
40
0.0859385032527975
40
0.0859385032527975
40
0.121094714666152
40
0.121094714666152
40
0.138672820372828
40
0.138672820372828
40
0.156250926079505
40
0.156250926079505
40
0.173829031786182
40
0.173829031786182
40
0.191407137492858
40
0.191407137492858
40
0.208985243199535
40
0.208985243199535
40
0.226563348906212
40
0.226563348906212
40
0.244141454612888
40
0.244141454612888
40
0.261719560319565
40
0.261719560319565
40
0.279297666026242
40
0.279297666026242
40
0.296875771732918
40
0.296875771732918
40
0.314453877439595
40
0.314453877439595
40
0.332031983146272
40
0.332031983146272
40
0.349610088852948
40
0.349610088852948
40
0.367188194559625
40
0.367188194559625
40
0.384766300266302
40
0.384766300266302
40
0.402344405972978
40
0.402344405972978
40
0.419922511679655
40
0.419922511679655
40
0.437500617386332
40
0.437500617386332
40
0.455078723093009
40
0.455078723093009
40
0.472656828799685
40
0.472656828799685
40
0.490234934506362
40
0.490234934506362
40
0.507813040213039
40
0.507813040213039
40
0.525391145919715
40
0.525391145919715
40
0.542969251626392
40
0.542969251626392
40
0.578125463039746
40
0.578125463039746
40
0.595703568746423
40
0.595703568746423
40
0.613281674453101
40
0.613281674453101
40
0.630859780159778
40
0.630859780159778
40
0.648437885866455
40
0.648437885866455
40
0.666015991573133
40
0.666015991573133
40
0.68359409727981
40
0.68359409727981
40
0.718750308693164
40
0.718750308693164
40
0.736328414399841
40
0.736328414399841
40
0.753906520106518
40
0.753906520106518
40
0.771484625813195
40
0.771484625813195
40
0.789062731519872
40
0.789062731519872
40
0.806640837226549
40
0.806640837226549
40
0.824218942933226
40
0.824218942933226
40
0.85937515434658
40
0.85937515434658
40
0.876953260053258
40
0.876953260053258
40
0.894531365759935
40
0.894531365759935
40
0.912109471466612
40
0.912109471466612
40
0.92968757717329
40
0.92968757717329
40
0.964843788586645
40
0.964843788586645
40
1
40
1
40
1
40
1
41
1
10
76.8251268407823
20
-6.15270214875292
30
0
41
1
10
76.5209263207215
20
-6.25436287129287
30
0
41
1
10
76.2166629351744
20
-6.35285623946658
30
0
41
1
10
75.5698782348569
20
-6.55493116031488
30
0
41
1
10
75.2267024601541
20
-6.65731657024293
30
0
41
1
10
74.5410798606538
20
-6.85157226716805
30
0
41
1
10
74.1985751378191
20
-6.94336994862005
30
0
41
1
10
73.5140609364943
20
-7.11551937358519
30
0
41
1
10
73.1720554627561
20
-7.19557893248762
30
0
41
1
10
72.4885853554736
20
-7.3468259102921
30
0
41
1
10
72.1467606820717
20
-7.41766511886405
30
0
41
1
10
71.1207513647543
20
-7.61451351991957
30
0
41
1
10
70.435814299526
20
-7.72317067159577
30
0
41
1
10
69.4075701403361
20
-7.85454150534042
30
0
41
1
10
69.0649077264378
20
-7.89286445465839
30
0
41
1
10
68.3800857873277
20
-7.9573366357611
30
0
41
1
10
68.0378427536262
20
-7.98335745432715
30
0
41
1
10
67.3536162471243
20
-8.02332273028355
30
0
41
1
10
67.0116468643918
20
-8.03764142761159
30
0
41
1
10
66.3281612003977
20
-8.05559827996183
30
0
41
1
10
65.986550689227
20
-8.05911649989437
30
0
41
1
10
65.3024002056667
20
-8.05392125745269
30
0
41
1
10
64.9599561051496
20
-8.04497990305813
30
0
41
1
10
64.2744301203241
20
-8.01578101079363
30
0
41
1
10
63.9311211455743
20
-7.99568439583973
30
0
41
1
10
63.2458651967631
20
-7.94429448435071
30
0
41
1
10
62.9038431746482
20
-7.91286271973814
30
0
41
1
10
62.2196081131159
20
-7.83798117449345
30
0
41
1
10
61.8775168712918
20
-7.79445245792022
30
0
41
1
10
61.1934501637817
20
-7.69715222802924
30
0
41
1
10
60.8514742803233
20
-7.64326475890553
30
0
41
1
10
60.1676544377156
20
-7.52433995768308
30
0
41
1
10
59.8259283469995
20
-7.45911837943598
30
0
41
1
10
59.1413345435127
20
-7.31755569637036
30
0
41
1
10
58.7985955374054
20
-7.24145125051183
30
0
41
1
10
58.1123420330796
20
-7.07942169840982
30
0
41
1
10
57.7694497922719
20
-6.99356427899346
30
0
41
1
10
57.084671382855
20
-6.81145520553088
30
0
41
1
10
56.7428475715531
20
-6.71480421629894
30
0
41
1
10
56.0590255939279
20
-6.51235414315838
30
0
41
1
10
55.7170997168318
20
-6.40710202958493
30
0
41
1
10
55.0331194359525
20
-6.18761765663982
30
0
41
1
10
54.6910538127295
20
-6.0733326731015
30
0
41
1
10
54.0067027597617
20
-5.83534174655188
30
0
41
1
10
53.6645184621913
20
-5.71119487083269
30
0
41
1
10
52.9794322795057
20
-5.45561531617216
30
0
41
1
10
52.6362260634209
20
-5.3242443185994
30
0
41
1
10
51.9507127894284
20
-5.05420518127153
30
0
41
1
10
51.6082506957642
20
-4.91556178920874
30
0
41
1
10
50.9238536170283
20
-4.63097359851076
30
0
41
1
10
50.5820190827203
20
-4.48490266387859
30
0
41
1
10
49.8986410426326
20
-4.1870686930927
30
0
41
1
10
49.5568458742594
20
-4.03545633384491
30
0
41
1
10
48.8728148883877
20
-3.72659011078761
30
0
41
1
10
48.5305334292313
20
-3.56918842004475
30
0
41
1
10
47.8455559515103
20
-3.24913641681792
30
0
41
1
10
47.5029462124905
20
-3.08653893725048
30
0
41
1
10
46.8173953175573
20
-2.75601043309933
30
0
41
1
10
46.4748499621366
20
-2.58911724645176
30
0
41
1
10
45.7901068474029
20
-2.25245078508686
30
0
41
1
10
45.4478670584957
20
-2.08257839280904
30
0
41
1
10
44.4217026321462
20
-1.56909257564936
30
0
41
1
10
43.7390210624373
20
-1.22000023279509
30
0
41
1
10
42.7125434503721
20
-0.693976186516068
30
0
41
1
10
42.3700187043117
20
-0.518178500927093
30
0
41
1
10
41.6845035491708
20
-0.165567856978299
30
0
41
1
10
41.3412656627463
20
0.01136156518848
30
0
41
1
10
40.6563422472937
20
0.365169956857955
30
0
41
1
10
40.3143431927004
20
0.54181123309175
30
0
41
1
10
39.6301625550504
20
0.892813231814813
30
0
41
1
10
39.2881482993797
20
1.06757460847115
30
0
41
1
10
38.6042536655768
20
1.41544409605126
30
0
41
1
10
38.2623819829712
20
1.5885868229166
30
0
41
1
10
37.5786661418549
20
1.9327391588314
30
0
41
1
10
37.2368273606324
20
2.10370605029681
30
0
41
1
10
36.209870644796
20
2.61129919070754
30
0
41
1
10
35.5229707969264
20
2.94408376861256
30
0
41
1
10
34.4962748854924
20
3.42683217016361
30
0
41
1
10
34.1545658373424
20
3.58555945626731
30
0
41
1
10
33.470938128233
20
3.897570892755
30
0
41
1
10
33.1291028299049
20
4.0508061851227
30
0
41
1
10
32.4452971220129
20
4.35107977265656
30
0
41
1
10
32.1032955096566
20
4.49791802476605
30
0
41
1
10
31.4190199425684
20
4.78472789759408
30
0
41
1
10
31.0770010618504
20
4.925539519236
30
0
41
1
10
30.3920187224593
20
5.20016259564676
30
0
41
1
10
30.0488646418177
20
5.33394803593157
30
0
41
1
10
29.3636622151057
20
5.59252977303328
30
0
41
1
10
29.0213516499149
20
5.71704771022664
30
0
41
1
10
27.9953118091872
20
6.07868550462416
30
0
41
1
10
27.3129323519194
20
6.30571770262904
30
0
41
1
10
26.2873062841945
20
6.61427537878097
30
0
41
1
10
25.9451717513718
20
6.71172058791683
30
0
41
1
10
25.2606859519966
20
6.89839974474873
30
0
41
1
10
24.9184237592072
20
6.98753503205745
30
0
41
1
10
24.2332317491687
20
7.15588064307906
30
0
41
1
10
23.8904986194992
20
7.23480345493823
30
0
41
1
10
23.2058510643035
20
7.38017077362889
30
0
41
1
10
22.8637402725712
20
7.44714961544133
30
0
41
1
10
21.8381472581706
20
7.63380081925297
30
0
41
1
10
21.1558529213563
20
7.73702950979239
30
0
41
1
10
19.7889190806494
20
7.8973860443098
30
0
41
1
10
19.1044311957849
20
7.95604805541572
30
0
41
1
10
18.4186351590723
20
7.9906493287796
30
0
0
SPLINE
5
A6
100
AcDbEntity
8
1
62
256
6
ByLayer
370
18
48
1
60
0
100
AcDbSpline
70
4
71
3
72
8
73
4
40
0
40
0
40
0
40
0
40
1
40
1
40
1
40
1
41
1
10
94.9675067083225
20
-0.0052616049362655
30
0
41
1
10
94.4338296264456
20
-0.877360063969746
30
0
41
1
10
93.9147160238344
20
-1.76267063674638
30
0
41
1
10
93.4104012656946
20
-2.66140684860665
30
0
0
SPLINE
5
A7
100
AcDbEntity
8
1
62
256
6
ByLayer
370
18
48
1
60
0
100
AcDbSpline
70
4
71
3
72
8
73
4
40
0
40
0
40
0
40
0
40
1
40
1
40
1
40
1
41
1
10
2.2865078540157
20
-0.482127819496725
30
0
41
1
10
2.47815023245121
20
-0.57869179505775
30
0
41
1
10
2.67291973069433
20
-0.671429895957971
30
0
41
1
10
2.87062636110935
20
-0.760313268303264
30
0
0
SPLINE
5
A8
100
AcDbEntity
8
1
62
256
6
ByLayer
370
18
48
1
60
0
100
AcDbSpline
70
4
71
3
72
10
73
6
40
0
40
0
40
0
40
0
40
0.5
40
0.5
40
1
40
1
40
1
40
1
41
1
10
92.4487049213758
20
8.26228778940489
30
0
41
1
10
92.3661838614381
20
8.32439358291893
30
0
41
1
10
92.2868822430125
20
8.37522365210009
30
0
41
1
10
92.1385409891736
20
8.45112109561165
30
0
41
1
10
92.0690304160092
20
8.47660334828734
30
0
41
1
10
92.0039297324721
20
8.48959016740255
30
0
0
SPLINE
5
A9
100
AcDbEntity
8
1
62
256
6
ByLayer
370
18
48
1
60
0
100
AcDbSpline
70
4
71
3
72
14
73
10
40
0
40
0
40
0
40
0
40
0.532968074443715
40
0.532968074443715
40
0.79945211166557
40
0.79945211166557
40
0.932694130276497
40
0.932694130276497
40
1
40
1
40
1
40
1
41
1
10
92.1458591380909
20
-8.06699951450949
30
0
41
1
10
90.2525458990112
20
-8.10936065973073
30
0
41
1
10
88.381052750218
20
-7.97195090385802
30
0
41
1
10
85.5694016082103
20
-7.51617530587706
30
0
41
1
10
84.631287739762
20
-7.32254085746155
30
0
41
1
10
83.2182540060172
20
-6.97254569040928
30
0
41
1
10
82.7462474417897
20
-6.84593337992806
30
0
41
1
10
82.033667930696
20
-6.64082457806015
30
0
41
1
10
81.7940637690726
20
-6.56948180808536
30
0
41
1
10
81.554548430346
20
-6.49587534593928
30
0
0
SPLINE
5
AA
100
AcDbEntity
8
1
62
256
6
ByLayer
370
13
48
1
60
0
100
AcDbSpline
70
4
71
3
72
20
73
16
40
0
40
0
40
0
40
0
40
0.0372303517817627
40
0.0372303517817627
40
0.338166426722931
40
0.338166426722931
40
0.488634464193514
40
0.488634464193514
40
0.563868482928805
40
0.563868482928805
40
0.639102501664095
40
0.639102501664095
40
0.94003857660526
40
0.94003857660526
40
1
40
1
40
1
40
1
41
1
10
81.554549248305
20
-6.49587559730963
30
0
41
1
10
81.3199079389444
20
-6.42376699865656
30
0
41
1
10
81.085351873656
20
-6.34948590040057
30
0
41
1
10
78.9602809688677
20
-5.65712248822106
30
0
41
1
10
77.0911299147189
20
-4.91003284608576
30
0
41
1
10
74.2816762220481
20
-3.65594830349895
30
0
41
1
10
73.3443204948946
20
-3.21560440661571
30
0
41
1
10
71.9323963802393
20
-2.5292119963149
30
0
41
1
10
71.4607542194872
20
-2.29614239029584
30
0
41
1
10
70.5145213036168
20
-1.82315582523611
30
0
41
1
10
70.0391136084033
20
-1.58277698815761
30
0
41
1
10
67.6722007844274
20
-0.376396082740911
30
0
41
1
10
65.7988812718859
20
0.607131200446645
30
0
41
1
10
63.5460558471773
20
1.74895016972417
30
0
41
1
10
63.1715239879322
20
1.93735402795744
30
0
41
1
10
62.7965726226428
20
2.12409640673718
30
0
0
SPLINE
5
AB
100
AcDbEntity
8
1
62
256
6
ByLayer
370
18
48
1
60
0
100
AcDbSpline
70
4
71
3
72
8
73
4
40
0
40
0
40
0
40
0
40
1
40
1
40
1
40
1
41
1
10
18.4186351590723
20
7.9906493287796
30
0
41
1
10
17.8771034409987
20
8.01645523755556
30
0
41
1
10
17.3404737162121
20
8.03025732429217
30
0
41
1
10
16.8071091414893
20
8.02975522297501
30
0
0
SPLINE
5
AC
100
AcDbEntity
8
1
62
256
6
ByLayer
370
18
48
1
60
0
100
AcDbSpline
70
4
71
3
72
10
73
6
40
0
40
0
40
0
40
0
40
0.5
40
0.5
40
1
40
1
40
1
40
1
41
1
10
94.9696467235239
20
-0.232610902568695
30
0
41
1
10
94.9703424811531
20
-0.209770381980604
30
0
41
1
10
94.9738500969139
20
-0.182941375816768
30
0
41
1
10
94.9844113402581
20
-0.125639767677853
30
0
41
1
10
94.9913893059677
20
-0.0955994636890694
30
0
41
1
10
94.9999542424055
20
-0.064266861353758
30
0
0
SPLINE
5
AD
100
AcDbEntity
8
1
62
256
6
ByLayer
370
18
48
1
60
0
100
AcDbSpline
70
4
71
3
72
8
73
4
40
0
40
0
40
0
40
0
40
1
40
1
40
1
40
1
41
1
10
1.44848999903559
20
-0.0216515970792273
30
0
41
1
10
1.72762943110621
20
-0.175857877388779
30
0
41
1
10
2.00695639779639
20
-0.329369856188094
30
0
41
1
10
2.28650785402931
20
-0.482127819503574
30
0
0
SPLINE
5
AE
100
AcDbEntity
8
1
62
256
6
ByLayer
370
18
48
1
60
0
100
AcDbSpline
70
4
71
3
72
54
73
50
40
0
40
0
40
0
40
0
40
0.125000000000003
40
0.125000000000003
40
0.187500000000004
40
0.187500000000004
40
0.218750000000002
40
0.218750000000002
40
0.249999999999999
40
0.249999999999999
40
0.312499999999995
40
0.312499999999995
40
0.343749999999993
40
0.343749999999993
40
0.37499999999999
40
0.37499999999999
40
0.406249999999988
40
0.406249999999988
40
0.421874999999985
40
0.421874999999985
40
0.437499999999982
40
0.437499999999982
40
0.445312499999982
40
0.445312499999982
40
0.453124999999981
40
0.453124999999981
40
0.46874999999998
40
0.46874999999998
40
0.484374999999979
40
0.484374999999979
40
0.499999999999978
40
0.499999999999978
40
0.515624999999977
40
0.515624999999977
40
0.531249999999976
40
0.531249999999976
40
0.562499999999974
40
0.562499999999974
40
0.624999999999976
40
0.624999999999976
40
0.687499999999978
40
0.687499999999978
40
0.74999999999998
40
0.74999999999998
40
0.87499999999999
40
0.87499999999999
40
0.937499999999995
40
0.937499999999995
40
1
40
1
40
1
40
1
41
1
10
92.2949411863708
20
-4.71739017378184
30
0
41
1
10
91.9347973448246
20
-4.60448281748501
30
0
41
1
10
91.5791990563197
20
-4.46250489597617
30
0
41
1
10
91.0527582816027
20
-4.2050475019135
30
0
41
1
10
90.8784583318583
20
-4.11167984241507
30
0
41
1
10
90.6190621571115
20
-3.95849383048665
30
0
41
1
10
90.5329412721989
20
-3.90522857345928
30
0
41
1
10
90.361476540824
20
-3.79372859876168
30
0
41
1
10
90.2759712875686
20
-3.73536717481167
30
0
41
1
10
90.0237187622454
20
-3.55371968657775
30
0
41
1
10
89.8602884729438
20
-3.42365388799195
30
0
41
1
10
89.6254517496644
20
-3.20904444778148
30
0
41
1
10
89.5489109627786
20
-3.13421831980224
30
0
41
1
10
89.4005579550535
20
-2.97561656117102
30
0
41
1
10
89.3281582385484
20
-2.8911839948841
30
0
41
1
10
89.1937804011699
20
-2.7125720552767
30
0
41
1
10
89.131691987935
20
-2.61877717123204
30
0
41
1
10
89.0521617504947
20
-2.46653136690602
30
0
41
1
10
89.028463159739
20
-2.41471722269645
30
0
41
1
10
88.9886085016581
20
-2.30823034829979
30
0
41
1
10
88.972344045273
20
-2.25289128545225
30
0
41
1
10
88.9568427799432
20
-2.17045314376961
30
0
41
1
10
88.9531203894979
20
-2.14301299981139
30
0
41
1
10
88.9489667659112
20
-2.08822209654957
30
0
41
1
10
88.9485668567518
20
-2.0606437940537
30
0
41
1
10
88.9528532112663
20
-1.98079465847457
30
0
41
1
10
88.9628483010134
20
-1.93080584072885
30
0
41
1
10
88.9972116410268
20
-1.83745901719308
30
0
41
1
10
89.0206153894676
20
-1.79653718679125
30
0
41
1
10
89.0771278968363
20
-1.7236646693228
30
0
41
1
10
89.1094125459579
20
-1.69278382134502
30
0
41
1
10
89.1789575209436
20
-1.63937258839707
30
0
41
1
10
89.2165838261999
20
-1.6166411447642
30
0
41
1
10
89.2947140163737
20
-1.57787107343029
30
0
41
1
10
89.3350492863524
20
-1.56186477525822
30
0
41
1
10
89.4588599329689
20
-1.52130690593012
30
0
41
1
10
89.5456135098312
20
-1.50404552273514
30
0
41
1
10
89.8089347702094
20
-1.47163823363704
30
0
41
1
10
89.9881323683345
20
-1.4748610757234
30
0
41
1
10
90.3502612066627
20
-1.50670276939579
30
0
41
1
10
90.5339984255193
20
-1.53626118940275
30
0
41
1
10
90.8991580773022
20
-1.61283839990892
30
0
41
1
10
91.0810414857474
20
-1.65996645699383
30
0
41
1
10
91.6250821583026
20
-1.82178027766352
30
0
41
1
10
91.9856721648333
20
-1.95635884829872
30
0
41
1
10
92.5238347467374
20
-2.19278179809271
30
0
41
1
10
92.7030168939468
20
-2.27765553323465
30
0
41
1
10
93.0590999160464
20
-2.45986366763603
30
0
41
1
10
93.2356579369748
20
-2.55696633697289
30
0
41
1
10
93.4104012656938
20
-2.66140684861
30
0
0
SPLINE
5
AF
100
AcDbEntity
8
1
62
256
6
ByLayer
370
18
48
1
60
0
100
AcDbSpline
70
4
71
3
72
35
73
31
40
0
40
0
40
0
40
0
40
0.0624999999999998
40
0.0624999999999998
40
0.125
40
0.125
40
0.187499999999999
40
0.187499999999999
40
0.249999999999999
40
0.249999999999999
40
0.312499999999999
40
0.312499999999999
40
0.374999999999999
40
0.374999999999999
40
0.437499999999998
40
0.437499999999998
40
0.499999999999998
40
0.499999999999998
40
0.562499999999997
40
0.562499999999997
40
0.624999999999997
40
0.624999999999997
40
0.687499999999996
40
0.687499999999996
40
0.749999999999996
40
0.812499999999995
40
0.812499999999995
40
0.874999999999995
40
0.874999999999995
40
1
40
1
40
1
40
1
41
1
10
93.4104012656932
20
-2.66140684860883
30
0
41
1
10
93.4048659167456
20
-2.71778934422451
30
0
41
1
10
93.3965073148408
20
-2.77808828115286
30
0
41
1
10
93.373692893706
20
-2.90719639899371
30
0
41
1
10
93.3594529556138
20
-2.97460155467476
30
0
41
1
10
93.3260833434932
20
-3.11226855141317
30
0
41
1
10
93.3067605182915
20
-3.18334639963578
30
0
41
1
10
93.2634943070616
20
-3.32762174555001
30
0
41
1
10
93.2400315567318
20
-3.3992992026173
30
0
41
1
10
93.1897814039274
20
-3.54182405970616
30
0
41
1
10
93.1627305611596
20
-3.61328435279026
30
0
41
1
10
93.1070520408073
20
-3.7512887120516
30
0
41
1
10
93.0783812894773
20
-3.81805397448184
30
0
41
1
10
93.0195435674273
20
-3.94743938579452
30
0
41
1
10
92.989249962805
20
-4.01025318189107
30
0
41
1
10
92.9290477849296
20
-4.12829324878834
30
0
41
1
10
92.8989257483562
20
-4.18401415792508
30
0
41
1
10
92.8386636419713
20
-4.28922017731426
30
0
41
1
10
92.8083963623417
20
-4.33886216975833
30
0
41
1
10
92.7494129550311
20
-4.42955668190461
30
0
41
1
10
92.72051215055
20
-4.47095567005988
30
0
41
1
10
92.6638387222623
20
-4.54615767725119
30
0
41
1
10
92.6359038341108
20
-4.58013177959828
30
0
41
1
10
92.5819873785065
20
-4.63940401179019
30
0
41
1
10
92.5302703955902
20
-4.68982051432138
30
0
41
1
10
92.4827540424195
20
-4.72304688384972
30
0
41
1
10
92.4373640436183
20
-4.74738966826143
30
0
41
1
10
92.4157569168574
20
-4.75502940626927
30
0
41
1
10
92.3560357141444
20
-4.76357019874206
30
0
41
1
10
92.3221926074767
20
-4.75086608308939
30
0
41
1
10
92.2949411863708
20
-4.71739017378184
30
0
0
SPLINE
5
B0
100
AcDbEntity
8
1
62
256
6
ByLayer
370
18
48
1
60
0
100
AcDbSpline
70
4
71
3
72
8
73
4
40
0
40
0
40
0
40
0
40
1
40
1
40
1
40
1
41
1
10
92.2949411863708
20
-4.71739017378187
30
0
41
1
10
92.012155682579
20
-5.25675429836215
30
0
41
1
10
91.7345225396651
20
-5.8007926890794
30
0
41
1
10
91.462082412994
20
-6.34954222883007
30
0
0
SPLINE
5
B1
100
AcDbEntity
8
1
62
256
6
ByLayer
370
18
48
1
60
0
100
AcDbSpline
70
4
71
3
72
8
73
4
40
0
40
0
40
0
40
0
40
1
40
1
40
1
40
1
41
1
10
94.9999542424055
20
0.0642668613536728
30
0
41
1
10
95.0000152547519
20
0.0214207265510709
30
0
41
1
10
95.0000152493686
20
-0.0214245069836352
30
0
41
1
10
94.9999542424054
20
-0.0642668613537296
30
0
0
SPLINE
5
B2
100
AcDbEntity
8
1
62
256
6
ByLayer
370
18
48
1
60
0
100
AcDbSpline
70
4
71
3
72
14
73
10
40
0
40
0
40
0
40
0
40
0.25
40
0.25
40
0.5
40
0.5
40
0.75
40
0.75
40
1
40
1
40
1
40
1
41
1
10
91.9788939960928
20
1.88660182791628
30
0
41
1
10
91.9775304541758
20
1.9067354935554
30
0
41
1
10
91.9814713606988
20
1.92719918270217
30
0
41
1
10
92.0011108847149
20
1.96285913907019
30
0
41
1
10
92.0168098917562
20
1.97783549761897
30
0
41
1
10
92.0523454889715
20
1.99907922027188
30
0
41
1
10
92.072446717381
20
2.00594410676825
30
0
41
1
10
92.1129008443578
20
2.01401034353566
30
0
41
1
10
92.133699951492
20
2.01535507664832
30
0
41
1
10
92.154430294219
20
2.014710334982
30
0
0
SPLINE
5
B3
100
AcDbEntity
8
1
62
256
6
ByLayer
370
18
48
1
60
0
100
AcDbSpline
70
4
71
3
72
10
73
6
40
0
40
0
40
0
40
0
40
0.5
40
0.5
40
1
40
1
40
1
40
1
41
1
10
92.4487049213769
20
-8.26228778940404
30
0
41
1
10
92.366183861439
20
-8.32439358291833
30
0
41
1
10
92.2868822430132
20
-8.37522365209969
30
0
41
1
10
92.1385409891739
20
-8.45112109561151
30
0
41
1
10
92.0690304160093
20
-8.47660334828731
30
0
41
1
10
92.0039297324721
20
-8.48959016740255
30
0
0
SPLINE
5
B4
100
AcDbEntity
8
1
62
256
6
ByLayer
370
13
48
1
60
0
100
AcDbSpline
70
4
71
3
72
18
73
14
40
0
40
0
40
0
40
0
40
0.1081433824837
40
0.1081433824837
40
0.400793162204466
40
0.400793162204466
40
0.547118052064849
40
0.547118052064849
40
0.693442941925232
40
0.693442941925232
40
0.986092721645998
40
0.986092721645998
40
1
40
1
40
1
40
1
41
1
10
1.69884546891092
20
7.23417961944361
30
0
41
1
10
1.69886112486381
20
7.28972698412454
30
0
41
1
10
1.6988764579817
20
7.34245040830882
30
0
41
1
10
1.69893220704486
20
7.52743462340266
30
0
41
1
10
1.69897088440845
20
7.64208771133406
30
0
41
1
10
1.69902579407065
20
7.78030309139817
30
0
41
1
10
1.69904361079187
20
7.82086117420039
30
0
41
1
10
1.69907843326595
20
7.89091971903895
30
0
41
1
10
1.69909547859925
20
7.92046064716644
30
0
41
1
10
1.69914514474198
20
7.99164691848247
30
0
41
1
10
1.69917642300749
20
8.01626029690362
30
0
41
1
10
1.69920794127904
20
8.01880398098314
30
0
41
1
10
1.69920936844352
20
8.0188692730982
30
0
41
1
10
1.69921079296665
20
8.01888440949753
30
0
0
SPLINE
5
B5
100
AcDbEntity
8
1
62
256
6
ByLayer
370
18
48
1
60
0
100
AcDbSpline
70
4
71
3
72
8
73
4
40
0
40
0
40
0
40
0
40
1
40
1
40
1
40
1
41
1
10
94.8865856023581
20
-1.93712188639353
30
0
41
1
10
94.9246630618201
20
-1.36842294541464
30
0
41
1
10
94.9523554861489
20
-0.800252343564864
30
0
41
1
10
94.9696467235238
20
-0.232610902568837
30
0
0
SPLINE
5
B6
100
AcDbEntity
8
1
62
256
6
ByLayer
370
18
48
1
60
0
100
AcDbSpline
70
4
71
3
72
54
73
50
40
0
40
0
40
0
40
0
40
0.0283832873990997
40
0.0283832873990997
40
0.0567665747981994
40
0.0567665747981994
40
0.113533149596397
40
0.113533149596397
40
0.227066299192795
40
0.227066299192795
40
0.255449586591893
40
0.255449586591893
40
0.283832873990992
40
0.283832873990992
40
0.312216161390091
40
0.312216161390091
40
0.34059944878919
40
0.34059944878919
40
0.397366023587387
40
0.397366023587387
40
0.425749310986486
40
0.425749310986486
40
0.454132598385585
40
0.454132598385585
40
0.567665747981981
40
0.567665747981981
40
0.624432322780179
40
0.624432322780179
40
0.652815610179279
40
0.652815610179279
40
0.681198897578378
40
0.681198897578378
40
0.737965472376577
40
0.737965472376577
40
0.766348759775677
40
0.766348759775677
40
0.794732047174776
40
0.794732047174776
40
0.851498621972975
40
0.851498621972975
40
0.879881909372074
40
0.879881909372074
40
0.908265196771173
40
0.908265196771173
40
0.96503177156937
40
0.96503177156937
40
0.99341505896847
40
0.99341505896847
40
1
40
1
40
1
40
1
41
1
10
92.0039297324721
20
-8.48959016740255
30
0
41
1
10
91.53185483877
20
-8.50186307099543
30
0
41
1
10
91.0597826394642
20
-8.50244358322499
30
0
41
1
10
90.1148481424197
20
-8.48022640253231
30
0
41
1
10
89.6434528421742
20
-8.45745000418816
30
0
41
1
10
88.2334800998115
20
-8.35498557461261
30
0
41
1
10
87.298082273045
20
-8.24115568778555
30
0
41
1
10
84.4955493291079
20
-7.7696988709628
30
0
41
1
10
82.6317236090013
20
-7.28219087024223
30
0
41
1
10
80.2736334536164
20
-6.48058641586542
30
0
41
1
10
79.8006829945924
20
-6.31062975181942
30
0
41
1
10
78.8572453938616
20
-5.95488156495449
30
0
41
1
10
78.3860042289724
20
-5.76879283896258
30
0
41
1
10
77.4436003983824
20
-5.38141256021154
30
0
41
1
10
76.9724211672308
20
-5.18014405193105
30
0
41
1
10
76.0292326504207
20
-4.763693733368
30
0
41
1
10
75.5569077609522
20
-4.54836474903513
30
0
41
1
10
74.1394404502609
20
-3.88443034854831
30
0
41
1
10
73.1974652380201
20
-3.41930903518244
30
0
41
1
10
71.7836600546261
20
-2.69696590322161
30
0
41
1
10
71.3122286261238
20
-2.45211416594961
30
0
41
1
10
70.3680758959156
20
-1.95593972982257
30
0
41
1
10
69.8949646895817
20
-1.70434332587035
30
0
41
1
10
67.5396337509661
20
-0.441745188302349
30
0
41
1
10
65.6763149061306
20
0.588225754786919
30
0
41
1
10
62.8716583632474
20
2.0864112580966
30
0
41
1
10
61.9350609282298
20
2.57783560116354
30
0
41
1
10
60.5227289816463
20
3.29396860529911
30
0
41
1
10
60.0498727120552
20
3.52950525743563
30
0
41
1
10
59.1052978496717
20
3.9894314788244
30
0
41
1
10
58.633741696792
20
4.21388986870437
30
0
41
1
10
57.2199359113033
20
4.86869763247267
30
0
41
1
10
56.2783768912801
20
5.28021363332627
30
0
41
1
10
54.8624740513931
20
5.8523522315632
30
0
41
1
10
54.3893898121354
20
6.03570087440474
30
0
41
1
10
53.4451058684963
20
6.38449135781875
30
0
41
1
10
52.9736062819181
20
6.55008573401588
30
0
41
1
10
51.5597680932311
20
7.01910446492803
30
0
41
1
10
50.618023140127
20
7.29467960634292
30
0
41
1
10
49.2013747112652
20
7.64686418626783
30
0
41
1
10
48.7282537796545
20
7.75407898608765
30
0
41
1
10
47.7842718942974
20
7.94640478139269
30
0
41
1
10
47.3128530299466
20
8.03164887988902
30
0
41
1
10
45.8990474264496
20
8.25400500260972
30
0
41
1
10
44.9570472099414
20
8.35769860387924
30
0
41
1
10
43.5396414094957
20
8.44399436393266
30
0
41
1
10
43.066698895571
20
8.4611656973801
30
0
41
1
10
42.4853437755482
20
8.46794817524705
30
0
41
1
10
42.3758966704789
20
8.46859933195725
30
0
41
1
10
42.2664726138148
20
8.46862523370069
30
0
0
SPLINE
5
B7
100
AcDbEntity
8
1
62
256
6
ByLayer
370
18
48
1
60
0
100
AcDbSpline
70
4
71
3
72
20
73
16
40
0
40
0
40
0
40
0
40
0.217532494328546
40
0.217532494328546
40
0.435064988657093
40
0.435064988657093
40
0.543831235821366
40
0.543831235821366
40
0.652597482985639
40
0.652597482985639
40
0.761363730149912
40
0.761363730149912
40
0.870129977314186
40
0.870129977314186
40
1
40
1
40
1
40
1
41
1
10
18.4186351590723
20
-7.9906493287794
30
0
41
1
10
19.1044657767868
20
-7.95604631065959
30
0
41
1
10
19.789090932378
20
-7.89737452599206
30
0
41
1
10
21.1564826477693
20
-7.73694698901627
30
0
41
1
10
21.8391042625305
20
-7.63365398271279
30
0
41
1
10
22.8653382925572
20
-7.44684507877125
30
0
41
1
10
23.2076848028019
20
-7.37980553212651
30
0
41
1
10
23.8928562749912
20
-7.23427861371198
30
0
41
1
10
24.2359297742038
20
-7.15524317415023
30
0
41
1
10
24.9206563266862
20
-6.98696091439996
30
0
41
1
10
25.2627499586014
20
-6.89785320541617
30
0
41
1
10
25.9470066460648
20
-6.7112036900547
30
0
41
1
10
26.2890790143096
20
-6.61376028303926
30
0
41
1
10
27.0391748901461
20
-6.38805525326947
30
0
41
1
10
27.4469944194173
20
-6.25759417637155
30
0
41
1
10
27.8550512534211
20
-6.12104731286075
30
0
0
SPLINE
5
B8
100
AcDbEntity
8
1
62
256
6
ByLayer
370
18
48
1
60
0
100
AcDbSpline
70
4
71
3
72
36
73
32
40
0
40
0
40
0
40
0
40
0.036334304019537
40
0.036334304019537
40
0.0930205214301515
40
0.0930205214301515
40
0.149706738840766
40
0.149706738840766
40
0.206392956251381
40
0.206392956251381
40
0.319765391072612
40
0.319765391072612
40
0.376451608483227
40
0.376451608483227
40
0.433137825893842
40
0.433137825893842
40
0.546510260715073
40
0.546510260715073
40
0.659882695536303
40
0.659882695536303
40
0.716568912946919
40
0.716568912946919
40
0.773255130357535
40
0.773255130357535
40
0.829941347768151
40
0.829941347768151
40
0.886627565178768
40
0.886627565178768
40
0.943313782589384
40
0.943313782589384
40
1
40
1
40
1
40
1
41
1
10
66.0126809049516
20
8.05698247929024
30
0
41
1
10
66.2317519587182
20
8.05588756616544
30
0
41
1
10
66.450732501935
20
8.05237718209435
30
0
41
1
10
67.0115195090072
20
8.037646095589
30
0
41
1
10
67.3535142157639
20
8.02332815307452
30
0
41
1
10
68.0378497462929
20
7.98335758261666
30
0
41
1
10
68.380178383831
20
7.9573303874684
30
0
41
1
10
69.0652358299142
20
7.892831094868
30
0
41
1
10
69.4081742129341
20
7.85446936250429
30
0
41
1
10
70.4360681970545
20
7.7231281525832
30
0
41
1
10
71.1208785892238
20
7.61449145642905
30
0
41
1
10
72.1468668228537
20
7.41764358179313
30
0
41
1
10
72.4887106244806
20
7.34679976421387
30
0
41
1
10
73.1722676322059
20
7.19553040510485
30
0
41
1
10
73.5143407669175
20
7.1154531581592
30
0
41
1
10
74.5414114573123
20
6.85714124163877
30
0
41
1
10
75.2283308091453
20
6.66165399660264
30
0
41
1
10
76.5976374609074
20
6.23381518220177
30
0
41
1
10
77.2818286584006
20
6.00267713659878
30
0
41
1
10
78.3083249083136
20
5.63401897298439
30
0
41
1
10
78.65044811541
20
5.50735644167307
30
0
41
1
10
79.3345528191671
20
5.24464235265245
30
0
41
1
10
79.6766284129818
20
5.10871955552773
30
0
41
1
10
80.3619639325298
20
4.82975761563955
30
0
41
1
10
80.7053662808923
20
4.68645337956758
30
0
41
1
10
81.3913183769744
20
4.39352655483899
30
0
41
1
10
81.7338387843829
20
4.24389733559335
30
0
41
1
10
82.4180301385566
20
3.93841622912635
30
0
41
1
10
82.7596719818624
20
3.78248895022793
30
0
41
1
10
83.443398037616
20
3.46684581931674
30
0
41
1
10
83.78533667946
20
3.30698312079969
30
0
41
1
10
84.1272768966585
20
3.14475680862913
30
0
0
SPLINE
5
B9
100
AcDbEntity
8
1
62
256
6
ByLayer
370
18
48
1
60
0
100
AcDbSpline
70
4
71
3
72
102
73
98
40
0
40
0
40
0
40
0
40
0.0159565290457734
40
0.0159565290457734
40
0.0349524044125405
40
0.0349524044125405
40
0.0539482797793077
40
0.0539482797793077
40
0.0729441551460748
40
0.0729441551460748
40
0.0919400305128419
40
0.0919400305128419
40
0.110935905879609
40
0.110935905879609
40
0.148927656613143
40
0.148927656613143
40
0.16792353197991
40
0.16792353197991
40
0.186919407346677
40
0.186919407346677
40
0.205915282713445
40
0.205915282713445
40
0.224911158080212
40
0.224911158080212
40
0.262902908813746
40
0.262902908813746
40
0.281898784180513
40
0.281898784180513
40
0.300894659547281
40
0.300894659547281
40
0.319890534914048
40
0.319890534914048
40
0.338886410280815
40
0.338886410280815
40
0.357882285647583
40
0.357882285647583
40
0.37687816101435
40
0.37687816101435
40
0.395874036381117
40
0.395874036381117
40
0.414869911747885
40
0.414869911747885
40
0.433865787114652
40
0.433865787114652
40
0.452861662481419
40
0.452861662481419
40
0.471857537848187
40
0.471857537848187
40
0.490853413214954
40
0.490853413214954
40
0.528845163948488
40
0.528845163948488
40
0.547841039315256
40
0.547841039315256
40
0.566836914682023
40
0.566836914682023
40
0.58583279004879
40
0.58583279004879
40
0.604828665415557
40
0.604828665415557
40
0.623824540782324
40
0.623824540782324
40
0.642820416149091
40
0.642820416149091
40
0.680812166882626
40
0.680812166882626
40
0.699808042249393
40
0.699808042249393
40
0.71880391761616
40
0.71880391761616
40
0.737799792982927
40
0.737799792982927
40
0.756795668349694
40
0.756795668349694
40
0.775791543716461
40
0.775791543716461
40
0.794787419083229
40
0.794787419083229
40
0.832779169816763
40
0.832779169816763
40
0.851775045183531
40
0.851775045183531
40
0.870770920550298
40
0.870770920550298
40
0.889766795917066
40
0.889766795917066
40
0.908762671283833
40
0.908762671283833
40
0.9277585466506
40
0.9277585466506
40
0.946754422017368
40
0.946754422017368
40
0.965750297384135
40
0.965750297384135
40
0.984746172750903
40
0.984746172750903
40
1
40
1
40
1
40
1
41
1
10
27.8541480691622
20
6.11272818304062
30
0
41
1
10
28.17869386509
20
6.23500812173327
30
0
41
1
10
28.503541698285
20
6.35386031090667
30
0
41
1
10
29.2178307605064
20
6.60393571291817
30
0
41
1
10
29.6080931374823
20
6.73394107928922
30
0
41
1
10
30.3854241705317
20
6.98062283519809
30
0
41
1
10
30.7729745056125
20
7.09740056753196
30
0
41
1
10
31.5452593854585
20
7.31839332971873
30
0
41
1
10
31.9306462466957
20
7.42189807715374
30
0
41
1
10
32.701372004205
20
7.61394388770759
30
0
41
1
10
33.086411240559
20
7.70278980467549
30
0
41
1
10
33.8554238147004
20
7.86657517966614
30
0
41
1
10
34.239253524375
20
7.94160015271328
30
0
41
1
10
35.3894769823278
20
8.145212300282
30
0
41
1
10
36.1582576491028
20
8.25042340680525
30
0
41
1
10
37.3119653963866
20
8.36406874807182
30
0
41
1
10
37.6961995047052
20
8.39460993623661
30
0
41
1
10
38.4665938723295
20
8.44002698002211
30
0
41
1
10
38.852932672567
20
8.45493658433668
30
0
41
1
10
39.6274004253427
20
8.46928324010204
30
0
41
1
10
40.0155210403535
20
8.46871899842256
30
0
41
1
10
40.7932084467608
20
8.45171532165162
30
0
41
1
10
41.1815754435297
20
8.43515017128459
30
0
41
1
10
42.3441092829109
20
8.36254460438934
30
0
41
1
10
43.11696573807
20
8.2838981382952
30
0
41
1
10
44.2701533802509
20
8.12016486166021
30
0
41
1
10
44.6538129606298
20
8.05797557162833
30
0
41
1
10
45.4220266225463
20
7.91994710576876
30
0
41
1
10
45.8061950605778
20
7.84392664886818
30
0
41
1
10
46.5741696391772
20
7.6776072433538
30
0
41
1
10
46.957972128555
20
7.58730140909762
30
0
41
1
10
47.724929798207
20
7.39186013353768
30
0
41
1
10
48.1090321309605
20
7.28754606262095
30
0
41
1
10
48.8788356701913
20
7.06626313737888
30
0
41
1
10
49.2643720027727
20
6.94914339460553
30
0
41
1
10
50.03636552188
20
6.70140853116058
30
0
41
1
10
50.4224892378583
20
6.57036519940695
30
0
41
1
10
51.196779216739
20
6.29568630330292
30
0
41
1
10
51.5860247313396
20
6.15247927933527
30
0
41
1
10
52.364251156863
20
5.85535014268879
30
0
41
1
10
52.7523148478963
20
5.70172536916107
30
0
41
1
10
53.5260403183509
20
5.38397124733962
30
0
41
1
10
53.9112688438565
20
5.2191647904792
30
0
41
1
10
54.6817011965468
20
4.8826326632915
30
0
41
1
10
55.0667642881564
20
4.71073025966396
30
0
41
1
10
55.8360289465779
20
4.35891142780224
30
0
41
1
10
56.2202708444727
20
4.17905850063764
30
0
41
1
10
56.9874795053944
20
3.81059856327064
30
0
41
1
10
57.3703981950179
20
3.62187635016406
30
0
41
1
10
58.5216877759235
20
3.05005608966528
30
0
41
1
10
59.2909526709167
20
2.65873667967861
30
0
41
1
10
60.4446590989167
20
2.05115752169956
30
0
41
1
10
60.8298659754271
20
1.84638353338084
30
0
41
1
10
61.6029019587252
20
1.43489914281071
30
0
41
1
10
61.9904383100778
20
1.22765031209636
30
0
41
1
10
62.7671575529514
20
0.809285510550467
30
0
41
1
10
63.1566213836783
20
0.597547272163524
30
0
41
1
10
63.9316423992096
20
0.17418835616175
30
0
41
1
10
64.3186819546827
20
-0.036199029524596
30
0
41
1
10
65.0915288877949
20
-0.455103395525271
30
0
41
1
10
65.4772751387563
20
-0.663737913322109
30
0
41
1
10
66.2471145477559
20
-1.07996318368609
30
0
41
1
10
66.6307496477114
20
-1.28840141302703
30
0
41
1
10
67.7820295523927
20
-1.90675362295642
30
0
41
1
10
68.5503265181598
20
-2.30933872026247
30
0
41
1
10
69.7012442577555
20
-2.90370955071214
30
0
41
1
10
70.0843471025432
20
-3.10071049567438
30
0
41
1
10
70.8528389706592
20
-3.48652949463266
30
0
41
1
10
71.2379156373464
20
-3.67591697990525
30
0
41
1
10
72.0091519001088
20
-4.04864880563164
30
0
41
1
10
72.3953772100544
20
-4.23188139892497
30
0
41
1
10
73.168483858692
20
-4.59290023087459
30
0
41
1
10
73.5556945736518
20
-4.77011794622325
30
0
41
1
10
74.3337055931284
20
-5.11420738677043
30
0
41
1
10
74.7226050125769
20
-5.28104136230289
30
0
41
1
10
75.4974372513801
20
-5.60419706223362
30
0
41
1
10
75.8837014467259
20
-5.76072705574299
30
0
41
1
10
77.0388821753708
20
-6.21524427369997
30
0
41
1
10
77.8084289712475
20
-6.49251755113957
30
0
41
1
10
78.9601077454923
20
-6.873281568761
30
0
41
1
10
79.3431610204486
20
-6.99471187918243
30
0
41
1
10
80.1095827481407
20
-7.22427769855983
30
0
41
1
10
80.4933576425351
20
-7.33204307895829
30
0
41
1
10
81.2615954118321
20
-7.534154460076
30
0
41
1
10
81.6460227232644
20
-7.62853078461873
30
0
41
1
10
82.4151807411139
20
-7.80401480468748
30
0
41
1
10
82.7994821015337
20
-7.88539227782059
30
0
41
1
10
83.5707935794311
20
-8.0328406241222
30
0
41
1
10
83.9576549562811
20
-8.09908877789866
30
0
41
1
10
84.7332297745152
20
-8.21695326465661
30
0
41
1
10
85.1227097158626
20
-8.26862208351906
30
0
41
1
10
85.8991954448949
20
-8.35663849041759
30
0
41
1
10
86.2859558758267
20
-8.39290947406505
30
0
41
1
10
87.0595060622815
20
-8.44932606861019
30
0
41
1
10
87.4458956419209
20
-8.46965842823607
30
0
41
1
10
88.1413949855601
20
-8.49241074001986
30
0
41
1
10
88.450763076532
20
-8.49756655449568
30
0
41
1
10
88.7596070495702
20
-8.49769560868998
30
0
0
SPLINE
5
BA
100
AcDbEntity
8
1
62
256
6
ByLayer
370
18
48
1
60
0
100
AcDbSpline
70
4
71
3
72
10
73
6
40
0
40
0
40
0
40
0
40
0.5
40
0.5
40
1
40
1
40
1
40
1
41
1
10
94.9696467235238
20
0.232610902568894
30
0
41
1
10
94.970342481153
20
0.209770381980775
30
0
41
1
10
94.9738500969137
20
0.182941375816881
30
0
41
1
10
94.984411340258
20
0.125639767677853
30
0
41
1
10
94.9913893059677
20
0.0955994636889841
30
0
41
1
10
94.9999542424055
20
0.0642668613536159
30
0
0
SPLINE
5
BB
100
AcDbEntity
8
1
62
256
6
ByLayer
370
18
48
1
60
0
100
AcDbSpline
70
4
71
3
72
12
73
8
40
0
40
0
40
0
40
0
40
0.249999999999993
40
0.249999999999993
40
0.499999999999985
40
0.499999999999985
40
1
40
1
40
1
40
1
41
1
10
92.154430294219
20
2.01471033498197
30
0
41
1
10
92.3821714435083
20
2.00762727755168
30
0
41
1
10
92.6098537645241
20
2.00113436750564
30
0
41
1
10
93.065261026772
20
1.98772099434052
30
0
41
1
10
93.2929709473503
20
1.9809512138601
30
0
41
1
10
93.9760735182698
20
1.96091464242801
30
0
41
1
10
94.4314260096006
20
1.94805071448027
30
0
41
1
10
94.8865856023664
20
1.93712188639304
30
0
0
SPLINE
5
BC
100
AcDbEntity
8
1
62
256
6
ByLayer
370
18
48
1
60
0
100
AcDbSpline
70
4
71
3
72
8
73
4
40
0
40
0
40
0
40
0
40
1
40
1
40
1
40
1
41
1
10
94.9999542424055
20
0.0642668613535591
30
0
41
1
10
94.990858369629
20
0.038841400440873
30
0
41
1
10
94.979305381593
20
0.0140189771371979
30
0
41
1
10
94.9675067083225
20
-0.0052616049362371
30
0
0
SPLINE
5
BD
100
AcDbEntity
8
1
62
256
6
ByLayer
370
18
48
1
60
0
100
AcDbSpline
70
4
71
3
72
8
73
4
40
0
40
0
40
0
40
0
40
1
40
1
40
1
40
1
41
1
10
94.8865856023581
20
1.93712188639353
30
0
41
1
10
94.92466685599
20
1.36836627828379
30
0
41
1
10
94.9523572096568
20
0.800195763777253
30
0
41
1
10
94.9696467235238
20
0.232610902568894
30
0
0
SPLINE
5
BE
100
AcDbEntity
8
1
62
256
6
ByLayer
370
18
48
1
60
0
100
AcDbSpline
70
4
71
3
72
38
73
34
40
0
40
0
40
0
40
0
40
0.10846577907877
40
0.10846577907877
40
0.162698668618154
40
0.162698668618154
40
0.216931558157538
40
0.216931558157538
40
0.271164447696923
40
0.271164447696923
40
0.325397337236307
40
0.325397337236307
40
0.433863116315075
40
0.433863116315075
40
0.48809600585446
40
0.48809600585446
40
0.542328895393845
40
0.542328895393845
40
0.59656178493323
40
0.59656178493323
40
0.650794674472615
40
0.650794674472615
40
0.705027564012
40
0.705027564012
40
0.759260453551385
40
0.759260453551385
40
0.867726232630155
40
0.867726232630155
40
0.92195912216954
40
0.92195912216954
40
0.976192011708925
40
0.976192011708925
40
1
40
1
40
1
40
1
41
1
10
18.4186351590722
20
-1.70075741309324
30
0
41
1
10
19.1959143897384
20
-2.11764816673244
30
0
41
1
10
19.9716362564228
20
-2.5197525951244
30
0
41
1
10
21.1297928282532
20
-3.10801221815876
30
0
41
1
10
21.5145539880599
20
-3.30224280709433
30
0
41
1
10
22.2832988959336
20
-3.68373564399801
30
0
41
1
10
22.6677997194186
20
-3.87013173991892
30
0
41
1
10
23.4366615294747
20
-4.23507920661439
30
0
41
1
10
23.8209762512394
20
-4.41370577912502
30
0
41
1
10
24.5890612029015
20
-4.76372129540584
30
0
41
1
10
24.9723756220017
20
-4.93578890222173
30
0
41
1
10
26.1248508066717
20
-5.43577909494999
30
0
41
1
10
26.8961837558576
20
-5.74834628156808
30
0
41
1
10
28.0549870160446
20
-6.18956092258719
30
0
41
1
10
28.4414294668126
20
-6.33211457507389
30
0
41
1
10
29.2178307605064
20
-6.6039357129182
30
0
41
1
10
29.6080931374823
20
-6.73394107928922
30
0
41
1
10
30.3854241705317
20
-6.98062283519809
30
0
41
1
10
30.7729745056125
20
-7.09740056753196
30
0
41
1
10
31.5452593854585
20
-7.31839332971876
30
0
41
1
10
31.9306462466957
20
-7.42189807715374
30
0
41
1
10
32.701372004205
20
-7.61394388770759
30
0
41
1
10
33.086411240559
20
-7.70278980467549
30
0
41
1
10
33.8554238147005
20
-7.86657517966614
30
0
41
1
10
34.239253524375
20
-7.94160015271331
30
0
41
1
10
35.3894769823278
20
-8.145212300282
30
0
41
1
10
36.1582576491028
20
-8.25042340680525
30
0
41
1
10
37.3119653963866
20
-8.36406874807184
30
0
41
1
10
37.6961995047052
20
-8.39460993623661
30
0
41
1
10
38.4665938723295
20
-8.44002698002211
30
0
41
1
10
38.852932672567
20
-8.45493658433668
30
0
41
1
10
39.4101604340908
20
-8.46525897006399
30
0
41
1
10
39.5803252087889
20
-8.46691686710869
30
0
41
1
10
39.7506470279196
20
-8.46706668068683
30
0
0
SPLINE
5
BF
100
AcDbEntity
8
1
62
256
6
ByLayer
370
18
48
1
60
0
100
AcDbSpline
70
4
71
3
72
32
73
28
40
0
40
0
40
0
40
0
40
0.111574026880181
40
0.111574026880181
40
0.185609524640166
40
0.185609524640166
40
0.259645022400151
40
0.259645022400151
40
0.333680520160136
40
0.333680520160136
40
0.40771601792012
40
0.40771601792012
40
0.481751515680106
40
0.481751515680106
40
0.55578701344009
40
0.55578701344009
40
0.629822511200075
40
0.629822511200075
40
0.70385800896006
40
0.70385800896006
40
0.777893506720045
40
0.777893506720045
40
0.85192900448003
40
0.85192900448003
40
0.925964502240015
40
0.925964502240015
40
1
40
1
40
1
40
1
41
1
10
76.8381039452161
20
6.13163771424706
30
0
41
1
10
77.4181354456998
20
6.35050701928265
30
0
41
1
10
77.9976750553487
20
6.55508543110145
30
0
41
1
10
78.9601077454922
20
6.873281568761
30
0
41
1
10
79.3431610204486
20
6.99471187918246
30
0
41
1
10
80.1095827481407
20
7.22427769855989
30
0
41
1
10
80.4933576425351
20
7.33204307895829
30
0
41
1
10
81.261595411832
20
7.534154460076
30
0
41
1
10
81.6460227232645
20
7.62853078461876
30
0
41
1
10
82.415180741114
20
7.80401480468751
30
0
41
1
10
82.7994821015338
20
7.88539227782061
30
0
41
1
10
83.5707935794312
20
8.0328406241222
30
0
41
1
10
83.9576549562811
20
8.09908877789866
30
0
41
1
10
84.7332297745153
20
8.21695326465664
30
0
41
1
10
85.1227097158627
20
8.26862208351906
30
0
41
1
10
85.899195444895
20
8.35663849041759
30
0
41
1
10
86.2859558758267
20
8.39290947406505
30
0
41
1
10
87.0595060622815
20
8.44932606861019
30
0
41
1
10
87.4458956419209
20
8.46965842823607
30
0
41
1
10
88.217383733226
20
8.4948966081875
30
0
41
1
10
88.6025272910731
20
8.49979664274574
30
0
41
1
10
89.3710846091199
20
8.4939679739588
30
0
41
1
10
89.7552834202745
20
8.48322509653252
30
0
41
1
10
90.5246012784139
20
8.44648747327525
30
0
41
1
10
90.9094599614313
20
8.42048309858021
30
0
41
1
10
91.6791693655755
20
8.3530765012587
30
0
41
1
10
92.0638085227591
20
8.31157938771497
30
0
41
1
10
92.448704921379
20
8.26228778940254
30
0
0
SPLINE
5
C0
100
AcDbEntity
8
1
62
256
6
ByLayer
370
18
48
1
60
0
100
AcDbSpline
70
4
71
3
72
40
73
36
40
0
40
0
40
0
40
0
40
0.0312500000000002
40
0.0312500000000002
40
0.0625000000000003
40
0.0625000000000003
40
0.125000000000001
40
0.125000000000001
40
0.140625000000001
40
0.140625000000001
40
0.14453125
40
0.14453125
40
0.1484375
40
0.1484375
40
0.152343749999999
40
0.152343749999999
40
0.156249999999999
40
0.156249999999999
40
0.171874999999999
40
0.171874999999999
40
0.187499999999999
40
0.187499999999999
40
0.249999999999999
40
0.249999999999999
40
0.374999999999999
40
0.374999999999999
40
0.5
40
0.5
40
0.625
40
0.625
40
0.75
40
0.75
40
0.875
40
0.875
40
1
40
1
40
1
40
1
41
1
10
2.28650785402957
20
-0.482127819503063
30
0
41
1
10
2.36714373787751
20
-0.32000308983973
30
0
41
1
10
2.46147245843679
20
-0.165936008072038
30
0
41
1
10
2.67232081641748
20
0.129120680510624
30
0
41
1
10
2.78951491340581
20
0.270560120227259
30
0
41
1
10
3.1592684524889
20
0.668278398609516
30
0
41
1
10
3.4321025005913
20
0.902606440979895
30
0
41
1
10
3.79480479949058
20
1.1703556055173
30
0
41
1
10
3.86846170609212
20
1.22260776687764
30
0
41
1
10
3.96182006034022
20
1.28642964651684
30
0
41
1
10
3.98042057989755
20
1.29953667371024
30
0
41
1
10
4.02108605681497
20
1.32072460420713
30
0
41
1
10
4.04232840576154
20
1.32844718858459
30
0
41
1
10
4.08581539170928
20
1.34073145659525
30
0
41
1
10
4.1081646686323
20
1.34516606693293
30
0
41
1
10
4.15350304190781
20
1.35114608064242
30
0
41
1
10
4.17623216640044
20
1.35237754103048
30
0
41
1
10
4.28994430397506
20
1.35658385837797
30
0
41
1
10
4.38094833864201
20
1.35894178004776
30
0
41
1
10
4.56296399150716
20
1.36343502603555
30
0
41
1
10
4.65399636682702
20
1.3652156643966
30
0
41
1
10
5.10911253282586
20
1.37180151973575
30
0
41
1
10
5.4730410345297
20
1.3696656224455
30
0
41
1
10
6.56434527079094
20
1.34157627453641
30
0
41
1
10
7.29211471584745
20
1.29374736185323
30
0
41
1
10
8.73293855573633
20
1.14364714753015
30
0
41
1
10
9.44762085213381
20
1.04132163910103
30
0
41
1
10
10.8662488939737
20
0.785235613454091
30
0
41
1
10
11.5701627352858
20
0.631321747639419
30
0
41
1
10
12.9680808004299
20
0.275551984108517
30
0
41
1
10
13.6620837910381
20
0.0736883847661431
30
0
41
1
10
15.0414008675919
20
-0.372677741628962
30
0
41
1
10
15.7271773086278
20
-0.617424883915078
30
0
41
1
10
17.082409639862
20
-1.13781653094827
30
0
41
1
10
17.7530982477771
20
-1.41386443462011
30
0
41
1
10
18.4186351590722
20
-1.70075741309324
30
0
0
SPLINE
5
C1
100
AcDbEntity
8
1
62
256
6
ByLayer
370
18
48
1
60
0
100
AcDbSpline
70
4
71
3
72
8
73
4
40
0
40
0
40
0
40
0
40
1
40
1
40
1
40
1
41
1
10
92.1371833974283
20
-8.16094906543424
30
0
41
1
10
92.0928626529795
20
-8.2707013231867
30
0
41
1
10
92.0484420238946
20
-8.38024701819955
30
0
41
1
10
92.0039297324721
20
-8.48959016740255
30
0
0
SPLINE
5
C2
100
AcDbEntity
8
1
62
256
6
ByLayer
370
18
48
1
60
0
100
AcDbSpline
70
4
71
3
72
12
73
8
40
0
40
0
40
0
40
0
40
0.249999999999991
40
0.249999999999991
40
0.499999999999982
40
0.499999999999982
40
1
40
1
40
1
40
1
41
1
10
1.57941001692095
20
7.26530326747303
30
0
41
1
10
1.55955023241268
20
7.27077365251034
30
0
41
1
10
1.54157232447531
20
7.27745043779351
30
0
41
1
10
1.50927637058595
20
7.29309239207751
30
0
41
1
10
1.49515466349291
20
7.30203311888476
30
0
41
1
10
1.46093715351978
20
7.33072178155862
30
0
41
1
10
1.4484899990355
20
7.35276566804697
30
0
41
1
10
1.4484899990355
20
7.37476004008121
30
0
0
SPLINE
5
C3
100
AcDbEntity
8
1
62
256
6
ByLayer
370
18
48
1
60
0
100
AcDbSpline
70
4
71
3
72
14
73
10
40
0
40
0
40
0
40
0
40
0.25
40
0.25
40
0.5
40
0.5
40
0.75
40
0.75
40
1
40
1
40
1
40
1
41
1
10
92.4487049213689
20
8.26228778943073
30
0
41
1
10
92.6369965738605
20
7.731443274578
30
0
41
1
10
92.8297125071226
20
7.20130791108124
30
0
41
1
10
93.2228143544434
20
6.14251141781924
30
0
41
1
10
93.4232248183212
20
5.61385365417954
30
0
41
1
10
93.8310313771469
20
4.55807215493928
30
0
41
1
10
94.0385802819715
20
4.03061792039134
30
0
41
1
10
94.4586877402407
20
2.98084512429477
30
0
41
1
10
94.6713878099486
20
2.45807180478818
30
0
41
1
10
94.8865856023594
20
1.93712188639009
30
0
0
SPLINE
5
C4
100
AcDbEntity
8
1
62
256
6
ByLayer
370
18
48
1
60
0
100
AcDbSpline
70
4
71
3
72
38
73
34
40
0
40
0
40
0
40
0
40
0.0625000000000002
40
0.0625000000000002
40
0.0937500000000003
40
0.0937500000000003
40
0.125
40
0.125
40
0.187500000000002
40
0.187500000000002
40
0.218750000000002
40
0.218750000000002
40
0.250000000000003
40
0.250000000000003
40
0.375000000000008
40
0.375000000000008
40
0.406250000000008
40
0.406250000000008
40
0.437500000000009
40
0.437500000000009
40
0.500000000000009
40
0.500000000000009
40
0.625000000000007
40
0.625000000000007
40
0.656250000000008
40
0.656250000000008
40
0.687500000000008
40
0.687500000000008
40
0.750000000000005
40
0.750000000000005
40
0.875000000000002
40
0.875000000000002
40
1
40
1
40
1
40
1
41
1
10
84.1272768966587
20
3.14475680862856
30
0
41
1
10
84.1003757140937
20
2.88925117967676
30
0
41
1
10
84.0927570682695
20
2.6275964529581
30
0
41
1
10
84.1111361985361
20
2.22560903853514
30
0
41
1
10
84.1223416212954
20
2.08930735647547
30
0
41
1
10
84.1544281575297
20
1.81766234713618
30
0
41
1
10
84.1752351969803
20
1.68236462164768
30
0
41
1
10
84.2511662445405
20
1.27795970502723
30
0
41
1
10
84.319752977958
20
1.01033557373765
30
0
41
1
10
84.4474632052883
20
0.611634674723604
30
0
41
1
10
84.494315119977
20
0.478854687317067
30
0
41
1
10
84.5954930758891
20
0.215691706854102
30
0
41
1
10
84.6494628930717
20
0.0861642292874762
30
0
41
1
10
84.9347061382102
20
-0.552120510905326
30
0
41
1
10
85.2113853507207
20
-1.03329170679376
30
0
41
1
10
85.6030961942142
20
-1.60689256799546
30
0
41
1
10
85.6836421092185
20
-1.71997257660536
30
0
41
1
10
85.8474565649044
20
-1.94124931444128
30
0
41
1
10
85.930918561008
20
-2.04973226586625
30
0
41
1
10
86.1855867020278
20
-2.36924465546622
30
0
41
1
10
86.3610587944991
20
-2.57436009461151
30
0
41
1
10
86.9022444184755
20
-3.16923126552774
30
0
41
1
10
87.2828109857809
20
-3.5383958301135
30
0
41
1
10
87.7796364119547
20
-3.97057616396597
30
0
41
1
10
87.8801438364179
20
-4.0556434191011
30
0
41
1
10
88.0818720140951
20
-4.2220226421197
30
0
41
1
10
88.1832349420483
20
-4.30346438906483
30
0
41
1
10
88.4887336046406
20
-4.54284960614888
30
0
41
1
10
88.69427603449
20
-4.69586420716342
30
0
41
1
10
89.3159849014633
20
-5.13710285249687
30
0
41
1
10
89.7372071272364
20
-5.4076120994772
30
0
41
1
10
90.5912172529233
20
-5.90810604075068
30
0
41
1
10
91.0240010400927
20
-6.13810514554282
30
0
41
1
10
91.4620824129941
20
-6.34954222883005
30
0
0
SPLINE
5
C5
100
AcDbEntity
8
1
62
256
6
ByLayer
370
18
48
1
60
0
100
AcDbSpline
70
4
71
3
72
48
73
44
40
0
40
0
40
0
40
0
40
0.0312500000000012
40
0.0312500000000012
40
0.0468750000000017
40
0.0468750000000017
40
0.0625000000000022
40
0.0625000000000022
40
0.0781250000000027
40
0.0781250000000027
40
0.0937500000000033
40
0.0937500000000033
40
0.125000000000004
40
0.125000000000004
40
0.140625000000005
40
0.140625000000005
40
0.156250000000005
40
0.156250000000005
40
0.187500000000005
40
0.187500000000005
40
0.218750000000006
40
0.218750000000006
40
0.250000000000007
40
0.250000000000007
40
0.312500000000007
40
0.312500000000007
40
0.375000000000007
40
0.375000000000007
40
0.437500000000008
40
0.437500000000008
40
0.468750000000008
40
0.468750000000008
40
0.500000000000007
40
0.500000000000007
40
0.562500000000007
40
0.562500000000007
40
0.625000000000007
40
0.625000000000007
40
0.750000000000005
40
0.750000000000005
40
0.875000000000002
40
0.875000000000002
40
1
40
1
40
1
40
1
41
1
10
2.87062636110935
20
-0.760313268303264
30
0
41
1
10
2.78939954043474
20
-0.968884841979531
30
0
41
1
10
2.73611132324879
20
-1.18225294613123
30
0
41
1
10
2.70116308062205
20
-1.50984229337482
30
0
41
1
10
2.69716566003478
20
-1.62068596592593
30
0
41
1
10
2.70429906069188
20
-1.83795810007163
30
0
41
1
10
2.71527100931291
20
-1.94523601532018
30
0
41
1
10
2.75083912216706
20
-2.15725071451226
30
0
41
1
10
2.77559153627618
20
-2.26249272008801
30
0
41
1
10
2.83703467258948
20
-2.4682103739016
30
0
41
1
10
2.87338659741954
20
-2.56791013066075
30
0
41
1
10
2.99671064952528
20
-2.85893672506066
30
0
41
1
10
3.09780502031867
20
-3.04226772647459
30
0
41
1
10
3.27067726162977
20
-3.30500437208371
30
0
41
1
10
3.33165610899377
20
-3.3901413509185
30
0
41
1
10
3.45809597874393
20
-3.55460819282527
30
0
41
1
10
3.52374295081586
20
-3.63421838106947
30
0
41
1
10
3.72686506237142
20
-3.86630233483544
30
0
41
1
10
3.87046885798708
20
-4.01208340448753
30
0
41
1
10
4.17003381831344
20
-4.28985782404766
30
0
41
1
10
4.32602364339999
20
-4.4218217201188
30
0
41
1
10
4.64781739323246
20
-4.6745415720026
30
0
41
1
10
4.81216364224153
20
-4.79414141115171
30
0
41
1
10
5.31219349527743
20
-5.13613357632272
30
0
41
1
10
5.65523345506321
20
-5.34230550701977
30
0
41
1
10
6.35387763151334
20
-5.72409522052195
30
0
41
1
10
6.70952925516198
20
-5.89967948316524
30
0
41
1
10
7.43014571068341
20
-6.22615726607631
30
0
41
1
10
7.79525631251255
20
-6.37657888364606
30
0
41
1
10
8.34860972295036
20
-6.58579172486037
30
0
41
1
10
8.53401306696384
20
-6.65279441026613
30
0
41
1
10
8.90654814410053
20
-6.78170389679789
30
0
41
1
10
9.09371093197919
20
-6.84361295033557
30
0
41
1
10
9.6548102923
20
-7.02127914348625
30
0
41
1
10
10.0293126923827
20
-7.12950906962985
30
0
41
1
10
10.7790240177425
20
-7.32562634824333
30
0
41
1
10
11.1542376138386
20
-7.41362077058545
30
0
41
1
10
12.2812931679622
20
-7.65068981016708
30
0
41
1
10
13.0344268078927
20
-7.7733690816959
30
0
41
1
10
14.5489443611957
20
-7.94657323669657
30
0
41
1
10
15.3103914120971
20
-7.99962860619974
30
0
41
1
10
16.8497294087075
20
-8.0402633326529
30
0
41
1
10
17.6276734041705
20
-8.02834146427404
30
0
41
1
10
18.4186351590723
20
-7.9906493287794
30
0
0
SPLINE
5
C6
100
AcDbEntity
8
1
62
256
6
ByLayer
370
18
48
1
60
0
100
AcDbSpline
70
4
71
3
72
18
73
14
40
0
40
0
40
0
40
0
40
0.25
40
0.25
40
0.375
40
0.375
40
0.5
40
0.5
40
0.75
40
0.75
40
0.875
40
0.875
40
1
40
1
40
1
40
1
41
1
10
91.4620824129941
20
-6.34954222883005
30
0
41
1
10
91.4607922837246
20
-6.64772968952511
30
0
41
1
10
91.4735817294478
20
-6.90885814856921
30
0
41
1
10
91.5145289795265
20
-7.24597067911631
30
0
41
1
10
91.5318340136932
20
-7.34919106112531
30
0
41
1
10
91.5742296773688
20
-7.5368349399796
30
0
41
1
10
91.59908747364
20
-7.62010971407764
30
0
41
1
10
91.6842425710624
20
-7.8379277174401
30
0
41
1
10
91.755199089682
20
-7.94145754481764
30
0
41
1
10
91.8846702905562
20
-8.03541580309732
30
0
41
1
10
91.9318836091227
20
-8.05646731325149
30
0
41
1
10
92.033479189234
20
-8.07737948004743
30
0
41
1
10
92.087828788935
20
-8.07734133623234
30
0
41
1
10
92.1458591378272
20
-8.06699951450673
30
0
0
SPLINE
5
C7
100
AcDbEntity
8
1
62
256
6
ByLayer
370
18
48
1
60
0
100
AcDbSpline
70
4
71
3
72
46
73
42
40
0
40
0
40
0
40
0
40
0.0920201151344591
40
0.0920201151344591
40
0.152691370858477
40
0.152691370858477
40
0.213362626582496
40
0.213362626582496
40
0.334705138030532
40
0.334705138030532
40
0.39537639375455
40
0.39537639375455
40
0.456047649478569
40
0.456047649478569
40
0.516718905202587
40
0.516718905202587
40
0.547054533064596
40
0.547054533064596
40
0.5622223469956
40
0.5622223469956
40
0.566014300478351
40
0.566014300478351
40
0.569806253961102
40
0.569806253961102
40
0.573598207443854
40
0.573598207443854
40
0.577390160926605
40
0.577390160926605
40
0.638061416650623
40
0.638061416650623
40
0.698732672374642
40
0.698732672374642
40
0.820075183822679
40
0.820075183822679
40
0.880746439546697
40
0.880746439546697
40
0.911082067408706
40
0.911082067408706
40
0.941417695270716
40
0.941417695270716
40
1
40
1
40
1
40
1
41
1
10
18.4186351590722
20
-1.69543238207956
30
0
41
1
10
18.4186351590722
20
-1.5799927605797
30
0
41
1
10
18.4186351590723
20
-1.48933457092144
30
0
41
1
10
18.4186351590722
20
-1.37879897692864
30
0
41
1
10
18.4186351590723
20
-1.34536201128265
30
0
41
1
10
18.4186351590723
20
-1.29975093458924
30
0
41
1
10
18.4186351590722
20
-1.28782681979158
30
0
41
1
10
18.4186351590722
20
-1.28294290537153
30
0
41
1
10
18.4186351590722
20
-1.32070161788144
30
0
41
1
10
18.4186351590722
20
-1.43554636738367
30
0
41
1
10
18.4186351590722
20
-1.4835745586289
30
0
41
1
10
18.4186351590722
20
-1.59907501442592
30
0
41
1
10
18.4186351590723
20
-1.66671119550281
30
0
41
1
10
18.4186351590723
20
-1.82091539362406
30
0
41
1
10
18.4186351590722
20
-1.90722776581552
30
0
41
1
10
18.4186351590722
20
-2.05029080748741
30
0
41
1
10
18.4186351590722
20
-2.10026074027223
30
0
41
1
10
18.4186351590722
20
-2.17856225759357
30
0
41
1
10
18.4186351590722
20
-2.20521258874402
30
0
41
1
10
18.4186351590722
20
-2.23921057389984
30
0
41
1
10
18.4186351590722
20
-2.24559624783419
30
0
41
1
10
18.4186351590722
20
-2.2604838064089
30
0
41
1
10
18.4186351590722
20
-2.26995134985222
30
0
41
1
10
18.4186351590722
20
-2.29176443999242
30
0
41
1
10
18.4186351590722
20
-2.30419269298031
30
0
41
1
10
18.4186351590722
20
-2.33235711803823
30
0
41
1
10
18.4186351590722
20
-2.34770597101038
30
0
41
1
10
18.4186351590722
20
-2.61184102794798
30
0
41
1
10
18.4186351590723
20
-2.86477482207445
30
0
41
1
10
18.4186351590723
20
-3.37948431824808
30
0
41
1
10
18.4186351590722
20
-3.64175696395404
30
0
41
1
10
18.4186351590722
20
-4.43405837692725
30
0
41
1
10
18.4186351590722
20
-4.97173548086286
30
0
41
1
10
18.4186351590722
20
-5.79306927868333
30
0
41
1
10
18.4186351590723
20
-6.06932881848783
30
0
41
1
10
18.4186351590723
20
-6.48764340068882
30
0
41
1
10
18.4186351590722
20
-6.62794328135331
30
0
41
1
10
18.4186351590722
20
-6.9075481201929
30
0
41
1
10
18.4186351590722
20
-7.04710142112415
30
0
41
1
10
18.4186351590722
20
-7.4554199857435
30
0
41
1
10
18.4186351590723
20
-7.723511206387
30
0
41
1
10
18.4186351590723
20
-7.9906493287794
30
0
0
SPLINE
5
C8
100
AcDbEntity
8
1
62
256
6
ByLayer
370
18
48
1
60
0
100
AcDbSpline
70
4
71
3
72
16
73
12
40
0
40
0
40
0
40
0
40
0.226692614709434
40
0.226692614709434
40
0.341648125033237
40
0.341648125033237
40
0.45660363535704
40
0.45660363535704
40
0.68651465600465
40
0.68651465600465
40
1
40
1
40
1
40
1
41
1
10
66.7586390997011
20
-0.0088047768551576
30
0
41
1
10
67.6857644342084
20
-0.493742188172973
30
0
41
1
10
68.6148264050361
20
-0.979680390675668
30
0
41
1
10
70.0226307912574
20
-1.70443620676682
30
0
41
1
10
70.4983129352157
20
-1.94723503366251
30
0
41
1
10
71.4449079530607
20
-2.4245916635619
30
0
41
1
10
71.9167146423118
20
-2.65964831893817
30
0
41
1
10
73.3290830136694
20
-3.35143246173769
30
0
41
1
10
74.2666799486971
20
-3.79460349128294
30
0
41
1
10
76.4807426825806
20
-4.78742686721776
30
0
41
1
10
77.7562583383873
20
-5.31747463302008
30
0
41
1
10
79.0383810613642
20
-5.79140048349529
30
0
0
SPLINE
5
C9
100
AcDbEntity
8
1
62
256
6
ByLayer
370
13
48
1
60
0
100
AcDbSpline
70
4
71
3
72
16
73
12
40
0
40
0
40
0
40
0
40
0.137278926546433
40
0.137278926546433
40
0.245119060728128
40
0.245119060728128
40
0.352959194909824
40
0.352959194909824
40
0.568639463273214
40
0.568639463273214
40
1
40
1
40
1
40
1
41
1
10
79.0383810630338
20
-5.79140048411242
30
0
41
1
10
79.6368830607626
20
-6.01263169947981
30
0
41
1
10
80.2368247874383
20
-6.22163353319684
30
0
41
1
10
81.312147182197
20
-6.5705459439686
30
0
41
1
10
81.7876990253692
20
-6.71590340359799
30
0
41
1
10
82.7349153744983
20
-6.98648948222399
30
0
41
1
10
83.2070740925362
20
-7.11192080429836
30
0
41
1
10
84.6205012487903
20
-7.45778757852221
30
0
41
1
10
85.558821824067
20
-7.64786158211999
30
0
41
1
10
88.3710620128357
20
-8.09090860406454
30
0
41
1
10
90.2430027996403
20
-8.21706608833992
30
0
41
1
10
92.1371833973351
20
-8.16094906538783
30
0
0
SPLINE
5
CA
100
AcDbEntity
8
1
62
256
6
ByLayer
370
18
48
1
60
0
100
AcDbSpline
70
4
71
3
72
16
73
12
40
0
40
0
40
0
40
0
40
0.112733882908514
40
0.112733882908514
40
0.685718050263995
40
0.685718050263995
40
0.828964092102864
40
0.828964092102864
40
0.972210133941733
40
0.972210133941733
40
1
40
1
40
1
40
1
41
1
10
42.3936163110243
20
-8.04342691721044
30
0
41
1
10
42.0248545498747
20
-8.04241482913213
30
0
41
1
10
41.6562844356694
20
-8.03465951682588
30
0
41
1
10
39.4143993665272
20
-7.94656390069275
30
0
41
1
10
37.5411045281108
20
-7.69918613376177
30
0
41
1
10
35.1676788490466
20
-7.18000630311107
30
0
41
1
10
34.6935571394976
20
-7.06619721276306
30
0
41
1
10
33.7488428731068
20
-6.8203745911442
30
0
41
1
10
33.2777717599305
20
-6.68823307223764
30
0
41
1
10
32.7162958788642
20
-6.52010650593871
30
0
41
1
10
32.6250987897132
20
-6.49246401417639
30
0
41
1
10
32.5339302375905
20
-6.46450015396525
30
0
0
SPLINE
5
CB
100
AcDbEntity
8
1
62
256
6
ByLayer
370
13
48
1
60
0
100
AcDbSpline
70
4
71
3
72
24
73
20
40
0
40
0
40
0
40
0
40
0.134364735018035
40
0.134364735018035
40
0.43196120144998
40
0.43196120144998
40
0.469160759753973
40
0.469160759753973
40
0.506360318057965
40
0.506360318057965
40
0.580759434665951
40
0.580759434665951
40
0.729557667881923
40
0.729557667881923
40
0.878355901097895
40
0.878355901097895
40
0.952755017705879
40
0.952755017705879
40
1
40
1
40
1
40
1
41
1
10
32.5339302374115
20
-6.46450015391036
30
0
41
1
10
31.685221338989
20
-6.20417818495048
30
0
41
1
10
30.83898550904
20
-5.91600586759159
30
0
41
1
10
28.1191177649045
20
-4.91033020678063
30
0
41
1
10
26.2463792993837
20
-4.09629897428562
30
0
41
1
10
24.1117465255293
20
-3.08764875160659
30
0
41
1
10
23.8740164874341
20
-2.97422508823968
30
0
41
1
10
23.3997022664661
20
-2.74590859210224
30
0
41
1
10
23.1628923974033
20
-2.63091324043776
30
0
41
1
10
22.4533462877863
20
-2.2837251651938
30
0
41
1
10
21.9814904251881
20
-2.04933679630091
30
0
41
1
10
20.5680528951934
20
-1.34011868522759
30
0
41
1
10
19.6287172298408
20
-0.859012745134038
30
0
41
1
10
17.7496151691635
20
0.107258683951386
30
0
41
1
10
16.8098812387572
20
0.592489883119725
30
0
41
1
10
15.3951816275651
20
1.31393480718165
30
0
41
1
10
14.9227435967206
20
1.5533072233371
30
0
41
1
10
14.1482698391781
20
1.94167634575075
30
0
41
1
10
13.8466329326032
20
2.09193049602092
30
0
41
1
10
13.5451661473838
20
2.24082540226578
30
0
0
SPLINE
5
CC
100
AcDbEntity
8
1
62
256
6
ByLayer
370
18
48
1
60
0
100
AcDbSpline
70
4
71
3
72
14
73
10
40
0
40
0
40
0
40
0
40
0.25
40
0.25
40
0.5
40
0.5
40
0.75
40
0.75
40
1
40
1
40
1
40
1
41
1
10
92.4487049213726
20
-8.26228778942038
30
0
41
1
10
92.637417042685
20
-7.73025786053463
30
0
41
1
10
92.8303349588977
20
-7.19960716585905
30
0
41
1
10
93.2234733003064
20
-6.14076087359695
30
0
41
1
10
93.4237174663812
20
-5.61257290241801
30
0
41
1
10
93.8308738735934
20
-4.55848524634885
30
0
41
1
10
94.0378000757545
20
-4.0325901186379
30
0
41
1
10
94.4578335312572
20
-2.98295712274114
30
0
41
1
10
94.6710177215871
20
-2.45896771315066
30
0
41
1
10
94.8865856023594
20
-1.9371218863902
30
0
0
SPLINE
5
CD
100
AcDbEntity
8
1
62
256
6
ByLayer
370
18
48
1
60
0
100
AcDbSpline
70
4
71
3
72
48
73
44
40
0
40
0
40
0
40
0
40
0.125000000000008
40
0.125000000000008
40
0.187500000000012
40
0.187500000000012
40
0.250000000000016
40
0.250000000000016
40
0.375000000000023
40
0.375000000000023
40
0.500000000000031
40
0.500000000000031
40
0.562500000000032
40
0.562500000000032
40
0.59375000000003
40
0.59375000000003
40
0.625000000000028
40
0.625000000000028
40
0.750000000000023
40
0.750000000000023
40
0.812500000000024
40
0.812500000000024
40
0.843750000000027
40
0.843750000000027
40
0.859375000000028
40
0.859375000000028
40
0.863281250000026
40
0.863281250000026
40
0.867187500000024
40
0.867187500000024
40
0.875000000000024
40
0.875000000000024
40
0.878906250000023
40
0.878906250000023
40
0.882812500000023
40
0.882812500000023
40
0.890625000000021
40
0.890625000000021
40
0.906250000000018
40
0.906250000000018
40
0.937500000000012
40
0.937500000000012
40
1
40
1
40
1
40
1
41
1
10
84.1272768966588
20
3.14475680862893
30
0
41
1
10
84.4638522064747
20
2.83652114786261
30
0
41
1
10
84.8104431366681
20
2.5482155638251
30
0
41
1
10
85.3452248268246
20
2.14539732571313
30
0
41
1
10
85.5259736206248
20
2.01607590782291
30
0
41
1
10
85.8926580146563
20
1.76775429491735
30
0
41
1
10
86.0792963492949
20
1.64859021119645
30
0
41
1
10
86.642843034195
20
1.3102504684
30
0
41
1
10
87.0215235556392
20
1.11096788289089
30
0
41
1
10
87.7848761335197
20
0.765186886547355
30
0
41
1
10
88.1695372511791
20
0.618592107368357
30
0
41
1
10
88.7514992824734
20
0.442487728636252
30
0
41
1
10
88.9463131519142
20
0.391067788021559
30
0
41
1
10
89.2399891249034
20
0.326757611223456
30
0
41
1
10
89.3381174480219
20
0.307402922368027
30
0
41
1
10
89.534860352598
20
0.272977379293451
30
0
41
1
10
89.6336724519314
20
0.257897106607317
30
0
41
1
10
90.1256441276568
20
0.194268368494193
30
0
41
1
10
90.5136537115292
20
0.180162059829371
30
0
41
1
10
91.0857109959727
20
0.224807900853278
30
0
41
1
10
91.274805798579
20
0.250846169368231
30
0
41
1
10
91.5526550182057
20
0.308016076183634
30
0
41
1
10
91.6444397895292
20
0.330112298583401
30
0
41
1
10
91.7804760160835
20
0.367999621658129
30
0
41
1
10
91.8255460092244
20
0.381418073740463
30
0
41
1
10
91.8815175628769
20
0.399199995123183
30
0
41
1
10
91.8926501363795
20
0.402902968934001
30
0
41
1
10
91.9139274324858
20
0.412654480298812
30
0
41
1
10
91.9240176593874
20
0.418964587355845
30
0
41
1
10
91.9507572028034
20
0.442455425564219
30
0
41
1
10
91.9645243623937
20
0.465195573665625
30
0
41
1
10
91.9710511792884
20
0.506654991079188
30
0
41
1
10
91.9719433013023
20
0.52103690077746
30
0
41
1
10
91.9742456911911
20
0.549557915745652
30
0
41
1
10
91.9755721729608
20
0.563757179661678
30
0
41
1
10
91.9791397541704
20
0.606497557414286
30
0
41
1
10
91.9813420189913
20
0.635051384880512
30
0
41
1
10
91.9874339422813
20
0.720888977632711
30
0
41
1
10
91.9908072040934
20
0.778327438834197
30
0
41
1
10
91.9989664248434
20
0.95116116630453
30
0
41
1
10
92.0017973350927
20
1.06711123707925
30
0
41
1
10
92.0032373071743
20
1.41692861398931
30
0
41
1
10
91.9948098382326
20
1.65159310539306
30
0
41
1
10
91.9788939960927
20
1.88660182791625
30
0
0
SPLINE
5
CE
100
AcDbEntity
8
1
62
256
6
ByLayer
370
18
48
1
60
0
100
AcDbSpline
70
4
71
3
72
8
73
4
40
0
40
0
40
0
40
0
40
1
40
1
40
1
40
1
41
1
10
92.0039297324721
20
8.48959016740255
30
0
41
1
10
91.7490317954484
20
8.49621695024751
30
0
41
1
10
91.4939909987267
20
8.49943224873942
30
0
41
1
10
91.2389513960898
20
8.49924015617754
30
0
0
SPLINE
5
CF
100
AcDbEntity
8
1
62
256
6
ByLayer
370
18
48
1
60
0
100
AcDbSpline
70
4
71
3
72
52
73
48
40
0
40
0
40
0
40
0
40
0.0080287970236434
40
0.0080287970236434
40
0.0390278971166545
40
0.0390278971166545
40
0.0700269972096653
40
0.0700269972096653
40
0.132025197395688
40
0.132025197395688
40
0.163024297488699
40
0.163024297488699
40
0.194023397581711
40
0.194023397581711
40
0.256021597767733
40
0.256021597767733
40
0.287020697860743
40
0.287020697860743
40
0.318019797953754
40
0.318019797953754
40
0.380017998139775
40
0.380017998139775
40
0.411017098232786
40
0.411017098232786
40
0.442016198325797
40
0.442016198325797
40
0.50401439851182
40
0.50401439851182
40
0.535013498604831
40
0.535013498604831
40
0.566012598697843
40
0.566012598697843
40
0.628010798883865
40
0.628010798883865
40
0.690008999069888
40
0.690008999069888
40
0.75200719925591
40
0.75200719925591
40
0.783006299348921
40
0.783006299348921
40
0.814005399441932
40
0.814005399441932
40
0.876003599627955
40
0.876003599627955
40
0.938001799813977
40
0.938001799813977
40
1
40
1
40
1
40
1
41
1
10
47.2011926279052
20
-8.04705927519512
30
0
41
1
10
47.0791290676923
20
-8.06771523853766
30
0
41
1
10
46.9570684125646
20
-8.08763093015298
30
0
41
1
10
46.3637098724241
20
-8.18082112708544
30
0
41
1
10
45.8923251396545
20
-8.24373106216927
30
0
41
1
10
44.9485338464111
20
-8.34688032810161
30
0
41
1
10
44.4756461827101
20
-8.38715411865036
30
0
41
1
10
43.0579290507495
20
-8.47302530471521
30
0
41
1
10
42.1157285133714
20
-8.4837133995745
30
0
41
1
10
40.7016125398367
20
-8.43026381549336
30
0
41
1
10
40.2301031626078
20
-8.40086829339862
30
0
41
1
10
39.2859238760873
20
-8.3190050144612
30
0
41
1
10
38.8126944030589
20
-8.2664518880953
30
0
41
1
10
37.3954797715663
20
-8.07517183740543
30
0
41
1
10
36.4533647618928
20
-7.90288777070089
30
0
41
1
10
35.0389594468023
20
-7.58100073145818
30
0
41
1
10
34.5672574343803
20
-7.46315482364136
30
0
41
1
10
33.6226124739623
20
-7.20691262175933
30
0
41
1
10
33.1493012839953
20
-7.06838102939639
30
0
41
1
10
31.7325453196237
20
-6.62525983630488
30
0
41
1
10
30.7904684722813
20
-6.29259138743862
30
0
41
1
10
29.3756864022745
20
-5.74433304682805
30
0
41
1
10
28.9037979524328
20
-5.55339748609529
30
0
41
1
10
27.9586622835702
20
-5.1561205496856
30
0
41
1
10
27.4854664679147
20
-4.94979194808704
30
0
41
1
10
26.0691387735675
20
-4.31284390066173
30
0
41
1
10
25.1270512194511
20
-3.86326193240856
30
0
41
1
10
23.7118012122478
20
-3.16022307227053
30
0
41
1
10
23.2397326582268
20
-2.92104204327072
30
0
41
1
10
22.2940928929034
20
-2.4344315232035
30
0
41
1
10
21.8212223657336
20
-2.18739636466523
30
0
41
1
10
20.4051978109915
20
-1.4399518404997
30
0
41
1
10
19.4630675752039
20
-0.932116332061611
30
0
41
1
10
17.5755303770151
20
0.0896712159359652
30
0
41
1
10
16.6284328067349
20
0.604651803126956
30
0
41
1
10
14.7407291349689
20
1.6185136087561
30
0
41
1
10
13.7984964936244
20
2.11834812359697
30
0
41
1
10
12.3822800666708
20
2.84787356324384
30
0
41
1
10
11.9092241298914
20
3.08797994662606
30
0
41
1
10
10.9636958153969
20
3.55872999205386
30
0
41
1
10
10.4924277553542
20
3.78875347771191
30
0
41
1
10
9.08172294456597
20
4.46073107152915
30
0
41
1
10
8.14553894399373
20
4.88483334549269
30
0
41
1
10
6.27443930112548
20
5.67476881905077
30
0
41
1
10
5.33983414781295
20
6.04105770373394
30
0
41
1
10
3.46525827046406
20
6.70606240388975
30
0
41
1
10
2.52524416656422
20
7.00477289878543
30
0
41
1
10
1.57941001691802
20
7.26530326747383
30
0
0
SPLINE
5
D0
100
AcDbEntity
8
1
62
256
6
ByLayer
370
18
48
1
60
0
100
AcDbSpline
70
4
71
3
72
20
73
16
40
0
40
0
40
0
40
0
40
0.0670054901982339
40
0.0670054901982339
40
0.278713194972943
40
0.278713194972943
40
0.384567047360299
40
0.384567047360299
40
0.437493973553978
40
0.437493973553978
40
0.490420899747657
40
0.490420899747657
40
0.913836309297087
40
0.913836309297087
40
1
40
1
40
1
40
1
41
1
10
17.7579810485421
20
-0.0082212682029308
30
0
41
1
10
18.0555964558743
20
-0.163313978078463
30
0
41
1
10
18.3530900443995
20
-0.318346868385248
30
0
41
1
10
19.5904586420784
20
-0.962119244307871
30
0
41
1
10
20.5301395658535
20
-1.44856521774571
30
0
41
1
10
21.9442019527882
20
-2.16492478583967
30
0
41
1
10
22.4162842268325
20
-2.40154775081302
30
0
41
1
10
23.1262046018717
20
-2.75187236399404
30
0
41
1
10
23.3631446545696
20
-2.8678780016341
30
0
41
1
10
23.8377388556496
20
-3.09813071870417
30
0
41
1
10
24.0756151830352
20
-3.21247763630521
30
0
41
1
10
26.2113511941395
20
-4.22890790880146
30
0
41
1
10
28.0845735350019
20
-5.04676243690488
30
0
41
1
10
30.3404533942906
20
-5.88150842711917
30
0
41
1
10
30.7219356085066
20
-6.01752670940795
30
0
41
1
10
31.1036735499441
20
-6.14812084868129
30
0
0
SPLINE
5
D1
100
AcDbEntity
8
1
62
256
6
ByLayer
370
13
48
1
60
0
100
AcDbSpline
70
4
71
3
72
16
73
12
40
0
40
0
40
0
40
0
40
0.123826541695427
40
0.123826541695427
40
0.228232287881116
40
0.228232287881116
40
0.332638034066805
40
0.332638034066805
40
0.750261018809563
40
0.750261018809563
40
1
40
1
40
1
40
1
41
1
10
31.1036735502048
20
-6.1481208487705
30
0
41
1
10
31.65988131119
20
-6.33840183977728
30
0
41
1
10
32.216631972866
20
-6.51716754909214
30
0
41
1
10
33.2450433177092
20
-6.82374416660181
30
0
41
1
10
33.7163375241819
20
-6.95513873734578
30
0
41
1
10
34.6615471349956
20
-7.19909301982364
30
0
41
1
10
35.1360050641392
20
-7.31178943816477
30
0
41
1
10
37.5106440408374
20
-7.82428563013966
30
0
41
1
10
39.384407172904
20
-8.06328729168695
30
0
41
1
10
42.3789086658139
20
-8.16371538225695
30
0
41
1
10
43.4995012449996
20
-8.13829271947313
30
0
41
1
10
44.6256547739072
20
-8.04952082709903
30
0
0
LINE
5
76
100
AcDbEntity
8
81
62
256
6
ByLayer
370
18
48
1
60
0
100
AcDbLine
10
95
20
0
30
0
11
100
21
0
31
0
39
0
210
0
220
0
230
1
0
LINE
5
77
100
AcDbEntity
8
1
62
256
6
ByLayer
370
18
48
1
60
0
100
AcDbLine
10
1.44849
20
8.443125
30
0
11
0.333541
21
8.442428
31
0
39
0
210
0
220
0
230
1
0
LINE
5
79
100
AcDbEntity
8
1
62
256
6
ByLayer
370
18
48
1
60
0
100
AcDbLine
10
42.24155
20
8.468621
30
0
11
39.756879
21
8.467068
31
0
39
0
210
0
220
0
230
1
0
LINE
5
7A
100
AcDbEntity
8
1
62
256
6
ByLayer
370
18
48
1
60
0
100
AcDbLine
10
91.242482
20
8.499246
30
0
11
88.753895
21
8.497691
31
0
39
0
210
0
220
0
230
1
0
LINE
5
7B
100
AcDbEntity
8
1
62
256
6
ByLayer
370
18
48
1
60
0
100
AcDbLine
10
88.753895
20
-8.497691
30
0
11
91.242441
21
-8.499246
31
0
39
0
210
0
220
0
230
1
0
LINE
5
7C
100
AcDbEntity
8
1
62
256
6
ByLayer
370
18
48
1
60
0
100
AcDbLine
10
39.756879
20
-8.467068
30
0
11
42.240972
21
-8.46862
31
0
39
0
210
0
220
0
230
1
0
LINE
5
7D
100
AcDbEntity
8
1
62
256
6
ByLayer
370
18
48
1
60
0
100
AcDbLine
10
0.333541
20
-8.442428
30
0
11
1.44849
21
-8.443125
31
0
39
0
210
0
220
0
230
1
0
LINE
5
7E
100
AcDbEntity
8
SK1
62
256
6
ByLayer
370
18
48
1
60
0
100
AcDbLine
10
0
20
9
30
0
11
-45.401924
21
9
31
0
39
0
210
0
220
0
230
1
0
LINE
5
80
100
AcDbEntity
8
SK1
62
256
6
ByLayer
370
18
48
1
60
0
100
AcDbLine
10
-45.401924
20
-9
30
0
11
0
21
-9
31
0
39
0
210
0
220
0
230
1
0
LINE
5
81
100
AcDbEntity
8
SK1
62
256
6
ByLayer
370
18
48
1
60
0
100
AcDbLine
10
-45.401924
20
9
30
0
11
-45.969478
21
8.016967
31
0
39
0
210
0
220
0
230
1
0
LINE
5
82
100
AcDbEntity
8
SK1
62
256
6
ByLayer
370
18
48
1
60
0
100
AcDbLine
10
-45.969478
20
-8.016967
30
0
11
-45.401924
21
-9
31
0
39
0
210
0
220
0
230
1
0
LINE
5
83
100
AcDbEntity
8
SK4
62
256
6
ByLayer
370
18
48
0.05
60
0
100
AcDbLine
10
100
20
0
30
0
11
-53
21
0
31
0
39
0
210
0
220
0
230
1
0
LINE
5
85
100
AcDbEntity
8
4
62
256
6
ByLayer
370
18
48
0.05
60
0
100
AcDbLine
10
95
20
0
30
0
11
0
21
0
31
0
39
0
210
0
220
0
230
1
0
LINE
5
87
100
AcDbEntity
8
80
62
256
6
ByLayer
370
18
48
1
60
0
100
AcDbLine
10
0
20
0
30
0
11
-5
21
0
31
0
39
0
210
0
220
0
230
1
0
LINE
5
88
100
AcDbEntity
8
SK1
62
256
6
ByLayer
370
13
48
1
60
0
100
AcDbLine
10
-45.6
20
-7.891457
30
0
11
-45.6
21
-8.655739
31
0
39
0
210
0
220
0
230
1
0
LINE
5
89
100
AcDbEntity
8
SK1
62
256
6
ByLayer
370
18
48
1
60
0
100
AcDbLine
10
-45.401924
20
9
30
0
11
-45.401924
21
-9
31
0
39
0
210
0
220
0
230
1
0
LINE
5
8A
100
AcDbEntity
8
SK1
62
256
6
ByLayer
370
18
48
1
60
0
100
AcDbLine
10
-48
20
4.427824
30
0
11
-48
21
-3.522768
31
0
39
0
210
0
220
0
230
1
0
LINE
5
8B
100
AcDbEntity
8
SK1
62
256
6
ByLayer
370
18
48
1
60
0
100
AcDbLine
10
-45.5
20
-8.825573
30
0
11
-45.5
21
-8.105153
31
0
39
0
210
0
220
0
230
1
0
LINE
5
8C
100
AcDbEntity
8
SK1
62
256
6
ByLayer
370
18
48
1
60
0
100
AcDbLine
10
-48
20
-3.537766
30
0
11
-48
21
-4.427824
31
0
39
0
210
0
220
0
230
1
0
LINE
5
8D
100
AcDbEntity
8
SK1
62
256
6
ByLayer
370
18
48
1
60
0
100
AcDbLine
10
0
20
9
30
0
11
0
21
-9
31
0
39
0
210
0
220
0
230
1
0
LINE
5
8E
100
AcDbEntity
8
1
62
256
6
ByLayer
370
13
48
1
60
0
100
AcDbLine
10
92.15443
20
2.01471
30
0
11
94.969647
21
0.232611
31
0
39
0
210
0
220
0
230
1
0
LINE
5
8F
100
AcDbEntity
8
1
62
256
6
ByLayer
370
18
48
1
60
0
100
AcDbLine
10
1.44849
20
-8.443125
30
0
11
1.44849
21
-0.021652
31
0
39
0
210
0
220
0
230
1
0
LINE
5
90
100
AcDbEntity
8
1
62
256
6
ByLayer
370
13
48
1
60
0
100
AcDbLine
10
0.333541
20
8.442428
30
0
11
0.333541
21
-8.442428
31
0
39
0
210
0
220
0
230
1
0
LINE
5
91
100
AcDbEntity
8
1
62
256
6
ByLayer
370
13
48
1
60
0
100
AcDbLine
10
91.978894
20
1.886602
30
0
11
94.967507
21
-0.005262
31
0
39
0
210
0
220
0
230
1
0
LINE
5
92
100
AcDbEntity
8
1
62
256
6
ByLayer
370
18
48
1
60
0
100
AcDbLine
10
1.44849
20
8.443125
30
0
11
1.44849
21
7.37476
31
0
39
0
210
0
220
0
230
1
0
MTEXT
5
D2
100
AcDbEntity
8
SK6
62
256
6
ByLayer
370
13
48
1
60
0
100
AcDbMText
10
25.629169
20
40.882694
30
0
210
0
220
0
230
1
1
\W0.7431;460.1-1700-077A1-XM GC34
40
3.5
41
0
44
1.084337
50
0
71
8
72
5
7
iso_b_vert
0
DIMENSION
5
DF
100
AcDbEntity
8
SK2
62
256
6
ByLayer
370
13
48
1
60
0
100
AcDbDimension
2
DimnDraft3D1
10
92.4611
20
-18.713398
30
0
11
44.211159
21
-18.713398
31
0
70
32
71
5
72
1
41
1
210
0
220
0
230
1
3
Standard
100
AcDbAlignedDimension
13
0
23
-1.5875
33
0
14
92.4611
24
-10.0875
34
0
50
0
100
AcDbRotatedDimension
1001
ACAD
1000
DSTYLE
1002
{
1070
   279
1070
     0
1070
   172
1070
     1
1070
   173
1070
     1
1070
   340
1005
D3
1070
   271
1070
     2
1070
   272
1070
     2
1070
    77
1070
     1
1070
    73
1070
     0
1070
   171
1070
     3
1070
   274
1070
     4
1070
   177
1070
    35
1070
   176
1070
    35
1070
   178
1070
    35
1070
    48
1040
-0.005
1070
    41
1041
3.5
1070
   147
1041
1.75
1070
    42
1041
1.5875
1070
    44
1041
2.0
1070
   140
1041
3.5
1070
   343
1005
0
1070
   344
1005
0
1002
}
0
DIMENSION
5
E9
100
AcDbEntity
8
SK2
62
256
6
ByLayer
370
13
48
1
60
0
100
AcDbDimension
2
DimnDraft3D2
10
95
20
-37.692985
30
0
11
22.3024
21
-37.692985
31
0
70
32
71
5
72
1
41
1
210
0
220
0
230
1
3
Standard
100
AcDbAlignedDimension
13
-48
23
-10.5875
33
0
14
95
24
-1.5875
34
0
50
0
100
AcDbRotatedDimension
1001
ACAD
1000
DSTYLE
1002
{
1070
   279
1070
     0
1070
   172
1070
     1
1070
   173
1070
     1
1070
   340
1005
D3
1070
   271
1070
     2
1070
   272
1070
     2
1070
    77
1070
     1
1070
    73
1070
     0
1070
   171
1070
     3
1070
   274
1070
     4
1070
   177
1070
    35
1070
   176
1070
    35
1070
   178
1070
    35
1070
    48
1040
-0.005
1070
    41
1041
3.5
1070
   147
1041
1.75
1070
    42
1041
1.5875
1070
    44
1041
2.0
1070
   140
1041
3.5
1070
   343
1005
0
1070
   344
1005
0
1002
}
0
DIMENSION
5
F3
100
AcDbEntity
8
SK2
62
256
6
ByLayer
370
13
48
1
60
0
100
AcDbDimension
2
DimnDraft3D3
10
95
20
20.109119
30
0
11
57
21
20.109119
31
0
70
32
71
5
72
1
41
1
210
0
220
0
230
1
3
Standard
100
AcDbAlignedDimension
13
19
23
10.0875
33
0
14
95
24
1.5875
34
0
50
0
100
AcDbRotatedDimension
1001
ACAD
1000
DSTYLE
1002
{
1070
   279
1070
     0
1070
   172
1070
     1
1070
   173
1070
     1
1070
   340
1005
D3
1070
   271
1070
     2
1070
   272
1070
     2
1070
    77
1070
     1
1070
    73
1070
     0
1070
   171
1070
     3
1070
   274
1070
     4
1070
   177
1070
    35
1070
   176
1070
    35
1070
   178
1070
    35
1070
    48
1040
-0.005
1070
    41
1041
3.5
1070
   147
1041
1.75
1070
    42
1041
1.5875
1070
    44
1041
2.0
1070
   140
1041
3.5
1070
   343
1005
0
1070
   344
1005
0
1002
}
0
DIMENSION
5
FD
100
AcDbEntity
8
SK2
62
256
6
ByLayer
370
13
48
1
60
0
100
AcDbDimension
2
DimnDraft3D4
10
92.4611
20
-21.302503
30
0
11
104.981425
21
-21.302503
31
0
70
32
71
5
72
1
41
1
210
0
220
0
230
1
3
Standard
100
AcDbAlignedDimension
13
95
23
-1.5875
33
0
14
92.4611
24
-10.0875
34
0
50
0
100
AcDbRotatedDimension
1001
ACAD
1000
DSTYLE
1002
{
1070
   279
1070
     0
1070
   172
1070
     1
1070
   173
1070
     1
1070
   340
1005
D3
1070
   271
1070
     2
1070
   272
1070
     2
1070
    77
1070
     1
1070
    73
1070
     0
1070
   171
1070
     3
1070
   274
1070
     4
1070
   177
1070
    35
1070
   176
1070
    35
1070
   178
1070
    35
1070
    48
1040
-0.005
1070
    41
1041
3.5
1070
   147
1041
1.75
1070
    42
1041
1.5875
1070
    44
1041
2.0
1070
   140
1041
3.5
1070
   343
1005
0
1070
   344
1005
0
1002
}
0
DIMENSION
5
107
100
AcDbEntity
8
SK2
62
256
6
ByLayer
370
13
48
1
60
0
100
AcDbDimension
2
DimnDraft3D5
10
92.4611
20
-27.343428
30
0
11
19.221776
21
-27.343428
31
0
70
32
71
5
72
1
41
1
210
0
220
0
230
1
3
Standard
100
AcDbAlignedDimension
13
-48
23
-10.5875
33
0
14
92.4611
24
-10.0875
34
0
50
0
100
AcDbRotatedDimension
1001
ACAD
1000
DSTYLE
1002
{
1070
   279
1070
     0
1070
   172
1070
     1
1070
   173
1070
     1
1070
   340
1005
D3
1070
   271
1070
     2
1070
   272
1070
     2
1070
    77
1070
     1
1070
    73
1070
     0
1070
   171
1070
     3
1070
   274
1070
     4
1070
   177
1070
    35
1070
   176
1070
    35
1070
   178
1070
    35
1070
    48
1040
-0.005
1070
    41
1041
3.5
1070
   147
1041
1.75
1070
    42
1041
1.5875
1070
    44
1041
2.0
1070
   140
1041
3.5
1070
   343
1005
0
1070
   344
1005
0
1002
}
0
DIMENSION
5
112
100
AcDbEntity
8
SK2
62
256
6
ByLayer
370
13
48
1
60
0
100
AcDbDimension
2
DimnDraft3D6
10
-58.625163
20
9
30
0
11
-59.250163
21
27.47418
31
0
70
33
71
5
72
1
41
1
210
0
220
0
230
1
3
Standard
100
AcDbAlignedDimension
13
-49.5875
23
-9
33
0
14
-49.5875
24
9
34
0
1001
ACAD
1000
DSTYLE
1002
{
1070
   279
1070
     0
1070
    74
1070
     0
1070
   173
1070
     1
1070
   340
1005
D3
1070
   271
1070
     3
1070
   272
1070
     2
1070
    77
1070
     1
1070
    73
1070
     0
1070
   171
1070
     3
1070
   274
1070
     4
1070
   177
1070
    35
1070
   176
1070
    35
1070
   178
1070
    35
1070
    48
1040
-0.005
1070
    41
1041
3.5
1070
   147
1041
1.75
1070
    42
1041
1.5875
1070
    44
1041
2.0
1070
   140
1041
3.5
1070
   343
1005
0
1070
   344
1005
0
1002
}
0
DIMENSION
5
11D
100
AcDbEntity
8
2
62
256
6
ByLayer
370
13
48
1
60
0
100
AcDbDimension
2
DimnDraft3D7
10
109.083343
20
8.5
30
0
11
104.458343
21
25.567266
31
0
70
33
71
5
72
1
41
1
210
0
220
0
230
1
3
Standard
100
AcDbAlignedDimension
13
94.0486
23
-8.5
33
0
14
94.0486
24
8.5
34
0
1001
ACAD
1000
DSTYLE
1002
{
1070
   279
1070
     0
1070
    74
1070
     0
1070
   173
1070
     1
1070
   340
1005
D3
1070
   271
1070
     3
1070
   272
1070
     2
1070
    77
1070
     1
1070
    73
1070
     0
1070
   171
1070
     3
1070
   274
1070
     4
1070
   177
1070
    35
1070
   176
1070
    35
1070
   178
1070
    35
1070
    48
1040
-0.005
1070
    41
1041
3.5
1070
   147
1041
1.75
1070
    42
1041
1.5875
1070
    44
1041
2.0
1070
   140
1041
3.5
1070
   343
1005
0
1070
   344
1005
0
1002
}
0
ENDSEC
0
SECTION
2
OBJECTS
0
DICTIONARY
5
188
330
0
100
AcDbDictionary
280
0
281
1
3
ACAD_GROUP
350
189
3
ACAD_MLINESTYLE
350
18a
0
DICTIONARY
5
189
330
0
100
AcDbDictionary
280
0
281
1
0
DICTIONARY
5
18a
330
0
100
AcDbDictionary
280
0
281
1
3
Standard
350
18
0
MLINESTYLE
5
18
330
18a
100
AcDbMlineStyle
2
Standard
70
0
3

62
256
51
90
52
90
71
2
49
-0.5
62
256
6
ByLayer
49
0.5
62
256
6
ByLayer
0
RASTERVARIABLES
5
176
330

100
AcDbRasterVariables
90
0
70
1
71
1
72
1
0
ENDSEC
0
EOF
