0
SECTION
2
HEADER
9
$ACADVER
1
AC1015
9
$DWGCODEPAGE
3
ANSI_1252
9
$HANDSEED
5
194
9
$ANGBASE
50
0
9
$ANGDIR
70
0
9
$ATTMODE
70
1
9
$AUNITS
70
0
9
$AUPREC
70
0
9
$CECOLOR
62
256
9
$CELTSCALE
40
1
9
$CELTYPE
6
ByLayer
9
$CELWEIGHT
370
18
9
$CLAYER
8
0
9
$CMLJUST
70
0
9
$CMLSCALE
40
1
9
$CMLSTYLE
2
Standard
9
$DIMSTYLE
2
Standard
9
$TEXTSIZE
40
0.2
9
$TEXTSTYLE
7
Standard
9
$LUNITS
70
2
9
$LUPREC
70
4
9
$EXTNAMES
290
1
9
$INSUNITS
70
4
9
$LTSCALE
40
1
9
$LWDISPLAY
290
1
9
$PDMODE
70
0
9
$PDSIZE
40
0
9
$PLINEGEN
70
0
0
ENDSEC
0
SECTION
2
CLASSES
0
CLASS
1
RASTERVARIABLES
2
AcDbRasterVariables
3
ISM
90
0
280
0
281
0
0
ENDSEC
0
SECTION
2
TABLES
0
TABLE
2
VPORT
5
18a
100
AcDbSymbolTable
0
VPORT
5
1
100
AcDbSymbolTableRecord
100
AcDbViewportTableRecord
2
*Active
70
0
10
0
20
0
11
1
21
1
12
-1
22
1
13
0
23
0
14
0.5
24
0.5
15
10
25
10
16
0
26
0
36
1
17
0
27
0
37
0
0
ENDTAB
0
TABLE
2
LTYPE
5
18b
100
AcDbSymbolTable
0
LTYPE
5
14
100
AcDbSymbolTableRecord
100
AcDbLinetypeTableRecord
70
0
2
ByBlock
3

72
65
73
0
40
0
0
LTYPE
5
15
100
AcDbSymbolTableRecord
100
AcDbLinetypeTableRecord
70
0
2
ByLayer
3

72
65
73
0
40
0
0
LTYPE
5
16
100
AcDbSymbolTableRecord
100
AcDbLinetypeTableRecord
70
0
2
CONTINUOUS
3
Solid line
72
65
73
0
40
0
0
LTYPE
5
6A
100
AcDbSymbolTableRecord
100
AcDbLinetypeTableRecord
70
0
2
CENTER
3
____ _ ____ _ ____ _ ____
72
65
73
4
40
47.5
49
22
74
0
49
-8.5
74
0
49
8.5
74
0
49
-8.5
74
0
0
LTYPE
5
6B
100
AcDbSymbolTableRecord
100
AcDbLinetypeTableRecord
70
0
2
DASHED
3
__ __ __ __ __ __ __ __ __
72
65
73
2
40
25.72
49
12.86
74
0
49
-12.86
74
0
0
ENDTAB
0
TABLE
2
LAYER
5
18c
100
AcDbSymbolTable
0
LAYER
5
10
100
AcDbSymbolTableRecord
100
AcDbLayerTableRecord
2
0
70
0
62
7
6
CONTINUOUS
290
1
370
-3
390
0
0
LAYER
5
6D
100
AcDbSymbolTableRecord
100
AcDbLayerTableRecord
2
81
70
0
62
-3
6
CONTINUOUS
290
1
370
-3
390
0
0
LAYER
5
6F
100
AcDbSymbolTableRecord
100
AcDbLayerTableRecord
2
80
70
0
62
-6
6
CONTINUOUS
290
1
370
-3
390
0
0
LAYER
5
74
100
AcDbSymbolTableRecord
100
AcDbLayerTableRecord
2
2
70
0
62
7
6
CONTINUOUS
290
1
370
-3
390
0
0
LAYER
5
78
100
AcDbSymbolTableRecord
100
AcDbLayerTableRecord
2
1
70
0
62
4
6
CONTINUOUS
290
1
370
-3
390
0
0
LAYER
5
86
100
AcDbSymbolTableRecord
100
AcDbLayerTableRecord
2
4
70
0
62
-2
6
CENTER
290
1
370
-3
390
0
0
LAYER
5
176
100
AcDbSymbolTableRecord
100
AcDbLayerTableRecord
2
SK2
70
0
62
7
6
CONTINUOUS
290
1
370
-3
390
0
0
LAYER
5
177
100
AcDbSymbolTableRecord
100
AcDbLayerTableRecord
2
SK1
70
0
62
4
6
CONTINUOUS
290
1
370
-3
390
0
0
LAYER
5
178
100
AcDbSymbolTableRecord
100
AcDbLayerTableRecord
2
SK4
70
0
62
2
6
CENTER
290
1
370
-3
390
0
0
LAYER
5
179
100
AcDbSymbolTableRecord
100
AcDbLayerTableRecord
2
SK6
70
0
62
5
6
CONTINUOUS
290
1
370
-3
390
0
0
ENDTAB
0
TABLE
2
STYLE
5
18d
100
AcDbSymbolTable
0
STYLE
5
11
100
AcDbSymbolTableRecord
100
AcDbTextStyleTableRecord
2
Standard
3
txt
70
0
71
0
40
0
41
1
42
0
50
0
0
STYLE
5
D2
100
AcDbSymbolTableRecord
100
AcDbTextStyleTableRecord
2
iso_b_vert
3
simplex.shx
70
0
71
0
40
0
41
1
42
0
50
0
0
STYLE
5
D3
100
AcDbSymbolTableRecord
100
AcDbTextStyleTableRecord
2
DWGDirectTextStyle
3
simplex
70
0
71
0
40
0
41
1
42
0
50
0
0
ENDTAB
0
TABLE
2
DIMSTYLE
5
18e
100
AcDbSymbolTable
100
AcDbDimStyleTable
0
DIMSTYLE
105
27
100
AcDbSymbolTableRecord
100
AcDbDimStyleTableRecord
2
Standard
70
0
3
<>
41
0.18
42
0.0625
44
0.18
140
0.18
147
0.09
73
0
74
0
77
1
271
2
275
0
278
52
280
0
340
11
0
ENDTAB
0
TABLE
2
VIEW
5
18f
100
AcDbSymbolTable
0
ENDTAB
0
TABLE
2
UCS
5
190
100
AcDbSymbolTable
0
ENDTAB
0
TABLE
2
APPID
5
191
100
AcDbSymbolTable
0
APPID
5
12
100
AcDbSymbolTableRecord
100
AcDbRegAppTableRecord
2
ACAD
70
0
0
ENDTAB
0
TABLE
2
BLOCK_RECORD
5
192
100
AcDbSymbolTable
0
BLOCK_RECORD
5
1F
100
AcDbSymbolTableRecord
100
AcDbBlockTableRecord
2
*Model_Space
340
0
70
0
0
BLOCK_RECORD
5
1B
100
AcDbSymbolTableRecord
100
AcDbBlockTableRecord
2
*Paper_Space
340
0
70
0
0
BLOCK_RECORD
5
23
100
AcDbSymbolTableRecord
100
AcDbBlockTableRecord
2
*Paper_Space0
340
0
70
0
0
BLOCK_RECORD
5
D5
100
AcDbSymbolTableRecord
100
AcDbBlockTableRecord
2
DimnDraft3D1
340
0
70
0
0
BLOCK_RECORD
5
DF
100
AcDbSymbolTableRecord
100
AcDbBlockTableRecord
2
DimnDraft3D2
340
0
70
0
0
BLOCK_RECORD
5
E9
100
AcDbSymbolTableRecord
100
AcDbBlockTableRecord
2
DimnDraft3D3
340
0
70
0
0
BLOCK_RECORD
5
F3
100
AcDbSymbolTableRecord
100
AcDbBlockTableRecord
2
DimnDraft3D4
340
0
70
0
0
BLOCK_RECORD
5
FD
100
AcDbSymbolTableRecord
100
AcDbBlockTableRecord
2
DimnDraft3D5
340
0
70
0
0
BLOCK_RECORD
5
107
100
AcDbSymbolTableRecord
100
AcDbBlockTableRecord
2
DimnDraft3D6
340
0
70
0
0
BLOCK_RECORD
5
112
100
AcDbSymbolTableRecord
100
AcDbBlockTableRecord
2
DimnDraft3D7
340
0
70
0
0
ENDTAB
0
ENDSEC
0
SECTION
2
BLOCKS
0
BLOCK
5
20
100
AcDbEntity
8
0
100
AcDbBlockBegin
2
*Model_Space
70
0
10
0
20
0
30
0
3
*Model_Space
0
ENDBLK
5
21
100
AcDbEntity
8
0
100
AcDbBlockEnd
0
BLOCK
5
1C
100
AcDbEntity
8
0
100
AcDbBlockBegin
2
*Paper_Space
70
0
10
0
20
0
30
0
3
*Paper_Space
0
ENDBLK
5
1D
100
AcDbEntity
8
0
100
AcDbBlockEnd
0
BLOCK
5
24
100
AcDbEntity
8
0
100
AcDbBlockBegin
2
*Paper_Space0
70
0
10
0
20
0
30
0
3
*Paper_Space0
0
ENDBLK
5
25
100
AcDbEntity
8
0
100
AcDbBlockEnd
0
BLOCK
5
DC
100
AcDbEntity
8
0
100
AcDbBlockBegin
2
DimnDraft3D1
70
0
10
0
20
0
30
0
3
DimnDraft3D1
0
MTEXT
5
D6
100
AcDbEntity
8
SK2
62
256
6
ByLayer
370
13
48
1
60
0
100
AcDbMText
10
25.864564
20
-16.888398
30
0
210
0
220
0
230
1
1
\W0.7581;64,75
40
3.5
41
0
44
1.084337
50
0
71
7
72
5
7
iso_b_vert
0
LINE
5
D7
100
AcDbEntity
8
SK2
62
256
6
ByLayer
370
13
48
1
60
0
100
AcDbLine
10
0
20
-1.5875
30
0
11
0
21
-19.763398
31
0
39
0
210
0
220
0
230
1
0
LINE
5
D8
100
AcDbEntity
8
SK2
62
256
6
ByLayer
370
13
48
1
60
0
100
AcDbLine
10
64.7474
20
-9.1375
30
0
11
64.7474
21
-19.763398
31
0
39
0
210
0
220
0
230
1
0
LINE
5
D9
100
AcDbEntity
8
SK2
62
256
6
ByLayer
370
13
48
1
60
0
100
AcDbLine
10
0
20
-17.763398
30
0
11
64.7474
21
-17.763398
31
0
39
0
210
0
220
0
230
1
0
SOLID
5
DA
100
AcDbEntity
8
SK2
62
256
6
ByLayer
370
13
48
1
60
0
100
AcDbTrace
10
0
20
-17.763398
30
0
11
3.499998
21
-17.302615
31
0
12
3.500002
22
-18.224182
32
0
13
0
23
-17.763398
33
0
39
0
210
0
220
0
230
1
0
SOLID
5
DB
100
AcDbEntity
8
SK2
62
256
6
ByLayer
370
13
48
1
60
0
100
AcDbTrace
10
64.7474
20
-17.763398
30
0
11
61.247402
21
-18.224182
31
0
12
61.247398
22
-17.302615
32
0
13
64.7474
23
-17.763398
33
0
39
0
210
0
220
0
230
1
0
ENDBLK
5
DD
100
AcDbEntity
8
0
100
AcDbBlockEnd
0
BLOCK
5
E6
100
AcDbEntity
8
0
100
AcDbBlockBegin
2
DimnDraft3D2
70
0
10
0
20
0
30
0
3
DimnDraft3D2
0
MTEXT
5
E0
100
AcDbEntity
8
SK2
62
256
6
ByLayer
370
13
48
1
60
0
100
AcDbMText
10
3.707121
20
-35.817985
30
0
210
0
220
0
230
1
1
\W0.6440;115,00
40
3.5
41
0
44
1.084337
50
0
71
7
72
5
7
iso_b_vert
0
LINE
5
E1
100
AcDbEntity
8
SK2
62
256
6
ByLayer
370
13
48
1
60
0
100
AcDbLine
10
-48
20
-9.5875
30
0
11
-48
21
-38.692985
31
0
39
0
210
0
220
0
230
1
0
LINE
5
E2
100
AcDbEntity
8
SK2
62
256
6
ByLayer
370
13
48
1
60
0
100
AcDbLine
10
67
20
-1.5875
30
0
11
67
21
-38.692985
31
0
39
0
210
0
220
0
230
1
0
LINE
5
E3
100
AcDbEntity
8
SK2
62
256
6
ByLayer
370
13
48
1
60
0
100
AcDbLine
10
-48
20
-36.692985
30
0
11
67
21
-36.692985
31
0
39
0
210
0
220
0
230
1
0
SOLID
5
E4
100
AcDbEntity
8
SK2
62
256
6
ByLayer
370
13
48
1
60
0
100
AcDbTrace
10
-48
20
-36.692985
30
0
11
-44.500002
21
-36.232202
31
0
12
-44.499998
22
-37.153769
32
0
13
-48
23
-36.692985
33
0
39
0
210
0
220
0
230
1
0
SOLID
5
E5
100
AcDbEntity
8
SK2
62
256
6
ByLayer
370
13
48
1
60
0
100
AcDbTrace
10
67
20
-36.692985
30
0
11
63.500002
21
-37.153769
31
0
12
63.499998
22
-36.232202
32
0
13
67
23
-36.692985
33
0
39
0
210
0
220
0
230
1
0
ENDBLK
5
E7
100
AcDbEntity
8
0
100
AcDbBlockEnd
0
BLOCK
5
F0
100
AcDbEntity
8
0
100
AcDbBlockBegin
2
DimnDraft3D3
70
0
10
0
20
0
30
0
3
DimnDraft3D3
0
MTEXT
5
EA
100
AcDbEntity
8
SK2
62
256
6
ByLayer
370
13
48
1
60
0
100
AcDbMText
10
38.592105
20
20.034119
30
0
210
0
220
0
230
1
1
\W0.7581;47,55
40
3.5
41
0
44
1.084337
50
0
71
7
72
5
7
iso_b_vert
0
LINE
5
EB
100
AcDbEntity
8
SK2
62
256
6
ByLayer
370
13
48
1
60
0
100
AcDbLine
10
19.45
20
9.1375
30
0
11
19.45
21
21.159119
31
0
39
0
210
0
220
0
230
1
0
LINE
5
EC
100
AcDbEntity
8
SK2
62
256
6
ByLayer
370
13
48
1
60
0
100
AcDbLine
10
67
20
1.5875
30
0
11
67
21
21.159119
31
0
39
0
210
0
220
0
230
1
0
LINE
5
ED
100
AcDbEntity
8
SK2
62
256
6
ByLayer
370
13
48
1
60
0
100
AcDbLine
10
19.45
20
19.159119
30
0
11
67
21
19.159119
31
0
39
0
210
0
220
0
230
1
0
SOLID
5
EE
100
AcDbEntity
8
SK2
62
256
6
ByLayer
370
13
48
1
60
0
100
AcDbTrace
10
19.45
20
19.159119
30
0
11
22.949998
21
19.619903
31
0
12
22.950002
22
18.698335
32
0
13
19.45
23
19.159119
33
0
39
0
210
0
220
0
230
1
0
SOLID
5
EF
100
AcDbEntity
8
SK2
62
256
6
ByLayer
370
13
48
1
60
0
100
AcDbTrace
10
67
20
19.159119
30
0
11
63.500002
21
18.698335
31
0
12
63.499998
22
19.619903
32
0
13
67
23
19.159119
33
0
39
0
210
0
220
0
230
1
0
ENDBLK
5
F1
100
AcDbEntity
8
0
100
AcDbBlockEnd
0
BLOCK
5
FA
100
AcDbEntity
8
0
100
AcDbBlockBegin
2
DimnDraft3D4
70
0
10
0
20
0
30
0
3
DimnDraft3D4
0
MTEXT
5
F4
100
AcDbEntity
8
SK2
62
256
6
ByLayer
370
13
48
1
60
0
100
AcDbMText
10
73.840636
20
-19.477503
30
0
210
0
220
0
230
1
1
\W0.7150;2,25
40
3.5
41
0
44
1.084337
50
0
71
7
72
5
7
iso_b_vert
0
LINE
5
F5
100
AcDbEntity
8
SK2
62
256
6
ByLayer
370
13
48
1
60
0
100
AcDbLine
10
67
20
-1.5875
30
0
11
67
21
-22.352503
31
0
39
0
210
0
220
0
230
1
0
LINE
5
F6
100
AcDbEntity
8
SK2
62
256
6
ByLayer
370
13
48
1
60
0
100
AcDbLine
10
64.7474
20
-9.1375
30
0
11
64.7474
21
-22.352503
31
0
39
0
210
0
220
0
230
1
0
LINE
5
F7
100
AcDbEntity
8
SK2
62
256
6
ByLayer
370
13
48
1
60
0
100
AcDbLine
10
55.9974
20
-20.352503
30
0
11
80.997215
21
-20.352503
31
0
39
0
210
0
220
0
230
1
0
SOLID
5
F8
100
AcDbEntity
8
SK2
62
256
6
ByLayer
370
13
48
1
60
0
100
AcDbTrace
10
67
20
-20.352503
30
0
11
70.499998
21
-19.891719
31
0
12
70.500002
22
-20.813287
32
0
13
67
23
-20.352503
33
0
39
0
210
0
220
0
230
1
0
SOLID
5
F9
100
AcDbEntity
8
SK2
62
256
6
ByLayer
370
13
48
1
60
0
100
AcDbTrace
10
64.7474
20
-20.352503
30
0
11
61.247402
21
-20.813287
31
0
12
61.247398
22
-19.891719
32
0
13
64.7474
23
-20.352503
33
0
39
0
210
0
220
0
230
1
0
ENDBLK
5
FB
100
AcDbEntity
8
0
100
AcDbBlockEnd
0
BLOCK
5
104
100
AcDbEntity
8
0
100
AcDbBlockBegin
2
DimnDraft3D5
70
0
10
0
20
0
30
0
3
DimnDraft3D5
0
MTEXT
5
FE
100
AcDbEntity
8
SK2
62
256
6
ByLayer
370
13
48
1
60
0
100
AcDbMText
10
0.626497
20
-25.468428
30
0
210
0
220
0
230
1
1
\W0.6440;112,75
40
3.5
41
0
44
1.084337
50
0
71
7
72
5
7
iso_b_vert
0
LINE
5
FF
100
AcDbEntity
8
SK2
62
256
6
ByLayer
370
13
48
1
60
0
100
AcDbLine
10
-48
20
-9.5875
30
0
11
-48
21
-28.343428
31
0
39
0
210
0
220
0
230
1
0
LINE
5
100
100
AcDbEntity
8
SK2
62
256
6
ByLayer
370
13
48
1
60
0
100
AcDbLine
10
64.7474
20
-9.1375
30
0
11
64.7474
21
-28.343428
31
0
39
0
210
0
220
0
230
1
0
LINE
5
101
100
AcDbEntity
8
SK2
62
256
6
ByLayer
370
13
48
1
60
0
100
AcDbLine
10
-48
20
-26.343428
30
0
11
64.7474
21
-26.343428
31
0
39
0
210
0
220
0
230
1
0
SOLID
5
102
100
AcDbEntity
8
SK2
62
256
6
ByLayer
370
13
48
1
60
0
100
AcDbTrace
10
-48
20
-26.343428
30
0
11
-44.500002
21
-25.882645
31
0
12
-44.499998
22
-26.804212
32
0
13
-48
23
-26.343428
33
0
39
0
210
0
220
0
230
1
0
SOLID
5
103
100
AcDbEntity
8
SK2
62
256
6
ByLayer
370
13
48
1
60
0
100
AcDbTrace
10
64.7474
20
-26.343428
30
0
11
61.247402
21
-26.804212
31
0
12
61.247398
22
-25.882645
32
0
13
64.7474
23
-26.343428
33
0
39
0
210
0
220
0
230
1
0
ENDBLK
5
105
100
AcDbEntity
8
0
100
AcDbBlockEnd
0
BLOCK
5
10F
100
AcDbEntity
8
0
100
AcDbBlockBegin
2
DimnDraft3D6
70
0
10
0
20
0
30
0
3
DimnDraft3D6
0
MTEXT
5
108
100
AcDbEntity
8
SK2
62
256
6
ByLayer
370
13
48
1
60
0
100
AcDbMText
10
-58.375163
20
27.34918
30
0
210
0
220
0
230
1
1
\W0.6930;16,000
40
3.5
41
0
44
1.084337
50
90
71
7
72
5
7
iso_b_vert
0
MTEXT
5
109
100
AcDbEntity
8
SK2
62
256
6
ByLayer
370
13
48
1
60
0
100
AcDbMText
10
-58.375163
20
22.126524
30
0
210
0
220
0
230
1
1
%%c
40
3.5
41
0
44
1.084337
50
90
71
7
72
5
7
iso_b_vert
0
LINE
5
10A
100
AcDbEntity
8
SK2
62
256
6
ByLayer
370
13
48
1
60
0
100
AcDbLine
10
-49.5875
20
-8
30
0
11
-58.625163
21
-8
31
0
39
0
210
0
220
0
230
1
0
LINE
5
10B
100
AcDbEntity
8
SK2
62
256
6
ByLayer
370
13
48
1
60
0
100
AcDbLine
10
-49.5875
20
8
30
0
11
-58.625163
21
8
31
0
39
0
210
0
220
0
230
1
0
LINE
5
10C
100
AcDbEntity
8
SK2
62
256
6
ByLayer
370
13
48
1
60
0
100
AcDbLine
10
-56.625163
20
-8
30
0
11
-56.625163
21
38.862338
31
0
39
0
210
0
220
0
230
1
0
SOLID
5
10D
100
AcDbEntity
8
SK2
62
256
6
ByLayer
370
13
48
1
60
0
100
AcDbTrace
10
-56.625163
20
-8
30
0
11
-57.085946
21
-4.500002
31
0
12
-56.164379
22
-4.499998
32
0
13
-56.625163
23
-8
33
0
39
0
210
0
220
0
230
1
0
SOLID
5
10E
100
AcDbEntity
8
SK2
62
256
6
ByLayer
370
13
48
1
60
0
100
AcDbTrace
10
-56.625163
20
8
30
0
11
-56.164379
21
4.500002
31
0
12
-57.085946
22
4.499998
32
0
13
-56.625163
23
8
33
0
39
0
210
0
220
0
230
1
0
ENDBLK
5
110
100
AcDbEntity
8
0
100
AcDbBlockEnd
0
BLOCK
5
11A
100
AcDbEntity
8
0
100
AcDbBlockBegin
2
DimnDraft3D7
70
0
10
0
20
0
30
0
3
DimnDraft3D7
0
MTEXT
5
113
100
AcDbEntity
8
2
62
256
6
ByLayer
370
13
48
1
60
0
100
AcDbMText
10
77.333343
20
25.492266
30
0
210
0
220
0
230
1
1
\W0.6440;15,100
40
3.5
41
0
44
1.084337
50
90
71
7
72
5
7
iso_b_vert
0
MTEXT
5
114
100
AcDbEntity
8
2
62
256
6
ByLayer
370
13
48
1
60
0
100
AcDbMText
10
77.333343
20
20.26961
30
0
210
0
220
0
230
1
1
%%c
40
3.5
41
0
44
1.084337
50
90
71
7
72
5
7
iso_b_vert
0
LINE
5
115
100
AcDbEntity
8
2
62
256
6
ByLayer
370
13
48
1
60
0
100
AcDbLine
10
66.3349
20
-7.55
30
0
11
81.083343
21
-7.55
31
0
39
0
210
0
220
0
230
1
0
LINE
5
116
100
AcDbEntity
8
2
62
256
6
ByLayer
370
13
48
1
60
0
100
AcDbLine
10
66.3349
20
7.55
30
0
11
81.083343
21
7.55
31
0
39
0
210
0
220
0
230
1
0
LINE
5
117
100
AcDbEntity
8
2
62
256
6
ByLayer
370
13
48
1
60
0
100
AcDbLine
10
79.083343
20
-7.55
30
0
11
79.083343
21
36.130424
31
0
39
0
210
0
220
0
230
1
0
SOLID
5
118
100
AcDbEntity
8
2
62
256
6
ByLayer
370
13
48
1
60
0
100
AcDbTrace
10
79.083343
20
-7.55
30
0
11
78.622559
21
-4.050002
31
0
12
79.544126
22
-4.049998
32
0
13
79.083343
23
-7.55
33
0
39
0
210
0
220
0
230
1
0
SOLID
5
119
100
AcDbEntity
8
2
62
256
6
ByLayer
370
13
48
1
60
0
100
AcDbTrace
10
79.083343
20
7.55
30
0
11
79.544126
21
4.050002
31
0
12
78.622559
22
4.049998
32
0
13
79.083343
23
7.55
33
0
39
0
210
0
220
0
230
1
0
ENDBLK
5
11B
100
AcDbEntity
8
0
100
AcDbBlockEnd
0
ENDSEC
0
SECTION
2
ENTITIES
0
ARC
5
90
100
AcDbEntity
8
1
62
256
6
ByLayer
370
18
48
1
60
0
100
AcDbCircle
39
0
10
-0.3
20
7.809726
30
0
40
0.299999999999997
210
0
220
0
230
-1
100
AcDbArc
50
269.96419
51
0
0
ARC
5
91
100
AcDbEntity
8
1
62
256
6
ByLayer
370
18
48
1
60
0
100
AcDbCircle
39
0
10
-0.3
20
-7.809726
30
0
40
0.299999999999997
210
0
220
0
230
-1
100
AcDbArc
50
0
51
90.03581
0
ELLIPSE
5
92
100
AcDbEntity
8
1
62
256
6
ByLayer
370
18
48
1
60
0
100
AcDbEllipse
10
1.988055
20
-7.38373
30
0
11
-0.25
21
3.06151588455594E-17
31
0
210
0
220
0
230
1
40
0.999991
41
-0.678827853428326
42
-0.00953854775568263
0
ELLIPSE
5
93
100
AcDbEntity
8
1
62
256
6
ByLayer
370
18
48
1
60
0
100
AcDbEllipse
10
1.988055
20
7.38373
30
0
11
-0.25
21
3.06151588455594E-17
31
0
210
0
220
0
230
1
40
0.999991
41
0.00953854775571816
42
1.57825899379011
0
ELLIPSE
5
94
100
AcDbEntity
8
1
62
256
6
ByLayer
370
18
48
1
60
0
100
AcDbEllipse
10
-203.09878
20
-126.568941
30
0
11
271.991199101365
21
135.737316756247
31
0
210
0
220
0
230
-1
40
0.124783
41
0.196892504903305
42
0.2774750646161
0
ELLIPSE
5
95
100
AcDbEntity
8
1
62
256
6
ByLayer
370
13
48
1
60
0
100
AcDbEllipse
10
1.918559
20
-1.736887
30
0
11
-0.0352041808445064
21
-0.0935984276100154
31
0
210
0
220
0
230
1
40
0.508719
41
-1.60644043351979
42
-0.261856195584878
0
ELLIPSE
5
96
100
AcDbEntity
8
1
62
256
6
ByLayer
370
13
48
1
60
0
100
AcDbEllipse
10
1.988186
20
-1.767831
30
0
11
0.0451491297136438
21
0.0892275522812352
31
0
210
0
220
0
230
1
40
0.112293
41
1.35051241446249
42
2.91076668015112
0
POINT
5
6C
100
AcDbEntity
8
81
62
256
6
ByLayer
370
18
48
1
60
0
100
AcDbPoint
10
67
20
0
30
0
39
0
210
0
220
0
230
1
50
360
0
POINT
5
6E
100
AcDbEntity
8
80
62
256
6
ByLayer
370
18
48
1
60
0
100
AcDbPoint
10
0
20
0
30
0
39
0
210
0
220
0
230
1
50
360
0
POINT
5
70
100
AcDbEntity
8
SK2
62
256
6
ByLayer
370
18
48
1
60
1
100
AcDbPoint
10
-48
20
-8
30
0
39
0
210
0
220
0
230
1
50
360
0
POINT
5
72
100
AcDbEntity
8
SK2
62
256
6
ByLayer
370
18
48
1
60
1
100
AcDbPoint
10
-48
20
8
30
0
39
0
210
0
220
0
230
1
50
360
0
POINT
5
73
100
AcDbEntity
8
2
62
256
6
ByLayer
370
18
48
1
60
1
100
AcDbPoint
10
64.7474
20
-7.55
30
0
39
0
210
0
220
0
230
1
50
360
0
POINT
5
75
100
AcDbEntity
8
2
62
256
6
ByLayer
370
18
48
1
60
1
100
AcDbPoint
10
64.7474
20
7.55
30
0
39
0
210
0
220
0
230
1
50
360
0
SPLINE
5
97
100
AcDbEntity
8
1
62
256
6
ByLayer
370
18
48
1
60
0
100
AcDbSpline
70
4
71
2
72
6
73
3
40
0
40
0
40
0
40
1
40
1
40
1
41
1
10
2.70547518578448
20
-7.13421054172213
30
0
41
1
10
2.73167059327548
20
-7.13413111497999
30
0
41
1
10
2.75784589333648
20
-7.13403576675239
30
0
0
SPLINE
5
98
100
AcDbEntity
8
1
62
256
6
ByLayer
370
18
48
1
60
0
100
AcDbSpline
70
4
71
2
72
6
73
3
40
0
40
0
40
0
40
1
40
1
40
1
41
1
10
63.9054860499993
20
-7.17216427590745
30
0
41
1
10
64.1805971352105
20
-7.1719183867537
30
0
41
1
10
64.4551231712779
20
-7.17236574329371
30
0
0
SPLINE
5
99
100
AcDbEntity
8
1
62
256
6
ByLayer
370
18
48
1
60
0
100
AcDbSpline
70
4
71
3
72
27
73
23
40
0
40
0
40
0
40
0
40
0.031087786393242
40
0.0964748335300008
40
0.135184856583971
40
0.170386804826937
40
0.206416910080792
40
0.244955413404416
40
0.286400924407866
40
0.33096514037891
40
0.375126101934717
40
0.409940820607635
40
0.454857568434293
40
0.515962291611345
40
0.583593281558813
40
0.65427257143915
40
0.724539575710517
40
0.788759256448319
40
0.845538639885434
40
0.904103630282946
40
0.968304121967681
40
1
40
1
40
1
40
1
41
1
10
41.0161481535253
20
7.15354764562716
30
0
41
1
10
40.844363310542
20
7.15297764721822
30
0
41
1
10
40.3112644070149
20
7.15167091742848
30
0
41
1
10
39.5642754897149
20
7.15339074441383
30
0
41
1
10
38.794550436194
20
7.15486899585829
30
0
41
1
10
38.1870244113134
20
7.15537226662704
30
0
41
1
10
37.5804548908358
20
7.15316508613117
30
0
41
1
10
36.9393790670908
20
7.15355893718279
30
0
41
1
10
36.2511459771893
20
7.15218137535894
30
0
41
1
10
35.5318550402093
20
7.15038262985559
30
0
41
1
10
34.8491733006839
20
7.15103630860389
30
0
41
1
10
34.1646807884779
20
7.15175024621325
30
0
41
1
10
33.3861996301233
20
7.15277456705232
30
0
41
1
10
32.4286313325612
20
7.15209296675212
30
0
41
1
10
31.3261759279636
20
7.14818151202709
30
0
41
1
10
30.1746886098534
20
7.14989728948598
30
0
41
1
10
29.0407481955307
20
7.15081906878697
30
0
41
1
10
27.9838559092916
20
7.14722867225243
30
0
41
1
10
26.9917936877559
20
7.14766804523506
30
0
41
1
10
25.9990085560797
20
7.14821970385111
30
0
41
1
10
25.1478990659163
20
7.14749019465538
30
0
41
1
10
24.6174489480995
20
7.14703663519708
30
0
41
1
10
24.4422778661632
20
7.14689336922322
30
0
0
SPLINE
5
9A
100
AcDbEntity
8
1
62
256
6
ByLayer
370
18
48
1
60
0
100
AcDbSpline
70
4
71
3
72
33
73
29
40
0
40
0
40
0
40
0
40
0.0220785074447519
40
0.0455527944981028
40
0.0677234159110372
40
0.105685175026343
40
0.14272391740586
40
0.178684237102475
40
0.219594231111638
40
0.259059124775164
40
0.302010254584248
40
0.344719282088979
40
0.394305622888494
40
0.443604009076601
40
0.496172298238797
40
0.548162097424382
40
0.597421468575953
40
0.641780096210817
40
0.674504657214745
40
0.709018462452492
40
0.752544967267613
40
0.793852843945122
40
0.831634144750605
40
0.866428611144676
40
0.900805886914888
40
0.939431811833538
40
0.98314865438635
40
1
40
1
40
1
40
1
41
1
10
20.2663670710626
20
-7.14418289688692
30
0
41
1
10
20.3958580694647
20
-7.14329642808002
30
0
41
1
10
20.6743119302505
20
-7.14121863802032
30
0
41
1
10
21.1281855304585
20
-7.13295555956736
30
0
41
1
10
21.7186581639419
20
-7.13239862273281
30
0
41
1
10
22.3654538964487
20
-7.1436910833981
30
0
41
1
10
23.1241625673889
20
-7.1459881898792
30
0
41
1
10
23.908748930098
20
-7.14648395026745
30
0
41
1
10
24.7189450800159
20
-7.14683275366917
30
0
41
1
10
25.5757484264837
20
-7.14814967068307
30
0
41
1
10
26.4457992889529
20
-7.14797474343928
30
0
41
1
10
27.3869640972516
20
-7.14730743412119
30
0
41
1
10
28.3720729942404
20
-7.14841202940394
30
0
41
1
10
29.425801960521
20
-7.15057361561503
30
0
41
1
10
30.4965469244552
20
-7.14973230392934
30
0
41
1
10
31.5652805305374
20
-7.1480024643721
30
0
41
1
10
32.579367085047
20
-7.15295371215734
30
0
41
1
10
33.4561579877828
20
-7.15253627665339
30
0
41
1
10
34.2329835456015
20
-7.1517180147801
30
0
41
1
10
35.0034894761606
20
-7.15079362210807
30
0
41
1
10
35.8339304214743
20
-7.15060889035755
30
0
41
1
10
36.6870419114519
20
-7.1536406906805
30
0
41
1
10
37.4794213888894
20
-7.15292006116957
30
0
41
1
10
38.2235677800138
20
-7.15557663387898
30
0
41
1
10
38.9736045418867
20
-7.15452335089901
30
0
41
1
10
39.7856794220399
20
-7.15300040731773
30
0
41
1
10
40.4758440490194
20
-7.15180124875428
30
0
41
1
10
40.8972561127562
20
-7.15288467355876
30
0
41
1
10
41.0145020061533
20
-7.15326911776583
30
0
0
SPLINE
5
9B
100
AcDbEntity
8
1
62
256
6
ByLayer
370
18
48
1
60
0
100
AcDbSpline
70
4
71
2
72
6
73
3
40
0
40
0
40
0
40
1
40
1
40
1
41
1
10
2.76069502713338
20
7.13402713098446
30
0
41
1
10
2.37680646173328
20
7.13543099756356
30
0
41
1
10
1.98860880365103
20
7.13342283403679
30
0
0
SPLINE
5
9C
100
AcDbEntity
8
1
62
256
6
ByLayer
370
18
48
1
60
0
100
AcDbSpline
70
4
71
3
72
34
73
30
40
0
40
0
40
0
40
0
40
0.0624999999999994
40
0.0624999999999994
40
0.0937499999999992
40
0.0937499999999992
40
0.124999999999999
40
0.124999999999999
40
0.187499999999999
40
0.187499999999999
40
0.218749999999998
40
0.218749999999998
40
0.249999999999997
40
0.249999999999997
40
0.374999999999997
40
0.374999999999997
40
0.437499999999996
40
0.437499999999996
40
0.499999999999995
40
0.499999999999995
40
0.624999999999995
40
0.624999999999995
40
0.687499999999995
40
0.687499999999995
40
0.749999999999995
40
0.749999999999995
40
0.874999999999997
40
0.874999999999997
40
1
40
1
40
1
40
1
41
1
10
57.2416310530124
20
2.80462102439642
30
0
41
1
10
57.2187234039981
20
2.59320815926529
30
0
41
1
10
57.2107440387582
20
2.3769572647974
30
0
41
1
10
57.2218369076845
20
2.04510690721665
30
0
41
1
10
57.2294259899054
20
1.93286064182487
30
0
41
1
10
57.2523165170391
20
1.70754820909576
30
0
41
1
10
57.2675067854954
20
1.59528823932922
30
0
41
1
10
57.3237080982899
20
1.25963310890964
30
0
41
1
10
57.3753193901056
20
1.03735952543113
30
0
41
1
10
57.4721968371565
20
0.706008202429871
30
0
41
1
10
57.5077409338185
20
0.595901804000164
30
0
41
1
10
57.5851250279185
20
0.376355155607428
30
0
41
1
10
57.6270048457166
20
0.2668922526573
30
0
41
1
10
57.8481402685584
20
-0.270781123377759
30
0
41
1
10
58.0642870709109
20
-0.677330505331099
30
0
41
1
10
58.4328247265035
20
-1.26051188128014
30
0
41
1
10
58.5637881244288
20
-1.45115353457746
30
0
41
1
10
58.8346191162817
20
-1.81818171516241
30
0
41
1
10
58.9747643587293
20
-1.9952082391699
30
0
41
1
10
59.4082222699269
20
-2.50842590663606
30
0
41
1
10
59.7147363433397
20
-2.82650931695858
30
0
41
1
10
60.1945585000823
20
-3.27613137419729
30
0
41
1
10
60.3581970679613
20
-3.42156582610877
30
0
41
1
10
60.6904915162698
20
-3.7027271476652
30
0
41
1
10
60.8583869940242
20
-3.83784070307584
30
0
41
1
10
61.3667598426745
20
-4.22852610034593
30
0
41
1
10
61.7118930612856
20
-4.46953826388784
30
0
41
1
10
62.4126234016152
20
-4.91884007242729
30
0
41
1
10
62.7682256998292
20
-5.1271135295876
30
0
41
1
10
63.1285309978917
20
-5.3206798551752
30
0
0
SPLINE
5
9D
100
AcDbEntity
8
1
62
256
6
ByLayer
370
18
48
1
60
0
100
AcDbSpline
70
4
71
3
72
48
73
44
40
0
40
0
40
0
40
0
40
0.0641822378176321
40
0.0641822378176321
40
0.128364475635264
40
0.128364475635264
40
0.192546713452896
40
0.192546713452896
40
0.256728951270529
40
0.256728951270529
40
0.385093426905793
40
0.385093426905793
40
0.449275664723425
40
0.449275664723425
40
0.513457902541057
40
0.513457902541057
40
0.577640140358689
40
0.577640140358689
40
0.641822378176321
40
0.641822378176321
40
0.706004615993954
40
0.706004615993954
40
0.73809573490277
40
0.73809573490277
40
0.770186853811586
40
0.770186853811586
40
0.834369091629218
40
0.834369091629218
40
0.866460210538034
40
0.866460210538034
40
0.89855132944685
40
0.89855132944685
40
0.914596888901258
40
0.914596888901258
40
0.930642448355667
40
0.930642448355667
40
0.946688007810075
40
0.946688007810075
40
0.962733567264484
40
0.962733567264484
40
0.9948246861733
40
0.9948246861733
40
1
40
1
40
1
40
1
41
1
10
16.9001058706877
20
1.21064970750183
30
0
41
1
10
16.5428281204427
20
1.38387357314352
30
0
41
1
10
16.1878690086476
20
1.55963783471654
30
0
41
1
10
15.4813111859565
20
1.91302733705046
30
0
41
1
10
15.1296835501661
20
2.09051579477403
30
0
41
1
10
14.4286298460097
20
2.44519906342475
30
0
41
1
10
14.0792569612952
20
2.62265534869309
30
0
41
1
10
13.3817162767189
20
2.97517924993087
30
0
41
1
10
13.0344498279729
20
3.14970934027767
30
0
41
1
10
11.9977135449353
20
3.66562564952321
30
0
41
1
10
11.3123896057028
20
3.99953760098197
30
0
41
1
10
10.2901290897329
20
4.47572449183053
30
0
41
1
10
9.95035339241241
20
4.63039506775903
30
0
41
1
10
9.27266496449457
20
4.93021175650139
30
0
41
1
10
8.93472555034634
20
5.07568893781863
30
0
41
1
10
8.26073176600454
20
5.35863752468745
30
0
41
1
10
7.92470012237595
20
5.49577805572446
30
0
41
1
10
7.25519006547748
20
5.76056367531143
30
0
41
1
10
6.92156937562649
20
5.88823620282048
30
0
41
1
10
6.2637298215439
20
6.13092918391834
30
0
41
1
10
5.93887041807594
20
6.2461503200212
30
0
41
1
10
5.46025831771368
20
6.40848683800166
30
0
41
1
10
5.30211442441814
20
6.46092909638685
30
0
41
1
10
4.9907647077147
20
6.56202444610076
30
0
41
1
10
4.83739132648788
20
6.61069079125238
30
0
41
1
10
4.38589681755556
20
6.75012856668047
30
0
41
1
10
4.09594761001091
20
6.83458280666554
30
0
41
1
10
3.68869532123907
20
6.94419161686426
30
0
41
1
10
3.55711996582116
20
6.97796531919604
30
0
41
1
10
3.3109506546806
20
7.03730273419202
30
0
41
1
10
3.19604825770102
20
7.06296715632735
30
0
41
1
10
3.04066073389293
20
7.09382420802066
30
0
41
1
10
2.99165480428235
20
7.10283009890912
30
0
41
1
10
2.90191713802568
20
7.11766708882814
30
0
41
1
10
2.86099135132037
20
7.12353963219573
30
0
41
1
10
2.78820991262989
20
7.13186742658786
30
0
41
1
10
2.7563557920837
20
7.13432402274657
30
0
41
1
10
2.70325114795452
20
7.13539382259432
30
0
41
1
10
2.6819098966597
20
7.13397325610285
30
0
41
1
10
2.63778911545731
20
7.12335430230331
30
0
41
1
10
2.63464937539891
20
7.10800006182274
30
0
41
1
10
2.66505633183962
20
7.08034788809246
30
0
41
1
10
2.67001626159731
20
7.0763130940781
30
0
41
1
10
2.67569868468345
20
7.07209130278582
30
0
0
SPLINE
5
9E
100
AcDbEntity
8
1
62
256
6
ByLayer
370
18
48
1
60
0
100
AcDbSpline
70
4
71
3
72
8
73
4
40
0
40
0
40
0
40
0
40
1
40
1
40
1
40
1
41
1
10
66.9726391429201
20
0.582449946641503
30
0
41
1
10
66.9851027818691
20
0.427695291929183
30
0
41
1
10
66.9921785382285
20
0.273154384178099
30
0
41
1
10
66.9930047192667
20
0.118861408283692
30
0
0
SPLINE
5
9F
100
AcDbEntity
8
1
62
256
6
ByLayer
370
18
48
1
60
0
100
AcDbSpline
70
4
71
3
72
14
73
10
40
0
40
0
40
0
40
0
40
0.25
40
0.25
40
0.5
40
0.5
40
0.75
40
0.75
40
1
40
1
40
1
40
1
41
1
10
64.7378024477312
20
-7.34042051489501
30
0
41
1
10
64.8984323812524
20
-6.87581656009945
30
0
41
1
10
65.0614507650705
20
-6.41208375912041
30
0
41
1
10
65.3916943422568
20
-5.48615202398886
30
0
41
1
10
65.5589335666792
20
-5.02395821343262
30
0
41
1
10
65.896952612844
20
-4.10086142773676
30
0
41
1
10
66.0677077325978
20
-3.63994944941237
30
0
41
1
10
66.4118413214763
20
-2.71908205138152
30
0
41
1
10
66.5852073933046
20
-2.2591221097677
30
0
41
1
10
66.7594134363731
20
-1.79946866905604
30
0
0
SPLINE
5
A0
100
AcDbEntity
8
1
62
256
6
ByLayer
370
18
48
1
60
0
100
AcDbSpline
70
4
71
3
72
14
73
10
40
0
40
0
40
0
40
0
40
0.25
40
0.25
40
0.5
40
0.5
40
0.75
40
0.75
40
1
40
1
40
1
40
1
41
1
10
64.737802447731
20
7.34042051489538
30
0
41
1
10
64.8984323812527
20
6.8758165600988
30
0
41
1
10
65.0614507650711
20
6.41208375911876
30
0
41
1
10
65.3916943422581
20
5.48615202398523
30
0
41
1
10
65.5589335666808
20
5.02395821342796
30
0
41
1
10
65.8969526128465
20
4.10086142773011
30
0
41
1
10
66.0677077326006
20
3.63994944940473
30
0
41
1
10
66.4118413214799
20
2.71908205137191
30
0
41
1
10
66.5852073933087
20
2.2591221097571
30
0
41
1
10
66.7594134363775
20
1.79946866904444
30
0
0
SPLINE
5
A1
100
AcDbEntity
8
1
62
256
6
ByLayer
370
18
48
1
60
0
100
AcDbSpline
70
4
71
3
72
20
73
16
40
0
40
0
40
0
40
0
40
0.249999999999998
40
0.249999999999998
40
0.374999999999997
40
0.374999999999997
40
0.437499999999997
40
0.437499999999997
40
0.499999999999997
40
0.499999999999997
40
0.749999999999998
40
0.749999999999998
40
0.874999999999999
40
0.874999999999999
40
1
40
1
40
1
40
1
41
1
10
63.1285309978917
20
-5.32067985517523
30
0
41
1
10
63.242249515232
20
-5.63614353515675
30
0
41
1
10
63.359230522045
20
-5.91255599260708
30
0
41
1
10
63.5379949765905
20
-6.27094291573715
30
0
41
1
10
63.5981507277697
20
-6.38096016600713
30
0
41
1
10
63.6891825254023
20
-6.53146473570749
30
0
41
1
10
63.719738745471
20
-6.5793168813357
30
0
41
1
10
63.7805606494533
20
-6.66925524067628
30
0
41
1
10
63.8108591870686
20
-6.71141078097133
30
0
41
1
10
63.9618025506977
20
-6.9083617700947
30
0
41
1
10
64.0807653516518
20
-7.02206267899567
30
0
41
1
10
64.2571748497942
20
-7.12667204870576
30
0
41
1
10
64.3157908848931
20
-7.1505026075545
30
0
41
1
10
64.431898946433
20
-7.17492775515379
30
0
41
1
10
64.4890779379562
20
-7.17551633304802
30
0
41
1
10
64.5455314262662
20
-7.16441837827799
30
0
0
SPLINE
5
A2
100
AcDbEntity
8
1
62
256
6
ByLayer
370
13
48
1
60
0
100
AcDbSpline
70
4
71
3
72
8
73
4
40
0
40
0
40
0
40
0
40
1
40
1
40
1
40
1
41
1
10
1.98827434383176
20
-1.743386849031
30
0
41
1
10
1.94785870062952
20
-1.73128278230607
30
0
41
1
10
1.90841283479452
20
-1.72187307519954
30
0
41
1
10
1.87222854213005
20
-1.71565338300675
30
0
0
SPLINE
5
A3
100
AcDbEntity
8
1
62
256
6
ByLayer
370
13
48
1
60
0
100
AcDbSpline
70
4
71
3
72
8
73
4
40
0
40
0
40
0
40
0
40
1
40
1
40
1
40
1
41
1
10
1.86896540364538
20
-1.88654530579572
30
0
41
1
10
1.87004032801676
20
-1.8652628264781
30
0
41
1
10
1.87112802637171
20
-1.84396733019668
30
0
41
1
10
1.87222854213005
20
-1.82265813799231
30
0
0
SPLINE
5
A4
100
AcDbEntity
8
1
62
256
6
ByLayer
370
18
48
1
60
0
100
AcDbSpline
70
4
71
3
72
8
73
4
40
0
40
0
40
0
40
0
40
1
40
1
40
1
40
1
41
1
10
64.7378024477391
20
7.34042051487117
30
0
41
1
10
64.6375244753785
20
7.447970968372
30
0
41
1
10
64.534056346346
20
7.51395317716711
30
0
41
1
10
64.4260514416964
20
7.53871965198925
30
0
0
SPLINE
5
A5
100
AcDbEntity
8
1
62
256
6
ByLayer
370
18
48
1
60
0
100
AcDbSpline
70
4
71
3
72
10
73
6
40
0
40
0
40
0
40
0
40
0.5
40
0.5
40
1
40
1
40
1
40
1
41
1
10
64.4013389416448
20
1.75944792348986
30
0
41
1
10
64.7890090202261
20
1.74592188043925
30
0
41
1
10
65.1766961460656
20
1.73220417629736
30
0
41
1
10
65.9518179565497
20
1.70760694611386
30
0
41
1
10
66.3392483991069
20
1.69677511355326
30
0
41
1
10
66.7266597809121
20
1.68615757964929
30
0
0
SPLINE
5
A6
100
AcDbEntity
8
1
62
256
6
ByLayer
370
18
48
1
60
0
100
AcDbSpline
70
4
71
3
72
14
73
10
40
0
40
0
40
0
40
0
40
0.221165612561487
40
0.221165612561487
40
0.442331225122975
40
0.442331225122975
40
0.884662450245949
40
0.884662450245949
40
1
40
1
40
1
40
1
41
1
10
64.5455314262796
20
-7.16441837827813
30
0
41
1
10
63.8897745669013
20
-7.18025344586445
30
0
41
1
10
63.2330533355345
20
-7.17168460861007
30
0
41
1
10
61.9270499447949
20
-7.10701280550734
30
0
41
1
10
61.2768188048434
20
-7.05102239423906
30
0
41
1
10
59.3304874372525
20
-6.81504577057331
30
0
41
1
10
58.0384986580904
20
-6.56694430582559
30
0
41
1
10
56.4035908499056
20
-6.14912775996291
30
0
41
1
10
56.065115606084
20
-6.05709860078909
30
0
41
1
10
55.7261193492571
20
-5.95958676185069
30
0
0
SPLINE
5
A7
100
AcDbEntity
8
1
62
256
6
ByLayer
370
13
48
1
60
0
100
AcDbSpline
70
4
71
3
72
28
73
24
40
0
40
0
40
0
40
0
40
0.0526085929318727
40
0.0526085929318727
40
0.107580824169478
40
0.107580824169478
40
0.162553055407083
40
0.162553055407083
40
0.382441980357502
40
0.382441980357502
40
0.602330905307921
40
0.602330905307921
40
0.657303136545527
40
0.657303136545527
40
0.712275367783134
40
0.712275367783134
40
0.822219830258348
40
0.822219830258348
40
0.932164292733562
40
0.932164292733562
40
0.987136523971169
40
0.987136523971169
40
1
40
1
40
1
40
1
41
1
10
55.7261195258262
20
-5.95958681264054
30
0
41
1
10
55.4150731753128
20
-5.87011473014152
30
0
41
1
10
55.1035881840719
20
-5.77602678053148
30
0
41
1
10
54.4654440564963
20
-5.57439506573945
30
0
41
1
10
54.1387348566741
20
-5.4664296881096
30
0
41
1
10
53.4836678931713
20
-5.2410359966191
30
0
41
1
10
53.1553809411256
20
-5.12360943442533
30
0
41
1
10
51.5205427230038
20
-4.51796798190998
30
0
41
1
10
50.2245790333313
20
-3.97113854066816
30
0
41
1
10
47.6346208043313
20
-2.79090906483265
30
0
41
1
10
46.3409855890308
20
-2.15686832960247
30
0
41
1
10
44.7119933788392
20
-1.33397572638805
30
0
41
1
10
44.3856179361039
20
-1.16784277936861
30
0
41
1
10
43.7313454374631
20
-0.833142766110996
30
0
41
1
10
43.4030285247188
20
-0.664357795760253
30
0
41
1
10
42.4196920871586
20
-0.157521822268876
30
0
41
1
10
41.7654702223669
20
0.180932725337698
30
0
41
1
10
40.4574854154115
20
0.854711445079317
30
0
41
1
10
39.8035578109021
20
1.18969696084551
30
0
41
1
10
38.8207091657091
20
1.68535112770303
30
0
41
1
10
38.4924741594555
20
1.84957321496617
30
0
41
1
10
38.0878194333607
20
2.04994203950315
30
0
41
1
10
38.0111080205467
20
2.08783363551734
30
0
41
1
10
37.9344165552542
20
2.12561755243706
30
0
0
SPLINE
5
A8
100
AcDbEntity
8
1
62
256
6
ByLayer
370
18
48
1
60
0
100
AcDbSpline
70
4
71
3
72
38
73
34
40
0
40
0
40
0
40
0
40
0.0312500000000097
40
0.0312500000000097
40
0.0468750000000146
40
0.0468750000000146
40
0.0625000000000194
40
0.0625000000000194
40
0.125000000000038
40
0.125000000000038
40
0.140625000000042
40
0.140625000000042
40
0.142578125000042
40
0.142578125000042
40
0.144531250000043
40
0.144531250000043
40
0.148437500000044
40
0.148437500000044
40
0.156250000000044
40
0.156250000000044
40
0.187500000000043
40
0.187500000000043
40
0.250000000000039
40
0.250000000000039
40
0.375000000000032
40
0.375000000000032
40
0.500000000000026
40
0.500000000000026
40
0.62500000000002
40
0.62500000000002
40
0.750000000000013
40
0.750000000000013
40
1
40
1
40
1
40
1
41
1
10
2.29057422146366
20
-7.29746943670995
30
0
41
1
10
2.36874245680644
20
-7.26328472138758
30
0
41
1
10
2.45955064707451
20
-7.22684178704708
30
0
41
1
10
2.61122196699392
20
-7.16984079676436
30
0
41
1
10
2.66426620363956
20
-7.15049051186972
30
0
41
1
10
2.77345720341452
20
-7.11171634881285
30
0
41
1
10
2.82978450389379
20
-7.0922201880588
30
0
41
1
10
3.1189933635788
20
-6.99441305587112
30
0
41
1
10
3.3740945362388
20
-6.91524028380522
30
0
41
1
10
3.71272731706082
20
-6.81735113456267
30
0
41
1
10
3.78131233515069
20
-6.7978675948537
30
0
41
1
10
3.85924033344293
20
-6.77610084475765
30
0
41
1
10
3.86780450460825
20
-6.77361132890715
30
0
41
1
10
3.88582661405897
20
-6.76923678284712
30
0
41
1
10
3.89519483214039
20
-6.76729067606658
30
0
41
1
10
3.92417988842544
20
-6.76205176919984
30
0
41
1
10
3.94450292658053
20
-6.75939878697332
30
0
41
1
10
4.00495458999751
20
-6.75360098898264
30
0
41
1
10
4.04590784863268
20
-6.75301982885713
30
0
41
1
10
4.25082273710638
20
-6.75088814599476
30
0
41
1
10
4.41488914731298
20
-6.74991757311292
30
0
41
1
10
4.9068959945418
20
-6.74919896014868
30
0
41
1
10
5.23494056017367
20
-6.75164649927666
30
0
41
1
10
6.21837665137306
20
-6.76746462204949
30
0
41
1
10
6.87055945092425
20
-6.7893236508493
30
0
41
1
10
8.16838784695261
20
-6.85186629849665
30
0
41
1
10
8.81402285767368
20
-6.89256776437168
30
0
41
1
10
10.0991017904687
20
-6.98659006932044
30
0
41
1
10
10.7398693234542
20
-7.04008324806168
30
0
41
1
10
12.0054397186193
20
-7.15030692570977
30
0
41
1
10
12.6310156176386
20
-7.20703600579034
30
0
41
1
10
14.48881535116
20
-7.36718375377279
30
0
41
1
10
15.7018702246914
20
-7.46004917840796
30
0
41
1
10
16.9001058706877
20
-7.49981459591444
30
0
0
SPLINE
5
A9
100
AcDbEntity
8
1
62
256
6
ByLayer
370
18
48
1
60
0
100
AcDbSpline
70
4
71
3
72
8
73
4
40
0
40
0
40
0
40
0
40
1
40
1
40
1
40
1
41
1
10
66.9726391429201
20
0.582449946641503
30
0
41
1
10
66.9361576429637
20
0.974859338741652
30
0
41
1
10
66.8634190417951
20
1.37468318648459
30
0
41
1
10
66.7594134363761
20
1.79946866904393
30
0
0
SPLINE
5
AA
100
AcDbEntity
8
1
62
256
6
ByLayer
370
13
48
1
60
0
100
AcDbSpline
70
4
71
3
72
10
73
6
40
0
40
0
40
0
40
0
40
0.5
40
0.5
40
1
40
1
40
1
40
1
41
1
10
1.73805468792358
20
-1.64095103240354
30
0
41
1
10
1.73805468792358
20
-1.65590121563665
30
0
41
1
10
1.74976628853631
20
-1.67104957633362
30
0
41
1
10
1.79482262806371
20
-1.69691862230843
30
0
41
1
10
1.8287047880599
20
-1.70817211604088
30
0
41
1
10
1.87222854213005
20
-1.71565338300675
30
0
0
SPLINE
5
AB
100
AcDbEntity
8
1
62
256
6
ByLayer
370
18
48
1
60
0
100
AcDbSpline
70
4
71
3
72
48
73
44
40
0
40
0
40
0
40
0
40
0.12500000000001
40
0.12500000000001
40
0.187500000000016
40
0.187500000000016
40
0.250000000000022
40
0.250000000000022
40
0.375000000000035
40
0.375000000000035
40
0.500000000000047
40
0.500000000000047
40
0.562500000000054
40
0.562500000000054
40
0.62500000000006
40
0.62500000000006
40
0.750000000000069
40
0.750000000000069
40
0.812500000000074
40
0.812500000000074
40
0.843750000000076
40
0.843750000000076
40
0.859375000000076
40
0.859375000000076
40
0.863281250000074
40
0.863281250000074
40
0.867187500000071
40
0.867187500000071
40
0.871093750000069
40
0.871093750000069
40
0.875000000000067
40
0.875000000000067
40
0.878906250000065
40
0.878906250000065
40
0.882812500000062
40
0.882812500000062
40
0.890625000000058
40
0.890625000000058
40
0.90625000000005
40
0.90625000000005
40
0.937500000000033
40
0.937500000000033
40
1
40
1
40
1
40
1
41
1
10
57.2416310530125
20
2.80462102439665
30
0
41
1
10
57.5373549769063
20
2.5324563799137
30
0
41
1
10
57.8417798865635
20
2.27749099297873
30
0
41
1
10
58.3117373137361
20
1.92137270955905
30
0
41
1
10
58.4706517111992
20
1.80713776072369
30
0
41
1
10
58.7930994367069
20
1.58779811321384
30
0
41
1
10
58.9571177736477
20
1.48240052825241
30
0
41
1
10
59.4527368969646
20
1.18243828229609
30
0
41
1
10
59.7857724961227
20
1.00505509812925
30
0
41
1
10
60.4571696910762
20
0.696163644594776
30
0
41
1
10
60.7955409941498
20
0.564738987851797
30
0
41
1
10
61.307620137522
20
0.406553402501146
30
0
41
1
10
61.479065372355
20
0.360303758440779
30
0
41
1
10
61.8235747463523
20
0.28174873339924
30
0
41
1
10
61.9970814575361
20
0.249372106774246
30
0
41
1
10
62.5172991838236
20
0.175858508977655
30
0
41
1
10
62.8594609357794
20
0.158359490063617
30
0
41
1
10
63.3641832341743
20
0.189846917050403
30
0
41
1
10
63.5312443093028
20
0.210250099420392
30
0
41
1
10
63.7769318154393
20
0.256491104150626
30
0
41
1
10
63.8581409020602
20
0.274533821493435
30
0
41
1
10
63.9786059598368
20
0.305654439603558
30
0
41
1
10
64.0185503150102
20
0.316707841541557
30
0
41
1
10
64.0681330334875
20
0.3313691474184
30
0
41
1
10
64.0780327513435
20
0.334343760668077
30
0
41
1
10
64.0977983909564
20
0.340378054834048
30
0
41
1
10
64.1077962104703
20
0.34310573783597
30
0
41
1
10
64.1269729726839
20
0.350622286687383
30
0
41
1
10
64.1361494206121
20
0.355417432091315
30
0
41
1
10
64.1533577840445
20
0.367888608714367
30
0
41
1
10
64.161334275231
20
0.375603806516239
30
0
41
1
10
64.1743208121142
20
0.393940470257604
30
0
41
1
10
64.1792742772297
20
0.404894750916043
30
0
41
1
10
64.1852400363157
20
0.428692818007306
30
0
41
1
10
64.1863836918627
20
0.441708297582693
30
0
41
1
10
64.1909747100765
20
0.47999105925706
30
0
41
1
10
64.1938623302087
20
0.50557940969918
30
0
41
1
10
64.2020189946392
20
0.582539000548735
30
0
41
1
10
64.2067817684961
20
0.634108722840836
30
0
41
1
10
64.2191297589094
20
0.789344274327334
30
0
41
1
10
64.2247858203287
20
0.893607446266884
30
0
41
1
10
64.2347987235696
20
1.20848361288074
30
0
41
1
10
64.2321733902493
20
1.42122349481502
30
0
41
1
10
64.2221332692035
20
1.63366221825783
30
0
0
SPLINE
5
AC
100
AcDbEntity
8
1
62
256
6
ByLayer
370
18
48
1
60
0
100
AcDbSpline
70
4
71
3
72
10
73
6
40
0
40
0
40
0
40
0
40
0.578536666503758
40
0.578536666503758
40
1
40
1
40
1
40
1
41
1
10
1.94194249686569
20
-1.85353222017886
30
0
41
1
10
3.25518093226378
20
-2.51586006828782
30
0
41
1
10
4.55603950825514
20
-3.14756169885345
30
0
41
1
10
6.80331652629303
20
-4.15309637351569
30
0
41
1
10
7.74971992564781
20
-4.55091016360939
30
0
41
1
10
8.69990122735322
20
-4.91543799363114
30
0
0
SPLINE
5
AD
100
AcDbEntity
8
1
62
256
6
ByLayer
370
13
48
1
60
0
100
AcDbSpline
70
4
71
3
72
24
73
20
40
0
40
0
40
0
40
0
40
0.0789591288192207
40
0.0789591288192207
40
0.151665203775582
40
0.151665203775582
40
0.224371278731943
40
0.224371278731943
40
0.369783428644665
40
0.369783428644665
40
0.66060772847011
40
0.66060772847011
40
0.806019878382834
40
0.806019878382834
40
0.878725953339196
40
0.878725953339196
40
0.951432028295558
40
0.951432028295558
40
1
40
1
40
1
40
1
41
1
10
8.69990101609579
20
-4.91543791258428
30
0
41
1
10
9.05402001471265
20
-5.05129222978331
30
0
41
1
10
9.40866374368116
20
-5.18252330551758
30
0
41
1
10
10.091322965327
20
-5.42498624703268
30
0
41
1
10
10.4193797888385
20
-5.53706669080702
30
0
41
1
10
11.0762821784892
20
-5.75204076892462
30
0
41
1
10
11.4038426893172
20
-5.85451809831866
30
0
41
1
10
12.3844237370359
20
-6.14652099830622
30
0
41
1
10
13.035413599121
20
-6.32057835534852
30
0
41
1
10
14.9839499510519
20
-6.77770352420012
30
0
41
1
10
16.2775715725135
20
-6.99562451302464
30
0
41
1
10
18.225260926085
20
-7.18290387104832
30
0
41
1
10
18.8757832397518
20
-7.22211212084849
30
0
41
1
10
19.8556672275597
20
-7.24474700474715
30
0
41
1
10
20.1829501552039
20
-7.24625010851838
30
0
41
1
10
20.8391886157771
20
-7.23705283371973
30
0
41
1
10
21.1676775277684
20
-7.22633733057799
30
0
41
1
10
21.713482006254
20
-7.19850179122642
30
0
41
1
10
21.9317317529532
20
-7.18467996756948
30
0
41
1
10
22.1496990528032
20
-7.16822049405218
30
0
0
SPLINE
5
AE
100
AcDbEntity
8
1
62
256
6
ByLayer
370
18
48
1
60
0
100
AcDbSpline
70
4
71
3
72
10
73
6
40
0
40
0
40
0
40
0
40
0.5
40
0.5
40
1
40
1
40
1
40
1
41
1
10
1.73805468792358
20
-1.64095103240354
30
0
41
1
10
1.73805468792358
20
-1.67655174054289
30
0
41
1
10
1.74978524296802
20
-1.71307358284474
30
0
41
1
10
1.79483880876254
20
-1.77617192485744
30
0
41
1
10
1.82869597404562
20
-1.80402342079682
30
0
41
1
10
1.87222854213002
20
-1.82265813799231
30
0
0
SPLINE
5
AF
100
AcDbEntity
8
1
62
256
6
ByLayer
370
18
48
1
60
0
100
AcDbSpline
70
4
71
3
72
8
73
4
40
0
40
0
40
0
40
0
40
1
40
1
40
1
40
1
41
1
10
1.79778787052464
20
7.22887600560784
30
0
41
1
10
1.96200421712581
20
7.25334262958762
30
0
41
1
10
2.12626690911429
20
7.27620003002886
30
0
41
1
10
2.29057422144604
20
7.29746943670767
30
0
0
SPLINE
5
B0
100
AcDbEntity
8
1
62
256
6
ByLayer
370
18
48
1
60
0
100
AcDbSpline
70
4
71
3
72
8
73
4
40
0
40
0
40
0
40
0
40
1
40
1
40
1
40
1
41
1
10
66.7266597809121
20
1.68615757964932
30
0
41
1
10
66.8525987600597
20
1.31937162378972
30
0
41
1
10
66.9316653458241
20
0.951394721248874
30
0
41
1
10
66.9726391429201
20
0.582449946641503
30
0
0
SPLINE
5
B1
100
AcDbEntity
8
1
62
256
6
ByLayer
370
18
48
1
60
0
100
AcDbSpline
70
4
71
3
72
8
73
4
40
0
40
0
40
0
40
0
40
1
40
1
40
1
40
1
41
1
10
66.7594134363703
20
1.79946866904564
30
0
41
1
10
66.74868107982
20
1.76164450401859
30
0
41
1
10
66.7377619613652
20
1.72387444812378
30
0
41
1
10
66.7266597809121
20
1.68615757964929
30
0
0
SPLINE
5
B2
100
AcDbEntity
8
1
62
256
6
ByLayer
370
18
48
1
60
0
100
AcDbSpline
70
4
71
3
72
8
73
4
40
0
40
0
40
0
40
0
40
1
40
1
40
1
40
1
41
1
10
1.73805468792358
20
-7.21990502682849
30
0
41
1
10
1.92217014755573
20
-7.24777622047014
30
0
41
1
10
2.10634413597126
20
-7.27362104825306
30
0
41
1
10
2.29057422146366
20
-7.29746943670995
30
0
0
SPLINE
5
B3
100
AcDbEntity
8
1
62
256
6
ByLayer
370
18
48
1
60
0
100
AcDbSpline
70
4
71
3
72
8
73
4
40
0
40
0
40
0
40
0
40
1
40
1
40
1
40
1
41
1
10
2.57206073057677
20
7.13399470052198
30
0
41
1
10
2.47745592784673
20
7.18837919950852
30
0
41
1
10
2.38361766470459
20
7.24285879699386
30
0
41
1
10
2.29057422144604
20
7.29746943672026
30
0
0
SPLINE
5
B4
100
AcDbEntity
8
1
62
256
6
ByLayer
370
18
48
1
60
0
100
AcDbSpline
70
4
71
3
72
8
73
4
40
0
40
0
40
0
40
0
40
1
40
1
40
1
40
1
41
1
10
66.9930047192662
20
-0.118861408284346
30
0
41
1
10
66.9931188782086
20
-0.0975417190952044
30
0
41
1
10
66.9956436425761
20
-0.0724972042239074
30
0
41
1
10
66.9998308192303
20
-0.0455602812475604
30
0
0
SPLINE
5
B5
100
AcDbEntity
8
1
62
256
6
ByLayer
370
18
48
1
60
0
100
AcDbSpline
70
4
71
3
72
8
73
4
40
0
40
0
40
0
40
0
40
1
40
1
40
1
40
1
41
1
10
64.7378024477391
20
-7.34042051487117
30
0
41
1
10
64.6375244753785
20
-7.447970968372
30
0
41
1
10
64.534056346346
20
-7.51395317716711
30
0
41
1
10
64.4260514416964
20
-7.53871965198925
30
0
0
SPLINE
5
B6
100
AcDbEntity
8
1
62
256
6
ByLayer
370
18
48
1
60
0
100
AcDbSpline
70
4
71
3
72
43
73
39
40
0
40
0
40
0
40
0
40
0.0957278698706886
40
0.0957278698706886
40
0.156774143184042
40
0.156774143184042
40
0.187297279840718
40
0.187297279840718
40
0.217820416497395
40
0.217820416497395
40
0.339912963124101
40
0.339912963124101
40
0.462005509750808
40
0.462005509750808
40
0.523051783064161
40
0.523051783064161
40
0.553574919720837
40
0.553574919720837
40
0.568836488049176
40
0.57265188013126
40
0.57265188013126
40
0.576467272213345
40
0.576467272213345
40
0.584098056377514
40
0.584098056377514
40
0.645144329690867
40
0.645144329690867
40
0.70619060300422
40
0.70619060300422
40
0.828283149630927
40
0.828283149630927
40
0.88932942294428
40
0.88932942294428
40
0.919852559600957
40
0.919852559600957
40
0.950375696257634
40
0.950375696257634
40
1
40
1
40
1
40
1
41
1
10
16.9001058706877
20
7.49981459591305
30
0
41
1
10
16.9001058706877
20
7.10763005928953
30
0
41
1
10
16.9001058706877
20
6.71585691051402
30
0
41
1
10
16.9001058706877
20
6.07489616389316
30
0
41
1
10
16.9001058706877
20
5.82547441056769
30
0
41
1
10
16.9001058706877
20
5.45158584973359
30
0
41
1
10
16.9001058706877
20
5.32703725982435
30
0
41
1
10
16.9001058706877
20
5.08034632597145
30
0
41
1
10
16.9001058706877
20
4.95790740673627
30
0
41
1
10
16.9001058706877
20
4.35012168282012
30
0
41
1
10
16.9001058706877
20
3.87791854994336
30
0
41
1
10
16.9001058706877
20
2.95983904333994
30
0
41
1
10
16.9001058706877
20
2.51373279573346
30
0
41
1
10
16.9001058706877
20
1.86517785622721
30
0
41
1
10
16.9001058706877
20
1.65396492559478
30
0
41
1
10
16.9001058706877
20
1.34447135598819
30
0
41
1
10
16.9001058706877
20
1.24251322147765
30
0
41
1
10
16.9001058706877
20
1.09145542717476
30
0
41
1
10
16.9001058706878
20
1.02892956338025
30
0
41
1
10
16.9001058706877
20
0.966920690329431
30
0
41
1
10
16.9001058706877
20
0.942158480458232
30
0
41
1
10
16.9001058706877
20
0.930541221836307
30
0
41
1
10
16.9001058706877
20
0.900912020094154
30
0
41
1
10
16.9001058706877
20
0.886793402022818
30
0
41
1
10
16.9001058706877
20
0.828533666802372
30
0
41
1
10
16.9001058706877
20
0.785928368246317
30
0
41
1
10
16.9001058706877
20
0.719601067461099
30
0
41
1
10
16.9001058706877
20
0.695835231631577
30
0
41
1
10
16.9001058706877
20
0.654076080251059
30
0
41
1
10
16.9001058706877
20
0.665061618321829
30
0
41
1
10
16.9001058706877
20
0.742152206872788
30
0
41
1
10
16.9001058706877
20
0.778000619594849
30
0
41
1
10
16.9001058706877
20
0.847824526152351
30
0
41
1
10
16.9001058706877
20
0.873845727155071
30
0
41
1
10
16.9001058706877
20
0.930998525466464
30
0
41
1
10
16.9001058706877
20
0.962132626269494
30
0
41
1
10
16.9001058706877
20
1.05060953544108
30
0
41
1
10
16.9001058706877
20
1.11210871140457
30
0
41
1
10
16.9001058706877
20
1.18050339394827
30
0
0
SPLINE
5
B7
100
AcDbEntity
8
1
62
256
6
ByLayer
370
18
48
1
60
0
100
AcDbSpline
70
4
71
3
72
14
73
10
40
0
40
0
40
0
40
0
40
0.25
40
0.25
40
0.5
40
0.5
40
0.75
40
0.75
40
1
40
1
40
1
40
1
41
1
10
64.2221332692035
20
1.63366221825783
30
0
41
1
10
64.2211805414446
20
1.65382096614252
30
0
41
1
10
64.2257410194023
20
1.67418015376236
30
0
41
1
10
64.2465009411893
20
1.70932553132482
30
0
41
1
10
64.2626321029353
20
1.72390568275498
30
0
41
1
10
64.2986951626754
20
1.7445484924699
30
0
41
1
10
64.3189502070621
20
1.75119146614983
30
0
41
1
10
64.3596545379818
20
1.75893773337648
30
0
41
1
10
64.3805179960391
20
1.76017437885017
30
0
41
1
10
64.4013389416448
20
1.75944792348989
30
0
0
SPLINE
5
B8
100
AcDbEntity
8
1
62
256
6
ByLayer
370
18
48
1
60
0
100
AcDbSpline
70
4
71
3
72
8
73
4
40
0
40
0
40
0
40
0
40
1
40
1
40
1
40
1
41
1
10
66.9726391429201
20
-0.582449946641731
30
0
41
1
10
66.9850858075357
20
-0.427906053578567
30
0
41
1
10
66.9921773527868
20
-0.273375770661517
30
0
41
1
10
66.9930047192666
20
-0.11886140828372
30
0
0
SPLINE
5
B9
100
AcDbEntity
8
1
62
256
6
ByLayer
370
18
48
1
60
0
100
AcDbSpline
70
4
71
3
72
10
73
6
40
0
40
0
40
0
40
0
40
0.5
40
0.5
40
1
40
1
40
1
40
1
41
1
10
66.9998308192306
20
0.0455602812481857
30
0
41
1
10
66.99605662747
20
0.0229234075743534
30
0
41
1
10
66.9899517727422
20
-0.0020830438631947
30
0
41
1
10
66.9728166181607
20
-0.0516546719798328
30
0
41
1
10
66.9619278525392
20
-0.0753392648155113
30
0
41
1
10
66.95074907119
20
-0.0936169427245943
30
0
0
SPLINE
5
BA
100
AcDbEntity
8
1
62
256
6
ByLayer
370
18
48
1
60
0
100
AcDbSpline
70
4
71
3
72
64
73
60
40
0
40
0
40
0
40
0
40
0.0441199176363421
40
0.0441199176363421
40
0.0882398352726841
40
0.0882398352726841
40
0.132359752909026
40
0.132359752909026
40
0.154419711727198
40
0.154419711727198
40
0.176479670545369
40
0.176479670545369
40
0.220599588181713
40
0.220599588181713
40
0.242659546999884
40
0.242659546999884
40
0.264719505818056
40
0.264719505818056
40
0.352959341090743
40
0.352959341090743
40
0.375019299908916
40
0.375019299908916
40
0.397079258727088
40
0.397079258727088
40
0.441199176363433
40
0.441199176363433
40
0.463259135181606
40
0.463259135181606
40
0.485319093999778
40
0.485319093999778
40
0.529439011636124
40
0.529439011636124
40
0.573558929272469
40
0.573558929272469
40
0.595618888090641
40
0.595618888090641
40
0.617678846908813
40
0.617678846908813
40
0.661798764545158
40
0.661798764545158
40
0.683858723363331
40
0.683858723363331
40
0.705918682181503
40
0.705918682181503
40
0.794158517454194
40
0.794158517454194
40
0.816218476272366
40
0.816218476272366
40
0.838278435090539
40
0.838278435090539
40
0.882398352726884
40
0.882398352726884
40
0.904458311545057
40
0.904458311545057
40
0.926518270363229
40
0.926518270363229
40
0.970638187999573
40
0.970638187999573
40
1
40
1
40
1
40
1
41
1
10
64.4260514416964
20
-7.53871965198925
30
0
41
1
10
63.773690819369
20
-7.55758237887747
30
0
41
1
10
63.1209954482021
20
-7.55129020350296
30
0
41
1
10
61.8156622647044
20
-7.48867664012542
30
0
41
1
10
61.1646197134884
20
-7.43246678464658
30
0
41
1
10
59.8629838121318
20
-7.2714489180417
30
0
41
1
10
59.2122977924135
20
-7.16667890047827
30
0
41
1
10
58.2343617757913
20
-6.9741014648188
30
0
41
1
10
57.9077527893285
20
-6.90394195390198
30
0
41
1
10
57.2551471431747
20
-6.7524027133455
30
0
41
1
10
56.9292439274168
20
-6.67105810672038
30
0
41
1
10
55.9521715092183
20
-6.41087120226607
30
0
41
1
10
55.3016184340038
20
-6.21589930676183
30
0
41
1
10
54.324959297152
20
-5.89330831053769
30
0
41
1
10
53.999266773073
20
-5.78075529121423
30
0
41
1
10
53.3471865977531
20
-5.54604764445304
30
0
41
1
10
53.0204964596233
20
-5.42377024388207
30
0
41
1
10
51.3890159990029
20
-4.79120291737664
30
0
41
1
10
50.0901300547411
20
-4.21719001327313
30
0
41
1
10
48.4594484237215
20
-3.43712701597977
30
0
41
1
10
48.1326717455214
20
-3.27782947205463
30
0
41
1
10
47.4801067733109
20
-2.95450055876461
30
0
41
1
10
47.1542162346343
20
-2.79042852637013
30
0
41
1
10
46.1771621722773
20
-2.29197483877323
30
0
41
1
10
45.5265180760316
20
-1.95152665880965
30
0
41
1
10
44.5495132083788
20
-1.43242646586162
30
0
41
1
10
44.2236727846548
20
-1.25798655152462
30
0
41
1
10
43.57128430215
20
-0.906941447026668
30
0
41
1
10
43.2444711334079
20
-0.730184307229422
30
0
41
1
10
42.2657320768008
20
-0.199330495394719
30
0
41
1
10
41.6146679087917
20
0.155453752378264
30
0
41
1
10
40.3126211643782
20
0.861666179164899
30
0
41
1
10
39.6615262091409
20
1.21288707390903
30
0
41
1
10
38.6827093513679
20
1.7330820233208
30
0
41
1
10
38.3558487266795
20
1.90548932407245
30
0
41
1
10
37.7033310044883
20
2.24624093128938
30
0
41
1
10
37.377435072779
20
2.41469582308397
30
0
41
1
10
36.4002956627878
20
2.91337867282994
30
0
41
1
10
35.7495840804672
20
3.23689236841349
30
0
41
1
10
34.7722910358654
20
3.70488004024784
30
0
41
1
10
34.4463277326261
20
3.85800510651998
30
0
41
1
10
33.7936446987394
20
4.15791246244646
30
0
41
1
10
33.4667579332904
20
4.30476151984232
30
0
41
1
10
31.8354702552854
20
5.01912967515233
30
0
41
1
10
30.5361688180103
20
5.52900149900245
30
0
41
1
10
28.9041070767912
20
6.06928938097147
30
0
41
1
10
28.5772351281997
20
6.17254945331322
30
0
41
1
10
27.9247966962081
20
6.36825723884266
30
0
41
1
10
27.5989261063187
20
6.46079747280371
30
0
41
1
10
26.6217068444252
20
6.72192954374162
30
0
41
1
10
25.9707728558014
20
6.87406294780152
30
0
41
1
10
24.9931288134375
20
7.06769654588379
30
0
41
1
10
24.667051750887
20
7.12648698534827
30
0
41
1
10
24.0141540091473
20
7.23226569691522
30
0
41
1
10
23.6873232554436
20
7.27923163759561
30
0
41
1
10
22.7086477651241
20
7.40154744210562
30
0
41
1
10
22.0574611440666
20
7.45856465548877
30
0
41
1
10
20.9726979394263
20
7.51223530447672
30
0
41
1
10
20.5391792553017
20
7.5226947821574
30
0
41
1
10
20.1051520022807
20
7.52209637013812
30
0
0
SPLINE
5
BB
100
AcDbEntity
8
1
62
256
6
ByLayer
370
18
48
1
60
0
100
AcDbSpline
70
4
71
3
72
8
73
4
40
0
40
0
40
0
40
0
40
1
40
1
40
1
40
1
41
1
10
16.9001058706877
20
-7.49981459591444
30
0
41
1
10
17.2421882459429
20
-7.51376379578394
30
0
41
1
10
17.5838592860267
20
-7.52066370815132
30
0
41
1
10
17.9249309488354
20
-7.52075381780804
30
0
0
SPLINE
5
BC
100
AcDbEntity
8
1
62
256
6
ByLayer
370
18
48
1
60
0
100
AcDbSpline
70
4
71
3
72
33
73
29
40
0
40
0
40
0
40
0
40
0.0317396427578989
40
0.0317396427578989
40
0.13932412689591
40
0.13932412689591
40
0.193116368964916
40
0.193116368964916
40
0.246908611033923
40
0.300700853102929
40
0.300700853102929
40
0.354493095171936
40
0.354493095171936
40
0.462077579309947
40
0.462077579309947
40
0.515869821378953
40
0.515869821378953
40
0.569662063447958
40
0.569662063447958
40
0.677246547585972
40
0.677246547585972
40
0.731038789654977
40
0.731038789654977
40
0.784831031723983
40
0.784831031723983
40
0.892415515861991
40
0.892415515861991
40
1
40
1
40
1
40
1
41
1
10
50.8457291976667
20
5.43501882570803
30
0
41
1
10
50.9919479326708
20
5.49036359483753
30
0
41
1
10
51.1381802931583
20
5.54474206356608
30
0
41
1
10
51.7804348220262
20
5.77881511955948
30
0
41
1
10
52.2767390022973
20
5.94833481836056
30
0
41
1
10
53.0205695342785
20
6.18692927034073
30
0
41
1
10
53.268484042647
20
6.26373360724332
30
0
41
1
10
53.7653354926758
20
6.41073870682442
30
0
41
1
10
54.2629762190248
20
6.55141175812869
30
0
41
1
10
54.7618834877496
20
6.67975092233169
30
0
41
1
10
55.261265251483
20
6.80199046226974
30
0
41
1
10
55.5110376855159
20
6.8601812915895
30
0
41
1
10
56.2619952746483
20
7.02463568178871
30
0
41
1
10
56.7661819951193
20
7.12051058087974
30
0
41
1
10
57.5177742776629
20
7.24270814103238
30
0
41
1
10
57.7678207937814
20
7.27991057983087
30
0
41
1
10
58.2667355211574
20
7.34732503538072
30
0
41
1
10
58.51581263053
20
7.37742135227228
30
0
41
1
10
59.2630943606194
20
7.45655655915454
30
0
41
1
10
59.7609505234154
20
7.49472135358235
30
0
41
1
10
60.5062003460103
20
7.53050302699447
30
0
41
1
10
60.7542038661591
20
7.53883852304074
30
0
41
1
10
61.2505787484884
20
7.54815555407944
30
0
41
1
10
61.4989739862363
20
7.54915753198696
30
0
41
1
10
62.2446156112785
20
7.54131231994646
30
0
41
1
10
62.7422762502285
20
7.52167670663175
30
0
41
1
10
63.7375775920876
20
7.45275597438396
30
0
41
1
10
64.2367802875092
20
7.40379073936222
30
0
41
1
10
64.7378024477396
20
7.34042051487066
30
0
0
SPLINE
5
BD
100
AcDbEntity
8
1
62
256
6
ByLayer
370
18
48
1
60
0
100
AcDbSpline
70
4
71
3
72
10
73
6
40
0
40
0
40
0
40
0
40
0.5
40
0.5
40
1
40
1
40
1
40
1
41
1
10
66.9930047192654
20
0.118861408285937
30
0
41
1
10
66.9930614466908
20
0.10826730979943
30
0
41
1
10
66.9937366421403
20
0.0965577625461265
30
0
41
1
10
66.9960900898944
20
0.0718403141707427
30
0
41
1
10
66.9977521417183
20
0.0589328185585316
30
0
41
1
10
66.9998308192303
20
0.0455602812481857
30
0
0
SPLINE
5
BE
100
AcDbEntity
8
1
62
256
6
ByLayer
370
18
48
1
60
0
100
AcDbSpline
70
4
71
3
72
16
73
12
40
0
40
0
40
0
40
0
40
0.0185117886030414
40
0.0185117886030414
40
0.13714913422559
40
0.13714913422559
40
0.37442382547069
40
0.37442382547069
40
0.848973207960895
40
0.848973207960895
40
1
40
1
40
1
40
1
41
1
10
20.6994524868676
20
-7.14270966679044
30
0
41
1
10
20.6482799959032
20
-7.14336537810038
30
0
41
1
10
20.5971112415051
20
-7.14387482977682
30
0
41
1
10
20.2180896435461
20
-7.14656206943417
30
0
41
1
10
19.8910429286976
20
-7.1428784834863
30
0
41
1
10
18.9118120127435
20
-7.11397686034837
30
0
41
1
10
18.261630540057
20
-7.07099201899544
30
0
41
1
10
16.3149364287523
20
-6.87365702623677
30
0
41
1
10
15.0218331982749
20
-6.65061222172238
30
0
41
1
10
13.3101988720798
20
-6.24449986592864
30
0
41
1
10
12.8963879985942
20
-6.13785661115256
30
0
41
1
10
12.481676897232
20
-6.02289730520957
30
0
0
SPLINE
5
BF
100
AcDbEntity
8
1
62
256
6
ByLayer
370
13
48
1
60
0
100
AcDbSpline
70
4
71
3
72
16
73
12
40
0
40
0
40
0
40
0
40
0.0677718465442225
40
0.0677718465442225
40
0.160994661889799
40
0.160994661889799
40
0.254217477235376
40
0.254217477235376
40
0.627108738617688
40
0.627108738617688
40
1
40
1
40
1
40
1
41
1
10
12.4816768972603
20
-6.02289730521744
30
0
41
1
10
12.2448450028104
20
-5.95724671105296
30
0
41
1
10
12.0077195181887
20
-5.88888401370474
30
0
41
1
10
11.4435829349375
20
-5.72016845599404
30
0
41
1
10
11.1162389166394
20
-5.61745214247875
30
0
41
1
10
10.4598065134255
20
-5.40224479952573
30
0
41
1
10
10.1320145622441
20
-5.29017496552731
30
0
41
1
10
8.49687891738316
20
-4.70961058915751
30
0
41
1
10
7.19887801978606
20
-4.17916969493209
30
0
41
1
10
4.60024231372986
20
-3.02388556396488
30
0
41
1
10
3.30027944615719
20
-2.39808584683726
30
0
41
1
10
1.98827434383182
20
-1.74338684903103
30
0
0
SPLINE
5
C0
100
AcDbEntity
8
1
62
256
6
ByLayer
370
18
48
1
60
0
100
AcDbSpline
70
4
71
3
72
8
73
4
40
0
40
0
40
0
40
0
40
1
40
1
40
1
40
1
41
1
10
64.5365493144625
20
-7.25787022825702
30
0
41
1
10
64.4998316073933
20
-7.35166629667236
30
0
41
1
10
64.4629999531991
20
-7.44528334478775
30
0
41
1
10
64.4260514416963
20
-7.53871965198925
30
0
0
SPLINE
5
C1
100
AcDbEntity
8
1
62
256
6
ByLayer
370
18
48
1
60
0
100
AcDbSpline
70
4
71
3
72
34
73
30
40
0
40
0
40
0
40
0
40
0.029013103566262
40
0.029013103566262
40
0.0678525794236104
40
0.0678525794236104
40
0.145531531138309
40
0.145531531138309
40
0.223210482853009
40
0.223210482853009
40
0.300889434567708
40
0.300889434567708
40
0.378568386282407
40
0.378568386282407
40
0.456247337997106
40
0.456247337997106
40
0.533926289711805
40
0.533926289711805
40
0.611605241426504
40
0.611605241426504
40
0.689284193141204
40
0.689284193141204
40
0.766963144855903
40
0.766963144855903
40
0.844642096570602
40
0.844642096570602
40
0.922321048285301
40
0.922321048285301
40
1
40
1
40
1
40
1
41
1
10
41.0182593257865
20
7.15279385725907
30
0
41
1
10
41.1752914803524
20
7.15318676668556
30
0
41
1
10
41.332394636665
20
7.15236465439079
30
0
41
1
10
41.6999428426706
20
7.14761551959791
30
0
41
1
10
41.9105568325157
20
7.14281158733095
30
0
41
1
10
42.5418344774922
20
7.11942879263316
30
0
41
1
10
42.9615284817061
20
7.09215056690991
30
0
41
1
10
43.8011131542876
20
7.01833234481194
30
0
41
1
10
44.2207108724371
20
6.97167043197035
30
0
41
1
10
45.0596881868413
20
6.86044242204724
30
0
41
1
10
45.4790534298405
20
6.79628093946425
30
0
41
1
10
46.3192665176801
20
6.64994953596246
30
0
41
1
10
46.7402486184998
20
6.56566579826648
30
0
41
1
10
47.5814476019863
20
6.37979558714605
30
0
41
1
10
48.0011211073863
20
6.27772197105904
30
0
41
1
10
48.840698590188
20
6.05746561670878
30
0
41
1
10
49.2604838204593
20
5.94021079121055
30
0
41
1
10
50.0996975320716
20
5.68913421486994
30
0
41
1
10
50.5189851491506
20
5.55408822858607
30
0
41
1
10
51.3592230334797
20
5.26931579425724
30
0
41
1
10
51.7804602304689
20
5.11935401409986
30
0
41
1
10
52.6216036618369
20
4.80620338062471
30
0
41
1
10
53.0413495463116
20
4.64311291799461
30
0
41
1
10
53.8810464160753
20
4.30609145851057
30
0
41
1
10
54.3007762219588
20
4.13136998629585
30
0
41
1
10
55.1400643543754
20
3.77022861956706
30
0
41
1
10
55.5595062889362
20
3.58378658194601
30
0
41
1
10
56.3999221944226
20
3.20096092174691
30
0
41
1
10
56.8214786889221
20
3.00445695867296
30
0
41
1
10
57.2416310530016
20
2.80462102440191
30
0
0
SPLINE
5
C2
100
AcDbEntity
8
1
62
256
6
ByLayer
370
13
48
1
60
0
100
AcDbSpline
70
4
71
3
72
8
73
4
40
0
40
0
40
0
40
0
40
1
40
1
40
1
40
1
41
1
10
1.87222854213002
20
-1.82265813799231
30
0
41
1
10
1.89414250447237
20
-1.83087239092501
30
0
41
1
10
1.91779816949514
20
-1.84135510141633
30
0
41
1
10
1.94194249686569
20
-1.85353222017886
30
0
0
SPLINE
5
C3
100
AcDbEntity
8
1
62
256
6
ByLayer
370
18
48
1
60
0
100
AcDbSpline
70
4
71
3
72
14
73
10
40
0
40
0
40
0
40
0
40
0.25
40
0.25
40
0.5
40
0.5
40
0.75
40
0.75
40
1
40
1
40
1
40
1
41
1
10
64.5455314262634
20
-7.16441837827853
30
0
41
1
10
64.5488800672237
20
-7.16376008298039
30
0
41
1
10
64.5515826114217
20
-7.16479738416223
30
0
41
1
10
64.5552977381645
20
-7.17133207704191
30
0
41
1
10
64.5562557451125
20
-7.17691161894442
30
0
41
1
10
64.5553098875599
20
-7.19367398040467
30
0
41
1
10
64.5533337502237
20
-7.20488688135393
30
0
41
1
10
64.5465386451226
20
-7.23040487808606
30
0
41
1
10
64.5417858528781
20
-7.24449339308143
30
0
41
1
10
64.5365493144597
20
-7.25787022826393
30
0
0
SPLINE
5
C4
100
AcDbEntity
8
1
62
256
6
ByLayer
370
18
48
1
60
0
100
AcDbSpline
70
4
71
3
72
8
73
4
40
0
40
0
40
0
40
0
40
1
40
1
40
1
40
1
41
1
10
66.9998308192303
20
-0.0455602812475604
30
0
41
1
10
67.0000564645734
20
-0.01517521423483
30
0
41
1
10
67.0000563145841
20
0.0151954115825674
30
0
41
1
10
66.9998308192303
20
0.0455602812479867
30
0
0
SPLINE
5
C5
100
AcDbEntity
8
1
62
256
6
ByLayer
370
18
48
1
60
0
100
AcDbSpline
70
4
71
3
72
22
73
18
40
0
40
0
40
0
40
0
40
0.0220466765374111
40
0.0220466765374111
40
0.124012222783982
40
0.124012222783982
40
0.225977769030554
40
0.225977769030554
40
0.327943315277125
40
0.327943315277125
40
0.531874407770267
40
0.531874407770267
40
0.735805500263409
40
0.735805500263409
40
0.939736592756552
40
0.939736592756552
40
1
40
1
40
1
40
1
41
1
10
2.71427050383193
20
-7.13494089400356
30
0
41
1
10
2.71958533010908
20
-7.13499917037012
30
0
41
1
10
2.72516851068087
20
-7.13496303230147
30
0
41
1
10
2.75801261979447
20
-7.13423401476518
30
0
41
1
10
2.79036149722396
20
-7.13167660935608
30
0
41
1
10
2.86408418621801
20
-7.12312627432999
30
0
41
1
10
2.90545771819791
20
-7.11713166800018
30
0
41
1
10
2.99596730545463
20
-7.10206256614504
30
0
41
1
10
3.04528618747344
20
-7.09295061758016
30
0
41
1
10
3.20211075859638
20
-7.0616664438337
30
0
41
1
10
3.31742516673569
20
-7.03580940078942
30
0
41
1
10
3.56318104875089
20
-6.97643350562919
30
0
41
1
10
3.69368680921116
20
-6.94289129125809
30
0
41
1
10
3.96618548972273
20
-6.86946241141843
30
0
41
1
10
4.10869591055655
20
-6.82941739133426
30
0
41
1
10
4.29709965768603
20
-6.77457937596074
30
0
41
1
10
4.34034544091935
20
-6.76186793936353
30
0
41
1
10
4.38384369246566
20
-6.74896129569649
30
0
0
SPLINE
5
C6
100
AcDbEntity
8
1
62
256
6
ByLayer
370
13
48
1
60
0
100
AcDbSpline
70
4
71
3
72
42
73
38
40
0
40
0
40
0
40
0
40
0.0724900588847393
40
0.0724900588847393
40
0.108735088327109
40
0.108735088327109
40
0.144980117769479
40
0.144980117769479
40
0.289960235538957
40
0.289960235538957
40
0.326205264981327
40
0.326205264981327
40
0.362450294423696
40
0.362450294423696
40
0.434940353308436
40
0.434940353308436
40
0.507430412193175
40
0.507430412193175
40
0.579920471077915
40
0.579920471077915
40
0.616165500520285
40
0.616165500520285
40
0.652410529962655
40
0.652410529962655
40
0.724900588847394
40
0.724900588847394
40
0.761145618289764
40
0.761145618289764
40
0.797390647732134
40
0.797390647732134
40
0.869880706616874
40
0.869880706616874
40
0.942370765501614
40
0.942370765501614
40
0.978615794943984
40
0.978615794943984
40
1
40
1
40
1
40
1
41
1
10
1.98827434383176
20
-1.74338684903103
30
0
41
1
10
1.9882841849512
20
-1.44162453482707
30
0
41
1
10
1.98829063621943
20
-1.13724847918616
30
0
41
1
10
1.98829666346427
20
-0.676845263158469
30
0
41
1
10
1.98829806274935
20
-0.522735594341299
30
0
41
1
10
1.9882998694369
20
-0.213221301985669
30
0
41
1
10
1.9883002758373
20
-0.0573288519726418
30
0
41
1
10
1.98830040114166
20
0.71773065596949
30
0
41
1
10
1.988294607851
20
1.32505447012116
30
0
41
1
10
1.98828926513957
20
2.06850238793322
30
0
41
1
10
1.98828828258547
20
2.21677919906185
30
0
41
1
10
1.98828671531561
20
2.50992118919263
30
0
41
1
10
1.98828613436487
20
2.6540477258836
30
0
41
1
10
1.9882852576846
20
3.0792734155711
30
0
41
1
10
1.98828583589355
20
3.35324767933884
30
0
41
1
10
1.98829046351432
20
3.88239106715434
30
0
41
1
10
1.98829451039961
20
4.13756242085603
30
0
41
1
10
1.98830699384126
20
4.62835185611226
30
0
41
1
10
1.9883153486546
20
4.86044186360368
30
0
41
1
10
1.98833123379268
20
5.18782155065975
30
0
41
1
10
1.98833708899986
20
5.29347315251499
30
0
41
1
10
1.98834977155963
20
5.49577050582241
30
0
41
1
10
1.9883566121816
20
5.59271383415404
30
0
41
1
10
1.98837854345595
20
5.87115163423664
30
0
41
1
10
1.98839505251689
20
6.04030467674974
30
0
41
1
10
1.98842214086537
20
6.26927662470072
30
0
41
1
10
1.98843155562076
20
6.34146167740619
30
0
41
1
10
1.98845104175959
20
6.47738711479863
30
0
41
1
10
1.98846114548897
20
6.54128376490223
30
0
41
1
10
1.98849180788943
20
6.71760221103779
30
0
41
1
10
1.98851281599937
20
6.81551258432754
30
0
41
1
10
1.98855447298638
20
6.97316072034332
30
0
41
1
10
1.98857512628985
20
7.03289746082581
30
0
41
1
10
1.98860452251617
20
7.09323411045068
30
0
41
1
10
1.98861408136963
20
7.10847665900889
30
0
41
1
10
1.98862853681504
20
7.12458506093409
30
0
41
1
10
1.98863373485241
20
7.12879134355313
30
0
41
1
10
1.98863874346426
20
7.13123910547148
30
0
0
SPLINE
5
C7
100
AcDbEntity
8
1
62
256
6
ByLayer
370
18
48
1
60
0
100
AcDbSpline
70
4
71
3
72
91
73
87
40
0
40
0
40
0
40
0
40
0.0335469165136809
40
0.0335469165136809
40
0.0503203747705214
40
0.0503203747705214
40
0.0670938330273619
40
0.0670938330273619
40
0.100640749541043
40
0.100640749541043
40
0.134187666054724
40
0.134187666054724
40
0.167734582568405
40
0.167734582568405
40
0.184508040825245
40
0.184508040825245
40
0.201281499082085
40
0.201281499082085
40
0.218054957338925
40
0.218054957338925
40
0.234828415595765
40
0.234828415595765
40
0.268375332109445
40
0.268375332109445
40
0.285148790366285
40
0.285148790366285
40
0.301922248623126
40
0.301922248623126
40
0.335469165136805
40
0.335469165136805
40
0.352242623393645
40
0.352242623393645
40
0.369016081650485
40
0.369016081650485
40
0.402562998164165
40
0.402562998164165
40
0.436109914677845
40
0.436109914677845
40
0.452883372934686
40
0.452883372934686
40
0.469656831191527
40
0.469656831191527
40
0.503203747705207
40
0.503203747705207
40
0.536750664218888
40
0.536750664218888
40
0.570297580732569
40
0.570297580732569
40
0.587071038989409
40
0.587071038989409
40
0.603844497246249
40
0.603844497246249
40
0.63739141375993
40
0.63739141375993
40
0.65416487201677
40
0.65416487201677
40
0.67093833027361
40
0.67093833027361
40
0.68771178853045
40
0.68771178853045
40
0.70448524678729
40
0.70448524678729
40
0.73803216330097
40
0.73803216330097
40
0.771579079814651
40
0.771579079814651
40
0.805125996328331
40
0.805125996328331
40
0.821899454585171
40
0.821899454585171
40
0.838672912842012
40
0.855446371098852
40
0.855446371098852
40
0.872219829355693
40
0.872219829355693
40
0.905766745869373
40
0.905766745869373
40
0.922540204126214
40
0.922540204126214
40
0.939313662383054
40
0.939313662383054
40
0.972860578896735
40
0.972860578896735
40
0.989634037153576
40
0.989634037153576
40
1
40
1
40
1
40
1
41
1
10
16.9001058706877
20
7.49981459591444
30
0
41
1
10
17.4024329974867
20
7.52029814607207
30
0
41
1
10
17.9038731567777
20
7.52558122370735
30
0
41
1
10
18.6538098155198
20
7.51184259363495
30
0
41
1
10
18.9033881122065
20
7.50363489191744
30
0
41
1
10
19.4014389596243
20
7.47989270058034
30
0
41
1
10
19.6499038773583
20
7.46433084706359
30
0
41
1
10
20.3954949128241
20
7.40705342150332
30
0
41
1
10
20.8924867878883
20
7.35480736879381
30
0
41
1
10
21.8852028037154
20
7.22212619055549
30
0
41
1
10
22.3803624081126
20
7.14121831935046
30
0
41
1
10
23.3735963566384
20
6.95321178465281
30
0
41
1
10
23.871181806556
20
6.84601678686363
30
0
41
1
10
24.6177893307706
20
6.66411473430429
30
0
41
1
10
24.8667326772455
20
6.59995271938791
30
0
41
1
10
25.3658935288165
20
6.46556565807987
30
0
41
1
10
25.6160086442322
20
6.3952637615379
30
0
41
1
10
26.1171711594139
20
6.24829785327472
30
0
41
1
10
26.3682164209727
20
6.17163185059118
30
0
41
1
10
26.8711052427387
20
6.01166861897553
30
0
41
1
10
27.1223125244313
20
5.92834300514403
30
0
41
1
10
27.8737475670529
20
5.67041499319981
30
0
41
1
10
28.3737168273157
20
5.48873504174387
30
0
41
1
10
29.1215435650864
20
5.20119578561744
30
0
41
1
10
29.3704544597897
20
5.10282525855749
30
0
41
1
10
29.8672989372749
20
4.90066031864458
30
0
41
1
10
30.1154075158404
20
4.79710418530453
30
0
41
1
10
30.8600927670552
20
4.4809696665217
30
0
41
1
10
31.3566346249332
20
4.26241430985914
30
0
41
1
10
32.1006650029448
20
3.92153640221758
30
0
41
1
10
32.3483753359703
20
3.80544815473016
30
0
41
1
10
32.844204253481
20
3.56993434012261
30
0
41
1
10
33.0924342146897
20
3.4507019759161
30
0
41
1
10
33.8379316254818
20
3.08840297422336
30
0
41
1
10
34.3359670401487
20
2.84070757035994
30
0
41
1
10
35.3327912321867
20
2.33023784208442
30
0
41
1
10
35.8330067942047
20
2.07000467294299
30
0
41
1
10
36.5868083350223
20
1.673541516352
30
0
41
1
10
36.8386766670314
20
1.54017719392607
30
0
41
1
10
37.3403678154069
20
1.27226738146228
30
0
41
1
10
37.5903872592787
20
1.13723231067283
30
0
41
1
10
38.3398563748546
20
0.732540496647005
30
0
41
1
10
38.8387200099637
20
0.463280594072643
30
0
41
1
10
39.8337653990509
20
-0.0764138641887371
30
0
41
1
10
40.3292862638132
20
-0.348076426893186
30
0
41
1
10
41.3214956008858
20
-0.885284299202226
30
0
41
1
10
41.8178250393195
20
-1.15153251711755
30
0
41
1
10
42.5616316443798
20
-1.54926512884046
30
0
41
1
10
42.8093268140488
20
-1.68179619070261
30
0
41
1
10
43.3055763307203
20
-1.94429325016682
30
0
41
1
10
43.5540593130617
20
-2.07439351406876
30
0
41
1
10
44.3003875021053
20
-2.46161512775578
30
0
41
1
10
44.7989238189977
20
-2.71600482942893
30
0
41
1
10
45.5479913517189
20
-3.09224182649913
30
0
41
1
10
45.7982135619618
20
-3.2161827184957
30
0
41
1
10
46.2999662162335
20
-3.46069126785605
30
0
41
1
10
46.5518046009886
20
-3.58151967201383
30
0
41
1
10
47.0542526590731
20
-3.81914494556924
30
0
41
1
10
47.3049412870365
20
-3.93595036364874
30
0
41
1
10
47.8049793663202
20
-4.16599981753922
30
0
41
1
10
48.0543213517883
20
-4.27923540958727
30
0
41
1
10
48.8021955089444
20
-4.61065296483221
30
0
41
1
10
49.3001402224347
20
-4.82135300225093
30
0
41
1
10
50.2935365565373
20
-5.2244606430412
30
0
41
1
10
50.78855174028
20
-5.41731809042722
30
0
41
1
10
51.7804348220262
20
-5.77881511955945
30
0
41
1
10
52.2767390022973
20
-5.94833481836056
30
0
41
1
10
53.0205695342785
20
-6.18692927034073
30
0
41
1
10
53.268484042647
20
-6.26373360724332
30
0
41
1
10
53.7653354926758
20
-6.41073870682439
30
0
41
1
10
54.2629763831063
20
-6.55141185737824
30
0
41
1
10
54.7618834877495
20
-6.67975092233166
30
0
41
1
10
55.2612652514829
20
-6.80199046226971
30
0
41
1
10
55.5110376855159
20
-6.86018129158953
30
0
41
1
10
56.2619952746484
20
-7.02463568178865
30
0
41
1
10
56.7661819951193
20
-7.12051058087974
30
0
41
1
10
57.5177742776628
20
-7.24270814103238
30
0
41
1
10
57.7678207937814
20
-7.27991057983084
30
0
41
1
10
58.2667355211574
20
-7.34732503538069
30
0
41
1
10
58.51581263053
20
-7.37742135227228
30
0
41
1
10
59.2630943606194
20
-7.45655655915451
30
0
41
1
10
59.7609505234153
20
-7.49472135358235
30
0
41
1
10
60.5062003460102
20
-7.53050302699447
30
0
41
1
10
60.7542038661591
20
-7.53883852304074
30
0
41
1
10
61.1557706376125
20
-7.54637599160921
30
0
41
1
10
61.3092293298776
20
-7.54785843444452
30
0
41
1
10
61.4627542076969
20
-7.54795368752948
30
0
0
SPLINE
5
C8
100
AcDbEntity
8
1
62
256
6
ByLayer
370
18
48
1
60
0
100
AcDbSpline
70
4
71
3
72
18
73
14
40
0
40
0
40
0
40
0
40
0.0969977391480609
40
0.0969977391480609
40
0.181343576451833
40
0.181343576451833
40
0.265689413755605
40
0.265689413755605
40
0.603072762970692
40
0.603072762970692
40
0.940456112185778
40
0.940456112185778
40
1
40
1
40
1
40
1
41
1
10
41.9239443853048
20
-0.0127283988196893
30
0
41
1
10
42.3004735027785
20
-0.209851298346621
30
0
41
1
10
42.6772462956892
20
-0.40708749449712
30
0
41
1
10
43.3825248376179
20
-0.775239752740703
30
0
41
1
10
43.7110576508571
20
-0.94620044102291
30
0
41
1
10
44.365692084466
20
-1.28501331168363
30
0
41
1
10
44.6922345915806
20
-1.45309640403852
30
0
41
1
10
46.3219976360054
20
-2.28521216205817
30
0
41
1
10
47.6161063405707
20
-2.92488698251304
30
0
41
1
10
50.2072294377876
20
-4.11278446224182
30
0
41
1
10
51.5038897597483
20
-4.66165139529835
30
0
41
1
10
53.0438096617821
20
-5.23188740364279
30
0
41
1
10
53.2754909829708
20
-5.31552925962546
30
0
41
1
10
53.5070620020126
20
-5.3968874906042
30
0
0
SPLINE
5
C9
100
AcDbEntity
8
1
62
256
6
ByLayer
370
13
48
1
60
0
100
AcDbSpline
70
4
71
3
72
18
73
14
40
0
40
0
40
0
40
0
40
0.026035807634814
40
0.026035807634814
40
0.11457800694074
40
0.11457800694074
40
0.291662405552594
40
0.291662405552594
40
0.645831202776297
40
0.645831202776297
40
0.822915601388149
40
0.822915601388149
40
1
40
1
40
1
40
1
41
1
10
53.5070629454943
20
-5.39688782207921
30
0
41
1
10
53.6035194281785
20
-5.4307760359064
30
0
41
1
10
53.6999567734777
20
-5.46426804531151
30
0
41
1
10
54.1240229750315
20
-5.60979372280542
30
0
41
1
10
54.4508932091495
20
-5.71738666312899
30
0
41
1
10
55.4295981503855
20
-6.02498029451797
30
0
41
1
10
56.0795125795561
20
-6.20983967982818
30
0
41
1
10
58.0254872019026
20
-6.70106664055442
30
0
41
1
10
59.3179382080302
20
-6.94339086659383
30
0
41
1
10
61.2654036148026
20
-7.16815912976048
30
0
41
1
10
61.916074169363
20
-7.2200011798333
30
0
41
1
10
63.2231075017878
20
-7.27553551072404
30
0
41
1
10
63.8803595891194
20
-7.27910237011264
30
0
41
1
10
64.5365493144756
20
-7.25787022826341
30
0
0
SPLINE
5
CA
100
AcDbEntity
8
1
62
256
6
ByLayer
370
18
48
1
60
0
100
AcDbSpline
70
4
71
3
72
68
73
64
40
0
40
0
40
0
40
0
40
0.0343725755364297
40
0.0343725755364297
40
0.071512091861951
40
0.071512091861951
40
0.108651608187472
40
0.108651608187472
40
0.145791124512994
40
0.145791124512994
40
0.182930640838515
40
0.182930640838515
40
0.220070157164036
40
0.220070157164036
40
0.257209673489557
40
0.257209673489557
40
0.294349189815079
40
0.294349189815079
40
0.3314887061406
40
0.3314887061406
40
0.368628222466121
40
0.368628222466121
40
0.387197980628882
40
0.387197980628882
40
0.405767738791643
40
0.405767738791643
40
0.442907255117164
40
0.442907255117164
40
0.480046771442685
40
0.480046771442685
40
0.517186287768206
40
0.517186287768206
40
0.535756045930968
40
0.535756045930968
40
0.554325804093729
40
0.554325804093729
40
0.591465320419251
40
0.591465320419251
40
0.628604836744773
40
0.628604836744773
40
0.647174594907534
40
0.647174594907534
40
0.665744353070296
40
0.665744353070296
40
0.702883869395817
40
0.702883869395817
40
0.740023385721338
40
0.740023385721338
40
0.758593143884099
40
0.758593143884099
40
0.77716290204686
40
0.77716290204686
40
0.814302418372384
40
0.814302418372384
40
0.851441934697907
40
0.851441934697907
40
0.88858145102343
40
0.88858145102343
40
0.925720967348953
40
0.925720967348953
40
0.962860483674477
40
0.962860483674477
40
1
40
1
40
1
40
1
41
1
10
50.8428126684119
20
-5.44421213283619
30
0
41
1
10
50.4539018064169
20
-5.57500831143147
30
0
41
1
10
50.0649411681509
20
-5.69959898047154
30
0
41
1
10
49.2535762467761
20
-5.94220481876062
30
0
41
1
10
48.8322316487151
20
-6.0598006612899
30
0
41
1
10
47.9911255217562
20
-6.28022789587132
30
0
41
1
10
47.5713487191141
20
-6.3821610834045
30
0
41
1
10
46.731267121812
20
-6.56751319724438
30
0
41
1
10
46.3110784212632
20
-6.65151552423902
30
0
41
1
10
45.4698705663311
20
-6.79773735256461
30
0
41
1
10
45.0492632148021
20
-6.86199970949505
30
0
41
1
10
44.2064263618288
20
-6.97338380980793
30
0
41
1
10
43.7853442641498
20
-7.01997115551595
30
0
41
1
10
42.9443540451944
20
-7.09339812828412
30
0
41
1
10
42.5246399082723
20
-7.12036488430431
30
0
41
1
10
41.684452345256
20
-7.15087546069259
30
0
41
1
10
41.2639625165982
20
-7.1553282546945
30
0
41
1
10
40.4227797898207
20
-7.14837834429844
30
0
41
1
10
40.0022791405891
20
-7.13599498818752
30
0
41
1
10
39.1596572527669
20
-7.09166569602547
30
0
41
1
10
38.7388912692323
20
-7.06008639751991
30
0
41
1
10
38.1082835129761
20
-6.99625385947365
30
0
41
1
10
37.8981664290803
20
-6.97200776288631
30
0
41
1
10
37.4781839293237
20
-6.91919620323432
30
0
41
1
10
37.2683380621395
20
-6.89076926707722
30
0
41
1
10
36.6385138417594
20
-6.79821023385054
30
0
41
1
10
36.2182581725201
20
-6.72623629252018
30
0
41
1
10
35.3771268162463
20
-6.56499932540768
30
0
41
1
10
34.9565054229849
20
-6.47599947815809
30
0
41
1
10
34.1142280703115
20
-6.28015145444914
30
0
41
1
10
33.6935895055539
20
-6.17381422324519
30
0
41
1
10
33.0631481092572
20
-6.00149241148188
30
0
41
1
10
32.8531047037236
20
-5.94192091199889
30
0
41
1
10
32.4331568734413
20
-5.81771093055372
30
0
41
1
10
32.2232571365805
20
-5.75289721706679
30
0
41
1
10
31.5934210347104
20
-5.55414603255139
30
0
41
1
10
31.1733595959962
20
-5.41541946875341
30
0
41
1
10
30.3325325819662
20
-5.1232619535084
30
0
41
1
10
29.9117860172323
20
-4.96953585626866
30
0
41
1
10
29.2802853316328
20
-4.72832404478297
30
0
41
1
10
29.0699086224778
20
-4.6464031489285
30
0
41
1
10
28.6492882910408
20
-4.47899739127476
30
0
41
1
10
28.4390263100418
20
-4.39348827704993
30
0
41
1
10
27.8084819407882
20
-4.13351154235869
30
0
41
1
10
27.3886216135079
20
-3.95489104659498
30
0
41
1
10
26.5492043795018
20
-3.58685009619433
30
0
41
1
10
26.1292383503666
20
-3.39809784596503
30
0
41
1
10
25.4985687502954
20
-3.10800219121376
30
0
41
1
10
25.2882489897247
20
-3.01015119636051
30
0
41
1
10
24.8673461072364
20
-2.81185924472993
30
0
41
1
10
24.6565926487569
20
-2.71121386355154
30
0
41
1
10
24.0251709949099
20
-2.40723378047431
30
0
41
1
10
23.6049903306045
20
-2.20217069464627
30
0
41
1
10
22.7658597795379
20
-1.78742846704853
30
0
41
1
10
22.3470123509966
20
-1.57762871116083
30
0
41
1
10
21.5105590333877
20
-1.15356805175128
30
0
41
1
10
21.0924463906013
20
-0.940228302092521
30
0
41
1
10
20.2559409145333
20
-0.511977496139764
30
0
41
1
10
19.8377190166943
20
-0.296766414436803
30
0
41
1
10
19.0008494049377
20
0.135135843563404
30
0
41
1
10
18.581661661149
20
0.350874867310353
30
0
41
1
10
17.7420380674823
20
0.781552404036347
30
0
41
1
10
17.3214822935556
20
0.996363978674594
30
0
41
1
10
16.9001058706877
20
1.21064970750183
30
0
0
SPLINE
5
CB
100
AcDbEntity
8
1
62
256
6
ByLayer
370
18
48
1
60
0
100
AcDbSpline
70
4
71
3
72
10
73
6
40
0
40
0
40
0
40
0
40
0.5
40
0.5
40
1
40
1
40
1
40
1
41
1
10
66.7594134363731
20
-1.79946866905593
30
0
41
1
10
66.810834954047
20
-1.58945004447389
30
0
41
1
10
66.854993824401
20
-1.38414154109239
30
0
41
1
10
66.9267599370583
20
-0.979232445801586
30
0
41
1
10
66.9543460989789
20
-0.779217137168132
30
0
41
1
10
66.9726391429201
20
-0.582449946641731
30
0
0
SPLINE
5
CC
100
AcDbEntity
8
1
62
256
6
ByLayer
370
18
48
1
60
0
100
AcDbSpline
70
4
71
3
72
8
73
4
40
0
40
0
40
0
40
0
40
1
40
1
40
1
40
1
41
1
10
64.4260514416964
20
7.53871965198925
30
0
41
1
10
64.175380716868
20
7.54596768821258
30
0
41
1
10
63.9247086737656
20
7.54950539149945
30
0
41
1
10
63.673961791258
20
7.54933498240504
30
0
0
SPLINE
5
CD
100
AcDbEntity
8
1
62
256
6
ByLayer
370
18
48
1
60
0
100
AcDbSpline
70
4
71
3
72
24
73
20
40
0
40
0
40
0
40
0
40
0.0488601315050262
40
0.0488601315050262
40
0.135327392277297
40
0.135327392277297
40
0.221794653049567
40
0.221794653049567
40
0.308261913821837
40
0.308261913821837
40
0.394729174594107
40
0.394729174594107
40
0.481196435366378
40
0.481196435366378
40
0.654130956910919
40
0.654130956910919
40
0.827065478455459
40
0.827065478455459
40
1
40
1
40
1
40
1
41
1
10
24.48906462638
20
-7.15489601016699
30
0
41
1
10
24.1202799222743
20
-7.21667805657174
30
0
41
1
10
23.7513905616247
20
-7.27090607998255
30
0
41
1
10
22.7312654283421
20
-7.39925852660915
30
0
41
1
10
22.0805409818995
20
-7.45681897176365
30
0
41
1
10
20.7784936822043
20
-7.52242639074342
30
0
41
1
10
20.1271408437446
20
-7.53045916795338
30
0
41
1
10
18.8207926669326
20
-7.49640754806325
30
0
41
1
10
18.1692489933363
20
-7.45437837247113
30
0
41
1
10
16.8671239507345
20
-7.32150638436616
30
0
41
1
10
16.2163253999061
20
-7.23070393514806
30
0
41
1
10
14.9125598213504
20
-7.00156978821499
30
0
41
1
10
14.2588259754894
20
-6.86284895043082
30
0
41
1
10
12.3034146094726
20
-6.38123652593578
30
0
41
1
10
11.0035898685994
20
-5.97222071055583
30
0
41
1
10
8.39034509701739
20
-5.00341552175726
30
0
41
1
10
7.08979642200259
20
-4.44769225203763
30
0
41
1
10
4.47610674953972
20
-3.22943684771281
30
0
41
1
10
3.17546085463405
20
-2.57188490936514
30
0
41
1
10
1.86896540364535
20
-1.88654530579572
30
0
0
SPLINE
5
CE
100
AcDbEntity
8
1
62
256
6
ByLayer
370
18
48
1
60
0
100
AcDbSpline
70
4
71
3
72
12
73
8
40
0
40
0
40
0
40
0
40
0.249999999999991
40
0.249999999999991
40
0.499999999999981
40
0.499999999999981
40
1
40
1
40
1
40
1
41
1
10
1.86896540364538
20
-1.88654530579575
30
0
41
1
10
1.84910640097482
20
-1.87612800123702
30
0
41
1
10
1.83112931054217
20
-1.86338331091136
30
0
41
1
10
1.79883508365282
20
-1.83334899796523
30
0
41
1
10
1.78471432435836
20
-1.81610243664909
30
0
41
1
10
1.75049962076631
20
-1.76035991790962
30
0
41
1
10
1.73805468792341
20
-1.71698809599718
30
0
41
1
10
1.73805468792341
20
-1.67295053646541
30
0
0
SPLINE
5
CF
100
AcDbEntity
8
1
62
256
6
ByLayer
370
18
48
1
60
0
100
AcDbSpline
70
4
71
3
72
12
73
8
40
0
40
0
40
0
40
0
40
0.665557650833519
40
0.665557650833519
40
0.998336476250279
40
0.998336476250279
40
1
40
1
40
1
40
1
41
1
10
2.2905742214636
20
7.29746943670995
30
0
41
1
10
2.36874245680642
20
7.26328472138758
30
0
41
1
10
2.45955064707454
20
7.22684178704708
30
0
41
1
10
2.61122196699398
20
7.16984079676433
30
0
41
1
10
2.66426620363961
20
7.15049051186969
30
0
41
1
10
2.71913462026262
20
7.13100651651112
30
0
41
1
10
2.7194075802739
20
7.13090959995523
30
0
41
1
10
2.71968058353374
20
7.13081268067904
30
0
0
SPLINE
5
D0
100
AcDbEntity
8
1
62
256
6
ByLayer
370
18
48
1
60
0
100
AcDbSpline
70
4
71
3
72
20
73
16
40
0
40
0
40
0
40
0
40
0.0152251866581796
40
0.0152251866581796
40
0.0909770953767812
40
0.0909770953767812
40
0.242480912813984
40
0.242480912813984
40
0.393984730251188
40
0.393984730251188
40
0.545488547688391
40
0.545488547688391
40
0.696992365125594
40
0.696992365125594
40
1
40
1
40
1
40
1
41
1
10
4.3810987938611
20
6.75032151327358
30
0
41
1
10
4.44703143358652
20
6.7499887352765
30
0
41
1
10
4.51296661266449
20
6.74977432360635
30
0
41
1
10
4.9068959945422
20
6.74919896014868
30
0
41
1
10
5.23494056017407
20
6.75164649927666
30
0
41
1
10
6.21837665137343
20
6.76746462204949
30
0
41
1
10
6.87055945092462
20
6.7893236508493
30
0
41
1
10
8.16838784695295
20
6.85186629849665
30
0
41
1
10
8.81402285767405
20
6.89256776437171
30
0
41
1
10
10.0991017904692
20
6.98659006932047
30
0
41
1
10
10.7398693234546
20
7.0400832480617
30
0
41
1
10
12.0054397186196
20
7.1503069257098
30
0
41
1
10
12.6310156176389
20
7.20703600579037
30
0
41
1
10
14.4888153511602
20
7.36718375377279
30
0
41
1
10
15.7018702246914
20
7.46004917840796
30
0
41
1
10
16.9001058706877
20
7.49981459591444
30
0
0
LINE
5
76
100
AcDbEntity
8
81
62
256
6
ByLayer
370
18
48
1
60
0
100
AcDbLine
10
67
20
0
30
0
11
72
21
0
31
0
39
0
210
0
220
0
230
1
0
LINE
5
77
100
AcDbEntity
8
1
62
256
6
ByLayer
370
18
48
1
60
0
100
AcDbLine
10
1.738055
20
7.510625
30
0
11
0.300187
21
7.509726
31
0
39
0
210
0
220
0
230
1
0
LINE
5
79
100
AcDbEntity
8
1
62
256
6
ByLayer
370
18
48
1
60
0
100
AcDbLine
10
20.123925
20
7.522116
30
0
11
17.918257
21
7.520738
31
0
39
0
210
0
220
0
230
1
0
LINE
5
7A
100
AcDbEntity
8
1
62
256
6
ByLayer
370
18
48
1
60
0
100
AcDbLine
10
63.675048
20
7.549336
30
0
11
61.464774
21
7.547954
31
0
39
0
210
0
220
0
230
1
0
LINE
5
7B
100
AcDbEntity
8
1
62
256
6
ByLayer
370
18
48
1
60
0
100
AcDbLine
10
61.464774
20
-7.547954
30
0
11
63.675046
21
-7.549336
31
0
39
0
210
0
220
0
230
1
0
LINE
5
7C
100
AcDbEntity
8
1
62
256
6
ByLayer
370
18
48
1
60
0
100
AcDbLine
10
17.918257
20
-7.520738
30
0
11
20.123735
21
-7.522116
31
0
39
0
210
0
220
0
230
1
0
LINE
5
7D
100
AcDbEntity
8
1
62
256
6
ByLayer
370
18
48
1
60
0
100
AcDbLine
10
0.300187
20
-7.509726
30
0
11
1.738055
21
-7.510625
31
0
39
0
210
0
220
0
230
1
0
LINE
5
7E
100
AcDbEntity
8
SK1
62
256
6
ByLayer
370
18
48
1
60
0
100
AcDbLine
10
-45.979274
20
8
30
0
11
-48
21
4.5
31
0
39
0
210
0
220
0
230
1
0
LINE
5
80
100
AcDbEntity
8
SK1
62
256
6
ByLayer
370
18
48
1
60
0
100
AcDbLine
10
-48
20
-4.5
30
0
11
-45.979274
21
-8
31
0
39
0
210
0
220
0
230
1
0
LINE
5
81
100
AcDbEntity
8
SK1
62
256
6
ByLayer
370
18
48
1
60
0
100
AcDbLine
10
0
20
8
30
0
11
-45.979274
21
8
31
0
39
0
210
0
220
0
230
1
0
LINE
5
82
100
AcDbEntity
8
SK1
62
256
6
ByLayer
370
18
48
1
60
0
100
AcDbLine
10
-45.979274
20
-8
30
0
11
0
21
-8
31
0
39
0
210
0
220
0
230
1
0
LINE
5
83
100
AcDbEntity
8
SK4
62
256
6
ByLayer
370
18
48
0.05
60
0
100
AcDbLine
10
72
20
0
30
0
11
-53
21
0
31
0
39
0
210
0
220
0
230
1
0
LINE
5
85
100
AcDbEntity
8
4
62
256
6
ByLayer
370
18
48
0.05
60
0
100
AcDbLine
10
67
20
0
30
0
11
0
21
0
31
0
39
0
210
0
220
0
230
1
0
LINE
5
87
100
AcDbEntity
8
80
62
256
6
ByLayer
370
18
48
1
60
0
100
AcDbLine
10
0
20
0
30
0
11
-5
21
0
31
0
39
0
210
0
220
0
230
1
0
LINE
5
88
100
AcDbEntity
8
SK1
62
256
6
ByLayer
370
18
48
1
60
0
100
AcDbLine
10
-45.979274
20
8
30
0
11
-45.979274
21
-8
31
0
39
0
210
0
220
0
230
1
0
LINE
5
89
100
AcDbEntity
8
SK1
62
256
6
ByLayer
370
18
48
1
60
0
100
AcDbLine
10
-48
20
4.5
30
0
11
-48
21
-4.5
31
0
39
0
210
0
220
0
230
1
0
LINE
5
8A
100
AcDbEntity
8
SK1
62
256
6
ByLayer
370
18
48
1
60
0
100
AcDbLine
10
0
20
8
30
0
11
0
21
-8
31
0
39
0
210
0
220
0
230
1
0
LINE
5
8B
100
AcDbEntity
8
1
62
256
6
ByLayer
370
13
48
1
60
0
100
AcDbLine
10
0.300187
20
7.509726
30
0
11
0.300187
21
-7.509726
31
0
39
0
210
0
220
0
230
1
0
LINE
5
8C
100
AcDbEntity
8
1
62
256
6
ByLayer
370
18
48
1
60
0
100
AcDbLine
10
1.738055
20
-7.510625
30
0
11
1.738055
21
-7.219905
31
0
39
0
210
0
220
0
230
1
0
LINE
5
8D
100
AcDbEntity
8
1
62
256
6
ByLayer
370
13
48
1
60
0
100
AcDbLine
10
64.401339
20
1.759448
30
0
11
66.993005
21
0.118861
31
0
39
0
210
0
220
0
230
1
0
LINE
5
8E
100
AcDbEntity
8
1
62
256
6
ByLayer
370
13
48
1
60
0
100
AcDbLine
10
64.222133
20
1.633662
30
0
11
66.950749
21
-0.093617
31
0
39
0
210
0
220
0
230
1
0
LINE
5
8F
100
AcDbEntity
8
1
62
256
6
ByLayer
370
18
48
1
60
0
100
AcDbLine
10
1.738055
20
-1.672951
30
0
11
1.738055
21
7.510625
31
0
39
0
210
0
220
0
230
1
0
MTEXT
5
D1
100
AcDbEntity
8
SK6
62
256
6
ByLayer
370
13
48
1
60
0
100
AcDbMText
10
11.629169
20
39.932694
30
0
210
0
220
0
230
1
1
\W0.7478;460.1-1510-045A0-XM GC34
40
3.5
41
0
44
1.084337
50
0
71
8
72
5
7
iso_b_vert
0
DIMENSION
5
DE
100
AcDbEntity
8
SK2
62
256
6
ByLayer
370
13
48
1
60
0
100
AcDbDimension
2
DimnDraft3D1
10
64.7474
20
-17.763398
30
0
11
30.497459
21
-17.763398
31
0
70
32
71
5
72
1
41
1
210
0
220
0
230
1
3
Standard
100
AcDbAlignedDimension
13
0
23
-1.5875
33
0
14
64.7474
24
-9.1375
34
0
50
0
100
AcDbRotatedDimension
1001
ACAD
1000
DSTYLE
1002
{
1070
   279
1070
     0
1070
   172
1070
     1
1070
   173
1070
     1
1070
   340
1005
D2
1070
   271
1070
     2
1070
   272
1070
     2
1070
    77
1070
     1
1070
    73
1070
     0
1070
   171
1070
     3
1070
   274
1070
     4
1070
   177
1070
    35
1070
   176
1070
    35
1070
   178
1070
    35
1070
    48
1040
-0.005
1070
    41
1041
3.5
1070
   147
1041
1.75
1070
    42
1041
1.5875
1070
    44
1041
2.0
1070
   140
1041
3.5
1070
   343
1005
0
1070
   344
1005
0
1002
}
0
DIMENSION
5
E8
100
AcDbEntity
8
SK2
62
256
6
ByLayer
370
13
48
1
60
0
100
AcDbDimension
2
DimnDraft3D2
10
67
20
-36.692985
30
0
11
8.5887
21
-36.692985
31
0
70
32
71
5
72
1
41
1
210
0
220
0
230
1
3
Standard
100
AcDbAlignedDimension
13
-48
23
-9.5875
33
0
14
67
24
-1.5875
34
0
50
0
100
AcDbRotatedDimension
1001
ACAD
1000
DSTYLE
1002
{
1070
   279
1070
     0
1070
   172
1070
     1
1070
   173
1070
     1
1070
   340
1005
D2
1070
   271
1070
     2
1070
   272
1070
     2
1070
    77
1070
     1
1070
    73
1070
     0
1070
   171
1070
     3
1070
   274
1070
     4
1070
   177
1070
    35
1070
   176
1070
    35
1070
   178
1070
    35
1070
    48
1040
-0.005
1070
    41
1041
3.5
1070
   147
1041
1.75
1070
    42
1041
1.5875
1070
    44
1041
2.0
1070
   140
1041
3.5
1070
   343
1005
0
1070
   344
1005
0
1002
}
0
DIMENSION
5
F2
100
AcDbEntity
8
SK2
62
256
6
ByLayer
370
13
48
1
60
0
100
AcDbDimension
2
DimnDraft3D3
10
67
20
19.159119
30
0
11
43.225
21
19.159119
31
0
70
32
71
5
72
1
41
1
210
0
220
0
230
1
3
Standard
100
AcDbAlignedDimension
13
19.45
23
9.1375
33
0
14
67
24
1.5875
34
0
50
0
100
AcDbRotatedDimension
1001
ACAD
1000
DSTYLE
1002
{
1070
   279
1070
     0
1070
   172
1070
     1
1070
   173
1070
     1
1070
   340
1005
D2
1070
   271
1070
     2
1070
   272
1070
     2
1070
    77
1070
     1
1070
    73
1070
     0
1070
   171
1070
     3
1070
   274
1070
     4
1070
   177
1070
    35
1070
   176
1070
    35
1070
   178
1070
    35
1070
    48
1040
-0.005
1070
    41
1041
3.5
1070
   147
1041
1.75
1070
    42
1041
1.5875
1070
    44
1041
2.0
1070
   140
1041
3.5
1070
   343
1005
0
1070
   344
1005
0
1002
}
0
DIMENSION
5
FC
100
AcDbEntity
8
SK2
62
256
6
ByLayer
370
13
48
1
60
0
100
AcDbDimension
2
DimnDraft3D4
10
64.7474
20
-20.352503
30
0
11
76.981425
21
-20.352503
31
0
70
32
71
5
72
1
41
1
210
0
220
0
230
1
3
Standard
100
AcDbAlignedDimension
13
67
23
-1.5875
33
0
14
64.7474
24
-9.1375
34
0
50
0
100
AcDbRotatedDimension
1001
ACAD
1000
DSTYLE
1002
{
1070
   279
1070
     0
1070
   172
1070
     1
1070
   173
1070
     1
1070
   340
1005
D2
1070
   271
1070
     2
1070
   272
1070
     2
1070
    77
1070
     1
1070
    73
1070
     0
1070
   171
1070
     3
1070
   274
1070
     4
1070
   177
1070
    35
1070
   176
1070
    35
1070
   178
1070
    35
1070
    48
1040
-0.005
1070
    41
1041
3.5
1070
   147
1041
1.75
1070
    42
1041
1.5875
1070
    44
1041
2.0
1070
   140
1041
3.5
1070
   343
1005
0
1070
   344
1005
0
1002
}
0
DIMENSION
5
106
100
AcDbEntity
8
SK2
62
256
6
ByLayer
370
13
48
1
60
0
100
AcDbDimension
2
DimnDraft3D5
10
64.7474
20
-26.343428
30
0
11
5.508076
21
-26.343428
31
0
70
32
71
5
72
1
41
1
210
0
220
0
230
1
3
Standard
100
AcDbAlignedDimension
13
-48
23
-9.5875
33
0
14
64.7474
24
-9.1375
34
0
50
0
100
AcDbRotatedDimension
1001
ACAD
1000
DSTYLE
1002
{
1070
   279
1070
     0
1070
   172
1070
     1
1070
   173
1070
     1
1070
   340
1005
D2
1070
   271
1070
     2
1070
   272
1070
     2
1070
    77
1070
     1
1070
    73
1070
     0
1070
   171
1070
     3
1070
   274
1070
     4
1070
   177
1070
    35
1070
   176
1070
    35
1070
   178
1070
    35
1070
    48
1040
-0.005
1070
    41
1041
3.5
1070
   147
1041
1.75
1070
    42
1041
1.5875
1070
    44
1041
2.0
1070
   140
1041
3.5
1070
   343
1005
0
1070
   344
1005
0
1002
}
0
DIMENSION
5
111
100
AcDbEntity
8
SK2
62
256
6
ByLayer
370
13
48
1
60
0
100
AcDbDimension
2
DimnDraft3D6
10
-58.625163
20
8
30
0
11
-59.250163
21
26.47418
31
0
70
33
71
5
72
1
41
1
210
0
220
0
230
1
3
Standard
100
AcDbAlignedDimension
13
-49.5875
23
-8
33
0
14
-49.5875
24
8
34
0
1001
ACAD
1000
DSTYLE
1002
{
1070
   279
1070
     0
1070
    74
1070
     0
1070
   173
1070
     1
1070
   340
1005
D2
1070
   271
1070
     3
1070
   272
1070
     2
1070
    77
1070
     1
1070
    73
1070
     0
1070
   171
1070
     3
1070
   274
1070
     4
1070
   177
1070
    35
1070
   176
1070
    35
1070
   178
1070
    35
1070
    48
1040
-0.005
1070
    41
1041
3.5
1070
   147
1041
1.75
1070
    42
1041
1.5875
1070
    44
1041
2.0
1070
   140
1041
3.5
1070
   343
1005
0
1070
   344
1005
0
1002
}
0
DIMENSION
5
11C
100
AcDbEntity
8
2
62
256
6
ByLayer
370
13
48
1
60
0
100
AcDbDimension
2
DimnDraft3D7
10
81.083343
20
7.55
30
0
11
76.458343
21
24.617266
31
0
70
33
71
5
72
1
41
1
210
0
220
0
230
1
3
Standard
100
AcDbAlignedDimension
13
66.3349
23
-7.55
33
0
14
66.3349
24
7.55
34
0
1001
ACAD
1000
DSTYLE
1002
{
1070
   279
1070
     0
1070
    74
1070
     0
1070
   173
1070
     1
1070
   340
1005
D2
1070
   271
1070
     3
1070
   272
1070
     2
1070
    77
1070
     1
1070
    73
1070
     0
1070
   171
1070
     3
1070
   274
1070
     4
1070
   177
1070
    35
1070
   176
1070
    35
1070
   178
1070
    35
1070
    48
1040
-0.005
1070
    41
1041
3.5
1070
   147
1041
1.75
1070
    42
1041
1.5875
1070
    44
1041
2.0
1070
   140
1041
3.5
1070
   343
1005
0
1070
   344
1005
0
1002
}
0
ENDSEC
0
SECTION
2
OBJECTS
0
DICTIONARY
5
187
330
0
100
AcDbDictionary
280
0
281
1
3
ACAD_GROUP
350
188
3
ACAD_MLINESTYLE
350
189
0
DICTIONARY
5
188
330
0
100
AcDbDictionary
280
0
281
1
0
DICTIONARY
5
189
330
0
100
AcDbDictionary
280
0
281
1
3
Standard
350
18
0
MLINESTYLE
5
18
330
189
100
AcDbMlineStyle
2
Standard
70
0
3

62
256
51
90
52
90
71
2
49
-0.5
62
256
6
ByLayer
49
0.5
62
256
6
ByLayer
0
RASTERVARIABLES
5
175
330

100
AcDbRasterVariables
90
0
70
1
71
1
72
1
0
ENDSEC
0
EOF
