0
SECTION
2
HEADER
9
$ACADVER
1
AC1015
9
$DWGCODEPAGE
3
ANSI_1252
9
$HANDSEED
5
19e
9
$ANGBASE
50
0
9
$ANGDIR
70
0
9
$ATTMODE
70
1
9
$AUNITS
70
0
9
$AUPREC
70
0
9
$CECOLOR
62
256
9
$CELTSCALE
40
1
9
$CELTYPE
6
ByLayer
9
$CELWEIGHT
370
18
9
$CLAYER
8
0
9
$CMLJUST
70
0
9
$CMLSCALE
40
1
9
$CMLSTYLE
2
Standard
9
$DIMSTYLE
2
Standard
9
$TEXTSIZE
40
0.2
9
$TEXTSTYLE
7
Standard
9
$LUNITS
70
2
9
$LUPREC
70
4
9
$EXTNAMES
290
1
9
$INSUNITS
70
4
9
$LTSCALE
40
1
9
$LWDISPLAY
290
1
9
$PDMODE
70
0
9
$PDSIZE
40
0
9
$PLINEGEN
70
0
0
ENDSEC
0
SECTION
2
CLASSES
0
CLASS
1
RASTERVARIABLES
2
AcDbRasterVariables
3
ISM
90
0
280
0
281
0
0
ENDSEC
0
SECTION
2
TABLES
0
TABLE
2
VPORT
5
194
100
AcDbSymbolTable
0
VPORT
5
1
100
AcDbSymbolTableRecord
100
AcDbViewportTableRecord
2
*Active
70
0
10
0
20
0
11
1
21
1
12
-1
22
1
13
0
23
0
14
0.5
24
0.5
15
10
25
10
16
0
26
0
36
1
17
0
27
0
37
0
0
ENDTAB
0
TABLE
2
LTYPE
5
195
100
AcDbSymbolTable
0
LTYPE
5
14
100
AcDbSymbolTableRecord
100
AcDbLinetypeTableRecord
70
0
2
ByBlock
3

72
65
73
0
40
0
0
LTYPE
5
15
100
AcDbSymbolTableRecord
100
AcDbLinetypeTableRecord
70
0
2
ByLayer
3

72
65
73
0
40
0
0
LTYPE
5
16
100
AcDbSymbolTableRecord
100
AcDbLinetypeTableRecord
70
0
2
CONTINUOUS
3
Solid line
72
65
73
0
40
0
0
LTYPE
5
6A
100
AcDbSymbolTableRecord
100
AcDbLinetypeTableRecord
70
0
2
CENTER
3
____ _ ____ _ ____ _ ____
72
65
73
4
40
47.5
49
22
74
0
49
-8.5
74
0
49
8.5
74
0
49
-8.5
74
0
0
LTYPE
5
6B
100
AcDbSymbolTableRecord
100
AcDbLinetypeTableRecord
70
0
2
DASHED
3
__ __ __ __ __ __ __ __ __
72
65
73
2
40
25.72
49
12.86
74
0
49
-12.86
74
0
0
ENDTAB
0
TABLE
2
LAYER
5
196
100
AcDbSymbolTable
0
LAYER
5
10
100
AcDbSymbolTableRecord
100
AcDbLayerTableRecord
2
0
70
0
62
7
6
CONTINUOUS
290
1
370
-3
390
0
0
LAYER
5
6D
100
AcDbSymbolTableRecord
100
AcDbLayerTableRecord
2
81
70
0
62
-3
6
CONTINUOUS
290
1
370
-3
390
0
0
LAYER
5
6F
100
AcDbSymbolTableRecord
100
AcDbLayerTableRecord
2
80
70
0
62
-6
6
CONTINUOUS
290
1
370
-3
390
0
0
LAYER
5
74
100
AcDbSymbolTableRecord
100
AcDbLayerTableRecord
2
2
70
0
62
7
6
CONTINUOUS
290
1
370
-3
390
0
0
LAYER
5
78
100
AcDbSymbolTableRecord
100
AcDbLayerTableRecord
2
1
70
0
62
4
6
CONTINUOUS
290
1
370
-3
390
0
0
LAYER
5
86
100
AcDbSymbolTableRecord
100
AcDbLayerTableRecord
2
4
70
0
62
-2
6
CENTER
290
1
370
-3
390
0
0
LAYER
5
180
100
AcDbSymbolTableRecord
100
AcDbLayerTableRecord
2
SK2
70
0
62
7
6
CONTINUOUS
290
1
370
-3
390
0
0
LAYER
5
181
100
AcDbSymbolTableRecord
100
AcDbLayerTableRecord
2
SK1
70
0
62
4
6
CONTINUOUS
290
1
370
-3
390
0
0
LAYER
5
182
100
AcDbSymbolTableRecord
100
AcDbLayerTableRecord
2
SK4
70
0
62
2
6
CENTER
290
1
370
-3
390
0
0
LAYER
5
183
100
AcDbSymbolTableRecord
100
AcDbLayerTableRecord
2
SK6
70
0
62
5
6
CONTINUOUS
290
1
370
-3
390
0
0
ENDTAB
0
TABLE
2
STYLE
5
197
100
AcDbSymbolTable
0
STYLE
5
11
100
AcDbSymbolTableRecord
100
AcDbTextStyleTableRecord
2
Standard
3
txt
70
0
71
0
40
0
41
1
42
0
50
0
0
STYLE
5
DC
100
AcDbSymbolTableRecord
100
AcDbTextStyleTableRecord
2
iso_b_vert
3
simplex.shx
70
0
71
0
40
0
41
1
42
0
50
0
0
STYLE
5
DD
100
AcDbSymbolTableRecord
100
AcDbTextStyleTableRecord
2
DWGDirectTextStyle
3
simplex
70
0
71
0
40
0
41
1
42
0
50
0
0
ENDTAB
0
TABLE
2
DIMSTYLE
5
198
100
AcDbSymbolTable
100
AcDbDimStyleTable
0
DIMSTYLE
105
27
100
AcDbSymbolTableRecord
100
AcDbDimStyleTableRecord
2
Standard
70
0
3
<>
41
0.18
42
0.0625
44
0.18
140
0.18
147
0.09
73
0
74
0
77
1
271
2
275
0
278
52
280
0
340
11
0
ENDTAB
0
TABLE
2
VIEW
5
199
100
AcDbSymbolTable
0
ENDTAB
0
TABLE
2
UCS
5
19a
100
AcDbSymbolTable
0
ENDTAB
0
TABLE
2
APPID
5
19b
100
AcDbSymbolTable
0
APPID
5
12
100
AcDbSymbolTableRecord
100
AcDbRegAppTableRecord
2
ACAD
70
0
0
ENDTAB
0
TABLE
2
BLOCK_RECORD
5
19c
100
AcDbSymbolTable
0
BLOCK_RECORD
5
1F
100
AcDbSymbolTableRecord
100
AcDbBlockTableRecord
2
*Model_Space
340
0
70
0
0
BLOCK_RECORD
5
1B
100
AcDbSymbolTableRecord
100
AcDbBlockTableRecord
2
*Paper_Space
340
0
70
0
0
BLOCK_RECORD
5
23
100
AcDbSymbolTableRecord
100
AcDbBlockTableRecord
2
*Paper_Space0
340
0
70
0
0
BLOCK_RECORD
5
DF
100
AcDbSymbolTableRecord
100
AcDbBlockTableRecord
2
DimnDraft3D1
340
0
70
0
0
BLOCK_RECORD
5
E9
100
AcDbSymbolTableRecord
100
AcDbBlockTableRecord
2
DimnDraft3D2
340
0
70
0
0
BLOCK_RECORD
5
F3
100
AcDbSymbolTableRecord
100
AcDbBlockTableRecord
2
DimnDraft3D3
340
0
70
0
0
BLOCK_RECORD
5
FD
100
AcDbSymbolTableRecord
100
AcDbBlockTableRecord
2
DimnDraft3D4
340
0
70
0
0
BLOCK_RECORD
5
107
100
AcDbSymbolTableRecord
100
AcDbBlockTableRecord
2
DimnDraft3D5
340
0
70
0
0
BLOCK_RECORD
5
111
100
AcDbSymbolTableRecord
100
AcDbBlockTableRecord
2
DimnDraft3D6
340
0
70
0
0
BLOCK_RECORD
5
11C
100
AcDbSymbolTableRecord
100
AcDbBlockTableRecord
2
DimnDraft3D7
340
0
70
0
0
ENDTAB
0
ENDSEC
0
SECTION
2
BLOCKS
0
BLOCK
5
20
100
AcDbEntity
8
0
100
AcDbBlockBegin
2
*Model_Space
70
0
10
0
20
0
30
0
3
*Model_Space
0
ENDBLK
5
21
100
AcDbEntity
8
0
100
AcDbBlockEnd
0
BLOCK
5
1C
100
AcDbEntity
8
0
100
AcDbBlockBegin
2
*Paper_Space
70
0
10
0
20
0
30
0
3
*Paper_Space
0
ENDBLK
5
1D
100
AcDbEntity
8
0
100
AcDbBlockEnd
0
BLOCK
5
24
100
AcDbEntity
8
0
100
AcDbBlockBegin
2
*Paper_Space0
70
0
10
0
20
0
30
0
3
*Paper_Space0
0
ENDBLK
5
25
100
AcDbEntity
8
0
100
AcDbBlockEnd
0
BLOCK
5
E6
100
AcDbEntity
8
0
100
AcDbBlockBegin
2
DimnDraft3D1
70
0
10
0
20
0
30
0
3
DimnDraft3D1
0
MTEXT
5
E0
100
AcDbEntity
8
SK2
62
256
6
ByLayer
370
13
48
1
60
0
100
AcDbMText
10
21.373554
20
-14.588398
30
0
210
0
220
0
230
1
1
\W0.7756;55,44
40
3.5
41
0
44
1.084337
50
0
71
7
72
5
7
iso_b_vert
0
LINE
5
E1
100
AcDbEntity
8
SK2
62
256
6
ByLayer
370
13
48
1
60
0
100
AcDbLine
10
0
20
-1.5875
30
0
11
0
21
-17.463398
31
0
39
0
210
0
220
0
230
1
0
LINE
5
E2
100
AcDbEntity
8
SK2
62
256
6
ByLayer
370
13
48
1
60
0
100
AcDbLine
10
55.4406
20
-6.8375
30
0
11
55.4406
21
-17.463398
31
0
39
0
210
0
220
0
230
1
0
LINE
5
E3
100
AcDbEntity
8
SK2
62
256
6
ByLayer
370
13
48
1
60
0
100
AcDbLine
10
0
20
-15.463398
30
0
11
55.4406
21
-15.463398
31
0
39
0
210
0
220
0
230
1
0
SOLID
5
E4
100
AcDbEntity
8
SK2
62
256
6
ByLayer
370
13
48
1
60
0
100
AcDbTrace
10
0
20
-15.463398
30
0
11
3.499998
21
-15.002615
31
0
12
3.500002
22
-15.924182
32
0
13
0
23
-15.463398
33
0
39
0
210
0
220
0
230
1
0
SOLID
5
E5
100
AcDbEntity
8
SK2
62
256
6
ByLayer
370
13
48
1
60
0
100
AcDbTrace
10
55.4406
20
-15.463398
30
0
11
51.940602
21
-15.924182
31
0
12
51.940598
22
-15.002615
32
0
13
55.4406
23
-15.463398
33
0
39
0
210
0
220
0
230
1
0
ENDBLK
5
E7
100
AcDbEntity
8
0
100
AcDbBlockEnd
0
BLOCK
5
F0
100
AcDbEntity
8
0
100
AcDbBlockBegin
2
DimnDraft3D2
70
0
10
0
20
0
30
0
3
DimnDraft3D2
0
MTEXT
5
EA
100
AcDbEntity
8
SK2
62
256
6
ByLayer
370
13
48
1
60
0
100
AcDbMText
10
0.462821
20
-33.817985
30
0
210
0
220
0
230
1
1
\W0.6930;102,00
40
3.5
41
0
44
1.084337
50
0
71
7
72
5
7
iso_b_vert
0
LINE
5
EB
100
AcDbEntity
8
SK2
62
256
6
ByLayer
370
13
48
1
60
0
100
AcDbLine
10
-45
20
-7.5875
30
0
11
-45
21
-36.692985
31
0
39
0
210
0
220
0
230
1
0
LINE
5
EC
100
AcDbEntity
8
SK2
62
256
6
ByLayer
370
13
48
1
60
0
100
AcDbLine
10
57
20
-1.5875
30
0
11
57
21
-36.692985
31
0
39
0
210
0
220
0
230
1
0
LINE
5
ED
100
AcDbEntity
8
SK2
62
256
6
ByLayer
370
13
48
1
60
0
100
AcDbLine
10
-45
20
-34.692985
30
0
11
57
21
-34.692985
31
0
39
0
210
0
220
0
230
1
0
SOLID
5
EE
100
AcDbEntity
8
SK2
62
256
6
ByLayer
370
13
48
1
60
0
100
AcDbTrace
10
-45
20
-34.692985
30
0
11
-41.500002
21
-34.232202
31
0
12
-41.499998
22
-35.153769
32
0
13
-45
23
-34.692985
33
0
39
0
210
0
220
0
230
1
0
SOLID
5
EF
100
AcDbEntity
8
SK2
62
256
6
ByLayer
370
13
48
1
60
0
100
AcDbTrace
10
57
20
-34.692985
30
0
11
53.500002
21
-35.153769
31
0
12
53.499998
22
-34.232202
32
0
13
57
23
-34.692985
33
0
39
0
210
0
220
0
230
1
0
ENDBLK
5
F1
100
AcDbEntity
8
0
100
AcDbBlockEnd
0
BLOCK
5
FA
100
AcDbEntity
8
0
100
AcDbBlockBegin
2
DimnDraft3D3
70
0
10
0
20
0
30
0
3
DimnDraft3D3
0
MTEXT
5
F4
100
AcDbEntity
8
SK2
62
256
6
ByLayer
370
13
48
1
60
0
100
AcDbMText
10
36.026316
20
17.734119
30
0
210
0
220
0
230
1
1
\W0.7317;33,05
40
3.5
41
0
44
1.084337
50
0
71
7
72
5
7
iso_b_vert
0
LINE
5
F5
100
AcDbEntity
8
SK2
62
256
6
ByLayer
370
13
48
1
60
0
100
AcDbLine
10
23.95
20
6.8375
30
0
11
23.95
21
18.859119
31
0
39
0
210
0
220
0
230
1
0
LINE
5
F6
100
AcDbEntity
8
SK2
62
256
6
ByLayer
370
13
48
1
60
0
100
AcDbLine
10
57
20
1.5875
30
0
11
57
21
18.859119
31
0
39
0
210
0
220
0
230
1
0
LINE
5
F7
100
AcDbEntity
8
SK2
62
256
6
ByLayer
370
13
48
1
60
0
100
AcDbLine
10
23.95
20
16.859119
30
0
11
57
21
16.859119
31
0
39
0
210
0
220
0
230
1
0
SOLID
5
F8
100
AcDbEntity
8
SK2
62
256
6
ByLayer
370
13
48
1
60
0
100
AcDbTrace
10
23.95
20
16.859119
30
0
11
27.449998
21
17.319903
31
0
12
27.450002
22
16.398335
32
0
13
23.95
23
16.859119
33
0
39
0
210
0
220
0
230
1
0
SOLID
5
F9
100
AcDbEntity
8
SK2
62
256
6
ByLayer
370
13
48
1
60
0
100
AcDbTrace
10
57
20
16.859119
30
0
11
53.500002
21
16.398335
31
0
12
53.499998
22
17.319903
32
0
13
57
23
16.859119
33
0
39
0
210
0
220
0
230
1
0
ENDBLK
5
FB
100
AcDbEntity
8
0
100
AcDbBlockEnd
0
BLOCK
5
104
100
AcDbEntity
8
0
100
AcDbBlockBegin
2
DimnDraft3D4
70
0
10
0
20
0
30
0
3
DimnDraft3D4
0
MTEXT
5
FE
100
AcDbEntity
8
SK2
62
256
6
ByLayer
370
13
48
1
60
0
100
AcDbMText
10
64.278136
20
-17.177503
30
0
210
0
220
0
230
1
1
\W0.6367;1,56
40
3.5
41
0
44
1.084337
50
0
71
7
72
5
7
iso_b_vert
0
LINE
5
FF
100
AcDbEntity
8
SK2
62
256
6
ByLayer
370
13
48
1
60
0
100
AcDbLine
10
57
20
-1.5875
30
0
11
57
21
-20.052503
31
0
39
0
210
0
220
0
230
1
0
LINE
5
100
100
AcDbEntity
8
SK2
62
256
6
ByLayer
370
13
48
1
60
0
100
AcDbLine
10
55.4406
20
-6.8375
30
0
11
55.4406
21
-20.052503
31
0
39
0
210
0
220
0
230
1
0
LINE
5
101
100
AcDbEntity
8
SK2
62
256
6
ByLayer
370
13
48
1
60
0
100
AcDbLine
10
46.6906
20
-18.052503
30
0
11
70.559715
21
-18.052503
31
0
39
0
210
0
220
0
230
1
0
SOLID
5
102
100
AcDbEntity
8
SK2
62
256
6
ByLayer
370
13
48
1
60
0
100
AcDbTrace
10
57
20
-18.052503
30
0
11
60.499998
21
-17.591719
31
0
12
60.500002
22
-18.513287
32
0
13
57
23
-18.052503
33
0
39
0
210
0
220
0
230
1
0
SOLID
5
103
100
AcDbEntity
8
SK2
62
256
6
ByLayer
370
13
48
1
60
0
100
AcDbTrace
10
55.4406
20
-18.052503
30
0
11
51.940602
21
-18.513287
31
0
12
51.940598
22
-17.591719
32
0
13
55.4406
23
-18.052503
33
0
39
0
210
0
220
0
230
1
0
ENDBLK
5
105
100
AcDbEntity
8
0
100
AcDbBlockEnd
0
BLOCK
5
10E
100
AcDbEntity
8
0
100
AcDbBlockBegin
2
DimnDraft3D5
70
0
10
0
20
0
30
0
3
DimnDraft3D5
0
MTEXT
5
108
100
AcDbEntity
8
SK2
62
256
6
ByLayer
370
13
48
1
60
0
100
AcDbMText
10
-2.986224
20
-23.468428
30
0
210
0
220
0
230
1
1
\W0.7261;100,44
40
3.5
41
0
44
1.084337
50
0
71
7
72
5
7
iso_b_vert
0
LINE
5
109
100
AcDbEntity
8
SK2
62
256
6
ByLayer
370
13
48
1
60
0
100
AcDbLine
10
-45
20
-7.5875
30
0
11
-45
21
-26.343428
31
0
39
0
210
0
220
0
230
1
0
LINE
5
10A
100
AcDbEntity
8
SK2
62
256
6
ByLayer
370
13
48
1
60
0
100
AcDbLine
10
55.4406
20
-6.8375
30
0
11
55.4406
21
-26.343428
31
0
39
0
210
0
220
0
230
1
0
LINE
5
10B
100
AcDbEntity
8
SK2
62
256
6
ByLayer
370
13
48
1
60
0
100
AcDbLine
10
-45
20
-24.343428
30
0
11
55.4406
21
-24.343428
31
0
39
0
210
0
220
0
230
1
0
SOLID
5
10C
100
AcDbEntity
8
SK2
62
256
6
ByLayer
370
13
48
1
60
0
100
AcDbTrace
10
-45
20
-24.343428
30
0
11
-41.500002
21
-23.882645
31
0
12
-41.499998
22
-24.804212
32
0
13
-45
23
-24.343428
33
0
39
0
210
0
220
0
230
1
0
SOLID
5
10D
100
AcDbEntity
8
SK2
62
256
6
ByLayer
370
13
48
1
60
0
100
AcDbTrace
10
55.4406
20
-24.343428
30
0
11
51.940602
21
-24.804212
31
0
12
51.940598
22
-23.882645
32
0
13
55.4406
23
-24.343428
33
0
39
0
210
0
220
0
230
1
0
ENDBLK
5
10F
100
AcDbEntity
8
0
100
AcDbBlockEnd
0
BLOCK
5
119
100
AcDbEntity
8
0
100
AcDbBlockBegin
2
DimnDraft3D6
70
0
10
0
20
0
30
0
3
DimnDraft3D6
0
MTEXT
5
112
100
AcDbEntity
8
SK2
62
256
6
ByLayer
370
13
48
1
60
0
100
AcDbMText
10
-55.375163
20
25.34918
30
0
210
0
220
0
230
1
1
\W0.6930;12,000
40
3.5
41
0
44
1.084337
50
90
71
7
72
5
7
iso_b_vert
0
MTEXT
5
113
100
AcDbEntity
8
SK2
62
256
6
ByLayer
370
13
48
1
60
0
100
AcDbMText
10
-55.375163
20
20.126524
30
0
210
0
220
0
230
1
1
%%c
40
3.5
41
0
44
1.084337
50
90
71
7
72
5
7
iso_b_vert
0
LINE
5
114
100
AcDbEntity
8
SK2
62
256
6
ByLayer
370
13
48
1
60
0
100
AcDbLine
10
-46.5875
20
-6
30
0
11
-55.625163
21
-6
31
0
39
0
210
0
220
0
230
1
0
LINE
5
115
100
AcDbEntity
8
SK2
62
256
6
ByLayer
370
13
48
1
60
0
100
AcDbLine
10
-46.5875
20
6
30
0
11
-55.625163
21
6
31
0
39
0
210
0
220
0
230
1
0
LINE
5
116
100
AcDbEntity
8
SK2
62
256
6
ByLayer
370
13
48
1
60
0
100
AcDbLine
10
-53.625163
20
-6
30
0
11
-53.625163
21
36.862338
31
0
39
0
210
0
220
0
230
1
0
SOLID
5
117
100
AcDbEntity
8
SK2
62
256
6
ByLayer
370
13
48
1
60
0
100
AcDbTrace
10
-53.625163
20
-6
30
0
11
-54.085946
21
-2.500002
31
0
12
-53.164379
22
-2.499998
32
0
13
-53.625163
23
-6
33
0
39
0
210
0
220
0
230
1
0
SOLID
5
118
100
AcDbEntity
8
SK2
62
256
6
ByLayer
370
13
48
1
60
0
100
AcDbTrace
10
-53.625163
20
6
30
0
11
-53.164379
21
2.500002
31
0
12
-54.085946
22
2.499998
32
0
13
-53.625163
23
6
33
0
39
0
210
0
220
0
230
1
0
ENDBLK
5
11A
100
AcDbEntity
8
0
100
AcDbBlockEnd
0
BLOCK
5
124
100
AcDbEntity
8
0
100
AcDbBlockBegin
2
DimnDraft3D7
70
0
10
0
20
0
30
0
3
DimnDraft3D7
0
MTEXT
5
11D
100
AcDbEntity
8
2
62
256
6
ByLayer
370
13
48
1
60
0
100
AcDbMText
10
67.333343
20
23.192266
30
0
210
0
220
0
230
1
1
\W0.6930;10,500
40
3.5
41
0
44
1.084337
50
90
71
7
72
5
7
iso_b_vert
0
MTEXT
5
11E
100
AcDbEntity
8
2
62
256
6
ByLayer
370
13
48
1
60
0
100
AcDbMText
10
67.333343
20
17.96961
30
0
210
0
220
0
230
1
1
%%c
40
3.5
41
0
44
1.084337
50
90
71
7
72
5
7
iso_b_vert
0
LINE
5
11F
100
AcDbEntity
8
2
62
256
6
ByLayer
370
13
48
1
60
0
100
AcDbLine
10
57.0281
20
-5.25
30
0
11
71.083343
21
-5.25
31
0
39
0
210
0
220
0
230
1
0
LINE
5
120
100
AcDbEntity
8
2
62
256
6
ByLayer
370
13
48
1
60
0
100
AcDbLine
10
57.0281
20
5.25
30
0
11
71.083343
21
5.25
31
0
39
0
210
0
220
0
230
1
0
LINE
5
121
100
AcDbEntity
8
2
62
256
6
ByLayer
370
13
48
1
60
0
100
AcDbLine
10
69.083343
20
-5.25
30
0
11
69.083343
21
34.705424
31
0
39
0
210
0
220
0
230
1
0
SOLID
5
122
100
AcDbEntity
8
2
62
256
6
ByLayer
370
13
48
1
60
0
100
AcDbTrace
10
69.083343
20
-5.25
30
0
11
68.622559
21
-1.750002
31
0
12
69.544126
22
-1.749998
32
0
13
69.083343
23
-5.25
33
0
39
0
210
0
220
0
230
1
0
SOLID
5
123
100
AcDbEntity
8
2
62
256
6
ByLayer
370
13
48
1
60
0
100
AcDbTrace
10
69.083343
20
5.25
30
0
11
69.544126
21
1.750002
31
0
12
68.622559
22
1.749998
32
0
13
69.083343
23
5.25
33
0
39
0
210
0
220
0
230
1
0
ENDBLK
5
125
100
AcDbEntity
8
0
100
AcDbBlockEnd
0
ENDSEC
0
SECTION
2
ENTITIES
0
ARC
5
93
100
AcDbEntity
8
1
62
256
6
ByLayer
370
18
48
1
60
0
100
AcDbCircle
39
0
10
-0.35
20
5.565571
30
0
40
0.350000000000009
210
0
220
0
230
-1
100
AcDbArc
50
269.96419
51
0
0
ARC
5
94
100
AcDbEntity
8
1
62
256
6
ByLayer
370
18
48
1
60
0
100
AcDbCircle
39
0
10
-0.35
20
-5.565571
30
0
40
0.350000000000009
210
0
220
0
230
-1
100
AcDbArc
50
0
51
90.03581
0
ELLIPSE
5
95
100
AcDbEntity
8
1
62
256
6
ByLayer
370
18
48
1
60
0
100
AcDbEllipse
10
2.686348
20
-5.205029
30
0
11
-0.25
21
3.06151588455594E-17
31
0
210
0
220
0
230
1
40
0.999979
41
-1.56431260510079
42
-0.00859614546596834
0
ELLIPSE
5
96
100
AcDbEntity
8
1
62
256
6
ByLayer
370
18
48
1
60
0
100
AcDbEllipse
10
2.686348
20
5.205029
30
0
11
-0.25
21
3.06151588455594E-17
31
0
210
0
220
0
230
1
40
0.999979
41
0.00859614558008811
42
1.58252085405648
0
POINT
5
6C
100
AcDbEntity
8
81
62
256
6
ByLayer
370
18
48
1
60
0
100
AcDbPoint
10
57
20
0
30
0
39
0
210
0
220
0
230
1
50
360
0
POINT
5
6E
100
AcDbEntity
8
80
62
256
6
ByLayer
370
18
48
1
60
0
100
AcDbPoint
10
0
20
0
30
0
39
0
210
0
220
0
230
1
50
360
0
POINT
5
70
100
AcDbEntity
8
SK2
62
256
6
ByLayer
370
18
48
1
60
1
100
AcDbPoint
10
-45
20
-6
30
0
39
0
210
0
220
0
230
1
50
360
0
POINT
5
72
100
AcDbEntity
8
SK2
62
256
6
ByLayer
370
18
48
1
60
1
100
AcDbPoint
10
-45
20
6
30
0
39
0
210
0
220
0
230
1
50
360
0
POINT
5
73
100
AcDbEntity
8
2
62
256
6
ByLayer
370
18
48
1
60
1
100
AcDbPoint
10
55.4406
20
-5.25
30
0
39
0
210
0
220
0
230
1
50
360
0
POINT
5
75
100
AcDbEntity
8
2
62
256
6
ByLayer
370
18
48
1
60
1
100
AcDbPoint
10
55.4406
20
5.25
30
0
39
0
210
0
220
0
230
1
50
360
0
SPLINE
5
97
100
AcDbEntity
8
1
62
256
6
ByLayer
370
18
48
1
60
0
100
AcDbSpline
70
4
71
3
72
32
73
28
40
0
40
0
40
0
40
0
40
0.0237420098255798
40
0.0664299805054103
40
0.106631756718537
40
0.14260577055787
40
0.177100046399021
40
0.215763791965116
40
0.260922698979406
40
0.310306177455386
40
0.354803046355574
40
0.39118810555855
40
0.419529861368303
40
0.453627686312097
40
0.510798749252633
40
0.574263382175663
40
0.626890498940074
40
0.668737189570575
40
0.70653361284172
40
0.744299602557993
40
0.782437791696539
40
0.834381963152389
40
0.89332203969875
40
0.939721837460216
40
0.958438025447937
40
0.988241200674034
40
1
40
1
40
1
40
1
41
1
10
37.3600832690723
20
4.97295263225519
30
0
41
1
10
37.2636522622941
20
4.97269604183018
30
0
41
1
10
36.9938397636781
20
4.97213680888322
30
0
41
1
10
36.5607489050965
20
4.97220940825747
30
0
41
1
10
36.0779779515451
20
4.97272444931554
30
0
41
1
10
35.6284768291265
20
4.97350214491175
30
0
41
1
10
35.1852254606336
20
4.97423391797679
30
0
41
1
10
34.7046653459807
20
4.97423498814348
30
0
41
1
10
34.1636338764155
20
4.9723845765588
30
0
41
1
10
33.5989105459009
20
4.97251468865684
30
0
41
1
10
33.0698241956063
20
4.97155125729032
30
0
41
1
10
32.6262004089198
20
4.970174641998
30
0
41
1
10
32.2248114947474
20
4.97013264993458
30
0
41
1
10
31.7389976232598
20
4.97040315424846
30
0
41
1
10
31.1105398272495
20
4.97094318280173
30
0
41
1
10
30.406810787232
20
4.97243464762855
30
0
41
1
10
29.7653246556575
20
4.9706770078057
30
0
41
1
10
29.2280967667047
20
4.96908767789145
30
0
41
1
10
28.7512236978011
20
4.96908798282902
30
0
41
1
10
28.2894154538044
20
4.96925248025576
30
0
41
1
10
27.7701519552449
20
4.96955593599665
30
0
41
1
10
27.1648731051775
20
4.97028523760466
30
0
41
1
10
26.5260582448418
20
4.96885446546901
30
0
41
1
10
26.0221785913781
20
4.96803646753261
30
0
41
1
10
25.6366689820238
20
4.96806167183991
30
0
41
1
10
25.3919187473929
20
4.96808786011124
30
0
41
1
10
25.2231502300426
20
4.96810285705379
30
0
41
1
10
25.1754009386467
20
4.96810647250615
30
0
0
SPLINE
5
98
100
AcDbEntity
8
1
62
256
6
ByLayer
370
18
48
1
60
0
100
AcDbSpline
70
4
71
2
72
6
73
3
40
0
40
0
40
0
40
1
40
1
40
1
41
1
10
54.8268746165795
20
-4.98710798074367
30
0
41
1
10
55.0239486295378
20
-4.98740918683933
30
0
41
1
10
55.2185502576754
20
-4.98589892263811
30
0
0
SPLINE
5
99
100
AcDbEntity
8
1
62
256
6
ByLayer
370
18
48
1
60
0
100
AcDbSpline
70
4
71
3
72
12
73
8
40
0
40
0
40
0
40
0
40
0.290837896627919
40
0.592485776331795
40
0.820011211859772
40
0.976180257592166
40
1
40
1
40
1
40
1
41
1
10
2.68697934600615
20
-4.95484234024892
30
0
41
1
10
2.9697295195092
20
-4.95557242935291
30
0
41
1
10
3.54574606460739
20
-4.95670783267434
30
0
41
1
10
4.34292271520283
20
-4.95677769302969
30
0
41
1
10
5.00928303676392
20
-4.95684223592616
30
0
41
1
10
5.40511691514695
20
-4.95716390727338
30
0
41
1
10
5.58009716781442
20
-4.95740471479198
30
0
41
1
10
5.60325482697817
20
-4.95743798672905
30
0
0
SPLINE
5
9A
100
AcDbEntity
8
1
62
256
6
ByLayer
370
18
48
1
60
0
100
AcDbSpline
70
4
71
3
72
33
73
29
40
0
40
0
40
0
40
0
40
0.0583549355744541
40
0.109952913287504
40
0.148204410313371
40
0.180291255669259
40
0.203433762083246
40
0.233907967684889
40
0.271103432369324
40
0.304505673538602
40
0.330341864046973
40
0.350274435187925
40
0.375174973672889
40
0.416320225121085
40
0.465412547065814
40
0.509895667518557
40
0.548408413602355
40
0.58471975859549
40
0.639648474188975
40
0.692709879842189
40
0.738373796890612
40
0.783870115069688
40
0.833584329211282
40
0.872400219719346
40
0.917533014337954
40
0.959350579228045
40
0.987553985515877
40
1
40
1
40
1
40
1
41
1
10
22.2139210475127
20
-4.96672403345181
30
0
41
1
10
22.5073226257593
20
-4.9667695260116
30
0
41
1
10
23.0602809384807
20
-4.96693928414757
30
0
41
1
10
23.8060325736869
20
-4.96773817576991
30
0
41
1
10
24.4196829612625
20
-4.96802801607546
30
0
41
1
10
24.889724803347
20
-4.96817020518699
30
0
41
1
10
25.3205936456858
20
-4.9681260576177
30
0
41
1
10
25.777638798702
20
-4.96802352772772
30
0
41
1
10
26.2861851764272
20
-4.96814029999024
30
0
41
1
10
26.7714327870007
20
-4.9698258064567
30
0
41
1
10
27.1698111490324
20
-4.96997692832232
30
0
41
1
10
27.5254042202591
20
-4.96976285582738
30
0
41
1
10
27.9580187658774
20
-4.96946748165431
30
0
41
1
10
28.5373697395299
20
-4.96913976672565
30
0
41
1
10
29.2152702366541
20
-4.96875591983311
30
0
41
1
10
29.8799149458844
20
-4.97134500727452
30
0
41
1
10
30.4802363522978
20
-4.97202635941781
30
0
41
1
10
31.1331129266324
20
-4.97096937813802
30
0
41
1
10
31.8592247943996
20
-4.97029740810714
30
0
41
1
10
32.6323911920568
20
-4.9698666476628
30
0
41
1
10
33.3580926166282
20
-4.97247212621292
30
0
41
1
10
34.0669520200084
20
-4.97223036382815
30
0
41
1
10
34.7413498966841
20
-4.97447203001039
30
0
41
1
10
35.4139199112391
20
-4.97396921003769
30
0
41
1
10
36.0467589082879
20
-4.97270347948734
30
0
41
1
10
36.6261935427528
20
-4.97214397577383
30
0
41
1
10
37.0411313357905
20
-4.97226846792586
30
0
41
1
10
37.2453306772352
20
-4.97249919604599
30
0
41
1
10
37.307833752976
20
-4.972584984652
30
0
0
SPLINE
5
9B
100
AcDbEntity
8
1
62
256
6
ByLayer
370
18
48
1
60
0
100
AcDbSpline
70
4
71
3
72
10
73
6
40
0
40
0
40
0
40
0
40
0.191361504604619
40
0.597670837770889
40
1
40
1
40
1
40
1
41
1
10
5.50387585035
20
4.95729470942339
30
0
41
1
10
5.32482731621121
20
4.9568177344195
30
0
41
1
10
4.765178665088
20
4.95553713550396
30
0
41
1
10
3.82265441156022
20
4.95625806098823
30
0
41
1
10
3.06424050358828
20
4.9551867699823
30
0
41
1
10
2.68696120752975
20
4.95464056910018
30
0
0
SPLINE
5
9C
100
AcDbEntity
8
SK1
62
256
6
ByLayer
370
18
48
1
60
0
100
AcDbSpline
70
4
71
3
72
14
73
10
40
0
40
0
40
0
40
0
40
0.124999999999999
40
0.124999999999999
40
0.249999999999999
40
0.249999999999999
40
0.499999999999999
40
0.499999999999999
40
1
40
1
40
1
40
1
41
1
10
-43.6
20
-2.89575954624436
30
0
41
1
10
-43.6
20
-2.88629717522127
30
0
41
1
10
-43.6017220508865
20
-2.8755228919469
30
0
41
1
10
-43.6068954324577
20
-2.85436810248294
30
0
41
1
10
-43.610237321167
20
-2.84415746718895
30
0
41
1
10
-43.6215324998379
20
-2.81414191201563
30
0
41
1
10
-43.6303471072619
20
-2.79593600627396
30
0
41
1
10
-43.658490206513
20
-2.74445087991089
30
0
41
1
10
-43.678793979422
20
-2.71561549997975
30
0
41
1
10
-43.7
20
-2.69120210363735
30
0
0
SPLINE
5
9D
100
AcDbEntity
8
SK1
62
256
6
ByLayer
370
18
48
1
60
0
100
AcDbSpline
70
4
71
3
72
8
73
4
40
0
40
0
40
0
40
0
40
1
40
1
40
1
40
1
41
1
10
-44.9843855844364
20
-1.1885594826411
30
0
41
1
10
-44.9895403327758
20
-1.17850932267669
30
0
41
1
10
-44.994744763495
20
-1.16858036994418
30
0
41
1
10
-45
20
-1.15877282044795
30
0
0
SPLINE
5
9E
100
AcDbEntity
8
SK1
62
256
6
ByLayer
370
18
48
1
60
0
100
AcDbSpline
70
4
71
3
72
10
73
6
40
0
40
0
40
0
40
0
40
0.5
40
0.5
40
1
40
1
40
1
40
1
41
1
10
-45
20
-3.072210061813
30
0
41
1
10
-44.787944466497
20
-3.32732875681654
30
0
41
1
10
-44.5722380584289
20
-3.58131852536124
30
0
41
1
10
-44.1380333323982
20
-4.08817847511256
30
0
41
1
10
-43.9193995672196
20
-4.3410440856895
30
0
41
1
10
-43.7
20
-4.59362747691074
30
0
0
SPLINE
5
9F
100
AcDbEntity
8
SK1
62
256
6
ByLayer
370
18
48
1
60
0
100
AcDbSpline
70
4
71
3
72
10
73
6
40
0
40
0
40
0
40
0
40
0.5
40
0.5
40
1
40
1
40
1
40
1
41
1
10
-43.7
20
-2.69120210363735
30
0
41
1
10
-43.916713795536
20
-2.44171070265338
30
0
41
1
10
-44.1326737587772
20
-2.19194928643003
30
0
41
1
10
-44.5616099126458
20
-1.69135769627405
30
0
41
1
10
-44.7746855036976
20
-1.44056312658603
30
0
41
1
10
-44.9843855844354
20
-1.18855948263604
30
0
0
SPLINE
5
A0
100
AcDbEntity
8
SK1
62
256
6
ByLayer
370
18
48
1
60
0
100
AcDbSpline
70
4
71
3
72
14
73
10
40
0
40
0
40
0
40
0
40
0.500000000000005
40
0.500000000000005
40
0.750000000000005
40
0.750000000000005
40
0.875000000000002
40
0.875000000000002
40
1
40
1
40
1
40
1
41
1
10
-43.7
20
-4.59362747691085
30
0
41
1
10
-43.6789021434844
20
-4.61791634955429
30
0
41
1
10
-43.6585587767126
20
-4.63763845199151
30
0
41
1
10
-43.6303722414292
20
-4.65681453581496
30
0
41
1
10
-43.6214260646625
20
-4.66136362519021
30
0
41
1
10
-43.6102968606991
20
-4.66239775593411
30
0
41
1
10
-43.6069058574072
20
-4.66176952868202
30
0
41
1
10
-43.6017309986994
20
-4.65698910552322
30
0
41
1
10
-43.6
20
-4.65275901114737
30
0
41
1
10
-43.6
20
-4.64599088965593
30
0
0
SPLINE
5
A1
100
AcDbEntity
8
1
62
256
6
ByLayer
370
18
48
1
60
0
100
AcDbSpline
70
4
71
3
72
32
73
28
40
0
40
0
40
0
40
0
40
0.0362463038601957
40
0.0362463038601957
40
0.0724926077203914
40
0.0724926077203914
40
0.108738911580587
40
0.108738911580587
40
0.144985215440783
40
0.144985215440783
40
0.217477823161174
40
0.217477823161174
40
0.289970430881566
40
0.289970430881566
40
0.434955646322347
40
0.434955646322347
40
0.579940861763128
40
0.579940861763128
40
0.652433469483519
40
0.652433469483519
40
0.72492607720391
40
0.72492607720391
40
0.7974186849243
40
0.7974186849243
40
0.869911292644691
40
0.869911292644691
40
1
40
1
40
1
40
1
41
1
10
2.68720831629042
20
-4.29941957444365
30
0
41
1
10
2.74716658162248
20
-4.36153505434834
30
0
41
1
10
2.81803042994505
20
-4.41633790055727
30
0
41
1
10
2.97314380647742
20
-4.51428614789398
30
0
41
1
10
3.05775062494681
20
-4.557640864381
30
0
41
1
10
3.23738509987319
20
-4.63566241075335
30
0
41
1
10
3.33227563486165
20
-4.67018342152292
30
0
41
1
10
3.5265494456803
20
-4.7311965294472
30
0
41
1
10
3.62641762740239
20
-4.75788322798101
30
0
41
1
10
3.93224620924963
20
-4.82879609289262
30
0
41
1
10
4.14432464247065
20
-4.86400441436109
30
0
41
1
10
4.5791398161416
20
-4.91702421951743
30
0
41
1
10
4.80196888688135
20
-4.9347155659506
30
0
41
1
10
5.48244604280796
20
-4.96620529073169
30
0
41
1
10
5.94406365026384
20
-4.95981408598018
30
0
41
1
10
6.87552572674437
20
-4.90178330635848
30
0
41
1
10
7.3455881698259
20
-4.85136639073741
30
0
41
1
10
8.05594923267213
20
-4.74826693399197
30
0
41
1
10
8.29363724776348
20
-4.70930523660138
30
0
41
1
10
8.77081955347481
20
-4.62298176964691
30
0
41
1
10
9.01028982919564
20
-4.57578075132554
30
0
41
1
10
9.49136698618977
20
-4.47232638396792
30
0
41
1
10
9.73284551080559
20
-4.41611656206385
30
0
41
1
10
10.215479881974
20
-4.29636556717472
30
0
41
1
10
10.4569777425458
20
-4.23275325815479
30
0
41
1
10
11.1329014572294
20
-4.04627461828079
30
0
41
1
10
11.5681708280365
20
-3.91687668721735
30
0
41
1
10
12.0059075258644
20
-3.7804587541508
30
0
0
SPLINE
5
A2
100
AcDbEntity
8
1
62
256
6
ByLayer
370
18
48
1
60
0
100
AcDbSpline
70
4
71
3
72
8
73
4
40
0
40
0
40
0
40
0
40
1
40
1
40
1
40
1
41
1
10
55.2902251305152
20
-5.07625638959476
30
0
41
1
10
55.2689278715271
20
-5.13127124002511
30
0
41
1
10
55.2475781376676
20
-5.18621190552344
30
0
41
1
10
55.2261751738661
20
-5.24107791602066
30
0
0
SPLINE
5
A3
100
AcDbEntity
8
1
62
256
6
ByLayer
370
18
48
1
60
0
100
AcDbSpline
70
4
71
3
72
16
73
12
40
0
40
0
40
0
40
0
40
0.467234259145325
40
0.467234259145325
40
0.700851388717988
40
0.700851388717988
40
0.817659953504319
40
0.817659953504319
40
0.93446851829065
40
0.93446851829065
40
1
40
1
40
1
40
1
41
1
10
2.43634759131058
20
-4.66546383939047
30
0
41
1
10
2.43634759131061
20
-4.82940269536235
30
0
41
1
10
2.43634759131058
20
-4.95553617173465
30
0
41
1
10
2.43634759131061
20
-5.09012384885978
30
0
41
1
10
2.43634759131061
20
-5.12581661291733
30
0
41
1
10
2.43634759131061
20
-5.16518272637089
30
0
41
1
10
2.43634759131061
20
-5.17593167365354
30
0
41
1
10
2.43634759131061
20
-5.19242842777189
30
0
41
1
10
2.43634759131061
20
-5.19822027509648
30
0
41
1
10
2.43634759131061
20
-5.20348894669479
30
0
41
1
10
2.43634759131061
20
-5.20462974191639
30
0
41
1
10
2.43634759131061
20
-5.20501583939134
30
0
0
SPLINE
5
A4
100
AcDbEntity
8
1
62
256
6
ByLayer
370
18
48
1
60
0
100
AcDbSpline
70
4
71
3
72
8
73
4
40
0
40
0
40
0
40
0
40
1
40
1
40
1
40
1
41
1
10
56.9947736681946
20
0.208213205369901
30
0
41
1
10
56.9953335449584
20
0.173060386429711
30
0
41
1
10
56.9953876546282
20
0.13793197019254
30
0
41
1
10
56.9949078949065
20
0.102829312563216
30
0
0
SPLINE
5
A5
100
AcDbEntity
8
1
62
256
6
ByLayer
370
18
48
1
60
0
100
AcDbSpline
70
4
71
3
72
12
73
8
40
0
40
0
40
0
40
0
40
0.499999999999998
40
0.499999999999998
40
0.749999999999999
40
0.749999999999999
40
1
40
1
40
1
40
1
41
1
10
56.7459556733725
20
1.19960685384172
30
0
41
1
10
56.8157459551915
20
1.0370000131021
30
0
41
1
10
56.8705744745211
20
0.87296128362226
30
0
41
1
10
56.932100505107
20
0.624920530019921
30
0
41
1
10
56.949165183525
20
0.541910677102976
30
0
41
1
10
56.9767776017471
20
0.375267279305746
30
0
41
1
10
56.98732486873
20
0.291507316215785
30
0
41
1
10
56.9947736681946
20
0.208213205369901
30
0
0
SPLINE
5
A6
100
AcDbEntity
8
1
62
256
6
ByLayer
370
18
48
1
60
0
100
AcDbSpline
70
4
71
3
72
10
73
6
40
0
40
0
40
0
40
0
40
0.5
40
0.5
40
1
40
1
40
1
40
1
41
1
10
55.4364365412783
20
5.1054212615019
30
0
41
1
10
55.6527171459643
20
4.48524163128602
30
0
41
1
10
55.8752731675293
20
3.86467325013021
30
0
41
1
10
56.329991573282
20
2.62351585317944
30
0
41
1
10
56.5611487974849
20
2.00548466415074
30
0
41
1
10
56.7937437351254
20
1.39009680387161
30
0
0
SPLINE
5
A7
100
AcDbEntity
8
1
62
256
6
ByLayer
370
18
48
1
60
0
100
AcDbSpline
70
4
71
3
72
12
73
8
40
0
40
0
40
0
40
0
40
0.25
40
0.25
40
0.5
40
0.5
40
1
40
1
40
1
40
1
41
1
10
56.7937437351254
20
-1.3900968038719
30
0
41
1
10
56.821517269854
20
-1.28498731100558
30
0
41
1
10
56.8470273246626
20
-1.18132329429486
30
0
41
1
10
56.8923463925298
20
-0.978749446385137
30
0
41
1
10
56.9122489552282
20
-0.879501665916536
30
0
41
1
10
56.9631692720827
20
-0.586185346560342
30
0
41
1
10
56.9853486817846
20
-0.396557525911675
30
0
41
1
10
56.9947736681945
20
-0.208213205369987
30
0
0
SPLINE
5
A8
100
AcDbEntity
8
1
62
256
6
ByLayer
370
18
48
1
60
0
100
AcDbSpline
70
4
71
3
72
52
73
48
40
0
40
0
40
0
40
0
40
0.049470656144428
40
0.049470656144428
40
0.0989413122888559
40
0.0989413122888559
40
0.148411968433284
40
0.148411968433284
40
0.197882624577712
40
0.197882624577712
40
0.24735328072214
40
0.24735328072214
40
0.272088608794354
40
0.272088608794354
40
0.296823936866568
40
0.296823936866568
40
0.395765249155423
40
0.395765249155423
40
0.44523590529985
40
0.44523590529985
40
0.494706561444277
40
0.494706561444277
40
0.544177217588704
40
0.544177217588704
40
0.593647873733131
40
0.593647873733131
40
0.618383201805344
40
0.618383201805344
40
0.643118529877558
40
0.643118529877558
40
0.692589186021986
40
0.692589186021986
40
0.742059842166414
40
0.742059842166414
40
0.791530498310842
40
0.791530498310842
40
0.84100115445527
40
0.84100115445527
40
0.890471810599698
40
0.890471810599698
40
0.939942466744126
40
0.939942466744126
40
0.96467779481634
40
0.96467779481634
40
0.989413122888554
40
0.989413122888554
40
1
40
1
40
1
40
1
41
1
10
55.2261751738661
20
-5.24107791602066
30
0
41
1
10
54.6774276242515
20
-5.2567973726849
30
0
41
1
10
54.1289915291026
20
-5.25049301064183
30
0
41
1
10
53.030226879449
20
-5.19407514445115
30
0
41
1
10
52.4820137819001
20
-5.14404559741084
30
0
41
1
10
51.386740341821
20
-5.00180886526729
30
0
41
1
10
50.8393915766007
20
-4.9096140390275
30
0
41
1
10
49.7425658668514
20
-4.68467704980361
30
0
41
1
10
49.1926624735666
20
-4.55183723184044
30
0
41
1
10
48.0965850409123
20
-4.25018518079466
30
0
41
1
10
47.54932058847
20
-4.08121959665525
30
0
41
1
10
46.727467492728
20
-3.80316842601505
30
0
41
1
10
46.4533597254761
20
-3.70638277197614
30
0
41
1
10
45.9044940625899
20
-3.50503450130702
30
0
41
1
10
45.6295718219612
20
-3.40040105023618
30
0
41
1
10
44.2577059249377
20
-2.86102582900045
30
0
41
1
10
43.1650339495145
20
-2.37666510189612
30
0
41
1
10
41.5168196776713
20
-1.59919010464472
30
0
41
1
10
40.9683337238761
20
-1.33261163129688
30
0
41
1
10
39.8728165169025
20
-0.791321074553053
30
0
41
1
10
39.3252933337416
20
-0.516615246754952
30
0
41
1
10
38.2280903881779
20
0.0357241045019805
30
0
41
1
10
37.6780891157071
20
0.313774101019646
30
0
41
1
10
36.5817136301914
20
0.863008744760862
30
0
41
1
10
36.0342333660377
20
1.13456627790131
30
0
41
1
10
35.2121566988992
20
1.53357426360594
30
0
41
1
10
34.9379906719711
20
1.66519284904314
30
0
41
1
10
34.3890073776848
20
1.9249428137982
30
0
41
1
10
34.1139989901266
20
2.05316847133565
30
0
41
1
10
33.2905854873044
20
2.43029795753461
30
0
41
1
10
32.7428910496584
20
2.67194996854693
30
0
41
1
10
31.6472222447103
20
3.13103517942946
30
0
41
1
10
31.0992120152518
20
3.34841164831127
30
0
41
1
10
30.0001645627954
20
3.75444080778752
30
0
41
1
10
29.4514574175363
20
3.94239094746715
30
0
41
1
10
28.3555973451166
20
4.2832041768194
30
0
41
1
10
27.8079401714246
20
4.43622693480785
30
0
41
1
10
26.7104676535808
20
4.70447189455675
30
0
41
1
10
26.1603451082523
20
4.81987213249201
30
0
41
1
10
25.0635718934917
20
5.00855708447881
30
0
41
1
10
24.5159338571123
20
5.08216898409833
30
0
41
1
10
23.69361332252
20
5.16052821720038
30
0
41
1
10
23.4193770293888
20
5.18131145352743
30
0
41
1
10
22.8703313396971
20
5.21203841854319
30
0
41
1
10
22.5952912954967
20
5.22197270601166
30
0
41
1
10
22.2032093899877
20
5.22829882930213
30
0
41
1
10
22.0857497042131
20
5.22919004382663
30
0
41
1
10
21.9683331657049
20
5.22907957764721
30
0
0
SPLINE
5
A9
100
AcDbEntity
8
1
62
256
6
ByLayer
370
18
48
1
60
0
100
AcDbSpline
70
4
71
3
72
12
73
8
40
0
40
0
40
0
40
0
40
0.25
40
0.25
40
0.5
40
0.5
40
1
40
1
40
1
40
1
41
1
10
56.9947736681946
20
0.208213205369901
30
0
41
1
10
56.9900454641716
20
0.302699322945386
30
0
41
1
10
56.982106691886
20
0.397747616170136
30
0
41
1
10
56.9599145339446
20
0.590170534905951
30
0
41
1
10
56.9456545442606
20
0.687471055598962
30
0
41
1
10
56.8943553921297
20
0.981759043922438
30
0
41
1
10
56.8487191294475
20
1.18204133402301
30
0
41
1
10
56.7937437351254
20
1.39009680387159
30
0
0
SPLINE
5
AA
100
AcDbEntity
8
1
62
256
6
ByLayer
370
18
48
1
60
0
100
AcDbSpline
70
4
71
3
72
44
73
40
40
0
40
0
40
0
40
0
40
0.124999999999983
40
0.124999999999983
40
0.187499999999977
40
0.187499999999977
40
0.249999999999972
40
0.249999999999972
40
0.312499999999966
40
0.312499999999966
40
0.343749999999965
40
0.343749999999965
40
0.374999999999964
40
0.374999999999964
40
0.390624999999964
40
0.390624999999964
40
0.406249999999964
40
0.406249999999964
40
0.421874999999963
40
0.421874999999963
40
0.437499999999963
40
0.437499999999963
40
0.468749999999964
40
0.468749999999964
40
0.499999999999966
40
0.499999999999966
40
0.531249999999967
40
0.531249999999967
40
0.562499999999969
40
0.562499999999969
40
0.624999999999972
40
0.624999999999972
40
0.687499999999974
40
0.687499999999974
40
0.749999999999977
40
0.749999999999977
40
0.874999999999989
40
0.874999999999989
40
1
40
1
40
1
40
1
41
1
10
54.9080751573604
20
-2.94714006274614
30
0
41
1
10
54.7140610721696
20
-2.86794125621296
30
0
41
1
10
54.5236394000515
20
-2.77541864486511
30
0
41
1
10
54.2442802151498
20
-2.61336776684115
30
0
41
1
10
54.1522201953144
20
-2.55542048310045
30
0
41
1
10
53.9707292286687
20
-2.42977501695603
30
0
41
1
10
53.8812751902177
20
-2.36216247852101
30
0
41
1
10
53.706135025844
20
-2.21296269159583
30
0
41
1
10
53.6211510290159
20
-2.13214100689561
30
0
41
1
10
53.5036189875076
20
-1.9978414086203
30
0
41
1
10
53.465831676952
20
-1.95047878829058
30
0
41
1
10
53.3967042502743
20
-1.85089520593871
30
0
41
1
10
53.3648743217123
20
-1.79810400508416
30
0
41
1
10
53.3259169940852
20
-1.71430621385087
30
0
41
1
10
53.3145148734445
20
-1.68582425065526
30
0
41
1
10
53.2959181034549
20
-1.62740076278979
30
0
41
1
10
53.288750586956
20
-1.59728025262709
30
0
41
1
10
53.2806538543993
20
-1.53801479835499
30
0
41
1
10
53.2796662477323
20
-1.50809589009305
30
0
41
1
10
53.2848792183253
20
-1.45138565600573
30
0
41
1
10
53.2909378379055
20
-1.4247115347693
30
0
41
1
10
53.3192365748889
20
-1.34961844509277
30
0
41
1
10
53.3504795099673
20
-1.30973350818442
30
0
41
1
10
53.4227624493207
20
-1.24774801107967
30
0
41
1
10
53.4644848016884
20
-1.22466168473056
30
0
41
1
10
53.5510757486334
20
-1.18934040877139
30
0
41
1
10
53.596198654522
20
-1.17692906378494
30
0
41
1
10
53.688768875379
20
-1.15878323047136
30
0
41
1
10
53.736418645502
20
-1.15312072963067
30
0
41
1
10
53.8795032280743
20
-1.14366199270646
30
0
41
1
10
53.9758127655402
20
-1.14698574903534
30
0
41
1
10
54.1695159159269
20
-1.16498248280666
30
0
41
1
10
54.2669275624418
20
-1.1798442545464
30
0
41
1
10
54.462569159062
20
-1.21813464483824
30
0
41
1
10
54.5610193811553
20
-1.24167364942471
30
0
41
1
10
54.8554242469608
20
-1.3224909036349
30
0
41
1
10
55.050573607192
20
-1.38966093418853
30
0
41
1
10
55.4389654572615
20
-1.54662011041086
30
0
41
1
10
55.6322870791251
20
-1.63652252139346
30
0
41
1
10
55.8219706051019
20
-1.73871176844352
30
0
0
SPLINE
5
AB
100
AcDbEntity
8
1
62
256
6
ByLayer
370
18
48
1
60
0
100
AcDbSpline
70
4
71
3
72
8
73
4
40
0
40
0
40
0
40
0
40
1
40
1
40
1
40
1
41
1
10
56.7937437351254
20
1.39009680387161
30
0
41
1
10
56.7786670826378
20
1.32631173888816
30
0
41
1
10
56.7627167986586
20
1.26281977865068
30
0
41
1
10
56.7459556733725
20
1.19960685384172
30
0
0
SPLINE
5
AC
100
AcDbEntity
8
1
62
256
6
ByLayer
370
18
48
1
60
0
100
AcDbSpline
70
4
71
3
72
37
73
33
40
0
40
0
40
0
40
0
40
0.0436446510369712
40
0.0436446510369712
40
0.177503702515551
40
0.177503702515551
40
0.24443322825484
40
0.24443322825484
40
0.31136275399413
40
0.31136275399413
40
0.445221805472709
40
0.445221805472709
40
0.579080856951288
40
0.583263952309994
40
0.583263952309994
40
0.587447047668699
40
0.587447047668699
40
0.595813238386111
40
0.595813238386111
40
0.612545619820933
40
0.612545619820933
40
0.646010382690578
40
0.646010382690578
40
0.712939908429867
40
0.712939908429867
40
0.779869434169157
40
0.779869434169157
40
0.846798959908446
40
0.846798959908446
40
0.980658011387026
40
0.980658011387026
40
1
40
1
40
1
40
1
41
1
10
13.6337085535878
20
4.17239169741126
30
0
41
1
10
13.6337085535878
20
4.06986117996939
30
0
41
1
10
13.6337085535878
20
3.96938248945023
30
0
41
1
10
13.6337085535878
20
3.56899385014654
30
0
41
1
10
13.6337085535878
20
3.28570767844258
30
0
41
1
10
13.6337085535878
20
2.88808708787818
30
0
41
1
10
13.6337085535878
20
2.75989762149766
30
0
41
1
10
13.6337085535878
20
2.51666306989438
30
0
41
1
10
13.6337085535878
20
2.40107787622142
30
0
41
1
10
13.6337085535878
20
2.07170866665783
30
0
41
1
10
13.6337085535878
20
1.87521518954873
30
0
41
1
10
13.6337085535878
20
1.5272143377239
30
0
41
1
10
13.6337085535878
20
1.37091900411184
30
0
41
1
10
13.6337085535878
20
1.24165586653089
30
0
41
1
10
13.6337085535878
20
1.2338701690415
30
0
41
1
10
13.6337085535878
20
1.22966794628718
30
0
41
1
10
13.6337085535878
20
1.22293913340334
30
0
41
1
10
13.6337085535878
20
1.22480581759419
30
0
41
1
10
13.6337085535878
20
1.25071207937137
30
0
41
1
10
13.6337085535878
20
1.26871799879777
30
0
41
1
10
13.6337085535878
20
1.32367130741096
30
0
41
1
10
13.6337085535878
20
1.36209500676071
30
0
41
1
10
13.6337085535878
20
1.48279038045712
30
0
41
1
10
13.6337085535878
20
1.57035588399836
30
0
41
1
10
13.6337085535878
20
1.75953444252684
30
0
41
1
10
13.6337085535878
20
1.86153213618383
30
0
41
1
10
13.6337085535878
20
2.07800893574122
30
0
41
1
10
13.6337085535878
20
2.19256339454796
30
0
41
1
10
13.6337085535878
20
2.55538013310715
30
0
41
1
10
13.6337085535878
20
2.82261102304128
30
0
41
1
10
13.6337085535878
20
3.1603257056652
30
0
41
1
10
13.6337085535878
20
3.20338779931279
30
0
41
1
10
13.6337085535878
20
3.24687194326265
30
0
0
SPLINE
5
AD
100
AcDbEntity
8
1
62
256
6
ByLayer
370
18
48
1
60
0
100
AcDbSpline
70
4
71
3
72
8
73
4
40
0
40
0
40
0
40
0
40
1
40
1
40
1
40
1
41
1
10
2.69463306606801
20
-3.42555397074889
30
0
41
1
10
2.69214384681567
20
-3.42882315606437
30
0
41
1
10
2.6896768383701
20
-3.4320937312381
30
0
41
1
10
2.6872321804957
20
-3.43536568784708
30
0
0
SPLINE
5
AE
100
AcDbEntity
8
1
62
256
6
ByLayer
370
18
48
1
60
0
100
AcDbSpline
70
4
71
3
72
8
73
4
40
0
40
0
40
0
40
0
40
1
40
1
40
1
40
1
41
1
10
56.9947736681946
20
-0.208213205369987
30
0
41
1
10
56.9953332234978
20
-0.173080569887901
30
0
41
1
10
56.9953879354231
20
-0.137952515157906
30
0
41
1
10
56.9949078949065
20
-0.102829312563188
30
0
0
SPLINE
5
AF
100
AcDbEntity
8
1
62
256
6
ByLayer
370
13
48
1
60
0
100
AcDbSpline
70
4
71
3
72
22
73
18
40
0
40
0
40
0
40
0
40
0.175619649409221
40
0.175619649409221
40
0.351239298818442
40
0.351239298818442
40
0.439049123523052
40
0.439049123523052
40
0.526858948227662
40
0.526858948227662
40
0.702478597636883
40
0.702478597636883
40
0.790288422341493
40
0.790288422341493
40
0.878098247046104
40
0.878098247046104
40
1
40
1
40
1
40
1
41
1
10
2.6866055860412
20
1.49770247859655
30
0
41
1
10
2.68664599200449
20
1.85160470708976
30
0
41
1
10
2.68667653055962
20
2.18875322760061
30
0
41
1
10
2.68672647401888
20
2.82895599872626
30
0
41
1
10
2.68674518073593
20
3.12218864983947
30
0
41
1
10
2.68677069070563
20
3.52323617374336
30
0
41
1
10
2.68677874896059
20
3.65039140640525
30
0
41
1
10
2.68679496276823
20
3.89115343166949
30
0
41
1
10
2.68680298333263
20
4.00264210071052
30
0
41
1
10
2.68682801410384
20
4.3106091981046
30
0
41
1
10
2.68684608333018
20
4.4812880833716
30
0
41
1
10
2.68687885170499
20
4.68352943022617
30
0
41
1
10
2.6868905814944
20
4.741103205098
30
0
41
1
10
2.68691578277452
20
4.83622000958354
30
0
41
1
10
2.68692932896818
20
4.87390113869716
30
0
41
1
10
2.68696324115359
20
4.93875866121803
30
0
41
1
10
2.68698431875299
20
4.95678268953904
30
0
41
1
10
2.68700625379952
20
4.95510619499538
30
0
0
SPLINE
5
B0
100
AcDbEntity
8
1
62
256
6
ByLayer
370
18
48
1
60
0
100
AcDbSpline
70
4
71
3
72
18
73
14
40
0
40
0
40
0
40
0
40
0.250000000000002
40
0.250000000000002
40
0.375000000000002
40
0.375000000000002
40
0.500000000000003
40
0.500000000000003
40
0.750000000000001
40
0.750000000000001
40
0.875000000000001
40
0.875000000000001
40
1
40
1
40
1
40
1
41
1
10
54.3135431675763
20
-3.69444893961074
30
0
41
1
10
54.393655159228
20
-3.91345354470747
30
0
41
1
10
54.4755264150235
20
-4.10551167558157
30
0
41
1
10
54.600218448094
20
-4.35476946057059
30
0
41
1
10
54.6421070259611
20
-4.43133451573507
30
0
41
1
10
54.726518789523
20
-4.57110516073783
30
0
41
1
10
54.7690578580647
20
-4.63423181034915
30
0
41
1
10
54.8949591468006
20
-4.79946979666406
30
0
41
1
10
54.9775068847775
20
-4.87926875524539
30
0
41
1
10
55.0997875200161
20
-4.95344649372078
30
0
41
1
10
55.140356341684
20
-4.97054773196453
30
0
41
1
10
55.2208602405842
20
-4.98876570009665
30
0
41
1
10
55.2604881049888
20
-4.98983665907693
30
0
41
1
10
55.2995919537334
20
-4.98283422261613
30
0
0
SPLINE
5
B1
100
AcDbEntity
8
1
62
256
6
ByLayer
370
18
48
1
60
0
100
AcDbSpline
70
4
71
3
72
16
73
12
40
0
40
0
40
0
40
0
40
0.0033298961269495
40
0.0033298961269495
40
0.515624955539822
40
0.515624955539822
40
0.643698720393042
40
0.643698720393042
40
0.771772485246262
40
0.771772485246262
40
1
40
1
40
1
40
1
41
1
10
22.4281252613322
20
-4.96570066170204
30
0
41
1
10
22.4210367701835
20
-4.96576992545636
30
0
41
1
10
22.4139482516192
20
-4.96583571885725
30
0
41
1
10
21.3163066342829
20
-4.97548619568397
30
0
41
1
10
20.2248008453544
20
-4.90287366364413
30
0
41
1
10
18.8469857023274
20
-4.70978402439147
30
0
41
1
10
18.5702698814096
20
-4.66594844215959
30
0
41
1
10
18.0187889420836
20
-4.56883143356276
30
0
41
1
10
17.7437403612806
20
-4.51550820665287
30
0
41
1
10
16.9800277176322
20
-4.3545792034123
30
0
41
1
10
16.4925124758332
20
-4.23715821625646
30
0
41
1
10
16.0057993662479
20
-4.10643702112461
30
0
0
SPLINE
5
B2
100
AcDbEntity
8
1
62
256
6
ByLayer
370
13
48
1
60
0
100
AcDbSpline
70
4
71
3
72
20
73
16
40
0
40
0
40
0
40
0
40
0.0134418234456384
40
0.0134418234456384
40
0.26008136758423
40
0.26008136758423
40
0.383401139653525
40
0.383401139653525
40
0.445061025688172
40
0.445061025688172
40
0.506720911722819
40
0.506720911722819
40
0.753360455861409
40
0.753360455861409
40
1
40
1
40
1
40
1
41
1
10
16.0057993657401
20
-4.10643702098821
30
0
41
1
10
15.9462577400368
20
-4.09044535707102
30
0
41
1
10
15.8867281187554
20
-4.07425464703189
30
0
41
1
10
14.7351105287513
20
-3.75717149030575
30
0
41
1
10
13.6467312662816
20
-3.38986205315214
30
0
41
1
10
12.0043488403221
20
-2.76171822320268
30
0
41
1
10
11.4553328940532
20
-2.53926689693134
30
0
41
1
10
10.6276725049777
20
-2.18910493934897
30
0
41
1
10
10.3510197868687
20
-2.06966971383204
30
0
41
1
10
9.8000482947399
20
-1.82781118422233
30
0
41
1
10
9.52521456335731
20
-1.70517203636641
30
0
41
1
10
8.15353960458691
20
-1.08505844430476
30
0
41
1
10
7.064688715606
20
-0.565775605798791
30
0
41
1
10
4.88306575296258
20
0.474419810602143
30
0
41
1
10
3.79081838996731
20
0.996431499842203
30
0
41
1
10
2.68660558604123
20
1.49770247859655
30
0
0
SPLINE
5
B3
100
AcDbEntity
8
1
62
256
6
ByLayer
370
18
48
1
60
0
100
AcDbSpline
70
4
71
3
72
8
73
4
40
0
40
0
40
0
40
0
40
1
40
1
40
1
40
1
41
1
10
55.2261751738661
20
5.24107791602066
30
0
41
1
10
55.0253928330508
20
5.24682953952697
30
0
41
1
10
54.8245804672068
20
5.24963071654392
30
0
41
1
10
54.6237315009008
20
5.24948822791401
30
0
0
SPLINE
5
B4
100
AcDbEntity
8
1
62
256
6
ByLayer
370
18
48
1
60
0
100
AcDbSpline
70
4
71
3
72
34
73
30
40
0
40
0
40
0
40
0
40
0.0544766861876012
40
0.0544766861876012
40
0.0908429674880775
40
0.0908429674880775
40
0.127209248788554
40
0.127209248788554
40
0.272674373990459
40
0.272674373990459
40
0.418139499192365
40
0.418139499192365
40
0.454505780492842
40
0.454505780492842
40
0.490872061793319
40
0.490872061793319
40
0.563604624394273
40
0.563604624394273
40
0.59997090569475
40
0.59997090569475
40
0.636337186995227
40
0.636337186995227
40
0.709069749596181
40
0.709069749596181
40
0.781802312197136
40
0.781802312197136
40
0.85453487479809
40
0.85453487479809
40
1
40
1
40
1
40
1
41
1
10
25.1983778049567
20
-4.98144340971893
30
0
41
1
10
24.7879112446866
20
-5.04425798190778
30
0
41
1
10
24.3775796136632
20
-5.09537023175528
30
0
41
1
10
23.6926255559193
20
-5.16061068154701
30
0
41
1
10
23.4182512231494
20
-5.18139171028818
30
0
41
1
10
22.8688403696071
20
-5.21210452550886
30
0
41
1
10
22.5939079826783
20
-5.22201149506122
30
0
41
1
10
21.2217854516953
20
-5.24406774293155
30
0
41
1
10
20.127961458165
20
-5.17399795023331
30
0
41
1
10
17.928661954733
20
-4.86326895608377
30
0
41
1
10
16.835230467283
20
-4.62449055118975
30
0
41
1
10
15.4624911796091
20
-4.23402972165803
30
0
41
1
10
15.1874056503699
20
-4.15122647885767
30
0
41
1
10
14.638030053104
20
-3.97734905635721
30
0
41
1
10
14.363664383298
20
-3.88628231675091
30
0
41
1
10
13.5410500818425
20
-3.60141143439734
30
0
41
1
10
12.9932810566771
20
-3.39593309347004
30
0
41
1
10
12.1704885184495
20
-3.06751654794522
30
0
41
1
10
11.896036978246
20
-2.95467720440695
30
0
41
1
10
11.3465100193593
20
-2.72262154031157
30
0
41
1
10
11.0714853379818
20
-2.60342275052304
30
0
41
1
10
10.247969385711
20
-2.23891761656338
30
0
41
1
10
9.69996792916157
20
-1.98625930611647
30
0
41
1
10
8.60339030494168
20
-1.46651622225949
30
0
41
1
10
8.0549120400423
20
-1.19905125141409
30
0
41
1
10
6.95491769106485
20
-0.65506334499841
30
0
41
1
10
6.40696306816818
20
-0.380386558481518
30
0
41
1
10
4.76523711538789
20
0.443671235077773
30
0
41
1
10
3.67376701906485
20
0.993397979404591
30
0
41
1
10
2.57418940729872
20
1.52118403630732
30
0
0
SPLINE
5
B5
100
AcDbEntity
8
1
62
256
6
ByLayer
370
18
48
1
60
0
100
AcDbSpline
70
4
71
3
72
12
73
8
40
0
40
0
40
0
40
0
40
0.249999999999991
40
0.249999999999991
40
0.499999999999981
40
0.499999999999981
40
1
40
1
40
1
40
1
41
1
10
2.57418940729872
20
1.52118403630732
30
0
41
1
10
2.55341790907647
20
1.53115414394262
30
0
41
1
10
2.53455669887143
20
1.54360173869639
30
0
41
1
10
2.50055859750938
20
1.57329258077502
30
0
41
1
10
2.48569753268345
20
1.59042566660369
30
0
41
1
10
2.44954385927093
20
1.64611061446209
30
0
41
1
10
2.43634759131058
20
1.68964180933145
30
0
41
1
10
2.43634759131058
20
1.73348392983559
30
0
0
SPLINE
5
B6
100
AcDbEntity
8
1
62
256
6
ByLayer
370
18
48
1
60
0
100
AcDbSpline
70
4
71
3
72
8
73
4
40
0
40
0
40
0
40
0
40
1
40
1
40
1
40
1
41
1
10
56.9635997152599
20
-0.0591646378011319
30
0
41
1
10
56.6019881988352
20
-0.638713150428913
30
0
41
1
10
56.2179998523783
20
-1.19497712676616
30
0
41
1
10
55.8219706051023
20
-1.73871176844392
30
0
0
SPLINE
5
B7
100
AcDbEntity
8
1
62
256
6
ByLayer
370
18
48
1
60
0
100
AcDbSpline
70
4
71
3
72
8
73
4
40
0
40
0
40
0
40
0
40
1
40
1
40
1
40
1
41
1
10
54.9080751573492
20
-2.94714006273307
30
0
41
1
10
54.7116826247124
20
-3.19833882618542
30
0
41
1
10
54.5133889395827
20
-3.44730515463539
30
0
41
1
10
54.3135431675763
20
-3.69444893961074
30
0
0
SPLINE
5
B8
100
AcDbEntity
8
1
62
256
6
ByLayer
370
18
48
1
60
0
100
AcDbSpline
70
4
71
3
72
40
73
36
40
0
40
0
40
0
40
0
40
0.124999999999998
40
0.124999999999998
40
0.249999999999996
40
0.249999999999996
40
0.312499999999995
40
0.312499999999995
40
0.374999999999994
40
0.374999999999994
40
0.499999999999992
40
0.499999999999992
40
0.562499999999991
40
0.562499999999991
40
0.62499999999999
40
0.62499999999999
40
0.749999999999984
40
0.749999999999984
40
0.81249999999998
40
0.81249999999998
40
0.843749999999981
40
0.843749999999981
40
0.851562499999981
40
0.851562499999981
40
0.859374999999981
40
0.859374999999981
40
0.863281249999982
40
0.863281249999982
40
0.867187499999983
40
0.867187499999983
40
0.874999999999984
40
0.874999999999984
40
0.937499999999992
40
0.937499999999992
40
1
40
1
40
1
40
1
41
1
10
50.2121742533376
20
1.64176514735462
30
0
41
1
10
50.4275498257373
20
1.46632800965884
30
0
41
1
10
50.647944324842
20
1.30315203147396
30
0
41
1
10
51.0987056769323
20
1.00116237979722
30
0
41
1
10
51.3290490913553
20
0.862291446263185
30
0
41
1
10
51.6825704392375
20
0.673544131573749
30
0
41
1
10
51.8011983243527
20
0.614217247730096
30
0
41
1
10
52.0385917440145
20
0.503674495504384
30
0
41
1
10
52.1575802663075
20
0.45233483085093
30
0
41
1
10
52.5154518965551
20
0.310523607932851
30
0
41
1
10
52.7552357501961
20
0.232188173362402
30
0
41
1
10
53.1168698845256
20
0.141070742953843
30
0
41
1
10
53.2377427931128
20
0.115120203659103
30
0
41
1
10
53.4802056606717
20
0.0728802450621231
30
0
41
1
10
53.6019978652165
20
0.0565963787076669
30
0
41
1
10
53.9637990172461
20
0.024428996760264
30
0
41
1
10
54.2016636854508
20
0.0248261164959445
30
0
41
1
10
54.552522258118
20
0.0643017550550837
30
0
41
1
10
54.6678509343186
20
0.0839293179725189
30
0
41
1
10
54.8377242445625
20
0.12380130951351
30
0
41
1
10
54.8938589677331
20
0.138667421518022
30
0
41
1
10
54.9631132579071
20
0.159805448802672
30
0
41
1
10
54.9774188723451
20
0.163301096231464
30
0
41
1
10
55.002229442512
20
0.178167694462246
30
0
41
1
10
55.0129401099042
20
0.18925281927676
30
0
41
1
10
55.0215857976688
20
0.212278398133918
30
0
41
1
10
55.0227040683516
20
0.220813842282752
30
0
41
1
10
55.0245488057192
20
0.238075842530151
30
0
41
1
10
55.0254962613404
20
0.246700783137271
30
0
41
1
10
55.0282371662123
20
0.27260755892064
30
0
41
1
10
55.0299592185476
20
0.289916897505577
30
0
41
1
10
55.044530382632
20
0.446037211250769
30
0
41
1
10
55.0508985965044
20
0.58693562147451
30
0
41
1
10
55.0528565374323
20
0.871170342551864
30
0
41
1
10
55.0484163823686
20
1.01508452649659
30
0
41
1
10
55.0395388004706
20
1.15881200814391
30
0
0
SPLINE
5
B9
100
AcDbEntity
8
1
62
256
6
ByLayer
370
18
48
1
60
0
100
AcDbSpline
70
4
71
3
72
18
73
14
40
0
40
0
40
0
40
0
40
0.0325443014106544
40
0.0325443014106544
40
0.402366453638232
40
0.402366453638232
40
0.494821991695127
40
0.494821991695127
40
0.587277529752021
40
0.587277529752021
40
0.77218860586581
40
0.77218860586581
40
1
40
1
40
1
40
1
41
1
10
5.64493647115512
20
0.002139793254571
30
0
41
1
10
5.74102773092102
20
-0.0446008187366829
30
0
41
1
10
5.83709927845658
20
-0.0913299049977923
30
0
41
1
10
7.02474228031028
20
-0.668736877130243
30
0
41
1
10
8.11421097550999
20
-1.19701712493182
30
0
41
1
10
9.4869327259606
20
-1.82599458495898
30
0
41
1
10
9.76199074830734
20
-1.95028362817897
30
0
41
1
10
10.3134466210121
20
-2.19519858461928
30
0
41
1
10
10.5903746363693
20
-2.31604791895486
30
0
41
1
10
11.4187067140408
20
-2.66997519767958
30
0
41
1
10
11.9680519661904
20
-2.89435247405856
30
0
41
1
10
13.1906586655726
20
-3.36460608495813
30
0
41
1
10
13.8629490186733
20
-3.60376422187835
30
0
41
1
10
14.535165877352
20
-3.81896970041882
30
0
0
SPLINE
5
BA
100
AcDbEntity
8
1
62
256
6
ByLayer
370
13
48
1
60
0
100
AcDbSpline
70
4
71
3
72
18
73
14
40
0
40
0
40
0
40
0
40
0.136873845101471
40
0.136873845101471
40
0.315096052734681
40
0.315096052734681
40
0.404207156551289
40
0.404207156551289
40
0.493318260367897
40
0.493318260367897
40
0.849762675634329
40
0.849762675634329
40
1
40
1
40
1
40
1
41
1
10
14.5351649249574
20
-3.81896939551643
30
0
41
1
10
14.954204975166
20
-3.95312212144046
30
0
41
1
10
15.3732164656793
20
-4.07796707065387
30
0
41
1
10
16.3391369853939
20
-4.34196796307327
30
0
41
1
10
16.8863969378536
20
-4.47416226691004
30
0
41
1
10
17.7105636321012
20
-4.64451331408685
30
0
41
1
10
17.9858337284032
20
-4.69663129710361
30
0
41
1
10
18.5377968523986
20
-4.79104838622368
30
0
41
1
10
18.8147615852797
20
-4.83337038359264
30
0
41
1
10
20.1936057552211
20
-5.01822240970475
30
0
41
1
10
21.2856252865267
20
-5.08221240460855
30
0
41
1
10
22.8365574648971
20
-5.05387614502965
30
0
41
1
10
23.296303540804
20
-5.03059009073124
30
0
41
1
10
23.7566734626748
20
-4.99256814548789
30
0
0
SPLINE
5
BB
100
AcDbEntity
8
1
62
256
6
ByLayer
370
18
48
1
60
0
100
AcDbSpline
70
4
71
3
72
32
73
28
40
0
40
0
40
0
40
0
40
0.0219177404481286
40
0.0219177404481286
40
0.0663760249732127
40
0.0663760249732127
40
0.110834309498296
40
0.110834309498296
40
0.199750878548467
40
0.199750878548467
40
0.288667447598637
40
0.288667447598637
40
0.377584016648808
40
0.377584016648808
40
0.466500585698978
40
0.466500585698978
40
0.555417154749149
40
0.555417154749149
40
0.644333723799319
40
0.644333723799319
40
0.733250292849489
40
0.733250292849489
40
0.822166861899659
40
0.822166861899659
40
0.91108343094983
40
0.91108343094983
40
1
40
1
40
1
40
1
41
1
10
37.3658517095364
20
4.97273122119029
30
0
41
1
10
37.4598781762766
20
4.97302832922685
30
0
41
1
10
37.5539285554076
20
4.9728124415262
30
0
41
1
10
37.8388266015188
20
4.97069181861164
30
0
41
1
10
38.0294954252935
20
4.96690837518
30
0
41
1
10
38.4104854060527
20
4.95280455429051
30
0
41
1
10
38.6008625496046
20
4.94277291981058
30
0
41
1
10
39.1717129934382
20
4.90494802821334
30
0
41
1
10
39.5517934118121
20
4.86943306831196
30
0
41
1
10
40.3121487946152
20
4.77992699862008
30
0
41
1
10
40.6928497008313
20
4.72648546857857
30
0
41
1
10
41.454947325596
20
4.60260177439918
30
0
41
1
10
41.8364562927959
20
4.52927639171622
30
0
41
1
10
42.598014009194
20
4.36512668583498
30
0
41
1
10
42.978564690056
20
4.27437069843742
30
0
41
1
10
43.7390510881772
20
4.07592138754657
30
0
41
1
10
44.119035523893
20
3.96919393303688
30
0
41
1
10
44.8802932641003
20
3.74001739398059
30
0
41
1
10
45.2615687028983
20
3.61640617198387
30
0
41
1
10
46.024058705496
20
3.35465995382816
30
0
41
1
10
46.4046503533913
20
3.21706638262052
30
0
41
1
10
47.1659265903293
20
2.93174140858986
30
0
41
1
10
47.546251925134
20
2.78374108103623
30
0
41
1
10
48.3066439013903
20
2.4739872330135
30
0
41
1
10
48.6872540613793
20
2.31338081113111
30
0
41
1
10
49.4496488212256
20
1.98344439803265
30
0
41
1
10
49.8311530262155
20
1.81362942570962
30
0
41
1
10
50.2121742533248
20
1.64176514736042
30
0
0
SPLINE
5
BC
100
AcDbEntity
8
1
62
256
6
ByLayer
370
18
48
1
60
0
100
AcDbSpline
70
4
71
3
72
8
73
4
40
0
40
0
40
0
40
0
40
1
40
1
40
1
40
1
41
1
10
56.9997675260109
20
-0.0438461411268918
30
0
41
1
10
57.0000773542301
20
-0.0146241390480668
30
0
41
1
10
57.0000776033443
20
0.0146006434052026
30
0
41
1
10
56.9997675260109
20
0.0438461411224011
30
0
0
SPLINE
5
BD
100
AcDbEntity
8
1
62
256
6
ByLayer
370
18
48
1
60
0
100
AcDbSpline
70
4
71
3
72
14
73
10
40
0
40
0
40
0
40
0
40
0.25
40
0.25
40
0.5
40
0.5
40
0.75
40
0.75
40
1
40
1
40
1
40
1
41
1
10
55.2995919537335
20
-4.98283422261613
30
0
41
1
10
55.3028951226709
20
-4.98224271484017
30
0
41
1
10
55.3055270985675
20
-4.98338458559775
30
0
41
1
10
55.3090615835041
20
-4.9901673963542
30
0
41
1
10
55.3099056019652
20
-4.99590714985681
30
0
41
1
10
55.3087609920463
20
-5.01283882904079
30
0
41
1
10
55.3067197021299
20
-5.02400359358543
30
0
41
1
10
55.2999973783103
20
-5.0491433969986
30
0
41
1
10
55.2953558609877
20
-5.06300274180282
30
0
41
1
10
55.2902251305166
20
-5.07625638959061
30
0
0
SPLINE
5
BE
100
AcDbEntity
8
1
62
256
6
ByLayer
370
18
48
1
60
0
100
AcDbSpline
70
4
71
3
72
10
73
6
40
0
40
0
40
0
40
0
40
0.5
40
0.5
40
1
40
1
40
1
40
1
41
1
10
55.1749529917418
20
1.25490435950664
30
0
41
1
10
55.4368476595901
20
1.2449510086654
30
0
41
1
10
55.6987395306401
20
1.23503151563176
30
0
41
1
10
56.2223811466025
20
1.21691309666679
30
0
41
1
10
56.4841728090231
20
1.20820672089741
30
0
41
1
10
56.7459556733725
20
1.19960685384172
30
0
0
SPLINE
5
BF
100
AcDbEntity
8
1
62
256
6
ByLayer
370
18
48
1
60
0
100
AcDbSpline
70
4
71
3
72
8
73
4
40
0
40
0
40
0
40
0
40
1
40
1
40
1
40
1
41
1
10
56.9949078949062
20
-0.102829312563586
30
0
41
1
10
56.9946765145879
20
-0.0858998711541972
30
0
41
1
10
56.9965271138188
20
-0.0655083348274843
30
0
41
1
10
56.9997675260109
20
-0.0438461411269202
30
0
0
SPLINE
5
C0
100
AcDbEntity
8
1
62
256
6
ByLayer
370
18
48
1
60
0
100
AcDbSpline
70
4
71
3
72
10
73
6
40
0
40
0
40
0
40
0
40
0.5
40
0.5
40
1
40
1
40
1
40
1
41
1
10
55.4364365412705
20
-5.10542126152413
30
0
41
1
10
55.6542019764276
20
-4.4809839142838
30
0
41
1
10
55.8770501191671
20
-3.85977983777596
30
0
41
1
10
56.3305690498663
20
-2.62198306047256
30
0
41
1
10
56.5611926417946
20
-2.00536866310497
30
0
41
1
10
56.7937437351252
20
-1.39009680387198
30
0
0
SPLINE
5
C1
100
AcDbEntity
8
1
62
256
6
ByLayer
370
18
48
1
60
0
100
AcDbSpline
70
4
71
3
72
14
73
10
40
0
40
0
40
0
40
0
40
0.25
40
0.25
40
0.5
40
0.5
40
0.75
40
0.75
40
1
40
1
40
1
40
1
41
1
10
55.0395388004708
20
1.15881200814394
30
0
41
1
10
55.0385895233113
20
1.17418074448395
30
0
41
1
10
55.0417892160239
20
1.18976301086826
30
0
41
1
10
55.0572338744439
20
1.21674474199739
30
0
41
1
10
55.0694322847404
20
1.22794906605915
30
0
41
1
10
55.0968092945924
20
1.24373717457689
30
0
41
1
10
55.1122294629117
20
1.24878138482106
30
0
41
1
10
55.1432015966641
20
1.25461333318296
30
0
41
1
10
55.1591097262159
20
1.25550648547409
30
0
41
1
10
55.1749529917417
20
1.25490435950664
30
0
0
SPLINE
5
C2
100
AcDbEntity
8
1
62
256
6
ByLayer
370
18
48
1
60
0
100
AcDbSpline
70
4
71
3
72
18
73
14
40
0
40
0
40
0
40
0
40
0.0669627721701021
40
0.0669627721701021
40
0.16780986191555
40
0.16780986191555
40
0.268656951660996
40
0.268656951660996
40
0.470351131151891
40
0.470351131151891
40
0.873739490133683
40
0.873739490133683
40
1
40
1
40
1
40
1
41
1
10
38.3013716420416
20
-0.0009445335535645
30
0
41
1
10
38.4831450088482
20
-0.0897068260755134
30
0
41
1
10
38.6651202268459
20
-0.178563915553838
30
0
41
1
10
39.1217804470547
20
-0.401229146834453
30
0
41
1
10
39.3967611666869
20
-0.535069485629293
30
0
41
1
10
39.9481412659781
20
-0.80211780514469
30
0
41
1
10
40.2249844366922
20
-0.935535588651021
30
0
41
1
10
41.0521690049272
20
-1.33092480900061
30
0
41
1
10
41.6007357602371
20
-1.58849646816341
30
0
41
1
10
43.2415626155096
20
-2.33617402988523
30
0
41
1
10
44.3289821409435
20
-2.8012005399101
30
0
41
1
10
45.7614688885579
20
-3.34418265109451
30
0
41
1
10
46.1033198205386
20
-3.46856131294922
30
0
41
1
10
46.4458561078557
20
-3.58732619666975
30
0
0
SPLINE
5
C3
100
AcDbEntity
8
1
62
256
6
ByLayer
370
13
48
1
60
0
100
AcDbSpline
70
4
71
3
72
16
73
12
40
0
40
0
40
0
40
0
40
0.0695943830324472
40
0.0695943830324472
40
0.162634944729204
40
0.162634944729204
40
0.25567550642596
40
0.25567550642596
40
0.62783775321298
40
0.62783775321298
40
1
40
1
40
1
40
1
41
1
10
46.4458561079664
20
-3.58732619670818
30
0
41
1
10
46.6505025897097
20
-3.6582816443723
30
0
41
1
10
46.8553937022847
20
-3.72723330926758
30
0
41
1
10
47.3349335077652
20
-3.88340782626941
30
0
41
1
10
47.6098429145194
20
-3.9689509482013
30
0
41
1
10
48.1610648759382
20
-4.13200566816164
30
0
41
1
10
48.4378103887639
20
-4.20963288919546
30
0
41
1
10
49.8167552801582
20
-4.57368943999606
30
0
41
1
10
50.9094468909973
20
-4.78946147389257
30
0
41
1
10
53.0947821877427
20
-5.05775267651703
30
0
41
1
10
54.1875357820413
20
-5.11058809245387
30
0
41
1
10
55.290225130507
20
-5.07625638959092
30
0
0
SPLINE
5
C4
100
AcDbEntity
8
1
62
256
6
ByLayer
370
18
48
1
60
0
100
AcDbSpline
70
4
71
3
72
24
73
20
40
0
40
0
40
0
40
0
40
0.124999999999999
40
0.124999999999999
40
0.249999999999997
40
0.249999999999997
40
0.312499999999996
40
0.312499999999996
40
0.374999999999995
40
0.374999999999995
40
0.437499999999994
40
0.437499999999994
40
0.499999999999992
40
0.499999999999992
40
0.624999999999991
40
0.624999999999991
40
0.749999999999989
40
0.749999999999989
40
1
40
1
40
1
40
1
41
1
10
2.68723218049684
20
-3.43536568783233
30
0
41
1
10
2.67748364681901
20
-3.44841323102179
30
0
41
1
10
2.6672481499181
20
-3.46151680555678
30
0
41
1
10
2.64471579987389
20
-3.4877834636217
30
0
41
1
10
2.63238398896576
20
-3.50120316636617
30
0
41
1
10
2.61010384722994
20
-3.52020002147128
30
0
41
1
10
2.6019112667058
20
-3.52640290722027
30
0
41
1
10
2.58394534273401
20
-3.53679540680898
30
0
41
1
10
2.57416010417569
20
-3.54073157777123
30
0
41
1
10
2.55658292689932
20
-3.54419169396633
30
0
41
1
10
2.548863148061
20
-3.54394070517941
30
0
41
1
10
2.53556772750943
20
-3.54150559429377
30
0
41
1
10
2.52997911286741
20
-3.53938302959446
30
0
41
1
10
2.5147639524817
20
-3.53172400494722
30
0
41
1
10
2.50685565603476
20
-3.52498551502964
30
0
41
1
10
2.49305510763287
20
-3.51062606444614
30
0
41
1
10
2.48718298624476
20
-3.50287118566737
30
0
41
1
10
2.47146564782142
20
-3.47865595830825
30
0
41
1
10
2.46380165048458
20
-3.46108884702935
30
0
41
1
10
2.45768898754801
20
-3.44316579865088
30
0
0
SPLINE
5
C5
100
AcDbEntity
8
1
62
256
6
ByLayer
370
18
48
1
60
0
100
AcDbSpline
70
4
71
3
72
10
73
6
40
0
40
0
40
0
40
0
40
0.5
40
0.5
40
1
40
1
40
1
40
1
41
1
10
55.4364365412782
20
5.10542126150193
30
0
41
1
10
55.402769255545
20
5.14157164649595
30
0
41
1
10
55.3680933535729
20
5.17127305470669
30
0
41
1
10
55.2978368181238
20
5.2165415456559
30
0
41
1
10
55.2622673054815
20
5.23219640892304
30
0
41
1
10
55.2261751738661
20
5.24107791602071
30
0
0
SPLINE
5
C6
100
AcDbEntity
8
1
62
256
6
ByLayer
370
18
48
1
60
0
100
AcDbSpline
70
4
71
3
72
10
73
6
40
0
40
0
40
0
40
0
40
0.5
40
0.5
40
1
40
1
40
1
40
1
41
1
10
55.4364365412767
20
-5.10542126150352
30
0
41
1
10
55.4027224103128
20
-5.14162194675436
30
0
41
1
10
55.3679988356667
20
-5.17134226628636
30
0
41
1
10
55.2978107564265
20
-5.21655001300945
30
0
41
1
10
55.2622615633776
20
-5.23219782193291
30
0
41
1
10
55.2261751738661
20
-5.24107791602074
30
0
0
SPLINE
5
C7
100
AcDbEntity
8
1
62
256
6
ByLayer
370
18
48
1
60
0
100
AcDbSpline
70
4
71
3
72
10
73
6
40
0
40
0
40
0
40
0
40
0.920060538174853
40
0.920060538174853
40
1
40
1
40
1
40
1
41
1
10
55.2995919537335
20
-4.98283422261613
30
0
41
1
10
53.0957438218985
20
-5.02770343962791
30
0
41
1
10
50.931034110889
20
-4.73153553995885
30
0
41
1
10
48.5346108381901
20
-4.09122069802126
30
0
41
1
10
48.3426297776214
20
-4.03779671374909
30
0
41
1
10
48.1508987888056
20
-3.98243608442442
30
0
0
SPLINE
5
C8
100
AcDbEntity
8
1
62
256
6
ByLayer
370
13
48
1
60
0
100
AcDbSpline
70
4
71
3
72
24
73
20
40
0
40
0
40
0
40
0
40
0.0182205196081352
40
0.0182205196081352
40
0.0779757750817158
40
0.0779757750817158
40
0.19748628602888
40
0.19748628602888
40
0.436507307923205
40
0.436507307923205
40
0.556017818870367
40
0.556017818870367
40
0.615773074343949
40
0.615773074343949
40
0.67552832981753
40
0.67552832981753
40
0.914549351711855
40
0.914549351711855
40
1
40
1
40
1
40
1
41
1
10
48.1508980704914
20
-3.98243587701748
30
0
41
1
10
48.066789130836
20
-3.95815016148487
30
0
41
1
10
47.9827283156296
20
-3.93349175432081
30
0
41
1
10
47.6234304061867
20
-3.82647842470592
30
0
41
1
10
47.3487570337292
20
-3.74061142490811
30
0
41
1
10
46.5263910005099
20
-3.47204593115407
30
0
41
1
10
45.9802990002648
20
-3.27841639504786
30
0
41
1
10
44.3446846184695
20
-2.66047935021621
30
0
41
1
10
43.2576181340163
20
-2.19940414021889
30
0
41
1
10
41.6175550372319
20
-1.46102373217764
30
0
41
1
10
41.0692552196549
20
-1.20713961310614
30
0
41
1
10
40.2425984766562
20
-0.818141300456773
30
0
41
1
10
39.9660310561976
20
-0.687027191165441
30
0
41
1
10
39.4151923853682
20
-0.424792049501121
30
0
41
1
10
39.140455484799
20
-0.293453349372015
30
0
41
1
10
37.7693915662626
20
0.362632865639853
30
0
41
1
10
36.6811910770953
20
0.886030881835268
30
0
41
1
10
35.2019664226237
20
1.56586951994313
30
0
41
1
10
34.8122282193198
20
1.74202325111636
30
0
41
1
10
34.4218600825454
20
1.91437421991901
30
0
0
SPLINE
5
C9
100
AcDbEntity
8
1
62
256
6
ByLayer
370
18
48
1
60
0
100
AcDbSpline
70
4
71
3
72
8
73
4
40
0
40
0
40
0
40
0
40
1
40
1
40
1
40
1
41
1
10
2.43634759131064
20
-4.68778512774054
30
0
41
1
10
2.43634759131064
20
-4.68033114760021
30
0
41
1
10
2.43634759131061
20
-4.67289071391664
30
0
41
1
10
2.43634759131061
20
-4.66546383939254
30
0
0
SPLINE
5
CA
100
AcDbEntity
8
1
62
256
6
ByLayer
370
18
48
1
60
0
100
AcDbSpline
70
4
71
3
72
8
73
4
40
0
40
0
40
0
40
0
40
1
40
1
40
1
40
1
41
1
10
12.015702754864
20
3.77257396956907
30
0
41
1
10
12.5583129624748
20
3.90574893349114
30
0
41
1
10
13.0972417224434
20
4.04101109059337
30
0
41
1
10
13.6337085535878
20
4.17239169741066
30
0
0
SPLINE
5
CB
100
AcDbEntity
8
1
62
256
6
ByLayer
370
13
48
1
60
0
100
AcDbSpline
70
4
71
3
72
10
73
6
40
0
40
0
40
0
40
0
40
0.206528076584397
40
0.206528076584397
40
1
40
1
40
1
40
1
41
1
10
2.45616563107225
20
1.64506562923043
30
0
41
1
10
2.46076855467092
20
1.63557173857478
30
0
41
1
10
2.46615701756355
20
1.62635078487008
30
0
41
1
10
2.49596854650744
20
1.58359496309174
30
0
41
1
10
2.53148341832258
20
1.55411912340165
30
0
41
1
10
2.57678165133433
20
1.53514782029421
30
0
0
SPLINE
5
CC
100
AcDbEntity
8
1
62
256
6
ByLayer
370
18
48
1
60
0
100
AcDbSpline
70
4
71
3
72
74
73
70
40
0
40
0
40
0
40
0
40
0.0124361549809283
40
0.0124361549809283
40
0.0490125936853399
40
0.0490125936853399
40
0.0855890323897515
40
0.0855890323897515
40
0.122165471094163
40
0.122165471094163
40
0.158741909798575
40
0.158741909798575
40
0.195318348502986
40
0.195318348502986
40
0.213606567855191
40
0.213606567855191
40
0.231894787207397
40
0.231894787207397
40
0.268471225911807
40
0.268471225911807
40
0.305047664616218
40
0.305047664616218
40
0.323335883968423
40
0.323335883968423
40
0.341624103320628
40
0.341624103320628
40
0.378200542025039
40
0.378200542025039
40
0.414776980729449
40
0.414776980729449
40
0.45135341943386
40
0.45135341943386
40
0.469641638786065
40
0.469641638786065
40
0.48792985813827
40
0.48792985813827
40
0.524506296842681
40
0.524506296842681
40
0.561082735547091
40
0.561082735547091
40
0.579370954899296
40
0.579370954899296
40
0.597659174251501
40
0.597659174251501
40
0.63423561295591
40
0.63423561295591
40
0.67081205166032
40
0.67081205166032
40
0.707388490364729
40
0.707388490364729
40
0.743964929069138
40
0.743964929069138
40
0.780541367773548
40
0.780541367773548
40
0.817117806477957
40
0.817117806477957
40
0.835406025830161
40
0.835406025830161
40
0.853694245182366
40
0.853694245182366
40
0.890270683886774
40
0.890270683886774
40
0.926847122591182
40
0.926847122591182
40
0.945135341943387
40
0.945135341943387
40
0.963423561295591
40
0.963423561295591
40
1
40
1
40
1
40
1
41
1
10
44.8868144398854
20
-3.73507525610822
30
0
41
1
10
44.7573293098503
20
-3.77602875910185
30
0
41
1
10
44.6278156440603
20
-3.81603270759908
30
0
41
1
10
44.1172296115619
20
-3.96971698175733
30
0
41
1
10
43.7361781995685
20
-4.07673516746402
30
0
41
1
10
42.9724455402029
20
-4.27590263649859
30
0
41
1
10
42.5907487504876
20
-4.36680239265928
30
0
41
1
10
41.8289580948956
20
-4.53078072209362
30
0
41
1
10
41.4486421984663
20
-4.60372838214374
30
0
41
1
10
40.6869254944575
20
-4.72734516795435
30
0
41
1
10
40.3058709697119
20
-4.78077984730169
30
0
41
1
10
39.5436565569193
20
-4.87027488645319
30
0
41
1
10
39.1616031112797
20
-4.90581305998992
30
0
41
1
10
38.5895550837368
20
-4.94342034185985
30
0
41
1
10
38.3990049321869
20
-4.95334492630215
30
0
41
1
10
38.0181861351819
20
-4.9672045399995
30
0
41
1
10
37.8279164031384
20
-4.97084532949177
30
0
41
1
10
37.2570414398896
20
-4.97487160007907
30
0
41
1
10
36.8763826886225
20
-4.9696209451096
30
0
41
1
10
36.114606997952
20
-4.93930243737094
30
0
41
1
10
35.7338584118375
20
-4.91468496897639
30
0
41
1
10
35.1612875632207
20
-4.86231159048799
30
0
41
1
10
34.970504294606
20
-4.84228014676666
30
0
41
1
10
34.5892170148695
20
-4.79670891654484
30
0
41
1
10
34.3986722594395
20
-4.77108876317482
30
0
41
1
10
33.8275113100723
20
-4.68827448893592
30
0
41
1
10
33.447369492927
20
-4.62391747021206
30
0
41
1
10
32.6860743277122
20
-4.47554917733225
30
0
41
1
10
32.3051329446326
20
-4.39290555711958
30
0
41
1
10
31.5431380818608
20
-4.21062554378867
30
0
41
1
10
31.1612875986895
20
-4.11076820126257
30
0
41
1
10
30.5895434672303
20
-3.94937549472036
30
0
41
1
10
30.3990796994082
20
-3.89368430581766
30
0
41
1
10
30.0184078704185
20
-3.77752939661858
30
0
41
1
10
29.8282102807204
20
-3.71696936928478
30
0
41
1
10
29.2576284297348
20
-3.53015075110704
30
0
41
1
10
28.8771336773439
20
-3.39959410047351
30
0
41
1
10
28.1156011380468
20
-3.12579859951683
30
0
41
1
10
27.7348768004507
20
-2.98190154742292
30
0
41
1
10
27.162551729638
20
-2.7572123901291
30
0
41
1
10
26.9719255346896
20
-2.68101553701331
30
0
41
1
10
26.5908258217937
20
-2.52550880793558
30
0
41
1
10
26.4003352525641
20
-2.44633094528578
30
0
41
1
10
25.8292878468996
20
-2.20595134241825
30
0
41
1
10
25.449262799902
20
-2.04110873534171
30
0
41
1
10
24.6884174172569
20
-1.70464296327918
30
0
41
1
10
24.3076801617366
20
-1.53304082301733
30
0
41
1
10
23.5457004767241
20
-1.18224522593883
30
0
41
1
10
23.1637538888798
20
-1.00329428807956
30
0
41
1
10
22.4012757412144
20
-0.644505385656544
30
0
41
1
10
22.0204664871146
20
-0.463783794206336
30
0
41
1
10
21.259509446495
20
-0.100075814315062
30
0
41
1
10
20.8789398240348
20
0.0820071049132878
30
0
41
1
10
20.1168013368982
20
0.444988215515707
30
0
41
1
10
19.7352522848452
20
0.626835483892165
30
0
41
1
10
19.1629201576303
20
0.896921662605905
30
0
41
1
10
18.9722143882185
20
0.98640624578502
30
0
41
1
10
18.5908319204257
20
1.16384436166035
30
0
41
1
10
18.4001157572755
20
1.25158780451724
30
0
41
1
10
17.8281544266645
20
1.51347033794485
30
0
41
1
10
17.4473461250139
20
1.68681460082996
30
0
41
1
10
16.6844856110824
20
2.02532443428677
30
0
41
1
10
16.3023552304804
20
2.19071268927209
30
0
41
1
10
15.7305789717537
20
2.43135371297097
30
0
41
1
10
15.5401413194779
20
2.51038299877254
30
0
41
1
10
15.1591211429621
20
2.66503755931484
30
0
41
1
10
14.9685713057073
20
2.74073963224538
30
0
41
1
10
14.3968224515641
20
2.9645116799467
30
0
41
1
10
14.01538129629
20
3.10860942003299
30
0
41
1
10
13.6337085535877
20
3.24687194332734
30
0
0
SPLINE
5
CD
100
AcDbEntity
8
1
62
256
6
ByLayer
370
18
48
1
60
0
100
AcDbSpline
70
4
71
3
72
30
73
26
40
0
40
0
40
0
40
0
40
0.0625000000000013
40
0.0625000000000013
40
0.0937500000000015
40
0.0937500000000015
40
0.125000000000002
40
0.125000000000002
40
0.250000000000001
40
0.250000000000001
40
0.312500000000001
40
0.312500000000001
40
0.375000000000001
40
0.375000000000001
40
0.437500000000001
40
0.437500000000001
40
0.500000000000001
40
0.500000000000001
40
0.625000000000001
40
0.625000000000001
40
0.75
40
0.75
40
0.875
40
0.875
40
1
40
1
40
1
40
1
41
1
10
50.2121742533376
20
1.64176514735453
30
0
41
1
10
50.210740160868
20
1.49705447382922
30
0
41
1
10
50.2188813324676
20
1.35070839646349
30
0
41
1
10
50.2452208502107
20
1.12877633458319
30
0
41
1
10
50.2563588893764
20
1.05439621270202
30
0
41
1
10
50.2833539901115
20
0.904829985177173
30
0
41
1
10
50.299243426711
20
0.829612368841822
30
0
41
1
10
50.388739946661
20
0.458033573232257
30
0
41
1
10
50.4928527577371
20
0.169704941271391
30
0
41
1
10
50.6891406750609
20
-0.251764474732312
30
0
41
1
10
50.7606844288331
20
-0.388851301318141
30
0
41
1
10
50.9128580391475
20
-0.654001174134123
30
0
41
1
10
50.9937301111928
20
-0.782611484261196
30
0
41
1
10
51.1637596285441
20
-1.03296761621266
30
0
41
1
10
51.2529116632809
20
-1.15471792073049
30
0
41
1
10
51.4385815524277
20
-1.392115897888
30
0
41
1
10
51.5354304392794
20
-1.50807932511231
30
0
41
1
10
51.8317645969996
20
-1.84281941505449
30
0
41
1
10
52.038012254113
20
-2.05008889455206
30
0
41
1
10
52.4641637387709
20
-2.43966056624325
30
0
41
1
10
52.684104723244
20
-2.62189482521058
30
0
41
1
10
53.1356211368362
20
-2.96509233429583
30
0
41
1
10
53.3677334789311
20
-3.12629112682404
30
0
41
1
10
53.8364333773656
20
-3.42601562839937
30
0
41
1
10
54.0736805424616
20
-3.56509803373851
30
0
41
1
10
54.3135431675763
20
-3.69444893961071
30
0
0
SPLINE
5
CE
100
AcDbEntity
8
1
62
256
6
ByLayer
370
18
48
1
60
0
100
AcDbSpline
70
4
71
3
72
62
73
58
40
0
40
0
40
0
40
0
40
0.0312500000000062
40
0.0312500000000062
40
0.0468750000000089
40
0.0468750000000089
40
0.0625000000000117
40
0.0625000000000117
40
0.0781250000000144
40
0.0781250000000144
40
0.0937500000000171
40
0.0937500000000171
40
0.10937500000002
40
0.10937500000002
40
0.125000000000023
40
0.125000000000023
40
0.140625000000025
40
0.140625000000025
40
0.156250000000028
40
0.156250000000028
40
0.187500000000034
40
0.187500000000034
40
0.218750000000041
40
0.218750000000041
40
0.250000000000047
40
0.250000000000047
40
0.265625000000051
40
0.265625000000051
40
0.269531250000052
40
0.269531250000052
40
0.271484375000052
40
0.271484375000052
40
0.273437500000053
40
0.273437500000053
40
0.277343750000052
40
0.277343750000052
40
0.281250000000052
40
0.281250000000052
40
0.285156250000052
40
0.285156250000052
40
0.289062500000051
40
0.29687500000005
40
0.31250000000005
40
0.31250000000005
40
0.375000000000046
40
0.375000000000046
40
0.437500000000041
40
0.437500000000041
40
0.500000000000037
40
0.500000000000037
40
0.625000000000027
40
0.625000000000027
40
0.750000000000018
40
0.750000000000018
40
0.875000000000009
40
0.875000000000009
40
1
40
1
40
1
40
1
41
1
10
2.43634759130134
20
-4.68778512774389
30
0
41
1
10
2.3492638093887
20
-4.63433541157178
30
0
41
1
10
2.27006735090509
20
-4.57472251721327
30
0
41
1
10
2.16978334337028
20
-4.47421393296236
30
0
41
1
10
2.13938518945048
20
-4.43879741201914
30
0
41
1
10
2.08603164912782
20
-4.36337531843375
30
0
41
1
10
2.06342880782083
20
-4.32379603013484
30
0
41
1
10
2.02794343254737
20
-4.24129579793413
30
0
41
1
10
2.01497836766285
20
-4.19826599857393
30
0
41
1
10
1.99996576394466
20
-4.10826182147122
30
0
41
1
10
1.99805687418581
20
-4.06105841890465
30
0
41
1
10
2.00608750705618
20
-3.96614226576224
30
0
41
1
10
2.01589587944378
20
-3.91802618938374
30
0
41
1
10
2.0468888647147
20
-3.82061760897059
30
0
41
1
10
2.06831857393934
20
-3.77092913335284
30
0
41
1
10
2.12128609008423
20
-3.67259855613582
30
0
41
1
10
2.15259908548231
20
-3.62415732946829
30
0
41
1
10
2.22357318494915
20
-3.52862109272255
30
0
41
1
10
2.2634350195388
20
-3.48132581132347
30
0
41
1
10
2.39273305432982
20
-3.34278291581836
30
0
41
1
10
2.49038157248813
20
-3.2559606830076
30
0
41
1
10
2.70154217376853
20
-3.09047592127635
30
0
41
1
10
2.81564767473583
20
-3.01152437533847
30
0
41
1
10
3.05327519059318
20
-2.86190385788538
30
0
41
1
10
3.17655228088316
20
-2.79132435698139
30
0
41
1
10
3.3665458855013
20
-2.69047181469108
30
0
41
1
10
3.43072752242679
20
-2.6576917050017
30
0
41
1
10
3.51187070622444
20
-2.61762765000452
30
0
41
1
10
3.52814244557314
20
-2.60967330725467
30
0
41
1
10
3.55261613031638
20
-2.5978478847702
30
0
41
1
10
3.56078537530141
20
-2.59392357507949
30
0
41
1
10
3.57714777601504
20
-2.58611232442965
30
0
41
1
10
3.58525023007962
20
-2.58206121199515
30
0
41
1
10
3.61065566818132
20
-2.57188602100649
30
0
41
1
10
3.62889949612753
20
-2.56712480098506
30
0
41
1
10
3.6661197224835
20
-2.56043157642892
30
0
41
1
10
3.68473372636154
20
-2.55853580308479
30
0
41
1
10
3.72196812666985
20
-2.55713553256251
30
0
41
1
10
3.74058808262191
20
-2.55746590031558
30
0
41
1
10
3.77782665693891
20
-2.55762648620822
30
0
41
1
10
3.8336846869708
20
-2.55793039439814
30
0
41
1
10
3.96402128331476
20
-2.5590855265711
30
0
41
1
10
4.07574040029473
20
-2.56083592219579
30
0
41
1
10
4.44814193850544
20
-2.56834226005941
30
0
41
1
10
4.74575303880036
20
-2.57968790046669
30
0
41
1
10
5.33987646261687
20
-2.61258377075143
30
0
41
1
10
5.6364685064207
20
-2.6341429709918
30
0
41
1
10
6.22872778875768
20
-2.68707314033509
30
0
41
1
10
6.52475708639921
20
-2.71845416956222
30
0
41
1
10
7.40840596394676
20
-2.82599929791408
30
0
41
1
10
7.99138544021977
20
-2.91552653558154
30
0
41
1
10
9.14606379775046
20
-3.12210835096127
30
0
41
1
10
9.71774196128132
20
-3.23919388064263
30
0
41
1
10
10.8511731088332
20
-3.49057239454981
30
0
41
1
10
11.4129322034671
20
-3.62481525886625
30
0
41
1
10
12.5285434396519
20
-3.89827478903385
30
0
41
1
10
13.0824258920408
20
-4.03738269704545
30
0
41
1
10
13.6337085535878
20
-4.17239169741066
30
0
0
SPLINE
5
CF
100
AcDbEntity
8
1
62
256
6
ByLayer
370
13
48
1
60
0
100
AcDbSpline
70
4
71
3
72
15
73
11
40
0
40
0
40
0
40
0
40
0.152657515523674
40
0.152657515523674
40
0.364493136642756
40
0.364493136642756
40
0.576328757761837
40
0.788164378880918
40
0.788164378880918
40
1
40
1
40
1
40
1
41
1
10
2.6870011083715
20
-4.95513709367992
30
0
41
1
10
2.68701242344383
20
-4.95587101111718
30
0
41
1
10
2.68702398029754
20
-4.95129680529857
30
0
41
1
10
2.68705198181687
20
-4.92769322521914
30
0
41
1
10
2.68706860570123
20
-4.90342925177168
30
0
41
1
10
2.68710095867803
20
-4.83525221098159
30
0
41
1
10
2.68713260804591
20
-4.74739292808493
30
0
41
1
10
2.68716114691182
20
-4.62079562135528
30
0
41
1
10
2.68718709004369
20
-4.47441830763734
30
0
41
1
10
2.68719877860914
20
-4.39088571962813
30
0
41
1
10
2.68720831628991
20
-4.29941957928375
30
0
0
SPLINE
5
D0
100
AcDbEntity
8
1
62
256
6
ByLayer
370
18
48
1
60
0
100
AcDbSpline
70
4
71
3
72
20
73
16
40
0
40
0
40
0
40
0
40
0.173037148975314
40
0.173037148975314
40
0.346074297950627
40
0.346074297950627
40
0.519111446925941
40
0.519111446925941
40
0.605630021413598
40
0.605630021413598
40
0.692148595901255
40
0.692148595901255
40
0.865185744876567
40
0.865185744876567
40
1
40
1
40
1
40
1
41
1
10
13.6337085535878
20
3.24687194332751
30
0
41
1
10
13.1373432536551
20
3.41504125428631
30
0
41
1
10
12.6457072182548
20
3.57927101132484
30
0
41
1
10
11.6675370587698
20
3.88722367678142
30
0
41
1
10
11.1804986213674
20
4.03318826587068
30
0
41
1
10
10.2117613862335
20
4.30035994407299
30
0
41
1
10
9.730079421114
20
4.42101695188467
30
0
41
1
10
9.00960785012231
20
4.57591484535786
30
0
41
1
10
8.76961761413517
20
4.62322006015421
30
0
41
1
10
8.29113652604349
20
4.70973660468158
30
0
41
1
10
8.05270280898802
20
4.7487893276458
30
0
41
1
10
7.33979980872095
20
4.85210272256845
30
0
41
1
10
6.86763545989805
20
4.90259861610483
30
0
41
1
10
6.03452498612378
20
4.95391956387886
30
0
41
1
10
5.67421254091872
20
4.96233105802099
30
0
41
1
10
5.32042728241555
20
4.95496443804683
30
0
0
SPLINE
5
D1
100
AcDbEntity
8
1
62
256
6
ByLayer
370
18
48
1
60
0
100
AcDbSpline
70
4
71
3
72
20
73
16
40
0
40
0
40
0
40
0
40
0.194761218554164
40
0.194761218554164
40
0.389522437108328
40
0.389522437108328
40
0.584283655662491
40
0.584283655662491
40
0.779044874216653
40
0.779044874216653
40
0.876425483493733
40
0.876425483493733
40
0.973806092770814
40
0.973806092770814
40
1
40
1
40
1
40
1
41
1
10
13.6337085535878
20
-4.17239169741066
30
0
41
1
10
14.0725204050841
20
-4.30658450463397
30
0
41
1
10
14.5105306953094
20
-4.42723155932765
30
0
41
1
10
15.3834778373456
20
-4.64470431897288
30
0
41
1
10
15.817567132033
20
-4.74211916768991
30
0
41
1
10
16.6860173422507
20
-4.90990203455019
30
0
41
1
10
17.1200992172275
20
-4.98076835668397
30
0
41
1
10
17.986313478341
20
-5.09733493132134
30
0
41
1
10
18.4197955840493
20
-5.14219455072285
30
0
41
1
10
19.0713881443415
20
-5.18925412079662
30
0
41
1
10
19.2887403507229
20
-5.20159900693605
30
0
41
1
10
19.7234331148142
20
-5.21953581880919
30
0
41
1
10
19.9409168487251
20
-5.22507757160304
30
0
41
1
10
20.2176448978138
20
-5.22769901112028
30
0
41
1
10
20.2763416802391
20
-5.22800685834147
30
0
41
1
10
20.3350745946825
20
-5.22806574205021
30
0
0
SPLINE
5
D2
100
AcDbEntity
8
1
62
256
6
ByLayer
370
18
48
1
60
0
100
AcDbSpline
70
4
71
3
72
32
73
28
40
0
40
0
40
0
40
0
40
0.0102684612095388
40
0.0102684612095388
40
0.0721266823839419
40
0.0721266823839419
40
0.133984903558345
40
0.133984903558345
40
0.257701345907154
40
0.257701345907154
40
0.319559567081559
40
0.319559567081559
40
0.381417788255963
40
0.381417788255963
40
0.443276009430368
40
0.443276009430368
40
0.505134230604772
40
0.505134230604772
40
0.628850672953578
40
0.628850672953578
40
0.752567115302384
40
0.752567115302384
40
0.814425336476788
40
0.814425336476788
40
0.876283557651191
40
0.876283557651191
40
1
40
1
40
1
40
1
41
1
10
44.865723195394
20
3.72087422272739
30
0
41
1
10
44.9021532851474
20
3.73380241961408
30
0
41
1
10
44.9385979285468
20
3.74666587576459
30
0
41
1
10
45.1946887628756
20
3.83656852475093
30
0
41
1
10
45.4142813601647
20
3.91112578317095
30
0
41
1
10
45.8517508356049
20
4.05508005034136
30
0
41
1
10
46.069768573124
20
4.12461714578117
30
0
41
1
10
46.723494566188
20
4.32358730935508
30
0
41
1
10
47.1586389404656
20
4.44387989519885
30
0
41
1
10
47.8093012186552
20
4.60732728686861
30
0
41
1
10
48.0256964858061
20
4.65908210679351
30
0
41
1
10
48.4587033576093
20
4.75597748693369
30
0
41
1
10
48.6752944913869
20
4.80116258429663
30
0
41
1
10
49.1085331103642
20
4.88519846652042
30
0
41
1
10
49.3251794769146
20
4.92405171203518
30
0
41
1
10
49.7583230384133
20
4.99553471411832
30
0
41
1
10
49.9746598268397
20
5.02824638426489
30
0
41
1
10
50.6245143968593
20
5.11623387797721
30
0
41
1
10
51.0591947185249
20
5.16135600933501
30
0
41
1
10
51.9302711672012
20
5.22496616406966
30
0
41
1
10
52.3663077176529
20
5.2433150085046
30
0
41
1
10
53.0246859469544
20
5.24962911587588
30
0
41
1
10
53.2445386762077
20
5.24824080511533
30
0
41
1
10
53.6833209735268
20
5.23847182148279
30
0
41
1
10
53.9023296347097
20
5.23006475763526
30
0
41
1
10
54.5591447646113
20
5.19429374116493
30
0
41
1
10
54.9976697917667
20
5.15670874550977
30
0
41
1
10
55.4364365412782
20
5.10542126150196
30
0
0
SPLINE
5
D3
100
AcDbEntity
8
1
62
256
6
ByLayer
370
13
48
1
60
0
100
AcDbSpline
70
4
71
3
72
8
73
4
40
0
40
0
40
0
40
0
40
1
40
1
40
1
40
1
41
1
10
2.68723218049567
20
-3.43536568784708
30
0
41
1
10
2.68723203920754
20
-3.43123677905584
30
0
41
1
10
2.68723189349518
20
-3.42707429676227
30
0
41
1
10
2.68723174647613
20
-3.42295483003144
30
0
0
SPLINE
5
D4
100
AcDbEntity
8
1
62
256
6
ByLayer
370
18
48
1
60
0
100
AcDbSpline
70
4
71
3
72
10
73
6
40
0
40
0
40
0
40
0
40
0.5
40
0.5
40
1
40
1
40
1
40
1
41
1
10
56.9997675260107
20
0.0438461411225717
30
0
41
1
10
56.9970854240635
20
0.02689791264973
30
0
41
1
10
56.9925755812952
20
0.0080542246581388
30
0
41
1
10
56.9800755546089
20
-0.0282486623937928
30
0
41
1
10
56.9720596415902
20
-0.045606060435631
30
0
41
1
10
56.9635997152599
20
-0.0591646378010182
30
0
0
SPLINE
5
D5
100
AcDbEntity
8
1
62
256
6
ByLayer
370
13
48
1
60
0
100
AcDbSpline
70
4
71
3
72
8
73
4
40
0
40
0
40
0
40
0
40
1
40
1
40
1
40
1
41
1
10
2.6866055860412
20
1.49770247859655
30
0
41
1
10
2.64849604851449
20
1.50807846645767
30
0
41
1
10
2.61132131986545
20
1.52068229973494
30
0
41
1
10
2.57678165133433
20
1.53514782029424
30
0
0
SPLINE
5
D6
100
AcDbEntity
8
1
62
256
6
ByLayer
370
18
48
1
60
0
100
AcDbSpline
70
4
71
3
72
24
73
20
40
0
40
0
40
0
40
0
40
0.25
40
0.25
40
0.499999999999999
40
0.499999999999999
40
0.624999999999998
40
0.624999999999998
40
0.687499999999996
40
0.687499999999996
40
0.718749999999985
40
0.718749999999985
40
0.749999999999975
40
0.749999999999975
40
0.812499999999977
40
0.812499999999977
40
0.87499999999998
40
0.87499999999998
40
1
40
1
40
1
40
1
41
1
10
2.43634759131231
20
-4.66546383939735
30
0
41
1
10
2.43634759131206
20
-4.61827317491728
30
0
41
1
10
2.43975449530731
20
-4.57087432312511
30
0
41
1
10
2.45381796002096
20
-4.47554987994414
30
0
41
1
10
2.46405094787218
20
-4.42773019108168
30
0
41
1
10
2.48950270875343
20
-4.35445256030224
30
0
41
1
10
2.49956234240335
20
-4.32971241118724
30
0
41
1
10
2.52093418700906
20
-4.29346552498643
30
0
41
1
10
2.52924977006856
20
-4.28124799534126
30
0
41
1
10
2.54532729166607
20
-4.26471285802324
30
0
41
1
10
2.5514122090313
20
-4.25946979471451
30
0
41
1
10
2.5646703541878
20
-4.25102796750241
30
0
41
1
10
2.57180998558854
20
-4.24792897453455
30
0
41
1
10
2.59248854746392
20
-4.24288510954051
30
0
41
1
10
2.60436100350518
20
-4.24471209239221
30
0
41
1
10
2.62513578829004
20
-4.25121077680836
30
0
41
1
10
2.63416297994206
20
-4.25603551759556
30
0
41
1
10
2.65927435092442
20
-4.27216747248522
30
0
41
1
10
2.67365116269732
20
-4.28537465341816
30
0
41
1
10
2.68720831629042
20
-4.29941957444365
30
0
0
SPLINE
5
D7
100
AcDbEntity
8
1
62
256
6
ByLayer
370
18
48
1
60
0
100
AcDbSpline
70
4
71
3
72
38
73
34
40
0
40
0
40
0
40
0
40
0.0625000000000002
40
0.0625000000000002
40
0.125
40
0.125
40
0.1875
40
0.1875
40
0.25
40
0.25
40
0.3125
40
0.3125
40
0.375
40
0.375
40
0.4375
40
0.4375
40
0.5
40
0.5
40
0.5625
40
0.5625
40
0.625
40
0.625
40
0.6875
40
0.6875
40
0.75
40
0.75
40
0.8125
40
0.8125
40
0.875
40
0.875
40
0.9375
40
0.9375
40
1
40
1
40
1
40
1
41
1
10
55.821970605102
20
-1.73871176844352
30
0
41
1
10
55.8296742149065
20
-1.77560043525696
30
0
41
1
10
55.8343905743587
20
-1.81680529721561
30
0
41
1
10
55.8368441410186
20
-1.90559567675311
30
0
41
1
10
55.8346582840431
20
-1.95255378502691
30
0
41
1
10
55.8234290236896
20
-2.05198887091629
30
0
41
1
10
55.8142161725674
20
-2.10477752109208
30
0
41
1
10
55.7901079928207
20
-2.20970795666679
30
0
41
1
10
55.7749384432682
20
-2.26326661145632
30
0
41
1
10
55.7400837188487
20
-2.36807169670965
30
0
41
1
10
55.7206094922208
20
-2.4189167371421
30
0
41
1
10
55.6779963274867
20
-2.51778452928522
30
0
41
1
10
55.6552554312159
20
-2.56481744565133
30
0
41
1
10
55.6079866108431
20
-2.65312338068969
30
0
41
1
10
55.5831258335844
20
-2.69494967432263
30
0
41
1
10
55.5328471434117
20
-2.77142800187284
30
0
41
1
10
55.5073376253256
20
-2.80631360911408
30
0
41
1
10
55.4555078236382
20
-2.86992008331319
30
0
41
1
10
55.429220137748
20
-2.89853240974412
30
0
41
1
10
55.3771884716658
20
-2.94839893747951
30
0
41
1
10
55.3512528476075
20
-2.96989556767912
30
0
41
1
10
55.2993826353228
20
-3.00631752661224
30
0
41
1
10
55.2734389665923
20
-3.02118982263662
30
0
41
1
10
55.2227329566493
20
-3.04381318134025
30
0
41
1
10
55.1977955880844
20
-3.0516994728969
30
0
41
1
10
55.1486059246255
20
-3.06077228843327
30
0
41
1
10
55.1242003998625
20
-3.06193455452274
30
0
41
1
10
55.0768208571116
20
-3.05737804972711
30
0
41
1
10
55.0539038350242
20
-3.05171993596505
30
0
41
1
10
55.0095232442587
20
-3.03370507625044
30
0
41
1
10
54.9880592630723
20
-3.02135097386213
30
0
41
1
10
54.9466312377502
20
-2.98952581294532
30
0
41
1
10
54.9266474602096
20
-2.96995296541695
30
0
41
1
10
54.9080751573489
20
-2.94714006274651
30
0
0
SPLINE
5
D8
100
AcDbEntity
8
1
62
256
6
ByLayer
370
18
48
1
60
0
100
AcDbSpline
70
4
71
3
72
92
73
88
40
0
40
0
40
0
40
0
40
0.0331933307054826
40
0.0331933307054826
40
0.0663866614109652
40
0.0663866614109652
40
0.0995799921164478
40
0.0995799921164478
40
0.13277332282193
40
0.13277332282193
40
0.149369988174671
40
0.149369988174671
40
0.165966653527412
40
0.165966653527412
40
0.199159984232893
40
0.199159984232893
40
0.215756649585634
40
0.215756649585634
40
0.232353314938374
40
0.232353314938374
40
0.248949980291114
40
0.248949980291114
40
0.265546645643855
40
0.265546645643855
40
0.298739976349335
40
0.298739976349335
40
0.315336641702075
40
0.315336641702075
40
0.331933307054816
40
0.331933307054816
40
0.348529972407556
40
0.348529972407556
40
0.365126637760296
40
0.365126637760296
40
0.398319968465776
40
0.398319968465776
40
0.414916633818516
40
0.414916633818516
40
0.431513299171255
40
0.431513299171255
40
0.448109964523995
40
0.448109964523995
40
0.464706629876735
40
0.464706629876735
40
0.497899960582214
40
0.497899960582214
40
0.531093291287693
40
0.531093291287693
40
0.564286621993172
40
0.564286621993172
40
0.59747995269865
40
0.59747995269865
40
0.630673283404129
40
0.630673283404129
40
0.663866614109608
40
0.663866614109608
40
0.697059944815087
40
0.697059944815087
40
0.713656610167827
40
0.713656610167827
40
0.730253275520567
40
0.730253275520567
40
0.763446606226047
40
0.763446606226047
40
0.780043271578788
40
0.780043271578788
40
0.796639936931528
40
0.796639936931528
40
0.813236602284269
40
0.813236602284269
40
0.82983326763701
40
0.82983326763701
40
0.863026598342491
40
0.863026598342491
40
0.879623263695232
40
0.879623263695232
40
0.896219929047973
40
0.896219929047973
40
0.912816594400713
40
0.912816594400713
40
0.929413259753454
40
0.929413259753454
40
0.962606590458935
40
0.962606590458935
40
0.995799921164415
40
0.995799921164415
40
1
40
1
40
1
40
1
41
1
10
13.6337085535878
20
4.17239169741066
30
0
41
1
10
14.0725204050841
20
4.30658450463397
30
0
41
1
10
14.5105306953094
20
4.42723155932765
30
0
41
1
10
15.3834778373456
20
4.64470431897286
30
0
41
1
10
15.817567132033
20
4.74211916768991
30
0
41
1
10
16.6860173422507
20
4.90990203455019
30
0
41
1
10
17.1200992172275
20
4.98076835668397
30
0
41
1
10
17.986313478341
20
5.09733493132131
30
0
41
1
10
18.4197955840493
20
5.14219455072285
30
0
41
1
10
19.0713881443415
20
5.18925412079662
30
0
41
1
10
19.2887403507229
20
5.20159900693605
30
0
41
1
10
19.7234331148142
20
5.21953581880919
30
0
41
1
10
19.9409168487251
20
5.22507757160304
30
0
41
1
10
20.5951280919376
20
5.23127490219969
30
0
41
1
10
21.0334331890527
20
5.22170607190162
30
0
41
1
10
21.6922777668764
20
5.18609435230627
30
0
41
1
10
21.9111907516054
20
5.17068766649794
30
0
41
1
10
22.3486781987253
20
5.13323451061879
30
0
41
1
10
22.5671584998698
20
5.11117876045483
30
0
41
1
10
23.0034622251291
20
5.06047978858768
30
0
41
1
10
23.2212964001755
20
5.03184460486074
30
0
41
1
10
23.6560333495378
20
4.96781937411578
30
0
41
1
10
23.872892359521
20
4.93237370779056
30
0
41
1
10
24.523741453055
20
4.81698748642751
30
0
41
1
10
24.9577269017807
20
4.72798091756903
30
0
41
1
10
25.6077373174093
20
4.57554955208104
30
0
41
1
10
25.8241055545231
20
4.52140634959372
30
0
41
1
10
26.2574571881336
20
4.40764394449801
30
0
41
1
10
26.4744072111173
20
4.34801455627524
30
0
41
1
10
26.9087321404454
20
4.22317605770769
30
0
41
1
10
27.1261066173123
20
4.1579682066878
30
0
41
1
10
27.5610749176027
20
4.02164858195894
30
0
41
1
10
27.7785125866359
20
3.95030981362248
30
0
41
1
10
28.4323016325121
20
3.72877768206317
30
0
41
1
10
28.8706165325825
20
3.57144810068343
30
0
41
1
10
29.5296707050965
20
3.31985768743579
30
0
41
1
10
29.7485599036274
20
3.2334359438272
30
0
41
1
10
30.1856426667817
20
3.05698604588807
30
0
41
1
10
30.4039436929715
20
2.96714887235032
30
0
41
1
10
30.8400229824306
20
2.78423765556906
30
0
41
1
10
31.0577919131222
20
2.69114811289495
30
0
41
1
10
31.4926039301407
20
2.50138638960698
30
0
41
1
10
31.7095074993713
20
2.40445734765072
30
0
41
1
10
32.3597245672336
20
2.10934051068364
30
0
41
1
10
32.7933422808051
20
1.90833501282015
30
0
41
1
10
33.6600213605177
20
1.4964011413156
30
0
41
1
10
34.0924581575433
20
1.28419161953008
30
0
41
1
10
34.9604485559823
20
0.856906915429818
30
0
41
1
10
35.39543039156
20
0.640768256982966
30
0
41
1
10
36.2664062240587
20
0.201254350446334
30
0
41
1
10
36.7038941005293
20
-0.0190089452287907
30
0
41
1
10
37.5829300992803
20
-0.46047943704113
30
0
41
1
10
38.019652649204
20
-0.681529438156048
30
0
41
1
10
38.8916066184011
20
-1.11431976829022
30
0
41
1
10
39.3267394756191
20
-1.32661826273005
30
0
41
1
10
40.1936590848176
20
-1.74638106240761
30
0
41
1
10
40.6267670502289
20
-1.95120857319662
30
0
41
1
10
41.2767653205561
20
-2.24940760006902
30
0
41
1
10
41.4934137085851
20
-2.34744061877203
30
0
41
1
10
41.9263398481004
20
-2.54133943766189
30
0
41
1
10
42.1427478868846
20
-2.63695951776961
30
0
41
1
10
42.7932135477495
20
-2.9173512759993
30
0
41
1
10
43.228190696563
20
-3.09629793853299
30
0
41
1
10
43.881396735058
20
-3.35472248265199
30
0
41
1
10
44.0992482510151
20
-3.43918705168147
30
0
41
1
10
44.5363099461631
20
-3.60292526457428
30
0
41
1
10
44.7554248747538
20
-3.68236157216828
30
0
41
1
10
45.1946887628756
20
-3.83656852475093
30
0
41
1
10
45.4142813601647
20
-3.91112578317092
30
0
41
1
10
45.8517508356048
20
-4.05508005034133
30
0
41
1
10
46.069768573124
20
-4.12461714578117
30
0
41
1
10
46.723494566188
20
-4.32358730935505
30
0
41
1
10
47.1586389404656
20
-4.44387989519885
30
0
41
1
10
47.8093012186552
20
-4.60732728686861
30
0
41
1
10
48.0256964858061
20
-4.65908210679351
30
0
41
1
10
48.4587033576094
20
-4.75597748693369
30
0
41
1
10
48.6752944913869
20
-4.80116258429663
30
0
41
1
10
49.1085331103642
20
-4.88519846652042
30
0
41
1
10
49.3251794769146
20
-4.92405171203518
30
0
41
1
10
49.7583230384134
20
-4.99553471411832
30
0
41
1
10
49.9746598268397
20
-5.02824638426486
30
0
41
1
10
50.6245143968592
20
-5.11623387797721
30
0
41
1
10
51.0591947185249
20
-5.16135600933501
30
0
41
1
10
51.9302711672012
20
-5.22496616406966
30
0
41
1
10
52.3663077176529
20
-5.2433150085046
30
0
41
1
10
52.8607646108088
20
-5.24805704549019
30
0
41
1
10
52.9163278738797
20
-5.24836597372158
30
0
41
1
10
52.9719024708052
20
-5.248451146771
30
0
0
SPLINE
5
D9
100
AcDbEntity
8
1
62
256
6
ByLayer
370
18
48
1
60
0
100
AcDbSpline
70
4
71
3
72
8
73
4
40
0
40
0
40
0
40
0
40
1
40
1
40
1
40
1
41
1
10
2.45768898754778
20
-3.44316579865091
30
0
41
1
10
2.53603580120517
20
-3.43777778982201
30
0
41
1
10
2.61502611657855
20
-3.43191208982984
30
0
41
1
10
2.69463306606804
20
-3.42555397074884
30
0
0
SPLINE
5
DA
100
AcDbEntity
8
1
62
256
6
ByLayer
370
18
48
1
60
0
100
AcDbSpline
70
4
71
3
72
10
73
6
40
0
40
0
40
0
40
0
40
0.5
40
0.5
40
1
40
1
40
1
40
1
41
1
10
56.9949078949061
20
0.102829312563784
30
0
41
1
10
56.9947922239598
20
0.094365997610879
30
0
41
1
10
56.9952116261099
20
0.0849001593366268
30
0
41
1
10
56.9968920713728
20
0.0650781884235698
30
0
41
1
10
56.9981476919816
20
0.0546747507057717
30
0
41
1
10
56.9997675260115
20
0.0438461411224296
30
0
0
LINE
5
76
100
AcDbEntity
8
81
62
256
6
ByLayer
370
18
48
1
60
0
100
AcDbLine
10
57
20
0
30
0
11
62
21
0
31
0
39
0
210
0
220
0
230
1
0
LINE
5
77
100
AcDbEntity
8
1
62
256
6
ByLayer
370
18
48
1
60
0
100
AcDbLine
10
2.436348
20
5.216875
30
0
11
0.350219
21
5.215571
31
0
39
0
210
0
220
0
230
1
0
LINE
5
79
100
AcDbEntity
8
1
62
256
6
ByLayer
370
18
48
1
60
0
100
AcDbLine
10
21.974625
20
5.229086
30
0
11
20.343698
21
5.228067
31
0
39
0
210
0
220
0
230
1
0
LINE
5
7A
100
AcDbEntity
8
1
62
256
6
ByLayer
370
18
48
1
60
0
100
AcDbLine
10
54.625056
20
5.249493
30
0
11
52.990535
21
5.248471
31
0
39
0
210
0
220
0
230
1
0
LINE
5
7B
100
AcDbEntity
8
1
62
256
6
ByLayer
370
18
48
1
60
0
100
AcDbLine
10
52.990535
20
-5.248471
30
0
11
54.625119
21
-5.249493
31
0
39
0
210
0
220
0
230
1
0
LINE
5
7C
100
AcDbEntity
8
1
62
256
6
ByLayer
370
18
48
1
60
0
100
AcDbLine
10
20.343698
20
-5.228067
30
0
11
21.974306
21
-5.229086
31
0
39
0
210
0
220
0
230
1
0
LINE
5
7D
100
AcDbEntity
8
1
62
256
6
ByLayer
370
18
48
1
60
0
100
AcDbLine
10
0.350219
20
-5.215571
30
0
11
2.436348
21
-5.216875
31
0
39
0
210
0
220
0
230
1
0
LINE
5
7E
100
AcDbEntity
8
SK1
62
256
6
ByLayer
370
18
48
1
60
0
100
AcDbLine
10
0
20
6
30
0
11
-43.556624
21
6
31
0
39
0
210
0
220
0
230
1
0
LINE
5
80
100
AcDbEntity
8
SK1
62
256
6
ByLayer
370
18
48
1
60
0
100
AcDbLine
10
-43.556624
20
-6
30
0
11
0
21
-6
31
0
39
0
210
0
220
0
230
1
0
LINE
5
81
100
AcDbEntity
8
SK1
62
256
6
ByLayer
370
18
48
1
60
0
100
AcDbLine
10
-43.556624
20
6
30
0
11
-45
21
3.5
31
0
39
0
210
0
220
0
230
1
0
LINE
5
82
100
AcDbEntity
8
SK1
62
256
6
ByLayer
370
18
48
1
60
0
100
AcDbLine
10
-45
20
-3.5
30
0
11
-43.556624
21
-6
31
0
39
0
210
0
220
0
230
1
0
LINE
5
83
100
AcDbEntity
8
SK4
62
256
6
ByLayer
370
18
48
0.05
60
0
100
AcDbLine
10
62
20
0
30
0
11
-50
21
0
31
0
39
0
210
0
220
0
230
1
0
LINE
5
85
100
AcDbEntity
8
4
62
256
6
ByLayer
370
18
48
0.05
60
0
100
AcDbLine
10
57
20
0
30
0
11
0
21
0
31
0
39
0
210
0
220
0
230
1
0
LINE
5
87
100
AcDbEntity
8
80
62
256
6
ByLayer
370
18
48
1
60
0
100
AcDbLine
10
0
20
0
30
0
11
-5
21
0
31
0
39
0
210
0
220
0
230
1
0
LINE
5
88
100
AcDbEntity
8
SK1
62
256
6
ByLayer
370
18
48
1
60
0
100
AcDbLine
10
-45
20
-1.158716
30
0
11
-45
21
-3.07221
31
0
39
0
210
0
220
0
230
1
0
LINE
5
89
100
AcDbEntity
8
SK1
62
256
6
ByLayer
370
18
48
1
60
0
100
AcDbLine
10
-45
20
3.5
30
0
11
-45
21
-1.158773
31
0
39
0
210
0
220
0
230
1
0
LINE
5
8A
100
AcDbEntity
8
SK1
62
256
6
ByLayer
370
18
48
1
60
0
100
AcDbLine
10
0
20
6
30
0
11
0
21
-6
31
0
39
0
210
0
220
0
230
1
0
LINE
5
8B
100
AcDbEntity
8
SK1
62
256
6
ByLayer
370
13
48
1
60
0
100
AcDbLine
10
-43.7
20
-2.691149
30
0
11
-43.7
21
-4.593627
31
0
39
0
210
0
220
0
230
1
0
LINE
5
8C
100
AcDbEntity
8
SK1
62
256
6
ByLayer
370
18
48
1
60
0
100
AcDbLine
10
-43.556624
20
6
30
0
11
-43.556624
21
-6
31
0
39
0
210
0
220
0
230
1
0
LINE
5
8D
100
AcDbEntity
8
SK1
62
256
6
ByLayer
370
18
48
1
60
0
100
AcDbLine
10
-45
20
-3.5
30
0
11
-45
21
-3.07221
31
0
39
0
210
0
220
0
230
1
0
LINE
5
8E
100
AcDbEntity
8
SK1
62
256
6
ByLayer
370
18
48
1
60
0
100
AcDbLine
10
-43.6
20
-4.645991
30
0
11
-43.6
21
-2.89576
31
0
39
0
210
0
220
0
230
1
0
LINE
5
8F
100
AcDbEntity
8
1
62
256
6
ByLayer
370
13
48
1
60
0
100
AcDbLine
10
55.174953
20
1.254904
30
0
11
56.994908
21
0.102829
31
0
39
0
210
0
220
0
230
1
0
LINE
5
90
100
AcDbEntity
8
1
62
256
6
ByLayer
370
13
48
1
60
0
100
AcDbLine
10
0.350219
20
5.215571
30
0
11
0.350219
21
-5.215571
31
0
39
0
210
0
220
0
230
1
0
LINE
5
91
100
AcDbEntity
8
1
62
256
6
ByLayer
370
13
48
1
60
0
100
AcDbLine
10
55.039539
20
1.158812
30
0
11
56.9636
21
-0.059165
31
0
39
0
210
0
220
0
230
1
0
LINE
5
92
100
AcDbEntity
8
1
62
256
6
ByLayer
370
18
48
1
60
0
100
AcDbLine
10
2.436348
20
1.733484
30
0
11
2.436348
21
5.216875
31
0
39
0
210
0
220
0
230
1
0
MTEXT
5
DB
100
AcDbEntity
8
SK6
62
256
6
ByLayer
370
13
48
1
60
0
100
AcDbMText
10
8.129169
20
37.632694
30
0
210
0
220
0
230
1
1
\W0.7431;460.1-1050-032A1-XM GC34
40
3.5
41
0
44
1.084337
50
0
71
8
72
5
7
iso_b_vert
0
DIMENSION
5
E8
100
AcDbEntity
8
SK2
62
256
6
ByLayer
370
13
48
1
60
0
100
AcDbDimension
2
DimnDraft3D1
10
55.4406
20
-15.463398
30
0
11
26.190659
21
-15.463398
31
0
70
32
71
5
72
1
41
1
210
0
220
0
230
1
3
Standard
100
AcDbAlignedDimension
13
0
23
-1.5875
33
0
14
55.4406
24
-6.8375
34
0
50
0
100
AcDbRotatedDimension
1001
ACAD
1000
DSTYLE
1002
{
1070
   279
1070
     0
1070
   172
1070
     1
1070
   173
1070
     1
1070
   340
1005
DC
1070
   271
1070
     2
1070
   272
1070
     2
1070
    77
1070
     1
1070
    73
1070
     0
1070
   171
1070
     3
1070
   274
1070
     4
1070
   177
1070
    35
1070
   176
1070
    35
1070
   178
1070
    35
1070
    48
1040
-0.005
1070
    41
1041
3.5
1070
   147
1041
1.75
1070
    42
1041
1.5875
1070
    44
1041
2.0
1070
   140
1041
3.5
1070
   343
1005
0
1070
   344
1005
0
1002
}
0
DIMENSION
5
F2
100
AcDbEntity
8
SK2
62
256
6
ByLayer
370
13
48
1
60
0
100
AcDbDimension
2
DimnDraft3D2
10
57
20
-34.692985
30
0
11
5.7819
21
-34.692985
31
0
70
32
71
5
72
1
41
1
210
0
220
0
230
1
3
Standard
100
AcDbAlignedDimension
13
-45
23
-7.5875
33
0
14
57
24
-1.5875
34
0
50
0
100
AcDbRotatedDimension
1001
ACAD
1000
DSTYLE
1002
{
1070
   279
1070
     0
1070
   172
1070
     1
1070
   173
1070
     1
1070
   340
1005
DC
1070
   271
1070
     2
1070
   272
1070
     2
1070
    77
1070
     1
1070
    73
1070
     0
1070
   171
1070
     3
1070
   274
1070
     4
1070
   177
1070
    35
1070
   176
1070
    35
1070
   178
1070
    35
1070
    48
1040
-0.005
1070
    41
1041
3.5
1070
   147
1041
1.75
1070
    42
1041
1.5875
1070
    44
1041
2.0
1070
   140
1041
3.5
1070
   343
1005
0
1070
   344
1005
0
1002
}
0
DIMENSION
5
FC
100
AcDbEntity
8
SK2
62
256
6
ByLayer
370
13
48
1
60
0
100
AcDbDimension
2
DimnDraft3D3
10
57
20
16.859119
30
0
11
40.475
21
16.859119
31
0
70
32
71
5
72
1
41
1
210
0
220
0
230
1
3
Standard
100
AcDbAlignedDimension
13
23.95
23
6.8375
33
0
14
57
24
1.5875
34
0
50
0
100
AcDbRotatedDimension
1001
ACAD
1000
DSTYLE
1002
{
1070
   279
1070
     0
1070
   172
1070
     1
1070
   173
1070
     1
1070
   340
1005
DC
1070
   271
1070
     2
1070
   272
1070
     2
1070
    77
1070
     1
1070
    73
1070
     0
1070
   171
1070
     3
1070
   274
1070
     4
1070
   177
1070
    35
1070
   176
1070
    35
1070
   178
1070
    35
1070
    48
1040
-0.005
1070
    41
1041
3.5
1070
   147
1041
1.75
1070
    42
1041
1.5875
1070
    44
1041
2.0
1070
   140
1041
3.5
1070
   343
1005
0
1070
   344
1005
0
1002
}
0
DIMENSION
5
106
100
AcDbEntity
8
SK2
62
256
6
ByLayer
370
13
48
1
60
0
100
AcDbDimension
2
DimnDraft3D4
10
55.4406
20
-18.052503
30
0
11
66.981425
21
-18.052503
31
0
70
32
71
5
72
1
41
1
210
0
220
0
230
1
3
Standard
100
AcDbAlignedDimension
13
57
23
-1.5875
33
0
14
55.4406
24
-6.8375
34
0
50
0
100
AcDbRotatedDimension
1001
ACAD
1000
DSTYLE
1002
{
1070
   279
1070
     0
1070
   172
1070
     1
1070
   173
1070
     1
1070
   340
1005
DC
1070
   271
1070
     2
1070
   272
1070
     2
1070
    77
1070
     1
1070
    73
1070
     0
1070
   171
1070
     3
1070
   274
1070
     4
1070
   177
1070
    35
1070
   176
1070
    35
1070
   178
1070
    35
1070
    48
1040
-0.005
1070
    41
1041
3.5
1070
   147
1041
1.75
1070
    42
1041
1.5875
1070
    44
1041
2.0
1070
   140
1041
3.5
1070
   343
1005
0
1070
   344
1005
0
1002
}
0
DIMENSION
5
110
100
AcDbEntity
8
SK2
62
256
6
ByLayer
370
13
48
1
60
0
100
AcDbDimension
2
DimnDraft3D5
10
55.4406
20
-24.343428
30
0
11
2.701276
21
-24.343428
31
0
70
32
71
5
72
1
41
1
210
0
220
0
230
1
3
Standard
100
AcDbAlignedDimension
13
-45
23
-7.5875
33
0
14
55.4406
24
-6.8375
34
0
50
0
100
AcDbRotatedDimension
1001
ACAD
1000
DSTYLE
1002
{
1070
   279
1070
     0
1070
   172
1070
     1
1070
   173
1070
     1
1070
   340
1005
DC
1070
   271
1070
     2
1070
   272
1070
     2
1070
    77
1070
     1
1070
    73
1070
     0
1070
   171
1070
     3
1070
   274
1070
     4
1070
   177
1070
    35
1070
   176
1070
    35
1070
   178
1070
    35
1070
    48
1040
-0.005
1070
    41
1041
3.5
1070
   147
1041
1.75
1070
    42
1041
1.5875
1070
    44
1041
2.0
1070
   140
1041
3.5
1070
   343
1005
0
1070
   344
1005
0
1002
}
0
DIMENSION
5
11B
100
AcDbEntity
8
SK2
62
256
6
ByLayer
370
13
48
1
60
0
100
AcDbDimension
2
DimnDraft3D6
10
-55.625163
20
6
30
0
11
-56.250163
21
24.47418
31
0
70
33
71
5
72
1
41
1
210
0
220
0
230
1
3
Standard
100
AcDbAlignedDimension
13
-46.5875
23
-6
33
0
14
-46.5875
24
6
34
0
1001
ACAD
1000
DSTYLE
1002
{
1070
   279
1070
     0
1070
    74
1070
     0
1070
   173
1070
     1
1070
   340
1005
DC
1070
   271
1070
     3
1070
   272
1070
     2
1070
    77
1070
     1
1070
    73
1070
     0
1070
   171
1070
     3
1070
   274
1070
     4
1070
   177
1070
    35
1070
   176
1070
    35
1070
   178
1070
    35
1070
    48
1040
-0.005
1070
    41
1041
3.5
1070
   147
1041
1.75
1070
    42
1041
1.5875
1070
    44
1041
2.0
1070
   140
1041
3.5
1070
   343
1005
0
1070
   344
1005
0
1002
}
0
DIMENSION
5
126
100
AcDbEntity
8
2
62
256
6
ByLayer
370
13
48
1
60
0
100
AcDbDimension
2
DimnDraft3D7
10
71.083343
20
5.25
30
0
11
66.458343
21
22.317266
31
0
70
33
71
5
72
1
41
1
210
0
220
0
230
1
3
Standard
100
AcDbAlignedDimension
13
57.0281
23
-5.25
33
0
14
57.0281
24
5.25
34
0
1001
ACAD
1000
DSTYLE
1002
{
1070
   279
1070
     0
1070
    74
1070
     0
1070
   173
1070
     1
1070
   340
1005
DC
1070
   271
1070
     3
1070
   272
1070
     2
1070
    77
1070
     1
1070
    73
1070
     0
1070
   171
1070
     3
1070
   274
1070
     4
1070
   177
1070
    35
1070
   176
1070
    35
1070
   178
1070
    35
1070
    48
1040
-0.005
1070
    41
1041
3.5
1070
   147
1041
1.75
1070
    42
1041
1.5875
1070
    44
1041
2.0
1070
   140
1041
3.5
1070
   343
1005
0
1070
   344
1005
0
1002
}
0
ENDSEC
0
SECTION
2
OBJECTS
0
DICTIONARY
5
191
330
0
100
AcDbDictionary
280
0
281
1
3
ACAD_GROUP
350
192
3
ACAD_MLINESTYLE
350
193
0
DICTIONARY
5
192
330
0
100
AcDbDictionary
280
0
281
1
0
DICTIONARY
5
193
330
0
100
AcDbDictionary
280
0
281
1
3
Standard
350
18
0
MLINESTYLE
5
18
330
193
100
AcDbMlineStyle
2
Standard
70
0
3

62
256
51
90
52
90
71
2
49
-0.5
62
256
6
ByLayer
49
0.5
62
256
6
ByLayer
0
RASTERVARIABLES
5
17f
330

100
AcDbRasterVariables
90
0
70
1
71
1
72
1
0
ENDSEC
0
EOF
