0
SECTION
2
HEADER
9
$ACADVER
1
AC1015
9
$DWGCODEPAGE
3
ANSI_1252
9
$HANDSEED
5
1ac
9
$ANGBASE
50
0
9
$ANGDIR
70
0
9
$ATTMODE
70
1
9
$AUNITS
70
0
9
$AUPREC
70
0
9
$CECOLOR
62
256
9
$CELTSCALE
40
1
9
$CELTYPE
6
ByLayer
9
$CELWEIGHT
370
18
9
$CLAYER
8
0
9
$CMLJUST
70
0
9
$CMLSCALE
40
1
9
$CMLSTYLE
2
Standard
9
$DIMSTYLE
2
Standard
9
$TEXTSIZE
40
0.2
9
$TEXTSTYLE
7
Standard
9
$LUNITS
70
2
9
$LUPREC
70
4
9
$EXTNAMES
290
1
9
$INSUNITS
70
4
9
$LTSCALE
40
1
9
$LWDISPLAY
290
1
9
$PDMODE
70
0
9
$PDSIZE
40
0
9
$PLINEGEN
70
0
0
ENDSEC
0
SECTION
2
CLASSES
0
CLASS
1
RASTERVARIABLES
2
AcDbRasterVariables
3
ISM
90
0
280
0
281
0
0
ENDSEC
0
SECTION
2
TABLES
0
TABLE
2
VPORT
5
1a2
100
AcDbSymbolTable
0
VPORT
5
1
100
AcDbSymbolTableRecord
100
AcDbViewportTableRecord
2
*Active
70
0
10
0
20
0
11
1
21
1
12
-1
22
1
13
0
23
0
14
0.5
24
0.5
15
10
25
10
16
0
26
0
36
1
17
0
27
0
37
0
0
ENDTAB
0
TABLE
2
LTYPE
5
1a3
100
AcDbSymbolTable
0
LTYPE
5
14
100
AcDbSymbolTableRecord
100
AcDbLinetypeTableRecord
70
0
2
ByBlock
3

72
65
73
0
40
0
0
LTYPE
5
15
100
AcDbSymbolTableRecord
100
AcDbLinetypeTableRecord
70
0
2
ByLayer
3

72
65
73
0
40
0
0
LTYPE
5
16
100
AcDbSymbolTableRecord
100
AcDbLinetypeTableRecord
70
0
2
CONTINUOUS
3
Solid line
72
65
73
0
40
0
0
LTYPE
5
6A
100
AcDbSymbolTableRecord
100
AcDbLinetypeTableRecord
70
0
2
CENTER
3
____ _ ____ _ ____ _ ____
72
65
73
4
40
47.5
49
22
74
0
49
-8.5
74
0
49
8.5
74
0
49
-8.5
74
0
0
LTYPE
5
6B
100
AcDbSymbolTableRecord
100
AcDbLinetypeTableRecord
70
0
2
DASHED
3
__ __ __ __ __ __ __ __ __
72
65
73
2
40
25.72
49
12.86
74
0
49
-12.86
74
0
0
ENDTAB
0
TABLE
2
LAYER
5
1a4
100
AcDbSymbolTable
0
LAYER
5
10
100
AcDbSymbolTableRecord
100
AcDbLayerTableRecord
2
0
70
0
62
7
6
CONTINUOUS
290
1
370
-3
390
0
0
LAYER
5
6D
100
AcDbSymbolTableRecord
100
AcDbLayerTableRecord
2
81
70
0
62
-3
6
CONTINUOUS
290
1
370
-3
390
0
0
LAYER
5
6F
100
AcDbSymbolTableRecord
100
AcDbLayerTableRecord
2
80
70
0
62
-6
6
CONTINUOUS
290
1
370
-3
390
0
0
LAYER
5
74
100
AcDbSymbolTableRecord
100
AcDbLayerTableRecord
2
2
70
0
62
7
6
CONTINUOUS
290
1
370
-3
390
0
0
LAYER
5
78
100
AcDbSymbolTableRecord
100
AcDbLayerTableRecord
2
1
70
0
62
4
6
CONTINUOUS
290
1
370
-3
390
0
0
LAYER
5
8A
100
AcDbSymbolTableRecord
100
AcDbLayerTableRecord
2
4
70
0
62
-2
6
CENTER
290
1
370
-3
390
0
0
LAYER
5
18e
100
AcDbSymbolTableRecord
100
AcDbLayerTableRecord
2
SK2
70
0
62
7
6
CONTINUOUS
290
1
370
-3
390
0
0
LAYER
5
18f
100
AcDbSymbolTableRecord
100
AcDbLayerTableRecord
2
SK1
70
0
62
4
6
CONTINUOUS
290
1
370
-3
390
0
0
LAYER
5
190
100
AcDbSymbolTableRecord
100
AcDbLayerTableRecord
2
SK4
70
0
62
2
6
CENTER
290
1
370
-3
390
0
0
LAYER
5
191
100
AcDbSymbolTableRecord
100
AcDbLayerTableRecord
2
SK6
70
0
62
5
6
CONTINUOUS
290
1
370
-3
390
0
0
ENDTAB
0
TABLE
2
STYLE
5
1a5
100
AcDbSymbolTable
0
STYLE
5
11
100
AcDbSymbolTableRecord
100
AcDbTextStyleTableRecord
2
Standard
3
txt
70
0
71
0
40
0
41
1
42
0
50
0
0
STYLE
5
EA
100
AcDbSymbolTableRecord
100
AcDbTextStyleTableRecord
2
iso_b_vert
3
simplex.shx
70
0
71
0
40
0
41
1
42
0
50
0
0
STYLE
5
EB
100
AcDbSymbolTableRecord
100
AcDbTextStyleTableRecord
2
DWGDirectTextStyle
3
simplex
70
0
71
0
40
0
41
1
42
0
50
0
0
ENDTAB
0
TABLE
2
DIMSTYLE
5
1a6
100
AcDbSymbolTable
100
AcDbDimStyleTable
0
DIMSTYLE
105
27
100
AcDbSymbolTableRecord
100
AcDbDimStyleTableRecord
2
Standard
70
0
3
<>
41
0.18
42
0.0625
44
0.18
140
0.18
147
0.09
73
0
74
0
77
1
271
2
275
0
278
52
280
0
340
11
0
ENDTAB
0
TABLE
2
VIEW
5
1a7
100
AcDbSymbolTable
0
ENDTAB
0
TABLE
2
UCS
5
1a8
100
AcDbSymbolTable
0
ENDTAB
0
TABLE
2
APPID
5
1a9
100
AcDbSymbolTable
0
APPID
5
12
100
AcDbSymbolTableRecord
100
AcDbRegAppTableRecord
2
ACAD
70
0
0
ENDTAB
0
TABLE
2
BLOCK_RECORD
5
1aa
100
AcDbSymbolTable
0
BLOCK_RECORD
5
1F
100
AcDbSymbolTableRecord
100
AcDbBlockTableRecord
2
*Model_Space
340
0
70
0
0
BLOCK_RECORD
5
1B
100
AcDbSymbolTableRecord
100
AcDbBlockTableRecord
2
*Paper_Space
340
0
70
0
0
BLOCK_RECORD
5
23
100
AcDbSymbolTableRecord
100
AcDbBlockTableRecord
2
*Paper_Space0
340
0
70
0
0
BLOCK_RECORD
5
ED
100
AcDbSymbolTableRecord
100
AcDbBlockTableRecord
2
DimnDraft3D1
340
0
70
0
0
BLOCK_RECORD
5
F7
100
AcDbSymbolTableRecord
100
AcDbBlockTableRecord
2
DimnDraft3D2
340
0
70
0
0
BLOCK_RECORD
5
101
100
AcDbSymbolTableRecord
100
AcDbBlockTableRecord
2
DimnDraft3D3
340
0
70
0
0
BLOCK_RECORD
5
10B
100
AcDbSymbolTableRecord
100
AcDbBlockTableRecord
2
DimnDraft3D4
340
0
70
0
0
BLOCK_RECORD
5
115
100
AcDbSymbolTableRecord
100
AcDbBlockTableRecord
2
DimnDraft3D5
340
0
70
0
0
BLOCK_RECORD
5
11F
100
AcDbSymbolTableRecord
100
AcDbBlockTableRecord
2
DimnDraft3D6
340
0
70
0
0
BLOCK_RECORD
5
12A
100
AcDbSymbolTableRecord
100
AcDbBlockTableRecord
2
DimnDraft3D7
340
0
70
0
0
ENDTAB
0
ENDSEC
0
SECTION
2
BLOCKS
0
BLOCK
5
20
100
AcDbEntity
8
0
100
AcDbBlockBegin
2
*Model_Space
70
0
10
0
20
0
30
0
3
*Model_Space
0
ENDBLK
5
21
100
AcDbEntity
8
0
100
AcDbBlockEnd
0
BLOCK
5
1C
100
AcDbEntity
8
0
100
AcDbBlockBegin
2
*Paper_Space
70
0
10
0
20
0
30
0
3
*Paper_Space
0
ENDBLK
5
1D
100
AcDbEntity
8
0
100
AcDbBlockEnd
0
BLOCK
5
24
100
AcDbEntity
8
0
100
AcDbBlockBegin
2
*Paper_Space0
70
0
10
0
20
0
30
0
3
*Paper_Space0
0
ENDBLK
5
25
100
AcDbEntity
8
0
100
AcDbBlockEnd
0
BLOCK
5
F4
100
AcDbEntity
8
0
100
AcDbBlockBegin
2
DimnDraft3D1
70
0
10
0
20
0
30
0
3
DimnDraft3D1
0
MTEXT
5
EE
100
AcDbEntity
8
SK2
62
256
6
ByLayer
370
13
48
1
60
0
100
AcDbMText
10
49.09548
20
-13.638398
30
0
210
0
220
0
230
1
1
\W0.6440;110,73
40
3.5
41
0
44
1.084337
50
0
71
7
72
5
7
iso_b_vert
0
LINE
5
EF
100
AcDbEntity
8
SK2
62
256
6
ByLayer
370
13
48
1
60
0
100
AcDbLine
10
0
20
-1.5875
30
0
11
0
21
-16.513398
31
0
39
0
210
0
220
0
230
1
0
LINE
5
F0
100
AcDbEntity
8
SK2
62
256
6
ByLayer
370
13
48
1
60
0
100
AcDbLine
10
110.727
20
-5.8875
30
0
11
110.727
21
-16.513398
31
0
39
0
210
0
220
0
230
1
0
LINE
5
F1
100
AcDbEntity
8
SK2
62
256
6
ByLayer
370
13
48
1
60
0
100
AcDbLine
10
0
20
-14.513398
30
0
11
110.727
21
-14.513398
31
0
39
0
210
0
220
0
230
1
0
SOLID
5
F2
100
AcDbEntity
8
SK2
62
256
6
ByLayer
370
13
48
1
60
0
100
AcDbTrace
10
0
20
-14.513398
30
0
11
3.499998
21
-14.052615
31
0
12
3.500002
22
-14.974182
32
0
13
0
23
-14.513398
33
0
39
0
210
0
220
0
230
1
0
SOLID
5
F3
100
AcDbEntity
8
SK2
62
256
6
ByLayer
370
13
48
1
60
0
100
AcDbTrace
10
110.727
20
-14.513398
30
0
11
107.227002
21
-14.974182
31
0
12
107.226998
22
-14.052615
32
0
13
110.727
23
-14.513398
33
0
39
0
210
0
220
0
230
1
0
ENDBLK
5
F5
100
AcDbEntity
8
0
100
AcDbBlockEnd
0
BLOCK
5
FE
100
AcDbEntity
8
0
100
AcDbBlockBegin
2
DimnDraft3D2
70
0
10
0
20
0
30
0
3
DimnDraft3D2
0
MTEXT
5
F8
100
AcDbEntity
8
SK2
62
256
6
ByLayer
370
13
48
1
60
0
100
AcDbMText
10
30.749221
20
-32.817985
30
0
210
0
220
0
230
1
1
\W0.6930;152,00
40
3.5
41
0
44
1.084337
50
0
71
7
72
5
7
iso_b_vert
0
LINE
5
F9
100
AcDbEntity
8
SK2
62
256
6
ByLayer
370
13
48
1
60
0
100
AcDbLine
10
-40
20
-6.5875
30
0
11
-40
21
-35.692985
31
0
39
0
210
0
220
0
230
1
0
LINE
5
FA
100
AcDbEntity
8
SK2
62
256
6
ByLayer
370
13
48
1
60
0
100
AcDbLine
10
112
20
-1.5875
30
0
11
112
21
-35.692985
31
0
39
0
210
0
220
0
230
1
0
LINE
5
FB
100
AcDbEntity
8
SK2
62
256
6
ByLayer
370
13
48
1
60
0
100
AcDbLine
10
-40
20
-33.692985
30
0
11
112
21
-33.692985
31
0
39
0
210
0
220
0
230
1
0
SOLID
5
FC
100
AcDbEntity
8
SK2
62
256
6
ByLayer
370
13
48
1
60
0
100
AcDbTrace
10
-40
20
-33.692985
30
0
11
-36.500002
21
-33.232202
31
0
12
-36.499998
22
-34.153769
32
0
13
-40
23
-33.692985
33
0
39
0
210
0
220
0
230
1
0
SOLID
5
FD
100
AcDbEntity
8
SK2
62
256
6
ByLayer
370
13
48
1
60
0
100
AcDbTrace
10
112
20
-33.692985
30
0
11
108.500002
21
-34.153769
31
0
12
108.499998
22
-33.232202
32
0
13
112
23
-33.692985
33
0
39
0
210
0
220
0
230
1
0
ENDBLK
5
FF
100
AcDbEntity
8
0
100
AcDbBlockEnd
0
BLOCK
5
108
100
AcDbEntity
8
0
100
AcDbBlockBegin
2
DimnDraft3D3
70
0
10
0
20
0
30
0
3
DimnDraft3D3
0
MTEXT
5
102
100
AcDbEntity
8
SK2
62
256
6
ByLayer
370
13
48
1
60
0
100
AcDbMText
10
72.516316
20
16.784119
30
0
210
0
220
0
230
1
1
\W0.7317;70,07
40
3.5
41
0
44
1.084337
50
0
71
7
72
5
7
iso_b_vert
0
LINE
5
103
100
AcDbEntity
8
SK2
62
256
6
ByLayer
370
13
48
1
60
0
100
AcDbLine
10
41.93
20
5.8875
30
0
11
41.93
21
17.909119
31
0
39
0
210
0
220
0
230
1
0
LINE
5
104
100
AcDbEntity
8
SK2
62
256
6
ByLayer
370
13
48
1
60
0
100
AcDbLine
10
112
20
1.5875
30
0
11
112
21
17.909119
31
0
39
0
210
0
220
0
230
1
0
LINE
5
105
100
AcDbEntity
8
SK2
62
256
6
ByLayer
370
13
48
1
60
0
100
AcDbLine
10
41.93
20
15.909119
30
0
11
112
21
15.909119
31
0
39
0
210
0
220
0
230
1
0
SOLID
5
106
100
AcDbEntity
8
SK2
62
256
6
ByLayer
370
13
48
1
60
0
100
AcDbTrace
10
41.93
20
15.909119
30
0
11
45.429998
21
16.369903
31
0
12
45.430002
22
15.448335
32
0
13
41.93
23
15.909119
33
0
39
0
210
0
220
0
230
1
0
SOLID
5
107
100
AcDbEntity
8
SK2
62
256
6
ByLayer
370
13
48
1
60
0
100
AcDbTrace
10
112
20
15.909119
30
0
11
108.500002
21
15.448335
31
0
12
108.499998
22
16.369903
32
0
13
112
23
15.909119
33
0
39
0
210
0
220
0
230
1
0
ENDBLK
5
109
100
AcDbEntity
8
0
100
AcDbBlockEnd
0
BLOCK
5
112
100
AcDbEntity
8
0
100
AcDbBlockBegin
2
DimnDraft3D4
70
0
10
0
20
0
30
0
3
DimnDraft3D4
0
MTEXT
5
10C
100
AcDbEntity
8
SK2
62
256
6
ByLayer
370
13
48
1
60
0
100
AcDbMText
10
119.278136
20
-16.227503
30
0
210
0
220
0
230
1
1
\W0.6367;1,27
40
3.5
41
0
44
1.084337
50
0
71
7
72
5
7
iso_b_vert
0
LINE
5
10D
100
AcDbEntity
8
SK2
62
256
6
ByLayer
370
13
48
1
60
0
100
AcDbLine
10
112
20
-1.5875
30
0
11
112
21
-19.102503
31
0
39
0
210
0
220
0
230
1
0
LINE
5
10E
100
AcDbEntity
8
SK2
62
256
6
ByLayer
370
13
48
1
60
0
100
AcDbLine
10
110.727
20
-5.8875
30
0
11
110.727
21
-19.102503
31
0
39
0
210
0
220
0
230
1
0
LINE
5
10F
100
AcDbEntity
8
SK2
62
256
6
ByLayer
370
13
48
1
60
0
100
AcDbLine
10
101.977
20
-17.102503
30
0
11
125.559715
21
-17.102503
31
0
39
0
210
0
220
0
230
1
0
SOLID
5
110
100
AcDbEntity
8
SK2
62
256
6
ByLayer
370
13
48
1
60
0
100
AcDbTrace
10
112
20
-17.102503
30
0
11
115.499998
21
-16.641719
31
0
12
115.500002
22
-17.563287
32
0
13
112
23
-17.102503
33
0
39
0
210
0
220
0
230
1
0
SOLID
5
111
100
AcDbEntity
8
SK2
62
256
6
ByLayer
370
13
48
1
60
0
100
AcDbTrace
10
110.727
20
-17.102503
30
0
11
107.227002
21
-17.563287
31
0
12
107.226998
22
-16.641719
32
0
13
110.727
23
-17.102503
33
0
39
0
210
0
220
0
230
1
0
ENDBLK
5
113
100
AcDbEntity
8
0
100
AcDbBlockEnd
0
BLOCK
5
11C
100
AcDbEntity
8
0
100
AcDbBlockBegin
2
DimnDraft3D5
70
0
10
0
20
0
30
0
3
DimnDraft3D5
0
MTEXT
5
116
100
AcDbEntity
8
SK2
62
256
6
ByLayer
370
13
48
1
60
0
100
AcDbMText
10
27.668597
20
-22.468428
30
0
210
0
220
0
230
1
1
\W0.6930;150,73
40
3.5
41
0
44
1.084337
50
0
71
7
72
5
7
iso_b_vert
0
LINE
5
117
100
AcDbEntity
8
SK2
62
256
6
ByLayer
370
13
48
1
60
0
100
AcDbLine
10
-40
20
-6.5875
30
0
11
-40
21
-25.343428
31
0
39
0
210
0
220
0
230
1
0
LINE
5
118
100
AcDbEntity
8
SK2
62
256
6
ByLayer
370
13
48
1
60
0
100
AcDbLine
10
110.727
20
-5.8875
30
0
11
110.727
21
-25.343428
31
0
39
0
210
0
220
0
230
1
0
LINE
5
119
100
AcDbEntity
8
SK2
62
256
6
ByLayer
370
13
48
1
60
0
100
AcDbLine
10
-40
20
-23.343428
30
0
11
110.727
21
-23.343428
31
0
39
0
210
0
220
0
230
1
0
SOLID
5
11A
100
AcDbEntity
8
SK2
62
256
6
ByLayer
370
13
48
1
60
0
100
AcDbTrace
10
-40
20
-23.343428
30
0
11
-36.500002
21
-22.882645
31
0
12
-36.499998
22
-23.804212
32
0
13
-40
23
-23.343428
33
0
39
0
210
0
220
0
230
1
0
SOLID
5
11B
100
AcDbEntity
8
SK2
62
256
6
ByLayer
370
13
48
1
60
0
100
AcDbTrace
10
110.727
20
-23.343428
30
0
11
107.227002
21
-23.804212
31
0
12
107.226998
22
-22.882645
32
0
13
110.727
23
-23.343428
33
0
39
0
210
0
220
0
230
1
0
ENDBLK
5
11D
100
AcDbEntity
8
0
100
AcDbBlockEnd
0
BLOCK
5
127
100
AcDbEntity
8
0
100
AcDbBlockBegin
2
DimnDraft3D6
70
0
10
0
20
0
30
0
3
DimnDraft3D6
0
MTEXT
5
120
100
AcDbEntity
8
SK2
62
256
6
ByLayer
370
13
48
1
60
0
100
AcDbMText
10
-50.375163
20
24.34918
30
0
210
0
220
0
230
1
1
\W0.6930;10,000
40
3.5
41
0
44
1.084337
50
90
71
7
72
5
7
iso_b_vert
0
MTEXT
5
121
100
AcDbEntity
8
SK2
62
256
6
ByLayer
370
13
48
1
60
0
100
AcDbMText
10
-50.375163
20
19.126524
30
0
210
0
220
0
230
1
1
%%c
40
3.5
41
0
44
1.084337
50
90
71
7
72
5
7
iso_b_vert
0
LINE
5
122
100
AcDbEntity
8
SK2
62
256
6
ByLayer
370
13
48
1
60
0
100
AcDbLine
10
-41.5875
20
-5
30
0
11
-50.625163
21
-5
31
0
39
0
210
0
220
0
230
1
0
LINE
5
123
100
AcDbEntity
8
SK2
62
256
6
ByLayer
370
13
48
1
60
0
100
AcDbLine
10
-41.5875
20
5
30
0
11
-50.625163
21
5
31
0
39
0
210
0
220
0
230
1
0
LINE
5
124
100
AcDbEntity
8
SK2
62
256
6
ByLayer
370
13
48
1
60
0
100
AcDbLine
10
-48.625163
20
-5
30
0
11
-48.625163
21
35.862338
31
0
39
0
210
0
220
0
230
1
0
SOLID
5
125
100
AcDbEntity
8
SK2
62
256
6
ByLayer
370
13
48
1
60
0
100
AcDbTrace
10
-48.625163
20
-5
30
0
11
-49.085946
21
-1.500002
31
0
12
-48.164379
22
-1.499998
32
0
13
-48.625163
23
-5
33
0
39
0
210
0
220
0
230
1
0
SOLID
5
126
100
AcDbEntity
8
SK2
62
256
6
ByLayer
370
13
48
1
60
0
100
AcDbTrace
10
-48.625163
20
5
30
0
11
-48.164379
21
1.500002
31
0
12
-49.085946
22
1.499998
32
0
13
-48.625163
23
5
33
0
39
0
210
0
220
0
230
1
0
ENDBLK
5
128
100
AcDbEntity
8
0
100
AcDbBlockEnd
0
BLOCK
5
132
100
AcDbEntity
8
0
100
AcDbBlockBegin
2
DimnDraft3D7
70
0
10
0
20
0
30
0
3
DimnDraft3D7
0
MTEXT
5
12B
100
AcDbEntity
8
2
62
256
6
ByLayer
370
13
48
1
60
0
100
AcDbMText
10
122.333343
20
22.242266
30
0
210
0
220
0
230
1
1
\W0.7317;8,600
40
3.5
41
0
44
1.084337
50
90
71
7
72
5
7
iso_b_vert
0
MTEXT
5
12C
100
AcDbEntity
8
2
62
256
6
ByLayer
370
13
48
1
60
0
100
AcDbMText
10
122.333343
20
17.01961
30
0
210
0
220
0
230
1
1
%%c
40
3.5
41
0
44
1.084337
50
90
71
7
72
5
7
iso_b_vert
0
LINE
5
12D
100
AcDbEntity
8
2
62
256
6
ByLayer
370
13
48
1
60
0
100
AcDbLine
10
112.3145
20
-4.3
30
0
11
126.083343
21
-4.3
31
0
39
0
210
0
220
0
230
1
0
LINE
5
12E
100
AcDbEntity
8
2
62
256
6
ByLayer
370
13
48
1
60
0
100
AcDbLine
10
112.3145
20
4.3
30
0
11
126.083343
21
4.3
31
0
39
0
210
0
220
0
230
1
0
LINE
5
12F
100
AcDbEntity
8
2
62
256
6
ByLayer
370
13
48
1
60
0
100
AcDbLine
10
124.083343
20
-4.3
30
0
11
124.083343
21
32.014635
31
0
39
0
210
0
220
0
230
1
0
SOLID
5
130
100
AcDbEntity
8
2
62
256
6
ByLayer
370
13
48
1
60
0
100
AcDbTrace
10
124.083343
20
-4.3
30
0
11
123.622559
21
-0.800002
31
0
12
124.544126
22
-0.799998
32
0
13
124.083343
23
-4.3
33
0
39
0
210
0
220
0
230
1
0
SOLID
5
131
100
AcDbEntity
8
2
62
256
6
ByLayer
370
13
48
1
60
0
100
AcDbTrace
10
124.083343
20
4.3
30
0
11
124.544126
21
0.800002
31
0
12
123.622559
22
0.799998
32
0
13
124.083343
23
4.3
33
0
39
0
210
0
220
0
230
1
0
ENDBLK
5
133
100
AcDbEntity
8
0
100
AcDbBlockEnd
0
ENDSEC
0
SECTION
2
ENTITIES
0
ARC
5
98
100
AcDbEntity
8
1
62
256
6
ByLayer
370
18
48
1
60
0
100
AcDbCircle
39
0
10
-0.35
20
4.581089
30
0
40
0.350000000000001
210
0
220
0
230
-1
100
AcDbArc
50
269.96419
51
0
0
ARC
5
99
100
AcDbEntity
8
1
62
256
6
ByLayer
370
18
48
1
60
0
100
AcDbCircle
39
0
10
-0.35
20
-4.581089
30
0
40
0.350000000000001
210
0
220
0
230
-1
100
AcDbArc
50
0
51
90.03581
0
ELLIPSE
5
9A
100
AcDbEntity
8
1
62
256
6
ByLayer
370
18
48
1
60
0
100
AcDbEllipse
10
6.857944
20
-4.270271
30
0
11
0.25
21
0
31
0
210
0
220
0
230
1
40
1
41
1.57874249477607
42
2.97313873244745
0
ELLIPSE
5
9B
100
AcDbEntity
8
1
62
256
6
ByLayer
370
18
48
1
60
0
100
AcDbEllipse
10
6.857944
20
4.270271
30
0
11
0.25
21
0
31
0
210
0
220
0
230
1
40
1
41
-2.97349578868669
42
-1.56070055212795
0
POINT
5
6C
100
AcDbEntity
8
81
62
256
6
ByLayer
370
18
48
1
60
0
100
AcDbPoint
10
112
20
0
30
0
39
0
210
0
220
0
230
1
50
360
0
POINT
5
6E
100
AcDbEntity
8
80
62
256
6
ByLayer
370
18
48
1
60
0
100
AcDbPoint
10
0
20
0
30
0
39
0
210
0
220
0
230
1
50
360
0
POINT
5
70
100
AcDbEntity
8
SK2
62
256
6
ByLayer
370
18
48
1
60
1
100
AcDbPoint
10
-40
20
-5
30
0
39
0
210
0
220
0
230
1
50
360
0
POINT
5
72
100
AcDbEntity
8
SK2
62
256
6
ByLayer
370
18
48
1
60
1
100
AcDbPoint
10
-40
20
5
30
0
39
0
210
0
220
0
230
1
50
360
0
POINT
5
73
100
AcDbEntity
8
2
62
256
6
ByLayer
370
18
48
1
60
1
100
AcDbPoint
10
110.727
20
-4.3
30
0
39
0
210
0
220
0
230
1
50
360
0
POINT
5
75
100
AcDbEntity
8
2
62
256
6
ByLayer
370
18
48
1
60
1
100
AcDbPoint
10
110.727
20
4.3
30
0
39
0
210
0
220
0
230
1
50
360
0
SPLINE
5
9C
100
AcDbEntity
8
1
62
256
6
ByLayer
370
18
48
1
60
0
100
AcDbSpline
70
4
71
3
72
22
73
18
40
0
40
0
40
0
40
0
40
0.106935060104389
40
0.190296023388972
40
0.245694527924645
40
0.286440339805802
40
0.332161038295469
40
0.382605483444689
40
0.434321892682568
40
0.486252480502655
40
0.53833797444743
40
0.61934263357653
40
0.67977588542415
40
0.744699257848116
40
0.816574841388313
40
0.906605125767952
40
1
40
1
40
1
40
1
41
1
10
28.5902237777055
20
-4.03364098666762
30
0
41
1
10
28.8712239150261
20
-4.03381469109297
30
0
41
1
10
29.3713174306151
20
-4.03416228518645
30
0
41
1
10
30.0174035127472
20
-4.03443804081363
30
0
41
1
10
30.4891041782631
20
-4.035004551996
30
0
41
1
10
30.861827865178
20
-4.03523935271625
30
0
41
1
10
31.2218286907349
20
-4.03537202646643
30
0
41
1
10
31.6105726209894
20
-4.03545531309501
30
0
41
1
10
32.0156077324969
20
-4.03606462169111
30
0
41
1
10
32.4249410554035
20
-4.03630370785041
30
0
41
1
10
32.9110141478128
20
-4.03612849524535
30
0
41
1
10
33.4200925505396
20
-4.03648927049255
30
0
41
1
10
33.9619127166202
20
-4.03726593433518
30
0
41
1
10
34.4804098589244
20
-4.03695732762208
30
0
41
1
10
35.0767551219386
20
-4.03780614772035
30
0
41
1
10
35.7479441626251
20
-4.03769228308019
30
0
41
1
10
36.2301721183333
20
-4.03814935492403
30
0
41
1
10
36.4757083748556
20
-4.03840150885935
30
0
0
SPLINE
5
9D
100
AcDbEntity
8
1
62
256
6
ByLayer
370
18
48
1
60
0
100
AcDbSpline
70
4
71
3
72
23
73
19
40
0
40
0
40
0
40
0
40
0.0822132903091859
40
0.151698403197512
40
0.200752385662359
40
0.246466321399867
40
0.302171221178326
40
0.367759540113171
40
0.431337397838411
40
0.484877267102904
40
0.553560612380125
40
0.616855119615007
40
0.694568778016679
40
0.789606801869112
40
0.87355869273071
40
0.936358160775035
40
0.998612789971942
40
1
40
1
40
1
40
1
41
1
10
55.7849221757152
20
-4.05039750251839
30
0
41
1
10
56.0009267173082
20
-4.05051375171376
30
0
41
1
10
56.3995054234595
20
-4.05076007051005
30
0
41
1
10
56.9269632639817
20
-4.05101811285525
30
0
41
1
10
57.3585885464525
20
-4.05148217225943
30
0
41
1
10
57.7536532552595
20
-4.05161993991373
30
0
41
1
10
58.1924708530465
20
-4.05173996889255
30
0
41
1
10
58.6782495489096
20
-4.05212074101647
30
0
41
1
10
59.158340088787
20
-4.05250879498047
30
0
41
1
10
59.6465422510083
20
-4.05243078811188
30
0
41
1
10
60.1340054608052
20
-4.05285928979254
30
0
41
1
10
60.6850104617344
20
-4.05355076068983
30
0
41
1
10
61.3052440381791
20
-4.05307782268375
30
0
41
1
10
61.9797746387785
20
-4.05429927114454
30
0
41
1
10
62.615125663767
20
-4.05422727527531
30
0
41
1
10
63.1642887527631
20
-4.0539645145164
30
0
41
1
10
63.4965344746839
20
-4.05506977228404
30
0
41
1
10
63.6637625940537
20
-4.0550669512983
30
0
41
1
10
63.6674076895741
20
-4.05506683160064
30
0
0
SPLINE
5
9E
100
AcDbEntity
8
1
62
256
6
ByLayer
370
18
48
1
60
0
100
AcDbSpline
70
4
71
1
72
4
73
2
40
0
40
0
40
1
40
1
41
1
10
110.198524088252
20
-4.08483844641026
30
0
41
1
10
110.495583257579
20
-4.08501589647815
30
0
0
SPLINE
5
9F
100
AcDbEntity
8
1
62
256
6
ByLayer
370
18
48
1
60
0
100
AcDbSpline
70
4
71
3
72
16
73
12
40
0
40
0
40
0
40
0
40
0.157551059890379
40
0.322965344497399
40
0.437243491068527
40
0.533544359637378
40
0.647045349637227
40
0.775395321510431
40
0.900076631280249
40
0.975345619564973
40
1
40
1
40
1
40
1
41
1
10
90.8618412293242
20
4.07146562340785
30
0
41
1
10
90.574957102036
20
4.07127457463983
30
0
41
1
10
89.9868700991597
20
4.07089542276617
30
0
41
1
10
89.1906893390458
20
4.07084891198622
30
0
41
1
10
88.5060428769326
20
4.07020634551762
30
0
41
1
10
87.9159211324881
20
4.06975689071049
30
0
41
1
10
87.3001886426028
20
4.06996349871812
30
0
41
1
10
86.6327726757207
20
4.06881341884332
30
0
41
1
10
86.034964947641
20
4.06913602976235
30
0
41
1
10
85.6259874438998
20
4.06882628627994
30
0
41
1
10
85.4440297525958
20
4.06866588375442
30
0
41
1
10
85.3991372367246
20
4.06862666206888
30
0
0
SPLINE
5
A0
100
AcDbEntity
8
1
62
256
6
ByLayer
370
18
48
1
60
0
100
AcDbSpline
70
4
71
3
72
17
73
13
40
0
40
0
40
0
40
0
40
0.147911088304392
40
0.274820467612158
40
0.395022371671577
40
0.495659817576331
40
0.612799862567132
40
0.743326040313233
40
0.816457320370559
40
0.876428979254071
40
0.943486309323321
40
1
40
1
40
1
40
1
41
1
10
82.9259513121633
20
-4.06740482517787
30
0
41
1
10
83.3171486347626
20
-4.06729678287545
30
0
41
1
10
84.0440354612188
20
-4.06732264314661
30
0
41
1
10
85.0872233322751
20
-4.06846785941772
30
0
41
1
10
86.0086115384153
20
-4.06909310425519
30
0
41
1
10
86.9033756881178
20
-4.06918457738527
30
0
41
1
10
87.8256546561952
20
-4.06987191388112
30
0
41
1
10
88.6750559795427
20
-4.07063433901834
30
0
41
1
10
89.373089041049
20
-4.07062815772741
30
0
41
1
10
89.9030764312045
20
-4.07069578753627
30
0
41
1
10
90.3890616728378
20
-4.07166786559202
30
0
41
1
10
90.7162543097253
20
-4.07153847329226
30
0
41
1
10
90.865891849522
20
-4.07141687408233
30
0
0
SPLINE
5
A1
100
AcDbEntity
8
1
62
256
6
ByLayer
370
18
48
1
60
0
100
AcDbSpline
70
4
71
3
72
13
73
9
40
0
40
0
40
0
40
0
40
0.205480271493926
40
0.420147915501724
40
0.549871932396793
40
0.652837690184507
40
0.780222115917214
40
1
40
1
40
1
40
1
41
1
10
6.85819994202521
20
-4.02025989555091
30
0
41
1
10
7.03643193393373
20
-4.02046158395754
30
0
41
1
10
7.40086406638579
20
-4.02083860085997
30
0
41
1
10
7.87781698805887
20
-4.02126568899428
30
0
41
1
10
8.26584585066681
20
-4.02151303471021
30
0
41
1
10
8.57817507782872
20
-4.0216348375362
30
0
41
1
10
8.96861499335174
20
-4.0217019455379
30
0
41
1
10
9.26974291346576
20
-4.02182335115683
30
0
41
1
10
9.46037761487233
20
-4.02190998104922
30
0
0
SPLINE
5
A2
100
AcDbEntity
8
1
62
256
6
ByLayer
370
18
48
1
60
0
100
AcDbSpline
70
4
71
3
72
14
73
10
40
0
40
0
40
0
40
0
40
0.132937325645382
40
0.355654304699213
40
0.437207707137948
40
0.524096302332209
40
0.661521792298309
40
0.851824406797331
40
1
40
1
40
1
40
1
41
1
10
9.46168508455148
20
4.02190827589425
30
0
41
1
10
9.3463177698228
20
4.02184639333987
30
0
41
1
10
9.03766931566958
20
4.021694248323
30
0
41
1
10
8.65824557998297
20
4.02166452015177
30
0
41
1
10
8.31878431170861
20
4.02153333370288
30
0
41
1
10
8.05334320301148
20
4.02138326249218
30
0
41
1
10
7.69353734570973
20
4.02110822254201
30
0
41
1
10
7.28052864263032
20
4.02071519742694
30
0
41
1
10
6.98679113148518
20
4.02040605519062
30
0
41
1
10
6.85820171924945
20
4.02026317192642
30
0
0
SPLINE
5
A3
100
AcDbEntity
8
1
62
256
6
ByLayer
370
18
48
1
60
0
100
AcDbSpline
70
4
71
3
72
16
73
12
40
0
40
0
40
0
40
0
40
0.0949509480489137
40
0.250227589029799
40
0.441287642865042
40
0.616996570701821
40
0.769100216623077
40
0.836348162199784
40
0.906503467092175
40
0.981779607739565
40
1
40
1
40
1
40
1
41
1
10
36.4674381267942
20
4.03837243978057
30
0
41
1
10
36.2975569254291
20
4.0381486272085
30
0
41
1
10
35.8498612581612
20
4.037655320878
30
0
41
1
10
35.0603182518428
20
4.03779707241875
30
0
41
1
10
34.1262805749065
20
4.03721324035118
30
0
41
1
10
33.1979190841618
20
4.03622914946737
30
0
41
1
10
32.4910877542366
20
4.03640482063744
30
0
41
1
10
31.9731031971053
20
4.03600785441225
30
0
41
1
10
31.5925851590836
20
4.03544002453725
30
0
41
1
10
31.299780367737
20
4.03538477045481
30
0
41
1
10
31.1325077428162
20
4.03533119383994
30
0
41
1
10
31.0999103256925
20
4.03531965818274
30
0
0
SPLINE
5
A4
100
AcDbEntity
8
1
62
256
6
ByLayer
370
18
48
1
60
0
100
AcDbSpline
70
4
71
3
72
19
73
15
40
0
40
0
40
0
40
0
40
0.0303521562806222
40
0.174989265248895
40
0.275696163852611
40
0.336882382894037
40
0.399849442990063
40
0.46842404429385
40
0.56518827247203
40
0.690519862310926
40
0.799849420830876
40
0.879496772379878
40
0.944983463075474
40
1
40
1
40
1
40
1
41
1
10
63.6769283046146
20
4.05492856029875
30
0
41
1
10
63.6215118415602
20
4.05492404802663
30
0
41
1
10
63.3020195040812
20
4.05489190906516
30
0
41
1
10
62.7986593114759
20
4.0538674262144
30
0
41
1
10
62.2390059291856
20
4.05437339356112
30
0
41
1
10
61.8284592237768
20
4.0539387417241
30
0
41
1
10
61.4765812073386
20
4.05325903673869
30
0
41
1
10
61.0597482962251
20
4.05344010180667
30
0
41
1
10
60.529062102643
20
4.05340258128129
30
0
41
1
10
59.9239529952561
20
4.05255694963589
30
0
41
1
10
59.3500804258802
20
4.05247318300627
30
0
41
1
10
58.8855406500799
20
4.05236243405676
30
0
41
1
10
58.5199971113728
20
4.05199396730458
30
0
41
1
10
58.300333339509
20
4.05180942140578
30
0
41
1
10
58.2000198729827
20
4.05172667726217
30
0
0
SPLINE
5
A5
100
AcDbEntity
8
1
62
256
6
ByLayer
370
18
48
1
60
0
100
AcDbSpline
70
4
71
3
72
14
73
10
40
0
40
0
40
0
40
0
40
0.25
40
0.25
40
0.5
40
0.5
40
0.75
40
0.75
40
1
40
1
40
1
40
1
41
1
10
110.520353091965
20
-4.08191444256849
30
0
41
1
10
110.522649114628
20
-4.08138710469848
30
0
41
1
10
110.524242836792
20
-4.08271413554496
30
0
41
1
10
110.525564764312
20
-4.09019212960462
30
0
41
1
10
110.525216482376
20
-4.09636383064554
30
0
41
1
10
110.522039973367
20
-4.11357225664841
30
0
41
1
10
110.519145099612
20
-4.12477656568251
30
0
41
1
10
110.511424929153
20
-4.14942830582831
30
0
41
1
10
110.506639586501
20
-4.16280395397303
30
0
41
1
10
110.501578918161
20
-4.1756992542426
30
0
0
SPLINE
5
A6
100
AcDbEntity
8
1
62
256
6
ByLayer
370
18
48
1
60
0
100
AcDbSpline
70
4
71
3
72
8
73
4
40
0
40
0
40
0
40
0
40
1
40
1
40
1
40
1
41
1
10
6.61456935711465
20
3.47988558127446
30
0
41
1
10
6.61183939248585
20
3.48651251861557
30
0
41
1
10
6.6104453456764
20
3.49318947209173
30
0
41
1
10
6.61044543669737
20
3.49991703134651
30
0
0
SPLINE
5
A7
100
AcDbEntity
8
1
62
256
6
ByLayer
370
18
48
1
60
0
100
AcDbSpline
70
4
71
3
72
8
73
4
40
0
40
0
40
0
40
0
40
1
40
1
40
1
40
1
41
1
10
110.501578918161
20
-4.17569925424391
30
0
41
1
10
110.486255764423
20
-4.21474482199488
30
0
41
1
10
110.470922080042
20
-4.25375971601113
30
0
41
1
10
110.455580267631
20
-4.29274148421507
30
0
0
SPLINE
5
A8
100
AcDbEntity
8
1
62
256
6
ByLayer
370
18
48
1
60
0
100
AcDbSpline
70
4
71
3
72
22
73
18
40
0
40
0
40
0
40
0
40
0.0227079179989256
40
0.0227079179989256
40
0.128820003719985
40
0.128820003719985
40
0.234932089441045
40
0.234932089441045
40
0.447156260883162
40
0.447156260883162
40
0.659380432325279
40
0.659380432325279
40
0.871604603767397
40
0.871604603767397
40
0.977716689488455
40
0.977716689488455
40
1
40
1
40
1
40
1
41
1
10
14.7604453714673
20
-0.0024396677015091
30
0
41
1
10
14.8185879801702
20
-0.0301148584775888
30
0
41
1
10
14.8767675774866
20
-0.057801799971628
30
0
41
1
10
15.207039357977
20
-0.214903734115381
30
0
41
1
10
15.4803231209891
20
-0.344820127479494
30
0
41
1
10
16.0242562111148
20
-0.602164944269703
30
0
41
1
10
16.2953939159071
20
-0.729820327544218
30
0
41
1
10
17.1069809135761
20
-1.10839371816456
30
0
41
1
10
17.6456383746124
20
-1.35486146755611
30
0
41
1
10
18.7221419159527
20
-1.82804185108284
30
0
41
1
10
19.259692200105
20
-2.05527536349359
30
0
41
1
10
20.3367815575298
20
-2.48455169913919
30
0
41
1
10
20.876353357244
20
-2.68655405384689
30
0
41
1
10
21.6900449361915
20
-2.96546642596087
30
0
41
1
10
21.9620405601822
20
-3.05451260842469
30
0
41
1
10
22.292039140488
20
-3.15689493044062
30
0
41
1
10
22.3492714405404
20
-3.17444539736917
30
0
41
1
10
22.4064661212351
20
-3.19177562703746
30
0
0
SPLINE
5
A9
100
AcDbEntity
8
1
62
256
6
ByLayer
370
13
48
1
60
0
100
AcDbSpline
70
4
71
3
72
18
73
14
40
0
40
0
40
0
40
0
40
0.0835096930709273
40
0.0835096930709273
40
0.506342434582097
40
0.506342434582097
40
0.717758805337681
40
0.717758805337681
40
0.823466990715473
40
0.823466990715473
40
0.929175176093266
40
0.929175176093266
40
1
40
1
40
1
40
1
41
1
10
22.4064661212466
20
-3.19177562704098
30
0
41
1
10
22.6216298433768
20
-3.2569711430489
30
0
41
1
10
22.836261165326
20
-3.31904979677563
30
0
41
1
10
24.135073201533
20
-3.67589897810399
30
0
41
1
10
25.2085404854915
20
-3.89125362582047
30
0
41
1
10
26.8227943792576
20
-4.07475731922051
30
0
41
1
10
27.3615375625962
20
-4.11272521033996
30
0
41
1
10
28.173176156519
20
-4.13350197216707
30
0
41
1
10
28.4443251365406
20
-4.13438852935741
30
0
41
1
10
28.9882370684078
20
-4.12391279858761
30
0
41
1
10
29.2613576459974
20
-4.11250461345145
30
0
41
1
10
29.715263688828
20
-4.08341081443442
30
0
41
1
10
29.8970146631325
20
-4.06903602819355
30
0
41
1
10
30.0784741735439
20
-4.05201604158304
30
0
0
SPLINE
5
AA
100
AcDbEntity
8
1
62
256
6
ByLayer
370
18
48
1
60
0
100
AcDbSpline
70
4
71
3
72
20
73
16
40
0
40
0
40
0
40
0
40
0.0087636282774541
40
0.0087636282774541
40
0.110679980773775
40
0.110679980773775
40
0.314512685766416
40
0.314512685766416
40
0.722178095751696
40
0.722178095751696
40
0.824094448248017
40
0.824094448248017
40
0.926010800744338
40
0.926010800744338
40
1
40
1
40
1
40
1
41
1
10
69.2008243643924
20
-0.0216766308879244
30
0
41
1
10
69.2241495546458
20
-0.0328767254701745
30
0
41
1
10
69.247466883446
20
-0.0440726074217537
30
0
41
1
10
69.5418430112555
20
-0.185407261926372
30
0
41
1
10
69.8121835964093
20
-0.31511177584261
30
0
41
1
10
70.6215651010604
20
-0.701772870924202
30
0
41
1
10
71.1591320317523
20
-0.955962067981233
30
0
41
1
10
72.7708297932843
20
-1.69729641672979
30
0
41
1
10
73.8438269807374
20
-2.16346615618184
30
0
41
1
10
75.2006111363335
20
-2.67645619727801
30
0
41
1
10
75.473316626281
20
-2.77580800207988
30
0
41
1
10
76.0167047297881
20
-2.96521525081562
30
0
41
1
10
76.2876132455937
20
-3.05535017459857
30
0
41
1
10
76.7540758171191
20
-3.20272413813962
30
0
41
1
10
76.9499529216646
20
-3.26220108607001
30
0
41
1
10
77.1455898176756
20
-3.31907465910507
30
0
0
SPLINE
5
AB
100
AcDbEntity
8
1
62
256
6
ByLayer
370
13
48
1
60
0
100
AcDbSpline
70
4
71
3
72
16
73
12
40
0
40
0
40
0
40
0
40
0.139756210085268
40
0.139756210085268
40
0.578544214019394
40
0.578544214019394
40
0.68824121500292
40
0.68824121500292
40
0.797938215986447
40
0.797938215986447
40
1
40
1
40
1
40
1
41
1
10
77.1455898181047
20
-3.31907465922987
30
0
41
1
10
77.4889126364955
20
-3.41888198485816
30
0
41
1
10
77.831495692502
20
-3.51067178178332
30
0
41
1
10
79.2485296464876
20
-3.85540170975213
30
0
41
1
10
80.3202728463598
20
-4.03305889292955
30
0
41
1
10
81.6736837821556
20
-4.13520016042651
30
0
41
1
10
81.9450244097645
20
-4.14964408475441
30
0
41
1
10
82.489530937971
20
-4.16625568241298
30
0
41
1
10
82.7611956766408
20
-4.16839870508286
30
0
41
1
10
83.5307833984146
20
-4.15708022645202
30
0
41
1
10
84.027149191822
20
-4.12902471348499
30
0
41
1
10
84.522504600718
20
-4.0810263079367
30
0
0
SPLINE
5
AC
100
AcDbEntity
8
1
62
256
6
ByLayer
370
18
48
1
60
0
100
AcDbSpline
70
4
71
3
72
8
73
4
40
0
40
0
40
0
40
0
40
1
40
1
40
1
40
1
41
1
10
111.999966406634
20
0.034018054978759
30
0
41
1
10
111.991677169985
20
0.0079560439590693
30
0
41
1
10
111.980633874727
20
-0.0189417726729744
30
0
41
1
10
111.969603837229
20
-0.0394340727443705
30
0
0
SPLINE
5
AD
100
AcDbEntity
8
1
62
256
6
ByLayer
370
18
48
1
60
0
100
AcDbSpline
70
4
71
3
72
8
73
4
40
0
40
0
40
0
40
0
40
1
40
1
40
1
40
1
41
1
10
110.459465898634
20
-4.07721420482704
30
0
41
1
10
110.470068012585
20
-4.08219755087958
30
0
41
1
10
110.481511825328
20
-4.08476180890591
30
0
41
1
10
110.493818686084
20
-4.08493195590751
30
0
0
SPLINE
5
AE
100
AcDbEntity
8
1
62
256
6
ByLayer
370
18
48
1
60
0
100
AcDbSpline
70
4
71
3
72
24
73
20
40
0
40
0
40
0
40
0
40
0.183756033994276
40
0.183756033994276
40
0.275634050991413
40
0.275634050991413
40
0.321573059489982
40
0.321573059489982
40
0.367512067988551
40
0.367512067988551
40
0.551268101982833
40
0.551268101982833
40
0.643146118979973
40
0.643146118979973
40
0.735024135977113
40
0.735024135977113
40
0.918780169971393
40
0.918780169971393
40
1
40
1
40
1
40
1
41
1
10
9.62010283922348
20
-4.01871825684799
30
0
41
1
10
10.1363072329894
20
-4.00941020691567
30
0
41
1
10
10.6495966784955
20
-3.97882685487301
30
0
41
1
10
11.4157586204099
20
-3.90351187441428
30
0
41
1
10
11.6705908504632
20
-3.8732244825988
30
0
41
1
10
12.0523255529556
20
-3.81962102248525
30
0
41
1
10
12.1793812650382
20
-3.80033730589366
30
0
41
1
10
12.4339201941232
20
-3.75962363871207
30
0
41
1
10
12.5611974615921
20
-3.73805010073357
30
0
41
1
10
13.1975318867155
20
-3.62422120258572
30
0
41
1
10
13.7064910761987
20
-3.51361758047111
30
0
41
1
10
14.4702106290424
20
-3.32330928013519
30
0
41
1
10
14.7245511824625
20
-3.25493221780477
30
0
41
1
10
15.2354425066051
20
-3.10955846495611
30
0
41
1
10
15.4914801529127
20
-3.03269727193674
30
0
41
1
10
16.2612225300671
20
-2.78963580149471
30
0
41
1
10
16.7784574534351
20
-2.61067320179313
30
0
41
1
10
17.5176053300192
20
-2.33490848456134
30
0
41
1
10
17.7439959017949
20
-2.24879964676654
30
0
41
1
10
17.9700379987979
20
-2.16038052701262
30
0
0
SPLINE
5
AF
100
AcDbEntity
8
1
62
256
6
ByLayer
370
18
48
1
60
0
100
AcDbSpline
70
4
71
3
72
106
73
102
40
0
40
0
40
0
40
0
40
0.0011969084887926
40
0.0011969084887926
40
0.0225707804827036
40
0.0225707804827036
40
0.0439446524766145
40
0.0439446524766145
40
0.0653185244705256
40
0.0653185244705256
40
0.108066268458348
40
0.108066268458348
40
0.118753204455304
40
0.118753204455304
40
0.12944014045226
40
0.12944014045226
40
0.150814012446172
40
0.150814012446172
40
0.172187884440084
40
0.172187884440084
40
0.193561756433996
40
0.193561756433996
40
0.204248692430952
40
0.204248692430952
40
0.214935628427908
40
0.214935628427908
40
0.236309500421821
40
0.236309500421821
40
0.257683372415733
40
0.257683372415733
40
0.279057244409646
40
0.279057244409646
40
0.300431116403559
40
0.300431116403559
40
0.321804988397472
40
0.321804988397472
40
0.343178860391385
40
0.343178860391385
40
0.364552732385298
40
0.364552732385298
40
0.38592660437921
40
0.38592660437921
40
0.407300476373123
40
0.407300476373123
40
0.428674348367036
40
0.428674348367036
40
0.450048220360949
40
0.450048220360949
40
0.471422092354861
40
0.471422092354861
40
0.492795964348774
40
0.492795964348774
40
0.514169836342687
40
0.514169836342687
40
0.5355437083366
40
0.5355437083366
40
0.556917580330513
40
0.556917580330513
40
0.56760451632747
40
0.56760451632747
40
0.578291452324427
40
0.578291452324427
40
0.599665324318341
40
0.599665324318341
40
0.621039196312254
40
0.621039196312254
40
0.642413068306168
40
0.642413068306168
40
0.663786940300082
40
0.663786940300082
40
0.685160812293996
40
0.685160812293996
40
0.70653468428791
40
0.70653468428791
40
0.749282428275737
40
0.749282428275737
40
0.77065630026965
40
0.77065630026965
40
0.792030172263563
40
0.792030172263563
40
0.813404044257476
40
0.813404044257476
40
0.83477791625139
40
0.83477791625139
40
0.856151788245303
40
0.856151788245303
40
0.877525660239216
40
0.877525660239216
40
0.898899532233129
40
0.898899532233129
40
0.920273404227043
40
0.920273404227043
40
0.930960340223999
40
0.930960340223999
40
0.941647276220956
40
0.941647276220956
40
0.963021148214868
40
0.963021148214868
40
0.984395020208781
40
0.984395020208781
40
1
40
1
40
1
40
1
41
1
10
36.4317834870428
20
4.03825608985937
30
0
41
1
10
36.4460479952676
20
4.03830162968171
30
0
41
1
10
36.4603113792137
20
4.03833126961575
30
0
41
1
10
36.7292608146565
20
4.03859068008867
30
0
41
1
10
36.9836907715865
20
4.03342970233302
30
0
41
1
10
37.4924318671534
20
4.01240765643678
30
0
41
1
10
37.7466973631144
20
3.99683978334687
30
0
41
1
10
38.2550222597295
20
3.95556171768425
30
0
41
1
10
38.5091848596375
20
3.92955899027851
30
0
41
1
10
39.2739086506273
20
3.83622694745205
30
0
41
1
10
39.7849227369383
20
3.75481730853343
30
0
41
1
10
40.4265732860325
20
3.62652607399767
30
0
41
1
10
40.555032046208
20
3.59955395168615
30
0
41
1
10
40.8122208025667
20
3.54314018368788
30
0
41
1
10
40.9409407662401
20
3.51358232070913
30
0
41
1
10
41.3273527973208
20
3.42234256418524
30
0
41
1
10
41.584927255883
20
3.35746632277076
30
0
41
1
10
42.0994292139204
20
3.21821079967893
30
0
41
1
10
42.3564802539185
20
3.14414680422627
30
0
41
1
10
42.8704329482775
20
2.98837652414551
30
0
41
1
10
43.1272645055245
20
2.90643329094672
30
0
41
1
10
43.5125100987771
20
2.77689746026402
30
0
41
1
10
43.6408791409942
20
2.73256072096154
30
0
41
1
10
43.8982327768173
20
2.64284992579712
30
0
41
1
10
44.027018490929
20
2.59716493102451
30
0
41
1
10
44.4136320493829
20
2.4576761386223
30
0
41
1
10
44.6715793993237
20
2.3613350028773
30
0
41
1
10
45.1852582005265
20
2.16300201088839
30
0
41
1
10
45.4414181952722
20
2.06100105281385
30
0
41
1
10
45.9524283991508
20
1.85192296338406
30
0
41
1
10
46.2070585619926
20
1.74427035905126
30
0
41
1
10
46.7167648406231
20
1.52673216000673
30
0
41
1
10
46.971441139731
20
1.41621018698899
30
0
41
1
10
47.4803539417125
20
1.19184274858878
30
0
41
1
10
47.7346333866543
20
1.07807496717626
30
0
41
1
10
48.2431859859622
20
0.847349750473882
30
0
41
1
10
48.4973697709759
20
0.730406329709979
30
0
41
1
10
49.0057264053813
20
0.494022962082653
30
0
41
1
10
49.2605032351411
20
0.375982974175798
30
0
41
1
10
49.7709726016434
20
0.138619208577239
30
0
41
1
10
50.0266125984583
20
0.0193848576655284
30
0
41
1
10
50.538806591871
20
-0.219525056369577
30
0
41
1
10
50.7952480929886
20
-0.339347379677065
30
0
41
1
10
51.309585147098
20
-0.579166268278584
30
0
41
1
10
51.567301906909
20
-0.699066545662618
30
0
41
1
10
52.082274091919
20
-0.934385325120019
30
0
41
1
10
52.3395290470228
20
-1.0510747783018
30
0
41
1
10
52.8537315601475
20
-1.28097705227003
30
0
41
1
10
53.1107902526289
20
-1.39397266250057
30
0
41
1
10
53.6247486888976
20
-1.61721490364516
30
0
41
1
10
53.8814006434106
20
-1.72795778101386
30
0
41
1
10
54.3956641976318
20
-1.94372843008472
30
0
41
1
10
54.65405246337
20
-2.04793561206122
30
0
41
1
10
55.1692532605743
20
-2.25161817373677
30
0
41
1
10
55.4261146238588
20
-2.35067637792892
30
0
41
1
10
55.9385713266735
20
-2.54199627780449
30
0
41
1
10
56.1940954948487
20
-2.63398526227843
30
0
41
1
10
56.5765130434964
20
-2.76710970277944
30
0
41
1
10
56.7037574845221
20
-2.81083938796218
30
0
41
1
10
56.958603523432
20
-2.89576135024487
30
0
41
1
10
57.0859938919939
20
-2.93733460979698
30
0
41
1
10
57.4680218501425
20
-3.05865861497557
30
0
41
1
10
57.7225082993597
20
-3.13481996428507
30
0
41
1
10
58.2312913841238
20
-3.2799732039156
30
0
41
1
10
58.4856246138397
20
-3.34870634758278
30
0
41
1
10
58.9941512559873
20
-3.47787863919075
30
0
41
1
10
59.2481495449443
20
-3.53801159103236
30
0
41
1
10
59.7578524012456
20
-3.64818954084569
30
0
41
1
10
60.0131022103931
20
-3.69892839693421
30
0
41
1
10
60.5243975103509
20
-3.79090152715537
30
0
41
1
10
60.7805227668092
20
-3.83195447813665
30
0
41
1
10
61.2940586663363
20
-3.90356287902435
30
0
41
1
10
61.5516572484287
20
-3.93472679428061
30
0
41
1
10
62.3237199964785
20
-4.01356341398593
30
0
41
1
10
62.8382380544472
20
-4.04217193860941
30
0
41
1
10
63.6090570367654
20
-4.05681396671361
30
0
41
1
10
63.8659643738231
20
-4.05593779212728
30
0
41
1
10
64.3797433375046
20
-4.04303359565805
30
0
41
1
10
64.636582860774
20
-4.0310801713506
30
0
41
1
10
65.1518085134995
20
-3.99796234814576
30
0
41
1
10
65.4097427034067
20
-3.97578187160849
30
0
41
1
10
65.9233166347837
20
-3.92065352248889
30
0
41
1
10
66.1794522324616
20
-3.88789388026623
30
0
41
1
10
66.6905513317804
20
-3.81338707276208
30
0
41
1
10
66.9453616008051
20
-3.77088442376683
30
0
41
1
10
67.4542857617361
20
-3.67547415716055
30
0
41
1
10
67.7091128266672
20
-3.62349962187403
30
0
41
1
10
68.2179759439661
20
-3.51077774780819
30
0
41
1
10
68.4722300675776
20
-3.44983039570127
30
0
41
1
10
68.9808167905041
20
-3.31830776551075
30
0
41
1
10
69.2350767400644
20
-3.24813659470365
30
0
41
1
10
69.6164266806893
20
-3.13653501133791
30
0
41
1
10
69.743455917282
20
-3.09810334141247
30
0
41
1
10
69.9980566528586
20
-3.01963217577858
30
0
41
1
10
70.1255797241085
20
-2.97951217112575
30
0
41
1
10
70.508385120798
20
-2.85603332927431
30
0
41
1
10
70.7640096124576
20
-2.76982188010288
30
0
41
1
10
71.2761579844665
20
-2.59028093471855
30
0
41
1
10
71.5327725385251
20
-2.49686490742982
30
0
41
1
10
71.9778827347985
20
-2.32829275162894
30
0
41
1
10
72.1657439901903
20
-2.25483193848521
30
0
41
1
10
72.3535829193829
20
-2.18022400339825
30
0
0
SPLINE
5
B0
100
AcDbEntity
8
1
62
256
6
ByLayer
370
18
48
1
60
0
100
AcDbSpline
70
4
71
3
72
44
73
40
40
0
40
0
40
0
40
0
40
0.0083855111887825
40
0.0083855111887825
40
0.0985322828988912
40
0.0985322828988912
40
0.143605668753946
40
0.143605668753946
40
0.188679054609
40
0.188679054609
40
0.278825826319109
40
0.278825826319109
40
0.323899212174166
40
0.323899212174166
40
0.368972598029222
40
0.368972598029222
40
0.414045983884278
40
0.414045983884278
40
0.459119369739334
40
0.459119369739334
40
0.504192755594391
40
0.504192755594391
40
0.549266141449448
40
0.549266141449448
40
0.639412913159556
40
0.639412913159556
40
0.684486299014611
40
0.684486299014611
40
0.729559684869665
40
0.729559684869665
40
0.774633070724719
40
0.774633070724719
40
0.819706456579774
40
0.819706456579774
40
0.909853228289887
40
0.909853228289887
40
0.954926614144944
40
0.954926614144944
40
1
40
1
40
1
40
1
41
1
10
90.8339928707856
20
4.0714479370908
30
0
41
1
10
90.8813684782834
20
4.07150128777425
30
0
41
1
10
90.9287702551941
20
4.07136778761498
30
0
41
1
10
91.4861446605634
20
4.06763215823725
30
0
41
1
10
91.9977547803744
20
4.04462134909895
30
0
41
1
10
92.7694519804947
20
3.97572015593255
30
0
41
1
10
93.0269399866659
20
3.9477069859434
30
0
41
1
10
93.5403030424013
20
3.88127388155308
30
0
41
1
10
93.797243618211
20
3.84281491767817
30
0
41
1
10
94.5676481331723
20
3.71212427995107
30
0
41
1
10
95.0808928543753
20
3.60669994810601
30
0
41
1
10
95.8515775284067
20
3.41711735241788
30
0
41
1
10
96.1089864548246
20
3.34899472309735
30
0
41
1
10
96.6231910905418
20
3.20630290377258
30
0
41
1
10
96.8795415175192
20
3.13050640006986
30
0
41
1
10
97.3910123233827
20
2.97109117158976
30
0
41
1
10
97.6462086209189
20
2.88774056211963
30
0
41
1
10
98.1555410587729
20
2.71362832162689
30
0
41
1
10
98.4094562329187
20
2.62242064464343
30
0
41
1
10
98.917308200554
20
2.43429033216734
30
0
41
1
10
99.1715137654881
20
2.33781420348774
30
0
41
1
10
99.6793874385108
20
2.13921235998657
30
0
41
1
10
99.9332429189997
20
2.03684749244766
30
0
41
1
10
100.695282235454
20
1.72104382822948
30
0
41
1
10
101.202972619938
20
1.49829201079805
30
0
41
1
10
101.96891173539
20
1.15664167274011
30
0
41
1
10
102.224706362158
20
1.04095142767901
30
0
41
1
10
102.737386587628
20
0.806386520821405
30
0
41
1
10
102.994716165974
20
0.687400235318307
30
0
41
1
10
103.508974621001
20
0.447020021154316
30
0
41
1
10
103.765277609112
20
0.325274767545352
30
0
41
1
10
104.278678756284
20
0.0838707619697061
30
0
41
1
10
104.535346941791
20
-0.0367022765882155
30
0
41
1
10
105.305174919868
20
-0.398178793973983
30
0
41
1
10
105.818367700541
20
-0.638451406012962
30
0
41
1
10
106.589057519983
20
-0.995715898221675
30
0
41
1
10
106.846478237577
20
-1.11276702432795
30
0
41
1
10
107.359923789998
20
-1.34317018020022
30
0
41
1
10
107.616179228917
20
-1.45676170582863
30
0
41
1
10
107.872154893452
20
-1.56803071115667
30
0
0
SPLINE
5
B1
100
AcDbEntity
8
1
62
256
6
ByLayer
370
18
48
1
60
0
100
AcDbSpline
70
4
71
3
72
98
73
94
40
0
40
0
40
0
40
0
40
0.0041437848726444
40
0.0041437848726444
40
0.0255058397517492
40
0.0255058397517492
40
0.046867894630854
40
0.046867894630854
40
0.0682299495099588
40
0.0682299495099588
40
0.0895920043890636
40
0.0895920043890636
40
0.110954059268168
40
0.110954059268168
40
0.153678169026376
40
0.153678169026376
40
0.175040223905481
40
0.175040223905481
40
0.196402278784586
40
0.196402278784586
40
0.239126388542795
40
0.239126388542795
40
0.260488443421899
40
0.260488443421899
40
0.281850498301003
40
0.281850498301003
40
0.324574608059211
40
0.324574608059211
40
0.345936662938314
40
0.345936662938314
40
0.367298717817418
40
0.367298717817418
40
0.388660772696522
40
0.388660772696522
40
0.410022827575626
40
0.410022827575626
40
0.43138488245473
40
0.43138488245473
40
0.452746937333834
40
0.452746937333834
40
0.463427964773386
40
0.463427964773386
40
0.474108992212938
40
0.474108992212938
40
0.495471047092041
40
0.495471047092041
40
0.516833101971145
40
0.516833101971145
40
0.538195156850249
40
0.538195156850249
40
0.559557211729353
40
0.559557211729353
40
0.580919266608457
40
0.580919266608457
40
0.602281321487561
40
0.602281321487561
40
0.623643376366664
40
0.623643376366664
40
0.645005431245768
40
0.645005431245768
40
0.666367486124872
40
0.666367486124872
40
0.687729541003976
40
0.687729541003976
40
0.70909159588308
40
0.70909159588308
40
0.730453650762183
40
0.730453650762183
40
0.751815705641287
40
0.751815705641287
40
0.773177760520391
40
0.773177760520391
40
0.794539815399495
40
0.794539815399495
40
0.815901870278599
40
0.815901870278599
40
0.82658289771815
40
0.82658289771815
40
0.837263925157701
40
0.837263925157701
40
0.858625980036805
40
0.858625980036805
40
0.879988034915907
40
0.879988034915907
40
0.90135008979501
40
0.90135008979501
40
0.922712144674113
40
0.922712144674113
40
0.965436254432319
40
0.965436254432319
40
0.986798309311422
40
0.986798309311422
40
1
40
1
40
1
40
1
41
1
10
99.5760338402204
20
-2.1792677225825
30
0
41
1
10
99.5264165897006
20
-2.19890758706453
30
0
41
1
10
99.4768210739316
20
-2.21842244593577
30
0
41
1
10
99.1716710126015
20
-2.33776598747877
30
0
41
1
10
98.9163081527657
20
-2.43466054898133
30
0
41
1
10
98.4073303481821
20
-2.62320840957779
30
0
41
1
10
98.1534184028
20
-2.71436970672519
30
0
41
1
10
97.6452639637952
20
-2.88804762414668
30
0
41
1
10
97.3912222395179
20
-2.97100591597985
30
0
41
1
10
96.8831611326215
20
-3.12939791841149
30
0
41
1
10
96.6290952407525
20
-3.20456582618172
30
0
41
1
10
96.1207459184551
20
-3.34582677972759
30
0
41
1
10
95.8668165504046
20
-3.4131355223617
30
0
41
1
10
95.1036306011868
20
-3.60154934696297
30
0
41
1
10
94.5926994203045
20
-3.70722114197866
30
0
41
1
10
93.8223869502092
20
-3.83885294042992
30
0
41
1
10
93.5644299663821
20
-3.87778851354545
30
0
41
1
10
93.0509045185092
20
-3.94493649965085
30
0
41
1
10
92.7942734569472
20
-3.97314539752506
30
0
41
1
10
92.0241981359516
20
-4.04292678995483
30
0
41
1
10
91.5110052263201
20
-4.06689126915174
30
0
41
1
10
90.740241359889
20
-4.07290125183064
30
0
41
1
10
90.4836037393968
20
-4.06954426218277
30
0
41
1
10
89.9689613750683
20
-4.0510420469252
30
0
41
1
10
89.7122465755403
20
-4.03636494345471
30
0
41
1
10
88.9436719816565
20
-3.97814609210505
30
0
41
1
10
88.4335206585921
20
-3.9176794822782
30
0
41
1
10
87.6711663688974
20
-3.79788186504902
30
0
41
1
10
87.4171095784848
20
-3.75322740016486
30
0
41
1
10
86.908980869135
20
-3.65364982748227
30
0
41
1
10
86.6549374563797
20
-3.59896127818632
30
0
41
1
10
86.1465750689943
20
-3.48171677304322
30
0
41
1
10
85.8922397118616
20
-3.41880539706278
30
0
41
1
10
85.3833857778765
20
-3.28256508289326
30
0
41
1
10
85.1292184690768
20
-3.2089813841454
30
0
41
1
10
84.6190681180394
20
-3.05595764208329
30
0
41
1
10
84.3634112003734
20
-2.97573081919916
30
0
41
1
10
83.850788397706
20
-2.8062136746434
30
0
41
1
10
83.593642281371
20
-2.7172260169788
30
0
41
1
10
83.2072073798018
20
-2.57888726243343
30
0
41
1
10
83.0784377461532
20
-2.53210813789224
30
0
41
1
10
82.8214287952594
20
-2.43634389014218
30
0
41
1
10
82.6931453666564
20
-2.38743047471746
30
0
41
1
10
82.3081611355862
20
-2.23854040652714
30
0
41
1
10
82.0515579222663
20
-2.13611306634022
30
0
41
1
10
81.5381055008217
20
-1.92751033933987
30
0
41
1
10
81.2813563487148
20
-1.82097882279922
30
0
41
1
10
80.7675521974654
20
-1.60280386778695
30
0
41
1
10
80.5102808414297
20
-1.49126168397365
30
0
41
1
10
79.99643272034
20
-1.26246517011816
30
0
41
1
10
79.7388352431131
20
-1.14659203726271
30
0
41
1
10
79.2255446522561
20
-0.913577161191029
30
0
41
1
10
78.9696840081482
20
-0.795932692990874
30
0
41
1
10
78.4586769641376
20
-0.559872709524967
30
0
41
1
10
78.2035301926292
20
-0.44148235126093
30
0
41
1
10
77.6941530365913
20
-0.20365847472803
30
0
41
1
10
77.4404153593448
20
-0.0832177384958754
30
0
41
1
10
76.9325439815634
20
0.155922801422435
30
0
41
1
10
76.6785108999249
20
0.274859996452761
30
0
41
1
10
76.1704052198438
20
0.511690294968844
30
0
41
1
10
75.9163403621945
20
0.629551254221354
30
0
41
1
10
75.4077384275767
20
0.863316805598259
30
0
41
1
10
75.1532798837671
20
0.979448054320017
30
0
41
1
10
74.6443972745085
20
1.2107620791154
30
0
41
1
10
74.3893895907256
20
1.32468005145296
30
0
41
1
10
73.8780211236706
20
1.54870156461536
30
0
41
1
10
73.6217506656755
20
1.659012350399
30
0
41
1
10
73.1077370981089
20
1.87547220943745
30
0
41
1
10
72.8497542202776
20
1.98147156901774
30
0
41
1
10
72.3354287005808
20
2.188031825222
30
0
41
1
10
72.0791042078653
20
2.28963084000165
30
0
41
1
10
71.5658054767723
20
2.48464308787985
30
0
41
1
10
71.3091108880175
20
2.57841755315053
30
0
41
1
10
70.7955649363417
20
2.75903418981196
30
0
41
1
10
70.538656282837
20
2.84597394809344
30
0
41
1
10
70.1529533700738
20
2.97080683475627
30
0
41
1
10
70.0243223848559
20
3.01145669111079
30
0
41
1
10
69.7670562985608
20
3.09089605041953
30
0
41
1
10
69.6384825980879
20
3.12995148761291
30
0
41
1
10
69.2528145401124
20
3.24317472807567
30
0
41
1
10
68.9962115144191
20
3.31415965289483
30
0
41
1
10
68.4840040123632
20
3.44694394645819
30
0
41
1
10
68.2285361482832
20
3.5083239356812
30
0
41
1
10
67.7183392204703
20
3.62156600988459
30
0
41
1
10
67.4633445976303
20
3.67367645221699
30
0
41
1
10
66.9551341434234
20
3.76914807562318
30
0
41
1
10
66.7013241304652
20
3.8116563772885
30
0
41
1
10
65.9392764277021
20
3.92321530318432
30
0
41
1
10
65.4309749251894
20
3.97926850003697
30
0
41
1
10
64.667149083247
20
4.02946063593714
30
0
41
1
10
64.4127041085835
20
4.04168022374949
30
0
41
1
10
63.9999917604814
20
4.05284200819753
30
0
41
1
10
63.8421027912177
20
4.05503334059159
30
0
41
1
10
63.6839464538766
20
4.05506311530317
30
0
0
SPLINE
5
B2
100
AcDbEntity
8
1
62
256
6
ByLayer
370
18
48
1
60
0
100
AcDbSpline
70
4
71
3
72
96
73
92
40
0
40
0
40
0
40
0
40
0.0065224010067239
40
0.0065224010067239
40
0.0281197401152723
40
0.0281197401152723
40
0.0497170792238207
40
0.0497170792238207
40
0.0713144183323693
40
0.0713144183323693
40
0.0929117574409177
40
0.0929117574409177
40
0.114509096549466
40
0.114509096549466
40
0.136106435658015
40
0.136106435658015
40
0.179301113875111
40
0.179301113875111
40
0.190099783429386
40
0.190099783429386
40
0.20089845298366
40
0.20089845298366
40
0.22249579209221
40
0.22249579209221
40
0.244093131200759
40
0.244093131200759
40
0.265690470309309
40
0.265690470309309
40
0.308885148526408
40
0.308885148526408
40
0.330482487634957
40
0.330482487634957
40
0.352079826743506
40
0.352079826743506
40
0.373677165852056
40
0.373677165852056
40
0.395274504960605
40
0.395274504960605
40
0.416871844069154
40
0.416871844069154
40
0.438469183177704
40
0.438469183177704
40
0.460066522286253
40
0.460066522286253
40
0.481663861394802
40
0.481663861394802
40
0.503261200503352
40
0.503261200503352
40
0.524858539611901
40
0.524858539611901
40
0.54645587872045
40
0.54645587872045
40
0.557254548274725
40
0.557254548274725
40
0.568053217828999
40
0.568053217828999
40
0.589650556937549
40
0.589650556937549
40
0.611247896046098
40
0.611247896046098
40
0.632845235154648
40
0.632845235154648
40
0.654442574263198
40
0.654442574263198
40
0.676039913371747
40
0.676039913371747
40
0.697637252480297
40
0.697637252480297
40
0.719234591588847
40
0.719234591588847
40
0.740831930697397
40
0.740831930697397
40
0.762429269805947
40
0.762429269805947
40
0.784026608914497
40
0.784026608914497
40
0.827221287131597
40
0.827221287131597
40
0.848818626240147
40
0.848818626240147
40
0.870415965348698
40
0.870415965348698
40
0.913610643565798
40
0.913610643565798
40
0.935207982674349
40
0.935207982674349
40
0.956805321782899
40
0.956805321782899
40
0.97840266089145
40
0.97840266089145
40
1
40
1
40
1
40
1
41
1
10
45.1934685147262
20
-2.15874105430421
30
0
41
1
10
45.1166762310384
20
-2.1890187508306
30
0
41
1
10
45.0398698651309
20
-2.21903355184995
30
0
41
1
10
44.7086857207919
20
-2.34726822828247
30
0
41
1
10
44.4541556114619
20
-2.44267204499582
30
0
41
1
10
43.944423321523
20
-2.62728824893284
30
0
41
1
10
43.6893690772976
20
-2.71683117509551
30
0
41
1
10
43.1788593907444
20
-2.88957665106497
30
0
41
1
10
42.9229079767452
20
-2.97186218662668
30
0
41
1
10
42.4094362648669
20
-3.12859336845202
30
0
41
1
10
42.1516330535437
20
-3.20341288312824
30
0
41
1
10
41.6362503025864
20
-3.34412134010802
30
0
41
1
10
41.378895397682
20
-3.40966382570755
30
0
41
1
10
40.8648607825706
20
-3.53196648734445
30
0
41
1
10
40.6085684681032
20
-3.58935159916459
30
0
41
1
10
39.8382373535157
20
-3.74550753181609
30
0
41
1
10
39.3241954090663
20
-3.82884789272009
30
0
41
1
10
38.6800030879347
20
-3.90895695970878
30
0
41
1
10
38.5509420580395
20
-3.92368280571736
30
0
41
1
10
38.2937433479459
20
-3.95049853053322
30
0
41
1
10
38.1654561608404
20
-3.96254669614572
30
0
41
1
10
37.780769762315
20
-3.99454200090622
30
0
41
1
10
37.5247370102123
20
-4.01062231658489
30
0
41
1
10
37.0134504354108
20
-4.03259883303099
30
0
41
1
10
36.7582822821649
20
-4.03819939363282
30
0
41
1
10
36.2485280730156
20
-4.03850141925099
30
0
41
1
10
35.9937071881925
20
-4.03354804975265
30
0
41
1
10
35.2316601619712
20
-4.00345740880513
30
0
41
1
10
34.7234013436649
20
-3.96164695273896
30
0
41
1
10
33.9595763766507
20
-3.87033775454106
30
0
41
1
10
33.7046992178969
20
-3.83486450997432
30
0
41
1
10
33.1942944146015
20
-3.75278229394905
30
0
41
1
10
32.9391976918856
20
-3.70680512836114
30
0
41
1
10
32.4273965635502
20
-3.60559834420258
30
0
41
1
10
32.1707368832432
20
-3.55018085494407
30
0
41
1
10
31.6557639211353
20
-3.4287986875764
30
0
41
1
10
31.3976329580062
20
-3.36369773212968
30
0
41
1
10
30.8825739358262
20
-3.22568954310972
30
0
41
1
10
30.6253854303041
20
-3.15230572312493
30
0
41
1
10
30.1119968372715
20
-2.99555786032266
30
0
41
1
10
29.8551820206326
20
-2.9134562559359
30
0
41
1
10
29.3410620474122
20
-2.74293502041454
30
0
41
1
10
29.0838562665363
20
-2.65395816063526
30
0
41
1
10
28.5688631960259
20
-2.46847636522423
30
0
41
1
10
28.3106428782495
20
-2.37212128634576
30
0
41
1
10
27.7955705919621
20
-2.17429085992626
30
0
41
1
10
27.539347856331
20
-2.07151599903625
30
0
41
1
10
27.02727435927
20
-1.86258575203908
30
0
41
1
10
26.7716915468534
20
-1.75589024907217
30
0
41
1
10
26.2610824258806
20
-1.53941710243643
30
0
41
1
10
26.0061048744208
20
-1.42939775906609
30
0
41
1
10
25.6240853529081
20
-1.26148724742006
30
0
41
1
10
25.4968045898521
20
-1.20507192277341
30
0
41
1
10
25.2424762085859
20
-1.09119371575133
30
0
41
1
10
25.1155620966864
20
-1.03347770784532
30
0
41
1
10
24.7344048698867
20
-0.860396483368589
30
0
41
1
10
24.4801387324012
20
-0.744262687766309
30
0
41
1
10
23.971210395965
20
-0.510323058214084
30
0
41
1
10
23.7165749468852
20
-0.392501540777658
30
0
41
1
10
23.2066366891382
20
-0.156326095586735
30
0
41
1
10
22.9511612434094
20
-0.0383826854238691
30
0
41
1
10
22.4403933595201
20
0.200693587626205
30
0
41
1
10
22.1845400488749
20
0.320549827133362
30
0
41
1
10
21.6710705839712
20
0.5582215134026
30
0
41
1
10
21.4132378973209
20
0.676647493295377
30
0
41
1
10
20.8976935488951
20
0.911369958688567
30
0
41
1
10
20.6403431141951
20
1.02718091377693
30
0
41
1
10
20.1259595590012
20
1.25606153553511
30
0
41
1
10
19.8694119284456
20
1.36994500122054
30
0
41
1
10
19.3558934578953
20
1.59283020805623
30
0
41
1
10
19.0989232549622
20
1.7018772183296
30
0
41
1
10
18.5845688216575
20
1.91527071842026
30
0
41
1
10
18.3271992406161
20
2.01968277185836
30
0
41
1
10
17.8117082000122
20
2.22298260272646
30
0
41
1
10
17.5537728744914
20
2.32136042556894
30
0
41
1
10
16.7840943811327
20
2.60867721500071
30
0
41
1
10
16.272533409618
20
2.78577147393358
30
0
41
1
10
15.5071503924768
20
3.02788939395359
30
0
41
1
10
15.2522661968843
20
3.10457897252871
30
0
41
1
10
14.7430622569224
20
3.24984431559989
30
0
41
1
10
14.4892148187704
20
3.31835996877047
30
0
41
1
10
13.7261824512162
20
3.50911492769848
30
0
41
1
10
13.2166372713349
20
3.62036152384758
30
0
41
1
10
12.4503174997579
20
3.75809454789635
30
0
41
1
10
12.1947277270077
20
3.79942525092167
30
0
41
1
10
11.682700469621
20
3.87171324482284
30
0
41
1
10
11.4260149661522
20
3.90239168324536
30
0
41
1
10
10.9109255098866
20
3.95324631005977
30
0
41
1
10
10.6526732351801
20
3.97362799551385
30
0
41
1
10
10.136508564873
20
4.00409318899392
30
0
41
1
10
9.87834064563958
20
4.01406178660949
30
0
41
1
10
9.62010283922339
20
4.01871825684793
30
0
0
SPLINE
5
B3
100
AcDbEntity
8
1
62
256
6
ByLayer
370
18
48
1
60
0
100
AcDbSpline
70
4
71
3
72
31
73
27
40
0
40
0
40
0
40
0
40
0.0903022368106676
40
0.0903022368106676
40
0.306444335451071
40
0.306444335451071
40
0.414515384771273
40
0.414515384771273
40
0.522586434091475
40
0.5360953152565
40
0.5360953152565
40
0.542849755839013
40
0.542849755839013
40
0.549604196421525
40
0.549604196421525
40
0.556358637004038
40
0.556358637004038
40
0.563113077586551
40
0.576621958751576
40
0.630657483411677
40
0.630657483411677
40
0.738728532731879
40
0.738728532731879
40
0.954870631372283
40
0.954870631372283
40
1
40
1
40
1
40
1
41
1
10
9.62010283922348
20
1.78328575269856
30
0
41
1
10
9.62010283922348
20
1.66799645246172
30
0
41
1
10
9.62010283922351
20
1.5482623158251
30
0
41
1
10
9.62010283922351
20
1.12763755395201
30
0
41
1
10
9.62010283922351
20
0.806745137525411
30
0
41
1
10
9.62010283922351
20
0.290078135259876
30
0
41
1
10
9.62010283922348
20
0.111582056841485
30
0
41
1
10
9.62010283922348
20
-0.255484555410732
30
0
41
1
10
9.62010283922353
20
-0.467508179851933
30
0
41
1
10
9.62010283922348
20
-0.685798211068658
30
0
41
1
10
9.62010283922348
20
-0.722296522067467
30
0
41
1
10
9.62010283922351
20
-0.734518626888132
30
0
41
1
10
9.62010283922351
20
-0.761409951296656
30
0
41
1
10
9.62010283922348
20
-0.776003653180283
30
0
41
1
10
9.62010283922348
20
-0.806316854551795
30
0
41
1
10
9.62010283922348
20
-0.822246137828444
30
0
41
1
10
9.62010283922348
20
-0.85366727465356
30
0
41
1
10
9.62010283922348
20
-0.900821102675906
30
0
41
1
10
9.62010283922351
20
-1.07396263409001
30
0
41
1
10
9.62010283922348
20
-1.23210848749895
30
0
41
1
10
9.62010283922348
20
-1.61312822322284
30
0
41
1
10
9.62010283922351
20
-1.86870573640394
30
0
41
1
10
9.62010283922351
20
-2.64005989781964
30
0
41
1
10
9.62010283922348
20
-3.16101655943945
30
0
41
1
10
9.62010283922348
20
-3.79834762510163
30
0
41
1
10
9.62010283922348
20
-3.90849919624327
30
0
41
1
10
9.62010283922348
20
-4.01871825684799
30
0
0
SPLINE
5
B4
100
AcDbEntity
8
1
62
256
6
ByLayer
370
18
48
1
60
0
100
AcDbSpline
70
4
71
3
72
18
73
14
40
0
40
0
40
0
40
0
40
0.125000000000001
40
0.125000000000001
40
0.250000000000002
40
0.250000000000002
40
0.500000000000001
40
0.500000000000001
40
0.625000000000001
40
0.625000000000001
40
0.750000000000001
40
0.750000000000001
40
1
40
1
40
1
40
1
41
1
10
6.85838995246786
20
-2.7138999753804
30
0
41
1
10
6.94538390532733
20
-2.83524816146581
30
0
41
1
10
7.03763747369251
20
-2.94747989284369
30
0
41
1
10
7.23177417786931
20
-3.15529184692636
30
0
41
1
10
7.3342496883717
20
-3.25125565555484
30
0
41
1
10
7.64925014057337
20
-3.50998411273048
30
0
41
1
10
7.87041343330006
20
-3.64578193898643
30
0
41
1
10
8.21981368145603
20
-3.80276572339196
30
0
41
1
10
8.33937784429523
20
-3.84724875457681
30
0
41
1
10
8.58459420656393
20
-3.92095934268465
30
0
41
1
10
8.70895128670054
20
-3.94981935040931
30
0
41
1
10
9.08806617786627
20
-4.01465371729961
30
0
41
1
10
9.34885190334538
20
-4.02898028750607
30
0
41
1
10
9.62010283922348
20
-4.01871825684799
30
0
0
SPLINE
5
B5
100
AcDbEntity
8
1
62
256
6
ByLayer
370
18
48
1
60
0
100
AcDbSpline
70
4
71
3
72
14
73
10
40
0
40
0
40
0
40
0
40
0.25
40
0.25
40
0.5
40
0.5
40
0.75
40
0.75
40
1
40
1
40
1
40
1
41
1
10
110.408370629627
20
0.94886394376681
30
0
41
1
10
110.404572942386
20
0.964072019390045
30
0
41
1
10
110.403567189607
20
0.980109223270802
30
0
41
1
10
110.410687181011
20
1.01034815080979
30
0
41
1
10
110.419295932043
20
1.02451446047371
30
0
41
1
10
110.443234206547
20
1.04507110993413
30
0
41
1
10
110.457970731595
20
1.05164779528218
30
0
41
1
10
110.488325095669
20
1.05933856923548
30
0
41
1
10
110.504114898134
20
1.06058037628665
30
0
41
1
10
110.519813810083
20
1.06013051915102
30
0
0
SPLINE
5
B6
100
AcDbEntity
8
1
62
256
6
ByLayer
370
18
48
1
60
0
100
AcDbSpline
70
4
71
3
72
12
73
8
40
0
40
0
40
0
40
0
40
0.279251786186573
40
0.279251786186573
40
0.558503572373146
40
0.558503572373146
40
1
40
1
40
1
40
1
41
1
10
110.520353091949
20
-4.08191444256877
30
0
41
1
10
109.976609827899
20
-4.09164620281737
30
0
41
1
10
109.43558531872
20
-4.07686563777798
30
0
41
1
10
108.358762350309
20
-4.00074559346999
30
0
41
1
10
107.822512546851
20
-3.9394872391772
30
0
41
1
10
106.439713180527
20
-3.72445343113529
30
0
41
1
10
105.593863096303
20
-3.53741656070508
30
0
41
1
10
104.742761803465
20
-3.30109378490491
30
0
0
SPLINE
5
B7
100
AcDbEntity
8
1
62
256
6
ByLayer
370
13
48
1
60
0
100
AcDbSpline
70
4
71
3
72
22
73
18
40
0
40
0
40
0
40
0
40
0.0546144532720097
40
0.0546144532720097
40
0.119786440607114
40
0.119786440607114
40
0.184958427942219
40
0.184958427942219
40
0.315302402612422
40
0.315302402612422
40
0.575990351952835
40
0.575990351952835
40
0.706334326623044
40
0.706334326623044
40
0.836678301293253
40
0.836678301293253
40
1
40
1
40
1
40
1
41
1
10
104.742762128106
20
-3.30109387504703
30
0
41
1
10
104.517199759867
20
-3.23846264339042
30
0
41
1
10
104.291268558437
20
-3.17236967897432
30
0
41
1
10
103.794659483844
20
-3.02006089615182
30
0
41
1
10
103.523769269176
20
-2.93241761533139
30
0
41
1
10
102.980110083345
20
-2.74817096398306
30
0
41
1
10
102.708608993101
20
-2.65203441536426
30
0
41
1
10
101.897199369764
20
-2.35346341231232
30
0
41
1
10
101.359230943954
20
-2.1405580019308
30
0
41
1
10
99.7490641878949
20
-1.47048911696433
30
0
41
1
10
98.6806433084614
20
-0.981855251735084
30
0
41
1
10
97.065996555258
20
-0.226642125104689
30
0
41
1
10
96.5257279980406
20
0.0286952703150405
30
0
41
1
10
95.4378221840567
20
0.539544077619922
30
0
41
1
10
94.8968855929903
20
0.791816584662143
30
0
41
1
10
93.6829296559303
20
1.34416517491925
30
0
41
1
10
93.010705861008
20
1.64039823548117
30
0
41
1
10
92.3381447776675
20
1.91932608492524
30
0
0
SPLINE
5
B8
100
AcDbEntity
8
1
62
256
6
ByLayer
370
18
48
1
60
0
100
AcDbSpline
70
4
71
3
72
16
73
12
40
0
40
0
40
0
40
0
40
0.0967813629711655
40
0.0967813629711655
40
0.599540516350994
40
0.599540516350994
40
0.85092009304091
40
0.85092009304091
40
0.97660988138587
40
0.97660988138587
40
1
40
1
40
1
40
1
41
1
10
56.1031038421183
20
-4.04789243900629
30
0
41
1
10
55.8939704530919
20
-4.05133531278736
30
0
41
1
10
55.6852938443868
20
-4.05123597300391
30
0
41
1
10
54.3948112644258
20
-4.0288061876183
30
0
41
1
10
53.3224629119634
20
-3.91498755048147
30
0
41
1
10
51.7089113626147
20
-3.61412387176094
30
0
41
1
10
51.1701575543425
20
-3.49213781432675
30
0
41
1
10
50.3583766858143
20
-3.2787695762317
30
0
41
1
10
50.0871701083707
20
-3.20254591381115
30
0
41
1
10
49.764463894393
20
-3.10641042060934
30
0
41
1
10
49.7138247695192
20
-3.09116563386726
30
0
41
1
10
49.6631871118403
20
-3.07576448947282
30
0
0
SPLINE
5
B9
100
AcDbEntity
8
1
62
256
6
ByLayer
370
13
48
1
60
0
100
AcDbSpline
70
4
71
3
72
20
73
16
40
0
40
0
40
0
40
0
40
0.0561008197390474
40
0.0561008197390474
40
0.331812370893144
40
0.331812370893144
40
0.469668146470193
40
0.469668146470193
40
0.538596034258717
40
0.538596034258717
40
0.607523922047239
40
0.607523922047239
40
0.883235473201332
40
0.883235473201332
40
1
40
1
40
1
40
1
41
1
10
49.6631871121202
20
-3.07576448955791
30
0
41
1
10
49.441716851788
20
-3.00840561841989
30
0
41
1
10
49.2202746568676
20
-2.9380558413346
30
0
41
1
10
47.915212585874
20
-2.50680298947393
30
0
41
1
10
46.8418625164238
20
-2.08482085350545
30
0
41
1
10
45.2287036634563
20
-1.39443914538452
30
0
41
1
10
44.6904848090738
20
-1.15470012041521
30
0
41
1
10
43.879921145093
20
-0.785662149324992
30
0
41
1
10
43.6092125434591
20
-0.661042388676037
30
0
41
1
10
43.0662302518349
20
-0.409692882619794
30
0
41
1
10
42.7934066105046
20
-0.282715766467078
30
0
41
1
10
41.4347122086368
20
0.35115573134027
30
0
41
1
10
40.360323605837
20
0.85563891288129
30
0
41
1
10
38.8299247463583
20
1.52973240756074
30
0
41
1
10
38.3745154249352
20
1.7247824293145
30
0
41
1
10
37.917990913247
20
1.91227663863327
30
0
0
SPLINE
5
BA
100
AcDbEntity
8
1
62
256
6
ByLayer
370
18
48
1
60
0
100
AcDbSpline
70
4
71
3
72
8
73
4
40
0
40
0
40
0
40
0
40
1
40
1
40
1
40
1
41
1
10
111.842578921813
20
-0.277142405087972
30
0
41
1
10
111.38154124742
20
-1.54383300500143
30
0
41
1
10
110.920503573027
20
-2.81052360491501
30
0
41
1
10
110.459465898634
20
-4.07721420482918
30
0
0
SPLINE
5
BB
100
AcDbEntity
8
1
62
256
6
ByLayer
370
18
48
1
60
0
100
AcDbSpline
70
4
71
3
72
30
73
26
40
0
40
0
40
0
40
0
40
0.125
40
0.125
40
0.1875
40
0.1875
40
0.25
40
0.25
40
0.3125
40
0.3125
40
0.34375
40
0.34375
40
0.375
40
0.375
40
0.4375
40
0.4375
40
0.5
40
0.5
40
0.625
40
0.625
40
0.75
40
0.75
40
0.875
40
0.875
40
1
40
1
40
1
40
1
41
1
10
110.560464143126
20
-2.01734615869805
30
0
41
1
10
110.499546609834
20
-1.97087730685502
30
0
41
1
10
110.440912857673
20
-1.92036390475826
30
0
41
1
10
110.358957569075
20
-1.83397612369862
30
0
41
1
10
110.332559342266
20
-1.80321345148101
30
0
41
1
10
110.284309457057
20
-1.73777966954239
30
0
41
1
10
110.262042430649
20
-1.7025500932854
30
0
41
1
10
110.22648147618
20
-1.62817787563324
30
0
41
1
10
110.212907438042
20
-1.58800572850794
30
0
41
1
10
110.205314507355
20
-1.52814461247547
30
0
41
1
10
110.2049281742
20
-1.50800755408446
30
0
41
1
10
110.208761087775
20
-1.47014176964132
30
0
41
1
10
110.212986502247
20
-1.45192154282918
30
0
41
1
10
110.231560969788
20
-1.40140306549731
30
0
41
1
10
110.251531261516
20
-1.37354624761417
30
0
41
1
10
110.29771109979
20
-1.32839716839513
30
0
41
1
10
110.324446533254
20
-1.31041160071189
30
0
41
1
10
110.408134278463
20
-1.26669308945418
30
0
41
1
10
110.469519490518
20
-1.24991919101944
30
0
41
1
10
110.594915928679
20
-1.22863758993023
30
0
41
1
10
110.658610036478
20
-1.22448596867142
30
0
41
1
10
110.787213593205
20
-1.22410185036594
30
0
41
1
10
110.852141206657
20
-1.2279877127817
30
0
41
1
10
110.98294081403
20
-1.24191299077728
30
0
41
1
10
111.049027339141
20
-1.25202469706943
30
0
41
1
10
111.114988595593
20
-1.26469471930523
30
0
0
SPLINE
5
BC
100
AcDbEntity
8
1
62
256
6
ByLayer
370
18
48
1
60
0
100
AcDbSpline
70
4
71
3
72
10
73
6
40
0
40
0
40
0
40
0
40
0.5
40
0.5
40
1
40
1
40
1
40
1
41
1
10
110.60868129542
20
4.18423975797796
30
0
41
1
10
110.817012913469
20
3.66003859396466
30
0
41
1
10
111.025273967058
20
3.13535050298438
30
0
41
1
10
111.439482379375
20
2.08387974325953
30
0
41
1
10
111.645405978056
20
1.5570953426286
30
0
41
1
10
111.849169744118
20
1.02959630453449
30
0
0
SPLINE
5
BD
100
AcDbEntity
8
1
62
256
6
ByLayer
370
18
48
1
60
0
100
AcDbSpline
70
4
71
3
72
8
73
4
40
0
40
0
40
0
40
0
40
1
40
1
40
1
40
1
41
1
10
111.849169744118
20
1.02959630453449
30
0
41
1
10
111.897375829778
20
0.732077963251328
30
0
41
1
10
111.940269892352
20
0.434605186863877
30
0
41
1
10
111.977819084228
20
0.137178257128852
30
0
0
SPLINE
5
BE
100
AcDbEntity
8
1
62
256
6
ByLayer
370
18
48
1
60
0
100
AcDbSpline
70
4
71
3
72
20
73
16
40
0
40
0
40
0
40
0
40
0.157851866494183
40
0.157851866494183
40
0.368388899870637
40
0.368388899870637
40
0.473657416558864
40
0.473657416558864
40
0.57892593324709
40
0.57892593324709
40
0.789462966623545
40
0.789462966623545
40
0.894731483311773
40
0.894731483311773
40
1
40
1
40
1
40
1
41
1
10
6.61044465913997
20
-4.23500180226213
30
0
41
1
10
6.61044421462944
20
-4.23440519758859
30
0
41
1
10
6.6104439320963
20
-4.2203573281212
30
0
41
1
10
6.61044397406357
20
-4.1552611913703
30
0
41
1
10
6.61044453908406
20
-4.09432849604872
30
0
41
1
10
6.6104464197453
20
-3.96930031114599
30
0
41
1
10
6.61044721719668
20
-3.92196165792399
30
0
41
1
10
6.61044917237399
20
-3.81578390802824
30
0
41
1
10
6.61045033741371
20
-3.75660085876962
30
0
41
1
10
6.61045432670758
20
-3.5638509124777
30
0
41
1
10
6.61045763148781
20
-3.41597784639737
30
0
41
1
10
6.61046330678849
20
-3.1659153679137
30
0
41
1
10
6.61046531691187
20
-3.0778221002879
30
0
41
1
10
6.61046951276074
20
-2.89192328821889
30
0
41
1
10
6.61047170173157
20
-2.79394248449884
30
0
41
1
10
6.61047389172518
20
-2.69311280260732
30
0
0
SPLINE
5
BF
100
AcDbEntity
8
1
62
256
6
ByLayer
370
18
48
1
60
0
100
AcDbSpline
70
4
71
3
72
10
73
6
40
0
40
0
40
0
40
0
40
0.5
40
0.5
40
1
40
1
40
1
40
1
41
1
10
110.519813810083
20
1.06013051915105
30
0
41
1
10
110.741594922689
20
1.05377531336498
30
0
41
1
10
110.963312388195
20
1.04778346008095
30
0
41
1
10
111.406536646552
20
1.03700245463028
30
0
41
1
10
111.628061914072
20
1.03210783312008
30
0
41
1
10
111.849169744118
20
1.02959630453449
30
0
0
SPLINE
5
C0
100
AcDbEntity
8
1
62
256
6
ByLayer
370
18
48
1
60
0
100
AcDbSpline
70
4
71
3
72
18
73
14
40
0
40
0
40
0
40
0
40
0.153824302633924
40
0.153824302633924
40
0.307648605267847
40
0.307648605267847
40
0.615297210535694
40
0.615297210535694
40
0.769121513169618
40
0.769121513169618
40
0.922945815803541
40
0.922945815803541
40
1
40
1
40
1
40
1
41
1
10
6.61044543669735
20
3.49991703133532
30
0
41
1
10
6.61044643843681
20
3.5739590026707
30
0
41
1
10
6.61044716351279
20
3.64310391523429
30
0
41
1
10
6.61044815249829
20
3.77010395638388
30
0
41
1
10
6.61044841726249
20
3.82783577003735
30
0
41
1
10
6.61044870579741
20
3.98420797162484
30
0
41
1
10
6.61044822560984
20
4.06616638680197
30
0
41
1
10
6.6104471583545
20
4.1549724906512
30
0
41
1
10
6.61044674303523
20
4.17883120356723
30
0
41
1
10
6.61044592040849
20
4.21403406086591
30
0
41
1
10
6.61044551145494
20
4.22555765467234
30
0
41
1
10
6.61044497374908
20
4.2339040535276
30
0
41
1
10
6.61044480720892
20
4.23520320912084
30
0
41
1
10
6.61044465874897
20
4.23500127392259
30
0
0
SPLINE
5
C1
100
AcDbEntity
8
1
62
256
6
ByLayer
370
18
48
1
60
0
100
AcDbSpline
70
4
71
3
72
8
73
4
40
0
40
0
40
0
40
0
40
1
40
1
40
1
40
1
41
1
10
111.999966406635
20
0.0340180549803506
30
0
41
1
10
112.000011197787
20
0.0113393516632243
30
0
41
1
10
112.000011197787
20
-0.0113393516540157
30
0
41
1
10
111.999966406635
20
-0.0340180549711704
30
0
0
SPLINE
5
C2
100
AcDbEntity
8
1
62
256
6
ByLayer
370
18
48
1
60
0
100
AcDbSpline
70
4
71
3
72
104
73
100
40
0
40
0
40
0
40
0
40
0.0088554769088758
40
0.0088554769088758
40
0.0306666681616712
40
0.0306666681616712
40
0.0524778594144668
40
0.0524778594144668
40
0.0742890506672622
40
0.0742890506672622
40
0.117911433172853
40
0.117911433172853
40
0.12881702879925
40
0.12881702879925
40
0.139722624425648
40
0.139722624425648
40
0.161533815678444
40
0.161533815678444
40
0.183345006931239
40
0.183345006931239
40
0.205156198184035
40
0.205156198184035
40
0.248778580689626
40
0.248778580689626
40
0.270589771942422
40
0.270589771942422
40
0.281495367568819
40
0.281495367568819
40
0.292400963195217
40
0.292400963195217
40
0.314212154448012
40
0.314212154448012
40
0.336023345700808
40
0.336023345700808
40
0.346928941327206
40
0.346928941327206
40
0.357834536953604
40
0.357834536953604
40
0.3796457282064
40
0.3796457282064
40
0.401456919459196
40
0.401456919459196
40
0.423268110711992
40
0.423268110711992
40
0.466890493217584
40
0.466890493217584
40
0.48870168447038
40
0.48870168447038
40
0.499607280096779
40
0.499607280096779
40
0.510512875723177
40
0.510512875723177
40
0.554135258228769
40
0.554135258228769
40
0.575946449481565
40
0.575946449481565
40
0.597757640734361
40
0.597757640734361
40
0.619568831987157
40
0.619568831987157
40
0.630474427613555
40
0.630474427613555
40
0.641380023239953
40
0.641380023239953
40
0.66319121449275
40
0.66319121449275
40
0.685002405745546
40
0.685002405745546
40
0.706813596998343
40
0.706813596998343
40
0.717719192624742
40
0.717719192624742
40
0.728624788251141
40
0.728624788251141
40
0.772247170756734
40
0.772247170756734
40
0.79405836200953
40
0.79405836200953
40
0.815869553262327
40
0.815869553262327
40
0.837680744515123
40
0.837680744515123
40
0.848586340141521
40
0.848586340141521
40
0.85949193576792
40
0.85949193576792
40
0.881303127020717
40
0.881303127020717
40
0.903114318273514
40
0.903114318273514
40
0.924925509526312
40
0.924925509526312
40
0.93583110515271
40
0.93583110515271
40
0.946736700779109
40
0.946736700779109
40
0.990359083284704
40
0.990359083284704
40
1
40
1
40
1
40
1
41
1
10
17.978900547649
20
2.15000713769115
30
0
41
1
10
18.0853787737354
20
2.19517759997814
30
0
41
1
10
18.1918687059039
20
2.23968255760516
30
0
41
1
10
18.560729319122
20
2.39147188704928
30
0
41
1
10
18.8230533015526
20
2.49566545633729
30
0
41
1
10
19.3470561527186
20
2.69763181335327
30
0
41
1
10
19.6088715418246
20
2.79517631799891
30
0
41
1
10
20.1316359674819
20
2.9839655642065
30
0
41
1
10
20.3922889408467
20
3.07557101496511
30
0
41
1
10
21.1780038919573
20
3.33332411065035
30
0
41
1
10
21.70471426936
20
3.48593956471959
30
0
41
1
10
22.3647213497063
20
3.65494026602858
30
0
41
1
10
22.4968123677366
20
3.6876265613067
30
0
41
1
10
22.7610715896301
20
3.7508138261914
30
0
41
1
10
22.8932992654778
20
3.78141989540194
30
0
41
1
10
23.2899874484505
20
3.86814062246788
30
0
41
1
10
23.5542080741842
20
3.91977179579254
30
0
41
1
10
24.0817266877657
20
4.01176073709169
30
0
41
1
10
24.3449017603421
20
4.0521976101426
30
0
41
1
10
24.8699843540027
20
4.12205971157204
30
0
41
1
10
25.1319809398785
20
4.15146600386245
30
0
41
1
10
25.9146469742274
20
4.22317145090847
30
0
41
1
10
26.4384239500366
20
4.24674000706926
30
0
41
1
10
27.2242578969264
20
4.24819216865123
30
0
41
1
10
27.4863279864129
20
4.24294789746995
30
0
41
1
10
27.8792366999238
20
4.2261392697429
30
0
41
1
10
28.0100139299049
20
4.21899484179477
30
0
41
1
10
28.272075030281
20
4.20176861577971
30
0
41
1
10
28.4033803104002
20
4.19170761138383
30
0
41
1
10
28.7981207346876
20
4.15727511530113
30
0
41
1
10
29.0624107442682
20
4.12870504676872
30
0
41
1
10
29.5923919824926
20
4.05997644110155
30
0
41
1
10
29.8581077928678
20
4.01980253769659
30
0
41
1
10
30.2550864554628
20
3.95101267677498
30
0
41
1
10
30.3872438107286
20
3.92663780069483
30
0
41
1
10
30.6510711677379
20
3.87481695493588
30
0
41
1
10
30.7827247171322
20
3.84734067784711
30
0
41
1
10
31.17848959525
20
3.76161233397798
30
0
41
1
10
31.4428999193434
20
3.6996895105317
30
0
41
1
10
31.9722465362814
20
3.56608983075734
30
0
41
1
10
32.2370652088838
20
3.49427235515159
30
0
41
1
10
32.7669369174531
20
3.34038013727834
30
0
41
1
10
33.0321180202638
20
3.25811924812228
30
0
41
1
10
33.8240120707094
20
2.99555087102959
30
0
41
1
10
34.3535637466199
20
2.80712449649923
30
0
41
1
10
35.1471867096824
20
2.50097546977418
30
0
41
1
10
35.4117448111391
20
2.39517261533359
30
0
41
1
10
35.8081087566786
20
2.22977958525499
30
0
41
1
10
35.9400012635982
20
2.1732555924209
30
0
41
1
10
36.2045015367734
20
2.05948016739413
30
0
41
1
10
36.3369322071849
20
2.0020923197423
30
0
41
1
10
36.9989604098904
20
1.71321900099255
30
0
41
1
10
37.5287034475736
20
1.47477432113433
30
0
41
1
10
38.3211331711333
20
1.10160148390696
30
0
41
1
10
38.5843532992432
20
0.973462237182815
30
0
41
1
10
39.1129220538203
20
0.717548545339923
30
0
41
1
10
39.3784149919387
20
0.589392481878861
30
0
41
1
10
39.9088873975331
20
0.33229007681669
30
0
41
1
10
40.1737197451141
20
0.203211609679556
30
0
41
1
10
40.5703705472141
20
0.008822636279433
30
0
41
1
10
40.7024828673788
20
-0.0561124737438945
30
0
41
1
10
40.9663785921694
20
-0.186502875411122
30
0
41
1
10
41.0980097729847
20
-0.252269242259871
30
0
41
1
10
41.4932976477431
20
-0.448526563079639
30
0
41
1
10
41.7575456192551
20
-0.57757707147843
30
0
41
1
10
42.2871655255962
20
-0.832784138211593
30
0
41
1
10
42.5527421939284
20
-0.959398632210139
30
0
41
1
10
43.0827470261275
20
-1.21017445933836
30
0
41
1
10
43.3468350825698
20
-1.33386801731038
30
0
41
1
10
43.7409821824597
20
-1.51802695636033
30
0
41
1
10
43.8719944252143
20
-1.57924722040866
30
0
41
1
10
44.1343109847947
20
-1.69931412785954
30
0
41
1
10
44.2654791530349
20
-1.75843933103016
30
0
41
1
10
44.9213642583443
20
-2.04966648584016
30
0
41
1
10
45.4456898275347
20
-2.26978321864826
30
0
41
1
10
46.2294771720154
20
-2.5844236025427
30
0
41
1
10
46.4897866051288
20
-2.68744475843599
30
0
41
1
10
47.0125354383717
20
-2.88311660189933
30
0
41
1
10
47.2747114045428
20
-2.97627254799451
30
0
41
1
10
47.7998892559453
20
-3.15456488326231
30
0
41
1
10
48.0628426448238
20
-3.23975818645576
30
0
41
1
10
48.4578494352209
20
-3.36144523555342
30
0
41
1
10
48.5896056496292
20
-3.40100224902693
30
0
41
1
10
48.8531880417345
20
-3.47819129758639
30
0
41
1
10
48.984865807166
20
-3.51600391229894
30
0
41
1
10
49.3810414327102
20
-3.62516319951692
30
0
41
1
10
49.6460751532856
20
-3.69217560844933
30
0
41
1
10
50.1742128813089
20
-3.81478438737452
30
0
41
1
10
50.4376897580234
20
-3.8706602170821
30
0
41
1
10
50.9632128270728
20
-3.97189295361227
30
0
41
1
10
51.2253870285015
20
-4.0171636614057
30
0
41
1
10
51.6170626250625
20
-4.07729248504356
30
0
41
1
10
51.747382181053
20
-4.09599878904598
30
0
41
1
10
52.0084628419825
20
-4.13022821627553
30
0
41
1
10
52.1390959237278
20
-4.14583639472767
30
0
41
1
10
52.7926969081384
20
-4.2165473465945
30
0
41
1
10
53.3164274350062
20
-4.25025151988163
30
0
41
1
10
53.9552437874711
20
-4.26341248238117
30
0
41
1
10
54.0707545458713
20
-4.26464214806785
30
0
41
1
10
54.186320566577
20
-4.26471511273718
30
0
0
SPLINE
5
C3
100
AcDbEntity
8
1
62
256
6
ByLayer
370
18
48
1
60
0
100
AcDbSpline
70
4
71
3
72
102
73
98
40
0
40
0
40
0
40
0
40
0.0107536400907315
40
0.0107536400907315
40
0.0542906339643025
40
0.0542906339643025
40
0.0760591309010883
40
0.0760591309010883
40
0.0978276278378745
40
0.0978276278378745
40
0.141364621711446
40
0.141364621711446
40
0.152248870179839
40
0.152248870179839
40
0.163133118648231
40
0.163133118648231
40
0.184901615585016
40
0.184901615585016
40
0.206670112521801
40
0.206670112521801
40
0.217554360990193
40
0.217554360990193
40
0.228438609458585
40
0.228438609458585
40
0.25020710639537
40
0.25020710639537
40
0.271975603332155
40
0.271975603332155
40
0.29374410026894
40
0.29374410026894
40
0.315512597205725
40
0.315512597205725
40
0.33728109414251
40
0.33728109414251
40
0.359049591079295
40
0.359049591079295
40
0.369933839547686
40
0.369933839547686
40
0.380818088016076
40
0.380818088016076
40
0.402586584952858
40
0.402586584952858
40
0.424355081889639
40
0.424355081889639
40
0.44612357882642
40
0.44612357882642
40
0.489660572699981
40
0.489660572699981
40
0.500544821168371
40
0.500544821168371
40
0.511429069636761
40
0.511429069636761
40
0.53319756657354
40
0.53319756657354
40
0.576734560447096
40
0.576734560447096
40
0.587618808915484
40
0.587618808915484
40
0.598503057383872
40
0.598503057383872
40
0.620271554320646
40
0.620271554320646
40
0.64204005125742
40
0.64204005125742
40
0.663808548194194
40
0.663808548194194
40
0.685577045130968
40
0.685577045130968
40
0.707345542067742
40
0.707345542067742
40
0.718229790536128
40
0.718229790536128
40
0.729114039004515
40
0.729114039004515
40
0.75088253594129
40
0.75088253594129
40
0.794419529814835
40
0.794419529814835
40
0.805303778283222
40
0.805303778283222
40
0.816188026751609
40
0.816188026751609
40
0.837956523688381
40
0.837956523688381
40
0.859725020625154
40
0.859725020625154
40
0.881493517561927
40
0.881493517561927
40
0.925030511435475
40
0.925030511435475
40
0.935914759903862
40
0.935914759903862
40
0.94679900837225
40
0.94679900837225
40
0.968567505309025
40
0.968567505309025
40
1
40
1
40
1
40
1
41
1
10
72.370077733733
20
2.15739053901538
30
0
41
1
10
72.5005220019176
20
2.21355836572312
30
0
41
1
10
72.6308235732046
20
2.26952347588272
30
0
41
1
10
73.290043841789
20
2.54561801750924
30
0
41
1
10
73.8205575862053
20
2.74927372154372
30
0
41
1
10
74.6156730341404
20
3.0337733846803
30
0
41
1
10
74.8801738640807
20
3.1245554752129
30
0
41
1
10
75.4068340448367
20
3.29941429554401
30
0
41
1
10
75.6705554973697
20
3.38134916224294
30
0
41
1
10
76.4630228546359
20
3.6112617523747
30
0
41
1
10
76.9923219374582
20
3.74451672257763
30
0
41
1
10
77.6534063945505
20
3.88704620500468
30
0
41
1
10
77.7853174336904
20
3.91445244018496
30
0
41
1
10
78.0491843639672
20
3.96610255126237
30
0
41
1
10
78.1811832370338
20
3.99038266224787
30
0
41
1
10
78.5773876529593
20
4.05871204921954
30
0
41
1
10
78.8418267521783
20
4.09826866343082
30
0
41
1
10
79.3704043995375
20
4.16621086953737
30
0
41
1
10
79.6346122295578
20
4.19453670357115
30
0
41
1
10
80.0307012855479
20
4.22842881926917
30
0
41
1
10
80.1626860250287
20
4.23829572531508
30
0
41
1
10
80.4263835148008
20
4.25513266818683
30
0
41
1
10
80.558143928141
20
4.26207296823009
30
0
41
1
10
80.9545696862565
20
4.27819036538941
30
0
41
1
10
81.2195417627581
20
4.28280320571335
30
0
41
1
10
81.7487470588326
20
4.28027185669268
30
0
41
1
10
82.0130943392522
20
4.27311583589912
30
0
41
1
10
82.5412360911139
20
4.2469345670132
30
0
41
1
10
82.804879614914
20
4.2278750562013
30
0
41
1
10
83.3313908305582
20
4.17730262328678
30
0
41
1
10
83.5954952461633
20
4.14628470893447
30
0
41
1
10
84.1251815736755
20
4.07318265393212
30
0
41
1
10
84.3904057621119
20
4.03103574593158
30
0
41
1
10
84.9181838143112
20
3.93584508161237
30
0
41
1
10
85.181286813878
20
3.88285720500431
30
0
41
1
10
85.5742553561475
20
3.79469805946894
30
0
41
1
10
85.7048232644713
20
3.76371030268956
30
0
41
1
10
85.9662519296311
20
3.69966536300308
30
0
41
1
10
86.0970094220483
20
3.66651581294829
30
0
41
1
10
86.489422586596
20
3.56380069899652
30
0
41
1
10
86.7512077430521
20
3.49098363412162
30
0
41
1
10
87.2742991665871
20
3.33586473355791
30
0
41
1
10
87.5356985870635
20
3.25366425475244
30
0
41
1
10
88.0580050947254
20
3.07953195274808
30
0
41
1
10
88.318303684845
20
2.9866532554677
30
0
41
1
10
89.1022656721809
20
2.69861065412101
30
0
41
1
10
89.6284396133706
20
2.4938518466017
30
0
41
1
10
90.28824499885
20
2.21801332031202
30
0
41
1
10
90.4203396076152
20
2.16188521619745
30
0
41
1
10
90.684693680857
20
2.04744626939603
30
0
41
1
10
90.8167146529568
20
1.98895730349676
30
0
41
1
10
91.2118205445959
20
1.81196506982275
30
0
41
1
10
91.4750351215432
20
1.69283100393983
30
0
41
1
10
92.2638805402857
20
1.33169666230896
30
0
41
1
10
92.7882089638633
20
1.08499507822179
30
0
41
1
10
93.4399142207988
20
0.765610588103726
30
0
41
1
10
93.5699199862083
20
0.700873180768895
30
0
41
1
10
93.83041424603
20
0.572030717922814
30
0
41
1
10
93.9607887690091
20
0.507694555960001
30
0
41
1
10
94.3522993485142
20
0.314964639824666
30
0
41
1
10
94.6138051795729
20
0.186818093242721
30
0
41
1
10
95.1369819183952
20
-0.0705003473701993
30
0
41
1
10
95.39874926008
20
-0.199473894613106
30
0
41
1
10
95.9224464440172
20
-0.458497496996841
30
0
41
1
10
96.1837843035926
20
-0.589807549566444
30
0
41
1
10
96.7092027655048
20
-0.848102210467204
30
0
41
1
10
96.9731787339591
20
-0.975291673675684
30
0
41
1
10
97.5029823302573
20
-1.22718890316247
30
0
41
1
10
97.7675999752057
20
-1.35153842826256
30
0
41
1
10
98.1627130860605
20
-1.5350109802059
30
0
41
1
10
98.2941872841545
20
-1.59569743660774
30
0
41
1
10
98.5565606319715
20
-1.71633547662628
30
0
41
1
10
98.687328999613
20
-1.7765366028905
30
0
41
1
10
99.0794261165634
20
-1.95471333744695
30
0
41
1
10
99.3409770332868
20
-2.06948007141773
30
0
41
1
10
100.125771595358
20
-2.4029164551456
30
0
41
1
10
100.648646892237
20
-2.61180638302122
30
0
41
1
10
101.300100673646
20
-2.85851339147038
30
0
41
1
10
101.43013921365
20
-2.90733752390756
30
0
41
1
10
101.690861791424
20
-3.00217482696934
30
0
41
1
10
101.82142862393
20
-3.04837584995076
30
0
41
1
10
102.213746244739
20
-3.18338488571044
30
0
41
1
10
102.476092388983
20
-3.26865193198137
30
0
41
1
10
103.001566198258
20
-3.43088236385964
30
0
41
1
10
103.264793623329
20
-3.50770178049342
30
0
41
1
10
103.792045687739
20
-3.65271202010109
30
0
41
1
10
104.056053622363
20
-3.72161565092128
30
0
41
1
10
104.846966086281
20
-3.90888973890503
30
0
41
1
10
105.373195684711
20
-4.00991571484948
30
0
41
1
10
106.027506739646
20
-4.10965198405071
30
0
41
1
10
106.158217444633
20
-4.12823302287057
30
0
41
1
10
106.419220859002
20
-4.16268532790582
30
0
41
1
10
106.549377910018
20
-4.17861744082563
30
0
41
1
10
106.939926255094
20
-4.22189877003422
30
0
41
1
10
107.200772138468
20
-4.2446257468398
30
0
41
1
10
107.839136571665
20
-4.28597514599605
30
0
41
1
10
108.216771436122
20
-4.29851519973317
30
0
41
1
10
108.594372705369
20
-4.29878583513485
30
0
0
SPLINE
5
C4
100
AcDbEntity
8
1
62
256
6
ByLayer
370
18
48
1
60
0
100
AcDbSpline
70
4
71
3
72
8
73
4
40
0
40
0
40
0
40
0
40
1
40
1
40
1
40
1
41
1
10
110.455580267631
20
4.29274148421507
30
0
41
1
10
110.288836087305
20
4.297423973512
30
0
41
1
10
110.122064619389
20
4.29970689709427
30
0
41
1
10
109.955221416331
20
4.2995923267006
30
0
0
SPLINE
5
C5
100
AcDbEntity
8
1
62
256
6
ByLayer
370
18
48
1
60
0
100
AcDbSpline
70
4
71
3
72
62
73
58
40
0
40
0
40
0
40
0
40
0.0289106755444148
40
0.0289106755444148
40
0.056031530889708
40
0.056031530889708
40
0.083152386235001
40
0.083152386235001
40
0.137394096925586
40
0.137394096925586
40
0.164514952270879
40
0.164514952270879
40
0.191635807616171
40
0.191635807616171
40
0.245877518306757
40
0.245877518306757
40
0.27299837365205
40
0.27299837365205
40
0.300119228997344
40
0.300119228997344
40
0.35436093968793
40
0.35436093968793
40
0.381481795033222
40
0.381481795033222
40
0.408602650378515
40
0.408602650378515
40
0.4628443610691
40
0.4628443610691
40
0.489965216414393
40
0.489965216414393
40
0.517086071759686
40
0.517086071759686
40
0.571327782450274
40
0.571327782450274
40
0.598448637795567
40
0.598448637795567
40
0.62556949314086
40
0.62556949314086
40
0.679811203831447
40
0.679811203831447
40
0.706932059176741
40
0.706932059176741
40
0.734052914522034
40
0.734052914522034
40
0.788294625212621
40
0.788294625212621
40
0.815415480557914
40
0.815415480557914
40
0.842536335903207
40
0.842536335903207
40
0.896778046593793
40
0.896778046593793
40
0.923898901939086
40
0.923898901939086
40
0.951019757284379
40
0.951019757284379
40
1
40
1
40
1
40
1
41
1
10
85.4151051483275
20
-4.08372830433899
30
0
41
1
10
85.1276466015228
20
-4.12656577444352
30
0
41
1
10
84.8403232425352
20
-4.16262410949878
30
0
41
1
10
84.2831804662878
20
-4.21908421415856
30
0
41
1
10
84.0133866554822
20
-4.24032440235123
30
0
41
1
10
83.4731153036392
20
-4.27041591005445
30
0
41
1
10
83.2024110799657
20
-4.27925420090062
30
0
41
1
10
82.3919978956743
20
-4.28692533224725
30
0
41
1
10
81.8531634506301
20
-4.26699012737583
30
0
41
1
10
81.0440616889829
20
-4.20017943186727
30
0
41
1
10
80.774241683297
20
-4.17176029248876
30
0
41
1
10
80.2339569720353
20
-4.10272283201906
30
0
41
1
10
79.9632335150495
20
-4.06206327604042
30
0
41
1
10
79.1526947130458
20
-3.92280865259056
30
0
41
1
10
78.6137969696526
20
-3.80669186928824
30
0
41
1
10
77.8046319059964
20
-3.60043527091338
30
0
41
1
10
77.5347866673727
20
-3.52633222839936
30
0
41
1
10
76.9944697445213
20
-3.36778789582371
30
0
41
1
10
76.7237280442565
20
-3.28328159153725
30
0
41
1
10
75.9130933564708
20
-3.01644073553473
30
0
41
1
10
75.3741304113091
20
-2.82027612027261
30
0
41
1
10
74.5649434922654
20
-2.50312704097467
30
0
41
1
10
74.2950711577388
20
-2.39363200139579
30
0
41
1
10
73.7546980305018
20
-2.16761993500199
30
0
41
1
10
73.483938909227
20
-2.05098072331452
30
0
41
1
10
72.6732729065181
20
-1.69341261032255
30
0
41
1
10
72.1342006786622
20
-1.4444734282084
30
0
41
1
10
71.3248979759284
20
-1.06053368856359
30
0
41
1
10
71.0550085920498
20
-0.93081226855054
30
0
41
1
10
70.5146086160483
20
-0.668615748518391
30
0
41
1
10
70.2438296197845
20
-0.536006134577576
30
0
41
1
10
69.4330295407846
20
-0.137406381686134
30
0
41
1
10
68.8938823922167
20
0.129856259702649
30
0
41
1
10
68.0845299574929
20
0.527525118497692
30
0
41
1
10
67.8146295239193
20
0.6595217615031
30
0
41
1
10
67.2742064889426
20
0.921603100342935
30
0
41
1
10
67.0033984881797
20
1.05180023923481
30
0
41
1
10
66.1924671576008
20
1.43624672502619
30
0
41
1
10
65.6532940488527
20
1.68492940560009
30
0
41
1
10
64.8438912624027
20
2.04127727249454
30
0
41
1
10
64.5739727664048
20
2.15726435965692
30
0
41
1
10
64.0335157978998
20
2.38293636835567
30
0
41
1
10
63.7626844268073
20
2.49271254637176
30
0
41
1
10
62.9516508799887
20
2.80985687631099
30
0
41
1
10
62.4124155787233
20
3.00547472076488
30
0
41
1
10
61.6029469855521
20
3.27116938191651
30
0
41
1
10
61.3330083267398
20
3.35509881510973
30
0
41
1
10
60.7925157829291
20
3.51314934422928
30
0
41
1
10
60.5216614862768
20
3.58732521727984
30
0
41
1
10
59.7105508752341
20
3.79332213783636
30
0
41
1
10
59.1712317497702
20
3.90880675677201
30
0
41
1
10
58.361702450281
20
4.04712559852274
30
0
41
1
10
58.0917717305256
20
4.08741690008443
30
0
41
1
10
57.5512331248276
20
4.15600961202799
30
0
41
1
10
57.2803214528093
20
4.18432910180721
30
0
41
1
10
56.5215399666009
20
4.24637865529729
30
0
41
1
10
56.0343892145041
20
4.26612085956927
30
0
41
1
10
55.5470577829598
20
4.26558435485913
30
0
0
SPLINE
5
C6
100
AcDbEntity
8
1
62
256
6
ByLayer
370
18
48
1
60
0
100
AcDbSpline
70
4
71
3
72
46
73
42
40
0
40
0
40
0
40
0
40
0.0659817070953734
40
0.0659817070953734
40
0.0993395032705381
40
0.0993395032705381
40
0.132697299445703
40
0.132697299445703
40
0.199412891796035
40
0.199412891796035
40
0.2327706879712
40
0.2327706879712
40
0.266128484146365
40
0.266128484146365
40
0.332844076496696
40
0.332844076496696
40
0.366201872671861
40
0.366201872671861
40
0.399559668847026
40
0.399559668847026
40
0.466275261197356
40
0.466275261197356
40
0.499633057372521
40
0.499633057372521
40
0.532990853547686
40
0.532990853547686
40
0.599706445898016
40
0.599706445898016
40
0.633064242073181
40
0.633064242073181
40
0.666422038248347
40
0.666422038248347
40
0.733137630598677
40
0.733137630598677
40
0.766495426773842
40
0.766495426773842
40
0.799853222949007
40
0.799853222949007
40
0.866568815299338
40
0.866568815299338
40
1
40
1
40
1
40
1
41
1
10
31.0503634652474
20
-4.04605497406237
30
0
41
1
10
30.5149563022102
20
-4.12623509628793
30
0
41
1
10
29.9810393991155
20
-4.18293185632206
30
0
41
1
10
29.1768376447289
20
-4.23205645695254
30
0
41
1
10
28.9067285388656
20
-4.24240101858607
30
0
41
1
10
28.3658954301448
20
-4.25066714247492
30
0
41
1
10
28.0948883360334
20
-4.24857899986566
30
0
41
1
10
27.2826785228439
20
-4.22362843544138
30
0
41
1
10
26.7427682651951
20
-4.18215803413159
30
0
41
1
10
25.9325335293812
20
-4.08386020066831
30
0
41
1
10
25.6623887208609
20
-4.04508436270154
30
0
41
1
10
25.1215273963243
20
-3.95573106367365
30
0
41
1
10
24.850532648101
20
-3.90508064142955
30
0
41
1
10
24.0382102533293
20
-3.73633809884768
30
0
41
1
10
23.498266693641
20
-3.60158620284309
30
0
41
1
10
22.6879358844714
20
-3.36927625115274
30
0
41
1
10
22.4177913809123
20
-3.28676992442129
30
0
41
1
10
21.8769254409995
20
-3.11221954058749
30
0
41
1
10
21.6059126799619
20
-3.02008629036587
30
0
41
1
10
20.7934288958693
20
-2.73112500585768
30
0
41
1
10
20.2535122168231
20
-2.52172321894264
30
0
41
1
10
19.4431948365391
20
-2.18755672894622
30
0
41
1
10
19.1730147796462
20
-2.07283034445513
30
0
41
1
10
18.6320531650239
20
-1.83749560167198
30
0
41
1
10
18.3609923028341
20
-1.71677230966804
30
0
41
1
10
17.5483257248206
20
-1.34786150145922
30
0
41
1
10
17.0084101814157
20
-1.0928814622828
30
0
41
1
10
16.1980298761522
20
-0.703406818655651
30
0
41
1
10
15.9278239450352
20
-0.572407079587606
30
0
41
1
10
15.3868071960141
20
-0.308963397286675
30
0
41
1
10
15.1157253446379
20
-0.176403136295221
30
0
41
1
10
14.3029220044685
20
0.221256614676832
30
0
41
1
10
13.7629566267489
20
0.486319595292315
30
0
41
1
10
12.9525086167189
20
0.876990906209187
30
0
41
1
10
12.6822823192741
20
1.00607636393644
30
0
41
1
10
12.141236620198
20
1.26108679544077
30
0
41
1
10
11.8700907227191
20
1.38715995607743
30
0
41
1
10
11.0575271232153
20
1.75834551700527
30
0
41
1
10
10.5186630350578
20
1.99596817323177
30
0
41
1
10
8.90450180563238
20
2.66857199989374
30
0
41
1
10
7.83162864550852
20
3.06329229216726
30
0
41
1
10
6.74808590945602
20
3.38182911736774
30
0
0
SPLINE
5
C7
100
AcDbEntity
8
1
62
256
6
ByLayer
370
18
48
1
60
0
100
AcDbSpline
70
4
71
3
72
8
73
4
40
0
40
0
40
0
40
0
40
1
40
1
40
1
40
1
41
1
10
111.969603837229
20
-0.0394340727444558
30
0
41
1
10
111.92705468071
20
-0.11848458216582
30
0
41
1
10
111.884712893987
20
-0.197720560408982
30
0
41
1
10
111.842578921796
20
-0.277142405126767
30
0
0
SPLINE
5
C8
100
AcDbEntity
8
1
62
256
6
ByLayer
370
18
48
1
60
0
100
AcDbSpline
70
4
71
3
72
8
73
4
40
0
40
0
40
0
40
0
40
1
40
1
40
1
40
1
41
1
10
111.849169744118
20
-1.02959630453449
30
0
41
1
10
111.897374851213
20
-0.732084002759791
30
0
41
1
10
111.940269128519
20
-0.434611237181883
30
0
41
1
10
111.977819084228
20
-0.137178257128795
30
0
0
SPLINE
5
C9
100
AcDbEntity
8
1
62
256
6
ByLayer
370
18
48
1
60
0
100
AcDbSpline
70
4
71
3
72
18
73
14
40
0
40
0
40
0
40
0
40
0.125000000000006
40
0.125000000000006
40
0.250000000000011
40
0.250000000000011
40
0.375000000000017
40
0.375000000000017
40
0.500000000000023
40
0.500000000000023
40
0.750000000000011
40
0.750000000000011
40
1
40
1
40
1
40
1
41
1
10
6.61047389172518
20
-2.69311280260732
30
0
41
1
10
6.61258433922904
20
-2.67231337018669
30
0
41
1
10
6.61617041104896
20
-2.65154089552132
30
0
41
1
10
6.62832034348904
20
-2.61345745427124
30
0
41
1
10
6.6373093632412
20
-2.59599922750417
30
0
41
1
10
6.66024500673541
20
-2.57347157834079
30
0
41
1
10
6.67414927186582
20
-2.56857976396051
30
0
41
1
10
6.70102422431415
20
-2.56898542790358
30
0
41
1
10
6.71419695814009
20
-2.57360937742851
30
0
41
1
10
6.75186472677638
20
-2.59342860550717
30
0
41
1
10
6.77483812857744
20
-2.61428901386432
30
0
41
1
10
6.81831346560384
20
-2.66063577472906
30
0
41
1
10
6.83873478253972
20
-2.68648290623597
30
0
41
1
10
6.85838995138062
20
-2.71389997386376
30
0
0
SPLINE
5
CA
100
AcDbEntity
8
1
62
256
6
ByLayer
370
18
48
1
60
0
100
AcDbSpline
70
4
71
3
72
38
73
34
40
0
40
0
40
0
40
0
40
0.0624999999999997
40
0.0624999999999997
40
0.124999999999999
40
0.124999999999999
40
0.187499999999999
40
0.187499999999999
40
0.249999999999999
40
0.249999999999999
40
0.312499999999998
40
0.312499999999998
40
0.374999999999998
40
0.374999999999998
40
0.437499999999998
40
0.437499999999998
40
0.499999999999998
40
0.499999999999998
40
0.562499999999997
40
0.562499999999997
40
0.624999999999997
40
0.624999999999997
40
0.687499999999997
40
0.687499999999997
40
0.749999999999996
40
0.749999999999996
40
0.781249999999996
40
0.781249999999996
40
0.812499999999996
40
0.812499999999996
40
0.874999999999996
40
0.874999999999996
40
1
40
1
40
1
40
1
41
1
10
110.560464143126
20
-2.01734615869799
30
0
41
1
10
110.552727660138
20
-2.06478093544502
30
0
41
1
10
110.549308963053
20
-2.10957926133381
30
0
41
1
10
110.551043096632
20
-2.18739176082784
30
0
41
1
10
110.556158518124
20
-2.22126535122291
30
0
41
1
10
110.573118139087
20
-2.27616969104741
30
0
41
1
10
110.5850978679
20
-2.29781945114561
30
0
41
1
10
110.613909515592
20
-2.32907330035673
30
0
41
1
10
110.630901914199
20
-2.33897512386668
30
0
41
1
10
110.66857475035
20
-2.34802629758951
30
0
41
1
10
110.689033777036
20
-2.34722520393254
30
0
41
1
10
110.732941311516
20
-2.33580918310562
30
0
41
1
10
110.756298337229
20
-2.32511436173092
30
0
41
1
10
110.804211371517
20
-2.29487976237684
30
0
41
1
10
110.82908850865
20
-2.27518743617847
30
0
41
1
10
110.880055378187
20
-2.22670535147555
30
0
41
1
10
110.905550037828
20
-2.1985200189275
30
0
41
1
10
110.956562726315
20
-2.13393768686393
30
0
41
1
10
110.98242699241
20
-2.09697672017086
30
0
41
1
10
111.032234488717
20
-2.0161301104286
30
0
41
1
10
111.056129772514
20
-1.97249423829419
30
0
41
1
10
111.10140474726
20
-1.87759266543779
30
0
41
1
10
111.121759836528
20
-1.82848163325991
30
0
41
1
10
111.157199582728
20
-1.72642578860749
30
0
41
1
10
111.171506089929
20
-1.6755409225396
30
0
41
1
10
111.186930108589
20
-1.60152698319618
30
0
41
1
10
111.191063330455
20
-1.57713029334664
30
0
41
1
10
111.196990747865
20
-1.53096306643622
30
0
41
1
10
111.198849084946
20
-1.50891626846459
30
0
41
1
10
111.201175793038
20
-1.44582271502554
30
0
41
1
10
111.198312853202
20
-1.40895847275704
30
0
41
1
10
111.178441088378
20
-1.31619760711263
30
0
41
1
10
111.150559420066
20
-1.27938516972208
30
0
41
1
10
111.114988595594
20
-1.26469471930528
30
0
0
SPLINE
5
CB
100
AcDbEntity
8
1
62
256
6
ByLayer
370
18
48
1
60
0
100
AcDbSpline
70
4
71
3
72
8
73
4
40
0
40
0
40
0
40
0
40
1
40
1
40
1
40
1
41
1
10
110.608681295418
20
-4.18423975797944
30
0
41
1
10
110.549818871943
20
-4.24157241442231
30
0
41
1
10
110.498911911904
20
-4.27814041931109
30
0
41
1
10
110.455580267631
20
-4.29274148421513
30
0
0
SPLINE
5
CC
100
AcDbEntity
8
1
62
256
6
ByLayer
370
18
48
1
60
0
100
AcDbSpline
70
4
71
3
72
10
73
6
40
0
40
0
40
0
40
0
40
0.5
40
0.5
40
1
40
1
40
1
40
1
41
1
10
110.608681295412
20
-4.184239757998
30
0
41
1
10
110.817184633684
20
-3.65960651391038
30
0
41
1
10
111.025525942431
20
-3.13471353465562
30
0
41
1
10
111.439659244312
20
-2.08342809488914
30
0
41
1
10
111.645431675005
20
-1.55702881894595
30
0
41
1
10
111.849169744118
20
-1.02959630453452
30
0
0
SPLINE
5
CD
100
AcDbEntity
8
1
62
256
6
ByLayer
370
18
48
1
60
0
100
AcDbSpline
70
4
71
3
72
8
73
4
40
0
40
0
40
0
40
0
40
1
40
1
40
1
40
1
41
1
10
9.62010283922348
20
4.01871825684793
30
0
41
1
10
9.5655012246776
20
4.02078395826433
30
0
41
1
10
9.51134134416588
20
4.02185222611468
30
0
41
1
10
9.45760312189509
20
4.02189036254424
30
0
0
SPLINE
5
CE
100
AcDbEntity
8
1
62
256
6
ByLayer
370
18
48
1
60
0
100
AcDbSpline
70
4
71
3
72
18
73
14
40
0
40
0
40
0
40
0
40
0.0744556984708459
40
0.0744556984708459
40
0.17932224107293
40
0.17932224107293
40
0.284188783675014
40
0.284188783675014
40
0.493921868879186
40
0.493921868879186
40
0.913388039287532
40
0.913388039287532
40
1
40
1
40
1
40
1
41
1
10
41.9145522059481
20
0.0196984605057935
30
0
41
1
10
42.1068789827865
20
-0.0722726024145572
30
0
41
1
10
42.2995429215613
20
-0.164425797865448
30
0
41
1
10
42.7645613888531
20
-0.386420106361726
30
0
41
1
10
43.0375821821846
20
-0.516313962966422
30
0
41
1
10
43.5808335977588
20
-0.773067632260421
30
0
41
1
10
43.8516526890022
20
-0.900201021328542
30
0
41
1
10
44.6624809472046
20
-1.27624220004512
30
0
41
1
10
45.2008090686821
20
-1.51990174834648
30
0
41
1
10
46.8142506591918
20
-2.21985834493091
30
0
41
1
10
47.8878044239258
20
-2.64513606189138
30
0
41
1
10
49.1969628628714
20
-3.07772961966924
30
0
41
1
10
49.4218915205319
20
-3.1489927498549
30
0
41
1
10
49.6467875512408
20
-3.21700627670944
30
0
0
SPLINE
5
CF
100
AcDbEntity
8
1
62
256
6
ByLayer
370
13
48
1
60
0
100
AcDbSpline
70
4
71
3
72
20
73
16
40
0
40
0
40
0
40
0
40
0.0181288722607253
40
0.0181288722607253
40
0.122273254302434
40
0.122273254302434
40
0.330562018385849
40
0.330562018385849
40
0.747139546552683
40
0.747139546552683
40
0.851283928594391
40
0.851283928594391
40
0.955428310636099
40
0.955428310636099
40
1
40
1
40
1
40
1
41
1
10
49.6467875508718
20
-3.21700627659783
30
0
41
1
10
49.6941872747218
20
-3.23134099998523
30
0
41
1
10
49.7415855492509
20
-3.24553137283914
30
0
41
1
10
50.0612041798938
20
-3.34023702152916
30
0
41
1
10
50.3325357215417
20
-3.4158621307339
30
0
41
1
10
51.144609087536
20
-3.62683154975639
30
0
41
1
10
51.683497444184
20
-3.74635043993271
30
0
41
1
10
53.2973336263227
20
-4.03767077121162
30
0
41
1
10
54.369846165505
20
-4.14210038082521
30
0
41
1
10
55.723332710887
20
-4.15066033218861
30
0
41
1
10
55.9946662024571
20
-4.14627438573251
30
0
41
1
10
56.5390604049434
20
-4.12521871020363
30
0
41
1
10
56.811687845088
20
-4.1085328906384
30
0
41
1
10
57.2003567031322
20
-4.07606913303212
30
0
41
1
10
57.3168328930928
20
-4.06523117063927
30
0
41
1
10
57.4333075381011
20
-4.05329358375292
30
0
0
SPLINE
5
D0
100
AcDbEntity
8
1
62
256
6
ByLayer
370
18
48
1
60
0
100
AcDbSpline
70
4
71
3
72
16
73
12
40
0
40
0
40
0
40
0
40
0.170066603480528
40
0.170066603480528
40
0.62846667299877
40
0.62846667299877
40
0.857666707757891
40
0.857666707757891
40
0.972266725137457
40
0.972266725137457
40
1
40
1
40
1
40
1
41
1
10
96.3944962917262
20
-0.018705140779133
30
0
41
1
10
96.7968980540939
20
-0.212724086031528
30
0
41
1
10
97.1974481321341
20
-0.405813663038259
30
0
41
1
10
98.6733985058002
20
-1.11053527008482
30
0
41
1
10
99.7417429385852
20
-1.60683383549261
30
0
41
1
10
101.352388319906
20
-2.28368830206389
30
0
41
1
10
101.890600592523
20
-2.49810254500778
30
0
41
1
10
102.702602848765
20
-2.79772946641418
30
0
41
1
10
102.974484663511
20
-2.89406869972834
30
0
41
1
10
103.31219974035
20
-3.00831409770137
30
0
41
1
10
103.377942849129
20
-3.03029722448233
30
0
41
1
10
103.443629558736
20
-3.05199931884283
30
0
0
SPLINE
5
D1
100
AcDbEntity
8
1
62
256
6
ByLayer
370
13
48
1
60
0
100
AcDbSpline
70
4
71
3
72
12
73
8
40
0
40
0
40
0
40
0
40
0.0865493761861701
40
0.0865493761861701
40
0.543274688093084
40
0.543274688093084
40
1
40
1
40
1
40
1
41
1
10
103.44362955889
20
-3.05199931889382
30
0
41
1
10
103.649374842021
20
-3.11997507190989
30
0
41
1
10
103.854566803717
20
-3.18519366991424
30
0
41
1
10
105.13975014599
20
-3.57654617276603
30
0
41
1
10
106.207818983512
20
-3.825557080094
30
0
41
1
10
108.346158254186
20
-4.14124369858425
30
0
41
1
10
109.416714000582
20
-4.20843824121948
30
0
41
1
10
110.501578918159
20
-4.17569925424269
30
0
0
SPLINE
5
D2
100
AcDbEntity
8
1
62
256
6
ByLayer
370
13
48
1
60
0
100
AcDbSpline
70
4
71
3
72
22
73
18
40
0
40
0
40
0
40
0
40
0.0095556609123929
40
0.0095556609123929
40
0.119605031922127
40
0.119605031922127
40
0.339703773941595
40
0.339703773941595
40
0.44975314495133
40
0.44975314495133
40
0.559802515961064
40
0.559802515961064
40
0.779901257980532
40
0.779901257980532
40
0.889950628990266
40
0.889950628990266
40
1
40
1
40
1
40
1
41
1
10
6.85821351374929
20
-4.02027197428114
30
0
41
1
10
6.85821340787675
20
-4.02026767791588
30
0
41
1
10
6.85821330573455
20
-4.02022116777803
30
0
41
1
10
6.85821207625162
20
-4.01911127456208
30
0
41
1
10
6.85821145632886
20
-4.01253980721742
30
0
41
1
10
6.85821176992897
20
-3.97641373336128
30
0
41
1
10
6.85821491276715
20
-3.93048664048936
30
0
41
1
10
6.85822597471025
20
-3.82776892925455
30
0
41
1
10
6.85823067452807
20
-3.78821336503447
30
0
41
1
10
6.85824219832327
20
-3.69855094808824
30
0
41
1
10
6.85824905488047
20
-3.64822036480879
30
0
41
1
10
6.85827256505772
20
-3.48307148352083
30
0
41
1
10
6.85829214663607
20
-3.35444424788764
30
0
41
1
10
6.85832606449839
20
-3.13442905274204
30
0
41
1
10
6.8583381197509
20
-3.05655011162648
30
0
41
1
10
6.85836339378494
20
-2.89148747069311
30
0
41
1
10
6.85837663367661
20
-2.80413903577576
30
0
41
1
10
6.85838995137854
20
-2.7138999878425
30
0
0
SPLINE
5
D3
100
AcDbEntity
8
1
62
256
6
ByLayer
370
13
48
1
60
0
100
AcDbSpline
70
4
71
3
72
18
73
14
40
0
40
0
40
0
40
0
40
0.0789218093356871
40
0.0789218093356871
40
0.23497066815081
40
0.23497066815081
40
0.547068385781056
40
0.547068385781056
40
0.703117244596179
40
0.703117244596179
40
0.859166103411302
40
0.859166103411302
40
1
40
1
40
1
40
1
41
1
10
6.85821533882904
20
3.34889864802153
30
0
41
1
10
6.8582181775048
20
3.38339809765489
30
0
41
1
10
6.85822060530211
20
3.41665754594442
30
0
41
1
10
6.85822671614849
20
3.51171342852925
30
0
41
1
10
6.8582293161528
20
3.56960871522358
30
0
41
1
10
6.85823384013878
20
3.72800941328757
30
0
41
1
10
6.85823249842573
20
3.81335485996595
30
0
41
1
10
6.8582279196539
20
3.91033407949752
30
0
41
1
10
6.8582259572463
20
3.93745155704647
30
0
41
1
10
6.85822188277592
20
3.9802653294407
30
0
41
1
10
6.85821976594761
20
3.99610130054933
30
0
41
1
10
6.85821617333187
20
4.01558421136448
30
0
41
1
10
6.85821466286609
20
4.02020845497879
30
0
41
1
10
6.85821355294979
20
4.02027164560582
30
0
0
SPLINE
5
D4
100
AcDbEntity
8
1
62
256
6
ByLayer
370
18
48
1
60
0
100
AcDbSpline
70
4
71
3
72
39
73
35
40
0
40
0
40
0
40
0
40
0.0625000000000019
40
0.0625000000000019
40
0.125000000000004
40
0.125000000000004
40
0.250000000000008
40
0.250000000000008
40
0.312500000000009
40
0.312500000000009
40
0.375000000000011
40
0.375000000000011
40
0.437500000000013
40
0.437500000000013
40
0.500000000000015
40
0.500000000000015
40
0.562500000000017
40
0.562500000000017
40
0.625000000000019
40
0.625000000000019
40
0.75000000000003
40
0.75000000000003
40
0.812500000000033
40
0.812500000000033
40
0.828125000000032
40
0.828125000000032
40
0.835937500000031
40
0.835937500000031
40
0.84375000000003
40
0.84375000000003
40
0.859375000000027
40
0.859375000000027
40
0.875000000000024
40
1
40
1
40
1
40
1
41
1
10
107.872154893451
20
-1.5680307111565
30
0
41
1
10
107.960356506898
20
-1.57812460395235
30
0
41
1
10
108.048403871824
20
-1.58541250623426
30
0
41
1
10
108.224158837747
20
-1.59380754254619
30
0
41
1
10
108.312078570554
20
-1.5948953402881
30
0
41
1
10
108.572231505349
20
-1.58794614954226
30
0
41
1
10
108.741652634983
20
-1.56991009749748
30
0
41
1
10
108.988564735864
20
-1.51874983749181
30
0
41
1
10
109.069721972376
20
-1.49786726843323
30
0
41
1
10
109.228999063256
20
-1.44596032858476
30
0
41
1
10
109.307170256023
20
-1.41510737641525
30
0
41
1
10
109.460569398839
20
-1.34357400135107
30
0
41
1
10
109.535501107999
20
-1.30279859359831
30
0
41
1
10
109.678655606707
20
-1.21268355340194
30
0
41
1
10
109.747319726107
20
-1.16315113161957
30
0
41
1
10
109.878837492052
20
-1.05516073541043
30
0
41
1
10
109.941689711901
20
-0.996700569415538
30
0
41
1
10
110.061575458587
20
-0.870842057679084
30
0
41
1
10
110.118795973904
20
-0.803177023247599
30
0
41
1
10
110.280288837228
20
-0.588788772142379
30
0
41
1
10
110.374213661253
20
-0.430977947222288
30
0
41
1
10
110.496096171199
20
-0.178425424066631
30
0
41
1
10
110.533555560838
20
-0.0916815932812654
30
0
41
1
10
110.576853475015
20
0.0195972643391542
30
0
41
1
10
110.585134382931
20
0.0421141043555906
30
0
41
1
10
110.598056833297
20
0.0755774683519803
30
0
41
1
10
110.602142311727
20
0.0868583236309917
30
0
41
1
10
110.606028402224
20
0.111859662461171
30
0
41
1
10
110.606194024014
20
0.125441509962343
30
0
41
1
10
110.602842777482
20
0.165608734094263
30
0
41
1
10
110.594969667461
20
0.192731444298971
30
0
41
1
10
110.58180189467
20
0.24676085804353
30
0
41
1
10
110.52245101254
20
0.48988182391119
30
0
41
1
10
110.462298976533
20
0.732904512158115
30
0
41
1
10
110.408370629627
20
0.948863943766753
30
0
0
SPLINE
5
D5
100
AcDbEntity
8
1
62
256
6
ByLayer
370
18
48
1
60
0
100
AcDbSpline
70
4
71
3
72
8
73
4
40
0
40
0
40
0
40
0
40
1
40
1
40
1
40
1
41
1
10
110.60868129542
20
4.18423975797796
30
0
41
1
10
110.549818871944
20
4.24157241442171
30
0
41
1
10
110.498911911904
20
4.27814041931097
30
0
41
1
10
110.455580267631
20
4.29274148421513
30
0
0
SPLINE
5
D6
100
AcDbEntity
8
1
62
256
6
ByLayer
370
18
48
1
60
0
100
AcDbSpline
70
4
71
3
72
8
73
4
40
0
40
0
40
0
40
0
40
1
40
1
40
1
40
1
41
1
10
111.977819084228
20
-0.137178257128682
30
0
41
1
10
111.981491735554
20
-0.108087207408516
30
0
41
1
10
111.989549176094
20
-0.0721072965496603
30
0
41
1
10
111.999966406639
20
-0.0340180549703462
30
0
0
SPLINE
5
D7
100
AcDbEntity
8
1
62
256
6
ByLayer
370
18
48
1
60
0
100
AcDbSpline
70
4
71
3
72
10
73
6
40
0
40
0
40
0
40
0
40
0.5
40
0.5
40
1
40
1
40
1
40
1
41
1
10
107.87215489345
20
-1.56803071115769
30
0
41
1
10
108.166342382947
20
-1.86936779448197
30
0
41
1
10
108.481001333345
20
-2.13611423244558
30
0
41
1
10
109.140436843056
20
-2.61871735827796
30
0
41
1
10
109.478918308791
20
-2.82997246652028
30
0
41
1
10
109.824062059618
20
-3.01685859797286
30
0
0
SPLINE
5
D8
100
AcDbEntity
8
1
62
256
6
ByLayer
370
18
48
1
60
0
100
AcDbSpline
70
4
71
3
72
14
73
10
40
0
40
0
40
0
40
0
40
0.131686973872933
40
0.131686973872933
40
0.268860776378089
40
0.268860776378089
40
0.817555986398706
40
0.817555986398706
40
1
40
1
40
1
40
1
41
1
10
83.0117371741196
20
-4.06743766304399
30
0
41
1
10
82.75178609361
20
-4.0676247567047
30
0
41
1
10
82.490976263814
20
-4.06228739904776
30
0
41
1
10
81.9578552169025
20
-4.04012425024411
30
0
41
1
10
81.6867281619285
20
-4.0228552975822
30
0
41
1
10
80.3342297350249
20
-3.90744397217549
30
0
41
1
10
79.2626238196765
20
-3.7220932026878
30
0
41
1
10
77.8307645802354
20
-3.36759922200039
30
0
41
1
10
77.4731587434011
20
-3.27022769217876
30
0
41
1
10
77.1147452377435
20
-3.16450820242523
30
0
0
SPLINE
5
D9
100
AcDbEntity
8
1
62
256
6
ByLayer
370
13
48
1
60
0
100
AcDbSpline
70
4
71
3
72
24
73
20
40
0
40
0
40
0
40
0
40
0.0452445473882264
40
0.0452445473882264
40
0.112775701752712
40
0.112775701752712
40
0.180306856117198
40
0.180306856117198
40
0.450431473575143
40
0.450431473575143
40
0.585493782304115
40
0.585493782304115
40
0.6530249366686
40
0.6530249366686
40
0.720556091033085
40
0.720556091033085
40
0.990680708491025
40
0.990680708491025
40
1
40
1
40
1
40
1
41
1
10
77.1147461968363
20
-3.16450848532409
30
0
41
1
10
76.9342001437007
20
-3.11125370083309
30
0
41
1
10
76.7534491441396
20
-3.05588061544171
30
0
41
1
10
76.3022427191552
20
-2.91275878826457
30
0
41
1
10
76.0314229253803
20
-2.82251875669789
30
0
41
1
10
75.4882559358757
20
-2.63338100198226
30
0
41
1
10
75.215806884105
20
-2.5344251824464
30
0
41
1
10
73.8600684904886
20
-2.02439240666371
30
0
41
1
10
72.7872948288905
20
-1.56374049450727
30
0
41
1
10
71.175871099148
20
-0.834975777549545
30
0
41
1
10
70.638374890368
20
-0.58570899829283
30
0
41
1
10
69.8291858871087
20
-0.207452500477501
30
0
41
1
10
69.5589187346119
20
-0.0807313913518328
30
0
41
1
10
69.016983115678
20
0.173267490391083
30
0
41
1
10
68.7448387854009
20
0.300800060651341
30
0
41
1
10
67.3852865270281
20
0.934425376063587
30
0
41
1
10
66.3110010115404
20
1.42443803225925
30
0
41
1
10
65.1996439216422
20
1.88617115456211
30
0
41
1
10
65.1625809033959
20
1.90151779588706
30
0
41
1
10
65.1255174326123
20
1.9168115326712
30
0
0
SPLINE
5
DA
100
AcDbEntity
8
1
62
256
6
ByLayer
370
18
48
1
60
0
100
AcDbSpline
70
4
71
3
72
16
73
12
40
0
40
0
40
0
40
0
40
0.0195614759739973
40
0.0195614759739973
40
0.159304720694973
40
0.159304720694973
40
0.43879121013692
40
0.43879121013692
40
0.997764189020816
40
0.997764189020816
40
1
40
1
40
1
40
1
41
1
10
28.8646607671375
20
-4.03175078689881
30
0
41
1
10
28.8265800947493
20
-4.03229523913132
30
0
41
1
10
28.7885151166922
20
-4.03272229291795
30
0
41
1
10
28.478702854158
20
-4.03524156543128
30
0
41
1
10
28.2077070657088
20
-4.03148673102118
30
0
41
1
10
27.3964626086788
20
-4.00259827971871
30
0
41
1
10
26.8578587900383
20
-3.95988073119787
30
0
41
1
10
25.2439875677497
20
-3.76419545264156
30
0
41
1
10
24.1705853139109
20
-3.54355699198825
30
0
41
1
10
23.0821718239683
20
-3.24231085977547
30
0
41
1
10
23.0778353891894
20
-3.24110940512185
30
0
41
1
10
23.0734986764779
20
-3.23990663928947
30
0
0
SPLINE
5
DB
100
AcDbEntity
8
1
62
256
6
ByLayer
370
13
48
1
60
0
100
AcDbSpline
70
4
71
3
72
20
73
16
40
0
40
0
40
0
40
0
40
0.132940145283866
40
0.132940145283866
40
0.266952349380345
40
0.266952349380345
40
0.534976757573303
40
0.534976757573303
40
0.601982859621542
40
0.601982859621542
40
0.668988961669781
40
0.668988961669781
40
0.803001165766261
40
0.803001165766261
40
1
40
1
40
1
40
1
41
1
10
23.0734986766191
20
-3.23990663932861
30
0
41
1
10
22.53572667672
20
-3.09075823358981
30
0
41
1
10
21.9936808722897
20
-2.9214476723468
30
0
41
1
10
20.9137313855583
20
-2.55228238394403
30
0
41
1
10
20.3743182213044
20
-2.35174055418932
30
0
41
1
10
18.7591015571923
20
-1.714285645107
30
0
41
1
10
17.6860666378823
20
-1.24169984967852
30
0
41
1
10
16.3339814697851
20
-0.62333423587566
30
0
41
1
10
16.0629810519201
20
-0.498367143271963
30
0
41
1
10
15.5193847671078
20
-0.246741400904511
30
0
41
1
10
15.2463277111777
20
-0.119872624663515
30
0
41
1
10
14.4307206115377
20
0.258871065228817
30
0
41
1
10
13.8902481228379
20
0.510276096873326
30
0
41
1
10
12.5586881692859
20
1.11844761709239
30
0
41
1
10
11.7690783424828
20
1.46880991437041
30
0
41
1
10
10.9774561827042
20
1.79758979248203
30
0
0
SPLINE
5
DC
100
AcDbEntity
8
1
62
256
6
ByLayer
370
18
48
1
60
0
100
AcDbSpline
70
4
71
3
72
46
73
42
40
0
40
0
40
0
40
0
40
0.0909918129086996
40
0.0909918129086996
40
0.13648771936305
40
0.13648771936305
40
0.1819836258174
40
0.1819836258174
40
0.272975438726102
40
0.272975438726102
40
0.295723391953277
40
0.295723391953277
40
0.318471345180452
40
0.318471345180452
40
0.363967251634801
40
0.363967251634801
40
0.409463158089151
40
0.409463158089151
40
0.4549590645435
40
0.4549590645435
40
0.500454970997849
40
0.500454970997849
40
0.545950877452199
40
0.545950877452199
40
0.591446783906548
40
0.591446783906548
40
0.636942690360897
40
0.636942690360897
40
0.727934503269596
40
0.727934503269596
40
0.750682456496771
40
0.750682456496771
40
0.773430409723946
40
0.773430409723946
40
0.818926316178297
40
0.818926316178297
40
0.864422222632647
40
0.864422222632647
40
0.909918129086997
40
0.909918129086997
40
1
40
1
40
1
40
1
41
1
10
9.62010283922348
20
1.78328575269856
30
0
41
1
10
10.1485645797788
20
1.54344829782835
30
0
41
1
10
10.6767128605555
20
1.3015838671495
30
0
41
1
10
11.4660112174002
20
0.930910859055871
30
0
41
1
10
11.7285810903879
20
0.805948490616061
30
0
41
1
10
12.2520856838035
20
0.55200508740046
30
0
41
1
10
12.5127306189019
20
0.42241408463309
30
0
41
1
10
13.2973760289821
20
0.0383573850645291
30
0
41
1
10
13.8221412428954
20
-0.215409620121079
30
0
41
1
10
14.4780753654987
20
-0.534200735520471
30
0
41
1
10
14.6092721353714
20
-0.598015952539129
30
0
41
1
10
14.8715766014579
20
-0.725995014417776
30
0
41
1
10
15.0025606702458
20
-0.790421281533867
30
0
41
1
10
15.3967123448073
20
-0.981406416248291
30
0
41
1
10
15.6606924961497
20
-1.10648613089327
30
0
41
1
10
16.1905990767888
20
-1.35315747472473
30
0
41
1
10
16.4566152339984
20
-1.47511302378271
30
0
41
1
10
16.9856442298749
20
-1.71428919472947
30
0
41
1
10
17.2493581423204
20
-1.83149305500513
30
0
41
1
10
17.7738375998183
20
-2.06351314671389
30
0
41
1
10
18.0360365590145
20
-2.17555628270742
30
0
41
1
10
18.560729319122
20
-2.39147188704928
30
0
41
1
10
18.8230533015526
20
-2.49566545633729
30
0
41
1
10
19.3470561527187
20
-2.6976318133533
30
0
41
1
10
19.6088715418246
20
-2.79517631799891
30
0
41
1
10
20.1316359674819
20
-2.98396556420653
30
0
41
1
10
20.3922889408467
20
-3.07557101496511
30
0
41
1
10
21.1780038919573
20
-3.33332411065035
30
0
41
1
10
21.70471426936
20
-3.48593956471959
30
0
41
1
10
22.3647213497063
20
-3.65494026602858
30
0
41
1
10
22.4968123677367
20
-3.6876265613067
30
0
41
1
10
22.7610715896301
20
-3.75081382619143
30
0
41
1
10
22.8932992654778
20
-3.78141989540194
30
0
41
1
10
23.2899874484505
20
-3.86814062246788
30
0
41
1
10
23.5542080741841
20
-3.91977179579254
30
0
41
1
10
24.0817266877656
20
-4.01176073709169
30
0
41
1
10
24.3449017603421
20
-4.05219761014263
30
0
41
1
10
24.8699843540027
20
-4.12205971157204
30
0
41
1
10
25.1319809398784
20
-4.15146600386242
30
0
41
1
10
25.9094290638059
20
-4.22269340205619
30
0
41
1
10
26.4279483357256
20
-4.2462661999476
30
0
41
1
10
26.946596192372
20
-4.24767228867216
30
0
0
SPLINE
5
DD
100
AcDbEntity
8
1
62
256
6
ByLayer
370
18
48
1
60
0
100
AcDbSpline
70
4
71
3
72
102
73
98
40
0
40
0
40
0
40
0
40
0.020921532267914
40
0.020921532267914
40
0.0427146674989862
40
0.0427146674989862
40
0.0645078027300583
40
0.0645078027300583
40
0.0863009379611305
40
0.0863009379611305
40
0.0971975055766661
40
0.0971975055766661
40
0.108094073192202
40
0.108094073192202
40
0.129887208423274
40
0.129887208423274
40
0.151680343654346
40
0.151680343654346
40
0.173473478885418
40
0.173473478885418
40
0.184370046500954
40
0.184370046500954
40
0.195266614116489
40
0.195266614116489
40
0.238852884578631
40
0.238852884578631
40
0.260646019809702
40
0.260646019809702
40
0.282439155040773
40
0.282439155040773
40
0.304232290271845
40
0.304232290271845
40
0.31512885788738
40
0.31512885788738
40
0.326025425502916
40
0.326025425502916
40
0.369611695965058
40
0.369611695965058
40
0.391404831196129
40
0.391404831196129
40
0.402301398811664
40
0.402301398811664
40
0.413197966427199
40
0.413197966427199
40
0.456784236889341
40
0.456784236889341
40
0.478577372120413
40
0.478577372120413
40
0.500370507351484
40
0.500370507351484
40
0.522163642582556
40
0.522163642582556
40
0.533060210198091
40
0.533060210198091
40
0.543956777813626
40
0.543956777813626
40
0.587543048275767
40
0.587543048275767
40
0.609336183506837
40
0.609336183506837
40
0.631129318737907
40
0.631129318737907
40
0.652922453968978
40
0.652922453968978
40
0.674715589200048
40
0.674715589200048
40
0.696508724431118
40
0.696508724431118
40
0.718301859662189
40
0.718301859662189
40
0.740094994893259
40
0.740094994893259
40
0.750991562508794
40
0.750991562508794
40
0.76188813012433
40
0.76188813012433
40
0.805474400586475
40
0.805474400586475
40
0.827267535817547
40
0.827267535817547
40
0.849060671048619
40
0.849060671048619
40
0.892646941510764
40
0.892646941510764
40
0.9035435091263
40
0.9035435091263
40
0.914440076741836
40
0.914440076741836
40
0.93623321197291
40
0.93623321197291
40
0.958026347203983
40
0.958026347203983
40
0.968922914819519
40
0.968922914819519
40
0.979819482435055
40
0.979819482435055
40
1
40
1
40
1
40
1
41
1
10
45.2146866694019
20
2.1700510311334
30
0
41
1
10
45.4661730076634
20
2.27578629013104
30
0
41
1
10
45.717401305702
20
2.37885796245612
30
0
41
1
10
46.2294771720154
20
2.5844236025427
30
0
41
1
10
46.4897866051288
20
2.68744475843599
30
0
41
1
10
47.0125354383717
20
2.88311660189933
30
0
41
1
10
47.2747114045427
20
2.97627254799451
30
0
41
1
10
47.7998892559453
20
3.15456488326231
30
0
41
1
10
48.0628426448238
20
3.23975818645573
30
0
41
1
10
48.4578494352209
20
3.36144523555342
30
0
41
1
10
48.5896056496292
20
3.40100224902693
30
0
41
1
10
48.8531880417344
20
3.47819129758636
30
0
41
1
10
48.9848658071659
20
3.51600391229894
30
0
41
1
10
49.3810414327102
20
3.62516319951692
30
0
41
1
10
49.6460751532855
20
3.69217560844933
30
0
41
1
10
50.1742128813089
20
3.81478438737449
30
0
41
1
10
50.4376897580234
20
3.87066021708208
30
0
41
1
10
50.9632128270728
20
3.97189295361227
30
0
41
1
10
51.2253870285014
20
4.0171636614057
30
0
41
1
10
51.6170626250624
20
4.07729248504356
30
0
41
1
10
51.747382181053
20
4.09599878904598
30
0
41
1
10
52.0084628419825
20
4.13022821627553
30
0
41
1
10
52.1390959237278
20
4.14583639472767
30
0
41
1
10
52.7926969081383
20
4.2165473465945
30
0
41
1
10
53.3164274350062
20
4.25025151988166
30
0
41
1
10
54.1012086545047
20
4.26641966611069
30
0
41
1
10
54.3621978544589
20
4.26591008955376
30
0
41
1
10
54.8869823442971
20
4.25299648566531
30
0
41
1
10
55.1504811668144
20
4.24071608796893
30
0
41
1
10
55.6788995750671
20
4.20451044894924
30
0
41
1
10
55.9443704322291
20
4.18047755234494
30
0
41
1
10
56.3412230325803
20
4.13563715391038
30
0
41
1
10
56.4732287111493
20
4.11923158883832
30
0
41
1
10
56.7365671583183
20
4.08340145923154
30
0
41
1
10
56.867752595948
20
4.06387094549382
30
0
41
1
10
57.5239495943179
20
3.95986945383814
30
0
41
1
10
58.049033347607
20
3.85647824804306
30
0
41
1
10
58.8339113091621
20
3.67027098181785
30
0
41
1
10
59.0952621010031
20
3.60314230890148
30
0
41
1
10
59.4861034004696
20
3.4937272437439
30
0
41
1
10
59.6162624887632
20
3.45587155291105
30
0
41
1
10
59.8771516454881
20
3.37840523147273
30
0
41
1
10
60.0077654881151
20
3.33866051818441
30
0
41
1
10
60.6616357800032
20
3.13495624264991
30
0
41
1
10
61.1867382716302
20
2.95560992283734
30
0
41
1
10
61.975397214212
20
2.65799048696428
30
0
41
1
10
62.2380275370697
20
2.55313408680743
30
0
41
1
10
62.7667745844432
20
2.33888845818686
30
0
41
1
10
63.0321049404192
20
2.22920117068119
30
0
41
1
10
63.5602073912678
20
2.00493445222165
30
0
41
1
10
63.8234969371793
20
1.89010580864499
30
0
41
1
10
64.2172855030084
20
1.71381179132931
30
0
41
1
10
64.348344022223
20
1.65434587094489
30
0
41
1
10
64.6099360666464
20
1.53377359676563
30
0
41
1
10
64.7403286514557
20
1.47238669778699
30
0
41
1
10
65.3930721162189
20
1.16546068225253
30
0
41
1
10
65.9166238256973
20
0.91783533070037
30
0
41
1
10
66.7009459300723
20
0.537414328950064
30
0
41
1
10
66.9624176644287
20
0.409505972550392
30
0
41
1
10
67.4843280335683
20
0.149095318233122
30
0
41
1
10
67.7457398144567
20
0.0186160068280685
30
0
41
1
10
68.2709556570983
20
-0.239686682156702
30
0
41
1
10
68.5344325280931
20
-0.368194476776637
30
0
41
1
10
69.0624600182296
20
-0.625370077809947
30
0
41
1
10
69.327581683187
20
-0.753970695099042
30
0
41
1
10
69.8564656800019
20
-1.01050420061483
30
0
41
1
10
70.1196062595999
20
-1.13912506248173
30
0
41
1
10
70.6474707465867
20
-1.38881638277371
30
0
41
1
10
70.9118183935981
20
-1.51067792823952
30
0
41
1
10
71.44046211259
20
-1.75023526807561
30
0
41
1
10
71.7047678298736
20
-1.86790336040383
30
0
41
1
10
72.1011789893092
20
-2.04121987330774
30
0
41
1
10
72.2332925856513
20
-2.09848905477446
30
0
41
1
10
72.4973568858163
20
-2.21219872833751
30
0
41
1
10
72.6292376700107
20
-2.26885926812665
30
0
41
1
10
73.290043841789
20
-2.54561801750921
30
0
41
1
10
73.8205575862053
20
-2.74927372154369
30
0
41
1
10
74.6156730341403
20
-3.0337733846803
30
0
41
1
10
74.8801738640806
20
-3.1245554752129
30
0
41
1
10
75.4068340448367
20
-3.29941429554401
30
0
41
1
10
75.6705554973697
20
-3.38134916224294
30
0
41
1
10
76.4630228546358
20
-3.6112617523747
30
0
41
1
10
76.9923219374582
20
-3.74451672257763
30
0
41
1
10
77.6534063945506
20
-3.88704620500468
30
0
41
1
10
77.7853174336905
20
-3.91445244018496
30
0
41
1
10
78.0491843639671
20
-3.96610255126237
30
0
41
1
10
78.1811832370338
20
-3.9903826622479
30
0
41
1
10
78.5773876529593
20
-4.05871204921954
30
0
41
1
10
78.8418267521782
20
-4.09826866343082
30
0
41
1
10
79.3704043995376
20
-4.16621086953737
30
0
41
1
10
79.6346122295579
20
-4.19453670357115
30
0
41
1
10
80.0307012855479
20
-4.22842881926917
30
0
41
1
10
80.1626860250287
20
-4.23829572531508
30
0
41
1
10
80.4263835148008
20
-4.25513266818683
30
0
41
1
10
80.558143928141
20
-4.26207296823009
30
0
41
1
10
80.9350135837174
20
-4.27739527711611
30
0
41
1
10
81.1803314716294
20
-4.28208696058098
30
0
41
1
10
81.4253996908982
20
-4.28172183191242
30
0
0
SPLINE
5
DE
100
AcDbEntity
8
1
62
256
6
ByLayer
370
18
48
1
60
0
100
AcDbSpline
70
4
71
3
72
34
73
30
40
0
40
0
40
0
40
0
40
0.141139391191685
40
0.141139391191685
40
0.176925249892032
40
0.176925249892032
40
0.21271110859238
40
0.21271110859238
40
0.284282825993074
40
0.284282825993074
40
0.355854543393768
40
0.355854543393768
40
0.427426260794464
40
0.427426260794464
40
0.570569695595858
40
0.570569695595858
40
0.606355554296204
40
0.606355554296204
40
0.642141412996549
40
0.642141412996549
40
0.71371313039724
40
0.71371313039724
40
0.856856565198624
40
0.856856565198624
40
0.892642423898969
40
0.892642423898969
40
0.928428282599314
40
0.928428282599314
40
1
40
1
40
1
40
1
41
1
10
99.6245496652729
20
2.18995404198154
30
0
41
1
10
100.140412027567
20
2.40876321795537
30
0
41
1
10
100.65594330392
20
2.61456955049414
30
0
41
1
10
101.300100673646
20
2.85851339147041
30
0
41
1
10
101.43013921365
20
2.90733752390759
30
0
41
1
10
101.690861791424
20
3.00217482696934
30
0
41
1
10
101.82142862393
20
3.04837584995076
30
0
41
1
10
102.213746244739
20
3.18338488571047
30
0
41
1
10
102.476092388983
20
3.26865193198139
30
0
41
1
10
103.001566198258
20
3.43088236385967
30
0
41
1
10
103.264793623329
20
3.50770178049345
30
0
41
1
10
103.792045687739
20
3.65271202010112
30
0
41
1
10
104.056053622363
20
3.72161565092131
30
0
41
1
10
104.846966086281
20
3.90888973890506
30
0
41
1
10
105.373195684712
20
4.00991571484948
30
0
41
1
10
106.027506739646
20
4.10965198405071
30
0
41
1
10
106.158217444633
20
4.12823302287057
30
0
41
1
10
106.419220859002
20
4.16268532790582
30
0
41
1
10
106.549377910019
20
4.17861744082563
30
0
41
1
10
106.939926255094
20
4.22189877003422
30
0
41
1
10
107.200772138468
20
4.2446257468398
30
0
41
1
10
107.984379762129
20
4.29538312417415
30
0
41
1
10
108.50769223678
20
4.3064101273749
30
0
41
1
10
109.161284449527
20
4.29042027035788
30
0
41
1
10
109.291838377229
20
4.28567777054116
30
0
41
1
10
109.553760555366
20
4.27325810847833
30
0
41
1
10
109.685007978613
20
4.26557496154251
30
0
41
1
10
110.079606253324
20
4.23819014381695
30
0
41
1
10
110.343784425853
20
4.21418127656
30
0
41
1
10
110.60868129542
20
4.18423975797799
30
0
0
SPLINE
5
DF
100
AcDbEntity
8
1
62
256
6
ByLayer
370
18
48
1
60
0
100
AcDbSpline
70
4
71
3
72
51
73
47
40
0
40
0
40
0
40
0
40
0.062500000000003
40
0.062500000000003
40
0.125000000000006
40
0.125000000000006
40
0.187500000000009
40
0.187500000000009
40
0.218750000000011
40
0.218750000000011
40
0.250000000000012
40
0.250000000000012
40
0.312500000000015
40
0.312500000000015
40
0.343750000000017
40
0.343750000000017
40
0.375000000000018
40
0.375000000000018
40
0.437500000000021
40
0.437500000000021
40
0.500000000000024
40
0.500000000000024
40
0.562500000000027
40
0.562500000000027
40
0.62500000000003
40
0.62500000000003
40
0.687500000000033
40
0.687500000000033
40
0.695312500000032
40
0.695312500000032
40
0.699218750000031
40
0.699218750000031
40
0.70312500000003
40
0.70312500000003
40
0.707031250000029
40
0.707031250000029
40
0.710937500000028
40
0.718750000000025
40
0.718750000000025
40
0.750000000000021
40
0.750000000000021
40
0.812500000000016
40
0.812500000000016
40
0.875000000000011
40
0.875000000000011
40
1
40
1
40
1
40
1
41
1
10
6.61047389172518
20
-2.69311280260732
30
0
41
1
10
6.53895675252662
20
-2.58184164038377
30
0
41
1
10
6.47157581372889
20
-2.46444030859527
30
0
41
1
10
6.34638485336362
20
-2.21591122843847
30
0
41
1
10
6.28826939839652
20
-2.08384133717331
30
0
41
1
10
6.18635688630712
20
-1.81067724867447
30
0
41
1
10
6.14226021802318
20
-1.6692350592171
30
0
41
1
10
6.08807263787023
20
-1.44904574504653
30
0
41
1
10
6.07201218317016
20
-1.37430689900722
30
0
41
1
10
6.04431045682344
20
-1.22195145335013
30
0
41
1
10
6.03263986859005
20
-1.14398191849699
30
0
41
1
10
6.00543057211311
20
-0.909205791472431
30
0
41
1
10
5.99745026874132
20
-0.750986166856649
30
0
41
1
10
6.00234919210268
20
-0.511090689227728
30
0
41
1
10
6.00680356185796
20
-0.43069675963099
30
0
41
1
10
6.02175295096194
20
-0.269035693460324
30
0
41
1
10
6.03230164826115
20
-0.187694021855975
30
0
41
1
10
6.07261304119535
20
0.0523896254591989
30
0
41
1
10
6.11113384010591
20
0.208957094445566
30
0
41
1
10
6.21116487860377
20
0.515286939460879
30
0
41
1
10
6.2733693648847
20
0.666189881934628
30
0
41
1
10
6.41634338631994
20
0.952311074490183
30
0
41
1
10
6.49716593050584
20
1.08835915754426
30
0
41
1
10
6.67562677126716
20
1.34817410127181
30
0
41
1
10
6.7735008718337
20
1.4720854268906
30
0
41
1
10
6.98125175073119
20
1.70522139411619
30
0
41
1
10
7.09156211878377
20
1.81505326818601
30
0
41
1
10
7.22106666775682
20
1.93126974217836
30
0
41
1
10
7.23557989802714
20
1.94403814040896
30
0
41
1
10
7.25720066746743
20
1.9632786377453
30
0
41
1
10
7.26493544465765
20
1.96937486520719
30
0
41
1
10
7.28297797262036
20
1.97822301823149
30
0
41
1
10
7.29273066263198
20
1.98117030251297
30
0
41
1
10
7.31313662338229
20
1.9843628434169
30
0
41
1
10
7.32344502779762
20
1.9850425074934
30
0
41
1
10
7.34400498787684
20
1.98689571806068
30
0
41
1
10
7.37485365272539
20
1.98959798825817
30
0
41
1
10
7.40572929653808
20
1.99206935536512
30
0
41
1
10
7.50870377362173
20
1.99979715948393
30
0
41
1
10
7.59115744452527
20
2.00434010525177
30
0
41
1
10
7.83873597982398
20
2.01318300817985
30
0
41
1
10
8.00442225081005
20
2.01268175415552
30
0
41
1
10
8.33303646251011
20
1.99944556567604
30
0
41
1
10
8.49630265859133
20
1.98674906207998
30
0
41
1
10
8.98307653452932
20
1.93071661384241
30
0
41
1
10
9.30357064786421
20
1.86958535021293
30
0
41
1
10
9.62010283922348
20
1.7832857526987
30
0
0
SPLINE
5
E0
100
AcDbEntity
8
1
62
256
6
ByLayer
370
18
48
1
60
0
100
AcDbSpline
70
4
71
3
72
8
73
4
40
0
40
0
40
0
40
0
40
1
40
1
40
1
40
1
41
1
10
111.977819084228
20
0.137178257128852
30
0
41
1
10
111.981491735554
20
0.108087207410875
30
0
41
1
10
111.989549176093
20
0.0721072965552594
30
0
41
1
10
111.999966406636
20
0.0340180549791853
30
0
0
SPLINE
5
E1
100
AcDbEntity
8
1
62
256
6
ByLayer
370
18
48
1
60
0
100
AcDbSpline
70
4
71
3
72
58
73
54
40
0
40
0
40
0
40
0
40
0.0292175499496257
40
0.0292175499496257
40
0.0584350998992514
40
0.0584350998992514
40
0.1168701997985
40
0.1168701997985
40
0.146087749748126
40
0.146087749748126
40
0.175305299697752
40
0.175305299697752
40
0.233740399597003
40
0.233740399597003
40
0.262957949546629
40
0.262957949546629
40
0.292175499496254
40
0.292175499496254
40
0.350610599395506
40
0.350610599395506
40
0.379828149345133
40
0.379828149345133
40
0.40904569929476
40
0.40904569929476
40
0.467480799194013
40
0.467480799194013
40
0.49669834914364
40
0.49669834914364
40
0.525915899093267
40
0.525915899093267
40
0.584350998992521
40
0.584350998992521
40
0.613568548942148
40
0.613568548942148
40
0.642786098891775
40
0.642786098891775
40
0.701221198791029
40
0.701221198791029
40
0.730438748740656
40
0.730438748740656
40
0.759656298690283
40
0.759656298690283
40
0.818091398589536
40
0.818091398589536
40
0.847308948539163
40
0.847308948539163
40
0.87652649848879
40
0.87652649848879
40
0.934961598388044
40
0.934961598388044
40
0.993396698287298
40
0.993396698287298
40
1
40
1
40
1
40
1
41
1
10
110.455580267631
20
-4.29274148421507
30
0
41
1
10
110.18575145186
20
-4.30031878340102
30
0
41
1
10
109.915929534969
20
-4.30161030000684
30
0
41
1
10
109.375922627848
20
-4.29166113532301
30
0
41
1
10
109.105478894261
20
-4.28039922408155
30
0
41
1
10
108.295183939872
20
-4.22799097045834
30
0
41
1
10
107.756602885491
20
-4.16826478715498
30
0
41
1
10
106.948336658341
20
-4.04298821982525
30
0
41
1
10
106.678860867779
20
-3.99527589812473
30
0
41
1
10
106.139284906787
20
-3.88826812261425
30
0
41
1
10
105.868875411082
20
-3.82890484256831
30
0
41
1
10
105.058481441974
20
-3.63453807444131
30
0
41
1
10
104.519798943404
20
-3.48340437356893
30
0
41
1
10
103.711476970443
20
-3.22761665614164
30
0
41
1
10
103.44197846771
20
-3.1375162320254
30
0
41
1
10
102.902362317473
20
-2.94829287722328
30
0
41
1
10
102.631936784618
20
-2.84907365035755
30
0
41
1
10
101.821482242412
20
-2.53959869503336
30
0
41
1
10
101.282769651985
20
-2.31791602659459
30
0
41
1
10
100.474313004549
20
-1.96716080366875
30
0
41
1
10
100.204762758098
20
-1.84720552812715
30
0
41
1
10
99.6650766189139
20
-1.60203020745288
30
0
41
1
10
99.3946479166555
20
-1.47667805921071
30
0
41
1
10
98.5840826089251
20
-1.09496406106723
30
0
41
1
10
98.045317580412
20
-0.833433740710632
30
0
41
1
10
97.2367959823822
20
-0.436142318074644
30
0
41
1
10
96.9672297399275
20
-0.302873023899252
30
0
41
1
10
96.4275111463888
20
-0.0355987359419032
30
0
41
1
10
96.1570741146827
20
0.0985405853939767
30
0
41
1
10
95.346376399639
20
0.499677592678751
30
0
41
1
10
94.8075565985292
20
0.764899308008921
30
0
41
1
10
93.9989656105298
20
1.15380078338478
30
0
41
1
10
93.7293700403067
20
1.28193740391677
30
0
41
1
10
93.1896326802162
20
1.53439528852607
30
0
41
1
10
92.9192153670649
20
1.65883347110591
30
0
41
1
10
92.1084121940548
20
2.02400694357112
30
0
41
1
10
91.5695303668443
20
2.25625386061992
30
0
41
1
10
90.7608655196327
20
2.58302245871539
30
0
41
1
10
90.491253080414
20
2.6883470972009
30
0
41
1
10
89.951485536037
20
2.8910877159247
30
0
41
1
10
89.6810623065195
20
2.98858327979215
30
0
41
1
10
88.8701443632696
20
3.26732723605511
30
0
41
1
10
88.3312007719374
20
3.43452090148568
30
0
41
1
10
87.5224565285207
20
3.65403123493567
30
0
41
1
10
87.2528229478845
20
3.72199490884375
30
0
41
1
10
86.7130086061397
20
3.84701496194802
30
0
41
1
10
86.4425908893696
20
3.90412934931757
30
0
41
1
10
85.631583557581
20
4.05798593563097
30
0
41
1
10
85.0925715306169
20
4.1370464455872
30
0
41
1
10
84.0141400282503
20
4.24636355799748
30
0
41
1
10
83.4742364998017
20
4.2766445049692
30
0
41
1
10
82.8723505297294
20
4.28238255624026
30
0
41
1
10
82.8112639061431
20
4.28264463971053
30
0
41
1
10
82.7501968038192
20
4.28258699194004
30
0
0
SPLINE
5
E2
100
AcDbEntity
8
1
62
256
6
ByLayer
370
18
48
1
60
0
100
AcDbSpline
70
4
71
3
72
44
73
40
40
0
40
0
40
0
40
0
40
0.0402768712358036
40
0.0402768712358036
40
0.0945567869652591
40
0.0945567869652591
40
0.148836702694715
40
0.148836702694715
40
0.203116618424171
40
0.203116618424171
40
0.257396534153627
40
0.257396534153627
40
0.311676449883082
40
0.311676449883082
40
0.365956365612538
40
0.365956365612538
40
0.420236281341993
40
0.420236281341993
40
0.474516197071449
40
0.474516197071449
40
0.528796112800905
40
0.528796112800905
40
0.583076028530361
40
0.583076028530361
40
0.637355944259816
40
0.637355944259816
40
0.691635859989272
40
0.691635859989272
40
0.745915775718728
40
0.745915775718728
40
0.800195691448183
40
0.800195691448183
40
0.854475607177639
40
0.854475607177639
40
0.908755522907095
40
0.908755522907095
40
0.963035438636551
40
0.963035438636551
40
1
40
1
40
1
40
1
41
1
10
58.2153343925568
20
-4.06747498877317
30
0
41
1
10
57.8147762090577
20
-4.12692561642424
30
0
41
1
10
57.413889541231
20
-4.17335514334522
30
0
41
1
10
56.4708121682263
20
-4.25059585478891
30
0
41
1
10
55.9312524376869
20
-4.2700952807092
30
0
41
1
10
54.8519482583434
20
-4.25935539583952
30
0
41
1
10
54.31211236373
20
-4.22910841790176
30
0
41
1
10
53.229271324704
20
-4.11924448110264
30
0
41
1
10
52.6895751064775
20
-4.04004807133219
30
0
41
1
10
51.6102420189292
20
-3.83565964873168
30
0
41
1
10
51.0703632649381
20
-3.710563368268
30
0
41
1
10
49.9873740593865
20
-3.41747212500727
30
0
41
1
10
49.4476155375584
20
-3.25062143772797
30
0
41
1
10
48.3681784556246
20
-2.88103938596348
30
0
41
1
10
47.8283170833196
20
-2.6785011931355
30
0
41
1
10
46.7451877010756
20
-2.24287079879707
30
0
41
1
10
46.2053756470877
20
-2.01151767603867
30
0
41
1
10
45.1257929074951
20
-1.52813931708971
30
0
41
1
10
44.5859875418472
20
-1.27617434516409
30
0
41
1
10
43.5027270942618
20
-0.758502516746347
30
0
41
1
10
42.9628417872666
20
-0.494739825404281
30
0
41
1
10
41.8831568212001
20
0.0354377992825903
30
0
41
1
10
41.3433041720672
20
0.301786966836176
30
0
41
1
10
40.2599533926302
20
0.829589841613256
30
0
41
1
10
39.7199695926654
20
1.08922892316852
30
0
41
1
10
38.6401886378549
20
1.59270011822662
30
0
41
1
10
38.1002949530008
20
1.83651543155864
30
0
41
1
10
37.0169013079565
20
2.30138300000078
30
0
41
1
10
36.4767981202568
20
2.52086197824525
30
0
41
1
10
35.3969162865576
20
2.92784105738005
30
0
41
1
10
34.8569870356365
20
3.11534748214584
30
0
41
1
10
33.7735159913295
20
3.45283998622961
30
0
41
1
10
33.2332800975412
20
3.60173622865904
30
0
41
1
10
32.1533204370203
20
3.85588844678216
30
0
41
1
10
31.6133352831246
20
3.96111308940974
30
0
41
1
10
30.5298477771771
20
4.1246144539665
30
0
41
1
10
29.98951082757
20
4.18233572718216
30
0
41
1
10
29.0817003741261
20
4.23792115647407
30
0
41
1
10
28.7139481697504
20
4.24901658983313
30
0
41
1
10
28.3456439511239
20
4.24858165276052
30
0
0
SPLINE
5
E3
100
AcDbEntity
8
1
62
256
6
ByLayer
370
18
48
1
60
0
100
AcDbSpline
70
4
71
3
72
18
73
14
40
0
40
0
40
0
40
0
40
0.250000000000006
40
0.250000000000006
40
0.375000000000005
40
0.375000000000005
40
0.500000000000004
40
0.500000000000004
40
0.750000000000002
40
0.750000000000002
40
0.875000000000001
40
0.875000000000001
40
1
40
1
40
1
40
1
41
1
10
110.459465898634
20
-4.07721420482793
30
0
41
1
10
110.374346066532
20
-4.0635820259765
30
0
41
1
10
110.29553598539
20
-4.03204286600109
30
0
41
1
10
110.187624696194
20
-3.95549199975807
30
0
41
1
10
110.153290035748
20
-3.92491176349054
30
0
41
1
10
110.089576600874
20
-3.85477910747164
30
0
41
1
10
110.060026621538
20
-3.81514721290702
30
0
41
1
10
109.978327781841
20
-3.68249370298022
30
0
41
1
10
109.933071634627
20
-3.57582981908504
30
0
41
1
10
109.880081088429
20
-3.3863559772069
30
0
41
1
10
109.86489226003
20
-3.31796427934378
30
0
41
1
10
109.840279395632
20
-3.17351219743844
30
0
41
1
10
109.830765514014
20
-3.09722764421747
30
0
41
1
10
109.824062059618
20
-3.01685859797286
30
0
0
SPLINE
5
E4
100
AcDbEntity
8
1
62
256
6
ByLayer
370
18
48
1
60
0
100
AcDbSpline
70
4
71
3
72
12
73
8
40
0
40
0
40
0
40
0
40
0.250000000000016
40
0.250000000000016
40
0.500000000000031
40
0.500000000000031
40
1
40
1
40
1
40
1
41
1
10
6.74808590945591
20
3.38182911736777
30
0
41
1
10
6.73135667031101
20
3.38674713171824
30
0
41
1
10
6.71584495755337
20
3.39266627104419
30
0
41
1
10
6.68716423973663
20
3.40637402137955
30
0
41
1
10
6.6738967400396
20
3.41426625335043
30
0
41
1
10
6.63950589913804
20
3.43966706668877
30
0
41
1
10
6.6229679642301
20
3.45949812185165
30
0
41
1
10
6.61456935711738
20
3.4798855812677
30
0
0
SPLINE
5
E5
100
AcDbEntity
8
SK1
62
256
6
ByLayer
370
18
48
1
60
0
100
AcDbSpline
70
4
71
3
72
10
73
6
40
0
40
0
40
0
40
0
40
0.5
40
0.5
40
1
40
1
40
1
40
1
41
1
10
-40
20
0.582482335126286
30
0
41
1
10
-39.8301222483975
20
0.771908375032496
30
0
41
1
10
-39.6563211405235
20
0.960175937659898
30
0
41
1
10
-39.3053871289517
20
1.3357272598918
30
0
41
1
10
-39.1281413792797
20
1.5229851266283
30
0
41
1
10
-38.95
20
1.70996185586975
30
0
0
SPLINE
5
E6
100
AcDbEntity
8
SK1
62
256
6
ByLayer
370
18
48
1
60
0
100
AcDbSpline
70
4
71
3
72
10
73
6
40
0
40
0
40
0
40
0
40
0.5
40
0.5
40
1
40
1
40
1
40
1
41
1
10
-38.95
20
3.73711026837464
30
0
41
1
10
-39.1281008449791
20
3.55017608382994
30
0
41
1
10
-39.3053078622005
20
3.36295967976875
30
0
41
1
10
-39.6562288255455
20
2.98742396023218
30
0
41
1
10
-39.8300491951728
20
2.79913824719247
30
0
41
1
10
-40
20
2.6096307476312
30
0
0
SPLINE
5
E7
100
AcDbEntity
8
SK1
62
256
6
ByLayer
370
18
48
1
60
0
100
AcDbSpline
70
4
71
3
72
14
73
10
40
0
40
0
40
0
40
0
40
0.124999999999998
40
0.124999999999998
40
0.249999999999996
40
0.249999999999996
40
0.499999999999997
40
0.499999999999997
40
1
40
1
40
1
40
1
41
1
10
-38.85
20
3.77534754733625
30
0
41
1
10
-38.85
20
3.78256553124879
30
0
41
1
10
-38.8517453396944
20
3.78735556883461
30
0
41
1
10
-38.8568901241517
20
3.79330732748323
30
0
41
1
10
-38.860211966304
20
3.79456939557303
30
0
41
1
10
-38.8714485682308
20
3.79544908430523
30
0
41
1
10
-38.8802054040538
20
3.79221934576322
30
0
41
1
10
-38.9082792076556
20
3.77688389032806
30
0
41
1
10
-38.9286347141249
20
3.75953521696542
30
0
41
1
10
-38.95
20
3.73711026837464
30
0
0
SPLINE
5
E8
100
AcDbEntity
8
SK1
62
256
6
ByLayer
370
18
48
1
60
0
100
AcDbSpline
70
4
71
3
72
14
73
10
40
0
40
0
40
0
40
0
40
0.500000000000002
40
0.500000000000002
40
0.750000000000001
40
0.750000000000001
40
0.875
40
0.875
40
1
40
1
40
1
40
1
41
1
10
-38.9500000000001
20
1.70996185586969
30
0
41
1
10
-38.9287234691649
20
1.73229364740092
30
0
41
1
10
-38.9083432483059
20
1.75957757628623
30
0
41
1
10
-38.880223151313
20
1.80951425929189
30
0
41
1
10
-38.8713218079587
20
1.82765495713267
30
0
41
1
10
-38.8602667834558
20
1.85706581925479
30
0
41
1
10
-38.8569157654531
20
1.8673649951121
30
0
41
1
10
-38.851744720606
20
1.88896252661525
30
0
41
1
10
-38.8499999999999
20
1.90015379609281
30
0
41
1
10
-38.8499999999999
20
1.9103710078318
30
0
0
LINE
5
76
100
AcDbEntity
8
81
62
256
6
ByLayer
370
18
48
1
60
0
100
AcDbLine
10
112
20
0
30
0
11
117
21
0
31
0
39
0
210
0
220
0
230
1
0
LINE
5
77
100
AcDbEntity
8
1
62
256
6
ByLayer
370
18
48
1
60
0
100
AcDbLine
10
6.61044
20
4.235002
30
0
11
0.350219
21
4.231089
31
0
39
0
210
0
220
0
230
1
0
LINE
5
79
100
AcDbEntity
8
1
62
256
6
ByLayer
370
18
48
1
60
0
100
AcDbLine
10
28.355107
20
4.248592
30
0
11
26.98122
21
4.247733
31
0
39
0
210
0
220
0
230
1
0
LINE
5
7A
100
AcDbEntity
8
1
62
256
6
ByLayer
370
18
48
1
60
0
100
AcDbLine
10
55.555846
20
4.265592
30
0
11
54.185742
21
4.264736
31
0
39
0
210
0
220
0
230
1
0
LINE
5
7B
100
AcDbEntity
8
1
62
256
6
ByLayer
370
18
48
1
60
0
100
AcDbLine
10
82.756031
20
4.282593
30
0
11
81.388696
21
4.281738
31
0
39
0
210
0
220
0
230
1
0
LINE
5
7C
100
AcDbEntity
8
1
62
256
6
ByLayer
370
18
48
1
60
0
100
AcDbLine
10
109.95598
20
4.299593
30
0
11
108.596459
21
4.298743
31
0
39
0
210
0
220
0
230
1
0
LINE
5
7D
100
AcDbEntity
8
1
62
256
6
ByLayer
370
18
48
1
60
0
100
AcDbLine
10
108.596459
20
-4.298743
30
0
11
109.956019
21
-4.299593
31
0
39
0
210
0
220
0
230
1
0
LINE
5
7E
100
AcDbEntity
8
1
62
256
6
ByLayer
370
18
48
1
60
0
100
AcDbLine
10
81.388696
20
-4.281738
30
0
11
82.755847
21
-4.282592
31
0
39
0
210
0
220
0
230
1
0
LINE
5
7F
100
AcDbEntity
8
1
62
256
6
ByLayer
370
18
48
1
60
0
100
AcDbLine
10
54.185742
20
-4.264736
30
0
11
55.555213
21
-4.265592
31
0
39
0
210
0
220
0
230
1
0
LINE
5
80
100
AcDbEntity
8
1
62
256
6
ByLayer
370
18
48
1
60
0
100
AcDbLine
10
26.98122
20
-4.247733
30
0
11
28.354978
21
-4.248592
31
0
39
0
210
0
220
0
230
1
0
LINE
5
81
100
AcDbEntity
8
1
62
256
6
ByLayer
370
18
48
1
60
0
100
AcDbLine
10
0.350219
20
-4.231089
30
0
11
6.61044
21
-4.235002
31
0
39
0
210
0
220
0
230
1
0
LINE
5
82
100
AcDbEntity
8
SK1
62
256
6
ByLayer
370
18
48
1
60
0
100
AcDbLine
10
-38.845299
20
5
30
0
11
-40
21
3
31
0
39
0
210
0
220
0
230
1
0
LINE
5
84
100
AcDbEntity
8
SK1
62
256
6
ByLayer
370
18
48
1
60
0
100
AcDbLine
10
-40
20
-3
30
0
11
-38.845299
21
-5
31
0
39
0
210
0
220
0
230
1
0
LINE
5
85
100
AcDbEntity
8
SK1
62
256
6
ByLayer
370
18
48
1
60
0
100
AcDbLine
10
0
20
5
30
0
11
-38.845299
21
5
31
0
39
0
210
0
220
0
230
1
0
LINE
5
86
100
AcDbEntity
8
SK1
62
256
6
ByLayer
370
18
48
1
60
0
100
AcDbLine
10
-38.845299
20
-5
30
0
11
0
21
-5
31
0
39
0
210
0
220
0
230
1
0
LINE
5
87
100
AcDbEntity
8
SK4
62
256
6
ByLayer
370
18
48
0.05
60
0
100
AcDbLine
10
117
20
0
30
0
11
-45
21
0
31
0
39
0
210
0
220
0
230
1
0
LINE
5
89
100
AcDbEntity
8
4
62
256
6
ByLayer
370
18
48
0.05
60
0
100
AcDbLine
10
112
20
0
30
0
11
0
21
0
31
0
39
0
210
0
220
0
230
1
0
LINE
5
8B
100
AcDbEntity
8
80
62
256
6
ByLayer
370
18
48
1
60
0
100
AcDbLine
10
0
20
0
30
0
11
-5
21
0
31
0
39
0
210
0
220
0
230
1
0
LINE
5
8C
100
AcDbEntity
8
1
62
256
6
ByLayer
370
13
48
1
60
0
100
AcDbLine
10
110.519814
20
1.060131
30
0
11
111.977819
21
0.137178
31
0
39
0
210
0
220
0
230
1
0
LINE
5
8D
100
AcDbEntity
8
1
62
256
6
ByLayer
370
13
48
1
60
0
100
AcDbLine
10
110.408371
20
0.948864
30
0
11
111.969604
21
-0.039434
31
0
39
0
210
0
220
0
230
1
0
LINE
5
8E
100
AcDbEntity
8
1
62
256
6
ByLayer
370
18
48
1
60
0
100
AcDbLine
10
109.824062
20
-3.016859
30
0
11
110.560464
21
-2.017346
31
0
39
0
210
0
220
0
230
1
0
LINE
5
8F
100
AcDbEntity
8
1
62
256
6
ByLayer
370
13
48
1
60
0
100
AcDbLine
10
0.350219
20
4.231089
30
0
11
0.350219
21
-4.231089
31
0
39
0
210
0
220
0
230
1
0
LINE
5
90
100
AcDbEntity
8
1
62
256
6
ByLayer
370
18
48
1
60
0
100
AcDbLine
10
111.114989
20
-1.264695
30
0
11
111.842579
21
-0.277142
31
0
39
0
210
0
220
0
230
1
0
LINE
5
91
100
AcDbEntity
8
SK1
62
256
6
ByLayer
370
18
48
1
60
0
100
AcDbLine
10
-38.85
20
1.910371
30
0
11
-38.85
21
3.775348
31
0
39
0
210
0
220
0
230
1
0
LINE
5
92
100
AcDbEntity
8
SK1
62
256
6
ByLayer
370
13
48
1
60
0
100
AcDbLine
10
-38.95
20
3.73711
30
0
11
-38.95
21
1.709948
31
0
39
0
210
0
220
0
230
1
0
LINE
5
93
100
AcDbEntity
8
SK1
62
256
6
ByLayer
370
18
48
1
60
0
100
AcDbLine
10
-38.845299
20
5
30
0
11
-38.845299
21
-5
31
0
39
0
210
0
220
0
230
1
0
LINE
5
94
100
AcDbEntity
8
SK1
62
256
6
ByLayer
370
18
48
1
60
0
100
AcDbLine
10
0
20
5
30
0
11
0
21
-5
31
0
39
0
210
0
220
0
230
1
0
LINE
5
95
100
AcDbEntity
8
SK1
62
256
6
ByLayer
370
18
48
1
60
0
100
AcDbLine
10
-40
20
0.582482
30
0
11
-40
21
-3
31
0
39
0
210
0
220
0
230
1
0
LINE
5
96
100
AcDbEntity
8
SK1
62
256
6
ByLayer
370
18
48
1
60
0
100
AcDbLine
10
-40
20
3
30
0
11
-40
21
2.609631
31
0
39
0
210
0
220
0
230
1
0
LINE
5
97
100
AcDbEntity
8
SK1
62
256
6
ByLayer
370
18
48
1
60
0
100
AcDbLine
10
-40
20
2.609631
30
0
11
-40
21
0.582489
31
0
39
0
210
0
220
0
230
1
0
MTEXT
5
E9
100
AcDbEntity
8
SK6
62
256
6
ByLayer
370
13
48
1
60
0
100
AcDbMText
10
38.129169
20
36.682694
30
0
210
0
220
0
230
1
1
\W0.7538;460.1-0860-065A1-XM GC34
40
3.5
41
0
44
1.084337
50
0
71
8
72
5
7
iso_b_vert
0
DIMENSION
5
F6
100
AcDbEntity
8
SK2
62
256
6
ByLayer
370
13
48
1
60
0
100
AcDbDimension
2
DimnDraft3D1
10
110.727
20
-14.513398
30
0
11
53.977059
21
-14.513398
31
0
70
32
71
5
72
1
41
1
210
0
220
0
230
1
3
Standard
100
AcDbAlignedDimension
13
0
23
-1.5875
33
0
14
110.727
24
-5.8875
34
0
50
0
100
AcDbRotatedDimension
1001
ACAD
1000
DSTYLE
1002
{
1070
   279
1070
     0
1070
   172
1070
     1
1070
   173
1070
     1
1070
   340
1005
EA
1070
   271
1070
     2
1070
   272
1070
     2
1070
    77
1070
     1
1070
    73
1070
     0
1070
   171
1070
     3
1070
   274
1070
     4
1070
   177
1070
    35
1070
   176
1070
    35
1070
   178
1070
    35
1070
    48
1040
-0.005
1070
    41
1041
3.5
1070
   147
1041
1.75
1070
    42
1041
1.5875
1070
    44
1041
2.0
1070
   140
1041
3.5
1070
   343
1005
0
1070
   344
1005
0
1002
}
0
DIMENSION
5
100
100
AcDbEntity
8
SK2
62
256
6
ByLayer
370
13
48
1
60
0
100
AcDbDimension
2
DimnDraft3D2
10
112
20
-33.692985
30
0
11
36.0683
21
-33.692985
31
0
70
32
71
5
72
1
41
1
210
0
220
0
230
1
3
Standard
100
AcDbAlignedDimension
13
-40
23
-6.5875
33
0
14
112
24
-1.5875
34
0
50
0
100
AcDbRotatedDimension
1001
ACAD
1000
DSTYLE
1002
{
1070
   279
1070
     0
1070
   172
1070
     1
1070
   173
1070
     1
1070
   340
1005
EA
1070
   271
1070
     2
1070
   272
1070
     2
1070
    77
1070
     1
1070
    73
1070
     0
1070
   171
1070
     3
1070
   274
1070
     4
1070
   177
1070
    35
1070
   176
1070
    35
1070
   178
1070
    35
1070
    48
1040
-0.005
1070
    41
1041
3.5
1070
   147
1041
1.75
1070
    42
1041
1.5875
1070
    44
1041
2.0
1070
   140
1041
3.5
1070
   343
1005
0
1070
   344
1005
0
1002
}
0
DIMENSION
5
10A
100
AcDbEntity
8
SK2
62
256
6
ByLayer
370
13
48
1
60
0
100
AcDbDimension
2
DimnDraft3D3
10
112
20
15.909119
30
0
11
76.965
21
15.909119
31
0
70
32
71
5
72
1
41
1
210
0
220
0
230
1
3
Standard
100
AcDbAlignedDimension
13
41.93
23
5.8875
33
0
14
112
24
1.5875
34
0
50
0
100
AcDbRotatedDimension
1001
ACAD
1000
DSTYLE
1002
{
1070
   279
1070
     0
1070
   172
1070
     1
1070
   173
1070
     1
1070
   340
1005
EA
1070
   271
1070
     2
1070
   272
1070
     2
1070
    77
1070
     1
1070
    73
1070
     0
1070
   171
1070
     3
1070
   274
1070
     4
1070
   177
1070
    35
1070
   176
1070
    35
1070
   178
1070
    35
1070
    48
1040
-0.005
1070
    41
1041
3.5
1070
   147
1041
1.75
1070
    42
1041
1.5875
1070
    44
1041
2.0
1070
   140
1041
3.5
1070
   343
1005
0
1070
   344
1005
0
1002
}
0
DIMENSION
5
114
100
AcDbEntity
8
SK2
62
256
6
ByLayer
370
13
48
1
60
0
100
AcDbDimension
2
DimnDraft3D4
10
110.727
20
-17.102503
30
0
11
121.981425
21
-17.102503
31
0
70
32
71
5
72
1
41
1
210
0
220
0
230
1
3
Standard
100
AcDbAlignedDimension
13
112
23
-1.5875
33
0
14
110.727
24
-5.8875
34
0
50
0
100
AcDbRotatedDimension
1001
ACAD
1000
DSTYLE
1002
{
1070
   279
1070
     0
1070
   172
1070
     1
1070
   173
1070
     1
1070
   340
1005
EA
1070
   271
1070
     2
1070
   272
1070
     2
1070
    77
1070
     1
1070
    73
1070
     0
1070
   171
1070
     3
1070
   274
1070
     4
1070
   177
1070
    35
1070
   176
1070
    35
1070
   178
1070
    35
1070
    48
1040
-0.005
1070
    41
1041
3.5
1070
   147
1041
1.75
1070
    42
1041
1.5875
1070
    44
1041
2.0
1070
   140
1041
3.5
1070
   343
1005
0
1070
   344
1005
0
1002
}
0
DIMENSION
5
11E
100
AcDbEntity
8
SK2
62
256
6
ByLayer
370
13
48
1
60
0
100
AcDbDimension
2
DimnDraft3D5
10
110.727
20
-23.343428
30
0
11
32.987676
21
-23.343428
31
0
70
32
71
5
72
1
41
1
210
0
220
0
230
1
3
Standard
100
AcDbAlignedDimension
13
-40
23
-6.5875
33
0
14
110.727
24
-5.8875
34
0
50
0
100
AcDbRotatedDimension
1001
ACAD
1000
DSTYLE
1002
{
1070
   279
1070
     0
1070
   172
1070
     1
1070
   173
1070
     1
1070
   340
1005
EA
1070
   271
1070
     2
1070
   272
1070
     2
1070
    77
1070
     1
1070
    73
1070
     0
1070
   171
1070
     3
1070
   274
1070
     4
1070
   177
1070
    35
1070
   176
1070
    35
1070
   178
1070
    35
1070
    48
1040
-0.005
1070
    41
1041
3.5
1070
   147
1041
1.75
1070
    42
1041
1.5875
1070
    44
1041
2.0
1070
   140
1041
3.5
1070
   343
1005
0
1070
   344
1005
0
1002
}
0
DIMENSION
5
129
100
AcDbEntity
8
SK2
62
256
6
ByLayer
370
13
48
1
60
0
100
AcDbDimension
2
DimnDraft3D6
10
-50.625163
20
5
30
0
11
-51.250163
21
23.47418
31
0
70
33
71
5
72
1
41
1
210
0
220
0
230
1
3
Standard
100
AcDbAlignedDimension
13
-41.5875
23
-5
33
0
14
-41.5875
24
5
34
0
1001
ACAD
1000
DSTYLE
1002
{
1070
   279
1070
     0
1070
    74
1070
     0
1070
   173
1070
     1
1070
   340
1005
EA
1070
   271
1070
     3
1070
   272
1070
     2
1070
    77
1070
     1
1070
    73
1070
     0
1070
   171
1070
     3
1070
   274
1070
     4
1070
   177
1070
    35
1070
   176
1070
    35
1070
   178
1070
    35
1070
    48
1040
-0.005
1070
    41
1041
3.5
1070
   147
1041
1.75
1070
    42
1041
1.5875
1070
    44
1041
2.0
1070
   140
1041
3.5
1070
   343
1005
0
1070
   344
1005
0
1002
}
0
DIMENSION
5
134
100
AcDbEntity
8
2
62
256
6
ByLayer
370
13
48
1
60
0
100
AcDbDimension
2
DimnDraft3D7
10
126.083343
20
4.3
30
0
11
121.458343
21
21.367266
31
0
70
33
71
5
72
1
41
1
210
0
220
0
230
1
3
Standard
100
AcDbAlignedDimension
13
112.3145
23
-4.3
33
0
14
112.3145
24
4.3
34
0
1001
ACAD
1000
DSTYLE
1002
{
1070
   279
1070
     0
1070
    74
1070
     0
1070
   173
1070
     1
1070
   340
1005
EA
1070
   271
1070
     3
1070
   272
1070
     2
1070
    77
1070
     1
1070
    73
1070
     0
1070
   171
1070
     3
1070
   274
1070
     4
1070
   177
1070
    35
1070
   176
1070
    35
1070
   178
1070
    35
1070
    48
1040
-0.005
1070
    41
1041
3.5
1070
   147
1041
1.75
1070
    42
1041
1.5875
1070
    44
1041
2.0
1070
   140
1041
3.5
1070
   343
1005
0
1070
   344
1005
0
1002
}
0
ENDSEC
0
SECTION
2
OBJECTS
0
DICTIONARY
5
19f
330
0
100
AcDbDictionary
280
0
281
1
3
ACAD_GROUP
350
1a0
3
ACAD_MLINESTYLE
350
1a1
0
DICTIONARY
5
1a0
330
0
100
AcDbDictionary
280
0
281
1
0
DICTIONARY
5
1a1
330
0
100
AcDbDictionary
280
0
281
1
3
Standard
350
18
0
MLINESTYLE
5
18
330
1a1
100
AcDbMlineStyle
2
Standard
70
0
3

62
256
51
90
52
90
71
2
49
-0.5
62
256
6
ByLayer
49
0.5
62
256
6
ByLayer
0
RASTERVARIABLES
5
18d
330

100
AcDbRasterVariables
90
0
70
1
71
1
72
1
0
ENDSEC
0
EOF
