0
SECTION
2
HEADER
9
$ACADVER
1
AC1015
9
$DWGCODEPAGE
3
ANSI_1252
9
$HANDSEED
5
1ac
9
$ANGBASE
50
0
9
$ANGDIR
70
0
9
$ATTMODE
70
1
9
$AUNITS
70
0
9
$AUPREC
70
0
9
$CECOLOR
62
256
9
$CELTSCALE
40
1
9
$CELTYPE
6
ByLayer
9
$CELWEIGHT
370
18
9
$CLAYER
8
0
9
$CMLJUST
70
0
9
$CMLSCALE
40
1
9
$CMLSTYLE
2
Standard
9
$DIMSTYLE
2
Standard
9
$TEXTSIZE
40
0.2
9
$TEXTSTYLE
7
Standard
9
$LUNITS
70
2
9
$LUPREC
70
4
9
$EXTNAMES
290
1
9
$INSUNITS
70
4
9
$LTSCALE
40
1
9
$LWDISPLAY
290
1
9
$PDMODE
70
0
9
$PDSIZE
40
0
9
$PLINEGEN
70
0
0
ENDSEC
0
SECTION
2
CLASSES
0
CLASS
1
RASTERVARIABLES
2
AcDbRasterVariables
3
ISM
90
0
280
0
281
0
0
ENDSEC
0
SECTION
2
TABLES
0
TABLE
2
VPORT
5
1a2
100
AcDbSymbolTable
0
VPORT
5
1
100
AcDbSymbolTableRecord
100
AcDbViewportTableRecord
2
*Active
70
0
10
0
20
0
11
1
21
1
12
-1
22
1
13
0
23
0
14
0.5
24
0.5
15
10
25
10
16
0
26
0
36
1
17
0
27
0
37
0
0
ENDTAB
0
TABLE
2
LTYPE
5
1a3
100
AcDbSymbolTable
0
LTYPE
5
14
100
AcDbSymbolTableRecord
100
AcDbLinetypeTableRecord
70
0
2
ByBlock
3

72
65
73
0
40
0
0
LTYPE
5
15
100
AcDbSymbolTableRecord
100
AcDbLinetypeTableRecord
70
0
2
ByLayer
3

72
65
73
0
40
0
0
LTYPE
5
16
100
AcDbSymbolTableRecord
100
AcDbLinetypeTableRecord
70
0
2
CONTINUOUS
3
Solid line
72
65
73
0
40
0
0
LTYPE
5
6A
100
AcDbSymbolTableRecord
100
AcDbLinetypeTableRecord
70
0
2
CENTER
3
____ _ ____ _ ____ _ ____
72
65
73
4
40
47.5
49
22
74
0
49
-8.5
74
0
49
8.5
74
0
49
-8.5
74
0
0
LTYPE
5
6B
100
AcDbSymbolTableRecord
100
AcDbLinetypeTableRecord
70
0
2
DASHED
3
__ __ __ __ __ __ __ __ __
72
65
73
2
40
25.72
49
12.86
74
0
49
-12.86
74
0
0
ENDTAB
0
TABLE
2
LAYER
5
1a4
100
AcDbSymbolTable
0
LAYER
5
10
100
AcDbSymbolTableRecord
100
AcDbLayerTableRecord
2
0
70
0
62
7
6
CONTINUOUS
290
1
370
-3
390
0
0
LAYER
5
6D
100
AcDbSymbolTableRecord
100
AcDbLayerTableRecord
2
81
70
0
62
-3
6
CONTINUOUS
290
1
370
-3
390
0
0
LAYER
5
6F
100
AcDbSymbolTableRecord
100
AcDbLayerTableRecord
2
80
70
0
62
-6
6
CONTINUOUS
290
1
370
-3
390
0
0
LAYER
5
74
100
AcDbSymbolTableRecord
100
AcDbLayerTableRecord
2
2
70
0
62
7
6
CONTINUOUS
290
1
370
-3
390
0
0
LAYER
5
78
100
AcDbSymbolTableRecord
100
AcDbLayerTableRecord
2
1
70
0
62
4
6
CONTINUOUS
290
1
370
-3
390
0
0
LAYER
5
8A
100
AcDbSymbolTableRecord
100
AcDbLayerTableRecord
2
4
70
0
62
-2
6
CENTER
290
1
370
-3
390
0
0
LAYER
5
18e
100
AcDbSymbolTableRecord
100
AcDbLayerTableRecord
2
SK2
70
0
62
7
6
CONTINUOUS
290
1
370
-3
390
0
0
LAYER
5
18f
100
AcDbSymbolTableRecord
100
AcDbLayerTableRecord
2
SK1
70
0
62
4
6
CONTINUOUS
290
1
370
-3
390
0
0
LAYER
5
190
100
AcDbSymbolTableRecord
100
AcDbLayerTableRecord
2
SK4
70
0
62
2
6
CENTER
290
1
370
-3
390
0
0
LAYER
5
191
100
AcDbSymbolTableRecord
100
AcDbLayerTableRecord
2
SK6
70
0
62
5
6
CONTINUOUS
290
1
370
-3
390
0
0
ENDTAB
0
TABLE
2
STYLE
5
1a5
100
AcDbSymbolTable
0
STYLE
5
11
100
AcDbSymbolTableRecord
100
AcDbTextStyleTableRecord
2
Standard
3
txt
70
0
71
0
40
0
41
1
42
0
50
0
0
STYLE
5
EA
100
AcDbSymbolTableRecord
100
AcDbTextStyleTableRecord
2
iso_b_vert
3
simplex.shx
70
0
71
0
40
0
41
1
42
0
50
0
0
STYLE
5
EB
100
AcDbSymbolTableRecord
100
AcDbTextStyleTableRecord
2
DWGDirectTextStyle
3
simplex
70
0
71
0
40
0
41
1
42
0
50
0
0
ENDTAB
0
TABLE
2
DIMSTYLE
5
1a6
100
AcDbSymbolTable
100
AcDbDimStyleTable
0
DIMSTYLE
105
27
100
AcDbSymbolTableRecord
100
AcDbDimStyleTableRecord
2
Standard
70
0
3
<>
41
0.18
42
0.0625
44
0.18
140
0.18
147
0.09
73
0
74
0
77
1
271
2
275
0
278
52
280
0
340
11
0
ENDTAB
0
TABLE
2
VIEW
5
1a7
100
AcDbSymbolTable
0
ENDTAB
0
TABLE
2
UCS
5
1a8
100
AcDbSymbolTable
0
ENDTAB
0
TABLE
2
APPID
5
1a9
100
AcDbSymbolTable
0
APPID
5
12
100
AcDbSymbolTableRecord
100
AcDbRegAppTableRecord
2
ACAD
70
0
0
ENDTAB
0
TABLE
2
BLOCK_RECORD
5
1aa
100
AcDbSymbolTable
0
BLOCK_RECORD
5
1F
100
AcDbSymbolTableRecord
100
AcDbBlockTableRecord
2
*Model_Space
340
0
70
0
0
BLOCK_RECORD
5
1B
100
AcDbSymbolTableRecord
100
AcDbBlockTableRecord
2
*Paper_Space
340
0
70
0
0
BLOCK_RECORD
5
23
100
AcDbSymbolTableRecord
100
AcDbBlockTableRecord
2
*Paper_Space0
340
0
70
0
0
BLOCK_RECORD
5
ED
100
AcDbSymbolTableRecord
100
AcDbBlockTableRecord
2
DimnDraft3D1
340
0
70
0
0
BLOCK_RECORD
5
F7
100
AcDbSymbolTableRecord
100
AcDbBlockTableRecord
2
DimnDraft3D2
340
0
70
0
0
BLOCK_RECORD
5
101
100
AcDbSymbolTableRecord
100
AcDbBlockTableRecord
2
DimnDraft3D3
340
0
70
0
0
BLOCK_RECORD
5
10B
100
AcDbSymbolTableRecord
100
AcDbBlockTableRecord
2
DimnDraft3D4
340
0
70
0
0
BLOCK_RECORD
5
115
100
AcDbSymbolTableRecord
100
AcDbBlockTableRecord
2
DimnDraft3D5
340
0
70
0
0
BLOCK_RECORD
5
11F
100
AcDbSymbolTableRecord
100
AcDbBlockTableRecord
2
DimnDraft3D6
340
0
70
0
0
BLOCK_RECORD
5
12A
100
AcDbSymbolTableRecord
100
AcDbBlockTableRecord
2
DimnDraft3D7
340
0
70
0
0
ENDTAB
0
ENDSEC
0
SECTION
2
BLOCKS
0
BLOCK
5
20
100
AcDbEntity
8
0
100
AcDbBlockBegin
2
*Model_Space
70
0
10
0
20
0
30
0
3
*Model_Space
0
ENDBLK
5
21
100
AcDbEntity
8
0
100
AcDbBlockEnd
0
BLOCK
5
1C
100
AcDbEntity
8
0
100
AcDbBlockBegin
2
*Paper_Space
70
0
10
0
20
0
30
0
3
*Paper_Space
0
ENDBLK
5
1D
100
AcDbEntity
8
0
100
AcDbBlockEnd
0
BLOCK
5
24
100
AcDbEntity
8
0
100
AcDbBlockBegin
2
*Paper_Space0
70
0
10
0
20
0
30
0
3
*Paper_Space0
0
ENDBLK
5
25
100
AcDbEntity
8
0
100
AcDbBlockEnd
0
BLOCK
5
F4
100
AcDbEntity
8
0
100
AcDbBlockBegin
2
DimnDraft3D1
70
0
10
0
20
0
30
0
3
DimnDraft3D1
0
MTEXT
5
EE
100
AcDbEntity
8
SK2
62
256
6
ByLayer
370
13
48
1
60
0
100
AcDbMText
10
49.15578
20
-13.438398
30
0
210
0
220
0
230
1
1
\W0.6501;110,79
40
3.5
41
0
44
1.084337
50
0
71
7
72
5
7
iso_b_vert
0
LINE
5
EF
100
AcDbEntity
8
SK2
62
256
6
ByLayer
370
13
48
1
60
0
100
AcDbLine
10
0
20
-1.5875
30
0
11
0
21
-16.313398
31
0
39
0
210
0
220
0
230
1
0
LINE
5
F0
100
AcDbEntity
8
SK2
62
256
6
ByLayer
370
13
48
1
60
0
100
AcDbLine
10
110.7873
20
-5.6875
30
0
11
110.7873
21
-16.313398
31
0
39
0
210
0
220
0
230
1
0
LINE
5
F1
100
AcDbEntity
8
SK2
62
256
6
ByLayer
370
13
48
1
60
0
100
AcDbLine
10
0
20
-14.313398
30
0
11
110.7873
21
-14.313398
31
0
39
0
210
0
220
0
230
1
0
SOLID
5
F2
100
AcDbEntity
8
SK2
62
256
6
ByLayer
370
13
48
1
60
0
100
AcDbTrace
10
0
20
-14.313398
30
0
11
3.499998
21
-13.852615
31
0
12
3.500002
22
-14.774182
32
0
13
0
23
-14.313398
33
0
39
0
210
0
220
0
230
1
0
SOLID
5
F3
100
AcDbEntity
8
SK2
62
256
6
ByLayer
370
13
48
1
60
0
100
AcDbTrace
10
110.7873
20
-14.313398
30
0
11
107.287302
21
-14.774182
31
0
12
107.287298
22
-13.852615
32
0
13
110.7873
23
-14.313398
33
0
39
0
210
0
220
0
230
1
0
ENDBLK
5
F5
100
AcDbEntity
8
0
100
AcDbBlockEnd
0
BLOCK
5
FE
100
AcDbEntity
8
0
100
AcDbBlockBegin
2
DimnDraft3D2
70
0
10
0
20
0
30
0
3
DimnDraft3D2
0
MTEXT
5
F8
100
AcDbEntity
8
SK2
62
256
6
ByLayer
370
13
48
1
60
0
100
AcDbMText
10
30.809521
20
-32.817985
30
0
210
0
220
0
230
1
1
\W0.6930;152,00
40
3.5
41
0
44
1.084337
50
0
71
7
72
5
7
iso_b_vert
0
LINE
5
F9
100
AcDbEntity
8
SK2
62
256
6
ByLayer
370
13
48
1
60
0
100
AcDbLine
10
-40
20
-6.5875
30
0
11
-40
21
-35.692985
31
0
39
0
210
0
220
0
230
1
0
LINE
5
FA
100
AcDbEntity
8
SK2
62
256
6
ByLayer
370
13
48
1
60
0
100
AcDbLine
10
112
20
-1.5875
30
0
11
112
21
-35.692985
31
0
39
0
210
0
220
0
230
1
0
LINE
5
FB
100
AcDbEntity
8
SK2
62
256
6
ByLayer
370
13
48
1
60
0
100
AcDbLine
10
-40
20
-33.692985
30
0
11
112
21
-33.692985
31
0
39
0
210
0
220
0
230
1
0
SOLID
5
FC
100
AcDbEntity
8
SK2
62
256
6
ByLayer
370
13
48
1
60
0
100
AcDbTrace
10
-40
20
-33.692985
30
0
11
-36.500002
21
-33.232202
31
0
12
-36.499998
22
-34.153769
32
0
13
-40
23
-33.692985
33
0
39
0
210
0
220
0
230
1
0
SOLID
5
FD
100
AcDbEntity
8
SK2
62
256
6
ByLayer
370
13
48
1
60
0
100
AcDbTrace
10
112
20
-33.692985
30
0
11
108.500002
21
-34.153769
31
0
12
108.499998
22
-33.232202
32
0
13
112
23
-33.692985
33
0
39
0
210
0
220
0
230
1
0
ENDBLK
5
FF
100
AcDbEntity
8
0
100
AcDbBlockEnd
0
BLOCK
5
108
100
AcDbEntity
8
0
100
AcDbBlockBegin
2
DimnDraft3D3
70
0
10
0
20
0
30
0
3
DimnDraft3D3
0
MTEXT
5
102
100
AcDbEntity
8
SK2
62
256
6
ByLayer
370
13
48
1
60
0
100
AcDbMText
10
74.583816
20
16.584119
30
0
210
0
220
0
230
1
1
\W0.7211;66,81
40
3.5
41
0
44
1.084337
50
0
71
7
72
5
7
iso_b_vert
0
LINE
5
103
100
AcDbEntity
8
SK2
62
256
6
ByLayer
370
13
48
1
60
0
100
AcDbLine
10
45.19
20
5.6875
30
0
11
45.19
21
17.709119
31
0
39
0
210
0
220
0
230
1
0
LINE
5
104
100
AcDbEntity
8
SK2
62
256
6
ByLayer
370
13
48
1
60
0
100
AcDbLine
10
112
20
1.5875
30
0
11
112
21
17.709119
31
0
39
0
210
0
220
0
230
1
0
LINE
5
105
100
AcDbEntity
8
SK2
62
256
6
ByLayer
370
13
48
1
60
0
100
AcDbLine
10
45.19
20
15.709119
30
0
11
112
21
15.709119
31
0
39
0
210
0
220
0
230
1
0
SOLID
5
106
100
AcDbEntity
8
SK2
62
256
6
ByLayer
370
13
48
1
60
0
100
AcDbTrace
10
45.19
20
15.709119
30
0
11
48.689998
21
16.169903
31
0
12
48.690002
22
15.248335
32
0
13
45.19
23
15.709119
33
0
39
0
210
0
220
0
230
1
0
SOLID
5
107
100
AcDbEntity
8
SK2
62
256
6
ByLayer
370
13
48
1
60
0
100
AcDbTrace
10
112
20
15.709119
30
0
11
108.500002
21
15.248335
31
0
12
108.499998
22
16.169903
32
0
13
112
23
15.709119
33
0
39
0
210
0
220
0
230
1
0
ENDBLK
5
109
100
AcDbEntity
8
0
100
AcDbBlockEnd
0
BLOCK
5
112
100
AcDbEntity
8
0
100
AcDbBlockBegin
2
DimnDraft3D4
70
0
10
0
20
0
30
0
3
DimnDraft3D4
0
MTEXT
5
10C
100
AcDbEntity
8
SK2
62
256
6
ByLayer
370
13
48
1
60
0
100
AcDbMText
10
119.715636
20
-16.027503
30
0
210
0
220
0
230
1
1
\W0.6132;1,21
40
3.5
41
0
44
1.084337
50
0
71
7
72
5
7
iso_b_vert
0
LINE
5
10D
100
AcDbEntity
8
SK2
62
256
6
ByLayer
370
13
48
1
60
0
100
AcDbLine
10
112
20
-1.5875
30
0
11
112
21
-18.902503
31
0
39
0
210
0
220
0
230
1
0
LINE
5
10E
100
AcDbEntity
8
SK2
62
256
6
ByLayer
370
13
48
1
60
0
100
AcDbLine
10
110.7873
20
-5.6875
30
0
11
110.7873
21
-18.902503
31
0
39
0
210
0
220
0
230
1
0
LINE
5
10F
100
AcDbEntity
8
SK2
62
256
6
ByLayer
370
13
48
1
60
0
100
AcDbLine
10
102.0373
20
-16.902503
30
0
11
125.122215
21
-16.902503
31
0
39
0
210
0
220
0
230
1
0
SOLID
5
110
100
AcDbEntity
8
SK2
62
256
6
ByLayer
370
13
48
1
60
0
100
AcDbTrace
10
112
20
-16.902503
30
0
11
115.499998
21
-16.441719
31
0
12
115.500002
22
-17.363287
32
0
13
112
23
-16.902503
33
0
39
0
210
0
220
0
230
1
0
SOLID
5
111
100
AcDbEntity
8
SK2
62
256
6
ByLayer
370
13
48
1
60
0
100
AcDbTrace
10
110.7873
20
-16.902503
30
0
11
107.287302
21
-17.363287
31
0
12
107.287298
22
-16.441719
32
0
13
110.7873
23
-16.902503
33
0
39
0
210
0
220
0
230
1
0
ENDBLK
5
113
100
AcDbEntity
8
0
100
AcDbBlockEnd
0
BLOCK
5
11C
100
AcDbEntity
8
0
100
AcDbBlockBegin
2
DimnDraft3D5
70
0
10
0
20
0
30
0
3
DimnDraft3D5
0
MTEXT
5
116
100
AcDbEntity
8
SK2
62
256
6
ByLayer
370
13
48
1
60
0
100
AcDbMText
10
27.728897
20
-22.468428
30
0
210
0
220
0
230
1
1
\W0.6996;150,79
40
3.5
41
0
44
1.084337
50
0
71
7
72
5
7
iso_b_vert
0
LINE
5
117
100
AcDbEntity
8
SK2
62
256
6
ByLayer
370
13
48
1
60
0
100
AcDbLine
10
-40
20
-6.5875
30
0
11
-40
21
-25.343428
31
0
39
0
210
0
220
0
230
1
0
LINE
5
118
100
AcDbEntity
8
SK2
62
256
6
ByLayer
370
13
48
1
60
0
100
AcDbLine
10
110.7873
20
-5.6875
30
0
11
110.7873
21
-25.343428
31
0
39
0
210
0
220
0
230
1
0
LINE
5
119
100
AcDbEntity
8
SK2
62
256
6
ByLayer
370
13
48
1
60
0
100
AcDbLine
10
-40
20
-23.343428
30
0
11
110.7873
21
-23.343428
31
0
39
0
210
0
220
0
230
1
0
SOLID
5
11A
100
AcDbEntity
8
SK2
62
256
6
ByLayer
370
13
48
1
60
0
100
AcDbTrace
10
-40
20
-23.343428
30
0
11
-36.500002
21
-22.882645
31
0
12
-36.499998
22
-23.804212
32
0
13
-40
23
-23.343428
33
0
39
0
210
0
220
0
230
1
0
SOLID
5
11B
100
AcDbEntity
8
SK2
62
256
6
ByLayer
370
13
48
1
60
0
100
AcDbTrace
10
110.7873
20
-23.343428
30
0
11
107.287302
21
-23.804212
31
0
12
107.287298
22
-22.882645
32
0
13
110.7873
23
-23.343428
33
0
39
0
210
0
220
0
230
1
0
ENDBLK
5
11D
100
AcDbEntity
8
0
100
AcDbBlockEnd
0
BLOCK
5
127
100
AcDbEntity
8
0
100
AcDbBlockBegin
2
DimnDraft3D6
70
0
10
0
20
0
30
0
3
DimnDraft3D6
0
MTEXT
5
120
100
AcDbEntity
8
SK2
62
256
6
ByLayer
370
13
48
1
60
0
100
AcDbMText
10
-50.375163
20
24.34918
30
0
210
0
220
0
230
1
1
\W0.6930;10,000
40
3.5
41
0
44
1.084337
50
90
71
7
72
5
7
iso_b_vert
0
MTEXT
5
121
100
AcDbEntity
8
SK2
62
256
6
ByLayer
370
13
48
1
60
0
100
AcDbMText
10
-50.375163
20
19.126524
30
0
210
0
220
0
230
1
1
%%c
40
3.5
41
0
44
1.084337
50
90
71
7
72
5
7
iso_b_vert
0
LINE
5
122
100
AcDbEntity
8
SK2
62
256
6
ByLayer
370
13
48
1
60
0
100
AcDbLine
10
-41.5875
20
-5
30
0
11
-50.625163
21
-5
31
0
39
0
210
0
220
0
230
1
0
LINE
5
123
100
AcDbEntity
8
SK2
62
256
6
ByLayer
370
13
48
1
60
0
100
AcDbLine
10
-41.5875
20
5
30
0
11
-50.625163
21
5
31
0
39
0
210
0
220
0
230
1
0
LINE
5
124
100
AcDbEntity
8
SK2
62
256
6
ByLayer
370
13
48
1
60
0
100
AcDbLine
10
-48.625163
20
-5
30
0
11
-48.625163
21
35.862338
31
0
39
0
210
0
220
0
230
1
0
SOLID
5
125
100
AcDbEntity
8
SK2
62
256
6
ByLayer
370
13
48
1
60
0
100
AcDbTrace
10
-48.625163
20
-5
30
0
11
-49.085946
21
-1.500002
31
0
12
-48.164379
22
-1.499998
32
0
13
-48.625163
23
-5
33
0
39
0
210
0
220
0
230
1
0
SOLID
5
126
100
AcDbEntity
8
SK2
62
256
6
ByLayer
370
13
48
1
60
0
100
AcDbTrace
10
-48.625163
20
5
30
0
11
-48.164379
21
1.500002
31
0
12
-49.085946
22
1.499998
32
0
13
-48.625163
23
5
33
0
39
0
210
0
220
0
230
1
0
ENDBLK
5
128
100
AcDbEntity
8
0
100
AcDbBlockEnd
0
BLOCK
5
132
100
AcDbEntity
8
0
100
AcDbBlockBegin
2
DimnDraft3D7
70
0
10
0
20
0
30
0
3
DimnDraft3D7
0
MTEXT
5
12B
100
AcDbEntity
8
2
62
256
6
ByLayer
370
13
48
1
60
0
100
AcDbMText
10
122.333343
20
22.042266
30
0
210
0
220
0
230
1
1
\W0.7317;8,200
40
3.5
41
0
44
1.084337
50
90
71
7
72
5
7
iso_b_vert
0
MTEXT
5
12C
100
AcDbEntity
8
2
62
256
6
ByLayer
370
13
48
1
60
0
100
AcDbMText
10
122.333343
20
16.81961
30
0
210
0
220
0
230
1
1
%%c
40
3.5
41
0
44
1.084337
50
90
71
7
72
5
7
iso_b_vert
0
LINE
5
12D
100
AcDbEntity
8
2
62
256
6
ByLayer
370
13
48
1
60
0
100
AcDbLine
10
112.3748
20
-4.1
30
0
11
126.083343
21
-4.1
31
0
39
0
210
0
220
0
230
1
0
LINE
5
12E
100
AcDbEntity
8
2
62
256
6
ByLayer
370
13
48
1
60
0
100
AcDbLine
10
112.3748
20
4.1
30
0
11
126.083343
21
4.1
31
0
39
0
210
0
220
0
230
1
0
LINE
5
12F
100
AcDbEntity
8
2
62
256
6
ByLayer
370
13
48
1
60
0
100
AcDbLine
10
124.083343
20
-4.1
30
0
11
124.083343
21
31.814635
31
0
39
0
210
0
220
0
230
1
0
SOLID
5
130
100
AcDbEntity
8
2
62
256
6
ByLayer
370
13
48
1
60
0
100
AcDbTrace
10
124.083343
20
-4.1
30
0
11
123.622559
21
-0.600002
31
0
12
124.544126
22
-0.599998
32
0
13
124.083343
23
-4.1
33
0
39
0
210
0
220
0
230
1
0
SOLID
5
131
100
AcDbEntity
8
2
62
256
6
ByLayer
370
13
48
1
60
0
100
AcDbTrace
10
124.083343
20
4.1
30
0
11
124.544126
21
0.600002
31
0
12
123.622559
22
0.599998
32
0
13
124.083343
23
4.1
33
0
39
0
210
0
220
0
230
1
0
ENDBLK
5
133
100
AcDbEntity
8
0
100
AcDbBlockEnd
0
ENDSEC
0
SECTION
2
ENTITIES
0
ARC
5
98
100
AcDbEntity
8
1
62
256
6
ByLayer
370
18
48
1
60
0
100
AcDbCircle
39
0
10
-0.35
20
4.381049
30
0
40
0.350000000000009
210
0
220
0
230
-1
100
AcDbArc
50
269.96419
51
0
0
ARC
5
99
100
AcDbEntity
8
1
62
256
6
ByLayer
370
18
48
1
60
0
100
AcDbCircle
39
0
10
-0.35
20
-4.381049
30
0
40
0.350000000000009
210
0
220
0
230
-1
100
AcDbArc
50
0
51
90.03581
0
ELLIPSE
5
9A
100
AcDbEntity
8
1
62
256
6
ByLayer
370
18
48
1
60
0
100
AcDbEllipse
10
6.921828
20
-4.080388
30
0
11
0.25
21
0
31
0
210
0
220
0
230
1
40
1
41
1.57687127289879
42
2.93903459548563
0
ELLIPSE
5
9B
100
AcDbEntity
8
1
62
256
6
ByLayer
370
18
48
1
60
0
100
AcDbEllipse
10
6.921828
20
4.080388
30
0
11
0.25
21
0
31
0
210
0
220
0
230
1
40
1
41
-2.93931089951607
42
-1.56175341882369
0
POINT
5
6C
100
AcDbEntity
8
81
62
256
6
ByLayer
370
18
48
1
60
0
100
AcDbPoint
10
112
20
0
30
0
39
0
210
0
220
0
230
1
50
360
0
POINT
5
6E
100
AcDbEntity
8
80
62
256
6
ByLayer
370
18
48
1
60
0
100
AcDbPoint
10
0
20
0
30
0
39
0
210
0
220
0
230
1
50
360
0
POINT
5
70
100
AcDbEntity
8
SK2
62
256
6
ByLayer
370
18
48
1
60
1
100
AcDbPoint
10
-40
20
-5
30
0
39
0
210
0
220
0
230
1
50
360
0
POINT
5
72
100
AcDbEntity
8
SK2
62
256
6
ByLayer
370
18
48
1
60
1
100
AcDbPoint
10
-40
20
5
30
0
39
0
210
0
220
0
230
1
50
360
0
POINT
5
73
100
AcDbEntity
8
2
62
256
6
ByLayer
370
18
48
1
60
1
100
AcDbPoint
10
110.7873
20
-4.1
30
0
39
0
210
0
220
0
230
1
50
360
0
POINT
5
75
100
AcDbEntity
8
2
62
256
6
ByLayer
370
18
48
1
60
1
100
AcDbPoint
10
110.7873
20
4.1
30
0
39
0
210
0
220
0
230
1
50
360
0
SPLINE
5
9C
100
AcDbEntity
8
1
62
256
6
ByLayer
370
18
48
1
60
0
100
AcDbSpline
70
4
71
3
72
13
73
9
40
0
40
0
40
0
40
0
40
0.204264389967172
40
0.416893096135779
40
0.544413734087689
40
0.647610353098554
40
0.775199284317208
40
1
40
1
40
1
40
1
41
1
10
6.92218861763939
20
-3.83035030152635
30
0
41
1
10
7.10069768368734
20
-3.83063811862223
30
0
41
1
10
7.46502479694436
20
-3.83114895268224
30
0
41
1
10
7.94079437365727
20
-3.83161514034805
30
0
41
1
10
8.32823484838173
20
-3.83185496470833
30
0
41
1
10
8.64136676946239
20
-3.83195195436053
30
0
41
1
10
9.03951166811964
20
-3.83197551652577
30
0
41
1
10
9.34747163411146
20
-3.83209055831887
30
0
41
1
10
9.54392905614321
20
-3.83218012830866
30
0
0
SPLINE
5
9D
100
AcDbEntity
8
1
62
256
6
ByLayer
370
18
48
1
60
0
100
AcDbSpline
70
4
71
3
72
23
73
19
40
0
40
0
40
0
40
0
40
0.0815391233337017
40
0.151303147424795
40
0.201654536935365
40
0.250334068182747
40
0.311997021572394
40
0.383154221793545
40
0.444552444209328
40
0.493252009180515
40
0.545803251116916
40
0.596997939879106
40
0.656632197883757
40
0.735596315025763
40
0.817641084484059
40
0.898070122765758
40
0.960533589279129
40
1
40
1
40
1
40
1
41
1
10
55.8459008136325
20
-3.8606800047327
30
0
41
1
10
56.062091128102
20
-3.86080641651839
30
0
41
1
10
56.4632575150834
20
-3.86105466694821
30
0
41
1
10
56.9979246253755
20
-3.8613036249026
30
0
41
1
10
57.4455004120319
20
-3.86170130769182
30
0
41
1
10
57.871332234767
20
-3.86186083030012
30
0
41
1
10
58.3526033970468
20
-3.86201369721067
30
0
41
1
10
58.8675825224662
20
-3.86253521127128
30
0
41
1
10
59.3481807368053
20
-3.86270789602543
30
0
41
1
10
59.7794396049868
20
-3.86275769492761
30
0
41
1
10
60.1836551187609
20
-3.8631151428402
30
0
41
1
10
60.6168682238102
20
-3.86360038149911
30
0
41
1
10
61.1201087191
20
-3.86368835829109
30
0
41
1
10
61.7051575642815
20
-3.86363137936911
30
0
41
1
10
62.3453419890324
20
-3.86485619926478
30
0
41
1
10
62.9417700204066
20
-3.86403080093689
30
0
41
1
10
63.4253033979085
20
-3.86501444189364
30
0
41
1
10
63.6955760294211
20
-3.86520109353989
30
0
41
1
10
63.8002235071176
20
-3.86527714541287
30
0
0
SPLINE
5
9E
100
AcDbEntity
8
1
62
256
6
ByLayer
370
18
48
1
60
0
100
AcDbSpline
70
4
71
3
72
17
73
13
40
0
40
0
40
0
40
0
40
0.0115422905497804
40
0.180334756536262
40
0.34143052288468
40
0.449629300351803
40
0.545886567119806
40
0.663166727991375
40
0.795532386574745
40
0.918344125298025
40
0.990766246411112
40
1
40
1
40
1
40
1
41
1
10
90.9961915904442
20
3.8819279637253
30
0
41
1
10
90.9752279118304
20
3.88194608070478
30
0
41
1
10
90.6476950580421
20
3.88219710194798
30
0
41
1
10
90.0275794938365
20
3.87987494857291
30
0
41
1
10
89.2319017478518
20
3.87930981831212
30
0
41
1
10
88.5679704609775
20
3.87996237444563
30
0
41
1
10
87.983615366462
20
3.88047578991404
30
0
41
1
10
87.3553779163341
20
3.88086419873068
30
0
41
1
10
86.6789074963029
20
3.87860629447357
30
0
41
1
10
86.0839035793883
20
3.87908930999248
30
0
41
1
10
85.7125436202217
20
3.87894826890621
30
0
41
1
10
85.5642330284956
20
3.87888004536623
30
0
41
1
10
85.547461972204
20
3.87887220270085
30
0
0
SPLINE
5
9F
100
AcDbEntity
8
1
62
256
6
ByLayer
370
18
48
1
60
0
100
AcDbSpline
70
4
71
3
72
21
73
17
40
0
40
0
40
0
40
0
40
0.104325721324189
40
0.186102399033248
40
0.24109117511027
40
0.280661434965755
40
0.324566063700129
40
0.3726879816244
40
0.422688676743836
40
0.473708455198673
40
0.525744267224654
40
0.612076894210437
40
0.682755119041397
40
0.758818483589874
40
0.87209391185719
40
1
40
1
40
1
40
1
41
1
10
28.6497101679848
20
-3.8437984771785
30
0
41
1
10
28.9263888101935
20
-3.84398859935604
30
0
41
1
10
29.4199852993918
20
-3.84435762909305
30
0
41
1
10
30.0597854732034
20
-3.84466884135139
30
0
41
1
10
30.5274677447521
20
-3.84522214176371
30
0
41
1
10
30.894597662058
20
-3.84547048822654
30
0
41
1
10
31.243810324659
20
-3.84562167501539
30
0
41
1
10
31.6206106678189
20
-3.8456888655266
30
0
41
1
10
32.0162495612165
20
-3.84624667843139
30
0
41
1
10
32.4222582378385
20
-3.84656428217244
30
0
41
1
10
32.9244232863314
20
-3.84643048240082
30
0
41
1
10
33.479388962165
20
-3.84681546142716
30
0
41
1
10
34.096981492769
20
-3.84755290687824
30
0
41
1
10
34.7869865941793
20
-3.84747471459968
30
0
41
1
10
35.628666270203
20
-3.8482623018285
30
0
41
1
10
36.2685926429669
20
-3.84859183117919
30
0
41
1
10
36.6079585140794
20
-3.84879192497252
30
0
0
SPLINE
5
A0
100
AcDbEntity
8
1
62
256
6
ByLayer
370
18
48
1
60
0
100
AcDbSpline
70
4
71
3
72
18
73
14
40
0
40
0
40
0
40
0
40
0.0507250407044101
40
0.161588296845982
40
0.262193775109683
40
0.353241679429565
40
0.46489279039877
40
0.57243823099228
40
0.672867637999387
40
0.762525817340327
40
0.863349541111897
40
0.973197769848295
40
1
40
1
40
1
40
1
41
1
10
36.60378179521
20
3.84870439689615
30
0
41
1
10
36.5107940789945
20
3.84860712658263
30
0
41
1
10
36.2145775147212
20
3.84833659557114
30
0
41
1
10
35.7339263094941
20
3.84812595932704
30
0
41
1
10
35.1794245642814
20
3.84813480809928
30
0
41
1
10
34.6234002976119
20
3.8473400497804
30
0
41
1
10
34.054689987992
20
3.84758226541413
30
0
41
1
10
33.4687674103034
20
3.84694571228294
30
0
41
1
10
32.9231586911934
20
3.84653951705008
30
0
41
1
10
32.3898716593249
20
3.84664881335533
30
0
41
1
10
31.8393169703143
20
3.84592659803576
30
0
41
1
10
31.4039853875647
20
3.84566751022328
30
0
41
1
10
31.1534967493221
20
3.84556303242064
30
0
41
1
10
31.1043669786443
20
3.84554191819564
30
0
0
SPLINE
5
A1
100
AcDbEntity
8
1
62
256
6
ByLayer
370
18
48
1
60
0
100
AcDbSpline
70
4
71
3
72
17
73
13
40
0
40
0
40
0
40
0
40
0.146237465767116
40
0.270076467675973
40
0.391991752169882
40
0.49222178378418
40
0.602577058287136
40
0.734062701111968
40
0.818365950618197
40
0.884946710715785
40
0.959961126564923
40
1
40
1
40
1
40
1
41
1
10
82.9874997668208
20
-3.877648020321
30
0
41
1
10
83.3776506736695
20
-3.87758783531805
30
0
41
1
10
84.0982119301041
20
-3.87762856200911
30
0
41
1
10
85.1426252080295
20
-3.87888528406069
30
0
41
1
10
86.0670546615516
20
-3.87893687760297
30
0
41
1
10
86.9548180838018
20
-3.87926697749475
30
0
41
1
10
87.8682916470955
20
-3.88118818609976
30
0
41
1
10
88.7391995408261
20
-3.87966723382596
30
0
41
1
10
89.4932145021426
20
-3.87924743538952
30
0
41
1
10
90.0964379238904
20
-3.88033176494531
30
0
41
1
10
90.5814592141904
20
-3.88231637047258
30
0
41
1
10
90.8886899672524
20
-3.88203063408019
30
0
41
1
10
90.9956072166206
20
-3.88184546697764
30
0
0
SPLINE
5
A2
100
AcDbEntity
8
1
62
256
6
ByLayer
370
18
48
1
60
0
100
AcDbSpline
70
4
71
1
72
4
73
2
40
0
40
0
40
1
40
1
41
1
10
110.257495951786
20
-3.89482803371124
30
0
41
1
10
110.564856795128
20
-3.89501308831981
30
0
0
SPLINE
5
A3
100
AcDbEntity
8
1
62
256
6
ByLayer
370
18
48
1
60
0
100
AcDbSpline
70
4
71
3
72
18
73
14
40
0
40
0
40
0
40
0
40
0.0454666781862541
40
0.166892410783133
40
0.261012235200137
40
0.343205864742407
40
0.425161419927724
40
0.519309012331179
40
0.641423349432149
40
0.773637564544404
40
0.862560559221236
40
0.935218422031498
40
1
40
1
40
1
40
1
41
1
10
63.8012239588995
20
3.86522141537404
30
0
41
1
10
63.7174168974142
20
3.86519859400354
30
0
41
1
10
63.4097901403385
20
3.86511189653828
30
0
41
1
10
62.9286742614579
20
3.86410457495927
30
0
41
1
10
62.3798617744666
20
3.86466187782136
30
0
41
1
10
61.9038027766871
20
3.86422508144307
30
0
41
1
10
61.4276935887676
20
3.86339414697409
30
0
41
1
10
60.8780079945814
20
3.86385298875234
30
0
41
1
10
60.2356840212182
20
3.86313504200359
30
0
41
1
10
59.60295565439
20
3.86263875399592
30
0
41
1
10
59.0614715577645
20
3.86271046565375
30
0
41
1
10
58.6441065514478
20
3.86227722785185
30
0
41
1
10
58.3910306690427
20
3.86208009539573
30
0
41
1
10
58.2717345780222
20
3.8619875574395
30
0
0
SPLINE
5
A4
100
AcDbEntity
8
1
62
256
6
ByLayer
370
18
48
1
60
0
100
AcDbSpline
70
4
71
3
72
14
73
10
40
0
40
0
40
0
40
0
40
0.11918788352527
40
0.347025951707812
40
0.430532940357276
40
0.517899260598279
40
0.656580062569876
40
0.84942899272783
40
1
40
1
40
1
40
1
41
1
10
9.48953610950812
20
3.83215369686715
30
0
41
1
10
9.38753665152257
20
3.83209846679674
30
0
41
1
10
9.09055620992743
20
3.83195455100761
30
0
41
1
10
8.72211134870639
20
3.83197570916604
30
0
41
1
10
8.38089851704464
20
3.83187048494904
30
0
41
1
10
8.11598727009547
20
3.83173166199677
30
0
41
1
10
7.75751183248715
20
3.8314451476015
30
0
41
1
10
7.34493267997235
20
3.83099180976836
30
0
41
1
10
7.05104309826618
20
3.83056636660575
30
0
41
1
10
6.92218857153799
20
3.83036090862518
30
0
0
SPLINE
5
A5
100
AcDbEntity
8
1
62
256
6
ByLayer
370
18
48
1
60
0
100
AcDbSpline
70
4
71
3
72
20
73
16
40
0
40
0
40
0
40
0
40
0.125000000000002
40
0.125000000000002
40
0.187500000000003
40
0.187500000000003
40
0.250000000000004
40
0.250000000000004
40
0.500000000000001
40
0.500000000000001
40
0.625
40
0.625
40
0.749999999999999
40
0.749999999999999
40
1
40
1
40
1
40
1
41
1
10
6.92240296751419
20
-2.63399983083221
30
0
41
1
10
7.00812097344956
20
-2.74254863046957
30
0
41
1
10
7.09824859926175
20
-2.84295371259213
30
0
41
1
10
7.23951837899276
20
-2.98244313732349
30
0
41
1
10
7.28762734521496
20
-3.02707891778107
30
0
41
1
10
7.38585559625898
20
-3.112735630987
30
0
41
1
10
7.43608291106332
20
-3.15382870855959
30
0
41
1
10
7.68960386454455
20
-3.34849052561239
30
0
41
1
10
7.90151343375896
20
-3.4716443582883
30
0
41
1
10
8.23353667705695
20
-3.61551658685835
30
0
41
1
10
8.34660417046746
20
-3.65658549887718
30
0
41
1
10
8.57792681300859
20
-3.72562930850828
30
0
41
1
10
8.69643257530493
20
-3.75360642136923
30
0
41
1
10
9.0558285644544
20
-3.8180295514349
30
0
41
1
10
9.30194164257071
20
-3.83558386897076
30
0
41
1
10
9.55637988687226
20
-3.83156727825573
30
0
0
SPLINE
5
A6
100
AcDbEntity
8
1
62
256
6
ByLayer
370
18
48
1
60
0
100
AcDbSpline
70
4
71
3
72
8
73
4
40
0
40
0
40
0
40
0
40
1
40
1
40
1
40
1
41
1
10
110.672208259198
20
3.9899338690376
30
0
41
1
10
110.616907975176
20
4.04373888837711
30
0
41
1
10
110.569051339507
20
4.07823463261897
30
0
41
1
10
110.528235878323
20
4.09249170421018
30
0
0
SPLINE
5
A7
100
AcDbEntity
8
1
62
256
6
ByLayer
370
18
48
1
60
0
100
AcDbSpline
70
4
71
3
72
8
73
4
40
0
40
0
40
0
40
0
40
1
40
1
40
1
40
1
41
1
10
110.67220825919
20
-3.9899338690594
30
0
41
1
10
111.069478223905
20
-2.98728520009456
30
0
41
1
10
111.466655490103
20
-1.98398187839291
30
0
41
1
10
111.856521276679
20
-0.976900086431527
30
0
0
SPLINE
5
A8
100
AcDbEntity
8
1
62
256
6
ByLayer
370
18
48
1
60
0
100
AcDbSpline
70
4
71
3
72
8
73
4
40
0
40
0
40
0
40
0
40
1
40
1
40
1
40
1
41
1
10
110.528235878323
20
4.09249170421018
30
0
41
1
10
110.354450847912
20
4.09734041379591
30
0
41
1
10
110.18064002551
20
4.099703856801
30
0
41
1
10
110.006756864585
20
4.0995845447928
30
0
0
SPLINE
5
A9
100
AcDbEntity
8
1
62
256
6
ByLayer
370
18
48
1
60
0
100
AcDbSpline
70
4
71
3
72
50
73
46
40
0
40
0
40
0
40
0
40
0.002059354539626
40
0.002059354539626
40
0.0291566895023568
40
0.0291566895023568
40
0.0833513594278196
40
0.0833513594278196
40
0.110448694390551
40
0.110448694390551
40
0.137546029353283
40
0.137546029353283
40
0.191740699278748
40
0.191740699278748
40
0.245935369204211
40
0.245935369204211
40
0.300130039129675
40
0.300130039129675
40
0.354324709055139
40
0.354324709055139
40
0.408519378980603
40
0.408519378980603
40
0.435616713943335
40
0.435616713943335
40
0.462714048906067
40
0.462714048906067
40
0.51690871883153
40
0.51690871883153
40
0.544006053794262
40
0.544006053794262
40
0.571103388756994
40
0.571103388756994
40
0.625298058682459
40
0.625298058682459
40
0.652395393645191
40
0.652395393645191
40
0.679492728607923
40
0.679492728607923
40
0.733687398533386
40
0.733687398533386
40
0.787882068458849
40
0.787882068458849
40
0.896271408309774
40
0.896271408309774
40
1
40
1
40
1
40
1
41
1
10
85.4958439951284
20
-3.88893657794529
30
0
41
1
10
85.4753040211168
20
-3.89188506886546
30
0
41
1
10
85.4547662109766
20
-3.89480032794353
30
0
41
1
10
85.1640257676546
20
-3.93560235053349
30
0
41
1
10
84.8941698829435
20
-3.96776619138888
30
0
41
1
10
84.08501975223
20
-4.04676387758832
30
0
41
1
10
83.5462327008777
20
-4.07611403073392
30
0
41
1
10
82.7362982557598
20
-4.08438786754257
30
0
41
1
10
82.4657776682221
20
-4.08118507499185
30
0
41
1
10
81.9250799844602
20
-4.06284344027972
30
0
41
1
10
81.6551246919913
20
-4.04772650464304
30
0
41
1
10
80.8457268289866
20
-3.98486016774407
30
0
41
1
10
80.3069430033735
20
-3.91949855562783
30
0
41
1
10
79.2272570701595
20
-3.74387498887282
30
0
41
1
10
78.685706272547
20
-3.63322705732307
30
0
41
1
10
77.6061393788887
20
-3.3718848176122
30
0
41
1
10
77.0673043101297
20
-3.22093600884355
30
0
41
1
10
75.9878374381836
20
-2.8831762002543
30
0
41
1
10
75.4462590079047
20
-2.69574261236144
30
0
41
1
10
74.3663284571379
20
-2.29294001827395
30
0
41
1
10
73.8273764869189
20
-2.07742336973371
30
0
41
1
10
73.0179256541733
20
-1.7376201890186
30
0
41
1
10
72.7479136404238
20
-1.62164819926224
30
0
41
1
10
72.2071734477917
20
-1.38489924640643
30
0
41
1
10
71.9365025791544
20
-1.26413781579231
30
0
41
1
10
71.1261821332118
20
-0.897822146946339
30
0
41
1
10
70.5871357210425
20
-0.647539246701086
30
0
41
1
10
69.7777725367872
20
-0.268375261810178
30
0
41
1
10
69.5078284827305
20
-0.141416264102702
30
0
41
1
10
68.9672903680503
20
0.112928265606371
30
0
41
1
10
68.6964961081968
20
0.240409050309239
30
0
41
1
10
67.8857699536875
20
0.620258584481945
30
0
41
1
10
67.3465896332549
20
0.870626191061803
30
0
41
1
10
66.5372465935118
20
1.23660578146595
30
0
41
1
10
66.2673567331159
20
1.35697730641135
30
0
41
1
10
65.7270017991277
20
1.59373650775095
30
0
41
1
10
65.4562364129177
20
1.71023708417465
30
0
41
1
10
64.6450637406885
20
2.05104937507926
30
0
41
1
10
64.1057614005749
20
2.26692066431176
30
0
41
1
10
63.0266630874622
20
2.6699138467458
30
0
41
1
10
62.4863416107316
20
2.85723350944843
30
0
41
1
10
60.8630425656067
20
3.36644579313821
30
0
41
1
10
59.7873063862767
20
3.63252833134138
30
0
41
1
10
57.6680951467043
20
3.97988591203406
30
0
41
1
10
56.6382380841226
20
4.06644173331068
30
0
41
1
10
55.6028844046133
20
4.06557979538337
30
0
0
SPLINE
5
AA
100
AcDbEntity
8
1
62
256
6
ByLayer
370
18
48
1
60
0
100
AcDbSpline
70
4
71
3
72
42
73
38
40
0
40
0
40
0
40
0
40
0.0630438000481223
40
0.0630438000481223
40
0.0965065214749752
40
0.0965065214749752
40
0.129969242901829
40
0.129969242901829
40
0.196894685755535
40
0.196894685755535
40
0.230357407182387
40
0.230357407182387
40
0.263820128609239
40
0.263820128609239
40
0.330745571462944
40
0.330745571462944
40
0.397671014316649
40
0.397671014316649
40
0.464596457170355
40
0.464596457170355
40
0.531521900024061
40
0.531521900024061
40
0.598447342877766
40
0.598447342877766
40
0.665372785731472
40
0.665372785731472
40
0.698835507158325
40
0.698835507158325
40
0.732298228585178
40
0.732298228585178
40
0.799223671438884
40
0.799223671438884
40
0.832686392865737
40
0.832686392865737
40
0.866149114292589
40
0.866149114292589
40
1
40
1
40
1
40
1
41
1
10
31.0483478183267
20
-3.86322745132733
30
0
41
1
10
30.5389204778961
20
-3.93450128810369
30
0
41
1
10
30.0304877120455
20
-3.98553444750607
30
0
41
1
10
29.251575854686
20
-4.03181787529019
30
0
41
1
10
28.9813982840766
20
-4.04201208052012
30
0
41
1
10
28.440373969028
20
-4.05055124639637
30
0
41
1
10
28.1692564489178
20
-4.04888396078152
30
0
41
1
10
27.3574225730062
20
-4.02610620699636
30
0
41
1
10
26.8176071953378
20
-3.98725390878596
30
0
41
1
10
26.0073991329605
20
-3.89454706979882
30
0
41
1
10
25.7372545440946
20
-3.85790901284736
30
0
41
1
10
25.1963996561727
20
-3.77337315940903
30
0
41
1
10
24.9253936686469
20
-3.72542750373631
30
0
41
1
10
24.1130958593135
20
-3.56557087581629
30
0
41
1
10
23.5731243893473
20
-3.43773762116947
30
0
41
1
10
22.4928152777571
20
-3.14364935002254
30
0
41
1
10
21.9522584763996
20
-2.9771908844634
30
0
41
1
10
20.8685065524467
20
-2.61085086263284
30
0
41
1
10
20.3283938562293
20
-2.41173271168208
30
0
41
1
10
19.2480615677422
20
-1.98799327723157
30
0
41
1
10
18.7078299555469
20
-1.76340570889636
30
0
41
1
10
17.623933105488
20
-1.29494626484942
30
0
41
1
10
17.0834126581151
20
-1.05195102412503
30
0
41
1
10
16.0029819334594
20
-0.557463905409179
30
0
41
1
10
15.4627846550348
20
-0.305879989073674
30
0
41
1
10
14.6502150592281
20
0.0730933757216974
30
0
41
1
10
14.3791687050067
20
0.19970521699463
30
0
41
1
10
13.8381724383018
20
0.451370106544545
30
0
41
1
10
13.5679460210444
20
0.576559757113074
30
0
41
1
10
12.7574581477516
20
0.948879351669234
30
0
41
1
10
12.2173566135844
20
1.19269092239446
30
0
41
1
10
11.4050756213609
20
1.54664176711987
30
0
41
1
10
11.1338082365076
20
1.66277907091234
30
0
41
1
10
10.5929302853978
20
1.88926982121583
30
0
41
1
10
10.3229905481024
20
1.99973771484488
30
0
41
1
10
8.97451223857939
20
2.53589060679079
30
0
41
1
10
7.89978398965349
20
2.91320806566037
30
0
41
1
10
6.81620787910069
20
3.21747712910493
30
0
0
SPLINE
5
AB
100
AcDbEntity
8
1
62
256
6
ByLayer
370
18
48
1
60
0
100
AcDbSpline
70
4
71
3
72
18
73
14
40
0
40
0
40
0
40
0
40
0.0239422505465301
40
0.0239422505465301
40
0.230340749353007
40
0.230340749353007
40
0.643137746965963
40
0.643137746965963
40
0.746336996369203
40
0.746336996369203
40
0.849536245772444
40
0.849536245772444
40
1
40
1
40
1
40
1
41
1
10
14.8098027995222
20
-0.0012292104487983
30
0
41
1
10
14.8726672420943
20
-0.029784374104338
30
0
41
1
10
14.9355003136415
20
-0.05832105483384
30
0
41
1
10
15.5397238598814
20
-0.332621455850244
30
0
41
1
10
16.0788577747343
20
-0.576926798594656
30
0
41
1
10
17.6938812737428
20
-1.29552743340929
30
0
41
1
10
18.7679480816094
20
-1.75427674024314
30
0
41
1
10
20.1226137545598
20
-2.26919843526332
30
0
41
1
10
20.3941553573744
20
-2.36925707544472
30
0
41
1
10
20.9388770799605
20
-2.5626557896982
30
0
41
1
10
21.2119170727009
20
-2.65589824061485
30
0
41
1
10
21.8798287964642
20
-2.87399718323263
30
0
41
1
10
22.2744033504622
20
-2.99428355532632
30
0
41
1
10
22.668043214022
20
-3.10469736208268
30
0
0
SPLINE
5
AC
100
AcDbEntity
8
1
62
256
6
ByLayer
370
13
48
1
60
0
100
AcDbSpline
70
4
71
3
72
18
73
14
40
0
40
0
40
0
40
0
40
0.0582176567926029
40
0.0582176567926029
40
0.487862488579932
40
0.487862488579932
40
0.702684904473598
40
0.702684904473598
40
0.810096112420431
40
0.810096112420431
40
0.917507320367265
40
0.917507320367265
40
1
40
1
40
1
40
1
41
1
10
22.6680432139057
20
-3.10469736205008
30
0
41
1
10
22.8143784249548
20
-3.14574358020644
30
0
41
1
10
22.9605844643171
20
-3.18542543657358
30
0
41
1
10
24.1849941898955
20
-3.50618474387028
30
0
41
1
10
25.2578797761844
20
-3.71209913094216
30
0
41
1
10
26.8779560461249
20
-3.8877179164819
30
0
41
1
10
27.4197603065808
20
-3.92412021374315
30
0
41
1
10
28.237613416464
20
-3.94368546696586
30
0
41
1
10
28.5100682526406
20
-3.94431768872187
30
0
41
1
10
29.0528740849152
20
-3.93397266131407
30
0
41
1
10
29.3235701112627
20
-3.92301554988543
30
0
41
1
10
29.8013082453338
20
-3.8936190254644
30
0
41
1
10
30.0085380797621
20
-3.87748409951203
30
0
41
1
10
30.2155613097759
20
-3.85805383782187
30
0
0
SPLINE
5
AD
100
AcDbEntity
8
1
62
256
6
ByLayer
370
18
48
1
60
0
100
AcDbSpline
70
4
71
3
72
16
73
12
40
0
40
0
40
0
40
0
40
0.361919757486291
40
0.361919757486291
40
0.594965490483874
40
0.594965490483874
40
0.711488356982668
40
0.711488356982668
40
0.828011223481462
40
0.828011223481462
40
1
40
1
40
1
40
1
41
1
10
69.2422594178458
20
-0.015978198016029
30
0
41
1
10
70.0784490416798
20
-0.39920360679497
30
0
41
1
10
70.9114442745834
20
-0.780844291789947
30
0
41
1
10
72.2852260897128
20
-1.38411339736564
30
0
41
1
10
72.824483999538
20
-1.61426590241089
30
0
41
1
10
73.637436251771
20
-1.94513465954267
30
0
41
1
10
73.909236280829
20
-2.05311724693175
30
0
41
1
10
74.4540400458933
20
-2.26304692308028
30
0
41
1
10
74.725582076528
20
-2.36445182910427
30
0
41
1
10
75.396180840193
20
-2.60611537478204
30
0
41
1
10
75.7944916999104
20
-2.74175659682777
30
0
41
1
10
76.1919930425267
20
-2.86811105956733
30
0
0
SPLINE
5
AE
100
AcDbEntity
8
1
62
256
6
ByLayer
370
13
48
1
60
0
100
AcDbSpline
70
4
71
3
72
18
73
14
40
0
40
0
40
0
40
0
40
0.238157406864943
40
0.238157406864943
40
0.426872421618753
40
0.426872421618753
40
0.52122992899566
40
0.52122992899566
40
0.615587436372567
40
0.615587436372567
40
0.993017465880194
40
0.993017465880194
40
1
40
1
40
1
40
1
41
1
10
76.191993995302
20
-2.8681113624277
30
0
41
1
10
76.8717253202048
20
-3.08417874975413
30
0
41
1
10
77.5490895095699
20
-3.27309040006838
30
0
41
1
10
78.7646857156941
20
-3.55525514489179
30
0
41
1
10
79.3025478339564
20
-3.66036486452933
30
0
41
1
10
80.1125645839269
20
-3.7856771243332
30
0
41
1
10
80.383069853506
20
-3.82207915945224
30
0
41
1
10
80.9255564098603
20
-3.88370790843095
30
0
41
1
10
81.1981342458625
20
-3.90898576568776
30
0
41
1
10
82.5579697730425
20
-4.00588597399801
30
0
41
1
10
83.6324552472909
20
-3.98908455872987
30
0
41
1
10
84.7266106128619
20
-3.88044758381616
30
0
41
1
10
84.7464848095033
20
-3.87844341025251
30
0
41
1
10
84.7663588660164
20
-3.87640841923837
30
0
0
SPLINE
5
AF
100
AcDbEntity
8
1
62
256
6
ByLayer
370
18
48
1
60
0
100
AcDbSpline
70
4
71
3
72
18
73
14
40
0
40
0
40
0
40
0
40
0.249999999999994
40
0.249999999999994
40
0.374999999999996
40
0.374999999999996
40
0.499999999999997
40
0.499999999999997
40
0.750000000000001
40
0.750000000000001
40
0.875
40
0.875
40
1
40
1
40
1
40
1
41
1
10
110.528757576957
20
-3.8868368832828
30
0
41
1
10
110.448185947275
20
-3.87326218898951
30
0
41
1
10
110.373602888813
20
-3.84275467381988
30
0
41
1
10
110.27150090059
20
-3.76936115454083
30
0
41
1
10
110.239012238263
20
-3.74010685671465
30
0
41
1
10
110.178719002261
20
-3.67311819813006
30
0
41
1
10
110.150757241826
20
-3.63531233704447
30
0
41
1
10
110.073453140107
20
-3.50890765317828
30
0
41
1
10
110.03063742532
20
-3.40742938320327
30
0
41
1
10
109.980495723452
20
-3.22742324156542
30
0
41
1
10
109.966115656255
20
-3.16246725218721
30
0
41
1
10
109.942796646397
20
-3.02527129277726
30
0
41
1
10
109.933777238701
20
-2.95284235261661
30
0
41
1
10
109.927413744982
20
-2.87655950082922
30
0
0
SPLINE
5
B0
100
AcDbEntity
8
1
62
256
6
ByLayer
370
18
48
1
60
0
100
AcDbSpline
70
4
71
3
72
26
73
22
40
0
40
0
40
0
40
0
40
0.180897234689108
40
0.180897234689108
40
0.271345852033661
40
0.271345852033661
40
0.361794469378214
40
0.361794469378214
40
0.452243086722766
40
0.452243086722766
40
0.542691704067319
40
0.542691704067319
40
0.633140321411872
40
0.633140321411872
40
0.723588938756425
40
0.723588938756425
40
0.904486173445531
40
0.904486173445531
40
0.994934790790083
40
0.994934790790083
40
1
40
1
40
1
40
1
41
1
10
9.55637988687226
20
-3.8315672782559
30
0
41
1
10
10.0716290937665
20
-3.82784015841108
30
0
41
1
10
10.5857293198028
20
-3.80369917471697
30
0
41
1
10
11.3554435247144
20
-3.73906152296289
30
0
41
1
10
11.6118525106647
20
-3.71266033772426
30
0
41
1
10
12.1247746623976
20
-3.64901840702788
30
0
41
1
10
12.3814900985086
20
-3.61198333954968
30
0
41
1
10
12.8959803457657
20
-3.52869361510452
30
0
41
1
10
13.153762194294
20
-3.48221895763683
30
0
41
1
10
13.6683993588339
20
-3.38054455311999
30
0
41
1
10
13.9254310587935
20
-3.3253712285194
30
0
41
1
10
14.4387991837738
20
-3.20699696015015
30
0
41
1
10
14.6949303711457
20
-3.14337974688519
30
0
41
1
10
15.208290070858
20
-3.00756594536625
30
0
41
1
10
15.4651387737512
20
-2.93565217221342
30
0
41
1
10
16.2361179916444
20
-2.70827659184206
30
0
41
1
10
16.7518317448754
20
-2.54104900066037
30
0
41
1
10
17.5219601507439
20
-2.27090299559993
30
0
41
1
10
17.7788567427579
20
-2.17898032689141
30
0
41
1
10
18.0500277063801
20
-2.07841600655186
30
0
41
1
10
18.0644080145625
20
-2.07307377210015
30
0
41
1
10
18.0787881447256
20
-2.067722447688
30
0
0
SPLINE
5
B1
100
AcDbEntity
8
1
62
256
6
ByLayer
370
18
48
1
60
0
100
AcDbSpline
70
4
71
3
72
100
73
96
40
0
40
0
40
0
40
0
40
0.0193574675389455
40
0.0193574675389455
40
0.0408194884504486
40
0.0408194884504486
40
0.0622815093619516
40
0.0622815093619516
40
0.105205551184957
40
0.105205551184957
40
0.126667572096459
40
0.126667572096459
40
0.148129593007961
40
0.148129593007961
40
0.169591613919464
40
0.169591613919464
40
0.191053634830966
40
0.191053634830966
40
0.212515655742469
40
0.212515655742469
40
0.233977676653971
40
0.233977676653971
40
0.255439697565474
40
0.255439697565474
40
0.266170708021225
40
0.266170708021225
40
0.276901718476976
40
0.276901718476976
40
0.29836373938848
40
0.29836373938848
40
0.319825760299983
40
0.319825760299983
40
0.341287781211487
40
0.341287781211487
40
0.362749802122991
40
0.362749802122991
40
0.384211823034494
40
0.384211823034494
40
0.405673843945997
40
0.405673843945997
40
0.427135864857501
40
0.427135864857501
40
0.448597885769004
40
0.448597885769004
40
0.470059906680508
40
0.470059906680508
40
0.491521927592012
40
0.491521927592012
40
0.512983948503515
40
0.512983948503515
40
0.534445969415018
40
0.534445969415018
40
0.555907990326522
40
0.555907990326522
40
0.577370011238026
40
0.577370011238026
40
0.598832032149529
40
0.598832032149529
40
0.620294053061033
40
0.620294053061033
40
0.631025063516784
40
0.631025063516784
40
0.641756073972535
40
0.641756073972535
40
0.663218094884038
40
0.663218094884038
40
0.68468011579554
40
0.68468011579554
40
0.706142136707043
40
0.706142136707043
40
0.727604157618546
40
0.727604157618546
40
0.749066178530048
40
0.749066178530048
40
0.770528199441551
40
0.770528199441551
40
0.791990220353053
40
0.791990220353053
40
0.834914262176057
40
0.834914262176057
40
0.85637628308756
40
0.85637628308756
40
0.877838303999063
40
0.877838303999063
40
0.899300324910565
40
0.899300324910565
40
0.920762345822068
40
0.920762345822068
40
0.942224366733571
40
0.942224366733571
40
0.963686387645073
40
0.963686387645073
40
0.985148408556575
40
0.985148408556575
40
1
40
1
40
1
40
1
41
1
10
36.6044924723497
20
3.84873620431122
30
0
41
1
10
36.8360706957243
20
3.84891894800595
30
0
41
1
10
37.0677779759901
20
3.84496102498017
30
0
41
1
10
37.5567820631307
20
3.82747258014351
30
0
41
1
10
37.8142469300549
20
3.81331908213124
30
0
41
1
10
38.3277967123864
20
3.77513861383906
30
0
41
1
10
38.5844863959821
20
3.75098395126406
30
0
41
1
10
39.3546060648196
20
3.6635427851952
30
0
41
1
10
39.8675836644089
20
3.58690855330693
30
0
41
1
10
40.6374900826297
20
3.44168691039704
30
0
41
1
10
40.8940470682217
20
3.38825873342782
30
0
41
1
10
41.4087298414044
20
3.27399314388671
30
0
41
1
10
41.6659130169036
20
3.21269464534441
30
0
41
1
10
42.1795994620088
20
3.08124010974606
30
0
41
1
10
42.4362414271436
20
3.01135454066312
30
0
41
1
10
42.9491809520265
20
2.86413574449369
30
0
41
1
10
43.2054160956217
20
2.78655244274174
30
0
41
1
10
43.7178390111804
20
2.62304550819749
30
0
41
1
10
43.9747846717568
20
2.53850635996491
30
0
41
1
10
44.4888151805705
20
2.36265996473256
30
0
41
1
10
44.7463156403922
20
2.27141890934513
30
0
41
1
10
45.2604794251868
20
2.08303198264756
30
0
41
1
10
45.5171854075223
20
1.98585257855052
30
0
41
1
10
45.9017156508112
20
1.83602916415231
30
0
41
1
10
46.0297326829867
20
1.78526427893237
30
0
41
1
10
46.2860149461049
20
1.68315723106966
30
0
41
1
10
46.4142740250124
20
1.6318085252438
30
0
41
1
10
46.7990153024595
20
1.47599446191074
30
0
41
1
10
47.055596333208
20
1.37001001064107
30
0
41
1
10
47.5689582054937
20
1.15464895494671
30
0
41
1
10
47.825781620468
20
1.04530236411446
30
0
41
1
10
48.3400088535172
20
0.822813245827035
30
0
41
1
10
48.5967635661389
20
0.709369333352811
30
0
41
1
10
49.1103247994208
20
0.483407411350271
30
0
41
1
10
49.3669983469829
20
0.370062845173436
30
0
41
1
10
49.8801445653039
20
0.142584227559269
30
0
41
1
10
50.1366610728389
20
0.0285731257981467
30
0
41
1
10
50.649691885091
20
-0.199702902253449
30
0
41
1
10
50.9060939658806
20
-0.314212751966579
30
0
41
1
10
51.4192392712432
20
-0.542807664249551
30
0
41
1
10
51.6766210240325
20
-0.656031813138128
30
0
41
1
10
52.191082996905
20
-0.880157537813346
30
0
41
1
10
52.4479648710778
20
-0.991441121626679
30
0
41
1
10
52.9613393937095
20
-1.21039196185657
30
0
41
1
10
53.2178641768637
20
-1.31810781701987
30
0
41
1
10
53.7304803723186
20
-1.53117390874274
30
0
41
1
10
53.9864848625245
20
-1.63661729896916
30
0
41
1
10
54.4997525929131
20
-1.84090712981859
30
0
41
1
10
54.7566839324799
20
-1.94040666325429
30
0
41
1
10
55.2710687581934
20
-2.13475117036268
30
0
41
1
10
55.5285040746045
20
-2.22965135019501
30
0
41
1
10
56.042128698023
20
-2.41305950758226
30
0
41
1
10
56.2984910442392
20
-2.5014702041031
30
0
41
1
10
56.8108148744681
20
-2.67229245406614
30
0
41
1
10
57.0674734345141
20
-2.75351499831675
30
0
41
1
10
57.5805179508842
20
-2.90925298665326
30
0
41
1
10
57.837148619782
20
-2.98287637805902
30
0
41
1
10
58.3507710629886
20
-3.12302588158494
30
0
41
1
10
58.607894704345
20
-3.18957140466119
30
0
41
1
10
58.9932737787564
20
-3.28321167345652
30
0
41
1
10
59.1215061826268
20
-3.31339895442045
30
0
41
1
10
59.3782227519255
20
-3.37082183234025
30
0
41
1
10
59.5066025336393
20
-3.39826852756235
30
0
41
1
10
59.8915944854897
20
-3.47759970666746
30
0
41
1
10
60.1480898335142
20
-3.52626522432178
30
0
41
1
10
60.6609413693866
20
-3.61413978219397
30
0
41
1
10
60.9173590553881
20
-3.65315988682582
30
0
41
1
10
61.4302002112617
20
-3.72132103096931
30
0
41
1
10
61.6863175476316
20
-3.75128045558569
30
0
41
1
10
62.2000939859988
20
-3.80078348926185
30
0
41
1
10
62.4576004190155
20
-3.82005270230326
30
0
41
1
10
62.9714464674389
20
-3.84837730292762
30
0
41
1
10
63.2280945258109
20
-3.8578068279013
30
0
41
1
10
63.7409861405116
20
-3.86707851694524
30
0
41
1
10
63.9971947325465
20
-3.86614207079578
30
0
41
1
10
64.5093752189213
20
-3.85383159146664
30
0
41
1
10
64.765842542262
20
-3.84272801173688
30
0
41
1
10
65.5359056757682
20
-3.7958213254667
30
0
41
1
10
66.0511603772918
20
-3.74229396963293
30
0
41
1
10
66.8205618903478
20
-3.63531438692379
30
0
41
1
10
67.0765688624257
20
-3.59418953365127
30
0
41
1
10
67.5894110209387
20
-3.50308705150633
30
0
41
1
10
67.8458665240156
20
-3.45327144909135
30
0
41
1
10
68.3588853259262
20
-3.34472824962717
30
0
41
1
10
68.6155437370596
20
-3.28576937507077
30
0
41
1
10
69.1292443837527
20
-3.15875655237107
30
0
41
1
10
69.3863494111616
20
-3.09072790001133
30
0
41
1
10
69.8995719690899
20
-2.94695966557305
30
0
41
1
10
70.156427864731
20
-2.87183174561903
30
0
41
1
10
70.6695013974825
20
-2.71355633826801
30
0
41
1
10
70.9258924260465
20
-2.63087042607896
30
0
41
1
10
71.4386286979435
20
-2.45895489247204
30
0
41
1
10
71.6949401058154
20
-2.36944919880764
30
0
41
1
10
72.1286703848397
20
-2.21186789893844
30
0
41
1
10
72.3061694117696
20
-2.14595832676847
30
0
41
1
10
72.4839009104396
20
-2.07891673179179
30
0
0
SPLINE
5
B2
100
AcDbEntity
8
1
62
256
6
ByLayer
370
18
48
1
60
0
100
AcDbSpline
70
4
71
3
72
44
73
40
40
0
40
0
40
0
40
0
40
0.0112360926222037
40
0.0112360926222037
40
0.101123720565639
40
0.101123720565639
40
0.146067534537357
40
0.146067534537357
40
0.191011348509075
40
0.191011348509075
40
0.235955162480793
40
0.235955162480793
40
0.280898976452511
40
0.280898976452511
40
0.325842790424228
40
0.325842790424228
40
0.370786604395947
40
0.370786604395947
40
0.460674232339382
40
0.460674232339382
40
0.550561860282817
40
0.550561860282817
40
0.595505674254535
40
0.595505674254535
40
0.640449488226253
40
0.640449488226253
40
0.730337116169693
40
0.730337116169693
40
0.775280930141411
40
0.775280930141411
40
0.820224744113129
40
0.820224744113129
40
0.865168558084847
40
0.865168558084847
40
0.910112372056565
40
0.910112372056565
40
0.955056186028283
40
0.955056186028283
40
1
40
1
40
1
40
1
41
1
10
90.9996202531316
20
3.88190935435017
30
0
41
1
10
91.0637377776719
20
3.88183177725855
30
0
41
1
10
91.1278472055083
20
3.88142754764013
30
0
41
1
10
91.7047289026772
20
3.87505747841055
30
0
41
1
10
92.2168947223475
20
3.84954993032574
30
0
41
1
10
92.9849371989941
20
3.78128449841134
30
0
41
1
10
93.2408475224869
20
3.75378007959768
30
0
41
1
10
93.7541317681671
20
3.68900356966387
30
0
41
1
10
94.0113021652433
20
3.65115516299287
30
0
41
1
10
94.5244976779278
20
3.56634421195656
30
0
41
1
10
94.7808302350716
20
3.51948158820756
30
0
41
1
10
95.2930091054225
20
3.41625435125707
30
0
41
1
10
95.5486736777843
20
3.35968680813772
30
0
41
1
10
96.0604111644464
20
3.23802612095079
30
0
41
1
10
96.3167572363845
20
3.17373045934767
30
0
41
1
10
96.8295608169124
20
3.03644710985921
30
0
41
1
10
97.0863464853713
20
2.96309515488573
30
0
41
1
10
97.8570654525427
20
2.73176297075031
30
0
41
1
10
98.3685132102632
20
2.56162104692962
30
0
41
1
10
99.3931355436889
20
2.19923027806462
30
0
41
1
10
99.9053107863552
20
2.00683261884654
30
0
41
1
10
100.674970970314
20
1.69978379255409
30
0
41
1
10
100.931590220582
20
1.59409574683147
30
0
41
1
10
101.444761286818
20
1.38130183206724
30
0
41
1
10
101.701213351534
20
1.2734031207618
30
0
41
1
10
102.470046038328
20
0.945031438466515
30
0
41
1
10
102.982026865674
20
0.720409299270671
30
0
41
1
10
103.750299155715
20
0.37577508282169
30
0
41
1
10
104.007125635958
20
0.261018932462491
30
0
41
1
10
104.521105617205
20
0.0309097791354986
30
0
41
1
10
104.777694086346
20
-0.0841900090145202
30
0
41
1
10
105.290410273787
20
-0.31370350713803
30
0
41
1
10
105.546521200593
20
-0.428190189888511
30
0
41
1
10
106.058207654532
20
-0.656762093855491
30
0
41
1
10
106.313790323169
20
-0.770791959282974
30
0
41
1
10
106.826045176456
20
-0.994707018837062
30
0
41
1
10
107.082367340191
20
-1.10539536354094
30
0
41
1
10
107.595406186395
20
-1.32432192457131
30
0
41
1
10
107.852491165192
20
-1.43242822587155
30
0
41
1
10
108.109139814395
20
-1.53842009440211
30
0
0
SPLINE
5
B3
100
AcDbEntity
8
1
62
256
6
ByLayer
370
18
48
1
60
0
100
AcDbSpline
70
4
71
3
72
10
73
6
40
0
40
0
40
0
40
0
40
0.518134701613035
40
0.518134701613035
40
1
40
1
40
1
40
1
41
1
10
110.58894204614
20
-3.8919134184726
30
0
41
1
10
109.503544330996
20
-3.9108525602889
30
0
41
1
10
108.430251948484
20
-3.83678127668699
30
0
41
1
10
106.359520007721
20
-3.53071912663319
30
0
41
1
10
105.361857455732
20
-3.30974960827618
30
0
41
1
10
104.354596375523
20
-3.02443683717002
30
0
0
SPLINE
5
B4
100
AcDbEntity
8
1
62
256
6
ByLayer
370
13
48
1
60
0
100
AcDbSpline
70
4
71
3
72
24
73
20
40
0
40
0
40
0
40
0
40
0.0191178465565596
40
0.0191178465565596
40
0.0873958779227791
40
0.0873958779227791
40
0.155673909288999
40
0.155673909288999
40
0.292229972021432
40
0.292229972021432
40
0.565342097486292
40
0.565342097486292
40
0.701898160218725
40
0.701898160218725
40
0.770176191584938
40
0.770176191584938
40
0.838454222951152
40
0.838454222951152
40
1
40
1
40
1
40
1
41
1
10
104.354596511376
20
-3.02443687565148
30
0
41
1
10
104.278781174219
20
-3.00296172492665
30
0
41
1
10
104.20291145763
20
-2.98112204439121
30
0
41
1
10
103.855810838082
20
-2.87963490172314
30
0
41
1
10
103.583334417163
20
-2.79555222550576
30
0
41
1
10
103.040734751891
20
-2.62020579203346
30
0
41
1
10
102.770274265926
20
-2.52890176567746
30
0
41
1
10
101.960987400524
20
-2.24503028280788
30
0
41
1
10
101.424206397099
20
-2.04255936994932
30
0
41
1
10
99.8174171015443
20
-1.40521621951999
30
0
41
1
10
98.7509404031286
20
-0.940395820889705
30
0
41
1
10
97.1405281747885
20
-0.222364811841516
30
0
41
1
10
96.6018830375078
20
0.0203117205862213
30
0
41
1
10
95.7889840445662
20
0.384324347642433
30
0
41
1
10
95.5165861539738
20
0.50592250118666
30
0
41
1
10
94.9733587348393
20
0.746490680346199
30
0
41
1
10
94.7025215849709
20
0.865470719658816
30
0
41
1
10
93.7928577907781
20
1.26019608017336
30
0
41
1
10
93.1567464638921
20
1.52813065940037
30
0
41
1
10
92.5213549041086
20
1.78130356614361
30
0
0
SPLINE
5
B5
100
AcDbEntity
8
1
62
256
6
ByLayer
370
18
48
1
60
0
100
AcDbSpline
70
4
71
3
72
14
73
10
40
0
40
0
40
0
40
0
40
0.10194303533115
40
0.10194303533115
40
0.634282589914078
40
0.634282589914078
40
0.900452367205542
40
0.900452367205542
40
1
40
1
40
1
40
1
41
1
10
56.1698517323146
20
-3.85821280680921
30
0
41
1
10
55.9616862356058
20
-3.86153522657094
30
0
41
1
10
55.7539571474601
20
-3.86150984723656
30
0
41
1
10
54.4636629628649
20
-3.84068638808188
30
0
41
1
10
53.3903360825649
20
-3.73241065704991
30
0
41
1
10
51.7764931900138
20
-3.44608563118072
30
0
41
1
10
51.2378446597127
20
-3.32998267172013
30
0
41
1
10
50.4948427732187
20
-3.14406589724822
30
0
41
1
10
50.2923026475982
20
-3.09075340580571
30
0
41
1
10
50.0893678469723
20
-3.03484934528424
30
0
0
SPLINE
5
B6
100
AcDbEntity
8
1
62
256
6
ByLayer
370
13
48
1
60
0
100
AcDbSpline
70
4
71
3
72
22
73
18
40
0
40
0
40
0
40
0
40
0.0171966699177115
40
0.0171966699177115
40
0.0854373796489137
40
0.0854373796489137
40
0.358400218573722
40
0.358400218573722
40
0.631363057498532
40
0.631363057498532
40
0.699603767229732
40
0.699603767229732
40
0.767844476960933
40
0.767844476960933
40
0.904325896423334
40
0.904325896423334
40
1
40
1
40
1
40
1
41
1
10
50.0893688112215
20
-3.03484961091362
30
0
41
1
10
50.0210004523467
20
-3.01601563900346
30
0
41
1
10
49.9525872977325
20
-2.99688752303686
30
0
41
1
10
49.6124523048646
20
-2.90041464340675
30
0
41
1
10
49.3395702495883
20
-2.81863783738143
30
0
41
1
10
47.9808933298068
20
-2.39107023948756
30
0
41
1
10
46.9057709299
20
-1.98810817301728
30
0
41
1
10
44.7544319541842
20
-1.11089994205162
30
0
41
1
10
43.6785193337463
20
-0.635986154988814
30
0
41
1
10
42.3177636536049
20
-0.0309890928965899
30
0
41
1
10
42.0451995684257
20
0.0904925696052885
30
0
41
1
10
41.5024381562438
20
0.331599809159655
30
0
41
1
10
41.2317209018231
20
0.451448212915267
30
0
41
1
10
40.4211453738599
20
0.807980481586469
30
0
41
1
10
39.8827610739401
20
1.04141090492729
30
0
41
1
10
38.9677580942111
20
1.42548206316312
30
0
41
1
10
38.5909133439621
20
1.58002417686097
30
0
41
1
10
38.2137841457187
20
1.72973651479919
30
0
0
SPLINE
5
B7
100
AcDbEntity
8
1
62
256
6
ByLayer
370
18
48
1
60
0
100
AcDbSpline
70
4
71
3
72
102
73
98
40
0
40
0
40
0
40
0
40
0.0268765670791531
40
0.0268765670791531
40
0.0487268330346544
40
0.0487268330346544
40
0.059651966012405
40
0.059651966012405
40
0.0705770989901557
40
0.0705770989901557
40
0.11427763090116
40
0.11427763090116
40
0.125202763878911
40
0.125202763878911
40
0.136127896856662
40
0.136127896856662
40
0.157978162812165
40
0.157978162812165
40
0.179828428767667
40
0.179828428767667
40
0.20167869472317
40
0.20167869472317
40
0.223528960678673
40
0.223528960678673
40
0.245379226634175
40
0.245379226634175
40
0.267229492589678
40
0.267229492589678
40
0.278154625567429
40
0.278154625567429
40
0.289079758545181
40
0.289079758545181
40
0.310930024500683
40
0.310930024500683
40
0.332780290456186
40
0.332780290456186
40
0.354630556411689
40
0.354630556411689
40
0.376480822367191
40
0.376480822367191
40
0.398331088322694
40
0.398331088322694
40
0.409256221300445
40
0.409256221300445
40
0.420181354278197
40
0.420181354278197
40
0.463881886189204
40
0.463881886189204
40
0.485732152144707
40
0.485732152144707
40
0.496657285122459
40
0.496657285122459
40
0.507582418100211
40
0.507582418100211
40
0.55128295001122
40
0.55128295001122
40
0.573133215966724
40
0.573133215966724
40
0.594983481922228
40
0.594983481922228
40
0.616833747877732
40
0.616833747877732
40
0.627758880855484
40
0.627758880855484
40
0.638684013833236
40
0.638684013833236
40
0.66053427978874
40
0.66053427978874
40
0.682384545744244
40
0.682384545744244
40
0.704234811699748
40
0.704234811699748
40
0.726085077655252
40
0.726085077655252
40
0.76978560956626
40
0.76978560956626
40
0.791635875521764
40
0.791635875521764
40
0.813486141477268
40
0.813486141477268
40
0.835336407432772
40
0.835336407432772
40
0.846261540410525
40
0.846261540410525
40
0.857186673388276
40
0.857186673388276
40
0.900887205299287
40
0.900887205299287
40
0.922737471254792
40
0.922737471254792
40
0.944587737210298
40
0.944587737210298
40
0.98828826912131
40
0.98828826912131
40
0.999213402099063
40
0.999213402099063
40
1
40
1
40
1
40
1
41
1
10
18.0740636572804
20
2.06129148134883
30
0
41
1
10
18.398036522559
20
2.19132823843333
30
0
41
1
10
18.7225454799414
20
2.31605745203299
30
0
41
1
10
19.3110593866423
20
2.53425088745757
30
0
41
1
10
19.575306954608
20
2.62903153504573
30
0
41
1
10
19.9709909951213
20
2.76680661098945
30
0
41
1
10
20.1025054882079
20
2.81217763122783
30
0
41
1
10
20.3657422299598
20
2.90027042755159
30
0
41
1
10
20.497422697885
20
2.94306944437318
30
0
41
1
10
21.1561527622778
20
3.15096943001819
30
0
41
1
10
21.6838280502836
20
3.29859769557757
30
0
41
1
10
22.3424473190269
20
3.46213623527711
30
0
41
1
10
22.4741360890337
20
3.4937628660181
30
0
41
1
10
22.7372515211142
20
3.55499119317915
30
0
41
1
10
22.8687968300235
20
3.58445476253127
30
0
41
1
10
23.2644125373186
20
3.6683904979775
30
0
41
1
10
23.5287840832867
20
3.71872018619712
30
0
41
1
10
24.0567510181662
20
3.80880022415488
30
0
41
1
10
24.3204676460759
20
3.8486542284254
30
0
41
1
10
24.8473541038126
20
3.91791165285062
30
0
41
1
10
25.110322272474
20
3.94742340099526
30
0
41
1
10
25.6357495476619
20
3.99552068165508
30
0
41
1
10
25.8992050679863
20
4.01371402372786
30
0
41
1
10
26.4273792733148
20
4.0389294876928
30
0
41
1
10
26.6921474750527
20
4.04597628541998
30
0
41
1
10
27.2201861667787
20
4.04892022190415
30
0
41
1
10
27.483814799259
20
4.04484215371318
30
0
41
1
10
27.8781772850932
20
4.03010428442224
30
0
41
1
10
28.0093511125653
20
4.0237127507641
30
0
41
1
10
28.2721808278266
20
4.00820644657409
30
0
41
1
10
28.4037245108773
20
3.99907812111002
30
0
41
1
10
28.7987441065549
20
3.96767435242887
30
0
41
1
10
29.0625802955188
20
3.94140294930875
30
0
41
1
10
29.590466267824
20
3.87793398525318
30
0
41
1
10
29.8548803860006
20
3.84073415038395
30
0
41
1
10
30.3825661047733
20
3.75521865307047
30
0
41
1
10
30.6451424659373
20
3.70643640773452
30
0
41
1
10
31.1714531461679
20
3.59993454853407
30
0
41
1
10
31.4349989700403
20
3.54216546956752
30
0
41
1
10
31.9621718055769
20
3.41719567920822
30
0
41
1
10
32.2257384866815
20
3.34990798818953
30
0
41
1
10
32.6210796207556
20
3.24167998243345
30
0
41
1
10
32.7528517552719
20
3.20437917514028
30
0
41
1
10
33.0162748543579
20
3.12713127295132
30
0
41
1
10
33.1477900722131
20
3.08698565211702
30
0
41
1
10
33.8066124605012
20
2.8816537654838
30
0
41
1
10
34.3355629747319
20
2.7041559659543
30
0
41
1
10
35.1283481794418
20
2.41463751771622
30
0
41
1
10
35.392470870435
20
2.31453924965845
30
0
41
1
10
35.7869559754684
20
2.15805847874512
30
0
41
1
10
35.9182444024516
20
2.10488005653761
30
0
41
1
10
36.1812356788305
20
1.99802343908706
30
0
41
1
10
36.3128238148245
20
1.944138305275
30
0
41
1
10
36.9711962602256
20
1.67245133147702
30
0
41
1
10
37.4987576044164
20
1.44703079632404
30
0
41
1
10
38.2894316669561
20
1.09255705681687
30
0
41
1
10
38.5526873723914
20
0.970717602641571
30
0
41
1
10
39.0797929630952
20
0.728725992720399
30
0
41
1
10
39.3435669647195
20
0.607829361409529
30
0
41
1
10
39.8707826257704
20
0.36460826398195
30
0
41
1
10
40.1342158224152
20
0.242264050921506
30
0
41
1
10
40.5291007817811
20
0.0576326681162413
30
0
41
1
10
40.6606719198833
20
-0.0041249991937207
30
0
41
1
10
40.9235932138103
20
-0.12830201605604
30
0
41
1
10
41.0548302920453
20
-0.190966131497589
30
0
41
1
10
41.4494422009533
20
-0.377297943053208
30
0
41
1
10
41.7136466196905
20
-0.500123364905221
30
0
41
1
10
42.2420509923039
20
-0.743075244465132
30
0
41
1
10
42.5059492207485
20
-0.86339622077071
30
0
41
1
10
43.032982343105
20
-1.10205434881826
30
0
41
1
10
43.2962528788012
20
-1.22011829439481
30
0
41
1
10
43.8211245129917
20
-1.45597626826776
30
0
41
1
10
44.0840158799853
20
-1.57113303309762
30
0
41
1
10
44.8747314434581
20
-1.90717992132701
30
0
41
1
10
45.4045954405226
20
-2.12093632143751
30
0
41
1
10
46.1940252337502
20
-2.42632627249009
30
0
41
1
10
46.4562179090196
20
-2.52597557806683
30
0
41
1
10
46.9823416557759
20
-2.71487305666341
30
0
41
1
10
47.2458775259161
20
-2.80486528917851
30
0
41
1
10
47.7730681428737
20
-2.97739142001825
30
0
41
1
10
48.0367661510923
20
-3.05984400589327
30
0
41
1
10
48.432419062369
20
-3.17774561830302
30
0
41
1
10
48.5643781473998
20
-3.2161228130704
30
0
41
1
10
48.8277672390125
20
-3.2909583701518
30
0
41
1
10
48.9591630383656
20
-3.32744251632784
30
0
41
1
10
49.6170632956616
20
-3.50222691370226
30
0
41
1
10
50.1444586062968
20
-3.62049665071558
30
0
41
1
10
50.9343906134148
20
-3.76939608721526
30
0
41
1
10
51.1975683611101
20
-3.81415571202672
30
0
41
1
10
51.7232020308273
20
-3.89375631745816
30
0
41
1
10
51.9872100043807
20
-3.92773746706862
30
0
41
1
10
52.7790047013699
20
-4.01266523975895
30
0
41
1
10
53.3063238909828
20
-4.04725657508672
30
0
41
1
10
53.9631733492754
20
-4.0627685612935
30
0
41
1
10
54.0942760728577
20
-4.06446245928501
30
0
41
1
10
54.2350722274833
20
-4.06472487978797
30
0
41
1
10
54.24452945478
20
-4.06473508031237
30
0
41
1
10
54.2539875824893
20
-4.06473786906437
30
0
0
SPLINE
5
B8
100
AcDbEntity
8
1
62
256
6
ByLayer
370
18
48
1
60
0
100
AcDbSpline
70
4
71
3
72
100
73
96
40
0
40
0
40
0
40
0
40
0.0084642313487887
40
0.0084642313487887
40
0.0302821202652373
40
0.0302821202652373
40
0.0521000091816856
40
0.0521000091816856
40
0.0630089536399099
40
0.0630089536399099
40
0.0739178980981339
40
0.0739178980981339
40
0.0957357870145832
40
0.0957357870145832
40
0.117553675931033
40
0.117553675931033
40
0.139371564847482
40
0.139371564847482
40
0.161189453763932
40
0.161189453763932
40
0.183007342680381
40
0.183007342680381
40
0.204825231596831
40
0.204825231596831
40
0.22664312051328
40
0.22664312051328
40
0.270278898346179
40
0.270278898346179
40
0.281187842804404
40
0.281187842804404
40
0.292096787262628
40
0.292096787262628
40
0.313914676179078
40
0.313914676179078
40
0.335732565095527
40
0.335732565095527
40
0.357550454011977
40
0.357550454011977
40
0.401186231844873
40
0.401186231844873
40
0.423004120761322
40
0.423004120761322
40
0.433913065219546
40
0.433913065219546
40
0.44482200967777
40
0.44482200967777
40
0.488457787510671
40
0.488457787510671
40
0.499366731968896
40
0.499366731968896
40
0.510275676427121
40
0.510275676427121
40
0.532093565343571
40
0.532093565343571
40
0.575729343176472
40
0.575729343176472
40
0.619365121009372
40
0.619365121009372
40
0.641183009925823
40
0.641183009925823
40
0.652091954384047
40
0.652091954384047
40
0.663000898842271
40
0.663000898842271
40
0.684818787758718
40
0.684818787758718
40
0.706636676675165
40
0.706636676675165
40
0.728454565591611
40
0.728454565591611
40
0.750272454508058
40
0.750272454508058
40
0.772090343424505
40
0.772090343424505
40
0.782999287882728
40
0.782999287882728
40
0.793908232340951
40
0.793908232340951
40
0.83754401017384
40
0.83754401017384
40
0.859361899090285
40
0.859361899090285
40
0.870270843548506
40
0.870270843548506
40
0.881179788006727
40
0.881179788006727
40
0.924815565839613
40
0.924815565839613
40
0.946633454756055
40
0.946633454756055
40
0.968451343672497
40
0.968451343672497
40
0.990269232588939
40
0.990269232588939
40
1
40
1
40
1
40
1
41
1
10
72.483012292802
20
2.07786095054408
30
0
41
1
10
72.5851246737967
20
2.11974013803942
30
0
41
1
10
72.6872612733631
20
2.16112181788429
30
0
41
1
10
73.0529810402647
20
2.30658186984496
30
0
41
1
10
73.3169539793437
20
2.40731657683242
30
0
41
1
10
73.8450608249149
20
2.60219037990407
30
0
41
1
10
74.1093028749004
20
2.6963686056088
30
0
41
1
10
74.5045494542322
20
2.83218250474684
30
0
41
1
10
74.6361455958253
20
2.87658285509005
30
0
41
1
10
74.8989227097463
20
2.96376416998365
30
0
41
1
10
75.0299885086759
20
3.0067028663409
30
0
41
1
10
75.423787095334
20
3.13126473893044
30
0
41
1
10
75.6868037112283
20
3.20915634283128
30
0
41
1
10
76.2133880269057
20
3.3555663349718
30
0
41
1
10
76.4768283553112
20
3.42423972038802
30
0
41
1
10
77.0038443615673
20
3.55261469074094
30
0
41
1
10
77.2678366256881
20
3.61224712625193
30
0
41
1
10
77.7935982548509
20
3.72263728556243
30
0
41
1
10
78.0565103050524
20
3.77213937226671
30
0
41
1
10
78.5829779744943
20
3.85984433973931
30
0
41
1
10
78.8463388181948
20
3.8982291384979
30
0
41
1
10
79.3727269881688
20
3.964527064777
30
0
41
1
10
79.6358848189327
20
3.99236206562008
30
0
41
1
10
80.1616790467825
20
4.0372807938505
30
0
41
1
10
80.4240723315991
20
4.05432687914075
30
0
41
1
10
81.2152298727967
20
4.08766803095676
30
0
41
1
10
81.7426166533237
20
4.08721472299797
30
0
41
1
10
82.3998702447485
20
4.05868765490649
30
0
41
1
10
82.53122756086
20
4.05156384458599
30
0
41
1
10
82.7936466135559
20
4.03437827290077
30
0
41
1
10
82.9246567829025
20
4.0242829714071
30
0
41
1
10
83.3185969926438
20
3.99002469140942
30
0
41
1
10
83.5819913822284
20
3.96180432282404
30
0
41
1
10
84.1097938469708
20
3.89470860527908
30
0
41
1
10
84.3739807578954
20
3.85575130401119
30
0
41
1
10
84.900846339481
20
3.76719117785024
30
0
41
1
10
85.1638153934959
20
3.71759007611513
30
0
41
1
10
85.9502785148039
20
3.55126585979372
30
0
41
1
10
86.4769997930447
20
3.42265411511292
30
0
41
1
10
87.2678455009409
20
3.20133120671772
30
0
41
1
10
87.5319495747754
20
3.12281220377511
30
0
41
1
10
87.9265442293662
20
2.99770497076562
30
0
41
1
10
88.0577098140173
20
2.95454598796633
30
0
41
1
10
88.320290209243
20
2.86674613948148
30
0
41
1
10
88.4516604500615
20
2.82204859564286
30
0
41
1
10
89.108926180773
20
2.59472350230149
30
0
41
1
10
89.6357039346245
20
2.40024926902572
30
0
41
1
10
90.2935413721098
20
2.13820839394867
30
0
41
1
10
90.4250897378107
20
2.08486312069439
30
0
41
1
10
90.687967305036
20
1.97590440073444
30
0
41
1
10
90.819473233783
20
1.92045034810525
30
0
41
1
10
91.21435169763
20
1.75359159231613
30
0
41
1
10
91.4777973447445
20
1.64102461858192
30
0
41
1
10
92.2678460347329
20
1.29784988181967
30
0
41
1
10
92.7937789577057
20
1.0610464027169
30
0
41
1
10
93.8431666019619
20
0.568749360232971
30
0
41
1
10
94.3723291531138
20
0.322807113674997
30
0
41
1
10
95.1623478069529
20
-0.0482448914912936
30
0
41
1
10
95.425370605606
20
-0.172097216224785
30
0
41
1
10
95.8189508676463
20
-0.359127218945758
30
0
41
1
10
95.9498717545075
20
-0.421918553584447
30
0
41
1
10
96.2122208566274
20
-0.546161551046708
30
0
41
1
10
96.3435454974054
20
-0.607834283521782
30
0
41
1
10
96.7379723024418
20
-0.791510103879489
30
0
41
1
10
97.001507534887
20
-0.912215742309769
30
0
41
1
10
97.528963566382
20
-1.15179029420216
30
0
41
1
10
97.7930116045642
20
-1.27046485708817
30
0
41
1
10
98.3192351643718
20
-1.50493384197074
30
0
41
1
10
98.5811482076487
20
-1.62189115185666
30
0
41
1
10
99.1062411820836
20
-1.84799056326824
30
0
41
1
10
99.369269058355
20
-1.95749146853575
30
0
41
1
10
99.8956107622349
20
-2.17083609029322
30
0
41
1
10
100.158852236369
20
-2.27480261786849
30
0
41
1
10
100.55383873266
20
-2.42659310363314
30
0
41
1
10
100.685517670308
20
-2.47650349956217
30
0
41
1
10
100.948805825637
20
-2.57509772485645
30
0
41
1
10
101.080234583411
20
-2.6239770450903
30
0
41
1
10
101.737137425623
20
-2.86246409204503
30
0
41
1
10
102.26383274239
20
-3.03376662483663
30
0
41
1
10
103.052754047739
20
-3.26701048171239
30
0
41
1
10
103.31568225779
20
-3.34056168495837
30
0
41
1
10
103.709478897941
20
-3.44498718833637
30
0
41
1
10
103.840601235658
20
-3.47884543855454
30
0
41
1
10
104.103543883597
20
-3.54353843220494
30
0
41
1
10
104.235302789705
20
-3.57454009055954
30
0
41
1
10
104.894357411348
20
-3.72270283667874
30
0
41
1
10
105.421223797489
20
-3.82003278266015
30
0
41
1
10
106.208941385167
20
-3.93580170896559
30
0
41
1
10
106.470638500603
20
-3.96945466337485
30
0
41
1
10
106.996061983941
20
-4.02470246732543
30
0
41
1
10
107.259526585602
20
-4.046560575537
30
0
41
1
10
107.787212117359
20
-4.07926081572796
30
0
41
1
10
108.050909612251
20
-4.09004928925387
30
0
41
1
10
108.43095785561
20
-4.09750936143976
30
0
41
1
10
108.548042383537
20
-4.09869396941056
30
0
41
1
10
108.664952210047
20
-4.09874547286148
30
0
0
SPLINE
5
B9
100
AcDbEntity
8
1
62
256
6
ByLayer
370
18
48
1
60
0
100
AcDbSpline
70
4
71
3
72
10
73
6
40
0
40
0
40
0
40
0
40
0.5
40
0.5
40
1
40
1
40
1
40
1
41
1
10
6.81620787910055
20
3.21747712910496
30
0
41
1
10
6.78430850950335
20
3.22643449833569
30
0
41
1
10
6.75607608492683
20
3.23924848744446
30
0
41
1
10
6.7103602936582
20
3.27028773365862
30
0
41
1
10
6.69303504683671
20
3.28853660578838
30
0
41
1
10
6.68285234256172
20
3.30752955575602
30
0
0
SPLINE
5
BA
100
AcDbEntity
8
1
62
256
6
ByLayer
370
18
48
1
60
0
100
AcDbSpline
70
4
71
3
72
8
73
4
40
0
40
0
40
0
40
0
40
1
40
1
40
1
40
1
41
1
10
111.842593820493
20
-0.27710147130324
30
0
41
1
10
111.40464840598
20
-1.48034660863095
30
0
41
1
10
110.966702991468
20
-2.68359174595926
30
0
41
1
10
110.528757576956
20
-3.88683688328504
30
0
0
SPLINE
5
BB
100
AcDbEntity
8
1
62
256
6
ByLayer
370
18
48
1
60
0
100
AcDbSpline
70
4
71
3
72
38
73
34
40
0
40
0
40
0
40
0
40
0.0624999999999988
40
0.0624999999999988
40
0.124999999999998
40
0.124999999999998
40
0.187499999999996
40
0.187499999999996
40
0.249999999999995
40
0.249999999999995
40
0.312499999999994
40
0.312499999999994
40
0.374999999999993
40
0.374999999999993
40
0.437499999999991
40
0.437499999999991
40
0.49999999999999
40
0.49999999999999
40
0.562499999999989
40
0.562499999999989
40
0.624999999999988
40
0.624999999999988
40
0.687499999999986
40
0.687499999999986
40
0.749999999999985
40
0.749999999999985
40
0.781249999999987
40
0.781249999999987
40
0.812499999999989
40
0.812499999999989
40
0.874999999999994
40
0.874999999999994
40
1
40
1
40
1
40
1
41
1
10
110.560468482102
20
-2.01731955750992
30
0
41
1
10
110.552730192762
20
-2.06475678085303
30
0
41
1
10
110.549309861523
20
-2.10955767666215
30
0
41
1
10
110.55104135841
20
-2.18737563490177
30
0
41
1
10
110.55615575453
20
-2.22125180206822
30
0
41
1
10
110.573113975745
20
-2.27616081336211
30
0
41
1
10
110.585093260687
20
-2.29781256672925
30
0
41
1
10
110.613904549031
20
-2.32906979885709
30
0
41
1
10
110.630896892676
20
-2.33897292646566
30
0
41
1
10
110.668570122792
20
-2.34802617647466
30
0
41
1
10
110.689029450799
20
-2.34722577844283
30
0
41
1
10
110.732937735928
20
-2.33581066298208
30
0
41
1
10
110.756295298536
20
-2.32511600165267
30
0
41
1
10
110.80420943677
20
-2.29488126082003
30
0
41
1
10
110.829087157594
20
-2.27518864785159
30
0
41
1
10
110.880055320664
20
-2.22670547970751
30
0
41
1
10
110.905550627638
20
-2.19851940647098
30
0
41
1
10
110.956564612009
20
-2.13393516531386
30
0
41
1
10
110.982429552106
20
-2.09697297702087
30
0
41
1
10
111.032238139585
20
-2.01612377265411
30
0
41
1
10
111.056134056986
20
-1.97248613939476
30
0
41
1
10
111.101409556474
20
-1.87758170274753
30
0
41
1
10
111.121764792628
20
-1.82846915466928
30
0
41
1
10
111.15720444402
20
-1.72640999555739
30
0
41
1
10
111.171510390448
20
-1.67552448196847
30
0
41
1
10
111.186933405611
20
-1.60150906296408
30
0
41
1
10
111.19106615379
20
-1.57711227224809
30
0
41
1
10
111.19699256248
20
-1.53094496054976
30
0
41
1
10
111.198850353982
20
-1.50889815884631
30
0
41
1
10
111.201175252103
20
-1.44580475670327
30
0
41
1
10
111.19831096019
20
-1.40894176832566
30
0
41
1
10
111.178434827981
20
-1.31618412552544
30
0
41
1
10
111.150550453032
20
-1.27937597651339
30
0
41
1
10
111.114976895299
20
-1.26468988808546
30
0
0
SPLINE
5
BC
100
AcDbEntity
8
1
62
256
6
ByLayer
370
13
48
1
60
0
100
AcDbSpline
70
4
71
3
72
16
73
12
40
0
40
0
40
0
40
0
40
0.231886930358326
40
0.231886930358326
40
0.539735853239106
40
0.539735853239106
40
0.693660314679497
40
0.693660314679497
40
0.847584776119887
40
0.847584776119887
40
1
40
1
40
1
40
1
41
1
10
6.92211336211651
20
3.1885636409836
30
0
41
1
10
6.9221286035567
20
3.2854073508577
30
0
41
1
10
6.92214058826622
20
3.37207641198492
30
0
41
1
10
6.92216279666982
20
3.54745662103235
30
0
41
1
10
6.92217131254327
20
3.62846190339005
30
0
41
1
10
6.92218125184257
20
3.72109811226005
30
0
41
1
10
6.9221840973652
20
3.74720076378318
30
0
41
1
10
6.92218931258512
20
3.78884911555102
30
0
41
1
10
6.92219168856707
20
3.80446458560593
30
0
41
1
10
6.92219648099581
20
3.82518895833141
30
0
41
1
10
6.92219890421455
20
3.83036544082216
30
0
41
1
10
6.92220155069506
20
3.83038962975385
30
0
0
SPLINE
5
BD
100
AcDbEntity
8
1
62
256
6
ByLayer
370
18
48
1
60
0
100
AcDbSpline
70
4
71
3
72
8
73
4
40
0
40
0
40
0
40
0
40
1
40
1
40
1
40
1
41
1
10
110.672208259197
20
-3.98993386903908
30
0
41
1
10
110.616907975175
20
-4.04373888837773
30
0
41
1
10
110.569051339507
20
-4.07823463261909
30
0
41
1
10
110.528235878323
20
-4.09249170421018
30
0
0
SPLINE
5
BE
100
AcDbEntity
8
1
62
256
6
ByLayer
370
18
48
1
60
0
100
AcDbSpline
70
4
71
3
72
14
73
10
40
0
40
0
40
0
40
0
40
0.25
40
0.25
40
0.5
40
0.5
40
0.75
40
0.75
40
1
40
1
40
1
40
1
41
1
10
110.485560352614
20
0.900018579420646
30
0
41
1
10
110.48171906066
20
0.915256844060821
30
0
41
1
10
110.48067937836
20
0.93133475437574
30
0
41
1
10
110.48783608728
20
0.961640875408932
30
0
41
1
10
110.496534814161
20
0.975821131131653
30
0
41
1
10
110.520636625941
20
0.996273557741063
30
0
41
1
10
110.535447836964
20
1.00276866809867
30
0
41
1
10
110.565942226003
20
1.01031184893594
30
0
41
1
10
110.581763149224
20
1.01147933068822
30
0
41
1
10
110.597501676424
20
1.0109698181297
30
0
0
SPLINE
5
BF
100
AcDbEntity
8
1
62
256
6
ByLayer
370
18
48
1
60
0
100
AcDbSpline
70
4
71
3
72
52
73
48
40
0
40
0
40
0
40
0
40
0.0904404555208046
40
0.0904404555208046
40
0.135660683281206
40
0.135660683281206
40
0.180880911041608
40
0.180880911041608
40
0.22610113880201
40
0.22610113880201
40
0.271321366562412
40
0.271321366562412
40
0.293931480442612
40
0.293931480442612
40
0.316541594322813
40
0.316541594322813
40
0.361761822083213
40
0.361761822083213
40
0.406982049843612
40
0.406982049843612
40
0.452202277604012
40
0.452202277604012
40
0.542642733124813
40
0.542642733124813
40
0.587862960885213
40
0.587862960885213
40
0.610473074765413
40
0.610473074765413
40
0.633083188645613
40
0.633083188645613
40
0.723523644166413
40
0.723523644166413
40
0.746133758046612
40
0.746133758046612
40
0.76874387192681
40
0.76874387192681
40
0.813964099687209
40
0.813964099687209
40
0.859184327447608
40
0.859184327447608
40
0.904404555208007
40
0.904404555208007
40
0.949624782968406
40
0.949624782968406
40
0.994845010728805
40
0.994845010728805
40
1
40
1
40
1
40
1
41
1
10
9.55637988687224
20
1.7526778843652
30
0
41
1
10
10.0829143407852
20
1.52681981182514
30
0
41
1
10
10.6108119806511
20
1.29777954637618
30
0
41
1
10
11.4021318028631
20
0.944951461953735
30
0
41
1
10
11.6657927983612
20
0.825727024868797
30
0
41
1
10
12.1923707973054
20
0.582858895125355
30
0
41
1
10
12.4550666527421
20
0.458709171777457
30
0
41
1
10
12.9829619984526
20
0.212927610173892
30
0
41
1
10
13.2477172044034
20
0.0905533966579242
30
0
41
1
10
13.7759536699632
20
-0.153975748141875
30
0
41
1
10
14.0397375980823
20
-0.276199941724883
30
0
41
1
10
14.4348731786054
20
-0.459544387936489
30
0
41
1
10
14.5664798527788
20
-0.520693021605979
30
0
41
1
10
14.8293743678196
20
-0.643280682526608
30
0
41
1
10
14.9605939789138
20
-0.704862995937646
30
0
41
1
10
15.3551039962545
20
-0.887207235425905
30
0
41
1
10
15.6188144577072
20
-1.00649507273667
30
0
41
1
10
16.1471397924186
20
-1.24163644661561
30
0
41
1
10
16.4118993445811
20
-1.35784648826243
30
0
41
1
10
16.9401022487561
20
-1.58664325917545
30
0
41
1
10
17.2037059402144
20
-1.69921071561382
30
0
41
1
10
17.9918095322118
20
-2.03345855165546
30
0
41
1
10
18.5193486651114
20
-2.24072157536085
30
0
41
1
10
19.3110593866423
20
-2.53425088745757
30
0
41
1
10
19.575306954608
20
-2.62903153504573
30
0
41
1
10
19.9709909951213
20
-2.76680661098945
30
0
41
1
10
20.1025054882079
20
-2.81217763122783
30
0
41
1
10
20.3657422299598
20
-2.90027042755162
30
0
41
1
10
20.497422697885
20
-2.94306944437318
30
0
41
1
10
21.1561527622778
20
-3.15096943001819
30
0
41
1
10
21.6838280502836
20
-3.29859769557757
30
0
41
1
10
22.3424473190269
20
-3.46213623527711
30
0
41
1
10
22.4741360890336
20
-3.4937628660181
30
0
41
1
10
22.7372515211143
20
-3.55499119317915
30
0
41
1
10
22.8687968300236
20
-3.58445476253127
30
0
41
1
10
23.2644125373187
20
-3.6683904979775
30
0
41
1
10
23.5287840832868
20
-3.71872018619712
30
0
41
1
10
24.0567510181662
20
-3.80880022415488
30
0
41
1
10
24.3204676460759
20
-3.8486542284254
30
0
41
1
10
24.8473541038126
20
-3.91791165285062
30
0
41
1
10
25.110322272474
20
-3.94742340099526
30
0
41
1
10
25.6357495476619
20
-3.99552068165508
30
0
41
1
10
25.8992050679863
20
-4.01371402372786
30
0
41
1
10
26.4273792733148
20
-4.0389294876928
30
0
41
1
10
26.6921474750527
20
-4.04597628541998
30
0
41
1
10
26.9862643450265
20
-4.04761605424315
30
0
41
1
10
27.016356791656
20
-4.0477117298162
30
0
41
1
10
27.0464436725276
20
-4.04773498832711
30
0
0
SPLINE
5
C0
100
AcDbEntity
8
1
62
256
6
ByLayer
370
18
48
1
60
0
100
AcDbSpline
70
4
71
3
72
100
73
96
40
0
40
0
40
0
40
0
40
0.0179048261202864
40
0.0179048261202864
40
0.0397407517491773
40
0.0397407517491773
40
0.0615766773780682
40
0.0615766773780682
40
0.0834126030069591
40
0.0834126030069591
40
0.0943305658214046
40
0.0943305658214046
40
0.10524852863585
40
0.10524852863585
40
0.148920379893631
40
0.148920379893631
40
0.170756305522522
40
0.170756305522522
40
0.192592231151412
40
0.192592231151412
40
0.236264082409194
40
0.236264082409194
40
0.247182045223639
40
0.247182045223639
40
0.258100008038084
40
0.258100008038084
40
0.279935933666974
40
0.279935933666974
40
0.301771859295864
40
0.301771859295864
40
0.323607784924753
40
0.323607784924753
40
0.367279636182534
40
0.367279636182534
40
0.389115561811423
40
0.389115561811423
40
0.410951487440313
40
0.410951487440313
40
0.454623338698091
40
0.454623338698091
40
0.465541301512536
40
0.465541301512536
40
0.47645926432698
40
0.47645926432698
40
0.498295189955869
40
0.498295189955869
40
0.520131115584758
40
0.520131115584758
40
0.541967041213646
40
0.541967041213646
40
0.563802966842535
40
0.563802966842535
40
0.585638892471424
40
0.585638892471424
40
0.596556855285868
40
0.596556855285868
40
0.607474818100312
40
0.607474818100312
40
0.629310743729199
40
0.629310743729199
40
0.672982594986974
40
0.672982594986974
40
0.683900557801417
40
0.683900557801417
40
0.694818520615861
40
0.694818520615861
40
0.71665444624475
40
0.71665444624475
40
0.738490371873638
40
0.738490371873638
40
0.760326297502526
40
0.760326297502526
40
0.782162223131414
40
0.782162223131414
40
0.803998148760302
40
0.803998148760302
40
0.814916111574746
40
0.814916111574746
40
0.82583407438919
40
0.82583407438919
40
0.847670000018076
40
0.847670000018076
40
0.869505925646962
40
0.869505925646962
40
0.891341851275848
40
0.891341851275848
40
0.913177776904734
40
0.913177776904734
40
0.935013702533621
40
0.935013702533621
40
0.956849628162507
40
0.956849628162507
40
0.978685553791394
40
0.978685553791394
40
1
40
1
40
1
40
1
41
1
10
45.2822024317727
20
2.06898612327473
30
0
41
1
10
45.4987409397693
20
2.15588072029982
30
0
41
1
10
45.7151121195052
20
2.24105931933934
30
0
41
1
10
46.1940252337503
20
2.42632627249009
30
0
41
1
10
46.4562179090196
20
2.52597557806686
30
0
41
1
10
46.9823416557759
20
2.71487305666338
30
0
41
1
10
47.2458775259161
20
2.80486528917854
30
0
41
1
10
47.7730681428737
20
2.97739142001828
30
0
41
1
10
48.0367661510923
20
3.05984400589327
30
0
41
1
10
48.432419062369
20
3.17774561830302
30
0
41
1
10
48.5643781473998
20
3.21612281307046
30
0
41
1
10
48.8277672390126
20
3.2909583701518
30
0
41
1
10
48.9591630383656
20
3.32744251632784
30
0
41
1
10
49.6170632956616
20
3.50222691370226
30
0
41
1
10
50.1444586062968
20
3.62049665071558
30
0
41
1
10
50.9343906134148
20
3.76939608721528
30
0
41
1
10
51.1975683611102
20
3.81415571202675
30
0
41
1
10
51.7232020308273
20
3.89375631745818
30
0
41
1
10
51.9872100043807
20
3.92773746706865
30
0
41
1
10
52.7790047013699
20
4.01266523975897
30
0
41
1
10
53.3063238909828
20
4.04725657508672
30
0
41
1
10
53.9631733492754
20
4.0627685612935
30
0
41
1
10
54.0942760728577
20
4.06446245928501
30
0
41
1
10
54.3569557276369
20
4.0649520502636
30
0
41
1
10
54.4884691830148
20
4.06376461009407
30
0
41
1
10
54.8835332607294
20
4.0560078000388
30
0
41
1
10
55.147743628187
20
4.04527149425851
30
0
41
1
10
55.6761841195423
20
4.01266935414995
30
0
41
1
10
55.9399481330249
20
3.99084522986519
30
0
41
1
10
56.4663973325083
20
3.93594038817031
30
0
41
1
10
56.7285154932707
20
3.9024729861145
30
0
41
1
10
57.5167701871796
20
3.78685507201769
30
0
41
1
10
58.0443373554461
20
3.68996069860768
30
0
41
1
10
58.8361123429364
20
3.5130591108603
30
0
41
1
10
59.0996888168995
20
3.44863239555286
30
0
41
1
10
59.625192184883
20
3.30963736647527
30
0
41
1
10
59.888282848288
20
3.23615827589578
30
0
41
1
10
60.678253836499
20
3.00402379320713
30
0
41
1
10
61.2053363816886
20
2.83321173789014
30
0
41
1
10
61.8631183173281
20
2.59626542632074
30
0
41
1
10
61.9945364070559
20
2.54749516299495
30
0
41
1
10
62.2580104930739
20
2.448975889059
30
0
41
1
10
62.3897758792802
20
2.39910284703217
30
0
41
1
10
62.7851642308057
20
2.24771437199735
30
0
41
1
10
63.048848084435
20
2.14438938563544
30
0
41
1
10
63.5756515274051
20
1.93167685061576
30
0
41
1
10
63.8388767968348
20
1.82247810478791
30
0
41
1
10
64.3647182755139
20
1.59779698276031
30
0
41
1
10
64.6268270025919
20
1.48126916701736
30
0
41
1
10
65.1531312601308
20
1.24716733641651
30
0
41
1
10
65.417378008127
20
1.12912026716981
30
0
41
1
10
65.9454921510551
20
0.890491941366122
30
0
41
1
10
66.2091376563572
20
0.76986289912378
30
0
41
1
10
66.6040048036588
20
0.586976142084666
30
0
41
1
10
66.7355194783676
20
0.525674041701535
30
0
41
1
10
66.9982252831498
20
0.402155763106663
30
0
41
1
10
67.1292787550131
20
0.339645006326094
30
0
41
1
10
67.5229169577951
20
0.152790389292818
30
0
41
1
10
67.7859700390767
20
0.0291103059788895
30
0
41
1
10
68.5765257367248
20
-0.340248688199239
30
0
41
1
10
69.1059676471672
20
-0.585488292678662
30
0
41
1
10
69.762657727461
20
-0.891587400595853
30
0
41
1
10
69.893793377519
20
-0.952786237165526
30
0
41
1
10
70.1564954043232
20
-1.07340780487539
30
0
41
1
10
70.2879461677151
20
-1.13307461595821
30
0
41
1
10
70.6825794976431
20
-1.31021347914151
30
0
41
1
10
70.9459863449773
20
-1.42594905694855
30
0
41
1
10
71.4727549514038
20
-1.65410315214612
30
0
41
1
10
71.7362386034005
20
-1.76627663430284
30
0
41
1
10
72.2630672115905
20
-1.98736642699009
30
0
41
1
10
72.5259880041815
20
-2.09697757347072
30
0
41
1
10
73.0529810402648
20
-2.30658186984496
30
0
41
1
10
73.3169539793438
20
-2.40731657683244
30
0
41
1
10
73.845060824915
20
-2.60219037990404
30
0
41
1
10
74.1093028749006
20
-2.6963686056088
30
0
41
1
10
74.5045494542322
20
-2.83218250474684
30
0
41
1
10
74.6361455958254
20
-2.87658285509008
30
0
41
1
10
74.8989227097464
20
-2.96376416998365
30
0
41
1
10
75.0299885086758
20
-3.0067028663409
30
0
41
1
10
75.4237870953341
20
-3.13126473893044
30
0
41
1
10
75.6868037112283
20
-3.20915634283128
30
0
41
1
10
76.2133880269057
20
-3.35556633497183
30
0
41
1
10
76.4768283553112
20
-3.42423972038802
30
0
41
1
10
77.0038443615673
20
-3.55261469074097
30
0
41
1
10
77.2678366256882
20
-3.61224712625196
30
0
41
1
10
77.793598254851
20
-3.72263728556243
30
0
41
1
10
78.0565103050524
20
-3.77213937226671
30
0
41
1
10
78.5829779744943
20
-3.85984433973931
30
0
41
1
10
78.8463388181949
20
-3.89822913849792
30
0
41
1
10
79.3727269881688
20
-3.964527064777
30
0
41
1
10
79.6358848189327
20
-3.99236206562008
30
0
41
1
10
80.1616790467825
20
-4.0372807938505
30
0
41
1
10
80.4240723315991
20
-4.05432687914075
30
0
41
1
10
80.9452126252741
20
-4.07628889902185
30
0
41
1
10
81.2026214520403
20
-4.08173460964102
30
0
41
1
10
81.4598398492647
20
-4.08181404634362
30
0
0
SPLINE
5
C1
100
AcDbEntity
8
1
62
256
6
ByLayer
370
18
48
1
60
0
100
AcDbSpline
70
4
71
3
72
34
73
30
40
0
40
0
40
0
40
0
40
0.0666283906564549
40
0.0666283906564549
40
0.102527298708135
40
0.102527298708135
40
0.138426206759815
40
0.138426206759815
40
0.282021838966524
40
0.282021838966524
40
0.353819655069878
40
0.353819655069878
40
0.389718563121553
40
0.389718563121553
40
0.425617471173226
40
0.425617471173226
40
0.569213103379924
40
0.569213103379924
40
0.641010919483272
40
0.641010919483272
40
0.712808735586621
40
0.712808735586621
40
0.784606551689969
40
0.784606551689969
40
0.820505459741642
40
0.820505459741642
40
0.856404367793316
40
0.856404367793316
40
1
40
1
40
1
40
1
41
1
10
99.6892857268151
20
2.08716281629896
30
0
41
1
10
99.9335178370863
20
2.1857928456615
30
0
41
1
10
100.177811524696
20
2.2820885367845
30
0
41
1
10
100.55383873266
20
2.42659310363317
30
0
41
1
10
100.685517670308
20
2.47650349956217
30
0
41
1
10
100.948805825637
20
2.57509772485648
30
0
41
1
10
101.080234583411
20
2.62397704509033
30
0
41
1
10
101.737137425623
20
2.86246409204503
30
0
41
1
10
102.26383274239
20
3.03376662483669
30
0
41
1
10
103.052754047739
20
3.26701048171239
30
0
41
1
10
103.31568225779
20
3.3405616849584
30
0
41
1
10
103.709478897941
20
3.44498718833637
30
0
41
1
10
103.840601235658
20
3.47884543855457
30
0
41
1
10
104.103543883597
20
3.54353843220497
30
0
41
1
10
104.235302789705
20
3.57454009055954
30
0
41
1
10
104.894357411348
20
3.72270283667874
30
0
41
1
10
105.421223797489
20
3.82003278266015
30
0
41
1
10
106.208941385167
20
3.93580170896559
30
0
41
1
10
106.470638500603
20
3.96945466337485
30
0
41
1
10
106.996061983941
20
4.02470246732543
30
0
41
1
10
107.259526585602
20
4.046560575537
30
0
41
1
10
107.787212117359
20
4.07926081572796
30
0
41
1
10
108.050909612251
20
4.09004928925387
30
0
41
1
10
108.445150666628
20
4.09778795605655
30
0
41
1
10
108.576392989946
20
4.09896446269741
30
0
41
1
10
108.838426828649
20
4.09846417275676
30
0
41
1
10
108.969084582742
20
4.09676793330829
30
0
41
1
10
109.623026764294
20
4.08116071510608
30
0
41
1
10
110.14777631634
20
4.04649493853225
30
0
41
1
10
110.672208259198
20
3.9899338690376
30
0
0
SPLINE
5
C2
100
AcDbEntity
8
1
62
256
6
ByLayer
370
13
48
1
60
0
100
AcDbSpline
70
4
71
3
72
20
73
16
40
0
40
0
40
0
40
0
40
0.0011031192548425
40
0.0011031192548425
40
0.11209166155986
40
0.11209166155986
40
0.334068746169895
40
0.334068746169895
40
0.55604583077993
40
0.55604583077993
40
0.778022915389965
40
0.778022915389965
40
0.889011457694982
40
0.889011457694982
40
1
40
1
40
1
40
1
41
1
10
6.92220147356215
20
-3.83038888437892
30
0
41
1
10
6.92220160118319
20
-3.83039087015145
30
0
41
1
10
6.92220162901623
20
-3.83038887627663
30
0
41
1
10
6.9222043065482
20
-3.83031021171371
30
0
41
1
10
6.92220722027142
20
-3.82503599305895
30
0
41
1
10
6.9222172336558
20
-3.79394085102371
30
0
41
1
10
6.92222563180511
20
-3.75297263214421
30
0
41
1
10
6.92224810343868
20
-3.62923055279697
30
0
41
1
10
6.92226212182408
20
-3.54673974897213
30
0
41
1
10
6.92229555672395
20
-3.34440819888638
30
0
41
1
10
6.92231475615128
20
-3.22589090481455
30
0
41
1
10
6.92234629099846
20
-3.02293482382538
30
0
41
1
10
6.92235725028448
20
-2.95106010054349
30
0
41
1
10
6.92237978879578
20
-2.79869479847963
30
0
41
1
10
6.92239142188623
20
-2.71779750075666
30
0
41
1
10
6.92240296649763
20
-2.63399983988651
30
0
0
SPLINE
5
C3
100
AcDbEntity
8
1
62
256
6
ByLayer
370
18
48
1
60
0
100
AcDbSpline
70
4
71
3
72
8
73
4
40
0
40
0
40
0
40
0
40
1
40
1
40
1
40
1
41
1
10
110.570131569363
20
-3.98551330435126
30
0
41
1
10
110.556175453016
20
-4.02119741171393
30
0
41
1
10
110.542209597006
20
-4.05685750146782
30
0
41
1
10
110.528235878323
20
-4.09249170421015
30
0
0
SPLINE
5
C4
100
AcDbEntity
8
1
62
256
6
ByLayer
370
18
48
1
60
0
100
AcDbSpline
70
4
71
3
72
14
73
10
40
0
40
0
40
0
40
0
40
0.250000000000005
40
0.250000000000005
40
0.50000000000001
40
0.50000000000001
40
0.750000000000005
40
0.750000000000005
40
1
40
1
40
1
40
1
41
1
10
110.588942045025
20
-3.89191341849204
30
0
41
1
10
110.591231135736
20
-3.89137608628795
30
0
41
1
10
110.592808326888
20
-3.89272784469813
30
0
41
1
10
110.59407370088
20
-3.90027202270073
30
0
41
1
10
110.593688888978
20
-3.90649487937861
30
0
41
1
10
110.590468699211
20
-3.92371578666513
30
0
41
1
10
110.587570956835
20
-3.93487992242095
30
0
41
1
10
110.57989495583
20
-3.95938963588068
30
0
41
1
10
110.575155571826
20
-3.97266753560049
30
0
41
1
10
110.570131569363
20
-3.985513304351
30
0
0
SPLINE
5
C5
100
AcDbEntity
8
1
62
256
6
ByLayer
370
18
48
1
60
0
100
AcDbSpline
70
4
71
3
72
8
73
4
40
0
40
0
40
0
40
0
40
1
40
1
40
1
40
1
41
1
10
110.528757576954
20
-3.88683688328217
30
0
41
1
10
110.539293861157
20
-3.89207488843275
30
0
41
1
10
110.550716115016
20
-3.89476413050539
30
0
41
1
10
110.563047903508
20
-3.8949324200922
30
0
0
SPLINE
5
C6
100
AcDbEntity
8
1
62
256
6
ByLayer
370
18
48
1
60
0
100
AcDbSpline
70
4
71
3
72
37
73
33
40
0
40
0
40
0
40
0
40
0.062499999999994
40
0.062499999999994
40
0.124999999999988
40
0.124999999999988
40
0.249999999999976
40
0.249999999999976
40
0.374999999999964
40
0.374999999999964
40
0.437499999999959
40
0.437499999999959
40
0.499999999999953
40
0.499999999999953
40
0.624999999999951
40
0.624999999999951
40
0.749999999999949
40
0.749999999999949
40
0.812499999999948
40
0.812499999999948
40
0.828124999999948
40
0.828124999999948
40
0.83593749999995
40
0.83593749999995
40
0.843749999999953
40
0.843749999999953
40
0.851562499999955
40
0.851562499999955
40
0.859374999999957
40
0.859374999999957
40
0.874999999999962
40
1
40
1
40
1
40
1
41
1
10
108.109139814414
20
-1.53842009441004
30
0
41
1
10
108.192347011011
20
-1.54450630031368
30
0
41
1
10
108.275319701192
20
-1.54797467269279
30
0
41
1
10
108.440747329476
20
-1.54913166620511
30
0
41
1
10
108.523465305793
20
-1.54679499205224
30
0
41
1
10
108.768465302731
20
-1.53017696546391
30
0
41
1
10
108.927386144048
20
-1.50621957024313
30
0
41
1
10
109.234433268747
20
-1.42679876143725
30
0
41
1
10
109.382806129066
20
-1.37205503063524
30
0
41
1
10
109.596403065109
20
-1.26378105860053
30
0
41
1
10
109.666433631498
20
-1.22304997207678
30
0
41
1
10
109.800259978322
20
-1.13414630558734
30
0
41
1
10
109.864354691094
20
-1.08587694065011
30
0
41
1
10
110.048319390783
20
-0.929800382419842
30
0
41
1
10
110.159846491999
20
-0.810692967253573
30
0
41
1
10
110.361542779038
20
-0.543549395558131
30
0
41
1
10
110.451874665913
20
-0.394792880327486
30
0
41
1
10
110.569601001984
20
-0.158087631787424
30
0
41
1
10
110.606086774696
20
-0.0766642487852778
30
0
41
1
10
110.648390661985
20
0.0275064113824612
30
0
41
1
10
110.656912751075
20
0.0482939714184738
30
0
41
1
10
110.668731727328
20
0.0802076804194769
30
0
41
1
10
110.672128375072
20
0.0911459049130201
30
0
41
1
10
110.674394375645
20
0.115250309723621
30
0
41
1
10
110.673883162989
20
0.128019848375288
30
0
41
1
10
110.670638477702
20
0.153222567381363
30
0
41
1
10
110.667762023463
20
0.165912198304738
30
0
41
1
10
110.661508685392
20
0.191230163548141
30
0
41
1
10
110.658314044472
20
0.203880791880721
30
0
41
1
10
110.649046723995
20
0.24187158983537
30
0
41
1
10
110.593322628761
20
0.469801738045248
30
0
41
1
10
110.536584752905
20
0.697606650315521
30
0
41
1
10
110.485560352614
20
0.900018579420589
30
0
0
SPLINE
5
C7
100
AcDbEntity
8
1
62
256
6
ByLayer
370
18
48
1
60
0
100
AcDbSpline
70
4
71
3
72
8
73
4
40
0
40
0
40
0
40
0
40
1
40
1
40
1
40
1
41
1
10
111.999964776432
20
0.0340039240672638
30
0
41
1
10
112.000011741189
20
0.0113346413587578
30
0
41
1
10
112.000011741189
20
-0.0113346413496913
30
0
41
1
10
111.999964776432
20
-0.0340039240581973
30
0
0
SPLINE
5
C8
100
AcDbEntity
8
1
62
256
6
ByLayer
370
18
48
1
60
0
100
AcDbSpline
70
4
71
3
72
10
73
6
40
0
40
0
40
0
40
0
40
0.5
40
0.5
40
1
40
1
40
1
40
1
41
1
10
110.597501676424
20
1.0109698181297
30
0
41
1
10
110.807442606093
20
1.00417327745876
30
0
41
1
10
111.017368517707
20
0.997537707088412
30
0
41
1
10
111.437086194726
20
0.985704405990759
30
0
41
1
10
111.646805736617
20
0.981280799502201
30
0
41
1
10
111.856521276679
20
0.976900086431556
30
0
0
SPLINE
5
C9
100
AcDbEntity
8
1
62
256
6
ByLayer
370
18
48
1
60
0
100
AcDbSpline
70
4
71
3
72
8
73
4
40
0
40
0
40
0
40
0
40
1
40
1
40
1
40
1
41
1
10
111.969600129019
20
-0.0394141461344475
30
0
41
1
10
111.927047135532
20
-0.118448645186561
30
0
41
1
10
111.884711536296
20
-0.197677607760426
30
0
41
1
10
111.842593820479
20
-0.277101471334703
30
0
0
SPLINE
5
CA
100
AcDbEntity
8
1
62
256
6
ByLayer
370
18
48
1
60
0
100
AcDbSpline
70
4
71
3
72
28
73
24
40
0
40
0
40
0
40
0
40
0.125000000000002
40
0.125000000000002
40
0.187500000000003
40
0.187500000000003
40
0.250000000000004
40
0.250000000000004
40
0.312500000000005
40
0.312500000000005
40
0.343750000000003
40
0.343750000000003
40
0.375000000000001
40
0.375000000000001
40
0.437500000000009
40
0.437500000000009
40
0.500000000000017
40
0.500000000000017
40
0.625000000000004
40
0.625000000000004
40
0.749999999999992
40
0.749999999999992
40
1
40
1
40
1
40
1
41
1
10
110.560468482102
20
-2.01731955750998
30
0
41
1
10
110.49960510886
20
-1.97088910565824
30
0
41
1
10
110.440847638139
20
-1.92026566410758
30
0
41
1
10
110.358913813939
20
-1.83387894526896
30
0
41
1
10
110.332519119406
20
-1.8031113870689
30
0
41
1
10
110.284290891807
20
-1.73768507494231
30
0
41
1
10
110.262033073076
20
-1.70246135803035
30
0
41
1
10
110.226471686853
20
-1.62803817638852
30
0
41
1
10
110.212920112118
20
-1.58786702627936
30
0
41
1
10
110.205357305073
20
-1.52803658622605
30
0
41
1
10
110.204979213828
20
-1.50789734066464
30
0
41
1
10
110.208831443724
20
-1.47003172411274
30
0
41
1
10
110.213058560204
20
-1.45184288238372
30
0
41
1
10
110.231661270279
20
-1.40131701871275
30
0
41
1
10
110.251638631009
20
-1.37348197912999
30
0
41
1
10
110.29782602494
20
-1.32835514411229
30
0
41
1
10
110.324550996229
20
-1.31038412136633
30
0
41
1
10
110.408262732717
20
-1.26667157537506
30
0
41
1
10
110.469580939614
20
-1.24992163538266
30
0
41
1
10
110.595035352909
20
-1.22863618611112
30
0
41
1
10
110.658737216575
20
-1.22449006490405
30
0
41
1
10
110.851623808507
20
-1.22392301248453
30
0
41
1
10
110.982982496346
20
-1.23933941150889
30
0
41
1
10
111.114976895299
20
-1.2646898880854
30
0
0
SPLINE
5
CB
100
AcDbEntity
8
1
62
256
6
ByLayer
370
18
48
1
60
0
100
AcDbSpline
70
4
71
3
72
8
73
4
40
0
40
0
40
0
40
0
40
1
40
1
40
1
40
1
41
1
10
6.68285234256157
20
3.30752955575679
30
0
41
1
10
6.67831090370774
20
3.31600032330567
30
0
41
1
10
6.67596370224342
20
3.32459607417337
30
0
41
1
10
6.67596398329403
20
3.33332052624462
30
0
0
SPLINE
5
CC
100
AcDbEntity
8
1
62
256
6
ByLayer
370
18
48
1
60
0
100
AcDbSpline
70
4
71
3
72
30
73
26
40
0
40
0
40
0
40
0
40
0.101020506908643
40
0.101020506908643
40
0.212731050857989
40
0.212731050857989
40
0.324441594807334
40
0.324441594807334
40
0.43615213875668
40
0.43615213875668
40
0.492007410731353
40
0.519935046718689
40
0.526916955715523
40
0.526916955715523
40
0.533898864712357
40
0.533898864712357
40
0.540880773709191
40
0.540880773709191
40
0.547862682706025
40
0.547862682706025
40
0.771283770604717
40
0.771283770604717
40
0.994704858503409
40
0.994704858503409
40
1
40
1
40
1
40
1
41
1
10
9.55637988687226
20
1.75267788437193
30
0
41
1
10
9.55637988687226
20
1.62549313385281
30
0
41
1
10
9.55637988687226
20
1.4926895334454
30
0
41
1
10
9.55637988687226
20
1.20167911840434
30
0
41
1
10
9.55637988687224
20
1.04222100043745
30
0
41
1
10
9.55637988687224
20
0.710122033543371
30
0
41
1
10
9.55637988687229
20
0.538351880726509
30
0
41
1
10
9.55637988687229
20
0.18455771805958
30
0
41
1
10
9.55637988687226
20
0.0023891384389287
30
0
41
1
10
9.55637988687226
20
-0.278731315746029
30
0
41
1
10
9.55637988687226
20
-0.421261124264873
30
0
41
1
10
9.55637988687241
20
-0.578887372761187
30
0
41
1
10
9.55637988687226
20
-0.640031495371773
30
0
41
1
10
9.55637988687226
20
-0.664530696969706
30
0
41
1
10
9.55637988687226
20
-0.67647745126115
30
0
41
1
10
9.55637988687226
20
-0.70220526748551
30
0
41
1
10
9.55637988687226
20
-0.716271690175972
30
0
41
1
10
9.55637988687226
20
-0.74526036300648
30
0
41
1
10
9.55637988687226
20
-0.760570375281617
30
0
41
1
10
9.55637988687226
20
-1.26697901821191
30
0
41
1
10
9.55637988687226
20
-1.76538888410349
30
0
41
1
10
9.55637988687226
20
-2.77210996230409
30
0
41
1
10
9.55637988687226
20
-3.28060182384158
30
0
41
1
10
9.55637988687226
20
-3.8071839542533
30
0
41
1
10
9.55637988687226
20
-3.81937546686623
30
0
41
1
10
9.55637988687226
20
-3.83156727825573
30
0
0
SPLINE
5
CD
100
AcDbEntity
8
1
62
256
6
ByLayer
370
18
48
1
60
0
100
AcDbSpline
70
4
71
3
72
8
73
4
40
0
40
0
40
0
40
0
40
1
40
1
40
1
40
1
41
1
10
111.856521276679
20
0.976900086431527
30
0
41
1
10
111.901878381988
20
0.696967281808384
30
0
41
1
10
111.942303378286
20
0.417076940324677
30
0
41
1
10
111.977766187997
20
0.137229320934182
30
0
0
SPLINE
5
CE
100
AcDbEntity
8
1
62
256
6
ByLayer
370
18
48
1
60
0
100
AcDbSpline
70
4
71
3
72
96
73
92
40
0
40
0
40
0
40
0
40
0.0224713215965544
40
0.0224713215965544
40
0.0439139998511648
40
0.0439139998511648
40
0.0653566781057753
40
0.0653566781057753
40
0.0867993563603856
40
0.0867993563603856
40
0.108242034614996
40
0.108242034614996
40
0.129684712869607
40
0.129684712869607
40
0.151127391124217
40
0.151127391124217
40
0.172570069378827
40
0.172570069378827
40
0.194012747633438
40
0.194012747633438
40
0.236898104142659
40
0.236898104142659
40
0.258340782397269
40
0.258340782397269
40
0.279783460651879
40
0.279783460651879
40
0.322668817161102
40
0.322668817161102
40
0.344111495415714
40
0.344111495415714
40
0.365554173670325
40
0.365554173670325
40
0.386996851924936
40
0.386996851924936
40
0.408439530179548
40
0.408439530179548
40
0.429882208434157
40
0.429882208434157
40
0.451324886688767
40
0.451324886688767
40
0.472767564943376
40
0.472767564943376
40
0.494210243197986
40
0.494210243197986
40
0.515652921452595
40
0.515652921452595
40
0.537095599707205
40
0.537095599707205
40
0.558538277961814
40
0.558538277961814
40
0.579980956216424
40
0.579980956216424
40
0.601423634471033
40
0.601423634471033
40
0.622866312725643
40
0.622866312725643
40
0.644308990980252
40
0.644308990980252
40
0.665751669234862
40
0.665751669234862
40
0.687194347489471
40
0.687194347489471
40
0.708637025744081
40
0.708637025744081
40
0.73007970399869
40
0.73007970399869
40
0.7515223822533
40
0.7515223822533
40
0.772965060507909
40
0.772965060507909
40
0.794407738762519
40
0.794407738762519
40
0.815850417017128
40
0.815850417017128
40
0.837293095271738
40
0.837293095271738
40
0.858735773526347
40
0.858735773526347
40
0.880178451780957
40
0.880178451780957
40
0.901621130035566
40
0.901621130035566
40
0.923063808290176
40
0.923063808290176
40
0.944506486544785
40
0.944506486544785
40
0.965949164799395
40
0.965949164799395
40
0.987391843054004
40
0.987391843054004
40
1
40
1
40
1
40
1
41
1
10
99.6873865791964
20
-2.08575965616049
30
0
41
1
10
99.419003602818
20
-2.18696963822521
30
0
41
1
10
99.1506561736103
20
-2.28497977480154
30
0
41
1
10
98.6260347915953
20
-2.47055081984135
30
0
41
1
10
98.3700208856736
20
-2.55855532905409
30
0
41
1
10
97.8575926376058
20
-2.72780940633538
30
0
41
1
10
97.6006597308684
20
-2.80871688878526
30
0
41
1
10
97.0871780295309
20
-2.96285210309793
30
0
41
1
10
96.8307239070647
20
-3.03612019438995
30
0
41
1
10
96.3182303083481
20
-3.17335156450665
30
0
41
1
10
96.0619812944718
20
-3.23764266478165
30
0
41
1
10
95.5503049023129
20
-3.35930910930023
30
0
41
1
10
95.2946197024793
20
-3.41591063113049
30
0
41
1
10
94.7822625499415
20
-3.5192119106095
30
0
41
1
10
94.5257772897296
20
-3.5661201229135
30
0
41
1
10
94.012158096528
20
-3.65102627873947
30
0
41
1
10
93.7551190530327
20
-3.68886303901135
30
0
41
1
10
93.2422652101319
20
-3.7536170279908
30
0
41
1
10
92.98651136708
20
-3.78112284369189
30
0
41
1
10
92.2187887798987
20
-3.84942484640465
30
0
41
1
10
91.7066147149982
20
-3.87499363256259
30
0
41
1
10
90.9371002703649
20
-3.88355522902719
30
0
41
1
10
90.6801104598821
20
-3.88154273839695
30
0
41
1
10
90.1672652725197
20
-3.86486913568959
30
0
41
1
10
89.9110294040646
20
-3.85094407799212
30
0
41
1
10
89.1421559199006
20
-3.79685709417217
30
0
41
1
10
88.6297936244906
20
-3.74237589679603
30
0
41
1
10
87.8610190459633
20
-3.63114981487641
30
0
41
1
10
87.6051056911894
20
-3.58909743815238
30
0
41
1
10
87.0918195300633
20
-3.49390102436763
30
0
41
1
10
86.8347002069119
20
-3.44068774069768
30
0
41
1
10
86.3212449299907
20
-3.32824782957201
30
0
41
1
10
86.0646930659432
20
-3.26822847973861
30
0
41
1
10
85.5519069936829
20
-3.13903448600573
30
0
41
1
10
85.2958872737931
20
-3.06960615414411
30
0
41
1
10
84.783786627685
20
-2.92328882721699
30
0
41
1
10
84.5274660198066
20
-2.8467480753711
30
0
41
1
10
84.0141903948234
20
-2.68551840200172
30
0
41
1
10
83.7570848891037
20
-2.60073030660428
30
0
41
1
10
83.2428704297016
20
-2.42548916656361
30
0
41
1
10
82.9858630314822
20
-2.33553220084545
30
0
41
1
10
82.4733059994139
20
-2.14736269803029
30
0
41
1
10
82.2173799059011
20
-2.04950915381372
30
0
41
1
10
81.7048337928953
20
-1.85092744434218
30
0
41
1
10
81.4484237520388
20
-1.749664775756
30
0
41
1
10
80.9353647398746
20
-1.54241041634188
30
0
41
1
10
80.6786428600524
20
-1.43602897428582
30
0
41
1
10
80.1646753565461
20
-1.22001834548521
30
0
41
1
10
79.9077664944961
20
-1.10947553360432
30
0
41
1
10
79.3945725071908
20
-0.886975361069062
30
0
41
1
10
79.1381468372999
20
-0.774622766211792
30
0
41
1
10
78.6253228521087
20
-0.548770756707569
30
0
41
1
10
78.3689470415737
20
-0.435244181056362
30
0
41
1
10
77.8560742196613
20
-0.207276392503473
30
0
41
1
10
77.5996190406313
20
-0.0926646420271311
30
0
41
1
10
77.0869389131419
20
0.138284971067606
30
0
41
1
10
76.8300094468617
20
0.253390077457425
30
0
41
1
10
76.3158400941359
20
0.48212108981204
30
0
41
1
10
76.0590939351779
20
0.595680952446742
30
0
41
1
10
75.54599805636
20
0.820648041894628
30
0
41
1
10
75.2895235105972
20
0.932042552134419
30
0
41
1
10
74.7769464633361
20
1.1526948734772
30
0
41
1
10
74.5211765627314
20
1.26258426617022
30
0
41
1
10
74.0085193917575
20
1.4771804668901
30
0
41
1
10
73.751862368983
20
1.58245835814148
30
0
41
1
10
73.2379543339164
20
1.7888189619938
30
0
41
1
10
72.9805811947475
20
1.8897170121115
30
0
41
1
10
72.4669106937853
20
2.08597581219473
30
0
41
1
10
72.210587082567
20
2.18207811406893
30
0
41
1
10
71.6982334773371
20
2.36828043158303
30
0
41
1
10
71.4419911764234
20
2.45779733014757
30
0
41
1
10
70.9292097177915
20
2.62978793554143
30
0
41
1
10
70.6727104432346
20
2.71253726988337
30
0
41
1
10
70.1592459696332
20
2.87099118945343
30
0
41
1
10
69.9019811048583
20
2.94627062541372
30
0
41
1
10
69.3882651477924
20
3.09020530104559
30
0
41
1
10
69.1317429266023
20
3.15810690609905
30
0
41
1
10
68.6185757552767
20
3.28505124472571
30
0
41
1
10
68.3620840403609
20
3.34401276933807
30
0
41
1
10
67.8491986193385
20
3.45260466774584
30
0
41
1
10
67.5927164787677
20
3.50246262291378
30
0
41
1
10
67.0796389624014
20
3.59368093327737
30
0
41
1
10
66.8234125106499
20
3.63488522969379
30
0
41
1
10
66.3098354508783
20
3.70635959441495
30
0
41
1
10
66.0524091059367
20
3.73760965604669
30
0
41
1
10
65.5385221767942
20
3.79012924129643
30
0
41
1
10
65.2818648589338
20
3.81125850703023
30
0
41
1
10
64.7688009289873
20
3.84258455545259
30
0
41
1
10
64.512391700381
20
3.85371852457541
30
0
41
1
10
64.1056637941844
20
3.86355844910025
30
0
41
1
10
63.9549855164208
20
3.86539914774929
30
0
41
1
10
63.8042039741007
20
3.86536126240668
30
0
0
SPLINE
5
CF
100
AcDbEntity
8
1
62
256
6
ByLayer
370
18
48
1
60
0
100
AcDbSpline
70
4
71
3
72
90
73
86
40
0
40
0
40
0
40
0
40
0.0080220518950466
40
0.0080220518950466
40
0.0295867898973285
40
0.0295867898973285
40
0.0511515278996103
40
0.0511515278996103
40
0.0727162659018919
40
0.0727162659018919
40
0.0942810039041738
40
0.0942810039041738
40
0.115845741906455
40
0.115845741906455
40
0.137410479908737
40
0.137410479908737
40
0.1805399559133
40
0.1805399559133
40
0.202104693915582
40
0.202104693915582
40
0.223669431917863
40
0.223669431917863
40
0.266798907922425
40
0.266798907922425
40
0.288363645924707
40
0.288363645924707
40
0.309928383926988
40
0.309928383926988
40
0.33149312192927
40
0.33149312192927
40
0.353057859931552
40
0.353057859931552
40
0.374622597933834
40
0.374622597933834
40
0.396187335936115
40
0.396187335936115
40
0.417752073938397
40
0.417752073938397
40
0.439316811940679
40
0.439316811940679
40
0.482446287945242
40
0.482446287945242
40
0.504011025947524
40
0.504011025947524
40
0.525575763949805
40
0.525575763949805
40
0.547140501952087
40
0.547140501952087
40
0.568705239954369
40
0.568705239954369
40
0.590269977956651
40
0.590269977956651
40
0.611834715958932
40
0.611834715958932
40
0.633399453961214
40
0.633399453961214
40
0.654964191963496
40
0.654964191963496
40
0.676528929965777
40
0.676528929965777
40
0.698093667968059
40
0.698093667968059
40
0.719658405970341
40
0.719658405970341
40
0.741223143972623
40
0.741223143972623
40
0.762787881974905
40
0.762787881974905
40
0.784352619977186
40
0.784352619977186
40
0.827482095981749
40
0.827482095981749
40
0.849046833984031
40
0.849046833984031
40
0.870611571986312
40
0.870611571986312
40
0.892176309988593
40
0.892176309988593
40
0.913741047990875
40
0.913741047990875
40
0.935305785993156
40
0.935305785993156
40
0.956870523995438
40
0.956870523995438
40
1
40
1
40
1
40
1
41
1
10
45.29076073309
20
-2.07064826964668
30
0
41
1
10
45.1950539867024
20
-2.10656801636776
30
0
41
1
10
45.0993461055803
20
-2.14206949772753
30
0
41
1
10
44.746566183103
20
-2.27132950475215
30
0
41
1
10
44.4897418384267
20
-2.36233316050164
30
0
41
1
10
43.9762728298868
20
-2.538007025832
30
0
41
1
10
43.7194716660603
20
-2.62250898672431
30
0
41
1
10
43.207041815888
20
-2.78604916367502
30
0
41
1
10
42.9506477716762
20
-2.86370271948493
30
0
41
1
10
42.4371110842688
20
-3.0111169187457
30
0
41
1
10
42.1800375735656
20
-3.08112959111591
30
0
41
1
10
41.6651900978963
20
-3.21287804652346
30
0
41
1
10
41.4079479207771
20
-3.27416978275491
30
0
41
1
10
40.8942559187488
20
-3.38820931942081
30
0
41
1
10
40.638055426294
20
-3.44157045233501
30
0
41
1
10
39.8687544316544
20
-3.58670731939856
30
0
41
1
10
39.3555400952502
20
-3.66343344938579
30
0
41
1
10
38.5842124410404
20
-3.75101669804278
30
0
41
1
10
38.3267221958064
20
-3.77523378657793
30
0
41
1
10
37.8130163357907
20
-3.8133952168445
30
0
41
1
10
37.5562583423854
20
-3.82749330251107
30
0
41
1
10
36.7860507695513
20
-3.85503255904916
30
0
41
1
10
36.2728474041801
20
-3.85215499947333
30
0
41
1
10
35.5025617237981
20
-3.81894635910979
30
0
41
1
10
35.246065216019
20
-3.8025998228278
30
0
41
1
10
34.7314656087126
20
-3.75958248036443
30
0
41
1
10
34.4740992271524
20
-3.73320326630753
30
0
41
1
10
33.9600671122757
20
-3.67135226808705
30
0
41
1
10
33.7032561707626
20
-3.6354541242797
30
0
41
1
10
33.1898829001891
20
-3.55340548565866
30
0
41
1
10
32.9335748626753
20
-3.50796559171209
30
0
41
1
10
32.4205784031551
20
-3.40789327200392
30
0
41
1
10
32.1637890716747
20
-3.35326496132478
30
0
41
1
10
31.6495313481017
20
-3.23452983633334
30
0
41
1
10
31.3918542343646
20
-3.17123402597321
30
0
41
1
10
30.8772285923573
20
-3.0368117218872
30
0
41
1
10
30.6201354091953
20
-2.96566934013029
30
0
41
1
10
30.1073550882738
20
-2.81352221628313
30
0
41
1
10
29.8509026627215
20
-2.73420559262425
30
0
41
1
10
29.0810193377025
20
-2.48721003820339
30
0
41
1
10
28.5673514171347
20
-2.30769181693574
30
0
41
1
10
27.7952001603162
20
-2.02217125434413
30
0
41
1
10
27.538311370777
20
-1.92329015969722
30
0
41
1
10
27.0248027585459
20
-1.72155991278353
30
0
41
1
10
26.7680895280334
20
-1.61871354435644
30
0
41
1
10
26.2546984019268
20
-1.40981721499673
30
0
41
1
10
25.9980501967817
20
-1.30348794529263
30
0
41
1
10
25.4845983449291
20
-1.08708483803801
30
0
41
1
10
25.227944062764
20
-0.976859453356752
30
0
41
1
10
24.7144093093654
20
-0.75370899839416
30
0
41
1
10
24.4569259118187
20
-0.641181336097475
30
0
41
1
10
23.9424878438449
20
-0.415206142344971
30
0
41
1
10
23.685550036549
20
-0.301763174935559
30
0
41
1
10
23.1718569720936
20
-0.0747727915963878
30
0
41
1
10
22.9150618618953
20
0.0386789607107971
30
0
41
1
10
22.4020777230486
20
0.266542720350429
30
0
41
1
10
22.1459208105373
20
0.3810480819796
30
0
41
1
10
21.6324086552771
20
0.607037205740085
30
0
41
1
10
21.375346772825
20
0.719184748529358
30
0
41
1
10
20.8605542414198
20
0.941553122257517
30
0
41
1
10
20.6030227750132
20
1.05144145263256
30
0
41
1
10
20.0888376558212
20
1.26827212521692
30
0
41
1
10
19.8323600384486
20
1.3759362800165
30
0
41
1
10
19.3192758375187
20
1.58651856673791
30
0
41
1
10
19.0626059005367
20
1.68939345946643
30
0
41
1
10
18.5489937179724
20
1.89042091104091
30
0
41
1
10
18.2920823460134
20
1.98865543868882
30
0
41
1
10
17.7777181726185
20
2.179396648161
30
0
41
1
10
17.5199808147412
20
2.2716173871161
30
0
41
1
10
16.7486924287465
20
2.54210977481861
30
0
41
1
10
16.2348462045118
20
2.70867234932803
30
0
41
1
10
15.4642017341533
20
2.9359181479376
30
0
41
1
10
15.2072688976338
20
3.00784995699828
30
0
41
1
10
14.6933344405824
20
3.14378804225652
30
0
41
1
10
14.4366738225534
20
3.2075171432447
30
0
41
1
10
13.9218856692737
20
3.32615829402837
30
0
41
1
10
13.6641580648751
20
3.38142879690289
30
0
41
1
10
13.1498494214863
20
3.48294493379549
30
0
41
1
10
12.8930014015571
20
3.52920451357147
30
0
41
1
10
12.3797302542284
20
3.61223932772893
30
0
41
1
10
12.1235224696378
20
3.64918565394737
30
0
41
1
10
11.6113904925692
20
3.712705745416
30
0
41
1
10
11.3552658182161
20
3.73907631242
30
0
41
1
10
10.5861166517508
20
3.80366691536275
30
0
41
1
10
10.0720240339201
20
3.8278373015616
30
0
41
1
10
9.55637988687226
20
3.83156727825565
30
0
0
SPLINE
5
D0
100
AcDbEntity
8
1
62
256
6
ByLayer
370
18
48
1
60
0
100
AcDbSpline
70
4
71
3
72
8
73
4
40
0
40
0
40
0
40
0
40
1
40
1
40
1
40
1
41
1
10
111.977766187997
20
-0.137229320934011
30
0
41
1
10
111.981455104228
20
-0.108118981576553
30
0
41
1
10
111.989529974966
20
-0.0721165256051961
30
0
41
1
10
111.999964776435
20
-0.0340039240573731
30
0
0
SPLINE
5
D1
100
AcDbEntity
8
1
62
256
6
ByLayer
370
18
48
1
60
0
100
AcDbSpline
70
4
71
3
72
18
73
14
40
0
40
0
40
0
40
0
40
0.153557214792707
40
0.153557214792707
40
0.307114429585413
40
0.307114429585413
40
0.614228859170827
40
0.614228859170827
40
0.767786073963534
40
0.767786073963534
40
0.921343288756241
40
0.921343288756241
40
1
40
1
40
1
40
1
41
1
10
6.67596398329403
20
3.33332052625826
30
0
41
1
10
6.67596623098183
20
3.40309365880489
30
0
41
1
10
6.67596816608187
20
3.46826589692284
30
0
41
1
10
6.67597149536516
20
3.58835010386065
30
0
41
1
10
6.67597288331515
20
3.64299472797779
30
0
41
1
10
6.67597642091391
20
3.79121551970005
30
0
41
1
10
6.67597794685042
20
3.86920641171926
30
0
41
1
10
6.67597971288393
20
3.95447787957005
30
0
41
1
10
6.67598021540488
20
3.97762588912875
30
0
41
1
10
6.67598114373607
20
4.01227516498861
30
0
41
1
10
6.67598157208448
20
4.02391869235422
30
0
41
1
10
6.67598224823652
20
4.03312401601212
30
0
41
1
10
6.67598248248046
20
4.03479339854476
30
0
41
1
10
6.67598272800396
20
4.03500252593278
30
0
0
SPLINE
5
D2
100
AcDbEntity
8
1
62
256
6
ByLayer
370
18
48
1
60
0
100
AcDbSpline
70
4
71
3
72
8
73
4
40
0
40
0
40
0
40
0
40
1
40
1
40
1
40
1
41
1
10
111.977766187997
20
0.137229320934182
30
0
41
1
10
111.981455104228
20
0.108118981578798
30
0
41
1
10
111.989529974965
20
0.072116525610511
30
0
41
1
10
111.999964776433
20
0.0340039240657575
30
0
0
SPLINE
5
D3
100
AcDbEntity
8
1
62
256
6
ByLayer
370
18
48
1
60
0
100
AcDbSpline
70
4
71
3
72
52
73
48
40
0
40
0
40
0
40
0
40
0.0291971173383005
40
0.0291971173383005
40
0.0583942346766009
40
0.0583942346766009
40
0.116788469353204
40
0.116788469353204
40
0.175182704029808
40
0.175182704029808
40
0.233576938706411
40
0.233576938706411
40
0.291971173383014
40
0.291971173383014
40
0.350365408059618
40
0.350365408059618
40
0.408759642736221
40
0.408759642736221
40
0.437956760074524
40
0.437956760074524
40
0.467153877412827
40
0.467153877412827
40
0.525548112089433
40
0.525548112089433
40
0.554745229427735
40
0.554745229427735
40
0.583942346766036
40
0.583942346766036
40
0.64233658144264
40
0.64233658144264
40
0.67153369878094
40
0.67153369878094
40
0.700730816119241
40
0.700730816119241
40
0.759125050795839
40
0.759125050795839
40
0.788322168134138
40
0.788322168134138
40
0.817519285472438
40
0.817519285472438
40
0.875913520149039
40
0.875913520149039
40
0.93430775482564
40
0.93430775482564
40
0.992701989502241
40
0.992701989502241
40
1
40
1
40
1
40
1
41
1
10
110.528235878323
20
-4.09249170421018
30
0
41
1
10
110.258364284683
20
-4.10002128820202
30
0
41
1
10
109.98850180465
20
-4.10155563821107
30
0
41
1
10
109.448446197414
20
-4.09267160492652
30
0
41
1
10
109.178009917296
20
-4.08223462529932
30
0
41
1
10
108.367656621988
20
-4.03315378384113
30
0
41
1
10
107.828985852511
20
-3.97678165960258
30
0
41
1
10
106.751316908179
20
-3.81865940279502
30
0
41
1
10
106.211986531333
20
-3.7168024684176
30
0
41
1
10
105.13085290181
20
-3.47064061718297
30
0
41
1
10
104.59196428308
20
-3.32697520946627
30
0
41
1
10
103.514257341863
20
-3.0027185582932
30
0
41
1
10
102.975361974729
20
-2.82222370060902
30
0
41
1
10
101.894051417901
20
-2.42936020082146
30
0
41
1
10
101.35474975429
20
-2.21811412461338
30
0
41
1
10
100.27684456891
20
-1.77279006482161
30
0
41
1
10
99.7379982438331
20
-1.53865463841399
30
0
41
1
10
98.9273785320006
20
-1.17501186423647
30
0
41
1
10
98.6569607875948
20
-1.05181675354908
30
0
41
1
10
98.1172348116065
20
-0.80326915829437
30
0
41
1
10
97.8476509128379
20
-0.677792712899077
30
0
41
1
10
97.0390987222804
20
-0.299103350683083
30
0
41
1
10
96.5003084703646
20
-0.0436750697541015
30
0
41
1
10
95.6900184188269
20
0.338674491144332
30
0
41
1
10
95.4194326415465
20
0.466033230450847
30
0
41
1
10
94.8794466124998
20
0.718403131695879
30
0
41
1
10
94.6097658448936
20
0.843546208559872
30
0
41
1
10
93.8010383681045
20
1.21457032788879
30
0
41
1
10
93.2623293330906
20
1.4560886073653
30
0
41
1
10
92.4523484801587
20
1.80436387665119
30
0
41
1
10
92.1817394822411
20
1.91820979412836
30
0
41
1
10
91.6414565344822
20
2.13950641951678
30
0
41
1
10
91.3716618737614
20
2.24701593902066
30
0
41
1
10
90.5626914063745
20
2.5590662573247
30
0
41
1
10
90.0240302009836
20
2.75328723301163
30
0
41
1
10
89.2143047055562
20
3.0194030989399
30
0
41
1
10
88.9438227760272
20
3.10397030363399
30
0
41
1
10
88.4032140697807
20
3.26360423931962
30
0
41
1
10
88.1332877876607
20
3.33862189719557
30
0
41
1
10
87.3240158910038
20
3.54860603587497
30
0
41
1
10
86.7853234468857
20
3.66864886684038
30
0
41
1
10
85.7059403722126
20
3.86504081632447
30
0
41
1
10
85.1644442133007
20
3.94136972861091
30
0
41
1
10
84.0851199308644
20
4.04676355135197
30
0
41
1
10
83.5463870827066
20
4.07609797717475
30
0
41
1
10
82.9393282873207
20
4.08231562823477
30
0
41
1
10
82.8718589582742
20
4.08263226173224
30
0
41
1
10
82.8043675426659
20
4.08257567829742
30
0
0
SPLINE
5
D4
100
AcDbEntity
8
1
62
256
6
ByLayer
370
18
48
1
60
0
100
AcDbSpline
70
4
71
3
72
56
73
52
40
0
40
0
40
0
40
0
40
0.0148357752887772
40
0.0148357752887772
40
0.0419127622962498
40
0.0419127622962498
40
0.0960667363111968
40
0.0960667363111968
40
0.12314372331867
40
0.12314372331867
40
0.150220710326143
40
0.150220710326143
40
0.204374684341091
40
0.204374684341091
40
0.231451671348565
40
0.231451671348565
40
0.25852865835604
40
0.25852865835604
40
0.312682632370988
40
0.312682632370988
40
0.366836606385936
40
0.366836606385936
40
0.420990580400884
40
0.420990580400884
40
0.475144554415832
40
0.475144554415832
40
0.52929852843078
40
0.52929852843078
40
0.583452502445727
40
0.583452502445727
40
0.637606476460675
40
0.637606476460675
40
0.66468346346815
40
0.66468346346815
40
0.691760450475623
40
0.691760450475623
40
0.74591442449057
40
0.74591442449057
40
0.772991411498044
40
0.772991411498044
40
0.800068398505518
40
0.800068398505518
40
0.854222372520466
40
0.854222372520466
40
0.88129935952794
40
0.88129935952794
40
0.908376346535415
40
0.908376346535415
40
0.962530320550365
40
0.962530320550365
40
1
40
1
40
1
40
1
41
1
10
58.3391567036286
20
-3.86648164828219
30
0
41
1
10
58.1909028509828
20
-3.88800750394247
30
0
41
1
10
58.0426683918929
20
-3.90783135670847
30
0
41
1
10
57.624386969078
20
-3.95888607854474
30
0
41
1
10
57.3544562394118
20
-3.9860883558664
30
0
41
1
10
56.5449359874612
20
-4.05015492147626
30
0
41
1
10
56.0056059225315
20
-4.06945454587421
30
0
41
1
10
55.1945613616367
20
-4.06269376967097
30
0
41
1
10
54.9236590982188
20
-4.05446936634604
30
0
41
1
10
54.382945178756
20
-4.02622121606584
30
0
41
1
10
54.1129101124253
20
-4.00621067696727
30
0
41
1
10
53.3032217098844
20
-3.92879632143445
30
0
41
1
10
52.7638948794187
20
-3.85403581321106
30
0
41
1
10
51.9531589335137
20
-3.70857881343298
30
0
41
1
10
51.6823172490912
20
-3.65447968822909
30
0
41
1
10
51.1412749225412
20
-3.53594275692754
30
0
41
1
10
50.8711264165377
20
-3.47150181103854
30
0
41
1
10
50.0612386991041
20
-3.26334460773884
30
0
41
1
10
49.5218823494949
20
-3.10499687133361
30
0
41
1
10
48.4411885495151
20
-2.75325581158037
30
0
41
1
10
47.8991331728531
20
-2.55979263607034
30
0
41
1
10
46.8189555544744
20
-2.14640096950927
30
0
41
1
10
46.2796290164492
20
-1.92634363979269
30
0
41
1
10
45.1990807254493
20
-1.46589709796717
30
0
41
1
10
44.6569838441028
20
-1.22493804304111
30
0
41
1
10
43.5763829557666
20
-0.733075303856111
30
0
41
1
10
43.03696581471
20
-0.482012430613423
30
0
41
1
10
41.9566537338478
20
0.0234723745949168
30
0
41
1
10
41.4145977266762
20
0.278370113889736
30
0
41
1
10
40.3334992448171
20
0.780476108880464
30
0
41
1
10
39.7940201583931
20
1.02784179289972
30
0
41
1
10
38.9838931251018
20
1.38812201495017
30
0
41
1
10
38.7137157992114
20
1.50645439267339
30
0
41
1
10
38.1725868465411
20
1.73856289610711
30
0
41
1
10
37.9015681286532
20
1.85237389930686
30
0
41
1
10
37.0903685702516
20
2.1845147373742
30
0
41
1
10
36.5507820560383
20
2.39385586276543
30
0
41
1
10
35.740719917702
20
2.68539833875664
30
0
41
1
10
35.4705966995577
20
2.77885330845734
30
0
41
1
10
34.9296565184463
20
2.95750082520885
30
0
41
1
10
34.6585850863709
20
3.04277523011112
30
0
41
1
10
33.8469486090679
20
3.28440015175579
30
0
41
1
10
33.307216597051
20
3.42670517161645
30
0
41
1
10
32.4971939181492
20
3.60919482052887
30
0
41
1
10
32.2271161447547
20
3.66486396743065
30
0
41
1
10
31.6863360793545
20
3.76538800928745
30
0
41
1
10
31.415359880994
20
3.81029540696343
30
0
41
1
10
30.6032879668206
20
3.92794473896458
30
0
41
1
10
30.0634098343116
20
3.98352871404512
30
0
41
1
10
29.1497020585171
20
4.03790538352015
30
0
41
1
10
28.7758121464778
20
4.04891224198585
30
0
41
1
10
28.4014530500551
20
4.04857250573491
30
0
0
SPLINE
5
D5
100
AcDbEntity
8
1
62
256
6
ByLayer
370
18
48
1
60
0
100
AcDbSpline
70
4
71
3
72
8
73
4
40
0
40
0
40
0
40
0
40
1
40
1
40
1
40
1
41
1
10
111.856521276679
20
-0.976900086431527
30
0
41
1
10
111.901877434334
20
-0.696973130490079
30
0
41
1
10
111.942302635822
20
-0.417082799332974
30
0
41
1
10
111.977766187997
20
-0.137229320934125
30
0
0
SPLINE
5
D6
100
AcDbEntity
8
1
62
256
6
ByLayer
370
18
48
1
60
0
100
AcDbSpline
70
4
71
3
72
8
73
4
40
0
40
0
40
0
40
0
40
1
40
1
40
1
40
1
41
1
10
111.999964776431
20
0.034003924065189
30
0
41
1
10
111.991672853067
20
0.0079529358447701
30
0
41
1
10
111.980628312426
20
-0.0189312874762777
30
0
41
1
10
111.969600129019
20
-0.0394141461343906
30
0
0
SPLINE
5
D7
100
AcDbEntity
8
1
62
256
6
ByLayer
370
18
48
1
60
0
100
AcDbSpline
70
4
71
3
72
20
73
16
40
0
40
0
40
0
40
0
40
0.156775811051729
40
0.156775811051729
40
0.262178834670263
40
0.262178834670263
40
0.367581858288797
40
0.367581858288797
40
0.578387905525865
40
0.578387905525865
40
0.789193952762932
40
0.789193952762932
40
0.894596976381466
40
0.894596976381466
40
1
40
1
40
1
40
1
41
1
10
6.67598272854394
20
-4.03500298347564
30
0
41
1
10
6.67598344153276
20
-4.03560402227595
30
0
41
1
10
6.67598424966602
20
-4.02389239435345
30
0
41
1
10
6.67598600857701
20
-3.98324273662027
30
0
41
1
10
6.67598682371818
20
-3.96116608012346
30
0
41
1
10
6.67598870075699
20
-3.90647786315927
30
0
41
1
10
6.6759897657613
20
-3.87379646298157
30
0
41
1
10
6.67599339505833
20
-3.75997075679723
30
0
41
1
10
6.67599640858191
20
-3.66292797432638
30
0
41
1
10
6.67600369184922
20
-3.42610046601044
30
0
41
1
10
6.67600786055425
20
-3.28957269791039
30
0
41
1
10
6.67601465108859
20
-3.05864798826644
30
0
41
1
10
6.67601700241764
20
-2.97728947393728
30
0
41
1
10
6.67602181443163
20
-2.80564512316769
30
0
41
1
10
6.67602428789726
20
-2.71485749361449
30
0
41
1
10
6.67602673094689
20
-2.62104998579579
30
0
0
SPLINE
5
D8
100
AcDbEntity
8
1
62
256
6
ByLayer
370
18
48
1
60
0
100
AcDbSpline
70
4
71
3
72
48
73
44
40
0
40
0
40
0
40
0
40
0.0625000000000059
40
0.0625000000000059
40
0.125000000000012
40
0.125000000000012
40
0.250000000000024
40
0.250000000000024
40
0.312500000000029
40
0.312500000000029
40
0.343750000000032
40
0.343750000000032
40
0.375000000000035
40
0.375000000000035
40
0.437500000000041
40
0.437500000000041
40
0.468750000000044
40
0.468750000000044
40
0.500000000000046
40
0.500000000000046
40
0.562500000000053
40
0.562500000000053
40
0.62500000000006
40
0.62500000000006
40
0.687500000000067
40
0.687500000000067
40
0.691406250000068
40
0.691406250000068
40
0.695312500000068
40
0.695312500000068
40
0.699218750000069
40
0.699218750000069
40
0.703125000000069
40
0.703125000000069
40
0.718750000000066
40
0.718750000000066
40
0.75000000000006
40
0.75000000000006
40
0.812500000000045
40
0.812500000000045
40
0.87500000000003
40
0.87500000000003
40
1
40
1
40
1
40
1
41
1
10
6.67602673094692
20
-2.62104998579579
30
0
41
1
10
6.60039480322197
20
-2.51451903694994
30
0
41
1
10
6.52899514153506
20
-2.40203489890752
30
0
41
1
10
6.39578674978748
20
-2.1639037259861
30
0
41
1
10
6.33385689154341
20
-2.03802379896715
30
0
41
1
10
6.16623742007084
20
-1.63886703938456
30
0
41
1
10
6.08197881558271
20
-1.35415962976401
30
0
41
1
10
6.01329771502583
20
-0.891957419169046
30
0
41
1
10
6.00084608472588
20
-0.735301022249672
30
0
41
1
10
5.99964026186751
20
-0.498852177866865
30
0
41
1
10
6.00214030715435
20
-0.419662050338587
30
0
41
1
10
6.01331262860134
20
-0.260525184216874
30
0
41
1
10
6.02206061856973
20
-0.180130480147142
30
0
41
1
10
6.05765046574925
20
0.0584876898595326
30
0
41
1
10
6.09355827469133
20
0.213672979129711
30
0
41
1
10
6.16520377319796
20
0.440854080745311
30
0
41
1
10
6.19206038711252
20
0.515644907704939
30
0
41
1
10
6.25173343525719
20
0.663365370730844
30
0
41
1
10
6.2845484306481
20
0.736197739675333
30
0
41
1
10
6.3898249075603
20
0.94808516399749
30
0
41
1
10
6.46963103429741
20
1.08196813382489
30
0
41
1
10
6.64631102196046
20
1.33701461402725
30
0
41
1
10
6.74344919433727
20
1.45828860681226
30
0
41
1
10
6.94979126513272
20
1.68587762469383
30
0
41
1
10
7.05941863897351
20
1.79277500292233
30
0
41
1
10
7.18095388129373
20
1.8993448587006
30
0
41
1
10
7.18812109992183
20
1.90558749121965
30
0
41
1
10
7.20249137077832
20
1.91802100875702
30
0
41
1
10
7.20953088612504
20
1.92436683180262
30
0
41
1
10
7.22642123706066
20
1.93436634278962
30
0
41
1
10
7.23584212697216
20
1.93762734401588
30
0
41
1
10
7.25542661207112
20
1.94176653597182
30
0
41
1
10
7.26567734106982
20
1.94240530278222
30
0
41
1
10
7.31623269942665
20
1.94655138681836
30
0
41
1
10
7.35665475388436
20
1.95009415819396
30
0
41
1
10
7.4781265936744
20
1.95867220408283
30
0
41
1
10
7.55916564673242
20
1.96285196319272
30
0
41
1
10
7.80245232792927
20
1.97090510037288
30
0
41
1
10
7.96526944002966
20
1.97028404706322
30
0
41
1
10
8.2886988687261
20
1.95749748455754
30
0
41
1
10
8.44942103843962
20
1.94536834806837
30
0
41
1
10
8.92871428699505
20
1.89210013665811
30
0
41
1
10
9.24442940011963
20
1.83426069156738
30
0
41
1
10
9.55637988687226
20
1.7526778843652
30
0
0
SPLINE
5
D9
100
AcDbEntity
8
1
62
256
6
ByLayer
370
18
48
1
60
0
100
AcDbSpline
70
4
71
3
72
14
73
10
40
0
40
0
40
0
40
0
40
0.0724911892532012
40
0.0724911892532012
40
0.49883030201816
40
0.49883030201816
40
0.925169414783119
40
0.925169414783119
40
1
40
1
40
1
40
1
41
1
10
42.002281796851
20
0.0023651740049786
30
0
41
1
10
42.1873703979972
20
-0.0821189399264597
30
0
41
1
10
42.3727812941047
20
-0.166767573885352
30
0
41
1
10
43.6470986310414
20
-0.747160564464764
30
0
41
1
10
44.7230184294326
20
-1.23137272936862
30
0
41
1
10
46.8744309098691
20
-2.12131626990646
30
0
41
1
10
47.9496166949942
20
-2.52770118759133
30
0
41
1
10
49.2280459467896
20
-2.93020413437714
30
0
41
1
10
49.4195101181543
20
-2.988356223468
30
0
41
1
10
49.6107056232341
20
-3.04421520233686
30
0
0
SPLINE
5
DA
100
AcDbEntity
8
1
62
256
6
ByLayer
370
13
48
1
60
0
100
AcDbSpline
70
4
71
3
72
20
73
16
40
0
40
0
40
0
40
0
40
0.0316204484966704
40
0.0316204484966704
40
0.13775588720969
40
0.13775588720969
40
0.350026764635729
40
0.350026764635729
40
0.774568519487801
40
0.774568519487801
40
0.880703958200818
40
0.880703958200818
40
0.986839396913835
40
0.986839396913835
40
1
40
1
40
1
40
1
41
1
10
49.6107046636418
20
-3.04421492198586
30
0
41
1
10
49.6918383726821
20
-3.06791865256329
30
0
41
1
10
49.7729237025787
20
-3.09120945724368
30
0
41
1
10
50.1256824182265
20
-3.1907625248314
30
0
41
1
10
50.3966742623936
20
-3.26269608259204
30
0
41
1
10
51.2079797167603
20
-3.46339535524766
30
0
41
1
10
51.7466816342376
20
-3.57713332465619
30
0
41
1
10
53.3605626055206
20
-3.85426008705204
30
0
41
1
10
54.4338868482119
20
-3.95341372835571
30
0
41
1
10
55.7880771608793
20
-3.96070166710325
30
0
41
1
10
56.0595452271308
20
-3.95633992370568
30
0
41
1
10
56.6041372150784
20
-3.93587098048175
30
0
41
1
10
56.8768349547942
20
-3.91975861556074
30
0
41
1
10
57.1828743171778
20
-3.89513932906652
30
0
41
1
10
57.2166349663336
20
-3.89233461038927
30
0
41
1
10
57.2503946455737
20
-3.88944134476338
30
0
0
SPLINE
5
DB
100
AcDbEntity
8
1
62
256
6
ByLayer
370
18
48
1
60
0
100
AcDbSpline
70
4
71
3
72
16
73
12
40
0
40
0
40
0
40
0
40
0.161747705641487
40
0.161747705641487
40
0.592500347380723
40
0.592500347380723
40
0.807876668250341
40
0.807876668250341
40
0.915564828685151
40
0.915564828685151
40
1
40
1
40
1
40
1
41
1
10
96.4451263261166
20
-0.0174111309413831
30
0
41
1
10
96.8509996616838
20
-0.204206663911577
30
0
41
1
10
97.2551613715916
20
-0.390163167216741
30
0
41
1
10
98.7317518117804
20
-1.06301135305495
30
0
41
1
10
99.7978710670782
20
-1.53558394914299
30
0
41
1
10
101.404617311453
20
-2.18003813459626
30
0
41
1
10
101.941451479604
20
-2.38416196913704
30
0
41
1
10
102.751010900311
20
-2.66936523657677
30
0
41
1
10
103.021593206646
20
-2.76092479609685
30
0
41
1
10
103.505921654564
20
-2.91741826729117
30
0
41
1
10
103.719489492978
20
-2.9838466459951
30
0
41
1
10
103.93254004452
20
-3.04734786204003
30
0
0
SPLINE
5
DC
100
AcDbEntity
8
1
62
256
6
ByLayer
370
13
48
1
60
0
100
AcDbSpline
70
4
71
3
72
12
73
8
40
0
40
0
40
0
40
0
40
0.0262817428106762
40
0.0262817428106762
40
0.513140871405339
40
0.513140871405339
40
1
40
1
40
1
40
1
41
1
10
103.932540042576
20
-3.04734786146054
30
0
41
1
10
103.991213011845
20
-3.06483575281584
30
0
41
1
10
104.04984674895
20
-3.08210164177359
30
0
41
1
10
105.193380046936
20
-3.41464076947611
30
0
41
1
10
106.265894097268
20
-3.65309631174233
30
0
41
1
10
108.411289985966
20
-3.95440511833061
30
0
41
1
10
109.484446043565
20
-4.01774659129876
30
0
41
1
10
110.570131569363
20
-3.98551330435103
30
0
0
SPLINE
5
DD
100
AcDbEntity
8
1
62
256
6
ByLayer
370
18
48
1
60
0
100
AcDbSpline
70
4
71
3
72
18
73
14
40
0
40
0
40
0
40
0
40
0.125
40
0.125
40
0.250000000000001
40
0.250000000000001
40
0.375000000000001
40
0.375000000000001
40
0.500000000000001
40
0.500000000000001
40
0.750000000000001
40
0.750000000000001
40
1
40
1
40
1
40
1
41
1
10
6.67602673094689
20
-2.62104998579579
30
0
41
1
10
6.67875663197239
20
-2.60176143032817
30
0
41
1
10
6.68298150368585
20
-2.58289942264688
30
0
41
1
10
6.69628545187689
20
-2.54860087520569
30
0
41
1
10
6.70552869759851
20
-2.53361566336608
30
0
41
1
10
6.72790391482721
20
-2.51393737608683
30
0
41
1
10
6.74099373399477
20
-2.50925399332198
30
0
41
1
10
6.76690892858176
20
-2.5083369444024
30
0
41
1
10
6.7795431791647
20
-2.51164023591164
30
0
41
1
10
6.81665184512636
20
-2.52753420879841
30
0
41
1
10
6.83918938518599
20
-2.54525184795503
30
0
41
1
10
6.88250574679995
20
-2.5860863959081
30
0
41
1
10
6.90284455085165
20
-2.6092320748574
30
0
41
1
10
6.92240296649908
20
-2.63399982954675
30
0
0
SPLINE
5
DE
100
AcDbEntity
8
1
62
256
6
ByLayer
370
18
48
1
60
0
100
AcDbSpline
70
4
71
3
72
12
73
8
40
0
40
0
40
0
40
0
40
0.5
40
0.5
40
0.75
40
0.75
40
1
40
1
40
1
40
1
41
1
10
108.109139814414
20
-1.53842009441072
30
0
41
1
10
108.384832997705
20
-1.81536611901257
30
0
41
1
10
108.678266178913
20
-2.06109984893129
30
0
41
1
10
109.138030978684
20
-2.39518916394471
30
0
41
1
10
109.293808012518
20
-2.50007373768079
30
0
41
1
10
109.608161146721
20
-2.69722753800119
30
0
41
1
10
109.76701800904
20
-2.78969235162629
30
0
41
1
10
109.927413744982
20
-2.87655950082922
30
0
0
SPLINE
5
DF
100
AcDbEntity
8
1
62
256
6
ByLayer
370
18
48
1
60
0
100
AcDbSpline
70
4
71
3
72
16
73
12
40
0
40
0
40
0
40
0
40
0.276190173771655
40
0.276190173771655
40
0.417393673400304
40
0.417393673400304
40
0.558597173028955
40
0.558597173028955
40
0.841004172286255
40
0.841004172286255
40
1
40
1
40
1
40
1
41
1
10
83.079708828943
20
-3.87760318218997
30
0
41
1
10
82.5526476404996
20
-3.87817213005172
30
0
41
1
10
82.0239781233175
20
-3.85723460723489
30
0
41
1
10
81.2203769865832
20
-3.79246157717861
30
0
41
1
10
80.9480272591688
20
-3.76482932272006
30
0
41
1
10
80.4058233304178
20
-3.69889532712258
30
0
41
1
10
80.1354298644452
20
-3.66052362707336
30
0
41
1
10
79.3256799300187
20
-3.52983744349916
30
0
41
1
10
78.7878690300569
20
-3.42192907933122
30
0
41
1
10
77.9479625680509
20
-3.2237429815365
30
0
41
1
10
77.6455742618484
20
-3.14633798245527
30
0
41
1
10
77.3430656452954
20
-3.06330575624551
30
0
0
SPLINE
5
E0
100
AcDbEntity
8
1
62
256
6
ByLayer
370
13
48
1
60
0
100
AcDbSpline
70
4
71
3
72
22
73
18
40
0
40
0
40
0
40
0
40
0.1899785737369
40
0.1899785737369
40
0.322183789786952
40
0.322183789786952
40
0.454389005837004
40
0.454389005837004
40
0.718799437937111
40
0.718799437937111
40
0.784902045962138
40
0.784902045962138
40
0.851004653987164
40
0.851004653987164
40
0.983209870037218
40
0.983209870037218
40
1
40
1
40
1
40
1
41
1
10
77.3430656446244
20
-3.06330575606134
30
0
41
1
10
76.5709479409665
20
-2.85137575364487
30
0
41
1
10
75.7980464567001
20
-2.60278629941192
30
0
41
1
10
74.4783116780562
20
-2.13003177588089
30
0
41
1
10
73.9323616961032
20
-1.92075606737447
30
0
41
1
10
72.8489472372315
20
-1.48534343258439
30
0
41
1
10
72.3098142268212
20
-1.25879167432487
30
0
41
1
10
70.6957009578743
20
-0.562656310302401
30
0
41
1
10
69.6238079686726
20
-0.0769425548734262
30
0
41
1
10
68.2741711737891
20
0.522866361805029
30
0
41
1
10
68.0037201198995
20
0.642380724996372
30
0
41
1
10
67.4614661748225
20
0.879802821119739
30
0
41
1
10
67.189216572915
20
0.997932336706185
30
0
41
1
10
66.3730517528385
20
1.3469206749271
30
0
41
1
10
65.8321642077858
20
1.57150225872937
30
0
41
1
10
65.2244568744622
20
1.81210404783346
30
0
41
1
10
65.1560017320394
20
1.83903675199136
30
0
41
1
10
65.0875702523401
20
1.86578348382344
30
0
0
SPLINE
5
E1
100
AcDbEntity
8
1
62
256
6
ByLayer
370
18
48
1
60
0
100
AcDbSpline
70
4
71
3
72
14
73
10
40
0
40
0
40
0
40
0
40
0.108670765830927
40
0.108670765830927
40
0.380334318356271
40
0.380334318356271
40
0.923661423406963
40
0.923661423406963
40
1
40
1
40
1
40
1
41
1
10
28.653616347299
20
-3.84380020280091
30
0
41
1
10
28.4362637185958
20
-3.84371825021901
30
0
41
1
10
28.218372960935
20
-3.83999814041587
30
0
41
1
10
27.455531503477
20
-3.81414786977612
30
0
41
1
10
26.9139087717431
20
-3.77301663096088
30
0
41
1
10
25.2941987080485
20
-3.58528901459559
30
0
41
1
10
24.2211978976216
20
-3.37414624453942
30
0
41
1
10
22.9915440098298
20
-3.04956835383439
30
0
41
1
10
22.8399594793964
20
-3.00813839940633
30
0
41
1
10
22.6882395043481
20
-2.96530846155471
30
0
0
SPLINE
5
E2
100
AcDbEntity
8
1
62
256
6
ByLayer
370
13
48
1
60
0
100
AcDbSpline
70
4
71
3
72
22
73
18
40
0
40
0
40
0
40
0
40
0.093546220330644
40
0.093546220330644
40
0.158599597089128
40
0.158599597089128
40
0.223652973847612
40
0.223652973847612
40
0.483866480881549
40
0.483866480881549
40
0.613973234398518
40
0.613973234398518
40
0.679026611157002
40
0.679026611157002
40
0.744079987915486
40
0.744079987915486
40
1
40
1
40
1
40
1
41
1
10
22.6882395062274
20
-2.9653084620852
30
0
41
1
10
22.3000386535922
20
-2.85572092502784
30
0
41
1
10
21.9109510754797
20
-2.73696801087232
30
0
41
1
10
21.2487644121005
20
-2.52134860126785
30
0
41
1
10
20.9758876111249
20
-2.42863557338038
30
0
41
1
10
20.4314730894041
20
-2.23670248835452
30
0
41
1
10
20.1600542967623
20
-2.13755287870711
30
0
41
1
10
18.8058704143782
20
-1.62807908247126
30
0
41
1
10
17.7317370912488
20
-1.17662726388758
30
0
41
1
10
16.1168170705451
20
-0.47278613673592
30
0
41
1
10
15.5777555177676
20
-0.234028173768962
30
0
41
1
10
14.7658488376189
20
0.125383628944746
30
0
41
1
10
14.4946936116853
20
0.245468581754125
30
0
41
1
10
13.9509354042741
20
0.485244994962329
30
0
41
1
10
13.6778404900558
20
0.605112567859265
30
0
41
1
10
12.335709426685
20
1.18881247176918
30
0
41
1
10
11.2768224361972
20
1.6316575326037
30
0
41
1
10
10.2180810204012
20
2.02911556845496
30
0
0
SPLINE
5
E3
100
AcDbEntity
8
1
62
256
6
ByLayer
370
18
48
1
60
0
100
AcDbSpline
70
4
71
3
72
8
73
4
40
0
40
0
40
0
40
0
40
1
40
1
40
1
40
1
41
1
10
110.672208259198
20
3.9899338690376
30
0
41
1
10
111.069259357652
20
2.98783758506443
30
0
41
1
10
111.466635699303
20
1.98403300099815
30
0
41
1
10
111.856521276679
20
0.976900086431527
30
0
0
SPLINE
5
E4
100
AcDbEntity
8
1
62
256
6
ByLayer
370
18
48
1
60
0
100
AcDbSpline
70
4
71
3
72
8
73
4
40
0
40
0
40
0
40
0
40
1
40
1
40
1
40
1
41
1
10
9.55637988687226
20
3.83156727825568
30
0
41
1
10
9.53337188423464
20
3.83193048517063
30
0
41
1
10
9.51043899117477
20
3.83211703715628
30
0
41
1
10
9.48757982846465
20
3.83212451422793
30
0
0
SPLINE
5
E5
100
AcDbEntity
8
SK1
62
256
6
ByLayer
370
18
48
1
60
0
100
AcDbSpline
70
4
71
3
72
14
73
10
40
0
40
0
40
0
40
0
40
0.124999999999999
40
0.124999999999999
40
0.249999999999997
40
0.249999999999997
40
0.499999999999999
40
0.499999999999999
40
1
40
1
40
1
40
1
41
1
10
-38.85
20
3.77534754733625
30
0
41
1
10
-38.85
20
3.78256553124879
30
0
41
1
10
-38.8517453396944
20
3.78735556883461
30
0
41
1
10
-38.8568901241517
20
3.79330732748323
30
0
41
1
10
-38.860211966304
20
3.79456939557303
30
0
41
1
10
-38.8714485682308
20
3.79544908430523
30
0
41
1
10
-38.8802054040538
20
3.79221934576322
30
0
41
1
10
-38.9082792076556
20
3.77688389032806
30
0
41
1
10
-38.9286347141249
20
3.75953521696542
30
0
41
1
10
-38.95
20
3.73711026837464
30
0
0
SPLINE
5
E6
100
AcDbEntity
8
SK1
62
256
6
ByLayer
370
18
48
1
60
0
100
AcDbSpline
70
4
71
3
72
10
73
6
40
0
40
0
40
0
40
0
40
0.5
40
0.5
40
1
40
1
40
1
40
1
41
1
10
-38.95
20
3.73711026837464
30
0
41
1
10
-39.1281008449791
20
3.55017608382994
30
0
41
1
10
-39.3053078622005
20
3.36295967976875
30
0
41
1
10
-39.6562288255455
20
2.98742396023218
30
0
41
1
10
-39.8300491951728
20
2.79913824719247
30
0
41
1
10
-40
20
2.6096307476312
30
0
0
SPLINE
5
E7
100
AcDbEntity
8
SK1
62
256
6
ByLayer
370
18
48
1
60
0
100
AcDbSpline
70
4
71
3
72
10
73
6
40
0
40
0
40
0
40
0
40
0.5
40
0.5
40
1
40
1
40
1
40
1
41
1
10
-40
20
0.582482335126286
30
0
41
1
10
-39.8301222483975
20
0.771908375032496
30
0
41
1
10
-39.6563211405235
20
0.960175937659898
30
0
41
1
10
-39.3053871289517
20
1.3357272598918
30
0
41
1
10
-39.1281413792797
20
1.5229851266283
30
0
41
1
10
-38.95
20
1.70996185586975
30
0
0
SPLINE
5
E8
100
AcDbEntity
8
SK1
62
256
6
ByLayer
370
18
48
1
60
0
100
AcDbSpline
70
4
71
3
72
14
73
10
40
0
40
0
40
0
40
0
40
0.500000000000002
40
0.500000000000002
40
0.750000000000001
40
0.750000000000001
40
0.875
40
0.875
40
1
40
1
40
1
40
1
41
1
10
-38.9500000000001
20
1.70996185586969
30
0
41
1
10
-38.9287234691649
20
1.73229364740092
30
0
41
1
10
-38.9083432483059
20
1.75957757628623
30
0
41
1
10
-38.880223151313
20
1.80951425929189
30
0
41
1
10
-38.8713218079587
20
1.82765495713267
30
0
41
1
10
-38.8602667834558
20
1.85706581925479
30
0
41
1
10
-38.8569157654531
20
1.8673649951121
30
0
41
1
10
-38.851744720606
20
1.88896252661525
30
0
41
1
10
-38.8499999999999
20
1.90015379609281
30
0
41
1
10
-38.8499999999999
20
1.9103710078318
30
0
0
LINE
5
76
100
AcDbEntity
8
81
62
256
6
ByLayer
370
18
48
1
60
0
100
AcDbLine
10
112
20
0
30
0
11
117
21
0
31
0
39
0
210
0
220
0
230
1
0
LINE
5
77
100
AcDbEntity
8
1
62
256
6
ByLayer
370
18
48
1
60
0
100
AcDbLine
10
6.67598
20
4.035003
30
0
11
0.350219
21
4.031049
31
0
39
0
210
0
220
0
230
1
0
LINE
5
79
100
AcDbEntity
8
1
62
256
6
ByLayer
370
18
48
1
60
0
100
AcDbLine
10
28.40639
20
4.048584
30
0
11
27.044164
21
4.047733
31
0
39
0
210
0
220
0
230
1
0
LINE
5
7A
100
AcDbEntity
8
1
62
256
6
ByLayer
370
18
48
1
60
0
100
AcDbLine
10
55.606535
20
4.065584
30
0
11
54.252168
21
4.064738
31
0
39
0
210
0
220
0
230
1
0
LINE
5
7B
100
AcDbEntity
8
1
62
256
6
ByLayer
370
18
48
1
60
0
100
AcDbLine
10
82.806857
20
4.082584
30
0
11
81.453734
21
4.081739
31
0
39
0
210
0
220
0
230
1
0
LINE
5
7C
100
AcDbEntity
8
1
62
256
6
ByLayer
370
18
48
1
60
0
100
AcDbLine
10
110.007544
20
4.099585
30
0
11
108.657119
21
4.098741
31
0
39
0
210
0
220
0
230
1
0
LINE
5
7D
100
AcDbEntity
8
1
62
256
6
ByLayer
370
18
48
1
60
0
100
AcDbLine
10
108.657119
20
-4.098741
30
0
11
110.00758
21
-4.099585
31
0
39
0
210
0
220
0
230
1
0
LINE
5
7E
100
AcDbEntity
8
1
62
256
6
ByLayer
370
18
48
1
60
0
100
AcDbLine
10
81.453734
20
-4.081739
30
0
11
82.806577
21
-4.082584
31
0
39
0
210
0
220
0
230
1
0
LINE
5
7F
100
AcDbEntity
8
1
62
256
6
ByLayer
370
18
48
1
60
0
100
AcDbLine
10
54.252168
20
-4.064738
30
0
11
55.606592
21
-4.065584
31
0
39
0
210
0
220
0
230
1
0
LINE
5
80
100
AcDbEntity
8
1
62
256
6
ByLayer
370
18
48
1
60
0
100
AcDbLine
10
27.044164
20
-4.047733
30
0
11
28.406626
21
-4.048584
31
0
39
0
210
0
220
0
230
1
0
LINE
5
81
100
AcDbEntity
8
1
62
256
6
ByLayer
370
18
48
1
60
0
100
AcDbLine
10
0.350219
20
-4.031049
30
0
11
6.67598
21
-4.035003
31
0
39
0
210
0
220
0
230
1
0
LINE
5
82
100
AcDbEntity
8
SK1
62
256
6
ByLayer
370
18
48
1
60
0
100
AcDbLine
10
-38.845299
20
5
30
0
11
-40
21
3
31
0
39
0
210
0
220
0
230
1
0
LINE
5
84
100
AcDbEntity
8
SK1
62
256
6
ByLayer
370
18
48
1
60
0
100
AcDbLine
10
-40
20
-3
30
0
11
-38.845299
21
-5
31
0
39
0
210
0
220
0
230
1
0
LINE
5
85
100
AcDbEntity
8
SK1
62
256
6
ByLayer
370
18
48
1
60
0
100
AcDbLine
10
0
20
5
30
0
11
-38.845299
21
5
31
0
39
0
210
0
220
0
230
1
0
LINE
5
86
100
AcDbEntity
8
SK1
62
256
6
ByLayer
370
18
48
1
60
0
100
AcDbLine
10
-38.845299
20
-5
30
0
11
0
21
-5
31
0
39
0
210
0
220
0
230
1
0
LINE
5
87
100
AcDbEntity
8
SK4
62
256
6
ByLayer
370
18
48
0.05
60
0
100
AcDbLine
10
117
20
0
30
0
11
-45
21
0
31
0
39
0
210
0
220
0
230
1
0
LINE
5
89
100
AcDbEntity
8
4
62
256
6
ByLayer
370
18
48
0.05
60
0
100
AcDbLine
10
112
20
0
30
0
11
0
21
0
31
0
39
0
210
0
220
0
230
1
0
LINE
5
8B
100
AcDbEntity
8
80
62
256
6
ByLayer
370
18
48
1
60
0
100
AcDbLine
10
0
20
0
30
0
11
-5
21
0
31
0
39
0
210
0
220
0
230
1
0
LINE
5
8C
100
AcDbEntity
8
1
62
256
6
ByLayer
370
18
48
1
60
0
100
AcDbLine
10
109.927414
20
-2.87656
30
0
11
110.560468
21
-2.01732
31
0
39
0
210
0
220
0
230
1
0
LINE
5
8D
100
AcDbEntity
8
1
62
256
6
ByLayer
370
13
48
1
60
0
100
AcDbLine
10
110.48556
20
0.900019
30
0
11
111.9696
21
-0.039414
31
0
39
0
210
0
220
0
230
1
0
LINE
5
8E
100
AcDbEntity
8
1
62
256
6
ByLayer
370
13
48
1
60
0
100
AcDbLine
10
110.597502
20
1.01097
30
0
11
111.977766
21
0.137229
31
0
39
0
210
0
220
0
230
1
0
LINE
5
8F
100
AcDbEntity
8
1
62
256
6
ByLayer
370
13
48
1
60
0
100
AcDbLine
10
0.350219
20
4.031049
30
0
11
0.350219
21
-4.031049
31
0
39
0
210
0
220
0
230
1
0
LINE
5
90
100
AcDbEntity
8
1
62
256
6
ByLayer
370
18
48
1
60
0
100
AcDbLine
10
111.114977
20
-1.26469
30
0
11
111.842594
21
-0.277101
31
0
39
0
210
0
220
0
230
1
0
LINE
5
91
100
AcDbEntity
8
SK1
62
256
6
ByLayer
370
18
48
1
60
0
100
AcDbLine
10
-38.85
20
1.910371
30
0
11
-38.85
21
3.775348
31
0
39
0
210
0
220
0
230
1
0
LINE
5
92
100
AcDbEntity
8
SK1
62
256
6
ByLayer
370
18
48
1
60
0
100
AcDbLine
10
-40
20
2.609631
30
0
11
-40
21
0.582489
31
0
39
0
210
0
220
0
230
1
0
LINE
5
93
100
AcDbEntity
8
SK1
62
256
6
ByLayer
370
18
48
1
60
0
100
AcDbLine
10
-38.845299
20
5
30
0
11
-38.845299
21
-5
31
0
39
0
210
0
220
0
230
1
0
LINE
5
94
100
AcDbEntity
8
SK1
62
256
6
ByLayer
370
18
48
1
60
0
100
AcDbLine
10
-40
20
3
30
0
11
-40
21
2.609631
31
0
39
0
210
0
220
0
230
1
0
LINE
5
95
100
AcDbEntity
8
SK1
62
256
6
ByLayer
370
18
48
1
60
0
100
AcDbLine
10
0
20
5
30
0
11
0
21
-5
31
0
39
0
210
0
220
0
230
1
0
LINE
5
96
100
AcDbEntity
8
SK1
62
256
6
ByLayer
370
18
48
1
60
0
100
AcDbLine
10
-40
20
0.582482
30
0
11
-40
21
-3
31
0
39
0
210
0
220
0
230
1
0
LINE
5
97
100
AcDbEntity
8
SK1
62
256
6
ByLayer
370
13
48
1
60
0
100
AcDbLine
10
-38.95
20
3.73711
30
0
11
-38.95
21
1.709948
31
0
39
0
210
0
220
0
230
1
0
MTEXT
5
E9
100
AcDbEntity
8
SK6
62
256
6
ByLayer
370
13
48
1
60
0
100
AcDbMText
10
38.129169
20
36.482694
30
0
210
0
220
0
230
1
1
\W0.7538;460.1-0820-062A1-XM GC34
40
3.5
41
0
44
1.084337
50
0
71
8
72
5
7
iso_b_vert
0
DIMENSION
5
F6
100
AcDbEntity
8
SK2
62
256
6
ByLayer
370
13
48
1
60
0
100
AcDbDimension
2
DimnDraft3D1
10
110.7873
20
-14.313398
30
0
11
54.037359
21
-14.313398
31
0
70
32
71
5
72
1
41
1
210
0
220
0
230
1
3
Standard
100
AcDbAlignedDimension
13
0
23
-1.5875
33
0
14
110.7873
24
-5.6875
34
0
50
0
100
AcDbRotatedDimension
1001
ACAD
1000
DSTYLE
1002
{
1070
   279
1070
     0
1070
   172
1070
     1
1070
   173
1070
     1
1070
   340
1005
EA
1070
   271
1070
     2
1070
   272
1070
     2
1070
    77
1070
     1
1070
    73
1070
     0
1070
   171
1070
     3
1070
   274
1070
     4
1070
   177
1070
    35
1070
   176
1070
    35
1070
   178
1070
    35
1070
    48
1040
-0.005
1070
    41
1041
3.5
1070
   147
1041
1.75
1070
    42
1041
1.5875
1070
    44
1041
2.0
1070
   140
1041
3.5
1070
   343
1005
0
1070
   344
1005
0
1002
}
0
DIMENSION
5
100
100
AcDbEntity
8
SK2
62
256
6
ByLayer
370
13
48
1
60
0
100
AcDbDimension
2
DimnDraft3D2
10
112
20
-33.692985
30
0
11
36.1286
21
-33.692985
31
0
70
32
71
5
72
1
41
1
210
0
220
0
230
1
3
Standard
100
AcDbAlignedDimension
13
-40
23
-6.5875
33
0
14
112
24
-1.5875
34
0
50
0
100
AcDbRotatedDimension
1001
ACAD
1000
DSTYLE
1002
{
1070
   279
1070
     0
1070
   172
1070
     1
1070
   173
1070
     1
1070
   340
1005
EA
1070
   271
1070
     2
1070
   272
1070
     2
1070
    77
1070
     1
1070
    73
1070
     0
1070
   171
1070
     3
1070
   274
1070
     4
1070
   177
1070
    35
1070
   176
1070
    35
1070
   178
1070
    35
1070
    48
1040
-0.005
1070
    41
1041
3.5
1070
   147
1041
1.75
1070
    42
1041
1.5875
1070
    44
1041
2.0
1070
   140
1041
3.5
1070
   343
1005
0
1070
   344
1005
0
1002
}
0
DIMENSION
5
10A
100
AcDbEntity
8
SK2
62
256
6
ByLayer
370
13
48
1
60
0
100
AcDbDimension
2
DimnDraft3D3
10
112
20
15.709119
30
0
11
78.595
21
15.709119
31
0
70
32
71
5
72
1
41
1
210
0
220
0
230
1
3
Standard
100
AcDbAlignedDimension
13
45.19
23
5.6875
33
0
14
112
24
1.5875
34
0
50
0
100
AcDbRotatedDimension
1001
ACAD
1000
DSTYLE
1002
{
1070
   279
1070
     0
1070
   172
1070
     1
1070
   173
1070
     1
1070
   340
1005
EA
1070
   271
1070
     2
1070
   272
1070
     2
1070
    77
1070
     1
1070
    73
1070
     0
1070
   171
1070
     3
1070
   274
1070
     4
1070
   177
1070
    35
1070
   176
1070
    35
1070
   178
1070
    35
1070
    48
1040
-0.005
1070
    41
1041
3.5
1070
   147
1041
1.75
1070
    42
1041
1.5875
1070
    44
1041
2.0
1070
   140
1041
3.5
1070
   343
1005
0
1070
   344
1005
0
1002
}
0
DIMENSION
5
114
100
AcDbEntity
8
SK2
62
256
6
ByLayer
370
13
48
1
60
0
100
AcDbDimension
2
DimnDraft3D4
10
110.7873
20
-16.902503
30
0
11
121.981425
21
-16.902503
31
0
70
32
71
5
72
1
41
1
210
0
220
0
230
1
3
Standard
100
AcDbAlignedDimension
13
112
23
-1.5875
33
0
14
110.7873
24
-5.6875
34
0
50
0
100
AcDbRotatedDimension
1001
ACAD
1000
DSTYLE
1002
{
1070
   279
1070
     0
1070
   172
1070
     1
1070
   173
1070
     1
1070
   340
1005
EA
1070
   271
1070
     2
1070
   272
1070
     2
1070
    77
1070
     1
1070
    73
1070
     0
1070
   171
1070
     3
1070
   274
1070
     4
1070
   177
1070
    35
1070
   176
1070
    35
1070
   178
1070
    35
1070
    48
1040
-0.005
1070
    41
1041
3.5
1070
   147
1041
1.75
1070
    42
1041
1.5875
1070
    44
1041
2.0
1070
   140
1041
3.5
1070
   343
1005
0
1070
   344
1005
0
1002
}
0
DIMENSION
5
11E
100
AcDbEntity
8
SK2
62
256
6
ByLayer
370
13
48
1
60
0
100
AcDbDimension
2
DimnDraft3D5
10
110.7873
20
-23.343428
30
0
11
33.047976
21
-23.343428
31
0
70
32
71
5
72
1
41
1
210
0
220
0
230
1
3
Standard
100
AcDbAlignedDimension
13
-40
23
-6.5875
33
0
14
110.7873
24
-5.6875
34
0
50
0
100
AcDbRotatedDimension
1001
ACAD
1000
DSTYLE
1002
{
1070
   279
1070
     0
1070
   172
1070
     1
1070
   173
1070
     1
1070
   340
1005
EA
1070
   271
1070
     2
1070
   272
1070
     2
1070
    77
1070
     1
1070
    73
1070
     0
1070
   171
1070
     3
1070
   274
1070
     4
1070
   177
1070
    35
1070
   176
1070
    35
1070
   178
1070
    35
1070
    48
1040
-0.005
1070
    41
1041
3.5
1070
   147
1041
1.75
1070
    42
1041
1.5875
1070
    44
1041
2.0
1070
   140
1041
3.5
1070
   343
1005
0
1070
   344
1005
0
1002
}
0
DIMENSION
5
129
100
AcDbEntity
8
SK2
62
256
6
ByLayer
370
13
48
1
60
0
100
AcDbDimension
2
DimnDraft3D6
10
-50.625163
20
5
30
0
11
-51.250163
21
23.47418
31
0
70
33
71
5
72
1
41
1
210
0
220
0
230
1
3
Standard
100
AcDbAlignedDimension
13
-41.5875
23
-5
33
0
14
-41.5875
24
5
34
0
1001
ACAD
1000
DSTYLE
1002
{
1070
   279
1070
     0
1070
    74
1070
     0
1070
   173
1070
     1
1070
   340
1005
EA
1070
   271
1070
     3
1070
   272
1070
     2
1070
    77
1070
     1
1070
    73
1070
     0
1070
   171
1070
     3
1070
   274
1070
     4
1070
   177
1070
    35
1070
   176
1070
    35
1070
   178
1070
    35
1070
    48
1040
-0.005
1070
    41
1041
3.5
1070
   147
1041
1.75
1070
    42
1041
1.5875
1070
    44
1041
2.0
1070
   140
1041
3.5
1070
   343
1005
0
1070
   344
1005
0
1002
}
0
DIMENSION
5
134
100
AcDbEntity
8
2
62
256
6
ByLayer
370
13
48
1
60
0
100
AcDbDimension
2
DimnDraft3D7
10
126.083343
20
4.1
30
0
11
121.458343
21
21.167266
31
0
70
33
71
5
72
1
41
1
210
0
220
0
230
1
3
Standard
100
AcDbAlignedDimension
13
112.3748
23
-4.1
33
0
14
112.3748
24
4.1
34
0
1001
ACAD
1000
DSTYLE
1002
{
1070
   279
1070
     0
1070
    74
1070
     0
1070
   173
1070
     1
1070
   340
1005
EA
1070
   271
1070
     3
1070
   272
1070
     2
1070
    77
1070
     1
1070
    73
1070
     0
1070
   171
1070
     3
1070
   274
1070
     4
1070
   177
1070
    35
1070
   176
1070
    35
1070
   178
1070
    35
1070
    48
1040
-0.005
1070
    41
1041
3.5
1070
   147
1041
1.75
1070
    42
1041
1.5875
1070
    44
1041
2.0
1070
   140
1041
3.5
1070
   343
1005
0
1070
   344
1005
0
1002
}
0
ENDSEC
0
SECTION
2
OBJECTS
0
DICTIONARY
5
19f
330
0
100
AcDbDictionary
280
0
281
1
3
ACAD_GROUP
350
1a0
3
ACAD_MLINESTYLE
350
1a1
0
DICTIONARY
5
1a0
330
0
100
AcDbDictionary
280
0
281
1
0
DICTIONARY
5
1a1
330
0
100
AcDbDictionary
280
0
281
1
3
Standard
350
18
0
MLINESTYLE
5
18
330
1a1
100
AcDbMlineStyle
2
Standard
70
0
3

62
256
51
90
52
90
71
2
49
-0.5
62
256
6
ByLayer
49
0.5
62
256
6
ByLayer
0
RASTERVARIABLES
5
18d
330

100
AcDbRasterVariables
90
0
70
1
71
1
72
1
0
ENDSEC
0
EOF
