0
SECTION
2
HEADER
9
$ACADVER
1
AC1015
9
$DWGCODEPAGE
3
ANSI_1252
9
$HANDSEED
5
1ad
9
$ANGBASE
50
0
9
$ANGDIR
70
0
9
$ATTMODE
70
1
9
$AUNITS
70
0
9
$AUPREC
70
0
9
$CECOLOR
62
256
9
$CELTSCALE
40
1
9
$CELTYPE
6
ByLayer
9
$CELWEIGHT
370
18
9
$CLAYER
8
0
9
$CMLJUST
70
0
9
$CMLSCALE
40
1
9
$CMLSTYLE
2
Standard
9
$DIMSTYLE
2
Standard
9
$TEXTSIZE
40
0.2
9
$TEXTSTYLE
7
Standard
9
$LUNITS
70
2
9
$LUPREC
70
4
9
$EXTNAMES
290
1
9
$INSUNITS
70
4
9
$LTSCALE
40
1
9
$LWDISPLAY
290
1
9
$PDMODE
70
0
9
$PDSIZE
40
0
9
$PLINEGEN
70
0
0
ENDSEC
0
SECTION
2
CLASSES
0
CLASS
1
RASTERVARIABLES
2
AcDbRasterVariables
3
ISM
90
0
280
0
281
0
0
ENDSEC
0
SECTION
2
TABLES
0
TABLE
2
VPORT
5
1a3
100
AcDbSymbolTable
0
VPORT
5
1
100
AcDbSymbolTableRecord
100
AcDbViewportTableRecord
2
*Active
70
0
10
0
20
0
11
1
21
1
12
-1
22
1
13
0
23
0
14
0.5
24
0.5
15
10
25
10
16
0
26
0
36
1
17
0
27
0
37
0
0
ENDTAB
0
TABLE
2
LTYPE
5
1a4
100
AcDbSymbolTable
0
LTYPE
5
14
100
AcDbSymbolTableRecord
100
AcDbLinetypeTableRecord
70
0
2
ByBlock
3

72
65
73
0
40
0
0
LTYPE
5
15
100
AcDbSymbolTableRecord
100
AcDbLinetypeTableRecord
70
0
2
ByLayer
3

72
65
73
0
40
0
0
LTYPE
5
16
100
AcDbSymbolTableRecord
100
AcDbLinetypeTableRecord
70
0
2
CONTINUOUS
3
Solid line
72
65
73
0
40
0
0
LTYPE
5
6A
100
AcDbSymbolTableRecord
100
AcDbLinetypeTableRecord
70
0
2
CENTER
3
____ _ ____ _ ____ _ ____
72
65
73
4
40
47.5
49
22
74
0
49
-8.5
74
0
49
8.5
74
0
49
-8.5
74
0
0
LTYPE
5
6B
100
AcDbSymbolTableRecord
100
AcDbLinetypeTableRecord
70
0
2
DASHED
3
__ __ __ __ __ __ __ __ __
72
65
73
2
40
25.72
49
12.86
74
0
49
-12.86
74
0
0
ENDTAB
0
TABLE
2
LAYER
5
1a5
100
AcDbSymbolTable
0
LAYER
5
10
100
AcDbSymbolTableRecord
100
AcDbLayerTableRecord
2
0
70
0
62
7
6
CONTINUOUS
290
1
370
-3
390
0
0
LAYER
5
6D
100
AcDbSymbolTableRecord
100
AcDbLayerTableRecord
2
81
70
0
62
-3
6
CONTINUOUS
290
1
370
-3
390
0
0
LAYER
5
6F
100
AcDbSymbolTableRecord
100
AcDbLayerTableRecord
2
80
70
0
62
-6
6
CONTINUOUS
290
1
370
-3
390
0
0
LAYER
5
74
100
AcDbSymbolTableRecord
100
AcDbLayerTableRecord
2
2
70
0
62
7
6
CONTINUOUS
290
1
370
-3
390
0
0
LAYER
5
78
100
AcDbSymbolTableRecord
100
AcDbLayerTableRecord
2
1
70
0
62
4
6
CONTINUOUS
290
1
370
-3
390
0
0
LAYER
5
8C
100
AcDbSymbolTableRecord
100
AcDbLayerTableRecord
2
4
70
0
62
-2
6
CENTER
290
1
370
-3
390
0
0
LAYER
5
18f
100
AcDbSymbolTableRecord
100
AcDbLayerTableRecord
2
SK2
70
0
62
7
6
CONTINUOUS
290
1
370
-3
390
0
0
LAYER
5
190
100
AcDbSymbolTableRecord
100
AcDbLayerTableRecord
2
SK1
70
0
62
4
6
CONTINUOUS
290
1
370
-3
390
0
0
LAYER
5
191
100
AcDbSymbolTableRecord
100
AcDbLayerTableRecord
2
SK4
70
0
62
2
6
CENTER
290
1
370
-3
390
0
0
LAYER
5
192
100
AcDbSymbolTableRecord
100
AcDbLayerTableRecord
2
SK6
70
0
62
5
6
CONTINUOUS
290
1
370
-3
390
0
0
ENDTAB
0
TABLE
2
STYLE
5
1a6
100
AcDbSymbolTable
0
STYLE
5
11
100
AcDbSymbolTableRecord
100
AcDbTextStyleTableRecord
2
Standard
3
txt
70
0
71
0
40
0
41
1
42
0
50
0
0
STYLE
5
EB
100
AcDbSymbolTableRecord
100
AcDbTextStyleTableRecord
2
iso_b_vert
3
simplex.shx
70
0
71
0
40
0
41
1
42
0
50
0
0
STYLE
5
EC
100
AcDbSymbolTableRecord
100
AcDbTextStyleTableRecord
2
DWGDirectTextStyle
3
simplex
70
0
71
0
40
0
41
1
42
0
50
0
0
ENDTAB
0
TABLE
2
DIMSTYLE
5
1a7
100
AcDbSymbolTable
100
AcDbDimStyleTable
0
DIMSTYLE
105
27
100
AcDbSymbolTableRecord
100
AcDbDimStyleTableRecord
2
Standard
70
0
3
<>
41
0.18
42
0.0625
44
0.18
140
0.18
147
0.09
73
0
74
0
77
1
271
2
275
0
278
52
280
0
340
11
0
ENDTAB
0
TABLE
2
VIEW
5
1a8
100
AcDbSymbolTable
0
ENDTAB
0
TABLE
2
UCS
5
1a9
100
AcDbSymbolTable
0
ENDTAB
0
TABLE
2
APPID
5
1aa
100
AcDbSymbolTable
0
APPID
5
12
100
AcDbSymbolTableRecord
100
AcDbRegAppTableRecord
2
ACAD
70
0
0
ENDTAB
0
TABLE
2
BLOCK_RECORD
5
1ab
100
AcDbSymbolTable
0
BLOCK_RECORD
5
1F
100
AcDbSymbolTableRecord
100
AcDbBlockTableRecord
2
*Model_Space
340
0
70
0
0
BLOCK_RECORD
5
1B
100
AcDbSymbolTableRecord
100
AcDbBlockTableRecord
2
*Paper_Space
340
0
70
0
0
BLOCK_RECORD
5
23
100
AcDbSymbolTableRecord
100
AcDbBlockTableRecord
2
*Paper_Space0
340
0
70
0
0
BLOCK_RECORD
5
EE
100
AcDbSymbolTableRecord
100
AcDbBlockTableRecord
2
DimnDraft3D1
340
0
70
0
0
BLOCK_RECORD
5
F8
100
AcDbSymbolTableRecord
100
AcDbBlockTableRecord
2
DimnDraft3D2
340
0
70
0
0
BLOCK_RECORD
5
102
100
AcDbSymbolTableRecord
100
AcDbBlockTableRecord
2
DimnDraft3D3
340
0
70
0
0
BLOCK_RECORD
5
10C
100
AcDbSymbolTableRecord
100
AcDbBlockTableRecord
2
DimnDraft3D4
340
0
70
0
0
BLOCK_RECORD
5
116
100
AcDbSymbolTableRecord
100
AcDbBlockTableRecord
2
DimnDraft3D5
340
0
70
0
0
BLOCK_RECORD
5
120
100
AcDbSymbolTableRecord
100
AcDbBlockTableRecord
2
DimnDraft3D6
340
0
70
0
0
BLOCK_RECORD
5
12B
100
AcDbSymbolTableRecord
100
AcDbBlockTableRecord
2
DimnDraft3D7
340
0
70
0
0
ENDTAB
0
ENDSEC
0
SECTION
2
BLOCKS
0
BLOCK
5
20
100
AcDbEntity
8
0
100
AcDbBlockBegin
2
*Model_Space
70
0
10
0
20
0
30
0
3
*Model_Space
0
ENDBLK
5
21
100
AcDbEntity
8
0
100
AcDbBlockEnd
0
BLOCK
5
1C
100
AcDbEntity
8
0
100
AcDbBlockBegin
2
*Paper_Space
70
0
10
0
20
0
30
0
3
*Paper_Space
0
ENDBLK
5
1D
100
AcDbEntity
8
0
100
AcDbBlockEnd
0
BLOCK
5
24
100
AcDbEntity
8
0
100
AcDbBlockBegin
2
*Paper_Space0
70
0
10
0
20
0
30
0
3
*Paper_Space0
0
ENDBLK
5
25
100
AcDbEntity
8
0
100
AcDbBlockEnd
0
BLOCK
5
F5
100
AcDbEntity
8
0
100
AcDbBlockBegin
2
DimnDraft3D1
70
0
10
0
20
0
30
0
3
DimnDraft3D1
0
MTEXT
5
EF
100
AcDbEntity
8
SK2
62
256
6
ByLayer
370
13
48
1
60
0
100
AcDbMText
10
38.618775
20
-13.338398
30
0
210
0
220
0
230
1
1
\W0.7317;88,82
40
3.5
41
0
44
1.084337
50
0
71
7
72
5
7
iso_b_vert
0
LINE
5
F0
100
AcDbEntity
8
SK2
62
256
6
ByLayer
370
13
48
1
60
0
100
AcDbLine
10
0
20
-1.5875
30
0
11
0
21
-16.213398
31
0
39
0
210
0
220
0
230
1
0
LINE
5
F1
100
AcDbEntity
8
SK2
62
256
6
ByLayer
370
13
48
1
60
0
100
AcDbLine
10
88.8174
20
-5.5875
30
0
11
88.8174
21
-16.213398
31
0
39
0
210
0
220
0
230
1
0
LINE
5
F2
100
AcDbEntity
8
SK2
62
256
6
ByLayer
370
13
48
1
60
0
100
AcDbLine
10
0
20
-14.213398
30
0
11
88.8174
21
-14.213398
31
0
39
0
210
0
220
0
230
1
0
SOLID
5
F3
100
AcDbEntity
8
SK2
62
256
6
ByLayer
370
13
48
1
60
0
100
AcDbTrace
10
0
20
-14.213398
30
0
11
3.499998
21
-13.752615
31
0
12
3.500002
22
-14.674182
32
0
13
0
23
-14.213398
33
0
39
0
210
0
220
0
230
1
0
SOLID
5
F4
100
AcDbEntity
8
SK2
62
256
6
ByLayer
370
13
48
1
60
0
100
AcDbTrace
10
88.8174
20
-14.213398
30
0
11
85.317402
21
-14.674182
31
0
12
85.317398
22
-13.752615
32
0
13
88.8174
23
-14.213398
33
0
39
0
210
0
220
0
230
1
0
ENDBLK
5
F6
100
AcDbEntity
8
0
100
AcDbBlockEnd
0
BLOCK
5
FF
100
AcDbEntity
8
0
100
AcDbBlockBegin
2
DimnDraft3D2
70
0
10
0
20
0
30
0
3
DimnDraft3D2
0
MTEXT
5
F9
100
AcDbEntity
8
SK2
62
256
6
ByLayer
370
13
48
1
60
0
100
AcDbMText
10
21.839621
20
-31.817985
30
0
210
0
220
0
230
1
1
\W0.6930;126,00
40
3.5
41
0
44
1.084337
50
0
71
7
72
5
7
iso_b_vert
0
LINE
5
FA
100
AcDbEntity
8
SK2
62
256
6
ByLayer
370
13
48
1
60
0
100
AcDbLine
10
-36
20
-5.5875
30
0
11
-36
21
-34.692985
31
0
39
0
210
0
220
0
230
1
0
LINE
5
FB
100
AcDbEntity
8
SK2
62
256
6
ByLayer
370
13
48
1
60
0
100
AcDbLine
10
90
20
-1.5875
30
0
11
90
21
-34.692985
31
0
39
0
210
0
220
0
230
1
0
LINE
5
FC
100
AcDbEntity
8
SK2
62
256
6
ByLayer
370
13
48
1
60
0
100
AcDbLine
10
-36
20
-32.692985
30
0
11
90
21
-32.692985
31
0
39
0
210
0
220
0
230
1
0
SOLID
5
FD
100
AcDbEntity
8
SK2
62
256
6
ByLayer
370
13
48
1
60
0
100
AcDbTrace
10
-36
20
-32.692985
30
0
11
-32.500002
21
-32.232202
31
0
12
-32.499998
22
-33.153769
32
0
13
-36
23
-32.692985
33
0
39
0
210
0
220
0
230
1
0
SOLID
5
FE
100
AcDbEntity
8
SK2
62
256
6
ByLayer
370
13
48
1
60
0
100
AcDbTrace
10
90
20
-32.692985
30
0
11
86.500002
21
-33.153769
31
0
12
86.499998
22
-32.232202
32
0
13
90
23
-32.692985
33
0
39
0
210
0
220
0
230
1
0
ENDBLK
5
100
100
AcDbEntity
8
0
100
AcDbBlockEnd
0
BLOCK
5
109
100
AcDbEntity
8
0
100
AcDbBlockBegin
2
DimnDraft3D3
70
0
10
0
20
0
30
0
3
DimnDraft3D3
0
MTEXT
5
103
100
AcDbEntity
8
SK2
62
256
6
ByLayer
370
13
48
1
60
0
100
AcDbMText
10
53.398816
20
16.484119
30
0
210
0
220
0
230
1
1
\W0.6713;65,18
40
3.5
41
0
44
1.084337
50
0
71
7
72
5
7
iso_b_vert
0
LINE
5
104
100
AcDbEntity
8
SK2
62
256
6
ByLayer
370
13
48
1
60
0
100
AcDbLine
10
24.82
20
5.5875
30
0
11
24.82
21
17.609119
31
0
39
0
210
0
220
0
230
1
0
LINE
5
105
100
AcDbEntity
8
SK2
62
256
6
ByLayer
370
13
48
1
60
0
100
AcDbLine
10
90
20
1.5875
30
0
11
90
21
17.609119
31
0
39
0
210
0
220
0
230
1
0
LINE
5
106
100
AcDbEntity
8
SK2
62
256
6
ByLayer
370
13
48
1
60
0
100
AcDbLine
10
24.82
20
15.609119
30
0
11
90
21
15.609119
31
0
39
0
210
0
220
0
230
1
0
SOLID
5
107
100
AcDbEntity
8
SK2
62
256
6
ByLayer
370
13
48
1
60
0
100
AcDbTrace
10
24.82
20
15.609119
30
0
11
28.319998
21
16.069903
31
0
12
28.320002
22
15.148335
32
0
13
24.82
23
15.609119
33
0
39
0
210
0
220
0
230
1
0
SOLID
5
108
100
AcDbEntity
8
SK2
62
256
6
ByLayer
370
13
48
1
60
0
100
AcDbTrace
10
90
20
15.609119
30
0
11
86.500002
21
15.148335
31
0
12
86.499998
22
16.069903
32
0
13
90
23
15.609119
33
0
39
0
210
0
220
0
230
1
0
ENDBLK
5
10A
100
AcDbEntity
8
0
100
AcDbBlockEnd
0
BLOCK
5
113
100
AcDbEntity
8
0
100
AcDbBlockBegin
2
DimnDraft3D4
70
0
10
0
20
0
30
0
3
DimnDraft3D4
0
MTEXT
5
10D
100
AcDbEntity
8
SK2
62
256
6
ByLayer
370
13
48
1
60
0
100
AcDbMText
10
97.715636
20
-15.927503
30
0
210
0
220
0
230
1
1
\W0.5583;1,18
40
3.5
41
0
44
1.084337
50
0
71
7
72
5
7
iso_b_vert
0
LINE
5
10E
100
AcDbEntity
8
SK2
62
256
6
ByLayer
370
13
48
1
60
0
100
AcDbLine
10
90
20
-1.5875
30
0
11
90
21
-18.802503
31
0
39
0
210
0
220
0
230
1
0
LINE
5
10F
100
AcDbEntity
8
SK2
62
256
6
ByLayer
370
13
48
1
60
0
100
AcDbLine
10
88.8174
20
-5.5875
30
0
11
88.8174
21
-18.802503
31
0
39
0
210
0
220
0
230
1
0
LINE
5
110
100
AcDbEntity
8
SK2
62
256
6
ByLayer
370
13
48
1
60
0
100
AcDbLine
10
80.0674
20
-16.802503
30
0
11
103.122215
21
-16.802503
31
0
39
0
210
0
220
0
230
1
0
SOLID
5
111
100
AcDbEntity
8
SK2
62
256
6
ByLayer
370
13
48
1
60
0
100
AcDbTrace
10
90
20
-16.802503
30
0
11
93.499998
21
-16.341719
31
0
12
93.500002
22
-17.263287
32
0
13
90
23
-16.802503
33
0
39
0
210
0
220
0
230
1
0
SOLID
5
112
100
AcDbEntity
8
SK2
62
256
6
ByLayer
370
13
48
1
60
0
100
AcDbTrace
10
88.8174
20
-16.802503
30
0
11
85.317402
21
-17.263287
31
0
12
85.317398
22
-16.341719
32
0
13
88.8174
23
-16.802503
33
0
39
0
210
0
220
0
230
1
0
ENDBLK
5
114
100
AcDbEntity
8
0
100
AcDbBlockEnd
0
BLOCK
5
11D
100
AcDbEntity
8
0
100
AcDbBlockBegin
2
DimnDraft3D5
70
0
10
0
20
0
30
0
3
DimnDraft3D5
0
MTEXT
5
117
100
AcDbEntity
8
SK2
62
256
6
ByLayer
370
13
48
1
60
0
100
AcDbMText
10
18.574787
20
-21.468428
30
0
210
0
220
0
230
1
1
\W0.7145;124,82
40
3.5
41
0
44
1.084337
50
0
71
7
72
5
7
iso_b_vert
0
LINE
5
118
100
AcDbEntity
8
SK2
62
256
6
ByLayer
370
13
48
1
60
0
100
AcDbLine
10
-36
20
-5.5875
30
0
11
-36
21
-24.343428
31
0
39
0
210
0
220
0
230
1
0
LINE
5
119
100
AcDbEntity
8
SK2
62
256
6
ByLayer
370
13
48
1
60
0
100
AcDbLine
10
88.8174
20
-5.5875
30
0
11
88.8174
21
-24.343428
31
0
39
0
210
0
220
0
230
1
0
LINE
5
11A
100
AcDbEntity
8
SK2
62
256
6
ByLayer
370
13
48
1
60
0
100
AcDbLine
10
-36
20
-22.343428
30
0
11
88.8174
21
-22.343428
31
0
39
0
210
0
220
0
230
1
0
SOLID
5
11B
100
AcDbEntity
8
SK2
62
256
6
ByLayer
370
13
48
1
60
0
100
AcDbTrace
10
-36
20
-22.343428
30
0
11
-32.500002
21
-21.882645
31
0
12
-32.499998
22
-22.804212
32
0
13
-36
23
-22.343428
33
0
39
0
210
0
220
0
230
1
0
SOLID
5
11C
100
AcDbEntity
8
SK2
62
256
6
ByLayer
370
13
48
1
60
0
100
AcDbTrace
10
88.8174
20
-22.343428
30
0
11
85.317402
21
-22.804212
31
0
12
85.317398
22
-21.882645
32
0
13
88.8174
23
-22.343428
33
0
39
0
210
0
220
0
230
1
0
ENDBLK
5
11E
100
AcDbEntity
8
0
100
AcDbBlockEnd
0
BLOCK
5
128
100
AcDbEntity
8
0
100
AcDbBlockBegin
2
DimnDraft3D6
70
0
10
0
20
0
30
0
3
DimnDraft3D6
0
MTEXT
5
121
100
AcDbEntity
8
SK2
62
256
6
ByLayer
370
13
48
1
60
0
100
AcDbMText
10
-46.375163
20
23.34918
30
0
210
0
220
0
230
1
1
\W0.7317;8,000
40
3.5
41
0
44
1.084337
50
90
71
7
72
5
7
iso_b_vert
0
MTEXT
5
122
100
AcDbEntity
8
SK2
62
256
6
ByLayer
370
13
48
1
60
0
100
AcDbMText
10
-46.375163
20
18.126524
30
0
210
0
220
0
230
1
1
%%c
40
3.5
41
0
44
1.084337
50
90
71
7
72
5
7
iso_b_vert
0
LINE
5
123
100
AcDbEntity
8
SK2
62
256
6
ByLayer
370
13
48
1
60
0
100
AcDbLine
10
-37.5875
20
-4
30
0
11
-46.625163
21
-4
31
0
39
0
210
0
220
0
230
1
0
LINE
5
124
100
AcDbEntity
8
SK2
62
256
6
ByLayer
370
13
48
1
60
0
100
AcDbLine
10
-37.5875
20
4
30
0
11
-46.625163
21
4
31
0
39
0
210
0
220
0
230
1
0
LINE
5
125
100
AcDbEntity
8
SK2
62
256
6
ByLayer
370
13
48
1
60
0
100
AcDbLine
10
-44.625163
20
-4
30
0
11
-44.625163
21
33.121549
31
0
39
0
210
0
220
0
230
1
0
SOLID
5
126
100
AcDbEntity
8
SK2
62
256
6
ByLayer
370
13
48
1
60
0
100
AcDbTrace
10
-44.625163
20
-4
30
0
11
-45.085946
21
-0.500002
31
0
12
-44.164379
22
-0.499998
32
0
13
-44.625163
23
-4
33
0
39
0
210
0
220
0
230
1
0
SOLID
5
127
100
AcDbEntity
8
SK2
62
256
6
ByLayer
370
13
48
1
60
0
100
AcDbTrace
10
-44.625163
20
4
30
0
11
-44.164379
21
0.500002
31
0
12
-45.085946
22
0.499998
32
0
13
-44.625163
23
4
33
0
39
0
210
0
220
0
230
1
0
ENDBLK
5
129
100
AcDbEntity
8
0
100
AcDbBlockEnd
0
BLOCK
5
133
100
AcDbEntity
8
0
100
AcDbBlockBegin
2
DimnDraft3D7
70
0
10
0
20
0
30
0
3
DimnDraft3D7
0
MTEXT
5
12C
100
AcDbEntity
8
2
62
256
6
ByLayer
370
13
48
1
60
0
100
AcDbMText
10
100.333343
20
21.942266
30
0
210
0
220
0
230
1
1
\W0.7317;8,000
40
3.5
41
0
44
1.084337
50
90
71
7
72
5
7
iso_b_vert
0
MTEXT
5
12D
100
AcDbEntity
8
2
62
256
6
ByLayer
370
13
48
1
60
0
100
AcDbMText
10
100.333343
20
16.71961
30
0
210
0
220
0
230
1
1
%%c
40
3.5
41
0
44
1.084337
50
90
71
7
72
5
7
iso_b_vert
0
LINE
5
12E
100
AcDbEntity
8
2
62
256
6
ByLayer
370
13
48
1
60
0
100
AcDbLine
10
90.4049
20
-4
30
0
11
104.083343
21
-4
31
0
39
0
210
0
220
0
230
1
0
LINE
5
12F
100
AcDbEntity
8
2
62
256
6
ByLayer
370
13
48
1
60
0
100
AcDbLine
10
90.4049
20
4
30
0
11
104.083343
21
4
31
0
39
0
210
0
220
0
230
1
0
LINE
5
130
100
AcDbEntity
8
2
62
256
6
ByLayer
370
13
48
1
60
0
100
AcDbLine
10
102.083343
20
-4
30
0
11
102.083343
21
31.714635
31
0
39
0
210
0
220
0
230
1
0
SOLID
5
131
100
AcDbEntity
8
2
62
256
6
ByLayer
370
13
48
1
60
0
100
AcDbTrace
10
102.083343
20
-4
30
0
11
101.622559
21
-0.500002
31
0
12
102.544126
22
-0.499998
32
0
13
102.083343
23
-4
33
0
39
0
210
0
220
0
230
1
0
SOLID
5
132
100
AcDbEntity
8
2
62
256
6
ByLayer
370
13
48
1
60
0
100
AcDbTrace
10
102.083343
20
4
30
0
11
102.544126
21
0.500002
31
0
12
101.622559
22
0.499998
32
0
13
102.083343
23
4
33
0
39
0
210
0
220
0
230
1
0
ENDBLK
5
134
100
AcDbEntity
8
0
100
AcDbBlockEnd
0
ENDSEC
0
SECTION
2
ENTITIES
0
ELLIPSE
5
99
100
AcDbEntity
8
1
62
256
6
ByLayer
370
18
48
1
60
0
100
AcDbEllipse
10
6.956067
20
3.998373
30
0
11
0.25
21
0
31
0
210
0
220
0
230
1
40
0.999974
41
-2.94083540413499
42
-1.56339631917813
0
ELLIPSE
5
9A
100
AcDbEntity
8
1
62
256
6
ByLayer
370
18
48
1
60
0
100
AcDbEllipse
10
6.956067
20
-3.998373
30
0
11
0.25
21
0
31
0
210
0
220
0
230
1
40
0.999974
41
1.57974647460965
42
2.9405661992935
0
POINT
5
6C
100
AcDbEntity
8
81
62
256
6
ByLayer
370
18
48
1
60
0
100
AcDbPoint
10
90
20
0
30
0
39
0
210
0
220
0
230
1
50
360
0
POINT
5
6E
100
AcDbEntity
8
80
62
256
6
ByLayer
370
18
48
1
60
0
100
AcDbPoint
10
0
20
0
30
0
39
0
210
0
220
0
230
1
50
360
0
POINT
5
70
100
AcDbEntity
8
SK2
62
256
6
ByLayer
370
18
48
1
60
1
100
AcDbPoint
10
-36
20
-4
30
0
39
0
210
0
220
0
230
1
50
360
0
POINT
5
72
100
AcDbEntity
8
SK2
62
256
6
ByLayer
370
18
48
1
60
1
100
AcDbPoint
10
-36
20
4
30
0
39
0
210
0
220
0
230
1
50
360
0
POINT
5
73
100
AcDbEntity
8
2
62
256
6
ByLayer
370
18
48
1
60
1
100
AcDbPoint
10
88.8174
20
-4
30
0
39
0
210
0
220
0
230
1
50
360
0
POINT
5
75
100
AcDbEntity
8
2
62
256
6
ByLayer
370
18
48
1
60
1
100
AcDbPoint
10
88.8174
20
4
30
0
39
0
210
0
220
0
230
1
50
360
0
SPLINE
5
9B
100
AcDbEntity
8
1
62
256
6
ByLayer
370
18
48
1
60
0
100
AcDbSpline
70
4
71
3
72
19
73
15
40
0
40
0
40
0
40
0
40
0.0979409295735972
40
0.169140297031338
40
0.216974787136351
40
0.266275826872386
40
0.322064386242797
40
0.381576328676968
40
0.440097687447414
40
0.592223758283192
40
0.722055039332533
40
0.828950009338508
40
0.96429366059236
40
1
40
1
40
1
40
1
41
1
10
44.8945702408218
20
-3.77254481730608
30
0
41
1
10
45.0827450323945
20
-3.77266286419163
30
0
41
1
10
45.4077128722719
20
-3.7728515153139
30
0
41
1
10
45.8246250228617
20
-3.77302016491592
30
0
41
1
10
46.1480124481592
20
-3.77318404337703
30
0
41
1
10
46.4417608164141
20
-3.77335725427022
30
0
41
1
10
46.758026461404
20
-3.77366681198578
30
0
41
1
10
47.0920241156976
20
-3.77365972342946
30
0
41
1
10
47.6109877995266
20
-3.77386915479582
30
0
41
1
10
48.2652968088579
20
-3.77396094392239
30
0
41
1
10
49.0113570484738
20
-3.77498277284175
30
0
41
1
10
49.7265310378555
20
-3.7747696208221
30
0
41
1
10
50.2605340947339
20
-3.77533798927786
30
0
41
1
10
50.589207288082
20
-3.77541249902697
30
0
41
1
10
50.6578161079106
20
-3.77542744239901
30
0
0
SPLINE
5
9C
100
AcDbEntity
8
1
62
256
6
ByLayer
370
18
48
1
60
0
100
AcDbSpline
70
4
71
1
72
4
73
2
40
0
40
0
40
1
40
1
41
1
10
88.411389063677
20
-3.79989581425951
30
0
41
1
10
88.6034868202682
20
-3.80011063147222
30
0
0
SPLINE
5
9D
100
AcDbEntity
8
1
62
256
6
ByLayer
370
18
48
1
60
0
100
AcDbSpline
70
4
71
3
72
20
73
16
40
0
40
0
40
0
40
0
40
0.093532534979244
40
0.166814056038866
40
0.215258266800141
40
0.263931943336628
40
0.318232687436592
40
0.376367581842719
40
0.434964436541252
40
0.542635081035667
40
0.638358588844054
40
0.723952089944242
40
0.829947071157872
40
0.962328218811348
40
1
40
1
40
1
40
1
41
1
10
23.1878604092963
20
-3.75901837688514
30
0
41
1
10
23.3664651111976
20
-3.75912533007406
30
0
41
1
10
23.6849524234539
20
-3.75931358158738
30
0
41
1
10
24.0957909667462
20
-3.75954058127346
30
0
41
1
10
24.4209711058718
20
-3.75973033013173
30
0
41
1
10
24.7101390204346
20
-3.75987598602367
30
0
41
1
10
25.0176221131352
20
-3.75998198877474
30
0
41
1
10
25.3439077793949
20
-3.76033457809751
30
0
41
1
10
25.7722399164005
20
-3.76083852448281
30
0
41
1
10
26.272454101478
20
-3.76046141371779
30
0
41
1
10
26.8242187035358
20
-3.76076621042861
30
0
41
1
10
27.3727239304954
20
-3.76076594267428
30
0
41
1
10
27.9912992731167
20
-3.76238508607881
30
0
41
1
10
28.5183560102379
20
-3.76277587873366
30
0
41
1
10
28.8430380855112
20
-3.76237503298637
30
0
41
1
10
28.9149646715928
20
-3.76225919484131
30
0
0
SPLINE
5
9E
100
AcDbEntity
8
1
62
256
6
ByLayer
370
18
48
1
60
0
100
AcDbSpline
70
4
71
3
72
19
73
15
40
0
40
0
40
0
40
0
40
0.0994847693523014
40
0.171557483753905
40
0.219286722515202
40
0.267577695625768
40
0.32195505084763
40
0.380228837291086
40
0.43807082769494
40
0.590340652177311
40
0.718811038466373
40
0.824218271930868
40
0.960641039508549
40
1
40
1
40
1
40
1
41
1
10
66.6447195289495
20
-3.78607517526177
30
0
41
1
10
66.8358135448548
20
-3.78615831813451
30
0
41
1
10
67.1653074022331
20
-3.78632463784976
30
0
41
1
10
67.5863160365751
20
-3.78647496661117
30
0
41
1
10
67.9090742177327
20
-3.78676104272657
30
0
41
1
10
68.1979775571839
20
-3.78687909539346
30
0
41
1
10
68.5069762927671
20
-3.78696950619766
30
0
41
1
10
68.8342193188132
20
-3.78717888927989
30
0
41
1
10
69.3495633468083
20
-3.7873466192589
30
0
41
1
10
69.9999414569625
20
-3.78746169060634
30
0
41
1
10
70.7414818101622
20
-3.78877415240891
30
0
41
1
10
71.452723872312
20
-3.78771461883363
30
0
41
1
10
71.9927907272327
20
-3.78709828478969
30
0
41
1
10
72.3304043615406
20
-3.78813898878141
30
0
41
1
10
72.4059985643453
20
-3.7884141371361
30
0
0
SPLINE
5
9F
100
AcDbEntity
8
1
62
256
6
ByLayer
370
18
48
1
60
0
100
AcDbSpline
70
4
71
3
72
17
73
13
40
0
40
0
40
0
40
0
40
0.0348660245176916
40
0.124208771285147
40
0.214053550410087
40
0.32227681934078
40
0.487714007300169
40
0.643243125948962
40
0.767696065294363
40
0.877337795038919
40
0.944643988759614
40
1
40
1
40
1
40
1
41
1
10
72.405136196104
20
3.78834342044973
30
0
41
1
10
72.3614407707631
20
3.78817849243472
30
0
41
1
10
72.2057775133992
20
3.78767056508985
30
0
41
1
10
71.937515551806
20
3.78749182404164
30
0
41
1
10
71.5773203805352
20
3.78763919229874
30
0
41
1
10
71.1217692523369
20
3.78806896419494
30
0
41
1
10
70.5838858046272
20
3.78893143257088
30
0
41
1
10
70.0256708494599
20
3.78752227419869
30
0
41
1
10
69.5373769142439
20
3.7871099918537
30
0
41
1
10
69.1596495290228
20
3.78734638018659
30
0
41
1
10
68.8685150766953
20
3.78717819622088
30
0
41
1
10
68.7147898114197
20
3.78709644323652
30
0
41
1
10
68.6454156441428
20
3.787065529671
30
0
0
SPLINE
5
A0
100
AcDbEntity
8
1
62
256
6
ByLayer
370
18
48
1
60
0
100
AcDbSpline
70
4
71
3
72
10
73
6
40
0
40
0
40
0
40
0
40
0.0743855061504465
40
0.590026421979717
40
1
40
1
40
1
40
1
41
1
10
8.05020037941068
20
3.74856590342961
30
0
41
1
10
8.023066298186
20
3.74855130126744
30
0
41
1
10
7.80783862829134
20
3.74844403344446
30
0
41
1
10
7.44304385849802
20
3.74819104471521
30
0
41
1
10
7.10541838435589
20
3.74843331854922
30
0
41
1
10
6.95587954634249
20
3.7485933992092
30
0
0
SPLINE
5
A1
100
AcDbEntity
8
1
62
256
6
ByLayer
370
18
48
1
60
0
100
AcDbSpline
70
4
71
3
72
11
73
7
40
0
40
0
40
0
40
0
40
0.293092081923495
40
0.689294919168475
40
0.960194651431316
40
1
40
1
40
1
40
1
41
1
10
6.95587996348019
20
-3.7485625807839
30
0
41
1
10
7.0611977035509
20
-3.74844240426876
30
0
41
1
10
7.30887681574592
20
-3.74824455376952
30
0
41
1
10
7.65391137854641
20
-3.74836494417298
30
0
41
1
10
7.90786370488334
20
-3.74850489725887
30
0
41
1
10
8.01944702191742
20
-3.74855547386551
30
0
41
1
10
8.03374187507126
20
-3.74856193780627
30
0
0
SPLINE
5
A2
100
AcDbEntity
8
1
62
256
6
ByLayer
370
18
48
1
60
0
100
AcDbSpline
70
4
71
3
72
16
73
12
40
0
40
0
40
0
40
0
40
0.0842829733411123
40
0.191951906214047
40
0.318364990849804
40
0.483646209096437
40
0.636790033267305
40
0.757724947275154
40
0.866280527344599
40
0.934165993417053
40
1
40
1
40
1
40
1
41
1
10
28.9114771978262
20
3.76225696788614
30
0
41
1
10
28.8051403707245
20
3.76243753683178
30
0
41
1
10
28.5629620312966
20
3.76267877595015
30
0
41
1
10
28.1612910210498
20
3.76300219749371
30
0
41
1
10
27.6574417400936
20
3.76088343821752
30
0
41
1
10
27.0962049604737
20
3.76087657849067
30
0
41
1
10
26.541879442821
20
3.76057985787941
30
0
41
1
10
26.0591286509785
20
3.76061670319098
30
0
41
1
10
25.6839408526797
20
3.76074269064392
30
0
41
1
10
25.3782703199175
20
3.76039079987675
30
0
41
1
10
25.2095625643404
20
3.76017636598439
30
0
41
1
10
25.1265030294959
20
3.76011275437375
30
0
0
SPLINE
5
A3
100
AcDbEntity
8
1
62
256
6
ByLayer
370
18
48
1
60
0
100
AcDbSpline
70
4
71
3
72
17
73
13
40
0
40
0
40
0
40
0
40
0.0246894447873916
40
0.115926201608988
40
0.208264946489405
40
0.317034220251934
40
0.48202406338067
40
0.640359159409223
40
0.768373410303789
40
0.880505725417567
40
0.94870379422032
40
1
40
1
40
1
40
1
41
1
10
50.6573250338815
20
3.77547278526538
30
0
41
1
10
50.6264593299856
20
3.77546735587077
30
0
41
1
10
50.4815332855969
20
3.77542925100161
30
0
41
1
10
50.2211692685835
20
3.77518258205865
30
0
41
1
10
49.8556925445031
20
3.77480271522057
30
0
41
1
10
49.3980196253255
20
3.77519756838919
30
0
41
1
10
48.8578357076705
20
3.77445858217979
30
0
41
1
10
48.2935901262966
20
3.77435572503353
30
0
41
1
10
47.7954284277502
20
3.77416256516281
30
0
41
1
10
47.4099502285068
20
3.77376128985131
30
0
41
1
10
47.1203801311872
20
3.77368472154569
30
0
41
1
10
46.9709936757853
20
3.77368484553162
30
0
41
1
10
46.9068657056712
20
3.77367122098761
30
0
0
SPLINE
5
A4
100
AcDbEntity
8
1
62
256
6
ByLayer
370
18
48
1
60
0
100
AcDbSpline
70
4
71
3
72
12
73
8
40
0
40
0
40
0
40
0
40
0.24944507698501
40
0.24944507698501
40
0.880160293880118
40
0.880160293880118
40
1
40
1
40
1
40
1
41
1
10
66.6873868449398
20
-3.78611826229184
30
0
41
1
10
66.351847822456
20
-3.78592656924462
30
0
41
1
10
66.0172181106728
20
-3.77239364069743
30
0
41
1
10
64.8367658311388
20
-3.6783668636474
30
0
41
1
10
63.9915815056412
20
-3.52706249971735
30
0
41
1
10
62.9710615757866
20
-3.25269071132706
30
0
41
1
10
62.8085636052006
20
-3.20626889292333
30
0
41
1
10
62.6464217427082
20
-3.15735958489063
30
0
0
SPLINE
5
A5
100
AcDbEntity
8
1
62
256
6
ByLayer
370
13
48
1
60
0
100
AcDbSpline
70
4
71
3
72
24
73
20
40
0
40
0
40
0
40
0
40
0.196983324881575
40
0.196983324881575
40
0.318578877846223
40
0.318578877846223
40
0.379376654328547
40
0.379376654328547
40
0.440174430810871
40
0.440174430810871
40
0.683365536740168
40
0.683365536740168
40
0.804961089704817
40
0.804961089704817
40
0.865758866187139
40
0.865758866187139
40
0.926556642669462
40
0.926556642669462
40
1
40
1
40
1
40
1
41
1
10
62.6464217430383
20
-3.15735958499022
30
0
41
1
10
61.9552125477369
20
-2.94885967678684
30
0
41
1
10
61.2704749357095
20
-2.69515440380823
30
0
41
1
10
60.1621918154549
20
-2.22750373967273
30
0
41
1
10
59.7389655535638
20
-2.03549363753777
30
0
41
1
10
59.1014567030649
20
-1.73067914588574
30
0
41
1
10
58.8884619652401
20
-1.6263236048182
30
0
41
1
10
58.4612023353
20
-1.4125570556408
30
0
41
1
10
58.2464826880473
20
-1.30287625215652
30
0
41
1
10
57.1775518024015
20
-0.748610341580047
30
0
41
1
10
56.3331928052065
20
-0.284049999138972
30
0
41
1
10
55.0634883675714
20
0.408351197056135
30
0
41
1
10
54.6396734703674
20
0.638314727345829
30
0
41
1
10
54.0007480051311
20
0.977640235451133
30
0
41
1
10
53.7872021578009
20
1.08974347742137
30
0
41
1
10
53.3586843829208
20
1.31140664944331
30
0
41
1
10
53.144498547065
20
1.42050888231989
30
0
41
1
10
52.6735642683252
20
1.65542556720652
30
0
41
1
10
52.4167768020342
20
1.78031321137758
30
0
41
1
10
52.1604930044157
20
1.90104799265401
30
0
0
SPLINE
5
A6
100
AcDbEntity
8
1
62
256
6
ByLayer
370
18
48
1
60
0
100
AcDbSpline
70
4
71
3
72
16
73
12
40
0
40
0
40
0
40
0
40
0.236900338868671
40
0.236900338868671
40
0.373363324806123
40
0.373363324806123
40
0.509826310743577
40
0.509826310743577
40
0.782752282618484
40
0.782752282618484
40
1
40
1
40
1
40
1
41
1
10
23.3946842347089
20
-3.75747378109182
30
0
41
1
10
23.0261302538783
20
-3.7632177468403
30
0
41
1
10
22.656597283646
20
-3.75300953622178
30
0
41
1
10
22.0710174927673
20
-3.71130573714765
30
0
41
1
10
21.8559887213466
20
-3.69060709200775
30
0
41
1
10
21.4280930160277
20
-3.63892318771425
30
0
41
1
10
21.2148145067777
20
-3.60791202853375
30
0
41
1
10
20.5763626901122
20
-3.49989791984694
30
0
41
1
10
20.1525248125899
20
-3.40798247872223
30
0
41
1
10
19.3916432855529
20
-3.20972672998047
30
0
41
1
10
19.0545459644965
20
-3.11014965922021
30
0
41
1
10
18.7167631070448
20
-2.99966870337747
30
0
0
SPLINE
5
A7
100
AcDbEntity
8
1
62
256
6
ByLayer
370
13
48
1
60
0
100
AcDbSpline
70
4
71
3
72
22
73
18
40
0
40
0
40
0
40
0
40
0.153298294983911
40
0.153298294983911
40
0.280621855842811
40
0.280621855842811
40
0.40794541670171
40
0.40794541670171
40
0.53526897756061
40
0.53526897756061
40
0.59893075799006
40
0.59893075799006
40
0.662592538419509
40
0.662592538419509
40
0.917239660137309
40
0.917239660137309
40
1
40
1
40
1
40
1
41
1
10
18.716764057015
20
-2.99966901409076
30
0
41
1
10
18.2058406546344
20
-2.83255782303493
30
0
41
1
10
17.6933488176464
20
-2.64049966915778
30
0
41
1
10
16.7471662776177
20
-2.24835900812303
30
0
41
1
10
16.3203345853508
20
-2.05755760948833
30
0
41
1
10
15.4702127867169
20
-1.65668883777306
30
0
41
1
10
15.0467438009739
20
-1.44632296923533
30
0
41
1
10
14.1994431783978
20
-1.01193021941648
30
0
41
1
10
13.7755789216218
20
-0.78795915891439
30
0
41
1
10
13.1370800961912
20
-0.446000090188221
30
0
41
1
10
12.9238388252465
20
-0.330952075938711
30
0
41
1
10
12.4962135990528
20
-0.0993387097445577
30
0
41
1
10
12.2812876535013
20
0.0174696469480011
30
0
41
1
10
11.2102286012293
20
0.598142004687134
30
0
41
1
10
10.364020793861
20
1.0521091712744
30
0
41
1
10
9.24088199394271
20
1.61154978363609
30
0
41
1
10
8.96521402359207
20
1.74535655421391
30
0
41
1
10
8.68890593838384
20
1.8749499844476
30
0
0
SPLINE
5
A8
100
AcDbEntity
8
1
62
256
6
ByLayer
370
18
48
1
60
0
100
AcDbSpline
70
4
71
3
72
48
73
44
40
0
40
0
40
0
40
0
40
0.125000000000014
40
0.125000000000014
40
0.156250000000018
40
0.156250000000018
40
0.187500000000022
40
0.187500000000022
40
0.250000000000029
40
0.250000000000029
40
0.312500000000036
40
0.312500000000036
40
0.375000000000044
40
0.375000000000044
40
0.437500000000051
40
0.437500000000051
40
0.468750000000055
40
0.468750000000055
40
0.500000000000058
40
0.500000000000058
40
0.562500000000065
40
0.562500000000065
40
0.625000000000072
40
0.625000000000072
40
0.687500000000079
40
0.687500000000079
40
0.750000000000086
40
0.750000000000086
40
0.78125000000009
40
0.78125000000009
40
0.789062500000091
40
0.789062500000091
40
0.79296875000009
40
0.79296875000009
40
0.796875000000089
40
0.796875000000089
40
0.804687500000085
40
0.804687500000085
40
0.812500000000081
40
0.812500000000081
40
0.875000000000055
40
0.875000000000055
40
1
40
1
40
1
40
1
41
1
10
6.71106166267361
20
-3.41931684511363
30
0
41
1
10
6.57306203294718
20
-3.27524315239708
30
0
41
1
10
6.45074938826696
20
-3.10353423951145
30
0
41
1
10
6.31930803612278
20
-2.85056517389628
30
0
41
1
10
6.29411631106754
20
-2.79802808280007
30
0
41
1
10
6.2460838661265
20
-2.68884565974142
30
0
41
1
10
6.22319188095901
20
-2.63203016924737
30
0
41
1
10
6.15923256824993
20
-2.45750871482778
30
0
41
1
10
6.12255364427608
20
-2.33517252418884
30
0
41
1
10
6.06229720061032
20
-2.07800814070944
30
0
41
1
10
6.03870582049137
20
-1.94318774065354
30
0
41
1
10
6.00690660537563
20
-1.65982369177402
30
0
41
1
10
5.99912991691346
20
-1.51434421826232
30
0
41
1
10
6.0010294044549
20
-1.21877293265811
30
0
41
1
10
6.01065352810292
20
-1.06824507318021
30
0
41
1
10
6.03951790389146
20
-0.838384921123634
30
0
41
1
10
6.05162297444446
20
-0.760726929836579
30
0
41
1
10
6.08065594029711
20
-0.605819133441486
30
0
41
1
10
6.09749690267591
20
-0.528900535407132
30
0
41
1
10
6.15489922987149
20
-0.299754576097229
30
0
41
1
10
6.2023101881307
20
-0.14912947818317
30
0
41
1
10
6.31549208087708
20
0.147692998820617
30
0
41
1
10
6.38169655540131
20
0.294408893826187
30
0
41
1
10
6.52796889696174
20
0.574785596636303
30
0
41
1
10
6.6083823227635
20
0.709596898237123
30
0
41
1
10
6.78277073589345
20
0.969427127411763
30
0
41
1
10
6.87703823023386
20
1.09472482925605
30
0
41
1
10
7.02599816745482
20
1.27347842914395
30
0
41
1
10
7.07699814990565
20
1.33165947122086
30
0
41
1
10
7.142242911197
20
1.40260970687135
30
0
41
1
10
7.1548877986464
20
1.41710678930545
30
0
41
1
10
7.17551874606926
20
1.43742479567493
30
0
41
1
10
7.1835581463354
20
1.44292599663243
30
0
41
1
10
7.20172078992886
20
1.45063725688303
30
0
41
1
10
7.21148133328731
20
1.45253242620578
30
0
41
1
10
7.24122520168726
20
1.4550848745485
30
0
41
1
10
7.26111386048404
20
1.45503041086008
30
0
41
1
10
7.30085397333039
20
1.45602111448761
30
0
41
1
10
7.32073066187741
20
1.45638366969186
30
0
41
1
10
7.49961809811549
20
1.4584528535251
30
0
41
1
10
7.65842962569698
20
1.45184102729053
30
0
41
1
10
8.13275612224021
20
1.40731351010797
30
0
41
1
10
8.4416890142752
20
1.34537223064035
30
0
41
1
10
8.74363146723687
20
1.25073440639454
30
0
0
SPLINE
5
A9
100
AcDbEntity
8
1
62
256
6
ByLayer
370
18
48
1
60
0
100
AcDbSpline
70
4
71
3
72
8
73
4
40
0
40
0
40
0
40
0
40
1
40
1
40
1
40
1
41
1
10
89.9778959957014
20
-0.137078965999706
30
0
41
1
10
89.9815559222774
20
-0.108027356035819
30
0
41
1
10
89.9895828152033
20
-0.0720997866307016
30
0
41
1
10
89.9999638580095
20
-0.0340606178922371
30
0
0
SPLINE
5
AA
100
AcDbEntity
8
1
62
256
6
ByLayer
370
18
48
1
60
0
100
AcDbSpline
70
4
71
3
72
14
73
10
40
0
40
0
40
0
40
0
40
0.25
40
0.25
40
0.5
40
0.5
40
0.75
40
0.75
40
1
40
1
40
1
40
1
41
1
10
88.6181684484356
20
-3.79866064016599
30
0
41
1
10
88.620438053627
20
-3.79829657600948
30
0
41
1
10
88.6220328165481
20
-3.79967849027452
30
0
41
1
10
88.62346459269
20
-3.80696458209238
30
0
41
1
10
88.6232460004905
20
-3.81298386020168
30
0
41
1
10
88.6201649467243
20
-3.83036935365843
30
0
41
1
10
88.6172740907905
20
-3.841689406483
30
0
41
1
10
88.6093919979263
20
-3.86681447494493
30
0
41
1
10
88.6044472803809
20
-3.88050128458451
30
0
41
1
10
88.5992636489174
20
-3.8935321809646
30
0
0
SPLINE
5
AB
100
AcDbEntity
8
1
62
256
6
ByLayer
370
18
48
1
60
0
100
AcDbSpline
70
4
71
3
72
10
73
6
40
0
40
0
40
0
40
0
40
0.5
40
0.5
40
1
40
1
40
1
40
1
41
1
10
88.7065762698982
20
-3.8938742217818
30
0
41
1
10
88.9020473684012
20
-3.41595275214718
30
0
41
1
10
89.0963371407905
20
-2.93694310512535
30
0
41
1
10
89.4791056324804
20
-1.97539809784576
30
0
41
1
10
89.6676344227535
20
-1.49289255560927
30
0
41
1
10
89.8517986150974
20
-1.00809153214712
30
0
0
SPLINE
5
AC
100
AcDbEntity
8
1
62
256
6
ByLayer
370
18
48
1
60
0
100
AcDbSpline
70
4
71
3
72
16
73
12
40
0
40
0
40
0
40
0
40
0.249999999999997
40
0.249999999999997
40
0.374999999999998
40
0.374999999999998
40
0.499999999999998
40
0.499999999999998
40
0.749999999999999
40
0.749999999999999
40
1
40
1
40
1
40
1
41
1
10
6.955871509997
20
-3.37938329843911
30
0
41
1
10
7.07568675182131
20
-3.47797810975607
30
0
41
1
10
7.20386812170699
20
-3.55570709753988
30
0
41
1
10
7.40936960773527
20
-3.64353039805135
30
0
41
1
10
7.47997546959891
20
-3.66787648854029
30
0
41
1
10
7.62352538389257
20
-3.70667601123247
30
0
41
1
10
7.696741460542
20
-3.72125256459148
30
0
41
1
10
7.92098938923661
20
-3.75147522634458
30
0
41
1
10
8.07659804152644
20
-3.75365968929745
30
0
41
1
10
8.40213501878625
20
-3.7255290472996
30
0
41
1
10
8.57003139670809
20
-3.69537637589764
30
0
41
1
10
8.74363146723698
20
-3.65149182094927
30
0
0
SPLINE
5
AD
100
AcDbEntity
8
1
62
256
6
ByLayer
370
18
48
1
60
0
100
AcDbSpline
70
4
71
3
72
18
73
14
40
0
40
0
40
0
40
0
40
0.0895547496137745
40
0.0895547496137745
40
0.19296726260968
40
0.19296726260968
40
0.399792288601491
40
0.399792288601491
40
0.606617314593302
40
0.606617314593302
40
0.813442340585112
40
0.813442340585112
40
1
40
1
40
1
40
1
41
1
10
12.1068261343066
20
0.0005944477460105
30
0
41
1
10
12.2926004434037
20
-0.10286173872629
30
0
41
1
10
12.4787313866941
20
-0.206579054160159
30
0
41
1
10
12.8779050744199
20
-0.428175792548103
30
0
41
1
10
13.0912210313
20
-0.546023880353658
30
0
41
1
10
13.7299580231216
20
-0.895777840327384
30
0
41
1
10
14.1539224115612
20
-1.12429690893256
30
0
41
1
10
15.001387512307
20
-1.56652850104743
30
0
41
1
10
15.4249068421664
20
-1.78020455416365
30
0
41
1
10
16.2753241120095
20
-2.18623031041471
30
0
41
1
10
16.7024260653557
20
-2.37895221278669
30
0
41
1
10
17.5195210216898
20
-2.71958133631495
30
0
41
1
10
17.9044497861094
20
-2.86800774152869
30
0
41
1
10
18.2880529574083
20
-3.00218423377586
30
0
0
SPLINE
5
AE
100
AcDbEntity
8
1
62
256
6
ByLayer
370
13
48
1
60
0
100
AcDbSpline
70
4
71
3
72
16
73
12
40
0
40
0
40
0
40
0
40
0.22578527557737
40
0.22578527557737
40
0.431419841147289
40
0.431419841147289
40
0.53423712393225
40
0.53423712393225
40
0.63705440671721
40
0.63705440671721
40
1
40
1
40
1
40
1
41
1
10
18.2880529574158
20
-3.00218423377848
30
0
41
1
10
18.7550043666475
20
-3.1655142238001
30
0
41
1
10
19.2199915598781
20
-3.30772920754325
30
0
41
1
10
20.1090029512065
20
-3.53520446528137
30
0
41
1
10
20.5329166604573
20
-3.62445734689149
30
0
41
1
10
21.1716504756091
20
-3.72738546808327
30
0
41
1
10
21.3850380989403
20
-3.7565285088393
30
0
41
1
10
21.8132099901522
20
-3.80412178162564
30
0
41
1
10
22.0284160737173
20
-3.8225960253225
30
0
41
1
10
22.9985110617591
20
-3.88085028176911
30
0
41
1
10
23.745750907374
20
-3.85712406598355
30
0
41
1
10
24.49345744501
20
-3.76733359298711
30
0
0
SPLINE
5
AF
100
AcDbEntity
8
1
62
256
6
ByLayer
370
18
48
1
60
0
100
AcDbSpline
70
4
71
3
72
16
73
12
40
0
40
0
40
0
40
0
40
0.464516699529879
40
0.464516699529879
40
0.588586346318544
40
0.588586346318544
40
0.71265599310721
40
0.71265599310721
40
0.960795286684539
40
0.960795286684539
40
1
40
1
40
1
40
1
41
1
10
55.6192913791851
20
-0.0066112623256913
30
0
41
1
10
56.4114856992824
20
-0.450430227469525
30
0
41
1
10
57.2025789587234
20
-0.893654723540521
30
0
41
1
10
58.2175824345708
20
-1.42899997530478
30
0
41
1
10
58.4324448388433
20
-1.54048521788994
30
0
41
1
10
58.8598461659225
20
-1.75741055691293
30
0
41
1
10
59.0728880722964
20
-1.86314464368374
30
0
41
1
10
59.7105168162163
20
-2.17148759510056
30
0
41
1
10
60.1337718580796
20
-2.36506685761847
30
0
41
1
10
60.6236782780283
20
-2.57267857231977
30
0
41
1
10
60.6905178009872
20
-2.60064940158824
30
0
41
1
10
60.7573611202378
20
-2.62825560938234
30
0
0
SPLINE
5
B0
100
AcDbEntity
8
1
62
256
6
ByLayer
370
13
48
1
60
0
100
AcDbSpline
70
4
71
3
72
16
73
12
40
0
40
0
40
0
40
0
40
0.323384323232292
40
0.323384323232292
40
0.674506233180034
40
0.674506233180034
40
0.850067188153903
40
0.850067188153903
40
0.93784766564084
40
0.93784766564084
40
1
40
1
40
1
40
1
41
1
10
60.7573601956128
20
-2.62825522751334
30
0
41
1
10
61.5366630996155
20
-2.95010639791178
30
0
41
1
10
62.3164820073479
20
-3.22239671600883
30
0
41
1
10
63.9647339536618
20
-3.65631361468695
30
0
41
1
10
64.8098153449665
20
-3.79981473393303
30
0
41
1
10
66.0788870932466
20
-3.88539864801331
30
0
41
1
10
66.5020479518332
20
-3.89236441715442
30
0
41
1
10
67.1396892057555
20
-3.86977738364823
30
0
41
1
10
67.3526810891126
20
-3.85672974804748
30
0
41
1
10
67.7176892265309
20
-3.82498930613875
30
0
41
1
10
67.8695783768347
20
-3.80902516270274
30
0
41
1
10
68.0212604628755
20
-3.79036206001996
30
0
0
SPLINE
5
B1
100
AcDbEntity
8
1
62
256
6
ByLayer
370
13
48
1
60
0
100
AcDbSpline
70
4
71
3
72
8
73
4
40
0
40
0
40
0
40
0
40
1
40
1
40
1
40
1
41
1
10
6.71116801214356
20
2.85743919709415
30
0
41
1
10
6.71411159748791
20
2.84141858498992
30
0
41
1
10
6.71830619170976
20
2.82569912760559
30
0
41
1
10
6.72373746146232
20
2.81044947763871
30
0
0
SPLINE
5
B2
100
AcDbEntity
8
1
62
256
6
ByLayer
370
18
48
1
60
0
100
AcDbSpline
70
4
71
3
72
118
73
114
40
0
40
0
40
0
40
0
40
0.0201804893028757
40
0.0201804893028757
40
0.0410712535807267
40
0.0410712535807267
40
0.0619620178585776
40
0.0619620178585776
40
0.0828527821364286
40
0.0828527821364286
40
0.10374354641428
40
0.10374354641428
40
0.124634310692131
40
0.124634310692131
40
0.135079692831056
40
0.135079692831056
40
0.145525074969981
40
0.145525074969981
40
0.166415839247832
40
0.166415839247832
40
0.187306603525683
40
0.187306603525683
40
0.208197367803534
40
0.208197367803534
40
0.229088132081385
40
0.229088132081385
40
0.249978896359236
40
0.249978896359236
40
0.270869660637087
40
0.270869660637087
40
0.291760424914938
40
0.291760424914938
40
0.312651189192789
40
0.312651189192789
40
0.33354195347064
40
0.33354195347064
40
0.343987335609565
40
0.343987335609565
40
0.35443271774849
40
0.35443271774849
40
0.375323482026341
40
0.375323482026341
40
0.396214246304192
40
0.396214246304192
40
0.417105010582043
40
0.417105010582043
40
0.437995774859894
40
0.437995774859894
40
0.458886539137745
40
0.458886539137745
40
0.479777303415596
40
0.479777303415596
40
0.490222685554521
40
0.490222685554521
40
0.500668067693447
40
0.500668067693447
40
0.521558831971298
40
0.521558831971298
40
0.542449596249149
40
0.542449596249149
40
0.563340360527
40
0.563340360527
40
0.573785742665925
40
0.573785742665925
40
0.584231124804851
40
0.584231124804851
40
0.605121889082701
40
0.605121889082701
40
0.626012653360552
40
0.626012653360552
40
0.636458035499478
40
0.636458035499478
40
0.646903417638403
40
0.646903417638403
40
0.688684946194105
40
0.688684946194105
40
0.709575710471956
40
0.709575710471956
40
0.720021092610882
40
0.720021092610882
40
0.730466474749807
40
0.730466474749807
40
0.751357239027658
40
0.751357239027658
40
0.772248003305509
40
0.772248003305509
40
0.782693385444434
40
0.782693385444434
40
0.79313876758336
40
0.79313876758336
40
0.814029531861211
40
0.814029531861211
40
0.834920296139062
40
0.834920296139062
40
0.845365678277987
40
0.845365678277987
40
0.855811060416912
40
0.855811060416912
40
0.87670182469476
40
0.87670182469476
40
0.897592588972609
40
0.897592588972609
40
0.918483353250458
40
0.918483353250458
40
0.928928735389383
40
0.928928735389383
40
0.939374117528308
40
0.939374117528308
40
0.960264881806157
40
0.960264881806157
40
0.981155646084007
40
0.981155646084007
40
1
40
1
40
1
40
1
41
1
10
79.6509058140134
20
-1.89591754992949
30
0
41
1
10
79.457052575632
20
-1.9883548546982
30
0
41
1
10
79.2631150314856
20
-2.07829094662665
30
0
41
1
10
78.8683190172897
20
-2.25570867257062
30
0
41
1
10
78.6674859139864
20
-2.34302411762261
30
0
41
1
10
78.2651776432643
20
-2.51155085236664
30
0
41
1
10
78.0634185042136
20
-2.59246738737897
30
0
41
1
10
77.6612627662145
20
-2.75010345931173
30
0
41
1
10
77.4597316027003
20
-2.82514212576561
30
0
41
1
10
77.0551820142925
20
-2.96801012456663
30
0
41
1
10
76.8522852706482
20
-3.03609704245736
30
0
41
1
10
76.4449744352091
20
-3.16421529053872
30
0
41
1
10
76.2414802263952
20
-3.22369833497476
30
0
41
1
10
75.9373215450873
20
-3.3066144784415
30
0
41
1
10
75.836112691468
20
-3.33330990316966
30
0
41
1
10
75.6344226501742
20
-3.38496742840295
30
0
41
1
10
75.5336730335279
20
-3.40967888231302
30
0
41
1
10
75.2316077295457
20
-3.48010412531974
30
0
41
1
10
75.0304489728611
20
-3.52189812645159
30
0
41
1
10
74.628303587023
20
-3.59688604306101
30
0
41
1
10
74.4273312581901
20
-3.63022446919356
30
0
41
1
10
74.0251945185984
20
-3.68734758593681
30
0
41
1
10
73.8238986799079
20
-3.71123926559034
30
0
41
1
10
73.4227127468923
20
-3.75025637869734
30
0
41
1
10
73.221855772497
20
-3.76501982355069
30
0
41
1
10
72.8190977165254
20
-3.78452913894188
30
0
41
1
10
72.6172848505985
20
-3.78874505812641
30
0
41
1
10
72.212493917505
20
-3.78785668294691
30
0
41
1
10
72.0094374586699
20
-3.78298798113221
30
0
41
1
10
71.6020692775037
20
-3.76399630268975
30
0
41
1
10
71.3989262196808
20
-3.74961613540691
30
0
41
1
10
70.9928845177026
20
-3.71139685985449
30
0
41
1
10
70.789849242092
20
-3.68759308785877
30
0
41
1
10
70.3838097623977
20
-3.63038476494219
30
0
41
1
10
70.1808228941002
20
-3.59626666190943
30
0
41
1
10
69.8758701688482
20
-3.53833352265178
30
0
41
1
10
69.7741523582779
20
-3.51797286627121
30
0
41
1
10
69.5706282092056
20
-3.4753764082534
30
0
41
1
10
69.4690937935492
20
-3.45290245235535
30
0
41
1
10
69.1642816109747
20
-3.38188950814737
30
0
41
1
10
68.9610315279553
20
-3.32993550658529
30
0
41
1
10
68.5559303307079
20
-3.21824811008437
30
0
41
1
10
68.3538342647736
20
-3.15859279968987
30
0
41
1
10
67.9502242675312
20
-3.03204945629202
30
0
41
1
10
67.7487115966424
20
-2.96475004778006
30
0
41
1
10
67.3462669762573
20
-2.82249721678718
30
0
41
1
10
67.1461558005834
20
-2.74705464205874
30
0
41
1
10
66.7448490404323
20
-2.59117170253927
30
0
41
1
10
66.5440389100388
20
-2.51013676559964
30
0
41
1
10
66.1421539004888
20
-2.34074884728028
30
0
41
1
10
65.940959460296
20
-2.25340009909706
30
0
41
1
10
65.6385484546631
20
-2.11867680171378
30
0
41
1
10
65.5376571548285
20
-2.07312867734078
30
0
41
1
10
65.3357331850351
20
-1.98046004659275
30
0
41
1
10
65.2350632029404
20
-1.93267546693326
30
0
41
1
10
64.9323137531244
20
-1.7875379499425
30
0
41
1
10
64.7298033245164
20
-1.6885662439274
30
0
41
1
10
64.323214294994
20
-1.48695802856267
30
0
41
1
10
64.1194478705935
20
-1.38414642019589
30
0
41
1
10
63.7140801979901
20
-1.17589435204147
30
0
41
1
10
63.5117684670175
20
-1.0708062128266
30
0
41
1
10
63.2090023549213
20
-0.911525338857388
30
0
41
1
10
63.108611488928
20
-0.857386501824664
30
0
41
1
10
62.907625756839
20
-0.749347897771599
30
0
41
1
10
62.8071844398032
20
-0.695164466492258
30
0
41
1
10
62.5059345625853
20
-0.532244037195596
30
0
41
1
10
62.3051571311727
20
-0.423243742821825
30
0
41
1
10
61.9035501936969
20
-0.204881304255508
30
0
41
1
10
61.7027036790135
20
-0.0955192276854859
30
0
41
1
10
61.4011283413111
20
0.0683620648245267
30
0
41
1
10
61.3005312095835
20
0.122919797140185
30
0
41
1
10
61.0994314119529
20
0.232337043579662
30
0
41
1
10
60.9992504758794
20
0.287800716163758
30
0
41
1
10
60.4969951960106
20
0.562909557760378
30
0
41
1
10
60.0932746754821
20
0.780508217606069
30
0
41
1
10
59.4835276751169
20
1.10059867738724
30
0
41
1
10
59.2791726302835
20
1.2057285090541
30
0
41
1
10
58.9744913841177
20
1.36187798663374
30
0
41
1
10
58.8733022507776
20
1.41398312897246
30
0
41
1
10
58.6706411710943
20
1.51660538280984
30
0
41
1
10
58.5693018179246
20
1.56736016935483
30
0
41
1
10
58.2651459085456
20
1.71783708142439
30
0
41
1
10
58.0622596330963
20
1.81583614884497
30
0
41
1
10
57.6562534889514
20
2.00662381390939
30
0
41
1
10
57.4530117392706
20
2.09928079934767
30
0
41
1
10
57.1475978639147
20
2.23433382595601
30
0
41
1
10
57.0454860711872
20
2.27852281053248
30
0
41
1
10
56.8423885070151
20
2.36657948983529
30
0
41
1
10
56.7410861657756
20
2.40987739764179
30
0
41
1
10
56.4374452909641
20
2.53668146814044
30
0
41
1
10
56.2354535461913
20
2.61727052433898
30
0
41
1
10
55.8319861430587
20
2.77140270324205
30
0
41
1
10
55.6305813200027
20
2.84505434985229
30
0
41
1
10
55.3287012654989
20
2.94937548724755
30
0
41
1
10
55.2281092549617
20
2.98310376344742
30
0
41
1
10
55.0270037969591
20
3.04862973927223
30
0
41
1
10
54.9263636003686
20
3.08029976873368
30
0
41
1
10
54.6257851257046
20
3.17392594795459
30
0
41
1
10
54.4253898709956
20
3.23267433377589
30
0
41
1
10
54.0239724110701
20
3.34089113809301
30
0
41
1
10
53.8230375079071
20
3.39022472730832
30
0
41
1
10
53.4204996590033
20
3.48118014588357
30
0
41
1
10
53.2188206198161
20
3.52248238614698
30
0
41
1
10
52.9155784861781
20
3.57744972046748
30
0
41
1
10
52.8143035787326
20
3.59455019939551
30
0
41
1
10
52.6122611552778
20
3.62681729229004
30
0
41
1
10
52.5110850644821
20
3.6417932392805
30
0
41
1
10
52.206974706375
20
3.68351405699536
30
0
41
1
10
52.0031414175685
20
3.70682229873068
30
0
41
1
10
51.5974807048651
20
3.74308816490071
30
0
41
1
10
51.3953171990024
20
3.75584441082768
30
0
41
1
10
51.0111935436537
20
3.77176793643648
30
0
41
1
10
50.8290302169962
20
3.77564918387125
30
0
41
1
10
50.6477922595899
20
3.77548945390163
30
0
0
SPLINE
5
B3
100
AcDbEntity
8
1
62
256
6
ByLayer
370
18
48
1
60
0
100
AcDbSpline
70
4
71
3
72
104
73
100
40
0
40
0
40
0
40
0
40
0.0041164004299393
40
0.0041164004299393
40
0.0151817737584949
40
0.0151817737584949
40
0.0262471470870501
40
0.0262471470870501
40
0.0483778937441611
40
0.0483778937441611
40
0.0705086404012718
40
0.0705086404012718
40
0.0815740137298273
40
0.0815740137298273
40
0.0926393870583829
40
0.0926393870583829
40
0.114770133715494
40
0.114770133715494
40
0.136900880372605
40
0.136900880372605
40
0.159031627029715
40
0.159031627029715
40
0.170097000358271
40
0.170097000358271
40
0.181162373686828
40
0.181162373686828
40
0.203293120343939
40
0.203293120343939
40
0.225423867001051
40
0.225423867001051
40
0.236489240329607
40
0.236489240329607
40
0.247554613658164
40
0.247554613658164
40
0.291816106972391
40
0.291816106972391
40
0.302881480300948
40
0.302881480300948
40
0.313946853629504
40
0.313946853629504
40
0.336077600286616
40
0.336077600286616
40
0.380339093600843
40
0.380339093600843
40
0.3914044669294
40
0.3914044669294
40
0.402469840257956
40
0.402469840257956
40
0.424600586915069
40
0.424600586915069
40
0.446731333572181
40
0.446731333572181
40
0.468862080229294
40
0.468862080229294
40
0.490992826886407
40
0.490992826886407
40
0.51312357354352
40
0.51312357354352
40
0.535254320200632
40
0.535254320200632
40
0.557385066857745
40
0.557385066857745
40
0.60164656017197
40
0.60164656017197
40
0.623777306829083
40
0.623777306829083
40
0.645908053486195
40
0.645908053486195
40
0.668038800143308
40
0.668038800143308
40
0.69016954680042
40
0.69016954680042
40
0.712300293457532
40
0.712300293457532
40
0.734431040114645
40
0.734431040114645
40
0.756561786771757
40
0.756561786771757
40
0.767627160100314
40
0.767627160100314
40
0.778692533428871
40
0.778692533428871
40
0.822954026743098
40
0.822954026743098
40
0.845084773400211
40
0.845084773400211
40
0.856150146728768
40
0.856150146728768
40
0.867215520057324
40
0.867215520057324
40
0.91147701337155
40
0.91147701337155
40
0.922542386700107
40
0.922542386700107
40
0.933607760028663
40
0.933607760028663
40
0.955738506685775
40
0.955738506685775
40
1
40
1
40
1
40
1
41
1
10
36.1727617445657
20
-1.87508811569916
30
0
41
1
10
36.1352408980531
20
-1.8926888140617
30
0
41
1
10
36.0977097195117
20
-1.91021893272858
30
0
41
1
10
35.9592551189408
20
-1.9746182556166
30
0
41
1
10
35.8586776621455
20
-2.02170445500263
30
0
41
1
10
35.6569493603037
20
-2.1140682429895
30
0
41
1
10
35.5559309325543
20
-2.15955777783739
30
0
41
1
10
35.2522765714236
20
-2.29376471321572
30
0
41
1
10
35.0486967093085
20
-2.38045977939831
30
0
41
1
10
34.6418468083908
20
-2.54757444947225
30
0
41
1
10
34.4389888106728
20
-2.62758944924624
30
0
41
1
10
34.1353914961355
20
-2.7416752067825
30
0
41
1
10
34.0342697994826
20
-2.77870350212845
30
0
41
1
10
33.8324718421459
20
-2.85125902358857
30
0
41
1
10
33.7320708781964
20
-2.88712901118529
30
0
41
1
10
33.4305042111427
20
-2.99121301455779
30
0
41
1
10
33.2295833168977
20
-3.05660684395056
30
0
41
1
10
32.8278546937686
20
-3.17859409750781
30
0
41
1
10
32.6271008956937
20
-3.23536980375832
30
0
41
1
10
32.2252552897799
20
-3.3411880482451
30
0
41
1
10
32.0239653899705
20
-3.39000653719421
30
0
41
1
10
31.7224969266048
20
-3.45709582497372
30
0
41
1
10
31.6223082414093
20
-3.47859318331936
30
0
41
1
10
31.4214237597025
20
-3.51907766705327
30
0
41
1
10
31.3208747314404
20
-3.53817985446673
30
0
41
1
10
31.0187957067581
20
-3.59213186468034
30
0
41
1
10
30.8168867119631
20
-3.62367997710672
30
0
41
1
10
30.4119014083802
20
-3.67663147811103
30
0
41
1
10
30.2086457974793
20
-3.69793352789372
30
0
41
1
10
29.9028060042423
20
-3.72335904358437
30
0
41
1
10
29.800778333447
20
-3.73071393462553
30
0
41
1
10
29.5975986380979
20
-3.74332844713499
30
0
41
1
10
29.4962293387101
20
-3.74851533055781
30
0
41
1
10
28.9890011334824
20
-3.7683626393962
30
0
41
1
10
28.583170532593
20
-3.76548765835796
30
0
41
1
10
28.0747392193461
20
-3.73569984201336
30
0
41
1
10
27.9729729678573
20
-3.7283243349689
30
0
41
1
10
27.7692906887445
20
-3.71112121749616
30
0
41
1
10
27.6672022935464
20
-3.70145534498056
30
0
41
1
10
27.3622698299978
20
-3.66884060683191
30
0
41
1
10
27.1595943426082
20
-3.64254053148738
30
0
41
1
10
26.5524358656787
20
-3.55018917162283
30
0
41
1
10
26.1491937297381
20
-3.47108998464029
30
0
41
1
10
25.6457315736896
20
-3.35138912791908
30
0
41
1
10
25.5450372442817
20
-3.32636535866925
30
0
41
1
10
25.3444613177756
20
-3.27326319636407
30
0
41
1
10
25.2441826829226
20
-3.24558327067012
30
0
41
1
10
24.9431646918754
20
-3.16012834912831
30
0
41
1
10
24.742228666361
20
-3.09971785554188
30
0
41
1
10
24.3398938922216
20
-2.97080047739266
30
0
41
1
10
24.1385238310692
20
-2.90207690744799
30
0
41
1
10
23.7347833220211
20
-2.75801332921847
30
0
41
1
10
23.5321832585803
20
-2.6833762185359
30
0
41
1
10
23.1278725224542
20
-2.52376722155984
30
0
41
1
10
22.9250737831971
20
-2.44014204181454
30
0
41
1
10
22.5176052661007
20
-2.26678790244733
30
0
41
1
10
22.3142421389188
20
-2.17799979720834
30
0
41
1
10
21.908679619433
20
-1.99537353038394
30
0
41
1
10
21.7063272730458
20
-1.90171713586213
30
0
41
1
10
21.3023649048413
20
-1.71003487359636
30
0
41
1
10
21.1014100462317
20
-1.61112766324564
30
0
41
1
10
20.4983490502324
20
-1.31010561073543
30
0
41
1
10
20.0965525500193
20
-1.10241624709346
30
0
41
1
10
19.4923011255214
20
-0.78564145443849
30
0
41
1
10
19.290537420532
20
-0.679113946482346
30
0
41
1
10
18.8879160355409
20
-0.461200965427196
30
0
41
1
10
18.6861384120561
20
-0.351687033186806
30
0
41
1
10
18.2812125288397
20
-0.132307154956948
30
0
41
1
10
18.0781484656617
20
-0.0221342874641266
30
0
41
1
10
17.6704730626082
20
0.198492498223345
30
0
41
1
10
17.4662723248865
20
0.308428491047493
30
0
41
1
10
17.0588032098406
20
0.526882074378278
30
0
41
1
10
16.8561912625508
20
0.637122444027739
30
0
41
1
10
16.4500963887159
20
0.853933076073361
30
0
41
1
10
16.2468402823981
20
0.960944344443988
30
0
41
1
10
15.8399788927951
20
1.17224129601223
30
0
41
1
10
15.6363311633182
20
1.27642990582109
30
0
41
1
10
15.330151970596
20
1.42983433919051
30
0
41
1
10
15.2280094639713
20
1.48051856676008
30
0
41
1
10
15.0242321305201
20
1.58076738589284
30
0
41
1
10
14.9228344256309
20
1.63094390670486
30
0
41
1
10
14.4161846949483
20
1.87821126323354
30
0
41
1
10
14.0122389094036
20
2.06516435505981
30
0
41
1
10
13.4072105872388
20
2.32763284806958
30
0
41
1
10
13.2055628429493
20
2.41207559783928
30
0
41
1
10
12.9033638467413
20
2.53340786782204
30
0
41
1
10
12.803058323397
20
2.57355219179453
30
0
41
1
10
12.6021118979455
20
2.65193015361984
30
0
41
1
10
12.5015829397445
20
2.69029351996898
30
0
41
1
10
11.9984648601368
20
2.87764953802898
30
0
41
1
10
11.59481925178
20
3.01367141761719
30
0
41
1
10
11.0874956577172
20
3.16384925739419
30
0
41
1
10
10.9858845140927
20
3.19288555492778
30
0
41
1
10
10.7824882644866
20
3.24904119143653
30
0
41
1
10
10.6810686563187
20
3.27651036478451
30
0
41
1
10
10.3757991858499
20
3.35525071751115
30
0
41
1
10
10.1720061547721
20
3.40347353971791
30
0
41
1
10
9.56122992385755
20
3.53426614739348
30
0
41
1
10
9.15323424438503
20
3.60222057369475
30
0
41
1
10
8.74363146723678
20
3.65149182094925
30
0
0
SPLINE
5
B4
100
AcDbEntity
8
1
62
256
6
ByLayer
370
18
48
1
60
0
100
AcDbSpline
70
4
71
3
72
8
73
4
40
0
40
0
40
0
40
0
40
1
40
1
40
1
40
1
41
1
10
88.706576269905
20
-3.89387422176245
30
0
41
1
10
88.6490785170877
20
-3.94966008255938
30
0
41
1
10
88.5999511934953
20
-3.98384060757016
30
0
41
1
10
88.5586550765223
20
-3.99546755762685
30
0
0
SPLINE
5
B5
100
AcDbEntity
8
1
62
256
6
ByLayer
370
18
48
1
60
0
100
AcDbSpline
70
4
71
3
72
16
73
12
40
0
40
0
40
0
40
0
40
0.224444707242748
40
0.224444707242748
40
0.471358713788332
40
0.471358713788332
40
0.594815717061124
40
0.594815717061124
40
0.718272720333915
40
0.718272720333915
40
1
40
1
40
1
40
1
41
1
10
33.84802286404
20
0.0053212205096713
30
0
41
1
10
34.2330025285947
20
-0.209585195546253
30
0
41
1
10
34.6177533157799
20
-0.424439132191736
30
0
41
1
10
35.4279344325057
20
-0.870716565147546
30
0
41
1
10
35.8535900907854
20
-1.10162813923739
30
0
41
1
10
36.4965300058962
20
-1.43899903801832
30
0
41
1
10
36.7114497239796
20
-1.54979783876109
30
0
41
1
10
37.1388516641326
20
-1.7655755563182
30
0
41
1
10
37.351865395007
20
-1.87083736115974
30
0
41
1
10
38.0496168712811
20
-2.20634399640582
30
0
41
1
10
38.5325645148966
20
-2.42395492925931
30
0
41
1
10
39.0157295243591
20
-2.62254728518533
30
0
0
SPLINE
5
B6
100
AcDbEntity
8
1
62
256
6
ByLayer
370
13
48
1
60
0
100
AcDbSpline
70
4
71
3
72
20
73
16
40
0
40
0
40
0
40
0
40
0.152657916646147
40
0.152657916646147
40
0.241515096140685
40
0.241515096140685
40
0.330372275635223
40
0.330372275635223
40
0.508086634624294
40
0.508086634624294
40
0.863515352602432
40
0.863515352602432
40
0.952372532096966
40
0.952372532096966
40
1
40
1
40
1
40
1
41
1
10
39.0157285994216
20
-2.62254690501391
30
0
41
1
10
39.3794837167642
20
-2.77205896236274
30
0
41
1
10
39.7433620354646
20
-2.91079135527102
30
0
41
1
10
40.3208712628605
20
-3.11095990923812
30
0
41
1
10
40.5337798347622
20
-3.18043665620135
30
0
41
1
10
40.9608230060872
20
-3.31054083669579
30
0
41
1
10
41.1752952465844
20
-3.37128533521323
30
0
41
1
10
41.8187501289179
20
-3.53862408584368
30
0
41
1
10
42.2450367153415
20
-3.6297397530667
30
0
41
1
10
43.5204906797917
20
-3.83972063112057
30
0
41
1
10
44.366693762845
20
-3.8954436833846
30
0
41
1
10
45.4361190274595
20
-3.85376456726849
30
0
41
1
10
45.6509550965532
20
-3.83983866049593
30
0
41
1
10
45.9803209328966
20
-3.81003895909026
30
0
41
1
10
46.0951733010998
20
-3.79806858266971
30
0
41
1
10
46.2099785318202
20
-3.78453918297231
30
0
0
SPLINE
5
B7
100
AcDbEntity
8
1
62
256
6
ByLayer
370
18
48
1
60
0
100
AcDbSpline
70
4
71
3
72
16
73
12
40
0
40
0
40
0
40
0
40
0.0774634102691274
40
0.0774634102691274
40
0.198847630668422
40
0.198847630668422
40
0.684384512265579
40
0.684384512265579
40
0.927152953064157
40
0.927152953064157
40
1
40
1
40
1
40
1
41
1
10
77.3577048399422
20
-0.000289351460367
30
0
41
1
10
77.4943179251642
20
-0.0770956350276322
30
0
41
1
10
77.6311240843593
20
-0.154014659799543
30
0
41
1
10
77.9814453647116
20
-0.350622482481299
30
0
41
1
10
78.1945443845664
20
-0.469880516734094
30
0
41
1
10
79.2572930905686
20
-1.06065466462184
30
0
41
1
10
80.0988594415501
20
-1.51534634958642
30
0
41
1
10
81.3687647694059
20
-2.13589848973496
30
0
41
1
10
81.7932190548664
20
-2.33266873608676
30
0
41
1
10
82.348823502893
20
-2.5715288319854
30
0
41
1
10
82.4774279700305
20
-2.62552070654897
30
0
41
1
10
82.6059155426864
20
-2.6780917006968
30
0
0
SPLINE
5
B8
100
AcDbEntity
8
1
62
256
6
ByLayer
370
13
48
1
60
0
100
AcDbSpline
70
4
71
3
72
18
73
14
40
0
40
0
40
0
40
0
40
0.0425393310877281
40
0.0425393310877281
40
0.148923849855759
40
0.148923849855759
40
0.574461924927884
40
0.574461924927884
40
0.787230962463946
40
0.787230962463946
40
0.893615481231973
40
0.893615481231973
40
1
40
1
40
1
40
1
41
1
10
82.6059155576516
20
-2.67809170681986
30
0
41
1
10
82.691525386744
20
-2.71311917073763
30
0
41
1
10
82.7770833216044
20
-2.7475158479339
30
0
41
1
10
83.0759274776806
20
-2.86543360780192
30
0
41
1
10
83.2886961160991
20
-2.94542416013417
30
0
41
1
10
84.3500909947257
20
-3.32316214528817
30
0
41
1
10
85.1914538138176
20
-3.55432557261716
30
0
41
1
10
86.4617988111755
20
-3.77789939695231
30
0
41
1
10
86.8866568457997
20
-3.83193673879282
30
0
41
1
10
87.5286345582937
20
-3.88016187905728
30
0
41
1
10
87.7431323742842
20
-3.89071459923719
30
0
41
1
10
88.1712680871026
20
-3.90054978007925
30
0
41
1
10
88.3852292100567
20
-3.89985931880386
30
0
41
1
10
88.5992636484615
20
-3.89353218097807
30
0
0
SPLINE
5
B9
100
AcDbEntity
8
1
62
256
6
ByLayer
370
18
48
1
60
0
100
AcDbSpline
70
4
71
3
72
8
73
4
40
0
40
0
40
0
40
0
40
1
40
1
40
1
40
1
41
1
10
88.7065762699068
20
3.89387422176068
30
0
41
1
10
88.6490785170888
20
3.94966008255867
30
0
41
1
10
88.5999511934957
20
3.98384060757002
30
0
41
1
10
88.5586550765223
20
3.99546755762685
30
0
0
SPLINE
5
BA
100
AcDbEntity
8
1
62
256
6
ByLayer
370
18
48
1
60
0
100
AcDbSpline
70
4
71
3
72
26
73
22
40
0
40
0
40
0
40
0
40
0.214592211110162
40
0.214592211110162
40
0.321888316665245
40
0.321888316665245
40
0.375536369442785
40
0.375536369442785
40
0.429184422220325
40
0.429184422220325
40
0.643776633330484
40
0.643776633330484
40
0.697424686108025
40
0.697424686108025
40
0.751072738885566
40
0.751072738885566
40
0.858368844440649
40
0.858368844440649
40
0.965664949995731
40
0.965664949995731
40
1
40
1
40
1
40
1
41
1
10
8.74363146723687
20
-3.6514918209493
30
0
41
1
10
9.15226623874952
20
-3.60233701539801
30
0
41
1
10
9.55756077515517
20
-3.53480171151264
30
0
41
1
10
10.1615542881915
20
-3.40583301895367
30
0
41
1
10
10.3623779298213
20
-3.35847082947146
30
0
41
1
10
10.6633842471365
20
-3.28117857373647
30
0
41
1
10
10.7635013942707
20
-3.25419362433522
30
0
41
1
10
10.9644702064211
20
-3.19887010429585
30
0
41
1
10
11.0650727268701
20
-3.17031314477663
30
0
41
1
10
11.5677892192693
20
-3.02227744665072
30
0
41
1
10
11.9696715114033
20
-2.88764428071301
30
0
41
1
10
12.4728863094855
20
-2.70113042818505
30
0
41
1
10
12.5735475831494
20
-2.66288887121326
30
0
41
1
10
12.7749747066206
20
-2.58464369821377
30
0
41
1
10
12.8755745665967
20
-2.54444135974043
30
0
41
1
10
13.1790699194348
20
-2.42291036279426
30
0
41
1
10
13.3822453175396
20
-2.33821504694643
30
0
41
1
10
13.7895181819299
20
-2.16200479499338
30
0
41
1
10
13.9931242888411
20
-2.07081295418649
30
0
41
1
10
14.2606257536617
20
-1.94754105562956
30
0
41
1
10
14.3254031075737
20
-1.91740100208463
30
0
41
1
10
14.3901131093745
20
-1.88701349668256
30
0
0
SPLINE
5
BB
100
AcDbEntity
8
1
62
256
6
ByLayer
370
18
48
1
60
0
100
AcDbSpline
70
4
71
3
72
120
73
116
40
0
40
0
40
0
40
0
40
0.0159738373051004
40
0.0159738373051004
40
0.0264279644654709
40
0.0264279644654709
40
0.0368820916258415
40
0.0368820916258415
40
0.0577903459465813
40
0.0577903459465813
40
0.0786986002673212
40
0.0786986002673212
40
0.0996068545880612
40
0.0996068545880612
40
0.120515108908801
40
0.120515108908801
40
0.141423363229541
40
0.141423363229541
40
0.162331617550281
40
0.162331617550281
40
0.172785744710651
40
0.172785744710651
40
0.183239871871021
40
0.183239871871021
40
0.225056380512499
40
0.225056380512499
40
0.235510507672868
40
0.235510507672868
40
0.245964634833237
40
0.245964634833237
40
0.266872889153975
40
0.266872889153975
40
0.287781143474713
40
0.287781143474713
40
0.30868939779545
40
0.30868939779545
40
0.319143524955819
40
0.319143524955819
40
0.329597652116188
40
0.329597652116188
40
0.350505906436926
40
0.350505906436926
40
0.371414160757663
40
0.371414160757663
40
0.381868287918032
40
0.381868287918032
40
0.392322415078401
40
0.392322415078401
40
0.41323066939914
40
0.41323066939914
40
0.434138923719879
40
0.434138923719879
40
0.455047178040617
40
0.455047178040617
40
0.465501305200987
40
0.465501305200987
40
0.475955432361356
40
0.475955432361356
40
0.496863686682096
40
0.496863686682096
40
0.517771941002836
40
0.517771941002836
40
0.538680195323576
40
0.538680195323576
40
0.559588449644316
40
0.559588449644316
40
0.580496703965056
40
0.580496703965056
40
0.601404958285796
40
0.601404958285796
40
0.611859085446166
40
0.611859085446166
40
0.622313212606536
40
0.622313212606536
40
0.643221466927277
40
0.643221466927277
40
0.664129721248018
40
0.664129721248018
40
0.685037975568759
40
0.685037975568759
40
0.7059462298895
40
0.7059462298895
40
0.726854484210241
40
0.726854484210241
40
0.747762738530982
40
0.747762738530982
40
0.768670992851723
40
0.768670992851723
40
0.789579247172464
40
0.789579247172464
40
0.810487501493204
40
0.810487501493204
40
0.820941628653576
40
0.820941628653576
40
0.831395755813947
40
0.831395755813947
40
0.852304010134688
40
0.852304010134688
40
0.873212264455429
40
0.873212264455429
40
0.89412051877617
40
0.89412051877617
40
0.915028773096911
40
0.915028773096911
40
0.935937027417652
40
0.935937027417652
40
0.956845281738393
40
0.956845281738393
40
0.967299408898763
40
0.967299408898763
40
0.977753536059134
40
0.977753536059134
40
0.998661790379875
40
0.998661790379875
40
1
40
1
40
1
40
1
41
1
10
28.8686819234931
20
3.762248069246
30
0
41
1
10
29.0238702606734
20
3.76256459657057
30
0
41
1
10
29.178641075611
20
3.76005058076672
30
0
41
1
10
29.4340302912837
20
3.75128689487985
30
0
41
1
10
29.5348931206715
20
3.74662838705751
30
0
41
1
10
29.7363903373339
20
3.73502656676391
30
0
41
1
10
29.8374025222814
20
3.72817110377142
30
0
41
1
10
30.1400628453098
20
3.70441964632005
30
0
41
1
10
30.3414778618796
20
3.68439817079283
30
0
41
1
10
30.7437372207355
20
3.63424850668949
30
0
41
1
10
30.9447089512287
20
3.60402909134524
30
0
41
1
10
31.3464633738108
20
3.53452712056355
30
0
41
1
10
31.5471380949289
20
3.4952614396606
30
0
41
1
10
31.9487837599964
20
3.40736258394028
30
0
41
1
10
32.150940872592
20
3.35959538827234
30
0
41
1
10
32.5549259340614
20
3.2551818980383
30
0
41
1
10
32.7570910504527
20
3.19894428997824
30
0
41
1
10
33.1624616799401
20
3.07779486301826
30
0
41
1
10
33.3658702153596
20
3.01258189500436
30
0
41
1
10
33.6711068395699
20
2.90845386647911
30
0
41
1
10
33.7726920088537
20
2.87274256253332
30
0
41
1
10
33.9758524657303
20
2.79971931196977
30
0
41
1
10
34.0778138484096
20
2.76288028607064
30
0
41
1
10
34.5866501677067
20
2.5733541369483
30
0
41
1
10
34.9928737317776
20
2.40712303899332
30
0
41
1
10
35.5009033735989
20
2.18409798074936
30
0
41
1
10
35.6025039499012
20
2.13865226327854
30
0
41
1
10
35.8057901541029
20
2.04612079671418
30
0
41
1
10
35.9074285491882
20
1.99878964928237
30
0
41
1
10
36.2128911461488
20
1.85651732758319
30
0
41
1
10
36.4164421524701
20
1.76051717244655
30
0
41
1
10
36.8217795131168
20
1.5635053154617
30
0
41
1
10
37.0238203735578
20
1.46286022777372
30
0
41
1
10
37.4271541980586
20
1.25825038614556
30
0
41
1
10
37.6283521231546
20
1.1542332883291
30
0
41
1
10
37.9296027044383
20
0.995710769477483
30
0
41
1
10
38.0297878458352
20
0.942160799092193
30
0
41
1
10
38.2309674548003
20
0.836031777896721
30
0
41
1
10
38.3316571521356
20
0.782906206386571
30
0
41
1
10
38.6335902568163
20
0.622599224698263
30
0
41
1
10
38.8347682121013
20
0.51465785159192
30
0
41
1
10
39.2372382748026
20
0.297089686688793
30
0
41
1
10
39.4387283138025
20
0.187649413828041
30
0
41
1
10
39.7411929960221
20
0.0225239169523661
30
0
41
1
10
39.8420452179681
20
-0.0326974327132064
30
0
41
1
10
40.0438745155091
20
-0.143362647109967
30
0
41
1
10
40.144696114416
20
-0.199099623086738
30
0
41
1
10
40.4488430798021
20
-0.363796558075563
30
0
41
1
10
40.6525624485926
20
-0.473264042223434
30
0
41
1
10
41.0604605742205
20
-0.691860485910155
30
0
41
1
10
41.2636444207145
20
-0.800295574040348
30
0
41
1
10
41.6688485044614
20
-1.01495445978122
30
0
41
1
10
41.8707355350392
20
-1.12088098005472
30
0
41
1
10
42.1728110159851
20
-1.27748809465748
30
0
41
1
10
42.2733166281498
20
-1.32944889419559
30
0
41
1
10
42.4749598234307
20
-1.43117269932012
30
0
41
1
10
42.575740434951
20
-1.4815720650289
30
0
41
1
10
42.8778866409889
20
-1.63155367932944
30
0
41
1
10
43.0790182397501
20
-1.72965148302532
30
0
41
1
10
43.4811948917965
20
-1.92095570176372
30
0
41
1
10
43.6822596383076
20
-2.01441637254459
30
0
41
1
10
44.0842288811434
20
-2.19723206401693
30
0
41
1
10
44.2848075420292
20
-2.28694184027432
30
0
41
1
10
44.6887346753953
20
-2.45697845506484
30
0
41
1
10
44.8911082824179
20
-2.53909199558532
30
0
41
1
10
45.2964466571283
20
-2.69797761327842
30
0
41
1
10
45.4994881945622
20
-2.774628130624
30
0
41
1
10
45.9070951234114
20
-2.92021319866615
30
0
41
1
10
46.110625350338
20
-2.98957580185154
30
0
41
1
10
46.4151874653406
20
-3.08804257553376
30
0
41
1
10
46.5167069779495
20
-3.1198499433134
30
0
41
1
10
46.7202005466779
20
-3.18085844526169
30
0
41
1
10
46.8219442347303
20
-3.21023873664544
30
0
41
1
10
47.1271312206076
20
-3.29499748926114
30
0
41
1
10
47.3304425128521
20
-3.34754788280705
30
0
41
1
10
47.7372183486284
20
-3.44459149914667
30
0
41
1
10
47.9406896319765
20
-3.48905558888313
30
0
41
1
10
48.348024604498
20
-3.56809232313418
30
0
41
1
10
48.5509018251752
20
-3.60302901372134
30
0
41
1
10
48.956926777467
20
-3.66319034237577
30
0
41
1
10
49.1594104624946
20
-3.68879227464811
30
0
41
1
10
49.5633246410559
20
-3.72959490335953
30
0
41
1
10
49.7648737347641
20
-3.74505888478075
30
0
41
1
10
50.1673604814775
20
-3.76723542783381
30
0
41
1
10
50.368197484443
20
-3.77368340883706
30
0
41
1
10
50.7696221146278
20
-3.77664364392214
30
0
41
1
10
50.9712346292954
20
-3.77311103426234
30
0
41
1
10
51.3741193272534
20
-3.75700594922438
30
0
41
1
10
51.5755117626888
20
-3.7446510777921
30
0
41
1
10
51.9789984567328
20
-3.7093384256076
30
0
41
1
10
52.1810490327293
20
-3.68665027020973
30
0
41
1
10
52.4844989346651
20
-3.6456123027298
30
0
41
1
10
52.5857109805994
20
-3.63082300391577
30
0
41
1
10
52.7883832115108
20
-3.59887043576381
30
0
41
1
10
52.8901820333337
20
-3.5818380837735
30
0
41
1
10
53.1961506723177
20
-3.5269527936905
30
0
41
1
10
53.400065901411
20
-3.48552044634661
30
0
41
1
10
53.8058940141438
20
-3.39435071797323
30
0
41
1
10
54.0082204354491
20
-3.34490013848523
30
0
41
1
10
54.4118052022886
20
-3.23655745189168
30
0
41
1
10
54.6130011653881
20
-3.17776830059802
30
0
41
1
10
55.0148013541898
20
-3.05288428180953
30
0
41
1
10
55.2165612073367
20
-2.98796805456863
30
0
41
1
10
55.6190241738091
20
-2.84919910660639
30
0
41
1
10
55.8201133393108
20
-2.77579584777945
30
0
41
1
10
56.2224371430227
20
-2.62237697289191
30
0
41
1
10
56.423603622088
20
-2.54227603040042
30
0
41
1
10
56.7255394458282
20
-2.41645283869295
30
0
41
1
10
56.8262222081538
20
-2.37356233923515
30
0
41
1
10
57.0278171756409
20
-2.28620678248777
30
0
41
1
10
57.129155963558
20
-2.24239815131122
30
0
41
1
10
57.4331066109436
20
-2.10824079815723
30
0
41
1
10
57.6361016953537
20
-2.0159077791169
30
0
41
1
10
57.8527044351758
20
-1.91431173703057
30
0
41
1
10
57.8657360503586
20
-1.90818823517404
30
0
41
1
10
57.8787693433959
20
-1.90205292783818
30
0
0
SPLINE
5
BC
100
AcDbEntity
8
1
62
256
6
ByLayer
370
18
48
1
60
0
100
AcDbSpline
70
4
71
3
72
60
73
56
40
0
40
0
40
0
40
0
40
0.0002608156498853
40
0.0002608156498853
40
0.0437277367085871
40
0.0437277367085871
40
0.0871946577672889
40
0.0871946577672889
40
0.130661578825991
40
0.130661578825991
40
0.174128499884692
40
0.174128499884692
40
0.217595420943394
40
0.217595420943394
40
0.239328881472744
40
0.239328881472744
40
0.261062342002094
40
0.261062342002094
40
0.304529263060791
40
0.304529263060791
40
0.347996184119489
40
0.347996184119489
40
0.391463105178186
40
0.391463105178186
40
0.434930026236883
40
0.434930026236883
40
0.478396947295581
40
0.478396947295581
40
0.521863868354278
40
0.521863868354278
40
0.543597328883627
40
0.543597328883627
40
0.565330789412976
40
0.565330789412976
40
0.608797710471675
40
0.608797710471675
40
0.652264631530375
40
0.652264631530375
40
0.695731552589074
40
0.695731552589074
40
0.717465013118425
40
0.717465013118425
40
0.739198473647776
40
0.739198473647776
40
0.826132315765182
40
0.826132315765182
40
0.847865776294533
40
0.847865776294533
40
0.869599236823884
40
0.869599236823884
40
0.91306615788259
40
0.91306615788259
40
0.956533078941295
40
0.956533078941295
40
1
40
1
40
1
40
1
41
1
10
72.3990616183685
20
3.78825679461303
30
0
41
1
10
72.4002678567635
20
3.78826085519702
30
0
41
1
10
72.4014740843488
20
3.78826475903668
30
0
41
1
10
72.6037055416872
20
3.7888929944678
30
0
41
1
10
72.8045231799284
20
3.78496660899126
30
0
41
1
10
73.206215199958
20
3.76602650472179
30
0
41
1
10
73.4069563784578
20
3.75153187309275
30
0
41
1
10
73.8086780610887
20
3.71295735126103
30
0
41
1
10
74.0105719907703
20
3.68920630687296
30
0
41
1
10
74.4148094891252
20
3.6322073769891
30
0
41
1
10
74.6172403440077
20
3.59881399773326
30
0
41
1
10
75.0230303308726
20
3.52341046808104
30
0
41
1
10
75.2267881798708
20
3.48117948503426
30
0
41
1
10
75.5316838305089
20
3.41016628667441
30
0
41
1
10
75.6331935743453
20
3.38527757717804
30
0
41
1
10
75.8360686381132
20
3.3333258034175
30
0
41
1
10
75.9377137374788
20
3.30651193585609
30
0
41
1
10
76.2427309695966
20
3.22334858371355
30
0
41
1
10
76.4459317008499
20
3.16392037350022
30
0
41
1
10
76.8522016482106
20
3.03611714465546
30
0
41
1
10
77.0553877919444
20
2.96795183200049
30
0
41
1
10
77.4618695025355
20
2.82437265789287
30
0
41
1
10
77.6654572315551
20
2.74853332178569
30
0
41
1
10
78.0709959595571
20
2.58942101375772
30
0
41
1
10
78.2741243206596
20
2.50790531102436
30
0
41
1
10
78.6785889379364
20
2.33826565361559
30
0
41
1
10
78.8802232035058
20
2.2504770654115
30
0
41
1
10
79.2828298925289
20
2.06930574540235
30
0
41
1
10
79.4837678154892
20
1.97588825432962
30
0
41
1
10
79.7846370130644
20
1.83197522299025
30
0
41
1
10
79.8848428377549
20
1.78339201435486
30
0
41
1
10
80.0852142182951
20
1.68507706774585
30
0
41
1
10
80.1858188254504
20
1.63607941288345
30
0
41
1
10
80.4873734062563
20
1.48685520476263
30
0
41
1
10
80.6885048937879
20
1.38505301934418
30
0
41
1
10
81.0909481060247
20
1.17773661160473
30
0
41
1
10
81.2923712965036
20
1.07233036208237
30
0
41
1
10
81.6956873169441
20
0.858174166845686
30
0
41
1
10
81.8974433904361
20
0.74917695715726
30
0
41
1
10
82.2009212045734
20
0.584044973331061
30
0
41
1
10
82.3026469946672
20
0.529543088190763
30
0
41
1
10
82.5061512754398
20
0.419486245906199
30
0
41
1
10
82.6081248729814
20
0.364175765615585
30
0
41
1
10
83.1163717790564
20
0.0875557578862072
30
0
41
1
10
83.5200446464472
20
-0.134367674005148
30
0
41
1
10
84.0222139011428
20
-0.410303442809919
30
0
41
1
10
84.1224493962204
20
-0.465554582891315
30
0
41
1
10
84.3231633164687
20
-0.5750131792594
30
0
41
1
10
84.4238294079558
20
-0.628877506693385
30
0
41
1
10
84.7253054464956
20
-0.790599191674232
30
0
41
1
10
84.926079228252
20
-0.897686139231212
30
0
41
1
10
85.3274698736357
20
-1.10977054700334
30
0
41
1
10
85.528189305334
20
-1.21456959011269
30
0
41
1
10
85.9297086960954
20
-1.42169569550444
30
0
41
1
10
86.1301601804377
20
-1.52464515168651
30
0
41
1
10
86.3315373343548
20
-1.62475925698453
30
0
0
SPLINE
5
BD
100
AcDbEntity
8
1
62
256
6
ByLayer
370
18
48
1
60
0
100
AcDbSpline
70
4
71
3
72
26
73
22
40
0
40
0
40
0
40
0
40
0.14023372371233
40
0.14023372371233
40
0.381363885764596
40
0.381363885764596
40
0.501928966790729
40
0.501928966790729
40
0.532070237047262
40
0.532070237047262
40
0.547140872175529
40
0.547140872175529
40
0.554676189739662
40
0.554676189739662
40
0.562211507303795
40
0.562211507303795
40
0.622494047816862
40
0.622494047816862
40
0.863624209869127
40
0.863624209869127
40
1
40
1
40
1
40
1
41
1
10
8.74363146723684
20
1.25073440641475
30
0
41
1
10
8.74363146723687
20
1.10444311551618
30
0
41
1
10
8.74363146723687
20
0.95032702835195
30
0
41
1
10
8.74363146723684
20
0.513081347953204
30
0
41
1
10
8.74363146723684
20
0.216520235636295
30
0
41
1
10
8.74363146723684
20
-0.25703796304785
30
0
41
1
10
8.74363146723684
20
-0.419884658428657
30
0
41
1
10
8.74363146723684
20
-0.628724818122663
30
0
41
1
10
8.74363146723684
20
-0.670758902658321
30
0
41
1
10
8.74363146723684
20
-0.734208441535145
30
0
41
1
10
8.74363146723684
20
-0.755449125640752
30
0
41
1
10
8.74363146723684
20
-0.792492078147546
30
0
41
1
10
8.74363146723684
20
-0.805518263132427
30
0
41
1
10
8.74363146723684
20
-0.833664895486976
30
0
41
1
10
8.74363146723684
20
-0.849343966360038
30
0
41
1
10
8.74363146723684
20
-0.988483158838704
30
0
41
1
10
8.74363146723681
20
-1.11287927880926
30
0
41
1
10
8.74363146723681
20
-1.73746392648192
30
0
41
1
10
8.7436314672369
20
-2.24710670114141
30
0
41
1
10
8.7436314672369
20
-3.05761732389738
30
0
41
1
10
8.74363146723687
20
-3.35309699617306
30
0
41
1
10
8.74363146723687
20
-3.65149182094942
30
0
0
SPLINE
5
BE
100
AcDbEntity
8
1
62
256
6
ByLayer
370
18
48
1
60
0
100
AcDbSpline
70
4
71
3
72
8
73
4
40
0
40
0
40
0
40
0
40
1
40
1
40
1
40
1
41
1
10
89.9999638580059
20
0.0340606179028669
30
0
41
1
10
89.9916887507565
20
0.0079659737558018
30
0
41
1
10
89.9806528966624
20
-0.0189725634486422
30
0
41
1
10
89.9696241225855
20
-0.0394975181854136
30
0
0
SPLINE
5
BF
100
AcDbEntity
8
1
62
256
6
ByLayer
370
13
48
1
60
0
100
AcDbSpline
70
4
71
3
72
20
73
16
40
0
40
0
40
0
40
0
40
0.194968084559016
40
0.194968084559016
40
0.389936169118032
40
0.389936169118032
40
0.584904253677048
40
0.584904253677048
40
0.682388295956556
40
0.682388295956556
40
0.779872338236064
40
0.779872338236064
40
0.97484042279508
40
0.97484042279508
40
1
40
1
40
1
40
1
41
1
10
6.95629860740053
20
2.61985701927432
30
0
41
1
10
6.956281546258
20
2.75995143718907
30
0
41
1
10
6.95625790274988
20
2.88817153069107
30
0
41
1
10
6.95620216505873
20
3.12122068833483
30
0
41
1
10
6.95616992889381
20
3.22612492233236
30
0
41
1
10
6.956103592338
20
3.40664472498759
30
0
41
1
10
6.95606930212421
20
3.48317149841529
30
0
41
1
10
6.95601958943266
20
3.57735885450307
30
0
41
1
10
6.95600330220907
20
3.60530580178317
30
0
41
1
10
6.95597184313385
20
3.65411072109734
30
0
41
1
10
6.95595676777486
20
3.67480367650182
30
0
41
1
10
6.9559146561605
20
3.72531162298162
30
0
41
1
10
6.95589053955973
20
3.74395476053755
30
0
41
1
10
6.95586937779939
20
3.74824253442401
30
0
41
1
10
6.9558670482939
20
3.74848429201796
30
0
41
1
10
6.95586481066582
20
3.74847637659323
30
0
0
SPLINE
5
C0
100
AcDbEntity
8
1
62
256
6
ByLayer
370
18
48
1
60
0
100
AcDbSpline
70
4
71
3
72
18
73
14
40
0
40
0
40
0
40
0
40
0.249999999999994
40
0.249999999999994
40
0.374999999999993
40
0.374999999999993
40
0.499999999999993
40
0.499999999999993
40
0.749999999999995
40
0.749999999999995
40
0.874999999999998
40
0.874999999999998
40
1
40
1
40
1
40
1
41
1
10
88.5736199420068
20
-3.79465223884645
30
0
41
1
10
88.4924906094669
20
-3.78358902737915
30
0
41
1
10
88.4174546734852
20
-3.75536770996831
30
0
41
1
10
88.3147973899854
20
-3.6851683103298
30
0
41
1
10
88.282087102442
20
-3.65690579908991
30
0
41
1
10
88.2212868449365
20
-3.59157778493491
30
0
41
1
10
88.1931173333487
20
-3.55452717436671
30
0
41
1
10
88.1153115387922
20
-3.43019411907557
30
0
41
1
10
88.0723209743197
20
-3.32984258638416
30
0
41
1
10
88.0221393921619
20
-3.15118534295493
30
0
41
1
10
88.0077738826873
20
-3.08658305488561
30
0
41
1
10
87.9845638448846
20
-2.94988445311327
30
0
41
1
10
87.9756460635928
20
-2.87764874804245
30
0
41
1
10
87.9694298878877
20
-2.80150585917022
30
0
0
SPLINE
5
C1
100
AcDbEntity
8
1
62
256
6
ByLayer
370
18
48
1
60
0
100
AcDbSpline
70
4
71
3
72
39
73
35
40
0
40
0
40
0
40
0
40
0.0624999999999993
40
0.0624999999999993
40
0.124999999999999
40
0.124999999999999
40
0.249999999999997
40
0.249999999999997
40
0.312499999999996
40
0.312499999999996
40
0.374999999999996
40
0.437499999999995
40
0.437499999999995
40
0.499999999999994
40
0.499999999999994
40
0.624999999999992
40
0.624999999999992
40
0.687499999999992
40
0.687499999999992
40
0.749999999999991
40
0.749999999999991
40
0.81249999999999
40
0.81249999999999
40
0.820312499999991
40
0.820312499999991
40
0.828124999999992
40
0.828124999999992
40
0.843749999999992
40
0.843749999999992
40
0.859374999999992
40
0.859374999999992
40
0.874999999999992
40
0.874999999999992
40
1
40
1
40
1
40
1
41
1
10
86.331537334378
20
-1.62475925699604
30
0
41
1
10
86.4141893469267
20
-1.63767512423922
30
0
41
1
10
86.4971112781387
20
-1.64681722078868
30
0
41
1
10
86.6612275879924
20
-1.65891749992943
30
0
41
1
10
86.7425313927465
20
-1.66158594743388
30
0
41
1
10
86.9839944377513
20
-1.65861544452363
30
0
41
1
10
87.1417563675808
20
-1.64222954140192
30
0
41
1
10
87.3720349290385
20
-1.58911988477078
30
0
41
1
10
87.4481418702782
20
-1.56643506043511
30
0
41
1
10
87.5957505355095
20
-1.51068893975614
30
0
41
1
10
87.7380299055438
20
-1.44498944985722
30
0
41
1
10
87.8692116800737
20
-1.35856330447564
30
0
41
1
10
87.9946247987563
20
-1.26136320880093
30
0
41
1
10
88.0548052097461
20
-1.20695369707494
30
0
41
1
10
88.2232304983256
20
-1.03028354258899
30
0
41
1
10
88.3193764598153
20
-0.895413015006056
30
0
41
1
10
88.4431608215342
20
-0.671466060665551
30
0
41
1
10
88.4808359342488
20
-0.59267685601958
30
0
41
1
10
88.5498704924842
20
-0.430691643668581
30
0
41
1
10
88.5812362262952
20
-0.3473815938911
30
0
41
1
10
88.6386390880424
20
-0.176843180496036
30
0
41
1
10
88.6646003068049
20
-0.0898411292716048
30
0
41
1
10
88.691215334224
20
0.0096273440315144
30
0
41
1
10
88.694108293643
20
0.0207139404875534
30
0
41
1
10
88.6999501848692
20
0.0428580596128825
30
0
41
1
10
88.7028999597107
20
0.0539173100484618
30
0
41
1
10
88.7079194157525
20
0.0887967118923143
30
0
41
1
10
88.7061143770623
20
0.114742830325582
30
0
41
1
10
88.6977643454869
20
0.165008046781935
30
0
41
1
10
88.6910062776865
20
0.189974016178468
30
0
41
1
10
88.6769922196506
20
0.239873832810417
30
0
41
1
10
88.6699053292552
20
0.26481970371816
30
0
41
1
10
88.6069476566447
20
0.489429073510081
30
0
41
1
10
88.5533838075047
20
0.689490022513212
30
0
41
1
10
88.5015989191869
20
0.889797599061041
30
0
0
SPLINE
5
C2
100
AcDbEntity
8
1
62
256
6
ByLayer
370
18
48
1
60
0
100
AcDbSpline
70
4
71
3
72
8
73
4
40
0
40
0
40
0
40
0
40
1
40
1
40
1
40
1
41
1
10
88.5736199420094
20
-3.79465223884361
30
0
41
1
10
88.5870619711535
20
-3.79995327325239
30
0
41
1
10
88.6018959039118
20
-3.80127089600194
30
0
41
1
10
88.6181684484357
20
-3.79866064016599
30
0
0
SPLINE
5
C3
100
AcDbEntity
8
1
62
256
6
ByLayer
370
18
48
1
60
0
100
AcDbSpline
70
4
71
3
72
12
73
8
40
0
40
0
40
0
40
0
40
0.500000000000005
40
0.500000000000005
40
0.750000000000003
40
0.750000000000003
40
1
40
1
40
1
40
1
41
1
10
88.7065762699069
20
3.89387422176068
30
0
41
1
10
88.9011487965811
20
3.41814973557911
30
0
41
1
10
89.0951237815592
20
2.93996135500402
30
0
41
1
10
89.3825887005586
20
2.21787112734484
30
0
41
1
10
89.4779254392869
20
1.97615050422917
30
0
41
1
10
89.6665143572742
20
1.49239876734063
30
0
41
1
10
89.7597657945234
20
1.25036232886649
30
0
41
1
10
89.8517986150973
20
1.00809153214706
30
0
0
SPLINE
5
C4
100
AcDbEntity
8
1
62
256
6
ByLayer
370
18
48
1
60
0
100
AcDbSpline
70
4
71
3
72
18
73
14
40
0
40
0
40
0
40
0
40
0.125
40
0.125
40
0.250000000000001
40
0.250000000000001
40
0.375000000000001
40
0.375000000000001
40
0.500000000000001
40
0.500000000000001
40
0.750000000000001
40
0.750000000000001
40
1
40
1
40
1
40
1
41
1
10
6.71106166267361
20
-3.41931684511363
30
0
41
1
10
6.71464153649879
20
-3.39877326541699
30
0
41
1
10
6.7206718623373
20
-3.37825722940426
30
0
41
1
10
6.73836244873351
20
-3.34424669841087
30
0
41
1
10
6.74991944676697
20
-3.33137193899128
30
0
41
1
10
6.77345836651784
20
-3.3154582050079
30
0
41
1
10
6.7856783228967
20
-3.31168604873665
30
0
41
1
10
6.80921599828432
20
-3.30885948762739
30
0
41
1
10
6.82083950789502
20
-3.30975938739499
30
0
41
1
10
6.85468518657143
20
-3.31642827271222
30
0
41
1
10
6.8758216696165
20
-3.32588031230543
30
0
41
1
10
6.91679520874061
20
-3.34932121881607
30
0
41
1
10
6.93657681221276
20
-3.36350587693661
30
0
41
1
10
6.95587150686748
20
-3.37938329586385
30
0
0
SPLINE
5
C5
100
AcDbEntity
8
1
62
256
6
ByLayer
370
18
48
1
60
0
100
AcDbSpline
70
4
71
3
72
8
73
4
40
0
40
0
40
0
40
0
40
1
40
1
40
1
40
1
41
1
10
89.9778959957013
20
0.13707896599982
30
0
41
1
10
89.981555922277
20
0.108027356038661
30
0
41
1
10
89.9895828152017
20
0.0720997866375228
30
0
41
1
10
89.9999638580065
20
0.0340606179030374
30
0
0
SPLINE
5
C6
100
AcDbEntity
8
1
62
256
6
ByLayer
370
18
48
1
60
0
100
AcDbSpline
70
4
71
3
72
14
73
10
40
0
40
0
40
0
40
0
40
0.25
40
0.25
40
0.5
40
0.5
40
0.75
40
0.75
40
1
40
1
40
1
40
1
41
1
10
88.5015989191868
20
0.889797599061041
30
0
41
1
10
88.4977232981737
20
0.904788772702176
30
0
41
1
10
88.4964272368815
20
0.920575082692523
30
0
41
1
10
88.5021760093974
20
0.950721160654609
30
0
41
1
10
88.5095342253152
20
0.96506632838009
30
0
41
1
10
88.5318413664088
20
0.987165651285068
30
0
41
1
10
88.545952924605
20
0.994547671995434
30
0
41
1
10
88.5753540370305
20
1.00354753400984
30
0
41
1
10
88.5909105717636
20
1.00533222934698
30
0
41
1
10
88.6063739509415
20
1.00528527229901
30
0
0
SPLINE
5
C7
100
AcDbEntity
8
1
62
256
6
ByLayer
370
18
48
1
60
0
100
AcDbSpline
70
4
71
3
72
8
73
4
40
0
40
0
40
0
40
0
40
1
40
1
40
1
40
1
41
1
10
88.5992636488368
20
-3.89353218116722
30
0
41
1
10
88.585732380808
20
-3.92754782306198
30
0
41
1
10
88.5721954210917
20
-3.96152711673989
30
0
41
1
10
88.5586550765223
20
-3.99546755762688
30
0
0
SPLINE
5
C8
100
AcDbEntity
8
1
62
256
6
ByLayer
370
18
48
1
60
0
100
AcDbSpline
70
4
71
3
72
50
73
46
40
0
40
0
40
0
40
0
40
0.0577733538060071
40
0.0577733538060071
40
0.115546707612014
40
0.115546707612014
40
0.144433384515018
40
0.144433384515018
40
0.173320061418021
40
0.173320061418021
40
0.231093415224027
40
0.231093415224027
40
0.288866769030033
40
0.288866769030033
40
0.346640122836038
40
0.346640122836038
40
0.404413476642044
40
0.404413476642044
40
0.462186830448049
40
0.462186830448049
40
0.519960184254055
40
0.519960184254055
40
0.548846861157058
40
0.548846861157058
40
0.577733538060061
40
0.577733538060061
40
0.635506891866067
40
0.635506891866067
40
0.664393568769069
40
0.664393568769069
40
0.693280245672072
40
0.693280245672072
40
0.808826953284081
40
0.808826953284081
40
0.837713630187082
40
0.837713630187082
40
0.866600307090084
40
0.866600307090084
40
0.924373660896088
40
0.924373660896088
40
0.953260337799089
40
0.953260337799089
40
0.98214701470209
40
0.98214701470209
40
1
40
1
40
1
40
1
41
1
10
88.5586550765224
20
-3.99546755762685
30
0
41
1
10
88.1333301094972
20
-4.00679980886056
30
0
41
1
10
87.7082633615229
20
-3.99541750668777
30
0
41
1
10
86.8555878259028
20
-3.92747012388389
30
0
41
1
10
86.4297154587466
20
-3.87096097023857
30
0
41
1
10
85.7915647558752
20
-3.75400459670752
30
0
41
1
10
85.5788224296359
20
-3.70964113744793
30
0
41
1
10
85.1528130721121
20
-3.61041080045956
30
0
41
1
10
84.9393543575576
20
-3.5554871621905
30
0
41
1
10
84.3002823105058
20
-3.37617727124578
30
0
41
1
10
83.8752400393375
20
-3.23711501081098
30
0
41
1
10
83.0237024969302
20
-2.92338445558917
30
0
41
1
10
82.5968707559267
20
-2.74851685308911
30
0
41
1
10
81.7457958890722
20
-2.37088111949902
30
0
41
1
10
81.3205694747313
20
-2.16782490488879
30
0
41
1
10
80.4671500593118
20
-1.73824926191941
30
0
41
1
10
80.042987395974
20
-1.51357762718075
30
0
41
1
10
79.1976306200478
20
-1.05143167902455
30
0
41
1
10
78.7761213363071
20
-0.81395434646177
30
0
41
1
10
77.9320410967078
20
-0.332068333690899
30
0
41
1
10
77.509475258263
20
-0.0876497901699338
30
0
41
1
10
76.872183624657
20
0.279605962203931
30
0
41
1
10
76.6587982211001
20
0.402322843976634
30
0
41
1
10
76.2324158005215
20
0.646037194348196
30
0
41
1
10
76.0195749410402
20
0.766945220995552
30
0
41
1
10
75.3814022180863
20
1.12564518145797
30
0
41
1
10
74.9564353416755
20
1.35943950874525
30
0
41
1
10
74.3170289494855
20
1.69763089052552
30
0
41
1
10
74.103485935733
20
1.80829302980231
30
0
41
1
10
73.6785298375584
20
2.02304288785962
30
0
41
1
10
73.466710070827
20
2.12734847274405
30
0
41
1
10
72.4098295202775
20
2.63219442831661
30
0
41
1
10
71.5717327955546
20
2.98301113262198
30
0
41
1
10
70.5150657604349
20
3.3323825553002
30
0
41
1
10
70.303304915751
20
3.3978363640442
30
0
41
1
10
69.8786163515562
20
3.51945879294158
30
0
41
1
10
69.6652687527036
20
3.5756763502049
30
0
41
1
10
69.0255138444657
20
3.72862760869148
30
0
41
1
10
68.6003662251524
20
3.80954716495987
30
0
41
1
10
67.962060179168
20
3.89812623015186
30
0
41
1
10
67.7491955562929
20
3.92218588810133
30
0
41
1
10
67.3228494077306
20
3.9591555128128
30
0
41
1
10
67.1092747697842
20
3.97204974609838
30
0
41
1
10
66.7645144001587
20
3.98369431879937
30
0
41
1
10
66.6329353117763
20
3.98597868614371
30
0
41
1
10
66.5014073165042
20
3.98610497193238
30
0
0
SPLINE
5
C9
100
AcDbEntity
8
1
62
256
6
ByLayer
370
18
48
1
60
0
100
AcDbSpline
70
4
71
3
72
52
73
48
40
0
40
0
40
0
40
0
40
0.0176519542980118
40
0.0176519542980118
40
0.0711333727801358
40
0.0711333727801358
40
0.178096209744386
40
0.178096209744386
40
0.204836918985447
40
0.204836918985447
40
0.231577628226508
40
0.231577628226508
40
0.285059046708631
40
0.285059046708631
40
0.338540465190754
40
0.338540465190754
40
0.392021883672877
40
0.392021883672877
40
0.418762592913939
40
0.418762592913939
40
0.445503302155
40
0.445503302155
40
0.498984720637122
40
0.498984720637122
40
0.525725429878182
40
0.525725429878182
40
0.552466139119243
40
0.552466139119243
40
0.605947557601364
40
0.605947557601364
40
0.659428976083486
40
0.659428976083486
40
0.686169685324546
40
0.686169685324546
40
0.712910394565607
40
0.712910394565607
40
0.76639181304773
40
0.76639181304773
40
0.819873231529853
40
0.819873231529853
40
0.873354650011976
40
0.873354650011976
40
0.926836068494099
40
0.926836068494099
40
0.980317486976222
40
0.980317486976222
40
1
40
1
40
1
40
1
41
1
10
46.8644462191454
20
-3.78687483069825
30
0
41
1
10
46.7236949358767
20
-3.81128068791719
30
0
41
1
10
46.5828457209714
20
-3.83335493663802
30
0
41
1
10
46.0146776631483
20
-3.91272241295798
30
0
41
1
10
45.5906954900445
20
-3.94992457510514
30
0
41
1
10
44.3230293745675
20
-3.99490425942591
30
0
41
1
10
43.4835307241066
20
-3.93604942244406
30
0
41
1
10
42.4241456407202
20
-3.75418281918584
30
0
41
1
10
42.2117586422471
20
-3.71239661942616
30
0
41
1
10
41.7854653337363
20
-3.61812658810322
30
0
41
1
10
41.571534331045
20
-3.56558339933227
30
0
41
1
10
40.9318208395254
20
-3.39338679454761
30
0
41
1
10
40.5063145618114
20
-3.25899593078563
30
0
41
1
10
39.6539695566697
20
-2.95427218506634
30
0
41
1
10
39.2261361540174
20
-2.78369112243368
30
0
41
1
10
38.3737098555486
20
-2.41390288907434
30
0
41
1
10
37.9481285928514
20
-2.2147161568565
30
0
41
1
10
37.3083142217787
20
-1.89786278725654
30
0
41
1
10
37.0945244931585
20
-1.7890972947728
30
0
41
1
10
36.667612376913
20
-1.56728349811158
30
0
41
1
10
36.4544493236157
20
-1.45421100711479
30
0
41
1
10
35.8153432219157
20
-1.10933522320877
30
0
41
1
10
35.3896493454873
20
-0.872092029566119
30
0
41
1
10
34.7490473646205
20
-0.509635575824149
30
0
41
1
10
34.535310622516
20
-0.387761536537596
30
0
41
1
10
34.1087690632784
20
-0.143961657222832
30
0
41
1
10
33.8957122670489
20
-0.021874789186711
30
0
41
1
10
33.2566371708761
20
0.343988867351726
30
0
41
1
10
32.8303720139903
20
0.587528110406851
30
0
41
1
10
31.975670584433
20
1.06612038540217
30
0
41
1
10
31.549832591449
20
1.29977742071401
30
0
41
1
10
30.9106289702466
20
1.6373647839217
30
0
41
1
10
30.6974875679666
20
1.74774634667958
30
0
41
1
10
30.2706521814329
20
1.9635475161414
30
0
41
1
10
30.0567584996426
20
2.06909195770456
30
0
41
1
10
29.4164865752515
20
2.37560201041657
30
0
41
1
10
28.9907592347688
20
2.56685715334191
30
0
41
1
10
28.1380514127668
20
2.91857677586424
30
0
41
1
10
27.7101355547461
20
3.07940636947276
30
0
41
1
10
26.8571511075319
20
3.36322239793705
30
0
41
1
10
26.4314142879666
20
3.48638221597926
30
0
41
1
10
25.5781208341393
20
3.69229770348025
30
0
41
1
10
25.1501777605569
20
3.77492155463292
30
0
41
1
10
24.2975546783255
20
3.89582038118058
30
0
41
1
10
23.8716996247889
20
3.93434978487869
30
0
41
1
10
23.2874483935553
20
3.95628682694846
30
0
41
1
10
23.1300475973964
20
3.95912932577832
30
0
41
1
10
22.9727906766846
20
3.9589105230659
30
0
0
SPLINE
5
CA
100
AcDbEntity
8
1
62
256
6
ByLayer
370
18
48
1
60
0
100
AcDbSpline
70
4
71
3
72
12
73
8
40
0
40
0
40
0
40
0
40
0.499999999999993
40
0.499999999999993
40
0.749999999999997
40
0.749999999999997
40
1
40
1
40
1
40
1
41
1
10
86.3315373343778
20
-1.62475925699636
30
0
41
1
10
86.5832712596249
20
-1.86457455635059
30
0
41
1
10
86.8484169622197
20
-2.07938028945
30
0
41
1
10
87.2615074695217
20
-2.37292409118979
30
0
41
1
10
87.4015027865325
20
-2.46573878124789
30
0
41
1
10
87.6835128149056
20
-2.64093960953659
30
0
41
1
10
87.8258531233363
20
-2.72353842512999
30
0
41
1
10
87.969429887886
20
-2.80150585916957
30
0
0
SPLINE
5
CB
100
AcDbEntity
8
1
62
256
6
ByLayer
370
18
48
1
60
0
100
AcDbSpline
70
4
71
3
72
102
73
98
40
0
40
0
40
0
40
0
40
0.0203419494637319
40
0.0203419494637319
40
0.0310476533688168
40
0.0310476533688168
40
0.0417533572739017
40
0.0417533572739017
40
0.0631647650840715
40
0.0631647650840715
40
0.0845761728942412
40
0.0845761728942412
40
0.105987580704411
40
0.105987580704411
40
0.127398988514581
40
0.127398988514581
40
0.148810396324751
40
0.148810396324751
40
0.159516100229836
40
0.159516100229836
40
0.170221804134921
40
0.170221804134921
40
0.191633211945092
40
0.191633211945092
40
0.234456027565433
40
0.234456027565433
40
0.245161731470519
40
0.245161731470519
40
0.255867435375605
40
0.255867435375605
40
0.277278843185777
40
0.277278843185777
40
0.298690250995948
40
0.298690250995948
40
0.309395954901034
40
0.309395954901034
40
0.32010165880612
40
0.32010165880612
40
0.362924474426464
40
0.362924474426464
40
0.384335882236635
40
0.384335882236635
40
0.405747290046807
40
0.405747290046807
40
0.44857010566715
40
0.44857010566715
40
0.459275809572236
40
0.459275809572236
40
0.469981513477322
40
0.469981513477322
40
0.491392921287495
40
0.491392921287495
40
0.512804329097667
40
0.512804329097667
40
0.523510033002752
40
0.523510033002752
40
0.534215736907838
40
0.534215736907838
40
0.577038552528181
40
0.577038552528181
40
0.598449960338353
40
0.598449960338353
40
0.619861368148525
40
0.619861368148525
40
0.66268418376887
40
0.66268418376887
40
0.673389887673956
40
0.673389887673956
40
0.684095591579042
40
0.684095591579042
40
0.705506999389215
40
0.705506999389215
40
0.726918407199387
40
0.726918407199387
40
0.737624111104473
40
0.737624111104473
40
0.748329815009559
40
0.748329815009559
40
0.7911526306299
40
0.7911526306299
40
0.812564038440071
40
0.812564038440071
40
0.833975446250242
40
0.833975446250242
40
0.876798261870583
40
0.876798261870583
40
0.898209669680754
40
0.898209669680754
40
0.919621077490924
40
0.919621077490924
40
0.941032485301095
40
0.941032485301095
40
0.951738189206179
40
0.951738189206179
40
0.962443893111264
40
0.962443893111264
40
1
40
1
40
1
40
1
41
1
10
14.4012059451268
20
1.87731917991479
30
0
41
1
10
14.5993510426719
20
1.97635068383772
30
0
41
1
10
14.7968726670654
20
2.07321342683821
30
0
41
1
10
15.0971271996805
20
2.21814938753718
30
0
41
1
10
15.2002881433119
20
2.26779871729761
30
0
41
1
10
15.4071753089091
20
2.36452009363626
30
0
41
1
10
15.5107272972432
20
2.41185638066796
30
0
41
1
10
15.8217098866634
20
2.55085787437861
30
0
41
1
10
16.0294145019844
20
2.63960821355951
30
0
41
1
10
16.4447745402926
20
2.81045103180273
30
0
41
1
10
16.6525572810386
20
2.89237005855597
30
0
41
1
10
17.0680279656828
20
3.04939648250175
30
0
41
1
10
17.2750427577822
20
3.12522759466375
30
0
41
1
10
17.6917957868975
20
3.2666036853488
30
0
41
1
10
17.9013726459132
20
3.33241289852046
30
0
41
1
10
18.3221579258983
20
3.45516529039728
30
0
41
1
10
18.5321765650769
20
3.51183040200411
30
0
41
1
10
18.8457111158268
20
3.58951994240272
30
0
41
1
10
18.9500197823905
20
3.61421833318036
30
0
41
1
10
19.1581046491474
20
3.66128653206761
30
0
41
1
10
19.2617148988222
20
3.6837630887467
30
0
41
1
10
19.5724055557869
20
3.74716800342827
30
0
41
1
10
19.7798105050013
20
3.78383464775101
30
0
41
1
10
20.4025336496328
20
3.87806850979376
30
0
41
1
10
20.8178058737135
20
3.9203793481295
30
0
41
1
10
21.3352476064734
20
3.94735856103279
30
0
41
1
10
21.4384240954784
20
3.95145834190458
30
0
41
1
10
21.6454832427807
20
3.95687186563146
30
0
41
1
10
21.749247306306
20
3.9582127561867
30
0
41
1
10
22.0612556424612
20
3.95821879265381
30
0
41
1
10
22.2702019062255
20
3.9529003747077
30
0
41
1
10
22.6890892305117
20
3.93156626184384
30
0
41
1
10
22.8996526768317
20
3.91548956903537
30
0
41
1
10
23.2141208652921
20
3.88324002938896
30
0
41
1
10
23.3187105354356
20
3.87116054611875
30
0
41
1
10
23.5269460720262
20
3.84410149517348
30
0
41
1
10
23.6308182315086
20
3.82920095882176
30
0
41
1
10
24.1507959746451
20
3.74883119182164
30
0
41
1
10
24.5670977949929
20
3.66543632698014
30
0
41
1
10
25.1890977603516
20
3.51109053426632
30
0
41
1
10
25.3961048758026
20
3.45477534880774
30
0
41
1
10
25.8086085999205
20
3.33123225316237
30
0
41
1
10
26.0156306430638
20
3.26539131715123
30
0
41
1
10
26.6388154242654
20
3.05608005774676
30
0
41
1
10
27.0564398177353
20
2.90036851252182
30
0
41
1
10
27.5795193612915
20
2.6822332583134
30
0
41
1
10
27.6840663797242
20
2.63705895059084
30
0
41
1
10
27.89336786683
20
2.54536563166314
30
0
41
1
10
27.9980850470589
20
2.49886119843092
30
0
41
1
10
28.3124587884284
20
2.35747354014333
30
0
41
1
10
28.5223640990691
20
2.26077114174848
30
0
41
1
10
28.9418585902455
20
2.06124695341291
30
0
41
1
10
29.1515221427701
20
1.95852261353846
30
0
41
1
10
29.4658015092849
20
1.79978276922299
30
0
41
1
10
29.5705158255949
20
1.74607910361044
30
0
41
1
10
29.779656683924
20
1.63673781111081
30
0
41
1
10
29.8839965145418
20
1.58095068182882
30
0
41
1
10
30.4078477021788
20
1.30177649025023
30
0
41
1
10
30.8283179949474
20
1.07494259034505
30
0
41
1
10
31.4570336431833
20
0.724938772707247
30
0
41
1
10
31.6665233528037
20
0.606949432717101
30
0
41
1
10
32.0838862061279
20
0.365682627678211
30
0
41
1
10
32.2937410160198
20
0.245299728389966
30
0
41
1
10
32.9240303113083
20
-0.113753432925904
30
0
41
1
10
33.3439378996365
20
-0.351215042685339
30
0
41
1
10
33.8665925472931
20
-0.648895563372434
30
0
41
1
10
33.970783031062
20
-0.708868008007755
30
0
41
1
10
34.1795753309587
20
-0.827787734659609
30
0
41
1
10
34.2841805190533
20
-0.886730813420627
30
0
41
1
10
34.5986382439833
20
-1.06199432602617
30
0
41
1
10
34.8093636923648
20
-1.17680871383945
30
0
41
1
10
35.2285799177371
20
-1.40223002137188
30
0
41
1
10
35.4374980161296
20
-1.51291518108641
30
0
41
1
10
35.7497654331223
20
-1.67603677190894
30
0
41
1
10
35.8536550458394
20
-1.72995004916308
30
0
41
1
10
36.0608763218685
20
-1.83708404726593
30
0
41
1
10
36.1640781941749
20
-1.8905016362047
30
0
41
1
10
36.6813983596044
20
-2.15154505402867
30
0
41
1
10
37.0968436556054
20
-2.34549874889777
30
0
41
1
10
37.7192681196168
20
-2.61933683559593
30
0
41
1
10
37.9269325181429
20
-2.7073169077191
30
0
41
1
10
38.3406883996057
20
-2.87890508207437
30
0
41
1
10
38.5484742962401
20
-2.96030366807739
30
0
41
1
10
39.1751106493944
20
-3.19095820986814
30
0
41
1
10
39.5977567427944
20
-3.3283194849509
30
0
41
1
10
40.2229328746261
20
-3.50701922674605
30
0
41
1
10
40.4297677318346
20
-3.56248773453811
30
0
41
1
10
40.8447362148466
20
-3.66173899222778
30
0
41
1
10
41.0524588958147
20
-3.70597022855412
30
0
41
1
10
41.4674845438346
20
-3.7845758035734
30
0
41
1
10
41.6748009947524
20
-3.81891853019673
30
0
41
1
10
41.9854742579727
20
-3.86291063505894
30
0
41
1
10
42.0889653611333
20
-3.8763278758131
30
0
41
1
10
42.295689961409
20
-3.90065862211557
30
0
41
1
10
42.3987187020466
20
-3.91162751387921
30
0
41
1
10
42.8646016024971
20
-3.95466023108341
30
0
41
1
10
43.2300116090099
20
-3.9714225272989
30
0
41
1
10
43.5968602055999
20
-3.97181848267917
30
0
0
SPLINE
5
CC
100
AcDbEntity
8
1
62
256
6
ByLayer
370
18
48
1
60
0
100
AcDbSpline
70
4
71
3
72
104
73
100
40
0
40
0
40
0
40
0
40
0.0075650777391882
40
0.0075650777391882
40
0.0289353381887173
40
0.0289353381887173
40
0.0396204684134815
40
0.0396204684134815
40
0.0503055986382454
40
0.0503055986382454
40
0.0716758590877724
40
0.0716758590877724
40
0.0930461195372994
40
0.0930461195372994
40
0.114416379986827
40
0.114416379986827
40
0.157156900885881
40
0.157156900885881
40
0.178527161335407
40
0.178527161335407
40
0.18921229156017
40
0.18921229156017
40
0.199897421784933
40
0.199897421784933
40
0.242637942683985
40
0.242637942683985
40
0.253323072908748
40
0.253323072908748
40
0.264008203133511
40
0.264008203133511
40
0.285378463583037
40
0.285378463583037
40
0.306748724032563
40
0.306748724032563
40
0.328118984482089
40
0.328118984482089
40
0.349489244931615
40
0.349489244931615
40
0.370859505381141
40
0.370859505381141
40
0.392229765830668
40
0.392229765830668
40
0.413600026280194
40
0.413600026280194
40
0.456340547179245
40
0.456340547179245
40
0.467025677404008
40
0.467025677404008
40
0.477710807628771
40
0.477710807628771
40
0.499081068078296
40
0.499081068078296
40
0.520451328527822
40
0.520451328527822
40
0.541821588977347
40
0.541821588977347
40
0.563191849426872
40
0.563191849426872
40
0.584562109876398
40
0.584562109876398
40
0.605932370325923
40
0.605932370325923
40
0.627302630775449
40
0.627302630775449
40
0.648672891224975
40
0.648672891224975
40
0.6700431516745
40
0.6700431516745
40
0.680728281899263
40
0.680728281899263
40
0.691413412124026
40
0.691413412124026
40
0.712783672573552
40
0.712783672573552
40
0.755524193472603
40
0.755524193472603
40
0.766209323697365
40
0.766209323697365
40
0.776894453922128
40
0.776894453922128
40
0.798264714371654
40
0.798264714371654
40
0.819634974821181
40
0.819634974821181
40
0.841005235270707
40
0.841005235270707
40
0.883745756169758
40
0.883745756169758
40
0.905116016619285
40
0.905116016619285
40
0.926486277068811
40
0.926486277068811
40
0.969226797967864
40
0.969226797967864
40
0.979911928192627
40
0.979911928192627
40
0.99059705841739
40
0.99059705841739
40
1
40
1
40
1
40
1
41
1
10
57.8758190675355
20
1.87578399559175
30
0
41
1
10
57.9498749447971
20
1.91307037950921
30
0
41
1
10
58.024024406449
20
1.95005566947432
30
0
41
1
10
58.3079158477937
20
2.09049465923204
30
0
41
1
10
58.5183469109755
20
2.19197987909339
30
0
41
1
10
58.8325357111486
20
2.33973046657692
30
0
41
1
10
58.9371172483072
20
2.38828687524332
30
0
41
1
10
59.145735888208
20
2.48431814205446
30
0
41
1
10
59.2497394741119
20
2.53182624897971
30
0
41
1
10
59.5626962116265
20
2.67031548516496
30
0
41
1
10
59.7719753139384
20
2.75814818816613
30
0
41
1
10
60.1911774037961
20
2.92590016089133
30
0
41
1
10
60.4009734422927
20
3.00596493557057
30
0
41
1
10
60.8209132285546
20
3.15841412346862
30
0
41
1
10
61.0306328732134
20
3.23057942359307
30
0
41
1
10
61.6558078854969
20
3.43583451368428
30
0
41
1
10
62.0749251880205
20
3.55112992288903
30
0
41
1
10
62.70386109031
20
3.69597895227091
30
0
41
1
10
62.9139110057406
20
3.73946214856213
30
0
41
1
10
63.2279349972808
20
3.79731540481791
30
0
41
1
10
63.3321570342912
20
3.8154643357646
30
0
41
1
10
63.5408157641871
20
3.8488745337913
30
0
41
1
10
63.645244874179
20
3.86415423933852
30
0
41
1
10
64.1679228110378
20
3.93360650444907
30
0
41
1
10
64.5873794090812
20
3.96743979127223
30
0
41
1
10
65.1111923127361
20
3.98313317481572
30
0
41
1
10
65.2159662699903
20
3.98492208959965
30
0
41
1
10
65.4251930570434
20
3.98572453921037
30
0
41
1
10
65.5293991451631
20
3.98471857755337
30
0
41
1
10
65.8428110766075
20
3.97757094476665
30
0
41
1
10
66.0521659381837
20
3.96735015556248
30
0
41
1
10
66.4711032992567
20
3.93636498153768
30
0
41
1
10
66.6805528981304
20
3.91555564686414
30
0
41
1
10
67.0993451042903
20
3.86319344658108
30
0
41
1
10
67.3088201597025
20
3.83173308177598
30
0
41
1
10
67.7263337426912
20
3.75688309843505
30
0
41
1
10
67.9354450084838
20
3.7145362183592
30
0
41
1
10
68.3528883430976
20
3.62091533027302
30
0
41
1
10
68.5613245548514
20
3.56951616108083
30
0
41
1
10
68.9770667443794
20
3.45726538676991
30
0
41
1
10
69.1845236933815
20
3.39654159173901
30
0
41
1
10
69.5980160163897
20
3.26520534570011
30
0
41
1
10
69.8036390501327
20
3.19408543741665
30
0
41
1
10
70.4237500565553
20
2.97132368443798
30
0
41
1
10
70.839169596959
20
2.80834795367593
30
0
41
1
10
71.3588276064403
20
2.58384640499591
30
0
41
1
10
71.4627872852553
20
2.53790329824699
30
0
41
1
10
71.6706435217931
20
2.4437000909256
30
0
41
1
10
71.7743480173122
20
2.39515023476582
30
0
41
1
10
72.0868118645585
20
2.24804482080515
30
0
41
1
10
72.2969366787603
20
2.14717319103829
30
0
41
1
10
72.7157673763714
20
1.94154174944345
30
0
41
1
10
72.924581479304
20
1.8364425538054
30
0
41
1
10
73.3408624016137
20
1.62147548608604
30
0
41
1
10
73.5485587414973
20
1.5119923976244
30
0
41
1
10
73.9612622821003
20
1.28596439176371
30
0
41
1
10
74.1675435815747
20
1.17152701316294
30
0
41
1
10
74.5813552611629
20
0.942268658166967
30
0
41
1
10
74.7885731136659
20
0.826926913980572
30
0
41
1
10
75.2029099763724
20
0.593590934398463
30
0
41
1
10
75.4101709153953
20
0.47584256727859
30
0
41
1
10
75.8244692577432
20
0.237392677496444
30
0
41
1
10
76.0309052537447
20
0.115588210211627
30
0
41
1
10
76.4467412017522
20
-0.12531652824714
30
0
41
1
10
76.6558366951595
20
-0.244937116774082
30
0
41
1
10
77.0755435885528
20
-0.484032838226995
30
0
41
1
10
77.2852636658012
20
-0.603090753933429
30
0
41
1
10
77.598137691142
20
-0.780024878661607
30
0
41
1
10
77.7022119406489
20
-0.838795169433382
30
0
41
1
10
77.9097997469244
20
-0.956131360737487
30
0
41
1
10
78.0131133082818
20
-1.01504291494572
30
0
41
1
10
78.323257211851
20
-1.18961753451038
30
0
41
1
10
78.5302912911159
20
-1.30315356068488
30
0
41
1
10
79.151752099222
20
-1.63635623972149
30
0
41
1
10
79.5660677465478
20
-1.84950202632567
30
0
41
1
10
80.0821214118399
20
-2.10723031871305
30
0
41
1
10
80.1850395776925
20
-2.15862972714484
30
0
41
1
10
80.3916742113148
20
-2.25904418458799
30
0
41
1
10
80.4952240766037
20
-2.30831528886992
30
0
41
1
10
80.8065771765062
20
-2.45334605640491
30
0
41
1
10
81.0150437073659
20
-2.54639528932268
30
0
41
1
10
81.4329342254788
20
-2.72640354243703
30
0
41
1
10
81.6429895159738
20
-2.81339345698365
30
0
41
1
10
82.061320479482
20
-2.97995935520774
30
0
41
1
10
82.2686884806211
20
-3.06024089743184
30
0
41
1
10
82.891456009257
20
-3.28488194994333
30
0
41
1
10
83.3068586589237
20
-3.41450912995796
30
0
41
1
10
83.9274421897785
20
-3.58275481322949
30
0
41
1
10
84.1338384531771
20
-3.63443685576175
30
0
41
1
10
84.5455108394222
20
-3.72871229185867
30
0
41
1
10
84.7521214256046
20
-3.77038696366941
30
0
41
1
10
85.3740143938026
20
-3.8797890327894
30
0
41
1
10
85.7907298375997
20
-3.93248344078123
30
0
41
1
10
86.3126154280777
20
-3.97231763759979
30
0
41
1
10
86.4169374819953
20
-3.97900669523068
30
0
41
1
10
86.6257024394044
20
-3.9894812057407
30
0
41
1
10
86.7300870081432
20
-3.99329617061511
30
0
41
1
10
86.9263510519821
20
-3.99788112754749
30
0
41
1
10
87.0182306357297
20
-3.99896798080025
30
0
41
1
10
87.1100823553516
20
-3.99900890341144
30
0
0
SPLINE
5
CD
100
AcDbEntity
8
1
62
256
6
ByLayer
370
18
48
1
60
0
100
AcDbSpline
70
4
71
3
72
36
73
32
40
0
40
0
40
0
40
0
40
0.0625000000000001
40
0.0625000000000001
40
0.125
40
0.125
40
0.1875
40
0.1875
40
0.25
40
0.25
40
0.375
40
0.375
40
0.4375
40
0.4375
40
0.5
40
0.5
40
0.5625
40
0.5625
40
0.625
40
0.625
40
0.6875
40
0.6875
40
0.75
40
0.75
40
0.8125
40
0.8125
40
0.875
40
0.875
40
0.9375
40
0.9375
40
1
40
1
40
1
40
1
41
1
10
88.8777713253727
20
-1.56862156101832
30
0
41
1
10
88.8738350924826
20
-1.60576548757226
30
0
41
1
10
88.8733186926975
20
-1.64011763204269
30
0
41
1
10
88.8786153654538
20
-1.69915614556768
30
0
41
1
10
88.8844364072467
20
-1.72444277648429
30
0
41
1
10
88.9010262677596
20
-1.76507720709648
30
0
41
1
10
88.9118475823939
20
-1.78072286727615
30
0
41
1
10
88.9372932265598
20
-1.8028925022347
30
0
41
1
10
88.9517512700428
20
-1.80939146720527
30
0
41
1
10
88.9998008307493
20
-1.81653210972524
30
0
41
1
10
89.0371619908317
20
-1.80460395745502
30
0
41
1
10
89.0971333641558
20
-1.76508896513357
30
0
41
1
10
89.117554954456
20
-1.74847244090256
30
0
41
1
10
89.1592686611799
20
-1.70828366409037
30
0
41
1
10
89.1807138040118
20
-1.68449747781679
30
0
41
1
10
89.2233635933899
20
-1.63048130040522
30
0
41
1
10
89.2445139149207
20
-1.6003420828907
30
0
41
1
10
89.2854027373603
20
-1.53479293374735
30
0
41
1
10
89.3055531497777
20
-1.49866580554669
30
0
41
1
10
89.3430226494028
20
-1.42242651853206
30
0
41
1
10
89.3604082467396
20
-1.3822754430829
30
0
41
1
10
89.3912372726523
20
-1.29895540238383
30
0
41
1
10
89.4040922880503
20
-1.25745523407178
30
0
41
1
10
89.424257088684
20
-1.17480122180234
30
0
41
1
10
89.4312012788263
20
-1.13475698987992
30
0
41
1
10
89.4381701988391
20
-1.06122109822266
30
0
41
1
10
89.4381937647797
20
-1.02765241900684
30
0
41
1
10
89.4319494548572
20
-0.969944688532735
30
0
41
1
10
89.4256816614241
20
-0.945532434678285
30
0
41
1
10
89.4082885194052
20
-0.906541502525585
30
0
41
1
10
89.39703824694
20
-0.891666283064382
30
0
41
1
10
89.3840765496554
20
-0.881417680057211
30
0
0
SPLINE
5
CE
100
AcDbEntity
8
1
62
256
6
ByLayer
370
18
48
1
60
0
100
AcDbSpline
70
4
71
3
72
8
73
4
40
0
40
0
40
0
40
0
40
1
40
1
40
1
40
1
41
1
10
88.6063739509422
20
1.00528527229463
30
0
41
1
10
89.0218500121164
20
1.00402361214552
30
0
41
1
10
89.4377003954344
20
1.00197001003934
30
0
41
1
10
89.8517986150975
20
1.00809153214712
30
0
0
SPLINE
5
CF
100
AcDbEntity
8
1
62
256
6
ByLayer
370
18
48
1
60
0
100
AcDbSpline
70
4
71
3
72
10
73
6
40
0
40
0
40
0
40
0
40
0.5
40
0.5
40
1
40
1
40
1
40
1
41
1
10
6.83223833189444
20
2.72588643412456
30
0
41
1
10
6.80593501070337
20
2.73672598444833
30
0
41
1
10
6.78292143343839
20
2.75065340221471
30
0
41
1
10
6.74439890443341
20
2.78376573138826
30
0
41
1
10
6.72958710073311
20
2.80242090525903
30
0
41
1
10
6.719771269099
20
2.82229985738792
30
0
0
SPLINE
5
D0
100
AcDbEntity
8
1
62
256
6
ByLayer
370
18
48
1
60
0
100
AcDbSpline
70
4
71
3
72
8
73
4
40
0
40
0
40
0
40
0
40
1
40
1
40
1
40
1
41
1
10
89.8779122455201
20
-0.21113858656301
30
0
41
1
10
89.4431481443493
20
-1.40564313732364
30
0
41
1
10
89.0083840431786
20
-2.60014768808398
30
0
41
1
10
88.573619942008
20
-3.79465223884429
30
0
0
SPLINE
5
D1
100
AcDbEntity
8
1
62
256
6
ByLayer
370
18
48
1
60
0
100
AcDbSpline
70
4
71
3
72
48
73
44
40
0
40
0
40
0
40
0
40
0.0954653941089414
40
0.0954653941089414
40
0.143198091163412
40
0.143198091163412
40
0.190930788217883
40
0.190930788217883
40
0.286396182326823
40
0.286396182326823
40
0.310262530854059
40
0.310262530854059
40
0.334128879381295
40
0.334128879381295
40
0.381861576435767
40
0.381861576435767
40
0.47732697054471
40
0.47732697054471
40
0.501193319071945
40
0.501193319071945
40
0.52505966759918
40
0.52505966759918
40
0.57279236465365
40
0.57279236465365
40
0.62052506170812
40
0.62052506170812
40
0.66825775876259
40
0.66825775876259
40
0.715990455817061
40
0.715990455817061
40
0.763723152871531
40
0.763723152871531
40
0.787589501398766
40
0.787589501398766
40
0.811455849926002
40
0.811455849926002
40
0.859188546980475
40
0.859188546980475
40
0.954653941089419
40
0.954653941089419
40
0.978520289616656
40
0.978520289616656
40
1
40
1
40
1
40
1
41
1
10
8.74363146723684
20
1.25073440639454
30
0
41
1
10
9.16139038819119
20
1.01863094827004
30
0
41
1
10
9.57957783799736
20
0.787691296599462
30
0
41
1
10
10.204873792902
20
0.438252513752843
30
0
41
1
10
10.4128895185224
20
0.321116548450789
30
0
41
1
10
10.8274245093816
20
0.0843490058308873
30
0
41
1
10
11.0334732453777
20
-0.0361207650945516
30
0
41
1
10
11.6546257725093
20
-0.391895193533912
30
0
41
1
10
12.0710026022052
20
-0.6246696927887
30
0
41
1
10
12.5920408472132
20
-0.914182721549537
30
0
41
1
10
12.6962949705787
20
-0.97198001676901
30
0
41
1
10
12.9047759445372
20
-1.08757639197114
30
0
41
1
10
13.008803767729
20
-1.14572878903874
30
0
41
1
10
13.3219153424944
20
-1.31828781231206
30
0
41
1
10
13.5324332971131
20
-1.43105507041054
30
0
41
1
10
14.1617933747943
20
-1.75993121413123
30
0
41
1
10
14.5794655129578
20
-1.96826875050323
30
0
41
1
10
15.0971271996805
20
-2.21814938753721
30
0
41
1
10
15.2002881433119
20
-2.26779871729764
30
0
41
1
10
15.4071753089091
20
-2.36452009363626
30
0
41
1
10
15.5107272972432
20
-2.41185638066798
30
0
41
1
10
15.8217098866634
20
-2.55085787437864
30
0
41
1
10
16.0294145019844
20
-2.63960821355951
30
0
41
1
10
16.4447745402926
20
-2.81045103180273
30
0
41
1
10
16.6525572810386
20
-2.892370058556
30
0
41
1
10
17.0680279656828
20
-3.04939648250175
30
0
41
1
10
17.2750427577822
20
-3.12522759466378
30
0
41
1
10
17.6917957868975
20
-3.26660368534883
30
0
41
1
10
17.9013726459132
20
-3.33241289852046
30
0
41
1
10
18.3221579258983
20
-3.45516529039728
30
0
41
1
10
18.5321765650769
20
-3.51183040200411
30
0
41
1
10
18.8457111158269
20
-3.58951994240272
30
0
41
1
10
18.9500197823905
20
-3.61421833318036
30
0
41
1
10
19.1581046491474
20
-3.66128653206763
30
0
41
1
10
19.2617148988222
20
-3.6837630887467
30
0
41
1
10
19.5724055557869
20
-3.74716800342827
30
0
41
1
10
19.7798105050014
20
-3.78383464775101
30
0
41
1
10
20.4025336496329
20
-3.87806850979376
30
0
41
1
10
20.8178058737135
20
-3.9203793481295
30
0
41
1
10
21.3352476064734
20
-3.94735856103279
30
0
41
1
10
21.4384240954784
20
-3.95145834190458
30
0
41
1
10
21.6351302711389
20
-3.95660118907188
30
0
41
1
10
21.7284968098881
20
-3.95793091895507
30
0
41
1
10
21.8220563656332
20
-3.95817397123906
30
0
0
SPLINE
5
D2
100
AcDbEntity
8
1
62
256
6
ByLayer
370
18
48
1
60
0
100
AcDbSpline
70
4
71
3
72
102
73
98
40
0
40
0
40
0
40
0
40
0.0035084765791135
40
0.0035084765791135
40
0.0462928944351833
40
0.0462928944351833
40
0.0676851033632177
40
0.0676851033632177
40
0.089077312291252
40
0.089077312291252
40
0.131861730147322
40
0.131861730147322
40
0.153253939075356
40
0.153253939075356
40
0.174646148003391
40
0.174646148003391
40
0.196038356931425
40
0.196038356931425
40
0.206734461395442
40
0.206734461395442
40
0.217430565859459
40
0.217430565859459
40
0.260214983715526
40
0.260214983715526
40
0.281607192643559
40
0.281607192643559
40
0.292303297107576
40
0.292303297107576
40
0.302999401571592
40
0.302999401571592
40
0.345783819427661
40
0.345783819427661
40
0.367176028355696
40
0.367176028355696
40
0.38856823728373
40
0.38856823728373
40
0.409960446211764
40
0.409960446211764
40
0.420656550675782
40
0.420656550675782
40
0.4313526551398
40
0.4313526551398
40
0.452744864067834
40
0.452744864067834
40
0.474137072995868
40
0.474137072995868
40
0.495529281923903
40
0.495529281923903
40
0.50622538638792
40
0.50622538638792
40
0.516921490851937
40
0.516921490851937
40
0.559705908708006
40
0.559705908708006
40
0.570402013172023
40
0.570402013172023
40
0.58109811763604
40
0.58109811763604
40
0.602490326564073
40
0.602490326564073
40
0.645274744420137
40
0.645274744420137
40
0.688059162276201
40
0.688059162276201
40
0.709451371204234
40
0.709451371204234
40
0.72014747566825
40
0.72014747566825
40
0.730843580132266
40
0.730843580132266
40
0.752235789060298
40
0.752235789060298
40
0.77362799798833
40
0.77362799798833
40
0.784324102452346
40
0.784324102452346
40
0.795020206916362
40
0.795020206916362
40
0.816412415844395
40
0.816412415844395
40
0.837804624772427
40
0.837804624772427
40
0.859196833700459
40
0.859196833700459
40
0.901981251556523
40
0.901981251556523
40
0.923373460484555
40
0.923373460484555
40
0.934069564948571
40
0.934069564948571
40
0.944765669412587
40
0.944765669412587
40
0.987550087268651
40
0.987550087268651
40
0.998246191732667
40
0.998246191732667
40
1
40
1
40
1
40
1
41
1
10
36.1657900824952
20
1.89098189644093
30
0
41
1
10
36.199695042949
20
1.90832984658266
30
0
41
1
10
36.2336045317117
20
1.92558511833479
30
0
41
1
10
36.6813983596045
20
2.15154505402873
30
0
41
1
10
37.0968436556055
20
2.3454987488978
30
0
41
1
10
37.7192681196168
20
2.61933683559596
30
0
41
1
10
37.926932518143
20
2.70731690771919
30
0
41
1
10
38.3406883996058
20
2.87890508207437
30
0
41
1
10
38.5484742962402
20
2.96030366807744
30
0
41
1
10
39.1751106493945
20
3.19095820986817
30
0
41
1
10
39.5977567427945
20
3.32831948495095
30
0
41
1
10
40.2229328746262
20
3.50701922674611
30
0
41
1
10
40.4297677318347
20
3.56248773453814
30
0
41
1
10
40.8447362148467
20
3.66173899222781
30
0
41
1
10
41.0524588958148
20
3.70597022855415
30
0
41
1
10
41.4674845438347
20
3.7845758035734
30
0
41
1
10
41.6748009947525
20
3.81891853019675
30
0
41
1
10
41.9854742579729
20
3.86291063505897
30
0
41
1
10
42.0889653611334
20
3.87632787581313
30
0
41
1
10
42.2956899614091
20
3.9006586221156
30
0
41
1
10
42.3987187020467
20
3.91162751387924
30
0
41
1
10
42.9154424122254
20
3.95935629995682
30
0
41
1
10
43.3325551779485
20
3.97579496526208
30
0
41
1
10
43.9606378942299
20
3.968633218805
30
0
41
1
10
44.1711694616371
20
3.96085729284641
30
0
41
1
10
44.4842428379724
20
3.94073138816162
30
0
41
1
10
44.5882518582578
20
3.93260672781503
30
0
41
1
10
44.7965395441315
20
3.91381993634806
30
0
41
1
10
44.9006805832083
20
3.90313102752907
30
0
41
1
10
45.4213526768725
20
3.84340730095607
30
0
41
1
10
45.8372093364817
20
3.77561287881619
30
0
41
1
10
46.4578326678335
20
3.64294853773288
30
0
41
1
10
46.6635554828466
20
3.59298054657313
30
0
41
1
10
47.0770609025089
20
3.48468665509077
30
0
41
1
10
47.284574027387
20
3.42626900221217
30
0
41
1
10
47.7002958673873
20
3.30039325139526
30
0
41
1
10
47.9084513034118
20
3.23286345547496
30
0
41
1
10
48.221171270094
20
3.12455741619115
30
0
41
1
10
48.3254831095795
20
3.08727658787922
30
0
41
1
10
48.5341315189783
20
3.01015023025016
30
0
41
1
10
48.6382832020258
20
2.97007113721199
30
0
41
1
10
48.9516599198197
20
2.84693058506349
30
0
41
1
10
49.1615551650923
20
2.76144236648605
30
0
41
1
10
49.5798080714573
20
2.58500511700476
30
0
41
1
10
49.7884853909993
20
2.49366678105233
30
0
41
1
10
50.2046321000307
20
2.30438230103863
30
0
41
1
10
50.4122326801463
20
2.20663084212813
30
0
41
1
10
50.722303766411
20
2.05433352860223
30
0
41
1
10
50.8252564051288
20
2.0023344472817
30
0
41
1
10
51.0317404344358
20
1.89799255282213
30
0
41
1
10
51.1351078390932
20
1.84540409923247
30
0
41
1
10
51.6525902105168
20
1.58048124064194
30
0
41
1
10
52.0680714700156
20
1.36144672615902
30
0
41
1
10
52.5874187127329
20
1.07550264048192
30
0
41
1
10
52.6913445630403
20
1.01779860452703
30
0
41
1
10
52.8987537513756
20
0.900335276930718
30
0
41
1
10
53.0025989999369
20
0.841209247604922
30
0
41
1
10
53.315244454735
20
0.66390038767554
30
0
41
1
10
53.5254037933177
20
0.545180526967471
30
0
41
1
10
54.1552483181121
20
0.188297509876264
30
0
41
1
10
54.5724277769273
20
-0.0499178038363652
30
0
41
1
10
55.3989402289366
20
-0.531112112123139
30
0
41
1
10
55.8138773816163
20
-0.76408941772209
30
0
41
1
10
56.4356508733252
20
-1.10804277130191
30
0
41
1
10
56.6429470492968
20
-1.22151296430547
30
0
41
1
10
56.9534398666154
20
-1.39075619866054
30
0
41
1
10
57.0566467617115
20
-1.44736883546787
30
0
41
1
10
57.2636685983147
20
-1.55898333660474
30
0
41
1
10
57.3674323523141
20
-1.6140740714628
30
0
41
1
10
57.6794947722707
20
-1.77719274242423
30
0
41
1
10
57.8885784962579
20
-1.88305158261653
30
0
41
1
10
58.3079158477939
20
-2.09049465923218
30
0
41
1
10
58.5183469109757
20
-2.19197987909351
30
0
41
1
10
58.8325357111489
20
-2.33973046657701
30
0
41
1
10
58.9371172483075
20
-2.38828687524341
30
0
41
1
10
59.1457358882082
20
-2.48431814205461
30
0
41
1
10
59.2497394741121
20
-2.5318262489798
30
0
41
1
10
59.5626962116268
20
-2.67031548516508
30
0
41
1
10
59.7719753139386
20
-2.75814818816627
30
0
41
1
10
60.1911774037964
20
-2.92590016089142
30
0
41
1
10
60.4009734422929
20
-3.00596493557066
30
0
41
1
10
60.8209132285548
20
-3.15841412346873
30
0
41
1
10
61.0306328732137
20
-3.23057942359316
30
0
41
1
10
61.6558078854971
20
-3.43583451368437
30
0
41
1
10
62.0749251880209
20
-3.55112992288909
30
0
41
1
10
62.7038610903103
20
-3.69597895227096
30
0
41
1
10
62.9139110057408
20
-3.73946214856218
30
0
41
1
10
63.2279349972811
20
-3.79731540481797
30
0
41
1
10
63.3321570342914
20
-3.81546433576463
30
0
41
1
10
63.5408157641874
20
-3.84887453379133
30
0
41
1
10
63.6452448741792
20
-3.86415423933855
30
0
41
1
10
64.167922811038
20
-3.9336065044491
30
0
41
1
10
64.5873794090815
20
-3.96743979127226
30
0
41
1
10
65.1111923127364
20
-3.98313317481572
30
0
41
1
10
65.2159662699905
20
-3.98492208959965
30
0
41
1
10
65.3377328088569
20
-3.98538910203666
30
0
41
1
10
65.3548750037173
20
-3.98541705720649
30
0
41
1
10
65.3720092098521
20
-3.98540731482493
30
0
0
SPLINE
5
D3
100
AcDbEntity
8
1
62
256
6
ByLayer
370
18
48
1
60
0
100
AcDbSpline
70
4
71
3
72
38
73
34
40
0
40
0
40
0
40
0
40
0.0354157116033852
40
0.0354157116033852
40
0.0698651504746919
40
0.0698651504746919
40
0.104314589346
40
0.104314589346
40
0.173213467088615
40
0.173213467088615
40
0.242112344831229
40
0.242112344831229
40
0.311011222573845
40
0.311011222573845
40
0.448808978059075
40
0.448808978059075
40
0.517707855801692
40
0.517707855801692
40
0.586606733544309
40
0.586606733544309
40
0.724404489029542
40
0.724404489029542
40
0.758853927900851
40
0.758853927900851
40
0.793303366772159
40
0.793303366772159
40
0.862202244514773
40
0.862202244514773
40
0.931101122257387
40
0.931101122257387
40
0.965550561128693
40
0.965550561128693
40
1
40
1
40
1
40
1
41
1
10
79.6603269059963
20
1.89529601250396
30
0
41
1
10
79.7666020138036
20
1.9492417805433
30
0
41
1
10
79.87280498661
20
2.0026931969534
30
0
41
1
10
80.0821214118403
20
2.10723031871328
30
0
41
1
10
80.1850395776927
20
2.15862972714501
30
0
41
1
10
80.3916742113151
20
2.25904418458816
30
0
41
1
10
80.495224076604
20
2.30831528887009
30
0
41
1
10
80.8065771765066
20
2.45334605640508
30
0
41
1
10
81.0150437073662
20
2.54639528932285
30
0
41
1
10
81.4329342254791
20
2.7264035424372
30
0
41
1
10
81.6429895159741
20
2.81339345698382
30
0
41
1
10
82.0613204794824
20
2.97995935520788
30
0
41
1
10
82.2686884806216
20
3.06024089743198
30
0
41
1
10
82.8914560092573
20
3.28488194994347
30
0
41
1
10
83.306858658924
20
3.41450912995805
30
0
41
1
10
83.9274421897789
20
3.58275481322957
30
0
41
1
10
84.1338384531775
20
3.63443685576183
30
0
41
1
10
84.5455108394225
20
3.72871229185876
30
0
41
1
10
84.752121425605
20
3.7703869636695
30
0
41
1
10
85.374014393803
20
3.87978903278943
30
0
41
1
10
85.7907298376
20
3.93248344078126
30
0
41
1
10
86.312615428078
20
3.97231763759982
30
0
41
1
10
86.4169374819957
20
3.97900669523071
30
0
41
1
10
86.6257024394049
20
3.9894812057407
30
0
41
1
10
86.7300870081436
20
3.99329617061514
30
0
41
1
10
87.0432738914294
20
4.00061258142355
30
0
41
1
10
87.2521228308709
20
4.00001862872841
30
0
41
1
10
87.669019674036
20
3.98820149628918
30
0
41
1
10
87.8771503761697
20
3.97696421415154
30
0
41
1
10
88.1887626219565
20
3.9520128352859
30
0
41
1
10
88.2925314662137
20
3.9423453790169
30
0
41
1
10
88.4996405721836
20
3.92017495818868
30
0
41
1
10
88.6029281911862
20
3.90763555255381
30
0
41
1
10
88.706576269907
20
3.89387422176068
30
0
0
SPLINE
5
D4
100
AcDbEntity
8
1
62
256
6
ByLayer
370
18
48
1
60
0
100
AcDbSpline
70
4
71
3
72
8
73
4
40
0
40
0
40
0
40
0
40
1
40
1
40
1
40
1
41
1
10
89.8517986150974
20
-1.00809153214718
30
0
41
1
10
89.8992796267716
20
-0.71771509428703
30
0
41
1
10
89.941324140641
20
-0.427377486145616
30
0
41
1
10
89.9778959957013
20
-0.13707896599982
30
0
0
SPLINE
5
D5
100
AcDbEntity
8
1
62
256
6
ByLayer
370
18
48
1
60
0
100
AcDbSpline
70
4
71
3
72
8
73
4
40
0
40
0
40
0
40
0
40
1
40
1
40
1
40
1
41
1
10
6.71977126909928
20
2.82229985739338
30
0
41
1
10
6.71412910147149
20
2.83372633498007
30
0
41
1
10
6.71116840954917
20
2.84550136772461
30
0
41
1
10
6.71116801214677
20
2.85743919707946
30
0
0
SPLINE
5
D6
100
AcDbEntity
8
1
62
256
6
ByLayer
370
18
48
1
60
0
100
AcDbSpline
70
4
71
3
72
8
73
4
40
0
40
0
40
0
40
0
40
1
40
1
40
1
40
1
41
1
10
8.74363146723687
20
3.65149182094927
30
0
41
1
10
8.49837994481669
20
3.71348922612901
30
0
41
1
10
8.26693501292101
20
3.74778167071889
30
0
41
1
10
8.04658263692627
20
3.7486890506355
30
0
0
SPLINE
5
D7
100
AcDbEntity
8
1
62
256
6
ByLayer
370
18
48
1
60
0
100
AcDbSpline
70
4
71
3
72
14
73
10
40
0
40
0
40
0
40
0
40
0.142005230854076
40
0.142005230854076
40
0.284010461708152
40
0.284010461708152
40
0.568020923416304
40
0.568020923416304
40
1
40
1
40
1
40
1
41
1
10
88.6181684484355
20
-3.79866064016599
30
0
41
1
10
88.404246211426
20
-3.8016853718768
30
0
41
1
10
88.1903952167738
20
-3.7992225868382
30
0
41
1
10
87.7624898397571
20
-3.78339106856927
30
0
41
1
10
87.5481019828278
20
-3.76998937577642
30
0
41
1
10
86.9067453829496
20
-3.71376526521024
30
0
41
1
10
86.4821424456723
20
-3.65509841116383
30
0
41
1
10
85.4150093424309
20
-3.45737548653747
30
0
41
1
10
84.7741690841038
20
-3.29224885366293
30
0
41
1
10
84.1307052009844
20
-3.08631791289235
30
0
0
SPLINE
5
D8
100
AcDbEntity
8
1
62
256
6
ByLayer
370
13
48
1
60
0
100
AcDbSpline
70
4
71
3
72
24
73
20
40
0
40
0
40
0
40
0
40
0.060297394306075
40
0.060297394306075
40
0.123237966869477
40
0.123237966869477
40
0.186178539432878
40
0.186178539432878
40
0.312059684559682
40
0.312059684559682
40
0.563821974813293
40
0.563821974813293
40
0.626762547376695
40
0.626762547376695
40
0.689703119940098
40
0.689703119940098
40
0.815584265066903
40
0.815584265066903
40
1
40
1
40
1
40
1
41
1
10
84.1307047512844
20
-3.08631776897263
30
0
41
1
10
83.9280607919182
20
-3.02146461083621
30
0
41
1
10
83.72515662439
20
-2.95256452937991
30
0
41
1
10
83.3095633555838
20
-2.80379392887238
30
0
41
1
10
83.0968306598159
20
-2.72356894817466
30
0
41
1
10
82.6699735148226
20
-2.55506263736382
30
0
41
1
10
82.4554134815839
20
-2.46659383901363
30
0
41
1
10
81.8148948351869
20
-2.19237272486808
30
0
41
1
10
81.3906595344401
20
-1.99725382172548
30
0
41
1
10
80.1211941656279
20
-1.38374987133599
30
0
41
1
10
79.2795332066756
20
-0.936722083437132
30
0
41
1
10
78.2169597262728
20
-0.358946527536034
30
0
41
1
10
78.0039121574891
20
-0.24245319642688
30
0
41
1
10
77.5763440855418
20
-0.0083241373727105
30
0
41
1
10
77.3618860318578
20
0.109286431001607
30
0
41
1
10
76.721991860659
20
0.459229942550905
30
0
41
1
10
76.2979098767989
20
0.689778311938738
30
0
41
1
10
75.2547063021946
20
1.24417258059216
30
0
41
1
10
74.6366151704227
20
1.5616139966952
30
0
41
1
10
74.015273514799
20
1.85798114297867
30
0
0
SPLINE
5
D9
100
AcDbEntity
8
1
62
256
6
ByLayer
370
18
48
1
60
0
100
AcDbSpline
70
4
71
3
72
12
73
8
40
0
40
0
40
0
40
0
40
0.544885630625801
40
0.544885630625801
40
0.857677803326261
40
0.857677803326261
40
1
40
1
40
1
40
1
41
1
10
44.9261061260354
20
-3.77256603249287
30
0
41
1
10
44.183244770882
20
-3.77144474442753
30
0
41
1
10
43.4458842949559
20
-3.70505595334839
30
0
41
1
10
42.280406733218
20
-3.50328573327826
30
0
41
1
10
41.8542764763172
20
-3.40924557506884
30
0
41
1
10
41.2304491182088
20
-3.24386884398442
30
0
41
1
10
41.0354576071652
20
-3.18821970248837
30
0
41
1
10
40.8411339532735
20
-3.1290996316242
30
0
0
SPLINE
5
DA
100
AcDbEntity
8
1
62
256
6
ByLayer
370
13
48
1
60
0
100
AcDbSpline
70
4
71
3
72
26
73
22
40
0
40
0
40
0
40
0
40
0.0055541768502955
40
0.0055541768502955
40
0.0672749622049318
40
0.0672749622049318
40
0.314158103623479
40
0.314158103623479
40
0.375878888978117
40
0.375878888978117
40
0.437599674332755
40
0.437599674332755
40
0.561041245042034
40
0.561041245042034
40
0.807924386460593
40
0.807924386460593
40
0.869645171815235
40
0.869645171815235
40
0.931365957169877
40
0.931365957169877
40
1
40
1
40
1
40
1
41
1
10
40.841133953171
20
-3.12909963159299
30
0
41
1
10
40.8219177681665
20
-3.12325339416137
30
0
41
1
10
40.8027081139649
20
-3.11737321540548
30
0
41
1
10
40.5701170649233
20
-3.04574385272846
30
0
41
1
10
40.3573066845729
20
-2.97579997725285
30
0
41
1
10
39.2953072154214
20
-2.6062098135184
30
0
41
1
10
38.451707604105
20
-2.2472557529515
30
0
41
1
10
37.3889537606963
20
-1.74234899764573
30
0
41
1
10
37.176010445255
20
-1.63851723424386
30
0
41
1
10
36.7487878347945
20
-1.42599649514651
30
0
41
1
10
36.5339917106497
20
-1.31704024993519
30
0
41
1
10
35.8915336832657
20
-0.985745642971835
30
0
41
1
10
35.4660612976617
20
-0.759489874893831
30
0
41
1
10
34.1932292787361
20
-0.073762818930561
30
0
41
1
10
33.3494006420863
20
0.392566106739281
30
0
41
1
10
32.2844435623319
20
0.956780061487933
30
0
41
1
10
32.0709446984864
20
1.06869004664139
30
0
41
1
10
31.6425118282278
20
1.28985551707609
30
0
41
1
10
31.4277525381917
20
1.39900598790169
30
0
41
1
10
30.9765505034059
20
1.62373047748349
30
0
41
1
10
30.7397491497238
20
1.73895743050818
30
0
41
1
10
30.5034433191584
20
1.8507139383417
30
0
0
SPLINE
5
DB
100
AcDbEntity
8
1
62
256
6
ByLayer
370
18
48
1
60
0
100
AcDbSpline
70
4
71
3
72
8
73
4
40
0
40
0
40
0
40
0
40
1
40
1
40
1
40
1
41
1
10
88.5586550765225
20
3.99546755762682
30
0
41
1
10
88.4498292743511
20
3.9983670848743
30
0
41
1
10
88.3409598949115
20
3.9997772253023
30
0
41
1
10
88.2320496803375
20
3.99970039349125
30
0
0
SPLINE
5
DC
100
AcDbEntity
8
1
62
256
6
ByLayer
370
18
48
1
60
0
100
AcDbSpline
70
4
71
3
72
56
73
52
40
0
40
0
40
0
40
0
40
0.0195072323865617
40
0.0195072323865617
40
0.0462295947647174
40
0.0462295947647174
40
0.0729519571428729
40
0.0729519571428729
40
0.126396681899183
40
0.126396681899183
40
0.179841406655493
40
0.179841406655493
40
0.206563769033647
40
0.206563769033647
40
0.233286131411801
40
0.233286131411801
40
0.28673085616811
40
0.28673085616811
40
0.313453218546263
40
0.313453218546263
40
0.340175580924417
40
0.340175580924417
40
0.393620305680724
40
0.393620305680724
40
0.447065030437031
40
0.447065030437031
40
0.500509755193339
40
0.500509755193339
40
0.527232117571492
40
0.527232117571492
40
0.553954479949646
40
0.553954479949646
40
0.607399204705953
40
0.607399204705953
40
0.66084392946226
40
0.66084392946226
40
0.687566291840414
40
0.687566291840414
40
0.714288654218567
40
0.714288654218567
40
0.767733378974876
40
0.767733378974876
40
0.79445574135303
40
0.79445574135303
40
0.821178103731185
40
0.821178103731185
40
0.874622828487494
40
0.874622828487494
40
0.98151227800011
40
0.98151227800011
40
1
40
1
40
1
40
1
41
1
10
68.6066430327114
20
-3.80119106850273
30
0
41
1
10
68.4512784246399
20
-3.82812292260456
30
0
41
1
10
68.2958341682198
20
-3.8521942963954
30
0
41
1
10
67.927061624343
20
-3.90233890555373
30
0
41
1
10
67.7134420294391
20
-3.9258587836907
30
0
41
1
10
67.2872774637532
20
-3.96156286887901
30
0
41
1
10
67.0744872525208
20
-3.97378488017009
30
0
41
1
10
66.4361767912721
20
-3.9935157021136
30
0
41
1
10
66.0109286030406
20
-3.98410150133819
30
0
41
1
10
65.1570835464058
20
-3.91999464140929
30
0
41
1
10
64.7315488701362
20
-3.86545658112982
30
0
41
1
10
64.093191065856
20
-3.75150586688562
30
0
41
1
10
63.8803688762899
20
-3.70815787204626
30
0
41
1
10
63.4542748581602
20
-3.61091181497002
30
0
41
1
10
63.240706550395
20
-3.55694759619652
30
0
41
1
10
62.6008368975049
20
-3.38043495226123
30
0
41
1
10
62.1756791971985
20
-3.24314805351017
30
0
41
1
10
61.5371509257202
20
-3.01080433188918
30
0
41
1
10
61.3241596495726
20
-2.92897835776117
30
0
41
1
10
60.8975440036801
20
-2.75690800073329
30
0
41
1
10
60.6839821272921
20
-2.6666778281535
30
0
41
1
10
60.0447615858124
20
-2.38578732070576
30
0
41
1
10
59.6196089369102
20
-2.18435320517051
30
0
41
1
10
58.767629697403
20
-1.75842893806652
30
0
41
1
10
58.3401868351547
20
-1.53348057829555
30
0
41
1
10
57.4884340983942
20
-1.07050469089211
30
0
41
1
10
57.0632062843297
20
-0.831998886834384
30
0
41
1
10
56.4236091705756
20
-0.468316509518587
30
0
41
1
10
56.2098688085419
20
-0.346010236768024
30
0
41
1
10
55.7833907092173
20
-0.101236191209182
30
0
41
1
10
55.5704720866258
20
0.0213240038923175
30
0
41
1
10
54.9318572714481
20
0.388092425799897
30
0
41
1
10
54.5064041823624
20
0.63156745237788
30
0
41
1
10
53.652458587406
20
1.11013272774295
30
0
41
1
10
53.2263967392406
20
1.34402906347066
30
0
41
1
10
52.5877754294749
20
1.68097388991993
30
0
41
1
10
52.3748861446811
20
1.79105571843917
30
0
41
1
10
51.9486799650262
20
2.00611042501345
30
0
41
1
10
51.7350992299123
20
2.11117422023139
30
0
41
1
10
51.094774557631
20
2.41648829854927
30
0
41
1
10
50.6693751709581
20
2.60680773263059
30
0
41
1
10
50.0305885668748
20
2.86865840318626
30
0
41
1
10
49.8175365114182
20
2.95199750048383
30
0
41
1
10
49.3908261768405
20
3.11031514644446
30
0
41
1
10
49.1770573875636
20
3.18531107913157
30
0
41
1
10
48.5389437815342
20
3.39529954437077
30
0
41
1
10
48.1161608965584
20
3.51588976603298
30
0
41
1
10
46.8506464594449
20
3.81661171889266
30
0
41
1
10
46.0106284871501
20
3.93556071467017
30
0
41
1
10
45.0134397341608
20
3.97031131693146
30
0
41
1
10
44.8659149267154
20
3.97275754744712
30
0
41
1
10
44.7182570023705
20
3.97249634422315
30
0
0
SPLINE
5
DD
100
AcDbEntity
8
1
62
256
6
ByLayer
370
18
48
1
60
0
100
AcDbSpline
70
4
71
3
72
36
73
32
40
0
40
0
40
0
40
0
40
0.0221413849161956
40
0.0221413849161956
40
0.0570649068834748
40
0.0570649068834748
40
0.091988428850754
40
0.091988428850754
40
0.161835472785311
40
0.161835472785311
40
0.301529560654426
40
0.301529560654426
40
0.371376604588983
40
0.371376604588983
40
0.441223648523541
40
0.441223648523541
40
0.476147170490819
40
0.476147170490819
40
0.511070692458098
40
0.511070692458098
40
0.580917736392655
40
0.580917736392655
40
0.615841258359934
40
0.615841258359934
40
0.650764780327214
40
0.650764780327214
40
0.72061182426177
40
0.72061182426177
40
0.860305912130885
40
0.860305912130885
40
1
40
1
40
1
40
1
41
1
10
25.1272825755411
20
-3.77169701393476
30
0
41
1
10
24.9921524321024
20
-3.79518157183611
30
0
41
1
10
24.8570645750958
20
-3.81650434788335
30
0
41
1
10
24.5088732544129
20
-3.86582360327247
30
0
41
1
10
24.2957359729854
20
-3.89055579832822
30
0
41
1
10
23.8688829171663
20
-3.92890936324577
30
0
41
1
10
23.6548008583576
20
-3.94254752918567
30
0
41
1
10
23.0150250011761
20
-3.96640683604477
30
0
41
1
10
22.591354956149
20
-3.95970743486035
30
0
41
1
10
21.323851187803
20
-3.87396342148719
30
0
41
1
10
20.4833595600729
20
-3.72924592032319
30
0
41
1
10
19.2087633745695
20
-3.38983719156698
30
0
41
1
10
18.7802894266761
20
-3.25571910969029
30
0
41
1
10
17.9270857817124
20
-2.95309938412316
30
0
41
1
10
17.5012527855942
20
-2.78440846298329
30
0
41
1
10
16.8609991125177
20
-2.50848277778579
30
0
41
1
10
16.6470527133076
20
-2.41257471947912
30
0
41
1
10
16.2196894126749
20
-2.21444924228152
30
0
41
1
10
16.0063318983829
20
-2.11226717452666
30
0
41
1
10
15.366632120391
20
-1.79730227971513
30
0
41
1
10
14.9407744048948
20
-1.57591455450216
30
0
41
1
10
14.2998106213067
20
-1.23153479290872
30
0
41
1
10
14.0857962695342
20
-1.11468533138279
30
0
41
1
10
13.6587789287259
20
-0.878809742149059
30
0
41
1
10
13.4454954496542
20
-0.759653958626927
30
0
41
1
10
12.805780805162
20
-0.399475776002845
30
0
41
1
10
12.3796420378492
20
-0.155201081662057
30
0
41
1
10
11.0964282037637
20
0.577611718053134
30
0
41
1
10
10.2475379463077
20
1.05901309201448
30
0
41
1
10
8.53608719309528
20
1.9612861779155
30
0
41
1
10
7.68752116165828
20
2.3734259517793
30
0
41
1
10
6.83223833189476
20
2.72588643412442
30
0
0
SPLINE
5
DE
100
AcDbEntity
8
1
62
256
6
ByLayer
370
18
48
1
60
0
100
AcDbSpline
70
4
71
3
72
8
73
4
40
0
40
0
40
0
40
0
40
1
40
1
40
1
40
1
41
1
10
89.8517986150973
20
1.00809153214712
30
0
41
1
10
89.8992804409631
20
0.717710114990354
30
0
41
1
10
89.9413247691311
20
0.427372497343754
30
0
41
1
10
89.9778959957013
20
0.13707896599982
30
0
0
SPLINE
5
DF
100
AcDbEntity
8
1
62
256
6
ByLayer
370
18
48
1
60
0
100
AcDbSpline
70
4
71
3
72
8
73
4
40
0
40
0
40
0
40
0
40
1
40
1
40
1
40
1
41
1
10
89.9999638580062
20
0.0340606179035206
30
0
41
1
10
90.0000120473011
20
0.0113535533372158
30
0
41
1
10
90.0000120473011
20
-0.0113535533270408
30
0
41
1
10
89.9999638580063
20
-0.0340606178933456
30
0
0
SPLINE
5
E0
100
AcDbEntity
8
1
62
256
6
ByLayer
370
18
48
1
60
0
100
AcDbSpline
70
4
71
3
72
20
73
16
40
0
40
0
40
0
40
0
40
0.211005829221737
40
0.211005829221737
40
0.422011658443473
40
0.422011658443473
40
0.527514573054342
40
0.527514573054342
40
0.63301748766521
40
0.63301748766521
40
0.844023316886948
40
0.844023316886948
40
0.949526231497816
40
0.949526231497816
40
1
40
1
40
1
40
1
41
1
10
6.71116801214677
20
2.85743919708685
30
0
41
1
10
6.71116311705254
20
3.00448566285385
30
0
41
1
10
6.71115651988464
20
3.13935731577123
30
0
41
1
10
6.71114154794515
20
3.37793919151147
30
0
41
1
10
6.71113315706327
20
3.48251220287949
30
0
41
1
10
6.71112014067418
20
3.61736138540331
30
0
41
1
10
6.7111157292419
20
3.65862549757279
30
0
41
1
10
6.7111069103911
20
3.73357578413896
30
0
41
1
10
6.71110252724176
20
3.76703219603425
30
0
41
1
10
6.71108982403732
20
3.85438994514112
30
0
41
1
10
6.71108189013754
20
3.89591430600092
30
0
41
1
10
6.71107150583612
20
3.93339806706092
30
0
41
1
10
6.71106829596332
20
3.94173922932865
30
0
41
1
10
6.71106400349666
20
3.94778333300457
30
0
41
1
10
6.71106268486949
20
3.94875419211994
30
0
41
1
10
6.71106144603266
20
3.9487440173703
30
0
0
SPLINE
5
E1
100
AcDbEntity
8
1
62
256
6
ByLayer
370
18
48
1
60
0
100
AcDbSpline
70
4
71
3
72
8
73
4
40
0
40
0
40
0
40
0
40
1
40
1
40
1
40
1
41
1
10
89.9696241225855
20
-0.0394975181853852
30
0
41
1
10
89.9389370357366
20
-0.0966073169881838
30
0
41
1
10
89.9083662089769
20
-0.153821207786677
30
0
41
1
10
89.8779122455096
20
-0.21113858658893
30
0
0
SPLINE
5
E2
100
AcDbEntity
8
1
62
256
6
ByLayer
370
18
48
1
60
0
100
AcDbSpline
70
4
71
3
72
26
73
22
40
0
40
0
40
0
40
0
40
0.124999999999993
40
0.124999999999993
40
0.18749999999999
40
0.18749999999999
40
0.249999999999986
40
0.249999999999986
40
0.312499999999982
40
0.312499999999982
40
0.374999999999979
40
0.374999999999979
40
0.437499999999975
40
0.437499999999975
40
0.499999999999972
40
0.499999999999972
40
0.624999999999979
40
0.624999999999979
40
0.749999999999986
40
0.749999999999986
40
1
40
1
40
1
40
1
41
1
10
88.8777713253525
20
-1.56862156101889
30
0
41
1
10
88.8177713704686
20
-1.52697684231148
30
0
41
1
10
88.7596589500644
20
-1.48124788649443
30
0
41
1
10
88.6772702627165
20
-1.40231163685164
30
0
41
1
10
88.6509957467243
20
-1.37458235716065
30
0
41
1
10
88.6019974126626
20
-1.31529730570759
30
0
41
1
10
88.5791825426899
20
-1.28379197100773
30
0
41
1
10
88.5395307754029
20
-1.21416974751369
30
0
41
1
10
88.5230808087818
20
-1.1761881688
30
0
41
1
10
88.5059308274592
20
-1.09903433975805
30
0
41
1
10
88.5058521385564
20
-1.05956294766605
30
0
41
1
10
88.5246894978098
20
-0.991257690578863
30
0
41
1
10
88.5428407759225
20
-0.962685782643689
30
0
41
1
10
88.5868171782045
20
-0.917100978029083
30
0
41
1
10
88.6122075594205
20
-0.899838013940723
30
0
41
1
10
88.6941833368401
20
-0.857483179577571
30
0
41
1
10
88.7535807742437
20
-0.842855620755586
30
0
41
1
10
88.8761980443373
20
-0.825515483961567
30
0
41
1
10
88.9390888323322
20
-0.823494454055037
30
0
41
1
10
89.1278897500033
20
-0.829802760648221
30
0
41
1
10
89.255624175202
20
-0.850199704466689
30
0
41
1
10
89.3840765496539
20
-0.881417680057353
30
0
0
SPLINE
5
E3
100
AcDbEntity
8
1
62
256
6
ByLayer
370
18
48
1
60
0
100
AcDbSpline
70
4
71
3
72
16
73
12
40
0
40
0
40
0
40
0
40
0.079697144364875
40
0.079697144364875
40
0.386464762909917
40
0.386464762909917
40
0.539848572182438
40
0.539848572182438
40
0.693232381454958
40
0.693232381454958
40
1
40
1
40
1
40
1
41
1
10
6.71106143053157
20
-3.94874383879701
30
0
41
1
10
6.71106008577846
20
-3.94872389789759
30
0
41
1
10
6.71105883518987
20
-3.94754677783328
30
0
41
1
10
6.71105328578736
20
-3.93625202072997
30
0
41
1
10
6.71105039983337
20
-3.91043813347105
30
0
41
1
10
6.71104856046313
20
-3.84690868642073
30
0
41
1
10
6.71104836123712
20
-3.82157752476283
30
0
41
1
10
6.71104881461153
20
-3.76244030396512
30
0
41
1
10
6.71104947391254
20
-3.72845194347818
30
0
41
1
10
6.71105269157516
20
-3.61519339109665
30
0
41
1
10
6.71105647889476
20
-3.52460202440597
30
0
41
1
10
6.71106166267356
20
-3.41931684511363
30
0
0
SPLINE
5
E4
100
AcDbEntity
8
1
62
256
6
ByLayer
370
13
48
1
60
0
100
AcDbSpline
70
4
71
3
72
16
73
12
40
0
40
0
40
0
40
0
40
0.128990267838458
40
0.128990267838458
40
0.303192214270766
40
0.303192214270766
40
0.477394160703075
40
0.477394160703075
40
0.651596107135383
40
0.651596107135383
40
1
40
1
40
1
40
1
41
1
10
6.95586477304201
20
-3.74847621993143
30
0
41
1
10
6.95585835618979
20
-3.74844547889933
30
0
41
1
10
6.95585269573212
20
-3.74635954247068
30
0
41
1
10
6.95584131809852
20
-3.73655042198436
30
0
41
1
10
6.95583627522279
20
-3.7270540028828
30
0
41
1
10
6.95582952996909
20
-3.70055201156333
30
0
41
1
10
6.95582780333984
20
-3.68355270664662
30
0
41
1
10
6.9558277088064
20
-3.64207843773758
30
0
41
1
10
6.95582935194221
20
-3.61751875175102
30
0
41
1
10
6.95583928951575
20
-3.53306978796164
30
0
41
1
10
6.95585251869522
20
-3.46291572176767
30
0
41
1
10
6.95587150686748
20
-3.37938329586388
30
0
0
SPLINE
5
E5
100
AcDbEntity
8
SK1
62
256
6
ByLayer
370
18
48
1
60
0
100
AcDbSpline
70
4
71
3
72
14
73
10
40
0
40
0
40
0
40
0
40
0.125000000000001
40
0.125000000000001
40
0.250000000000003
40
0.250000000000003
40
0.500000000000005
40
0.500000000000005
40
1
40
1
40
1
40
1
41
1
10
-35.15
20
3.96883028950273
30
0
41
1
10
-35.15
20
3.96928757342317
30
0
41
1
10
-35.1517507934569
20
3.96665964780155
30
0
41
1
10
-35.1569069278761
20
3.95838948321497
30
0
41
1
10
-35.160234831946
20
3.95288497948519
30
0
41
1
10
-35.1714888412645
20
3.93405155977834
30
0
41
1
10
-35.1802429568046
20
3.91914987494727
30
0
41
1
10
-35.2083191353841
20
3.87109182370367
30
0
41
1
10
-35.2286409685639
20
3.8359706356681
30
0
41
1
10
-35.25
20
3.79901279814558
30
0
0
SPLINE
5
E6
100
AcDbEntity
8
SK1
62
256
6
ByLayer
370
18
48
1
60
0
100
AcDbSpline
70
4
71
3
72
8
73
4
40
0
40
0
40
0
40
0
40
1
40
1
40
1
40
1
41
1
10
-35.2789109433349
20
-3.74896947813309
30
0
41
1
10
-35.523017944561
20
-3.32627198244708
30
0
41
1
10
-35.7652770092255
20
-2.90252514406603
30
0
41
1
10
-36
20
-2.4750126229325
30
0
0
SPLINE
5
E7
100
AcDbEntity
8
SK1
62
256
6
ByLayer
370
18
48
1
60
0
100
AcDbSpline
70
4
71
3
72
8
73
4
40
0
40
0
40
0
40
0
40
1
40
1
40
1
40
1
41
1
10
-36
20
1.9415243641109
30
0
41
1
10
-35.75599290383
20
2.38594648277032
30
0
41
1
10
-35.5038984598463
20
2.82620040357006
30
0
41
1
10
-35.25
20
3.26552453932399
30
0
0
SPLINE
5
E8
100
AcDbEntity
8
SK1
62
256
6
ByLayer
370
18
48
1
60
0
100
AcDbSpline
70
4
71
3
72
14
73
10
40
0
40
0
40
0
40
0
40
0.499999999999998
40
0.499999999999998
40
0.749999999999997
40
0.749999999999997
40
0.874999999999999
40
0.874999999999999
40
1
40
1
40
1
40
1
41
1
10
-35.25
20
3.26552453932396
30
0
41
1
10
-35.2287404812745
20
3.30231018858041
30
0
41
1
10
-35.208362723075
20
3.34078252214229
30
0
41
1
10
-35.1802905070704
20
3.40017037355327
30
0
41
1
10
-35.1714466180788
20
3.42005689033798
30
0
41
1
10
-35.1602396792677
20
3.44889829642781
30
0
41
1
10
-35.1568594217207
20
3.45834946613613
30
0
41
1
10
-35.1517495297275
20
3.47553156321445
30
0
41
1
10
-35.15
20
3.48339682317265
30
0
41
1
10
-35.15
20
3.4886908565633
30
0
0
SPLINE
5
E9
100
AcDbEntity
8
SK1
62
256
6
ByLayer
370
18
48
1
60
0
100
AcDbSpline
70
4
71
3
72
8
73
4
40
0
40
0
40
0
40
0
40
1
40
1
40
1
40
1
41
1
10
-35.25
20
3.79901279814558
30
0
41
1
10
-35.5038836332418
20
3.35971431707759
30
0
41
1
10
-35.7560131506013
20
2.91939786515209
30
0
41
1
10
-36
20
2.4750126229325
30
0
0
LINE
5
76
100
AcDbEntity
8
81
62
256
6
ByLayer
370
18
48
1
60
0
100
AcDbLine
10
90
20
0
30
0
11
95
21
0
31
0
39
0
210
0
220
0
230
1
0
LINE
5
77
100
AcDbEntity
8
1
62
256
6
ByLayer
370
18
48
1
60
0
100
AcDbLine
10
6.71106
20
3.948753
30
0
11
1
21
3.945184
31
0
39
0
210
0
220
0
230
1
0
LINE
5
79
100
AcDbEntity
8
1
62
256
6
ByLayer
370
18
48
1
60
0
100
AcDbLine
10
44.732119
20
3.972516
30
0
11
43.603523
21
3.971811
31
0
39
0
210
0
220
0
230
1
0
LINE
5
7A
100
AcDbEntity
8
1
62
256
6
ByLayer
370
18
48
1
60
0
100
AcDbLine
10
66.481984
20
3.98611
30
0
11
65.358762
21
3.985408
31
0
39
0
210
0
220
0
230
1
0
LINE
5
7B
100
AcDbEntity
8
1
62
256
6
ByLayer
370
18
48
1
60
0
100
AcDbLine
10
88.232732
20
3.999704
30
0
11
87.110957
21
3.999003
31
0
39
0
210
0
220
0
230
1
0
LINE
5
7C
100
AcDbEntity
8
1
62
256
6
ByLayer
370
18
48
1
60
0
100
AcDbLine
10
87.110957
20
-3.999003
30
0
11
88.232918
21
-3.999704
31
0
39
0
210
0
220
0
230
1
0
LINE
5
7D
100
AcDbEntity
8
1
62
256
6
ByLayer
370
18
48
1
60
0
100
AcDbLine
10
65.358762
20
-3.985408
30
0
11
66.482464
21
-3.98611
31
0
39
0
210
0
220
0
230
1
0
LINE
5
7E
100
AcDbEntity
8
1
62
256
6
ByLayer
370
18
48
1
60
0
100
AcDbLine
10
43.603523
20
-3.971811
30
0
11
44.732169
21
-3.972516
31
0
39
0
210
0
220
0
230
1
0
LINE
5
7F
100
AcDbEntity
8
1
62
256
6
ByLayer
370
18
48
1
60
0
100
AcDbLine
10
1
20
-3.945184
30
0
11
6.71106
21
-3.948753
31
0
39
0
210
0
220
0
230
1
0
LINE
5
80
100
AcDbEntity
8
1
62
256
6
ByLayer
370
18
48
1
60
0
100
AcDbLine
10
1
20
3.945184
30
0
11
0
21
3.944559
31
0
39
0
210
0
220
0
230
1
0
LINE
5
81
100
AcDbEntity
8
1
62
256
6
ByLayer
370
18
48
1
60
0
100
AcDbLine
10
0
20
-3.944559
30
0
11
1
21
-3.945184
31
0
39
0
210
0
220
0
230
1
0
LINE
5
82
100
AcDbEntity
8
1
62
256
6
ByLayer
370
18
48
1
60
0
100
AcDbLine
10
22.982507
20
3.958923
30
0
11
21.846681
21
3.958213
31
0
39
0
210
0
220
0
230
1
0
LINE
5
83
100
AcDbEntity
8
1
62
256
6
ByLayer
370
18
48
1
60
0
100
AcDbLine
10
21.846681
20
-3.958213
30
0
11
22.982032
21
-3.958922
31
0
39
0
210
0
220
0
230
1
0
LINE
5
84
100
AcDbEntity
8
SK1
62
256
6
ByLayer
370
18
48
1
60
0
100
AcDbLine
10
0
20
4
30
0
11
-35.133975
21
4
31
0
39
0
210
0
220
0
230
1
0
LINE
5
86
100
AcDbEntity
8
SK1
62
256
6
ByLayer
370
18
48
1
60
0
100
AcDbLine
10
-35.133975
20
-4
30
0
11
0
21
-4
31
0
39
0
210
0
220
0
230
1
0
LINE
5
87
100
AcDbEntity
8
SK1
62
256
6
ByLayer
370
18
48
1
60
0
100
AcDbLine
10
-35.133975
20
4
30
0
11
-35.278898
21
3.748985
31
0
39
0
210
0
220
0
230
1
0
LINE
5
88
100
AcDbEntity
8
SK1
62
256
6
ByLayer
370
18
48
1
60
0
100
AcDbLine
10
-35.278898
20
-3.748985
30
0
11
-35.133975
21
-4
31
0
39
0
210
0
220
0
230
1
0
LINE
5
89
100
AcDbEntity
8
SK4
62
256
6
ByLayer
370
18
48
0.05
60
0
100
AcDbLine
10
95
20
0
30
0
11
-41
21
0
31
0
39
0
210
0
220
0
230
1
0
LINE
5
8B
100
AcDbEntity
8
4
62
256
6
ByLayer
370
18
48
0.05
60
0
100
AcDbLine
10
90
20
0
30
0
11
0
21
0
31
0
39
0
210
0
220
0
230
1
0
LINE
5
8D
100
AcDbEntity
8
80
62
256
6
ByLayer
370
18
48
1
60
0
100
AcDbLine
10
0
20
0
30
0
11
-5
21
0
31
0
39
0
210
0
220
0
230
1
0
LINE
5
8E
100
AcDbEntity
8
1
62
256
6
ByLayer
370
13
48
1
60
0
100
AcDbLine
10
88.606374
20
1.005285
30
0
11
89.977896
21
0.137079
31
0
39
0
210
0
220
0
230
1
0
LINE
5
8F
100
AcDbEntity
8
1
62
256
6
ByLayer
370
13
48
1
60
0
100
AcDbLine
10
88.501599
20
0.889798
30
0
11
89.969624
21
-0.039498
31
0
39
0
210
0
220
0
230
1
0
LINE
5
90
100
AcDbEntity
8
1
62
256
6
ByLayer
370
18
48
1
60
0
100
AcDbLine
10
89.384077
20
-0.881418
30
0
11
89.877912
21
-0.211139
31
0
39
0
210
0
220
0
230
1
0
LINE
5
91
100
AcDbEntity
8
1
62
256
6
ByLayer
370
18
48
1
60
0
100
AcDbLine
10
1
20
3.945184
30
0
11
1
21
-3.945184
31
0
39
0
210
0
220
0
230
1
0
LINE
5
92
100
AcDbEntity
8
1
62
256
6
ByLayer
370
18
48
1
60
0
100
AcDbLine
10
87.96943
20
-2.801506
30
0
11
88.877771
21
-1.568622
31
0
39
0
210
0
220
0
230
1
0
LINE
5
93
100
AcDbEntity
8
SK1
62
256
6
ByLayer
370
18
48
1
60
0
100
AcDbLine
10
-35.15
20
3.488691
30
0
11
-35.15
21
3.96883
31
0
39
0
210
0
220
0
230
1
0
LINE
5
94
100
AcDbEntity
8
SK1
62
256
6
ByLayer
370
18
48
1
60
0
100
AcDbLine
10
-35.133975
20
4
30
0
11
-35.133975
21
-4
31
0
39
0
210
0
220
0
230
1
0
LINE
5
95
100
AcDbEntity
8
SK1
62
256
6
ByLayer
370
18
48
1
60
0
100
AcDbLine
10
-36
20
2.475013
30
0
11
-36
21
1.941509
31
0
39
0
210
0
220
0
230
1
0
LINE
5
96
100
AcDbEntity
8
SK1
62
256
6
ByLayer
370
18
48
1
60
0
100
AcDbLine
10
0
20
4
30
0
11
0
21
-4
31
0
39
0
210
0
220
0
230
1
0
LINE
5
97
100
AcDbEntity
8
SK1
62
256
6
ByLayer
370
18
48
1
60
0
100
AcDbLine
10
-36
20
1.941524
30
0
11
-36
21
-2.475013
31
0
39
0
210
0
220
0
230
1
0
LINE
5
98
100
AcDbEntity
8
SK1
62
256
6
ByLayer
370
13
48
1
60
0
100
AcDbLine
10
-35.25
20
3.799013
30
0
11
-35.25
21
3.265419
31
0
39
0
210
0
220
0
230
1
0
MTEXT
5
EA
100
AcDbEntity
8
SK6
62
256
6
ByLayer
370
13
48
1
60
0
100
AcDbMText
10
29.129169
20
36.382694
30
0
210
0
220
0
230
1
1
\W0.7538;460.1-0800-060A1-XM GC34
40
3.5
41
0
44
1.084337
50
0
71
8
72
5
7
iso_b_vert
0
DIMENSION
5
F7
100
AcDbEntity
8
SK2
62
256
6
ByLayer
370
13
48
1
60
0
100
AcDbDimension
2
DimnDraft3D1
10
88.8174
20
-14.213398
30
0
11
43.067459
21
-14.213398
31
0
70
32
71
5
72
1
41
1
210
0
220
0
230
1
3
Standard
100
AcDbAlignedDimension
13
0
23
-1.5875
33
0
14
88.8174
24
-5.5875
34
0
50
0
100
AcDbRotatedDimension
1001
ACAD
1000
DSTYLE
1002
{
1070
   279
1070
     0
1070
   172
1070
     1
1070
   173
1070
     1
1070
   340
1005
EB
1070
   271
1070
     2
1070
   272
1070
     2
1070
    77
1070
     1
1070
    73
1070
     0
1070
   171
1070
     3
1070
   274
1070
     4
1070
   177
1070
    35
1070
   176
1070
    35
1070
   178
1070
    35
1070
    48
1040
-0.005
1070
    41
1041
3.5
1070
   147
1041
1.75
1070
    42
1041
1.5875
1070
    44
1041
2.0
1070
   140
1041
3.5
1070
   343
1005
0
1070
   344
1005
0
1002
}
0
DIMENSION
5
101
100
AcDbEntity
8
SK2
62
256
6
ByLayer
370
13
48
1
60
0
100
AcDbDimension
2
DimnDraft3D2
10
90
20
-32.692985
30
0
11
27.1587
21
-32.692985
31
0
70
32
71
5
72
1
41
1
210
0
220
0
230
1
3
Standard
100
AcDbAlignedDimension
13
-36
23
-5.5875
33
0
14
90
24
-1.5875
34
0
50
0
100
AcDbRotatedDimension
1001
ACAD
1000
DSTYLE
1002
{
1070
   279
1070
     0
1070
   172
1070
     1
1070
   173
1070
     1
1070
   340
1005
EB
1070
   271
1070
     2
1070
   272
1070
     2
1070
    77
1070
     1
1070
    73
1070
     0
1070
   171
1070
     3
1070
   274
1070
     4
1070
   177
1070
    35
1070
   176
1070
    35
1070
   178
1070
    35
1070
    48
1040
-0.005
1070
    41
1041
3.5
1070
   147
1041
1.75
1070
    42
1041
1.5875
1070
    44
1041
2.0
1070
   140
1041
3.5
1070
   343
1005
0
1070
   344
1005
0
1002
}
0
DIMENSION
5
10B
100
AcDbEntity
8
SK2
62
256
6
ByLayer
370
13
48
1
60
0
100
AcDbDimension
2
DimnDraft3D3
10
90
20
15.609119
30
0
11
57.41
21
15.609119
31
0
70
32
71
5
72
1
41
1
210
0
220
0
230
1
3
Standard
100
AcDbAlignedDimension
13
24.82
23
5.5875
33
0
14
90
24
1.5875
34
0
50
0
100
AcDbRotatedDimension
1001
ACAD
1000
DSTYLE
1002
{
1070
   279
1070
     0
1070
   172
1070
     1
1070
   173
1070
     1
1070
   340
1005
EB
1070
   271
1070
     2
1070
   272
1070
     2
1070
    77
1070
     1
1070
    73
1070
     0
1070
   171
1070
     3
1070
   274
1070
     4
1070
   177
1070
    35
1070
   176
1070
    35
1070
   178
1070
    35
1070
    48
1040
-0.005
1070
    41
1041
3.5
1070
   147
1041
1.75
1070
    42
1041
1.5875
1070
    44
1041
2.0
1070
   140
1041
3.5
1070
   343
1005
0
1070
   344
1005
0
1002
}
0
DIMENSION
5
115
100
AcDbEntity
8
SK2
62
256
6
ByLayer
370
13
48
1
60
0
100
AcDbDimension
2
DimnDraft3D4
10
88.8174
20
-16.802503
30
0
11
99.981425
21
-16.802503
31
0
70
32
71
5
72
1
41
1
210
0
220
0
230
1
3
Standard
100
AcDbAlignedDimension
13
90
23
-1.5875
33
0
14
88.8174
24
-5.5875
34
0
50
0
100
AcDbRotatedDimension
1001
ACAD
1000
DSTYLE
1002
{
1070
   279
1070
     0
1070
   172
1070
     1
1070
   173
1070
     1
1070
   340
1005
EB
1070
   271
1070
     2
1070
   272
1070
     2
1070
    77
1070
     1
1070
    73
1070
     0
1070
   171
1070
     3
1070
   274
1070
     4
1070
   177
1070
    35
1070
   176
1070
    35
1070
   178
1070
    35
1070
    48
1040
-0.005
1070
    41
1041
3.5
1070
   147
1041
1.75
1070
    42
1041
1.5875
1070
    44
1041
2.0
1070
   140
1041
3.5
1070
   343
1005
0
1070
   344
1005
0
1002
}
0
DIMENSION
5
11F
100
AcDbEntity
8
SK2
62
256
6
ByLayer
370
13
48
1
60
0
100
AcDbDimension
2
DimnDraft3D5
10
88.8174
20
-22.343428
30
0
11
24.078076
21
-22.343428
31
0
70
32
71
5
72
1
41
1
210
0
220
0
230
1
3
Standard
100
AcDbAlignedDimension
13
-36
23
-5.5875
33
0
14
88.8174
24
-5.5875
34
0
50
0
100
AcDbRotatedDimension
1001
ACAD
1000
DSTYLE
1002
{
1070
   279
1070
     0
1070
   172
1070
     1
1070
   173
1070
     1
1070
   340
1005
EB
1070
   271
1070
     2
1070
   272
1070
     2
1070
    77
1070
     1
1070
    73
1070
     0
1070
   171
1070
     3
1070
   274
1070
     4
1070
   177
1070
    35
1070
   176
1070
    35
1070
   178
1070
    35
1070
    48
1040
-0.005
1070
    41
1041
3.5
1070
   147
1041
1.75
1070
    42
1041
1.5875
1070
    44
1041
2.0
1070
   140
1041
3.5
1070
   343
1005
0
1070
   344
1005
0
1002
}
0
DIMENSION
5
12A
100
AcDbEntity
8
SK2
62
256
6
ByLayer
370
13
48
1
60
0
100
AcDbDimension
2
DimnDraft3D6
10
-46.625163
20
4
30
0
11
-47.250163
21
22.47418
31
0
70
33
71
5
72
1
41
1
210
0
220
0
230
1
3
Standard
100
AcDbAlignedDimension
13
-37.5875
23
-4
33
0
14
-37.5875
24
4
34
0
1001
ACAD
1000
DSTYLE
1002
{
1070
   279
1070
     0
1070
    74
1070
     0
1070
   173
1070
     1
1070
   340
1005
EB
1070
   271
1070
     3
1070
   272
1070
     2
1070
    77
1070
     1
1070
    73
1070
     0
1070
   171
1070
     3
1070
   274
1070
     4
1070
   177
1070
    35
1070
   176
1070
    35
1070
   178
1070
    35
1070
    48
1040
-0.005
1070
    41
1041
3.5
1070
   147
1041
1.75
1070
    42
1041
1.5875
1070
    44
1041
2.0
1070
   140
1041
3.5
1070
   343
1005
0
1070
   344
1005
0
1002
}
0
DIMENSION
5
135
100
AcDbEntity
8
2
62
256
6
ByLayer
370
13
48
1
60
0
100
AcDbDimension
2
DimnDraft3D7
10
104.083343
20
4
30
0
11
99.458343
21
21.067266
31
0
70
33
71
5
72
1
41
1
210
0
220
0
230
1
3
Standard
100
AcDbAlignedDimension
13
90.4049
23
-4
33
0
14
90.4049
24
4
34
0
1001
ACAD
1000
DSTYLE
1002
{
1070
   279
1070
     0
1070
    74
1070
     0
1070
   173
1070
     1
1070
   340
1005
EB
1070
   271
1070
     3
1070
   272
1070
     2
1070
    77
1070
     1
1070
    73
1070
     0
1070
   171
1070
     3
1070
   274
1070
     4
1070
   177
1070
    35
1070
   176
1070
    35
1070
   178
1070
    35
1070
    48
1040
-0.005
1070
    41
1041
3.5
1070
   147
1041
1.75
1070
    42
1041
1.5875
1070
    44
1041
2.0
1070
   140
1041
3.5
1070
   343
1005
0
1070
   344
1005
0
1002
}
0
ENDSEC
0
SECTION
2
OBJECTS
0
DICTIONARY
5
1a0
330
0
100
AcDbDictionary
280
0
281
1
3
ACAD_GROUP
350
1a1
3
ACAD_MLINESTYLE
350
1a2
0
DICTIONARY
5
1a1
330
0
100
AcDbDictionary
280
0
281
1
0
DICTIONARY
5
1a2
330
0
100
AcDbDictionary
280
0
281
1
3
Standard
350
18
0
MLINESTYLE
5
18
330
1a2
100
AcDbMlineStyle
2
Standard
70
0
3

62
256
51
90
52
90
71
2
49
-0.5
62
256
6
ByLayer
49
0.5
62
256
6
ByLayer
0
RASTERVARIABLES
5
18e
330

100
AcDbRasterVariables
90
0
70
1
71
1
72
1
0
ENDSEC
0
EOF
