0
SECTION
2
HEADER
9
$ACADVER
1
AC1015
9
$DWGCODEPAGE
3
ANSI_1252
9
$HANDSEED
5
1af
9
$ANGBASE
50
0
9
$ANGDIR
70
0
9
$ATTMODE
70
1
9
$AUNITS
70
0
9
$AUPREC
70
0
9
$CECOLOR
62
256
9
$CELTSCALE
40
1
9
$CELTYPE
6
ByLayer
9
$CELWEIGHT
370
18
9
$CLAYER
8
0
9
$CMLJUST
70
0
9
$CMLSCALE
40
1
9
$CMLSTYLE
2
Standard
9
$DIMSTYLE
2
Standard
9
$TEXTSIZE
40
0.2
9
$TEXTSTYLE
7
Standard
9
$LUNITS
70
2
9
$LUPREC
70
4
9
$EXTNAMES
290
1
9
$INSUNITS
70
4
9
$LTSCALE
40
1
9
$LWDISPLAY
290
1
9
$PDMODE
70
0
9
$PDSIZE
40
0
9
$PLINEGEN
70
0
0
ENDSEC
0
SECTION
2
CLASSES
0
CLASS
1
RASTERVARIABLES
2
AcDbRasterVariables
3
ISM
90
0
280
0
281
0
0
ENDSEC
0
SECTION
2
TABLES
0
TABLE
2
VPORT
5
1a5
100
AcDbSymbolTable
0
VPORT
5
1
100
AcDbSymbolTableRecord
100
AcDbViewportTableRecord
2
*Active
70
0
10
0
20
0
11
1
21
1
12
-1
22
1
13
0
23
0
14
0.5
24
0.5
15
10
25
10
16
0
26
0
36
1
17
0
27
0
37
0
0
ENDTAB
0
TABLE
2
LTYPE
5
1a6
100
AcDbSymbolTable
0
LTYPE
5
14
100
AcDbSymbolTableRecord
100
AcDbLinetypeTableRecord
70
0
2
ByBlock
3

72
65
73
0
40
0
0
LTYPE
5
15
100
AcDbSymbolTableRecord
100
AcDbLinetypeTableRecord
70
0
2
ByLayer
3

72
65
73
0
40
0
0
LTYPE
5
16
100
AcDbSymbolTableRecord
100
AcDbLinetypeTableRecord
70
0
2
CONTINUOUS
3
Solid line
72
65
73
0
40
0
0
LTYPE
5
6A
100
AcDbSymbolTableRecord
100
AcDbLinetypeTableRecord
70
0
2
CENTER
3
____ _ ____ _ ____ _ ____
72
65
73
4
40
47.5
49
22
74
0
49
-8.5
74
0
49
8.5
74
0
49
-8.5
74
0
0
LTYPE
5
6B
100
AcDbSymbolTableRecord
100
AcDbLinetypeTableRecord
70
0
2
DASHED
3
__ __ __ __ __ __ __ __ __
72
65
73
2
40
25.72
49
12.86
74
0
49
-12.86
74
0
0
ENDTAB
0
TABLE
2
LAYER
5
1a7
100
AcDbSymbolTable
0
LAYER
5
10
100
AcDbSymbolTableRecord
100
AcDbLayerTableRecord
2
0
70
0
62
7
6
CONTINUOUS
290
1
370
-3
390
0
0
LAYER
5
6D
100
AcDbSymbolTableRecord
100
AcDbLayerTableRecord
2
81
70
0
62
-3
6
CONTINUOUS
290
1
370
-3
390
0
0
LAYER
5
6F
100
AcDbSymbolTableRecord
100
AcDbLayerTableRecord
2
80
70
0
62
-6
6
CONTINUOUS
290
1
370
-3
390
0
0
LAYER
5
74
100
AcDbSymbolTableRecord
100
AcDbLayerTableRecord
2
2
70
0
62
7
6
CONTINUOUS
290
1
370
-3
390
0
0
LAYER
5
78
100
AcDbSymbolTableRecord
100
AcDbLayerTableRecord
2
1
70
0
62
4
6
CONTINUOUS
290
1
370
-3
390
0
0
LAYER
5
8A
100
AcDbSymbolTableRecord
100
AcDbLayerTableRecord
2
4
70
0
62
-2
6
CENTER
290
1
370
-3
390
0
0
LAYER
5
191
100
AcDbSymbolTableRecord
100
AcDbLayerTableRecord
2
SK2
70
0
62
7
6
CONTINUOUS
290
1
370
-3
390
0
0
LAYER
5
192
100
AcDbSymbolTableRecord
100
AcDbLayerTableRecord
2
SK1
70
0
62
4
6
CONTINUOUS
290
1
370
-3
390
0
0
LAYER
5
193
100
AcDbSymbolTableRecord
100
AcDbLayerTableRecord
2
SK4
70
0
62
2
6
CENTER
290
1
370
-3
390
0
0
LAYER
5
194
100
AcDbSymbolTableRecord
100
AcDbLayerTableRecord
2
SK6
70
0
62
5
6
CONTINUOUS
290
1
370
-3
390
0
0
ENDTAB
0
TABLE
2
STYLE
5
1a8
100
AcDbSymbolTable
0
STYLE
5
11
100
AcDbSymbolTableRecord
100
AcDbTextStyleTableRecord
2
Standard
3
txt
70
0
71
0
40
0
41
1
42
0
50
0
0
STYLE
5
ED
100
AcDbSymbolTableRecord
100
AcDbTextStyleTableRecord
2
iso_b_vert
3
simplex.shx
70
0
71
0
40
0
41
1
42
0
50
0
0
STYLE
5
EE
100
AcDbSymbolTableRecord
100
AcDbTextStyleTableRecord
2
DWGDirectTextStyle
3
simplex
70
0
71
0
40
0
41
1
42
0
50
0
0
ENDTAB
0
TABLE
2
DIMSTYLE
5
1a9
100
AcDbSymbolTable
100
AcDbDimStyleTable
0
DIMSTYLE
105
27
100
AcDbSymbolTableRecord
100
AcDbDimStyleTableRecord
2
Standard
70
0
3
<>
41
0.18
42
0.0625
44
0.18
140
0.18
147
0.09
73
0
74
0
77
1
271
2
275
0
278
52
280
0
340
11
0
ENDTAB
0
TABLE
2
VIEW
5
1aa
100
AcDbSymbolTable
0
ENDTAB
0
TABLE
2
UCS
5
1ab
100
AcDbSymbolTable
0
ENDTAB
0
TABLE
2
APPID
5
1ac
100
AcDbSymbolTable
0
APPID
5
12
100
AcDbSymbolTableRecord
100
AcDbRegAppTableRecord
2
ACAD
70
0
0
ENDTAB
0
TABLE
2
BLOCK_RECORD
5
1ad
100
AcDbSymbolTable
0
BLOCK_RECORD
5
1F
100
AcDbSymbolTableRecord
100
AcDbBlockTableRecord
2
*Model_Space
340
0
70
0
0
BLOCK_RECORD
5
1B
100
AcDbSymbolTableRecord
100
AcDbBlockTableRecord
2
*Paper_Space
340
0
70
0
0
BLOCK_RECORD
5
23
100
AcDbSymbolTableRecord
100
AcDbBlockTableRecord
2
*Paper_Space0
340
0
70
0
0
BLOCK_RECORD
5
F0
100
AcDbSymbolTableRecord
100
AcDbBlockTableRecord
2
DimnDraft3D1
340
0
70
0
0
BLOCK_RECORD
5
FA
100
AcDbSymbolTableRecord
100
AcDbBlockTableRecord
2
DimnDraft3D2
340
0
70
0
0
BLOCK_RECORD
5
104
100
AcDbSymbolTableRecord
100
AcDbBlockTableRecord
2
DimnDraft3D3
340
0
70
0
0
BLOCK_RECORD
5
10E
100
AcDbSymbolTableRecord
100
AcDbBlockTableRecord
2
DimnDraft3D4
340
0
70
0
0
BLOCK_RECORD
5
118
100
AcDbSymbolTableRecord
100
AcDbBlockTableRecord
2
DimnDraft3D5
340
0
70
0
0
BLOCK_RECORD
5
122
100
AcDbSymbolTableRecord
100
AcDbBlockTableRecord
2
DimnDraft3D6
340
0
70
0
0
BLOCK_RECORD
5
12D
100
AcDbSymbolTableRecord
100
AcDbBlockTableRecord
2
DimnDraft3D7
340
0
70
0
0
ENDTAB
0
ENDSEC
0
SECTION
2
BLOCKS
0
BLOCK
5
20
100
AcDbEntity
8
0
100
AcDbBlockBegin
2
*Model_Space
70
0
10
0
20
0
30
0
3
*Model_Space
0
ENDBLK
5
21
100
AcDbEntity
8
0
100
AcDbBlockEnd
0
BLOCK
5
1C
100
AcDbEntity
8
0
100
AcDbBlockBegin
2
*Paper_Space
70
0
10
0
20
0
30
0
3
*Paper_Space
0
ENDBLK
5
1D
100
AcDbEntity
8
0
100
AcDbBlockEnd
0
BLOCK
5
24
100
AcDbEntity
8
0
100
AcDbBlockBegin
2
*Paper_Space0
70
0
10
0
20
0
30
0
3
*Paper_Space0
0
ENDBLK
5
25
100
AcDbEntity
8
0
100
AcDbBlockEnd
0
BLOCK
5
F7
100
AcDbEntity
8
0
100
AcDbBlockBegin
2
DimnDraft3D1
70
0
10
0
20
0
30
0
3
DimnDraft3D1
0
MTEXT
5
F1
100
AcDbEntity
8
SK2
62
256
6
ByLayer
370
13
48
1
60
0
100
AcDbMText
10
38.799575
20
-12.738398
30
0
210
0
220
0
230
1
1
\W0.7317;89,00
40
3.5
41
0
44
1.084337
50
0
71
7
72
5
7
iso_b_vert
0
LINE
5
F2
100
AcDbEntity
8
SK2
62
256
6
ByLayer
370
13
48
1
60
0
100
AcDbLine
10
0
20
-1.5875
30
0
11
0
21
-15.613398
31
0
39
0
210
0
220
0
230
1
0
LINE
5
F3
100
AcDbEntity
8
SK2
62
256
6
ByLayer
370
13
48
1
60
0
100
AcDbLine
10
88.9982
20
-4.9875
30
0
11
88.9982
21
-15.613398
31
0
39
0
210
0
220
0
230
1
0
LINE
5
F4
100
AcDbEntity
8
SK2
62
256
6
ByLayer
370
13
48
1
60
0
100
AcDbLine
10
0
20
-13.613398
30
0
11
88.9982
21
-13.613398
31
0
39
0
210
0
220
0
230
1
0
SOLID
5
F5
100
AcDbEntity
8
SK2
62
256
6
ByLayer
370
13
48
1
60
0
100
AcDbTrace
10
0
20
-13.613398
30
0
11
3.499998
21
-13.152615
31
0
12
3.500002
22
-14.074182
32
0
13
0
23
-13.613398
33
0
39
0
210
0
220
0
230
1
0
SOLID
5
F6
100
AcDbEntity
8
SK2
62
256
6
ByLayer
370
13
48
1
60
0
100
AcDbTrace
10
88.9982
20
-13.613398
30
0
11
85.498202
21
-14.074182
31
0
12
85.498198
22
-13.152615
32
0
13
88.9982
23
-13.613398
33
0
39
0
210
0
220
0
230
1
0
ENDBLK
5
F8
100
AcDbEntity
8
0
100
AcDbBlockEnd
0
BLOCK
5
101
100
AcDbEntity
8
0
100
AcDbBlockBegin
2
DimnDraft3D2
70
0
10
0
20
0
30
0
3
DimnDraft3D2
0
MTEXT
5
FB
100
AcDbEntity
8
SK2
62
256
6
ByLayer
370
13
48
1
60
0
100
AcDbMText
10
22.020421
20
-31.817985
30
0
210
0
220
0
230
1
1
\W0.6930;126,00
40
3.5
41
0
44
1.084337
50
0
71
7
72
5
7
iso_b_vert
0
LINE
5
FC
100
AcDbEntity
8
SK2
62
256
6
ByLayer
370
13
48
1
60
0
100
AcDbLine
10
-36
20
-5.5875
30
0
11
-36
21
-34.692985
31
0
39
0
210
0
220
0
230
1
0
LINE
5
FD
100
AcDbEntity
8
SK2
62
256
6
ByLayer
370
13
48
1
60
0
100
AcDbLine
10
90
20
-1.5875
30
0
11
90
21
-34.692985
31
0
39
0
210
0
220
0
230
1
0
LINE
5
FE
100
AcDbEntity
8
SK2
62
256
6
ByLayer
370
13
48
1
60
0
100
AcDbLine
10
-36
20
-32.692985
30
0
11
90
21
-32.692985
31
0
39
0
210
0
220
0
230
1
0
SOLID
5
FF
100
AcDbEntity
8
SK2
62
256
6
ByLayer
370
13
48
1
60
0
100
AcDbTrace
10
-36
20
-32.692985
30
0
11
-32.500002
21
-32.232202
31
0
12
-32.499998
22
-33.153769
32
0
13
-36
23
-32.692985
33
0
39
0
210
0
220
0
230
1
0
SOLID
5
100
100
AcDbEntity
8
SK2
62
256
6
ByLayer
370
13
48
1
60
0
100
AcDbTrace
10
90
20
-32.692985
30
0
11
86.500002
21
-33.153769
31
0
12
86.499998
22
-32.232202
32
0
13
90
23
-32.692985
33
0
39
0
210
0
220
0
230
1
0
ENDBLK
5
102
100
AcDbEntity
8
0
100
AcDbBlockEnd
0
BLOCK
5
10B
100
AcDbEntity
8
0
100
AcDbBlockBegin
2
DimnDraft3D3
70
0
10
0
20
0
30
0
3
DimnDraft3D3
0
MTEXT
5
105
100
AcDbEntity
8
SK2
62
256
6
ByLayer
370
13
48
1
60
0
100
AcDbMText
10
57.667105
20
15.884119
30
0
210
0
220
0
230
1
1
\W0.7581;55,40
40
3.5
41
0
44
1.084337
50
0
71
7
72
5
7
iso_b_vert
0
LINE
5
106
100
AcDbEntity
8
SK2
62
256
6
ByLayer
370
13
48
1
60
0
100
AcDbLine
10
34.6
20
4.9875
30
0
11
34.6
21
17.009119
31
0
39
0
210
0
220
0
230
1
0
LINE
5
107
100
AcDbEntity
8
SK2
62
256
6
ByLayer
370
13
48
1
60
0
100
AcDbLine
10
90
20
1.5875
30
0
11
90
21
17.009119
31
0
39
0
210
0
220
0
230
1
0
LINE
5
108
100
AcDbEntity
8
SK2
62
256
6
ByLayer
370
13
48
1
60
0
100
AcDbLine
10
34.6
20
15.009119
30
0
11
90
21
15.009119
31
0
39
0
210
0
220
0
230
1
0
SOLID
5
109
100
AcDbEntity
8
SK2
62
256
6
ByLayer
370
13
48
1
60
0
100
AcDbTrace
10
34.6
20
15.009119
30
0
11
38.099998
21
15.469903
31
0
12
38.100002
22
14.548335
32
0
13
34.6
23
15.009119
33
0
39
0
210
0
220
0
230
1
0
SOLID
5
10A
100
AcDbEntity
8
SK2
62
256
6
ByLayer
370
13
48
1
60
0
100
AcDbTrace
10
90
20
15.009119
30
0
11
86.500002
21
14.548335
31
0
12
86.499998
22
15.469903
32
0
13
90
23
15.009119
33
0
39
0
210
0
220
0
230
1
0
ENDBLK
5
10C
100
AcDbEntity
8
0
100
AcDbBlockEnd
0
BLOCK
5
115
100
AcDbEntity
8
0
100
AcDbBlockBegin
2
DimnDraft3D4
70
0
10
0
20
0
30
0
3
DimnDraft3D4
0
MTEXT
5
10F
100
AcDbEntity
8
SK2
62
256
6
ByLayer
370
13
48
1
60
0
100
AcDbMText
10
97.278136
20
-15.327503
30
0
210
0
220
0
230
1
1
\W0.6367;1,00
40
3.5
41
0
44
1.084337
50
0
71
7
72
5
7
iso_b_vert
0
LINE
5
110
100
AcDbEntity
8
SK2
62
256
6
ByLayer
370
13
48
1
60
0
100
AcDbLine
10
90
20
-1.5875
30
0
11
90
21
-18.202503
31
0
39
0
210
0
220
0
230
1
0
LINE
5
111
100
AcDbEntity
8
SK2
62
256
6
ByLayer
370
13
48
1
60
0
100
AcDbLine
10
88.9982
20
-4.9875
30
0
11
88.9982
21
-18.202503
31
0
39
0
210
0
220
0
230
1
0
LINE
5
112
100
AcDbEntity
8
SK2
62
256
6
ByLayer
370
13
48
1
60
0
100
AcDbLine
10
80.2482
20
-16.202503
30
0
11
103.559715
21
-16.202503
31
0
39
0
210
0
220
0
230
1
0
SOLID
5
113
100
AcDbEntity
8
SK2
62
256
6
ByLayer
370
13
48
1
60
0
100
AcDbTrace
10
90
20
-16.202503
30
0
11
93.499998
21
-15.741719
31
0
12
93.500002
22
-16.663287
32
0
13
90
23
-16.202503
33
0
39
0
210
0
220
0
230
1
0
SOLID
5
114
100
AcDbEntity
8
SK2
62
256
6
ByLayer
370
13
48
1
60
0
100
AcDbTrace
10
88.9982
20
-16.202503
30
0
11
85.498202
21
-16.663287
31
0
12
85.498198
22
-15.741719
32
0
13
88.9982
23
-16.202503
33
0
39
0
210
0
220
0
230
1
0
ENDBLK
5
116
100
AcDbEntity
8
0
100
AcDbBlockEnd
0
BLOCK
5
11F
100
AcDbEntity
8
0
100
AcDbBlockBegin
2
DimnDraft3D5
70
0
10
0
20
0
30
0
3
DimnDraft3D5
0
MTEXT
5
119
100
AcDbEntity
8
SK2
62
256
6
ByLayer
370
13
48
1
60
0
100
AcDbMText
10
18.939797
20
-21.468428
30
0
210
0
220
0
230
1
1
\W0.6930;125,00
40
3.5
41
0
44
1.084337
50
0
71
7
72
5
7
iso_b_vert
0
LINE
5
11A
100
AcDbEntity
8
SK2
62
256
6
ByLayer
370
13
48
1
60
0
100
AcDbLine
10
-36
20
-5.5875
30
0
11
-36
21
-24.343428
31
0
39
0
210
0
220
0
230
1
0
LINE
5
11B
100
AcDbEntity
8
SK2
62
256
6
ByLayer
370
13
48
1
60
0
100
AcDbLine
10
88.9982
20
-4.9875
30
0
11
88.9982
21
-24.343428
31
0
39
0
210
0
220
0
230
1
0
LINE
5
11C
100
AcDbEntity
8
SK2
62
256
6
ByLayer
370
13
48
1
60
0
100
AcDbLine
10
-36
20
-22.343428
30
0
11
88.9982
21
-22.343428
31
0
39
0
210
0
220
0
230
1
0
SOLID
5
11D
100
AcDbEntity
8
SK2
62
256
6
ByLayer
370
13
48
1
60
0
100
AcDbTrace
10
-36
20
-22.343428
30
0
11
-32.500002
21
-21.882645
31
0
12
-32.499998
22
-22.804212
32
0
13
-36
23
-22.343428
33
0
39
0
210
0
220
0
230
1
0
SOLID
5
11E
100
AcDbEntity
8
SK2
62
256
6
ByLayer
370
13
48
1
60
0
100
AcDbTrace
10
88.9982
20
-22.343428
30
0
11
85.498202
21
-22.804212
31
0
12
85.498198
22
-21.882645
32
0
13
88.9982
23
-22.343428
33
0
39
0
210
0
220
0
230
1
0
ENDBLK
5
120
100
AcDbEntity
8
0
100
AcDbBlockEnd
0
BLOCK
5
12A
100
AcDbEntity
8
0
100
AcDbBlockBegin
2
DimnDraft3D6
70
0
10
0
20
0
30
0
3
DimnDraft3D6
0
MTEXT
5
123
100
AcDbEntity
8
SK2
62
256
6
ByLayer
370
13
48
1
60
0
100
AcDbMText
10
-46.375163
20
23.34918
30
0
210
0
220
0
230
1
1
\W0.7317;8,000
40
3.5
41
0
44
1.084337
50
90
71
7
72
5
7
iso_b_vert
0
MTEXT
5
124
100
AcDbEntity
8
SK2
62
256
6
ByLayer
370
13
48
1
60
0
100
AcDbMText
10
-46.375163
20
18.126524
30
0
210
0
220
0
230
1
1
%%c
40
3.5
41
0
44
1.084337
50
90
71
7
72
5
7
iso_b_vert
0
LINE
5
125
100
AcDbEntity
8
SK2
62
256
6
ByLayer
370
13
48
1
60
0
100
AcDbLine
10
-37.5875
20
-4
30
0
11
-46.625163
21
-4
31
0
39
0
210
0
220
0
230
1
0
LINE
5
126
100
AcDbEntity
8
SK2
62
256
6
ByLayer
370
13
48
1
60
0
100
AcDbLine
10
-37.5875
20
4
30
0
11
-46.625163
21
4
31
0
39
0
210
0
220
0
230
1
0
LINE
5
127
100
AcDbEntity
8
SK2
62
256
6
ByLayer
370
13
48
1
60
0
100
AcDbLine
10
-44.625163
20
-4
30
0
11
-44.625163
21
33.121549
31
0
39
0
210
0
220
0
230
1
0
SOLID
5
128
100
AcDbEntity
8
SK2
62
256
6
ByLayer
370
13
48
1
60
0
100
AcDbTrace
10
-44.625163
20
-4
30
0
11
-45.085946
21
-0.500002
31
0
12
-44.164379
22
-0.499998
32
0
13
-44.625163
23
-4
33
0
39
0
210
0
220
0
230
1
0
SOLID
5
129
100
AcDbEntity
8
SK2
62
256
6
ByLayer
370
13
48
1
60
0
100
AcDbTrace
10
-44.625163
20
4
30
0
11
-44.164379
21
0.500002
31
0
12
-45.085946
22
0.499998
32
0
13
-44.625163
23
4
33
0
39
0
210
0
220
0
230
1
0
ENDBLK
5
12B
100
AcDbEntity
8
0
100
AcDbBlockEnd
0
BLOCK
5
135
100
AcDbEntity
8
0
100
AcDbBlockBegin
2
DimnDraft3D7
70
0
10
0
20
0
30
0
3
DimnDraft3D7
0
MTEXT
5
12E
100
AcDbEntity
8
2
62
256
6
ByLayer
370
13
48
1
60
0
100
AcDbMText
10
100.333343
20
21.342266
30
0
210
0
220
0
230
1
1
\W0.7317;6,800
40
3.5
41
0
44
1.084337
50
90
71
7
72
5
7
iso_b_vert
0
MTEXT
5
12F
100
AcDbEntity
8
2
62
256
6
ByLayer
370
13
48
1
60
0
100
AcDbMText
10
100.333343
20
16.11961
30
0
210
0
220
0
230
1
1
%%c
40
3.5
41
0
44
1.084337
50
90
71
7
72
5
7
iso_b_vert
0
LINE
5
130
100
AcDbEntity
8
2
62
256
6
ByLayer
370
13
48
1
60
0
100
AcDbLine
10
90.5857
20
-3.4
30
0
11
104.083343
21
-3.4
31
0
39
0
210
0
220
0
230
1
0
LINE
5
131
100
AcDbEntity
8
2
62
256
6
ByLayer
370
13
48
1
60
0
100
AcDbLine
10
90.5857
20
3.4
30
0
11
104.083343
21
3.4
31
0
39
0
210
0
220
0
230
1
0
LINE
5
132
100
AcDbEntity
8
2
62
256
6
ByLayer
370
13
48
1
60
0
100
AcDbLine
10
102.083343
20
31.114635
30
0
11
102.083343
21
-12.15
31
0
39
0
210
0
220
0
230
1
0
SOLID
5
133
100
AcDbEntity
8
2
62
256
6
ByLayer
370
13
48
1
60
0
100
AcDbTrace
10
102.083343
20
-3.4
30
0
11
102.544126
21
-6.899998
31
0
12
101.622559
22
-6.900002
32
0
13
102.083343
23
-3.4
33
0
39
0
210
0
220
0
230
1
0
SOLID
5
134
100
AcDbEntity
8
2
62
256
6
ByLayer
370
13
48
1
60
0
100
AcDbTrace
10
102.083343
20
3.4
30
0
11
101.622559
21
6.899998
31
0
12
102.544126
22
6.900002
32
0
13
102.083343
23
3.4
33
0
39
0
210
0
220
0
230
1
0
ENDBLK
5
136
100
AcDbEntity
8
0
100
AcDbBlockEnd
0
ENDSEC
0
SECTION
2
ENTITIES
0
ARC
5
97
100
AcDbEntity
8
1
62
256
6
ByLayer
370
18
48
1
60
0
100
AcDbCircle
39
0
10
-0.35
20
3.694658
30
0
40
0.350000000000001
210
0
220
0
230
-1
100
AcDbArc
50
269.96419
51
0
0
ARC
5
98
100
AcDbEntity
8
1
62
256
6
ByLayer
370
18
48
1
60
0
100
AcDbCircle
39
0
10
-0.35
20
-3.694658
30
0
40
0.350000000000001
210
0
220
0
230
-1
100
AcDbArc
50
0
51
90.03581
0
ELLIPSE
5
99
100
AcDbEntity
8
1
62
256
6
ByLayer
370
18
48
1
60
0
100
AcDbEllipse
10
7.147541
20
-3.429015
30
0
11
0.25
21
0
31
0
210
0
220
0
230
1
40
0.999978
41
1.57318507449304
42
2.80233523225333
0
ELLIPSE
5
9A
100
AcDbEntity
8
1
62
256
6
ByLayer
370
18
48
1
60
0
100
AcDbEllipse
10
7.147541
20
3.429015
30
0
11
0.25
21
0
31
0
210
0
220
0
230
1
40
0.999978
41
-2.80021658725207
42
-1.56573541212015
0
POINT
5
6C
100
AcDbEntity
8
81
62
256
6
ByLayer
370
18
48
1
60
0
100
AcDbPoint
10
90
20
0
30
0
39
0
210
0
220
0
230
1
50
360
0
POINT
5
6E
100
AcDbEntity
8
80
62
256
6
ByLayer
370
18
48
1
60
0
100
AcDbPoint
10
0
20
0
30
0
39
0
210
0
220
0
230
1
50
360
0
POINT
5
70
100
AcDbEntity
8
SK2
62
256
6
ByLayer
370
18
48
1
60
1
100
AcDbPoint
10
-36
20
-4
30
0
39
0
210
0
220
0
230
1
50
360
0
POINT
5
72
100
AcDbEntity
8
SK2
62
256
6
ByLayer
370
18
48
1
60
1
100
AcDbPoint
10
-36
20
4
30
0
39
0
210
0
220
0
230
1
50
360
0
POINT
5
73
100
AcDbEntity
8
2
62
256
6
ByLayer
370
18
48
1
60
1
100
AcDbPoint
10
88.9982
20
-3.4
30
0
39
0
210
0
220
0
230
1
50
360
0
POINT
5
75
100
AcDbEntity
8
2
62
256
6
ByLayer
370
18
48
1
60
1
100
AcDbPoint
10
88.9982
20
3.4
30
0
39
0
210
0
220
0
230
1
50
360
0
SPLINE
5
9B
100
AcDbEntity
8
1
62
256
6
ByLayer
370
18
48
1
60
0
100
AcDbSpline
70
4
71
3
72
9
73
5
40
0
40
0
40
0
40
0
40
0.999994058468439
40
1
40
1
40
1
40
1
41
1
10
6.9319451356391
20
2.36278980559354
30
0
41
1
10
6.9362033823831
20
2.34730219954719
30
0
41
1
10
6.94190785977059
20
2.33291296950827
30
0
41
1
10
6.94932435180565
20
2.31914346933344
30
0
41
1
10
6.94932482605966
20
2.3191425888318
30
0
0
SPLINE
5
9C
100
AcDbEntity
8
1
62
256
6
ByLayer
370
18
48
1
60
0
100
AcDbSpline
70
4
71
3
72
19
73
15
40
0
40
0
40
0
40
0
40
0.123075665695885
40
0.20976010595783
40
0.320734903363294
40
0.421307957343648
40
0.497067547075429
40
0.572590553146908
40
0.67355923515521
40
0.751810558745654
40
0.819955429525073
40
0.880570338728651
40
0.939826707033871
40
1
40
1
40
1
40
1
41
1
10
45.1180299467308
20
-3.2024963725099
30
0
41
1
10
45.4018835021899
20
-3.20263947247952
30
0
41
1
10
45.8856319495552
20
-3.20289154534203
30
0
41
1
10
46.6250150755184
20
-3.20341140976916
30
0
41
1
10
47.3129279871561
20
-3.20367368926867
30
0
41
1
10
47.9755725144397
20
-3.20426091590568
30
0
41
1
10
48.5564561702225
20
-3.20441612951964
30
0
41
1
10
49.1382517795005
20
-3.20498908658362
30
0
41
1
10
49.7257986426514
20
-3.2050417020437
30
0
41
1
10
50.296336683256
20
-3.20526681308203
30
0
41
1
10
50.7738068280942
20
-3.20578491916731
30
0
41
1
10
51.2074428203459
20
-3.2054540443259
30
0
41
1
10
51.62268455023
20
-3.20637193259222
30
0
41
1
10
51.8981464171446
20
-3.20653228441535
30
0
41
1
10
52.0369373857056
20
-3.20660334709876
30
0
0
SPLINE
5
9D
100
AcDbEntity
8
1
62
256
6
ByLayer
370
18
48
1
60
0
100
AcDbSpline
70
4
71
3
72
18
73
14
40
0
40
0
40
0
40
0
40
0.0170618201395092
40
0.0886175863601172
40
0.195023306438209
40
0.31175607733672
40
0.4513027436005
40
0.564207328853324
40
0.652562978651157
40
0.731373487343879
40
0.815986068657796
40
0.926272881163096
40
1
40
1
40
1
40
1
41
1
10
30.2604681641115
20
3.19240572656639
30
0
41
1
10
30.2321032116251
20
3.19229138011556
30
0
41
1
10
30.0847753148047
20
3.19175790690556
30
0
41
1
10
29.7602517422055
20
3.19175018091158
30
0
41
1
10
29.2707605634289
20
3.19204752478404
30
0
41
1
10
28.6673484171358
20
3.19325627807933
30
0
41
1
10
28.053440528315
20
3.19210890904608
30
0
41
1
10
27.486785915085
20
3.19116855233969
30
0
41
1
10
27.0209609335151
20
3.19111972228964
30
0
41
1
10
26.6025835226771
20
3.19093560278247
30
0
41
1
10
26.1472559313936
20
3.19092522844781
30
0
41
1
10
25.7005407949297
20
3.19075690540555
30
0
41
1
10
25.3944236034674
20
3.19045209900904
30
0
41
1
10
25.2717980068182
20
3.19033485800961
30
0
0
SPLINE
5
9E
100
AcDbEntity
8
1
62
256
6
ByLayer
370
18
48
1
60
0
100
AcDbSpline
70
4
71
3
72
18
73
14
40
0
40
0
40
0
40
0
40
0.0199771674033721
40
0.0913654395010116
40
0.197939276398706
40
0.314944718596534
40
0.454205420152536
40
0.567211324553592
40
0.656089314065015
40
0.735077083781253
40
0.82017558574555
40
0.930672524092089
40
1
40
1
40
1
40
1
41
1
10
52.0435353679174
20
3.20670461983946
30
0
41
1
10
52.0103240833436
20
3.2067447754107
30
0
41
1
10
51.8584321944464
20
3.20687477253438
30
0
41
1
10
51.5293416779092
20
3.20586043537236
30
0
41
1
10
51.0390001930897
20
3.20564525518517
30
0
41
1
10
50.4357679134572
20
3.2055521972492
30
0
41
1
10
49.8218390177101
20
3.20492768241331
30
0
41
1
10
49.254704747302
20
3.20525213726535
30
0
41
1
10
48.7877375610328
20
3.20442193010337
30
0
41
1
10
48.3672108007101
20
3.20452865826536
30
0
41
1
10
47.9107074516123
20
3.20410218606355
30
0
41
1
10
47.4703061477244
20
3.20377855618426
30
0
41
1
10
47.1712925565861
20
3.20367848443243
30
0
41
1
10
47.0560310100062
20
3.20363407397261
30
0
0
SPLINE
5
9F
100
AcDbEntity
8
1
62
256
6
ByLayer
370
18
48
1
60
0
100
AcDbSpline
70
4
71
3
72
19
73
15
40
0
40
0
40
0
40
0
40
0.121644753331404
40
0.209179854955446
40
0.320122468586188
40
0.420853226392106
40
0.496446014755349
40
0.571936762592777
40
0.673084968502719
40
0.751818972702853
40
0.820090080553964
40
0.880822515769652
40
0.940171298205975
40
1
40
1
40
1
40
1
41
1
10
23.3670667136192
20
-3.18898491617028
30
0
41
1
10
23.6467511294911
20
-3.18916984845589
30
0
41
1
10
24.1276666044121
20
-3.18950444489462
30
0
41
1
10
24.8633229141207
20
-3.19002854652541
30
0
41
1
10
25.5513727312368
20
-3.19062410417473
30
0
41
1
10
26.211875633402
20
-3.1909177441799
30
0
41
1
10
26.790904500958
20
-3.19101867587648
30
0
41
1
10
27.3704013606723
20
-3.19114982827372
30
0
41
1
10
27.9576638923368
20
-3.19177748885852
30
0
41
1
10
28.5280824761163
20
-3.19334912883832
30
0
41
1
10
29.0058198904644
20
-3.19240233038912
30
0
41
1
10
29.4387943782411
20
-3.19201225085982
30
0
41
1
10
29.8520866498989
20
-3.19159217205134
30
0
41
1
10
30.12613106738
20
-3.19208770267681
30
0
41
1
10
30.263734944045
20
-3.19246403296239
30
0
0
SPLINE
5
A0
100
AcDbEntity
8
1
62
256
6
ByLayer
370
18
48
1
60
0
100
AcDbSpline
70
4
71
3
72
23
73
19
40
0
40
0
40
0
40
0
40
0.0764868424316704
40
0.139905270911491
40
0.184589836396361
40
0.23319740786273
40
0.295042998914957
40
0.360671950946377
40
0.41622230289262
40
0.479158686264892
40
0.535967839683735
40
0.597724334974292
40
0.675496560707533
40
0.75325386741254
40
0.822608870816436
40
0.883961554725943
40
0.942732138103406
40
1
40
1
40
1
40
1
41
1
10
66.8699954597311
20
-3.21628058937012
30
0
41
1
10
67.0456321030964
20
-3.21636029133583
30
0
41
1
10
67.3668943259539
20
-3.2165257636529
30
0
41
1
10
67.7908159477748
20
-3.216667755196
30
0
41
1
10
68.1506268594329
20
-3.2169986827866
30
0
41
1
10
68.5067453890661
20
-3.21711643260773
30
0
41
1
10
68.9111384136946
20
-3.21716963530164
30
0
41
1
10
69.3314555108519
20
-3.2173212945774
30
0
41
1
10
69.7542402901847
20
-3.21724459574821
30
0
41
1
10
70.1568985828047
20
-3.21750507275823
30
0
41
1
10
70.5732216065432
20
-3.2187813660461
30
0
41
1
10
71.0241539914068
20
-3.21841210974696
30
0
41
1
10
71.5229149596207
20
-3.21807211785335
30
0
41
1
10
72.0392312490103
20
-3.21763786994097
30
0
41
1
10
72.5180361804769
20
-3.21793721901366
30
0
41
1
10
72.9530396012867
20
-3.21986020987521
30
0
41
1
10
73.3600161654058
20
-3.21979235287509
30
0
41
1
10
73.6265059308334
20
-3.21984606787069
30
0
41
1
10
73.7580546613508
20
-3.21979177209246
30
0
0
SPLINE
5
A1
100
AcDbEntity
8
1
62
256
6
ByLayer
370
18
48
1
60
0
100
AcDbSpline
70
4
71
3
72
10
73
6
40
0
40
0
40
0
40
0
40
0.435715735843581
40
0.938708778346051
40
1
40
1
40
1
40
1
41
1
10
7.14786929726813
20
-3.17905532017951
30
0
41
1
10
7.36364890790176
20
-3.17940924276314
30
0
41
1
10
7.82852655123602
20
-3.18001134521273
30
0
41
1
10
8.32375736715437
20
-3.1800457850151
30
0
41
1
10
8.60320989466342
20
-3.18009156739146
30
0
41
1
10
8.63356337654551
20
-3.18009555973868
30
0
0
SPLINE
5
A2
100
AcDbEntity
8
1
62
256
6
ByLayer
370
18
48
1
60
0
100
AcDbSpline
70
4
71
1
72
4
73
2
40
0
40
0
40
1
40
1
41
1
10
88.6400049335228
20
-3.229904161984
30
0
41
1
10
88.8108667923013
20
-3.23008720298893
30
0
0
SPLINE
5
A3
100
AcDbEntity
8
1
62
256
6
ByLayer
370
18
48
1
60
0
100
AcDbSpline
70
4
71
3
72
17
73
13
40
0
40
0
40
0
40
0
40
0.0143350977545034
40
0.0855859583260264
40
0.19211867431872
40
0.311687454263026
40
0.451042531221037
40
0.585059117890443
40
0.687465886659945
40
0.794824223048354
40
0.93325022553059
40
1
40
1
40
1
40
1
41
1
10
73.7548173019109
20
3.21977349238114
30
0
41
1
10
73.7311774048821
20
3.21977880331772
30
0
41
1
10
73.5900360170612
20
3.21980401513207
30
0
41
1
10
73.2729127102405
20
3.21994239906476
30
0
41
1
10
72.7830163497604
20
3.2192245534566
30
0
41
1
10
72.1798725418748
20
3.21727846062143
30
0
41
1
10
71.5318173189285
20
3.21806804857346
30
0
41
1
10
70.9118337921178
20
3.21871246007927
30
0
41
1
10
70.3451881554446
20
3.21821033278334
30
0
41
1
10
69.7707562128467
20
3.21697786791879
30
0
41
1
10
69.2551630326247
20
3.21728043322392
30
0
41
1
10
68.916622669398
20
3.21722949132723
30
0
41
1
10
68.8064957200974
20
3.21720064940112
30
0
0
SPLINE
5
A4
100
AcDbEntity
8
1
62
256
6
ByLayer
370
18
48
1
60
0
100
AcDbSpline
70
4
71
3
72
10
73
6
40
0
40
0
40
0
40
0
40
0.0616539769851365
40
0.564452642756619
40
1
40
1
40
1
40
1
41
1
10
8.63413773168736
20
3.18009564569033
30
0
41
1
10
8.60359279728496
20
3.18009163127141
30
0
41
1
10
8.32394881746922
20
3.18004579375526
30
0
41
1
10
7.8285265498352
20
3.18001134702172
30
0
41
1
10
7.36364890745773
20
3.17940924276235
30
0
41
1
10
7.14786929726813
20
3.1790553201796
30
0
0
SPLINE
5
A5
100
AcDbEntity
8
1
62
256
6
ByLayer
370
18
48
1
60
0
100
AcDbSpline
70
4
71
1
72
4
73
2
40
0
40
0
40
1
40
1
41
1
10
6.91750893141369
20
2.39904496335007
30
0
41
1
10
6.93194513563907
20
2.36278980559354
30
0
0
SPLINE
5
A6
100
AcDbEntity
8
1
62
256
6
ByLayer
370
18
48
1
60
0
100
AcDbSpline
70
4
71
3
72
16
73
12
40
0
40
0
40
0
40
0
40
0.125
40
0.125
40
0.25
40
0.25
40
0.5
40
0.5
40
0.75
40
0.75
40
1
40
1
40
1
40
1
41
1
10
6.91085547157175
20
-2.69066228302444
30
0
41
1
10
6.91612153097432
20
-2.67551519813387
30
0
41
1
10
6.92334075829288
20
-2.66158874476398
30
0
41
1
10
6.94048724865908
20
-2.63961073582826
30
0
41
1
10
6.9505800317869
20
-2.63126679295405
30
0
41
1
10
6.98210829739705
20
-2.61462021301514
30
0
41
1
10
7.004603949852
20
-2.61381665023333
30
0
41
1
10
7.04783304310658
20
-2.62149869535983
30
0
41
1
10
7.06859608915767
20
-2.62994870772923
30
0
41
1
10
7.10918293835189
20
-2.65184976159267
30
0
41
1
10
7.12891190910443
20
-2.66539814540945
30
0
41
1
10
7.14800584379751
20
-2.68063155202566
30
0
0
SPLINE
5
A7
100
AcDbEntity
8
1
62
256
6
ByLayer
370
18
48
1
60
0
100
AcDbSpline
70
4
71
3
72
80
73
76
40
0
40
0
40
0
40
0
40
0.0144593232516728
40
0.0144593232516728
40
0.0363670428457421
40
0.0363670428457421
40
0.0582747624398114
40
0.0582747624398114
40
0.0801824820338806
40
0.0801824820338806
40
0.123997921222019
40
0.123997921222019
40
0.145905640816088
40
0.145905640816088
40
0.167813360410157
40
0.167813360410157
40
0.211628799598294
40
0.211628799598294
40
0.255444238786432
40
0.255444238786432
40
0.2773519583805
40
0.2773519583805
40
0.299259677974568
40
0.299259677974568
40
0.321167397568637
40
0.321167397568637
40
0.343075117162705
40
0.343075117162705
40
0.364982836756774
40
0.364982836756774
40
0.386890556350842
40
0.386890556350842
40
0.430705995538979
40
0.430705995538979
40
0.474521434727116
40
0.474521434727116
40
0.496429154321184
40
0.496429154321184
40
0.518336873915252
40
0.518336873915252
40
0.562152313103387
40
0.562152313103387
40
0.584060032697455
40
0.584060032697455
40
0.605967752291523
40
0.605967752291523
40
0.627875471885591
40
0.627875471885591
40
0.649783191479659
40
0.649783191479659
40
0.671690911073727
40
0.671690911073727
40
0.693598630667795
40
0.693598630667795
40
0.715506350261862
40
0.715506350261862
40
0.73741406985593
40
0.73741406985593
40
0.781229509044066
40
0.781229509044066
40
0.803137228638133
40
0.803137228638133
40
0.825044948232201
40
0.825044948232201
40
0.846952667826268
40
0.846952667826268
40
0.868860387420335
40
0.868860387420335
40
0.91267582660847
40
0.91267582660847
40
0.934583546202536
40
0.934583546202536
40
0.956491265796603
40
0.956491265796603
40
1
40
1
40
1
40
1
41
1
10
15.1675138755855
20
1.83323760667079
30
0
41
1
10
15.3051658795511
20
1.88956462262033
30
0
41
1
10
15.4428008705512
20
1.9444379118635
30
0
41
1
10
15.7890568032076
20
2.07870076420599
30
0
41
1
10
15.9975799736893
20
2.15642044610007
30
0
41
1
10
16.4140503598917
20
2.30634116753418
30
0
41
1
10
16.6220979770999
20
2.37838150285438
30
0
41
1
10
17.0374421564807
20
2.51700983883924
30
0
41
1
10
17.2445778890755
20
2.58375483517256
30
0
41
1
10
17.868757325207
20
2.77032162138107
30
0
41
1
10
18.2869649231946
20
2.87905147749947
30
0
41
1
10
18.9154585925806
20
3.02062617283795
30
0
41
1
10
19.1248002573142
20
3.06448040928726
30
0
41
1
10
19.5455524005612
20
3.14299464318225
30
0
41
1
10
19.7560727143116
20
3.17744163791448
30
0
41
1
10
20.3857982555989
20
3.26724963754396
30
0
41
1
10
20.8037862925467
20
3.30950251726213
30
0
41
1
10
21.6337701188386
20
3.35849999697666
30
0
41
1
10
22.050091660122
20
3.3642040674624
30
0
41
1
10
22.6742910488586
20
3.34623271219115
30
0
41
1
10
22.8823851636175
20
3.33576851368676
30
0
41
1
10
23.2982106459783
20
3.30546648541625
30
0
41
1
10
23.5058967398522
20
3.2855110732398
30
0
41
1
10
23.9235078375261
20
3.23717235659998
30
0
41
1
10
24.1331110043394
20
3.20873287530833
30
0
41
1
10
24.553270381525
20
3.14296496776612
30
0
41
1
10
24.7642023346988
20
3.10557606033584
30
0
41
1
10
25.1852790889845
20
3.02188674488036
30
0
41
1
10
25.3947760008631
20
2.97515274520146
30
0
41
1
10
25.8143850135273
20
2.87436827841299
30
0
41
1
10
26.0245473024025
20
2.82045354614397
30
0
41
1
10
26.6553935423445
20
2.6477935401509
30
0
41
1
10
27.0761218661121
20
2.51780288853635
30
0
41
1
10
27.9166906720552
20
2.22482581515874
30
0
41
1
10
28.338549355972
20
2.06867478847434
30
0
41
1
10
28.9712152319526
20
1.81684035220059
30
0
41
1
10
29.1818469047788
20
1.73022961092406
30
0
41
1
10
29.6015643092212
20
1.55085398910407
30
0
41
1
10
29.8108874922246
20
1.45830420114245
30
0
41
1
10
30.4409553992733
20
1.17909449121007
30
0
41
1
10
30.8620413539584
20
0.987777086177829
30
0
41
1
10
31.4933169656261
20
0.689091839036564
30
0
41
1
10
31.7032244705952
20
0.586818977940283
30
0
41
1
10
32.1233757476603
20
0.383887715534485
30
0
41
1
10
32.3336978210083
20
0.282823206642348
30
0
41
1
10
32.7542729949251
20
0.0803451451084527
30
0
41
1
10
32.964470019639
20
-0.0211845630564085
30
0
41
1
10
33.384683414717
20
-0.224827385161007
30
0
41
1
10
33.5943916888385
20
-0.327578594576522
30
0
41
1
10
34.0142295919096
20
-0.532426907695935
30
0
41
1
10
34.2251283476226
20
-0.633400328957634
30
0
41
1
10
34.6455262731751
20
-0.831602709046308
30
0
41
1
10
34.8552455451459
20
-0.929210791896878
30
0
41
1
10
35.2734808167448
20
-1.12200855037804
30
0
41
1
10
35.482081020841
20
-1.21702935190379
30
0
41
1
10
35.8976523528272
20
-1.40536611170296
30
0
41
1
10
36.1051271668002
20
-1.49765590019851
30
0
41
1
10
36.7289482084945
20
-1.76471470553832
30
0
41
1
10
37.1453283298316
20
-1.93244533737283
30
0
41
1
10
37.7690237362464
20
-2.17119991849202
30
0
41
1
10
37.9764305496029
20
-2.24913616573244
30
0
41
1
10
38.3932990670787
20
-2.39675522816529
30
0
41
1
10
38.6025516139345
20
-2.46682742171103
30
0
41
1
10
39.0220983041041
20
-2.60047622999778
30
0
41
1
10
39.2324643590797
20
-2.66412866887882
30
0
41
1
10
39.6537328012524
20
-2.7847008025997
30
0
41
1
10
39.8631382213585
20
-2.84170211899988
30
0
41
1
10
40.4899313195204
20
-2.99987023619931
30
0
41
1
10
40.9076736761327
20
-3.08673926302555
30
0
41
1
10
41.5318404355487
20
-3.19285795210141
30
0
41
1
10
41.7396050423893
20
-3.22405481371953
30
0
41
1
10
42.1539252039901
20
-3.27817629186274
30
0
41
1
10
42.3610299217408
20
-3.30073061285665
30
0
41
1
10
42.98151358651
20
-3.35404672488619
30
0
41
1
10
43.3955639612205
20
-3.37190900342665
30
0
41
1
10
43.8098788724021
20
-3.3718152540506
30
0
0
SPLINE
5
A8
100
AcDbEntity
8
1
62
256
6
ByLayer
370
18
48
1
60
0
100
AcDbSpline
70
4
71
3
72
80
73
76
40
0
40
0
40
0
40
0
40
0.0056010082538056
40
0.0056010082538056
40
0.0493589789604166
40
0.0493589789604166
40
0.071237964313722
40
0.071237964313722
40
0.0931169496670276
40
0.0931169496670276
40
0.136874920373638
40
0.136874920373638
40
0.158753905726945
40
0.158753905726945
40
0.18063289108025
40
0.18063289108025
40
0.202511876433556
40
0.202511876433556
40
0.224390861786862
40
0.224390861786862
40
0.268148832493474
40
0.268148832493474
40
0.290027817846781
40
0.290027817846781
40
0.311906803200087
40
0.311906803200087
40
0.355664773906701
40
0.355664773906701
40
0.377543759260009
40
0.377543759260009
40
0.399422744613317
40
0.399422744613317
40
0.421301729966625
40
0.421301729966625
40
0.443180715319932
40
0.443180715319932
40
0.486938686026548
40
0.486938686026548
40
0.508817671379855
40
0.508817671379855
40
0.530696656733163
40
0.530696656733163
40
0.57445462743978
40
0.57445462743978
40
0.596333612793088
40
0.596333612793088
40
0.618212598146397
40
0.618212598146397
40
0.640091583499705
40
0.640091583499705
40
0.661970568853013
40
0.661970568853013
40
0.705728539559631
40
0.705728539559631
40
0.72760752491294
40
0.72760752491294
40
0.749486510266249
40
0.749486510266249
40
0.793244480972868
40
0.793244480972868
40
0.815123466326178
40
0.815123466326178
40
0.837002451679488
40
0.837002451679488
40
0.858881437032797
40
0.858881437032797
40
0.880760422386107
40
0.880760422386107
40
0.924518393092726
40
0.924518393092726
40
0.946397378446035
40
0.946397378446035
40
0.968276363799344
40
0.968276363799344
40
1
40
1
40
1
40
1
41
1
10
58.6767066631277
20
1.84836071879226
30
0
41
1
10
58.7296970386434
20
1.87035411540592
30
0
41
1
10
58.7826886535082
20
1.89219138802019
30
0
41
1
10
59.2501791659317
20
2.08239198385758
30
0
41
1
10
59.6670990237603
20
2.23749319551197
30
0
41
1
10
60.2937549956
20
2.454114057303
30
0
41
1
10
60.5029570774001
20
2.52345863807116
30
0
41
1
10
60.921477051738
20
2.65690245610992
30
0
41
1
10
61.1318106684279
20
2.71991929167589
30
0
41
1
10
61.7633368177985
20
2.89554911202532
30
0
41
1
10
62.1853599621343
20
2.99662617090811
30
0
41
1
10
62.8154163632462
20
3.12473302810682
30
0
41
1
10
63.0245373423726
20
3.16351720832736
30
0
41
1
10
63.4440658972275
20
3.23102767233237
30
0
41
1
10
63.6541528894315
20
3.26008428056636
30
0
41
1
10
64.0742743643224
20
3.30941332944508
30
0
41
1
10
64.2843322249807
20
3.32965572536048
30
0
41
1
10
64.7043697676204
20
3.36112831828814
30
0
41
1
10
64.9140974334251
20
3.3724268759824
30
0
41
1
10
65.5440927171476
20
3.39172285298781
30
0
41
1
10
65.9647435637664
20
3.38572663039957
30
0
41
1
10
66.5943366437591
20
3.34927328771369
30
0
41
1
10
66.8040364416884
20
3.33249881319253
30
0
41
1
10
67.2226598512045
20
3.28909340922544
30
0
41
1
10
67.4327935909778
20
3.26291435783284
30
0
41
1
10
68.0644650327042
20
3.17158220778421
30
0
41
1
10
68.4835989532536
20
3.09405102155063
30
0
41
1
10
69.1076590653851
20
2.95133741884572
30
0
41
1
10
69.3149109314315
20
2.89925236104665
30
0
41
1
10
69.7304498073325
20
2.78899741813154
30
0
41
1
10
69.9384124257407
20
2.73053539514996
30
0
41
1
10
70.3540783429905
20
2.6062996930213
30
0
41
1
10
70.5618289589273
20
2.5405737384994
30
0
41
1
10
70.9770696678312
20
2.40162789981665
30
0
41
1
10
71.1841035952292
20
2.32768353612894
30
0
41
1
10
71.8074395823987
20
2.09823649860388
30
0
41
1
10
72.2259647205238
20
1.9356153883225
30
0
41
1
10
72.8559018202282
20
1.67317279709979
30
0
41
1
10
73.0664620330454
20
1.58241351188545
30
0
41
1
10
73.4846788043848
20
1.39594883964412
30
0
41
1
10
73.693653742855
20
1.30185359194689
30
0
41
1
10
74.3200700643567
20
1.0168707627812
30
0
41
1
10
74.7365816173674
20
0.822463275379505
30
0
41
1
10
75.3581276350791
20
0.520963779678368
30
0
41
1
10
75.5647576673104
20
0.418767690099344
30
0
41
1
10
75.9795663122345
20
0.216503017432643
30
0
41
1
10
76.1874012520834
20
0.115730498978763
30
0
41
1
10
76.6032586556452
20
-0.0864912947219523
30
0
41
1
10
76.8113333539487
20
-0.187832520502837
30
0
41
1
10
77.2276627852558
20
-0.391243592393096
30
0
41
1
10
77.4354839799162
20
-0.494247627518007
30
0
41
1
10
78.061963147035
20
-0.798538363979134
30
0
41
1
10
78.4849632336787
20
-0.996161298089135
30
0
41
1
10
79.1128935429994
20
-1.28371773353169
30
0
41
1
10
79.3213796656261
20
-1.37829598117324
30
0
41
1
10
79.7368001272869
20
-1.56454088032137
30
0
41
1
10
79.9446270372784
20
-1.65449312665476
30
0
41
1
10
80.5682672421239
20
-1.91568111742072
30
0
41
1
10
80.9838207307595
20
-2.07914559185988
30
0
41
1
10
81.6051467421094
20
-2.31071446456499
30
0
41
1
10
81.8119816621055
20
-2.38545084684631
30
0
41
1
10
82.227574654345
20
-2.52634674222745
30
0
41
1
10
82.4360024136205
20
-2.59304974029766
30
0
41
1
10
82.853477532715
20
-2.7199051297257
30
0
41
1
10
83.0625795234267
20
-2.77997426166874
30
0
41
1
10
83.4814267050548
20
-2.89330084676112
30
0
41
1
10
83.6912078564621
20
-2.94712756096138
30
0
41
1
10
84.3201181973406
20
-3.09380967296818
30
0
41
1
10
84.7385598204219
20
-3.17284157453773
30
0
41
1
10
85.3628238476366
20
-3.26649413051865
30
0
41
1
10
85.5702803621919
20
-3.29351735433622
30
0
41
1
10
85.9841809839687
20
-3.33871921463074
30
0
41
1
10
86.1914800486525
20
-3.35652143503083
30
0
41
1
10
86.6999895284368
20
-3.38900304074912
30
0
41
1
10
87.0012718845023
20
-3.39884336435935
30
0
41
1
10
87.3024982070588
20
-3.39903650230062
30
0
0
SPLINE
5
A9
100
AcDbEntity
8
1
62
256
6
ByLayer
370
18
48
1
60
0
100
AcDbSpline
70
4
71
3
72
18
73
14
40
0
40
0
40
0
40
0
40
0.0397282295070322
40
0.0397282295070322
40
0.176909911006027
40
0.176909911006027
40
0.451273274004018
40
0.451273274004018
40
0.588454955503014
40
0.588454955503014
40
0.725636637002009
40
0.725636637002009
40
1
40
1
40
1
40
1
41
1
10
6.91079923040749
20
-3.3487511560798
30
0
41
1
10
6.91079940115955
20
-3.34875662174483
30
0
41
1
10
6.91079959106901
20
-3.34839967477885
30
0
41
1
10
6.91080052726269
20
-3.34519249515114
30
0
41
1
10
6.91080149524331
20
-3.33842847136825
30
0
41
1
10
6.91080523639647
20
-3.30557018933391
30
0
41
1
10
6.91080885696027
20
-3.26700611575464
30
0
41
1
10
6.91081622031265
20
-3.18348356693812
30
0
41
1
10
6.91081899849763
20
-3.1512807877682
30
0
41
1
10
6.91082506290078
20
-3.07951525217604
30
0
41
1
10
6.91082836048127
20
-3.03982529765924
30
0
41
1
10
6.91083894811823
20
-2.90953194037201
30
0
41
1
10
6.91084694667367
20
-2.80779249443566
30
0
41
1
10
6.91085547157135
20
-2.69066228302444
30
0
0
SPLINE
5
AA
100
AcDbEntity
8
1
62
256
6
ByLayer
370
18
48
1
60
0
100
AcDbSpline
70
4
71
3
72
8
73
4
40
0
40
0
40
0
40
0
40
1
40
1
40
1
40
1
41
1
10
88.8980841654602
20
3.31005252604797
30
0
41
1
10
88.8518828811394
20
3.35480899109066
30
0
41
1
10
88.8119134068443
20
3.38328262895746
30
0
41
1
10
88.7778836612608
20
3.3945181976211
30
0
0
SPLINE
5
AB
100
AcDbEntity
8
1
62
256
6
ByLayer
370
18
48
1
60
0
100
AcDbSpline
70
4
71
3
72
8
73
4
40
0
40
0
40
0
40
0
40
1
40
1
40
1
40
1
41
1
10
89.9777182170433
20
0.137246350675866
30
0
41
1
10
89.9814347486673
20
0.108131866368751
30
0
41
1
10
89.9895192952259
20
0.0721318870038203
30
0
41
1
10
89.9999575110159
20
0.0340169404047117
30
0
0
SPLINE
5
AC
100
AcDbEntity
8
1
62
256
6
ByLayer
370
18
48
1
60
0
100
AcDbSpline
70
4
71
3
72
14
73
10
40
0
40
0
40
0
40
0
40
0.25
40
0.25
40
0.5
40
0.5
40
0.75
40
0.75
40
1
40
1
40
1
40
1
41
1
10
88.8251772938929
20
-3.22852821148743
30
0
41
1
10
88.8274189773375
20
-3.22812264503318
30
0
41
1
10
88.8289592628917
20
-3.22956576694665
30
0
41
1
10
88.8301775403017
20
-3.23724524374521
30
0
41
1
10
88.8297814016314
20
-3.24349806822997
30
0
41
1
10
88.8265381662997
20
-3.26078601295995
30
0
41
1
10
88.8236261211937
20
-3.27198428964238
30
0
41
1
10
88.8159130018666
20
-3.29654709022657
30
0
41
1
10
88.8111484241067
20
-3.30985067286699
30
0
41
1
10
88.8061132208892
20
-3.32267847109051
30
0
0
SPLINE
5
AD
100
AcDbEntity
8
1
62
256
6
ByLayer
370
18
48
1
60
0
100
AcDbSpline
70
4
71
3
72
8
73
4
40
0
40
0
40
0
40
0
40
1
40
1
40
1
40
1
41
1
10
89.8779587288495
20
-0.211010874669768
30
0
41
1
10
89.5124481499806
20
-1.21524293668625
30
0
41
1
10
89.1469375711117
20
-2.21947499870268
30
0
41
1
10
88.7814269922424
20
-3.22370706072033
30
0
0
SPLINE
5
AE
100
AcDbEntity
8
1
62
256
6
ByLayer
370
18
48
1
60
0
100
AcDbSpline
70
4
71
3
72
10
73
6
40
0
40
0
40
0
40
0
40
0.5
40
0.5
40
1
40
1
40
1
40
1
41
1
10
88.8980841654602
20
-3.31005252604794
30
0
41
1
10
89.0627179798284
20
-2.89536877007811
30
0
41
1
10
89.2274452024975
20
-2.48042080374577
30
0
41
1
10
89.5552339038148
20
-1.64894415340942
30
0
41
1
10
89.7182501701475
20
-1.23241972628938
30
0
41
1
10
89.8795017120544
20
-0.81525919130749
30
0
0
SPLINE
5
AF
100
AcDbEntity
8
1
62
256
6
ByLayer
370
18
48
1
60
0
100
AcDbSpline
70
4
71
3
72
18
73
14
40
0
40
0
40
0
40
0
40
0.249999999999993
40
0.249999999999993
40
0.374999999999992
40
0.374999999999992
40
0.499999999999992
40
0.499999999999992
40
0.749999999999995
40
0.749999999999995
40
0.874999999999997
40
0.874999999999997
40
1
40
1
40
1
40
1
41
1
10
88.7814269922423
20
-3.22370706071948
30
0
41
1
10
88.7140103025631
20
-3.21278196452263
30
0
41
1
10
88.6516293095151
20
-3.18763607487202
30
0
41
1
10
88.5662699381318
20
-3.12672624118795
30
0
41
1
10
88.5391038054943
20
-3.10239432758209
30
0
41
1
10
88.4886955258584
20
-3.04658046666316
30
0
41
1
10
88.4653299833344
20
-3.01504919662238
30
0
41
1
10
88.400769666571
20
-2.90954191976687
30
0
41
1
10
88.3650647884114
20
-2.82474394137299
30
0
41
1
10
88.3233541200461
20
-2.67419423712491
30
0
41
1
10
88.3114153717401
20
-2.6198493367701
30
0
41
1
10
88.2921149847299
20
-2.50505695131122
30
0
41
1
10
88.2846849187405
20
-2.44444616772299
30
0
41
1
10
88.2794880709816
20
-2.38060183882749
30
0
0
SPLINE
5
B0
100
AcDbEntity
8
1
62
256
6
ByLayer
370
18
48
1
60
0
100
AcDbSpline
70
4
71
3
72
12
73
8
40
0
40
0
40
0
40
0
40
0.257839733993295
40
0.257839733993295
40
0.515679467986589
40
0.515679467986589
40
1
40
1
40
1
40
1
41
1
10
7.14800584588306
20
-2.68063155368952
30
0
41
1
10
7.26028964743534
20
-2.77021313176269
30
0
41
1
10
7.37716736490606
20
-2.84668477243773
30
0
41
1
10
7.62009321661671
20
-2.9758466128246
30
0
41
1
10
7.74690297423373
20
-3.02865868889202
30
0
41
1
10
8.11812938818414
20
-3.14558849938157
30
0
41
1
10
8.36927612569872
20
-3.18041662321036
30
0
41
1
10
8.63221364931809
20
-3.18006599963203
30
0
0
SPLINE
5
B1
100
AcDbEntity
8
1
62
256
6
ByLayer
370
18
48
1
60
0
100
AcDbSpline
70
4
71
3
72
36
73
32
40
0
40
0
40
0
40
0
40
0.0625000000000027
40
0.0625000000000027
40
0.125000000000005
40
0.125000000000005
40
0.187500000000008
40
0.187500000000008
40
0.250000000000011
40
0.250000000000011
40
0.375000000000024
40
0.375000000000024
40
0.437500000000021
40
0.437500000000021
40
0.500000000000019
40
0.500000000000019
40
0.562500000000017
40
0.562500000000017
40
0.625000000000014
40
0.625000000000014
40
0.687500000000012
40
0.687500000000012
40
0.750000000000009
40
0.750000000000009
40
0.812500000000007
40
0.812500000000007
40
0.875000000000005
40
0.875000000000005
40
0.937500000000002
40
0.937500000000002
40
1
40
1
40
1
40
1
41
1
10
88.8777793287082
20
-1.5685460777149
30
0
41
1
10
88.8738381499873
20
-1.60569780299917
30
0
41
1
10
88.8733174186685
20
-1.64005767646506
30
0
41
1
10
88.878607323782
20
-1.6991121847316
30
0
41
1
10
88.8844257395909
20
-1.72440590008449
30
0
41
1
10
88.9010122547693
20
-1.76505361589508
30
0
41
1
10
88.9118323885992
20
-1.78070460825359
30
0
41
1
10
88.9372774843461
20
-1.80288380201634
30
0
41
1
10
88.9517356978076
20
-1.80938637248681
30
0
41
1
10
88.9997866293257
20
-1.81653555637735
30
0
41
1
10
89.0371506090872
20
-1.80460975169259
30
0
41
1
10
89.0971270724823
20
-1.76509396302964
30
0
41
1
10
89.1175504404101
20
-1.7484765266413
30
0
41
1
10
89.1592678552938
20
-1.70828470376893
30
0
41
1
10
89.1807149550478
20
-1.68449634251883
30
0
41
1
10
89.2233686069973
20
-1.6304746281038
30
0
41
1
10
89.2445207350866
20
-1.60033219445529
30
0
41
1
10
89.2854129520885
20
-1.53477551299289
30
0
41
1
10
89.3055650345041
20
-1.49864382987087
30
0
41
1
10
89.3430365691536
20
-1.42239598825242
30
0
41
1
10
89.3604233279612
20
-1.38223909144728
30
0
41
1
10
89.3912518093539
20
-1.2989117029272
30
0
41
1
10
89.4041061238749
20
-1.25740788747379
30
0
41
1
10
89.4242681100326
20
-1.17474666915223
30
0
41
1
10
89.4312095681792
20
-1.13470231525301
30
0
41
1
10
89.4381723920814
20
-1.0611651113494
30
0
41
1
10
89.4381922083907
20
-1.02759884620491
30
0
41
1
10
89.4319399085492
20
-0.969895723781178
30
0
41
1
10
89.425668060013
20
-0.945488004517586
30
0
41
1
10
89.4082664740232
20
-0.906506050371831
30
0
41
1
10
89.3970121752513
20
-0.891636561647346
30
0
41
1
10
89.3840464603767
20
-0.881393899535112
30
0
0
SPLINE
5
B2
100
AcDbEntity
8
1
62
256
6
ByLayer
370
18
48
1
60
0
100
AcDbSpline
70
4
71
3
72
42
73
38
40
0
40
0
40
0
40
0
40
0.0939409940820968
40
0.0939409940820968
40
0.140911491123146
40
0.140911491123146
40
0.187881988164195
40
0.187881988164195
40
0.281822982246293
40
0.281822982246293
40
0.305308230766817
40
0.305308230766817
40
0.328793479287342
40
0.328793479287342
40
0.375763976328392
40
0.375763976328392
40
0.422734473369442
40
0.422734473369442
40
0.469704970410493
40
0.469704970410493
40
0.516675467451543
40
0.516675467451543
40
0.563645964492594
40
0.563645964492594
40
0.610616461533644
40
0.610616461533644
40
0.657586958574694
40
0.657586958574694
40
0.751527952656795
40
0.751527952656795
40
0.798498449697845
40
0.798498449697845
40
0.845468946738895
40
0.845468946738895
40
0.939409940820994
40
0.939409940820994
40
1
40
1
40
1
40
1
41
1
10
8.6834370104495
20
1.17562921899977
30
0
41
1
10
9.10358083113195
20
0.98135275351251
30
0
41
1
10
9.52338448720477
20
0.786891753851847
30
0
41
1
10
10.1505979689084
20
0.490615075305328
30
0
41
1
10
10.3592398332067
20
0.391064113624253
30
0
41
1
10
10.7752306853926
20
0.189460722690228
30
0
41
1
10
10.9824467292768
20
0.0871287803221037
30
0
41
1
10
11.6060985707356
20
-0.215251685363086
30
0
41
1
10
12.0230516563331
20
-0.413851295488428
30
0
41
1
10
12.544127073592
20
-0.661742437627566
30
0
41
1
10
12.6483444846187
20
-0.711285150931786
30
0
41
1
10
12.8567025936064
20
-0.810469200310195
30
0
41
1
10
12.960777055264
20
-0.860249618865197
30
0
41
1
10
13.2739101208541
20
-1.00758066044671
30
0
41
1
10
13.483585953439
20
-1.10373815602981
30
0
41
1
10
13.9043941053198
20
-1.29274084714805
30
0
41
1
10
14.1158194756969
20
-1.38594884403702
30
0
41
1
10
14.5365490203049
20
-1.56825727158701
30
0
41
1
10
14.7461607251262
20
-1.65744187242501
30
0
41
1
10
15.1633758294053
20
-1.83263544176322
30
0
41
1
10
15.3718835998434
20
-1.91693930708143
30
0
41
1
10
15.7890568032076
20
-2.07870076420599
30
0
41
1
10
15.9975799736894
20
-2.1564204461001
30
0
41
1
10
16.4140503598917
20
-2.30634116753418
30
0
41
1
10
16.6220979770999
20
-2.37838150285441
30
0
41
1
10
17.0374421564807
20
-2.51700983883924
30
0
41
1
10
17.2445778890755
20
-2.58375483517256
30
0
41
1
10
17.868757325207
20
-2.77032162138107
30
0
41
1
10
18.2869649231946
20
-2.87905147749947
30
0
41
1
10
18.9154585925806
20
-3.02062617283795
30
0
41
1
10
19.1248002573143
20
-3.06448040928726
30
0
41
1
10
19.5455524005612
20
-3.14299464318225
30
0
41
1
10
19.7560727143116
20
-3.17744163791448
30
0
41
1
10
20.3857982555989
20
-3.26724963754396
30
0
41
1
10
20.8037862925467
20
-3.30950251726213
30
0
41
1
10
21.4864396757677
20
-3.34980245352219
30
0
41
1
10
21.7546542700265
20
-3.35778508331637
30
0
41
1
10
22.0230146268265
20
-3.35824689011216
30
0
0
SPLINE
5
B3
100
AcDbEntity
8
1
62
256
6
ByLayer
370
18
48
1
60
0
100
AcDbSpline
70
4
71
3
72
86
73
82
40
0
40
0
40
0
40
0
40
0.0211955163189501
40
0.0211955163189501
40
0.0430917158568668
40
0.0430917158568668
40
0.0649879153947833
40
0.0649879153947833
40
0.0868841149326998
40
0.0868841149326998
40
0.108780314470616
40
0.108780314470616
40
0.152572713546451
40
0.152572713546451
40
0.174468913084368
40
0.174468913084368
40
0.196365112622285
40
0.196365112622285
40
0.240157511698118
40
0.240157511698118
40
0.262053711236034
40
0.262053711236034
40
0.28394991077395
40
0.28394991077395
40
0.305846110311866
40
0.305846110311866
40
0.316794210080824
40
0.316794210080824
40
0.327742309849782
40
0.327742309849782
40
0.371534708925612
40
0.371534708925612
40
0.393430908463526
40
0.393430908463526
40
0.41532710800144
40
0.41532710800144
40
0.45911950707727
40
0.45911950707727
40
0.481015706615185
40
0.481015706615185
40
0.5029119061531
40
0.5029119061531
40
0.524808105691015
40
0.524808105691015
40
0.54670430522893
40
0.54670430522893
40
0.590496704304759
40
0.590496704304759
40
0.612392903842675
40
0.612392903842675
40
0.63428910338059
40
0.63428910338059
40
0.678081502456422
40
0.678081502456422
40
0.699977701994338
40
0.699977701994338
40
0.721873901532255
40
0.721873901532255
40
0.743770101070171
40
0.743770101070171
40
0.754718200839129
40
0.754718200839129
40
0.765666300608087
40
0.765666300608087
40
0.809458699683918
40
0.809458699683918
40
0.831354899221833
40
0.831354899221833
40
0.853251098759747
40
0.853251098759747
40
0.897043497835576
40
0.897043497835576
40
0.918939697373491
40
0.918939697373491
40
0.940835896911406
40
0.940835896911406
40
0.962732096449321
40
0.962732096449321
40
0.984628295987236
40
0.984628295987236
40
1
40
1
40
1
40
1
41
1
10
36.9571011552449
20
1.85428619522321
30
0
41
1
10
37.1584973094006
20
1.93553335970148
30
0
41
1
10
37.3598795955335
20
2.0145769308468
30
0
41
1
10
37.7690237362464
20
2.17119991849202
30
0
41
1
10
37.9764305496029
20
2.24913616573244
30
0
41
1
10
38.3932990670786
20
2.39675522816529
30
0
41
1
10
38.6025516139345
20
2.46682742171103
30
0
41
1
10
39.0220983041041
20
2.60047622999781
30
0
41
1
10
39.2324643590796
20
2.66412866887885
30
0
41
1
10
39.6537328012524
20
2.7847008025997
30
0
41
1
10
39.8631382213585
20
2.84170211899988
30
0
41
1
10
40.4899313195203
20
2.99987023619931
30
0
41
1
10
40.9076736761327
20
3.08673926302558
30
0
41
1
10
41.5318404355488
20
3.19285795210143
30
0
41
1
10
41.7396050423893
20
3.22405481371953
30
0
41
1
10
42.15392520399
20
3.27817629186274
30
0
41
1
10
42.3610299217408
20
3.30073061285665
30
0
41
1
10
42.9844227236137
20
3.35429669742942
30
0
41
1
10
43.4014015380212
20
3.3721599611068
30
0
41
1
10
44.0272603849855
20
3.37163591120154
30
0
41
1
10
44.2356636247068
20
3.36674279985078
30
0
41
1
10
44.6549978316785
20
3.34770460551258
30
0
41
1
10
44.8661383051204
20
3.33358161490531
30
0
41
1
10
45.2868699169182
20
3.2964139801486
30
0
41
1
10
45.4965668425682
20
3.27335631917509
30
0
41
1
10
45.8101096073599
20
3.23205865733991
30
0
41
1
10
45.9144483108241
20
3.21716887661046
30
0
41
1
10
46.1226877619536
20
3.1850521700018
30
0
41
1
10
46.2264932161889
20
3.16774765755514
30
0
41
1
10
46.745951785247
20
3.07643795234429
30
0
41
1
10
47.1622972586836
20
2.98809601945399
30
0
41
1
10
47.7855740734065
20
2.83144664642742
30
0
41
1
10
47.9932326469389
20
2.77527250075357
30
0
41
1
10
48.4077672722665
20
2.65397857641827
30
0
41
1
10
48.6152880846656
20
2.58962051980697
30
0
41
1
10
49.2403702897007
20
2.38813570975671
30
0
41
1
10
49.6592377511584
20
2.24122366130544
30
0
41
1
10
50.2892925177457
20
1.99849310426225
30
0
41
1
10
50.4991506988072
20
1.91329680115243
30
0
41
1
10
50.9181650963639
20
1.74116109711261
30
0
41
1
10
51.1275298362753
20
1.6536225676557
30
0
41
1
10
51.5453802980144
20
1.47457531155558
30
0
41
1
10
51.753852877616
20
1.38303619971239
30
0
41
1
10
52.1698635660873
20
1.19585459484603
30
0
41
1
10
52.3770023854755
20
1.09941280583055
30
0
41
1
10
52.9986704770973
20
0.807125605663629
30
0
41
1
10
53.4147078367493
20
0.610981965726722
30
0
41
1
10
54.0387673122506
20
0.310134153754319
30
0
41
1
10
54.2469189769116
20
0.209009053221479
30
0
41
1
10
54.6628124062383
20
0.0035212659784918
30
0
41
1
10
54.8712818822509
20
-0.0992895733985222
30
0
41
1
10
55.4998204036276
20
-0.404425879100131
30
0
41
1
10
55.9229953400889
20
-0.60647023038959
30
0
41
1
10
56.5499922998002
20
-0.905220563442725
30
0
41
1
10
56.7578689945204
20
-1.00468370006558
30
0
41
1
10
57.1743093543679
20
-1.1973779180332
30
0
41
1
10
57.3825971297636
20
-1.29122698085564
30
0
41
1
10
57.7986973898165
20
-1.47528111832645
30
0
41
1
10
58.0065066397795
20
-1.56548242453698
30
0
41
1
10
58.3178443173505
20
-1.6980285219916
30
0
41
1
10
58.4215507542568
20
-1.7417694769504
30
0
41
1
10
58.6287329780227
20
-1.82849564135415
30
0
41
1
10
58.7321266104725
20
-1.87161999575318
30
0
41
1
10
59.2501791659318
20
-2.08239198385761
30
0
41
1
10
59.6670990237603
20
-2.23749319551197
30
0
41
1
10
60.2937549956
20
-2.454114057303
30
0
41
1
10
60.5029570774001
20
-2.52345863807111
30
0
41
1
10
60.921477051738
20
-2.65690245610995
30
0
41
1
10
61.1318106684279
20
-2.71991929167592
30
0
41
1
10
61.7633368177985
20
-2.89554911202535
30
0
41
1
10
62.1853599621342
20
-2.99662617090811
30
0
41
1
10
62.8154163632462
20
-3.12473302810682
30
0
41
1
10
63.0245373423726
20
-3.16351720832736
30
0
41
1
10
63.4440658972275
20
-3.23102767233237
30
0
41
1
10
63.6541528894315
20
-3.26008428056636
30
0
41
1
10
64.0742743643224
20
-3.30941332944508
30
0
41
1
10
64.2843322249807
20
-3.32965572536048
30
0
41
1
10
64.7043697676204
20
-3.36112831828814
30
0
41
1
10
64.9140974334252
20
-3.37242687598243
30
0
41
1
10
65.2715202429634
20
-3.38337429494294
30
0
41
1
10
65.4190252029112
20
-3.38556595225546
30
0
41
1
10
65.5665425766534
20
-3.38545780856643
30
0
0
SPLINE
5
B4
100
AcDbEntity
8
1
62
256
6
ByLayer
370
18
48
1
60
0
100
AcDbSpline
70
4
71
3
72
28
73
24
40
0
40
0
40
0
40
0
40
0.113344448340341
40
0.113344448340341
40
0.187232410978646
40
0.187232410978646
40
0.261120373616952
40
0.261120373616952
40
0.335008336255258
40
0.335008336255258
40
0.408896298893563
40
0.408896298893563
40
0.556672224170175
40
0.556672224170175
40
0.630560186808478
40
0.630560186808478
40
0.704448149446782
40
0.704448149446782
40
0.852224074723389
40
0.852224074723389
40
0.926112037361694
40
0.926112037361694
40
1
40
1
40
1
40
1
41
1
10
80.4430728511277
20
1.86155194582128
30
0
41
1
10
80.7618408670075
20
1.99136164975874
30
0
41
1
10
81.0803324920163
20
2.11511562908475
30
0
41
1
10
81.6051467421094
20
2.31071446456499
30
0
41
1
10
81.8119816621055
20
2.38545084684634
30
0
41
1
10
82.2275746543451
20
2.52634674222742
30
0
41
1
10
82.4360024136205
20
2.59304974029763
30
0
41
1
10
82.853477532715
20
2.71990512972567
30
0
41
1
10
83.0625795234267
20
2.77997426166874
30
0
41
1
10
83.4814267050548
20
2.89330084676115
30
0
41
1
10
83.6912078564621
20
2.94712756096138
30
0
41
1
10
84.3201181973405
20
3.09380967296818
30
0
41
1
10
84.7385598204219
20
3.17284157453773
30
0
41
1
10
85.3628238476365
20
3.26649413051865
30
0
41
1
10
85.5702803621919
20
3.29351735433622
30
0
41
1
10
85.9841809839685
20
3.33871921463077
30
0
41
1
10
86.1914800486524
20
3.3565214350308
30
0
41
1
10
86.8141550860487
20
3.39629549207282
30
0
41
1
10
87.2299019621287
20
3.4049588954129
30
0
41
1
10
87.8529431085672
20
3.39013610846638
30
0
41
1
10
88.0605542122926
20
3.3804162764593
30
0
41
1
10
88.4781920322943
20
3.35201659200558
30
0
41
1
10
88.6878707672441
20
3.33333848790386
30
0
41
1
10
88.8980841654601
20
3.310052526048
30
0
0
SPLINE
5
B5
100
AcDbEntity
8
1
62
256
6
ByLayer
370
18
48
1
60
0
100
AcDbSpline
70
4
71
3
72
8
73
4
40
0
40
0
40
0
40
0
40
1
40
1
40
1
40
1
41
1
10
89.9777182170434
20
-0.137246350675724
30
0
41
1
10
89.9814347486677
20
-0.108131866366449
30
0
41
1
10
89.9895192952272
20
-0.0721318869983634
30
0
41
1
10
89.9999575110184
20
-0.0340169403960715
30
0
0
SPLINE
5
B6
100
AcDbEntity
8
1
62
256
6
ByLayer
370
13
48
1
60
0
100
AcDbSpline
70
4
71
3
72
8
73
4
40
0
40
0
40
0
40
0
40
1
40
1
40
1
40
1
41
1
10
6.91078268256786
20
2.41810856795541
30
0
41
1
10
6.91838073222388
20
2.39318695553209
30
0
41
1
10
6.92916857608606
20
2.3693841589895
30
0
41
1
10
6.9430883114174
20
2.34743665913689
30
0
0
SPLINE
5
B7
100
AcDbEntity
8
1
62
256
6
ByLayer
370
18
48
1
60
0
100
AcDbSpline
70
4
71
3
72
92
73
88
40
0
40
0
40
0
40
0
40
0.0052105805072357
40
0.0052105805072357
40
0.0265708540764656
40
0.0265708540764656
40
0.0479311276456954
40
0.0479311276456954
40
0.0692914012149254
40
0.0692914012149254
40
0.0906516747841552
40
0.0906516747841552
40
0.112011948353385
40
0.112011948353385
40
0.133372221922615
40
0.133372221922615
40
0.176092769061076
40
0.176092769061076
40
0.197453042630307
40
0.197453042630307
40
0.218813316199538
40
0.218813316199538
40
0.240173589768769
40
0.240173589768769
40
0.261533863338
40
0.261533863338
40
0.282894136907231
40
0.282894136907231
40
0.304254410476463
40
0.304254410476463
40
0.325614684045694
40
0.325614684045694
40
0.346974957614925
40
0.346974957614925
40
0.368335231184156
40
0.368335231184156
40
0.389695504753387
40
0.389695504753387
40
0.43241605189185
40
0.43241605189185
40
0.453776325461082
40
0.453776325461082
40
0.475136599030314
40
0.475136599030314
40
0.496496872599545
40
0.496496872599545
40
0.517857146168777
40
0.517857146168777
40
0.539217419738009
40
0.539217419738009
40
0.56057769330724
40
0.56057769330724
40
0.581937966876472
40
0.581937966876472
40
0.603298240445704
40
0.603298240445704
40
0.624658514014935
40
0.624658514014935
40
0.646018787584167
40
0.646018787584167
40
0.667379061153399
40
0.667379061153399
40
0.68873933472263
40
0.68873933472263
40
0.710099608291862
40
0.710099608291862
40
0.731459881861094
40
0.731459881861094
40
0.752820155430326
40
0.752820155430326
40
0.774180428999557
40
0.774180428999557
40
0.816900976138019
40
0.816900976138019
40
0.838261249707251
40
0.838261249707251
40
0.859621523276483
40
0.859621523276483
40
0.902342070414947
40
0.902342070414947
40
0.92370234398418
40
0.92370234398418
40
0.945062617553412
40
0.945062617553412
40
0.987783164691876
40
0.987783164691876
40
1
40
1
40
1
40
1
41
1
10
80.4191326932948
20
-1.85953545365808
30
0
41
1
10
80.3697481992018
20
-1.87824504809885
30
0
41
1
10
80.3204018282194
20
-1.89677808577565
30
0
41
1
10
80.0690069529518
20
-1.99033644135704
30
0
41
1
10
79.8672785114188
20
-2.06289512478531
30
0
41
1
10
79.4644712884012
20
-2.20317882920432
30
0
41
1
10
79.2637548083821
20
-2.27107609917294
30
0
41
1
10
78.8623514084928
20
-2.40014704611849
30
0
41
1
10
78.6616862841063
20
-2.46138346236018
30
0
41
1
10
78.2603817186011
20
-2.57775953395989
30
0
41
1
10
78.0597651644379
20
-2.63289201732033
30
0
41
1
10
77.6584402841152
20
-2.73556847400838
30
0
41
1
10
77.4576758650337
20
-2.78326245489191
30
0
41
1
10
77.0563976115155
20
-2.87293636954431
30
0
41
1
10
76.8554261497898
20
-2.91419781210101
30
0
41
1
10
76.2511669981692
20
-3.0264733261107
30
0
41
1
10
75.8466683663025
20
-3.08619174711518
30
0
41
1
10
75.236632362864
20
-3.15235279962022
30
0
41
1
10
75.0339026709974
20
-3.17029447425605
30
0
41
1
10
74.6283334466651
20
-3.19788789066178
30
0
41
1
10
74.425541142691
20
-3.20782182904458
30
0
41
1
10
74.0200276382647
20
-3.2195814351644
30
0
41
1
10
73.81729754335
20
-3.22123446261588
30
0
41
1
10
73.4116886585151
20
-3.21619882671376
30
0
41
1
10
73.2089158704712
20
-3.20980239781267
30
0
41
1
10
72.8032110206436
20
-3.18712542704128
30
0
41
1
10
72.5996968325752
20
-3.17100687529688
30
0
41
1
10
72.1937247912656
20
-3.13213735656035
30
0
41
1
10
71.9911677971692
20
-3.10915818678703
30
0
41
1
10
71.5868647008486
20
-3.05568376154216
30
0
41
1
10
71.385079374094
20
-3.02525795270822
30
0
41
1
10
70.9823699800548
20
-2.95672052960362
30
0
41
1
10
70.781701432036
20
-2.9185393686181
30
0
41
1
10
70.3801161019911
20
-2.83415270512387
30
0
41
1
10
70.1794180169295
20
-2.78756478256213
30
0
41
1
10
69.7779096870418
20
-2.68912482566412
30
0
41
1
10
69.5771055164745
20
-2.63718861029696
30
0
41
1
10
68.9745533149295
20
-2.47040563878383
30
0
41
1
10
68.5731824781604
20
-2.34530449266631
30
0
41
1
10
67.9678676588254
20
-2.14121017770856
30
0
41
1
10
67.7656487292441
20
-2.06966310575507
30
0
41
1
10
67.3602149720399
20
-1.92209881641344
30
0
41
1
10
67.1566197271099
20
-1.84601606636002
30
0
41
1
10
66.750109918717
20
-1.68752334959817
30
0
41
1
10
66.5473050398657
20
-1.60564785094732
30
0
41
1
10
66.141433286823
20
-1.43933898031602
30
0
41
1
10
65.9385061161233
20
-1.35472798622686
30
0
41
1
10
65.5327238233087
20
-1.18214186302305
30
0
41
1
10
65.329849868784
20
-1.09396760033084
30
0
41
1
10
64.9239391511047
20
-0.914946158671057
30
0
41
1
10
64.7211610968193
20
-0.823637704941376
30
0
41
1
10
64.3148426196948
20
-0.639410083468306
30
0
41
1
10
64.1111804006361
20
-0.546280398931685
30
0
41
1
10
63.7054342457947
20
-0.359843221003615
30
0
41
1
10
63.5029171972709
20
-0.266510854184133
30
0
41
1
10
63.0986797059841
20
-0.0797600467792847
30
0
41
1
10
62.8969145077537
20
0.0135409316197297
30
0
41
1
10
62.49467141414
20
0.201397893478543
30
0
41
1
10
62.2936548082246
20
0.294757624488113
30
0
41
1
10
61.8916702755158
20
0.47987480722739
30
0
41
1
10
61.6907532337704
20
0.571721500806518
30
0
41
1
10
61.2889261261481
20
0.753517434894206
30
0
41
1
10
61.0879176020848
20
0.843489908591209
30
0
41
1
10
60.6857790851595
20
1.02176965410325
30
0
41
1
10
60.4849205003712
20
1.11059068653219
30
0
41
1
10
60.0822383797205
20
1.28452633957244
30
0
41
1
10
59.8804993009382
20
1.36984300424865
30
0
41
1
10
59.4761611263856
20
1.53686990091063
30
0
41
1
10
59.273536636019
20
1.61848214230975
30
0
41
1
10
58.8670829376468
20
1.77737714544813
30
0
41
1
10
58.6632256464012
20
1.85502180582938
30
0
41
1
10
58.0536932428275
20
2.08192783356859
30
0
41
1
10
57.647510198952
20
2.22243389252756
30
0
41
1
10
57.0382078464329
20
2.41456055812333
30
0
41
1
10
56.835062748396
20
2.47535673506786
30
0
41
1
10
56.4286273392246
20
2.58968914935332
30
0
41
1
10
56.2254840033077
20
2.64444382895203
30
0
41
1
10
55.6146401238656
20
2.7977411968244
30
0
41
1
10
55.2092226576217
20
2.88607992289047
30
0
41
1
10
54.6035419491764
20
2.99511992766898
30
0
41
1
10
54.4022759751244
20
3.02758578093514
30
0
41
1
10
54.0003097542864
20
3.08319716713248
30
0
41
1
10
53.799329124518
20
3.10712265776982
30
0
41
1
10
53.1962783351504
20
3.16833464114211
30
0
41
1
10
52.7941002739244
20
3.19320164173439
30
0
41
1
10
52.2769311594681
20
3.20534127096678
30
0
41
1
10
52.1619155181708
20
3.20676709209738
30
0
41
1
10
52.0467865139646
20
3.2067562182603
30
0
0
SPLINE
5
B8
100
AcDbEntity
8
1
62
256
6
ByLayer
370
18
48
1
60
0
100
AcDbSpline
70
4
71
3
72
84
73
80
40
0
40
0
40
0
40
0
40
0.0110507028401643
40
0.0110507028401643
40
0.0325496006045089
40
0.0325496006045089
40
0.0540484983688532
40
0.0540484983688532
40
0.0970462938975406
40
0.0970462938975406
40
0.118545191661885
40
0.118545191661885
40
0.140044089426228
40
0.140044089426228
40
0.183041884954914
40
0.183041884954914
40
0.204540782719258
40
0.204540782719258
40
0.226039680483602
40
0.226039680483602
40
0.269037476012289
40
0.269037476012289
40
0.312035271540977
40
0.312035271540977
40
0.333534169305321
40
0.333534169305321
40
0.355033067069666
40
0.355033067069666
40
0.37653196483401
40
0.37653196483401
40
0.398030862598355
40
0.398030862598355
40
0.419529760362699
40
0.419529760362699
40
0.441028658127044
40
0.441028658127044
40
0.462527555891388
40
0.462527555891388
40
0.484026453655733
40
0.484026453655733
40
0.505525351420077
40
0.505525351420077
40
0.527024249184422
40
0.527024249184422
40
0.548523146948766
40
0.548523146948766
40
0.57002204471311
40
0.57002204471311
40
0.591520942477455
40
0.591520942477455
40
0.613019840241799
40
0.613019840241799
40
0.634518738006144
40
0.634518738006144
40
0.656017635770488
40
0.656017635770488
40
0.699015431299177
40
0.699015431299177
40
0.720514329063521
40
0.720514329063521
40
0.742013226827866
40
0.742013226827866
40
0.76351212459221
40
0.76351212459221
40
0.785011022356555
40
0.785011022356555
40
0.806509920120899
40
0.806509920120899
40
0.828008817885244
40
0.828008817885244
40
0.849507715649588
40
0.849507715649588
40
0.871006613413932
40
0.871006613413932
40
0.914004408942622
40
0.914004408942622
40
0.957002204471311
40
0.957002204471311
40
1
40
1
40
1
40
1
41
1
10
36.9111052077008
20
-1.85002601475131
30
0
41
1
10
36.8077621279422
20
-1.88897599111431
30
0
41
1
10
36.7044255316091
20
-1.92728863274081
30
0
41
1
10
36.4000438707086
20
-2.03813339788243
30
0
41
1
10
36.1990083394648
20
-2.1088081235236
30
0
41
1
10
35.7968651834577
20
-2.24456233411911
30
0
41
1
10
35.595993575112
20
-2.30976737635862
30
0
41
1
10
34.9922292865893
20
-2.4954854796261
30
0
41
1
10
34.5881935665301
20
-2.6079903921343
30
0
41
1
10
33.979422156463
20
-2.75779775547346
30
0
41
1
10
33.7756294246399
20
-2.80449645682179
30
0
41
1
10
33.3690382068656
20
-2.89059068615404
30
0
41
1
10
33.1659826596634
20
-2.92907143235678
30
0
41
1
10
32.5568597869389
20
-3.03182133124264
30
0
41
1
10
32.1508082481343
20
-3.08582098505349
30
0
41
1
10
31.5414488657951
20
-3.14453625090832
30
0
41
1
10
31.3385770388579
20
-3.16038566149226
30
0
41
1
10
30.9318457942407
20
-3.18315011214091
30
0
41
1
10
30.7280649604096
20
-3.18973960087638
30
0
41
1
10
30.1194078979492
20
-3.19579444975588
30
0
41
1
10
29.7150015709256
20
-3.18540955792486
30
0
41
1
10
28.9098941669345
20
-3.13272822977575
30
0
41
1
10
28.5077142154923
20
-3.09158074162451
30
0
41
1
10
27.9046454276906
20
-3.00241663142171
30
0
41
1
10
27.7035403054276
20
-2.9693426446745
30
0
41
1
10
27.3012644573115
20
-2.89608151504251
30
0
41
1
10
27.1003442592569
20
-2.85530243005925
30
0
41
1
10
26.6973452256654
20
-2.76709589241088
30
0
41
1
10
26.4954436404591
20
-2.71953368331444
30
0
41
1
10
26.0908543097402
20
-2.61774917727703
30
0
41
1
10
25.8881440585915
20
-2.56357141957457
30
0
41
1
10
25.4815792484729
20
-2.44734911232101
30
0
41
1
10
25.2777472896779
20
-2.38513979894637
30
0
41
1
10
24.8711071555135
20
-2.25586562942226
30
0
41
1
10
24.6678680626792
20
-2.18851414183851
30
0
41
1
10
24.2614566591046
20
-2.04851245031048
30
0
41
1
10
24.0583167374971
20
-1.97577049731811
30
0
41
1
10
23.6519224012538
20
-1.82581479333629
30
0
41
1
10
23.4485793860853
20
-1.74890151192201
30
0
41
1
10
23.0422593973759
20
-1.58846916956364
30
0
41
1
10
22.8390186059049
20
-1.50551419608192
30
0
41
1
10
22.4314508881758
20
-1.33733396799505
30
0
41
1
10
22.2278348006959
20
-1.25190322845674
30
0
41
1
10
21.8210887780987
20
-1.07762033553235
30
0
41
1
10
21.6178633593194
20
-0.989007864510057
30
0
41
1
10
21.2114946684806
20
-0.809840591943583
30
0
41
1
10
21.0086890996588
20
-0.718488856631893
30
0
41
1
10
20.6026140670596
20
-0.534337064178374
30
0
41
1
10
20.3993106979987
20
-0.441663948559068
30
0
41
1
10
19.9921397414383
20
-0.255689262065658
30
0
41
1
10
19.7880142805982
20
-0.162138301836734
30
0
41
1
10
19.3813668956828
20
0.0245868649233785
30
0
41
1
10
19.1786135234904
20
0.117726863102604
30
0
41
1
10
18.7744373697982
20
0.304522363490236
30
0
41
1
10
18.5726163599841
20
0.397182768818453
30
0
41
1
10
17.9678642344242
20
0.672073151660726
30
0
41
1
10
17.5654571467869
20
0.851643698383725
30
0
41
1
10
16.9623403967352
20
1.11399818824521
30
0
41
1
10
16.7617214528868
20
1.20096152195822
30
0
41
1
10
16.3597297827434
20
1.37060038804213
30
0
41
1
10
16.1584808700352
20
1.45353728873678
30
0
41
1
10
15.755472526015
20
1.61550381625315
30
0
41
1
10
15.5536874868427
20
1.69438215587954
30
0
41
1
10
15.1493885205712
20
1.84812882582082
30
0
41
1
10
14.9469645966411
20
1.92316186258393
30
0
41
1
10
14.5414848712454
20
2.06920878604691
30
0
41
1
10
14.3377688829931
20
2.13976524995473
30
0
41
1
10
13.9306224530316
20
2.2747038920223
30
0
41
1
10
13.727596600495
20
2.33904705586809
30
0
41
1
10
13.3224614920199
20
2.46110546588889
30
0
41
1
10
13.120397426999
20
2.51838945794518
30
0
41
1
10
12.7170925850149
20
2.62642532234008
30
0
41
1
10
12.5160595708345
20
2.6780221042745
30
0
41
1
10
11.9124467237884
20
2.82137945919391
30
0
41
1
10
11.5103323461864
20
2.902973510039
30
0
41
1
10
10.705912310537
20
3.03519787117872
30
0
41
1
10
10.3041308557137
20
3.0860681683948
30
0
41
1
10
9.49682478346074
20
3.15717742969403
30
0
41
1
10
9.09119503224599
20
3.17619074098022
30
0
41
1
10
8.68343701044952
20
3.1795571585476
30
0
0
SPLINE
5
B9
100
AcDbEntity
8
1
62
256
6
ByLayer
370
13
48
1
60
0
100
AcDbSpline
70
4
71
3
72
16
73
12
40
0
40
0
40
0
40
0
40
0.214755858896644
40
0.214755858896644
40
0.429511717793288
40
0.429511717793288
40
0.644267576689932
40
0.644267576689932
40
0.859023435586576
40
0.859023435586576
40
1
40
1
40
1
40
1
41
1
10
7.14781110886616
20
2.21871129122658
30
0
41
1
10
7.14782843708468
20
2.34938363441893
30
0
41
1
10
7.14784015924565
20
2.46767873260939
30
0
41
1
10
7.14785628338834
20
2.68011486574744
30
0
41
1
10
7.14786066750634
20
2.77474179445622
30
0
41
1
10
7.14786562824645
20
2.93381123391851
30
0
41
1
10
7.14786628471492
20
2.99900152900599
30
0
41
1
10
7.14786758029024
20
3.10080329578167
30
0
41
1
10
7.14786824223665
20
3.13740404540002
30
0
41
1
10
7.1478718015691
20
3.1717044661811
30
0
41
1
10
7.14787384772333
20
3.17869406334037
30
0
41
1
10
7.14787681518942
20
3.17908828602685
30
0
0
SPLINE
5
BA
100
AcDbEntity
8
1
62
256
6
ByLayer
370
18
48
1
60
0
100
AcDbSpline
70
4
71
3
72
16
73
12
40
0
40
0
40
0
40
0
40
0.125
40
0.125
40
0.25
40
0.25
40
0.5
40
0.5
40
0.75
40
0.75
40
1
40
1
40
1
40
1
41
1
10
86.339303044425
20
-0.768852948496686
30
0
41
1
10
86.406181737731
20
-0.85739582057883
30
0
41
1
10
86.4760714490031
20
-0.943177375706227
30
0
41
1
10
86.6212719633822
20
-1.10976896039534
30
0
41
1
10
86.6967068858413
20
-1.19065399316193
30
0
41
1
10
86.9265174730007
20
-1.42259594449624
30
0
41
1
10
87.0856344357843
20
-1.56454485498699
30
0
41
1
10
87.4130306688284
20
-1.82878594279103
30
0
41
1
10
87.5813242296445
20
-1.95104746127311
30
0
41
1
10
87.9257438696656
20
-2.17876668277177
30
0
41
1
10
88.101867243381
20
-2.28408032266941
30
0
41
1
10
88.2794880709815
20
-2.38060183882749
30
0
0
SPLINE
5
BB
100
AcDbEntity
8
1
62
256
6
ByLayer
370
18
48
1
60
0
100
AcDbSpline
70
4
71
3
72
18
73
14
40
0
40
0
40
0
40
0
40
0.229416505681625
40
0.229416505681625
40
0.45883301136325
40
0.45883301136325
40
0.573541264204062
40
0.573541264204062
40
0.688249517044874
40
0.688249517044874
40
0.9176660227265
40
0.9176660227265
40
1
40
1
40
1
40
1
41
1
10
6.91078268256507
20
2.4181085679617
30
0
41
1
10
6.91078888512817
20
2.55426034338046
30
0
41
1
10
6.9107928289105
20
2.67823784047709
30
0
41
1
10
6.910797627953
20
2.89519643592564
30
0
41
1
10
6.91079852481272
20
2.98877727807056
30
0
41
1
10
6.91079886817604
20
3.10669598163213
30
0
41
1
10
6.91079881315977
20
3.14237096226756
30
0
41
1
10
6.91079856942855
20
3.20500782931242
30
0
41
1
10
6.91079838240742
20
3.23205739776893
30
0
41
1
10
6.91079791111667
20
3.30070653608223
30
0
41
1
10
6.91079772352626
20
3.32990110618403
30
0
41
1
10
6.91079851010485
20
3.34658888760711
30
0
41
1
10
6.91079881786317
20
3.34878305092735
30
0
41
1
10
6.91079924348378
20
3.34875086900317
30
0
0
SPLINE
5
BC
100
AcDbEntity
8
1
62
256
6
ByLayer
370
18
48
1
60
0
100
AcDbSpline
70
4
71
3
72
36
73
32
40
0
40
0
40
0
40
0
40
0.124999999999981
40
0.124999999999981
40
0.187499999999971
40
0.187499999999971
40
0.249999999999961
40
0.249999999999961
40
0.374999999999949
40
0.374999999999949
40
0.437499999999943
40
0.437499999999943
40
0.499999999999937
40
0.499999999999937
40
0.624999999999932
40
0.624999999999932
40
0.687499999999933
40
0.687499999999933
40
0.749999999999933
40
0.749999999999933
40
0.812499999999934
40
0.812499999999934
40
0.843749999999936
40
0.843749999999936
40
0.851562499999939
40
0.851562499999939
40
0.859374999999942
40
0.859374999999942
40
0.874999999999947
40
0.874999999999947
40
1
40
1
40
1
40
1
41
1
10
86.339303044425
20
-0.768852948496686
30
0
41
1
10
86.4840707206505
20
-0.800205506307293
30
0
41
1
10
86.6287595469771
20
-0.823733049608535
30
0
41
1
10
86.8456535955777
20
-0.845211148026408
30
0
41
1
10
86.9181204205409
20
-0.850058662725417
30
0
41
1
10
87.0616529472129
20
-0.854655269845921
30
0
41
1
10
87.1327889792282
20
-0.854424965607876
30
0
41
1
10
87.3441987672829
20
-0.845716461569509
30
0
41
1
10
87.4824931349681
20
-0.829296579622337
30
0
41
1
10
87.6852355132751
20
-0.7858127809302
30
0
41
1
10
87.7520521302982
20
-0.768252163085577
30
0
41
1
10
87.8837112131278
20
-0.725210257640526
30
0
41
1
10
87.9486864655337
20
-0.700084140933257
30
0
41
1
10
88.1371882470227
20
-0.615135832254225
30
0
41
1
10
88.2555410338779
20
-0.545359614614426
30
0
41
1
10
88.4219404005739
20
-0.420696784751414
30
0
41
1
10
88.4755479112389
20
-0.375802280046287
30
0
41
1
10
88.5789901464023
20
-0.27923417443543
30
0
41
1
10
88.6288388009252
20
-0.227500614252449
30
0
41
1
10
88.7235406649526
20
-0.11869716298483
30
0
41
1
10
88.7686011545935
20
-0.0614316980438616
30
0
41
1
10
88.8327678934152
20
0.0283335223286656
30
0
41
1
10
88.8535758072784
20
0.0588836550487599
30
0
41
1
10
88.8788652795336
20
0.0977968088951684
30
0
41
1
10
88.8839330960741
20
0.105570553900463
30
0
41
1
10
88.891622900333
20
0.123308414967511
30
0
41
1
10
88.8938350682524
20
0.133545367250008
30
0
41
1
10
88.8965447675547
20
0.164996841784529
30
0
41
1
10
88.8930206752815
20
0.187490316937982
30
0
41
1
10
88.8443771560368
20
0.382099811151505
30
0
41
1
10
88.800919590466
20
0.555063599209745
30
0
41
1
10
88.7572793193332
20
0.728000628002548
30
0
0
SPLINE
5
BD
100
AcDbEntity
8
1
62
256
6
ByLayer
370
18
48
1
60
0
100
AcDbSpline
70
4
71
3
72
24
73
20
40
0
40
0
40
0
40
0
40
0.048316032516507
40
0.048316032516507
40
0.101293315132839
40
0.101293315132839
40
0.154270597749171
40
0.154270597749171
40
0.366179728214492
40
0.366179728214492
40
0.472134293447153
40
0.472134293447153
40
0.525111576063484
40
0.525111576063484
40
0.578088858679816
40
0.578088858679816
40
0.789997989145151
40
0.789997989145151
40
1
40
1
40
1
40
1
41
1
10
28.2273678414196
20
2.44078404686712
30
0
41
1
10
28.4215394631102
20
2.37898252749886
30
0
41
1
10
28.6160765451219
20
2.31418816513528
30
0
41
1
10
29.0249368984539
20
2.17237660938443
30
0
41
1
10
29.2397863793653
20
2.09459824176543
30
0
41
1
10
29.6686267982836
20
1.9334843881123
30
0
41
1
10
29.8823700042041
20
1.85025827749212
30
0
41
1
10
30.9485250841702
20
1.4223857513467
30
0
41
1
10
31.7938060288517
20
1.04354609079144
30
0
41
1
10
33.0648081959113
20
0.450383169930149
30
0
41
1
10
33.4891357430581
20
0.248803153559038
30
0
41
1
10
34.1285638706569
20
-0.0551827353778833
30
0
41
1
10
34.3421688980367
20
-0.156838566871301
30
0
41
1
10
34.7706317844965
20
-0.360109513472253
30
0
41
1
10
34.9856004074176
20
-0.461773411756411
30
0
41
1
10
36.0549706241453
20
-0.963790056814958
30
0
41
1
10
36.9010992298159
20
-1.34735430096413
30
0
41
1
10
38.5868371638579
20
-2.03703836641373
30
0
41
1
10
39.4269947253153
20
-2.34276524981169
30
0
41
1
10
40.2776759973947
20
-2.59374205016366
30
0
0
SPLINE
5
BE
100
AcDbEntity
8
1
62
256
6
ByLayer
370
13
48
1
60
0
100
AcDbSpline
70
4
71
3
72
16
73
12
40
0
40
0
40
0
40
0
40
0.0036999289088348
40
0.0036999289088348
40
0.414799617365663
40
0.414799617365663
40
0.825899305822492
40
0.825899305822492
40
0.928674227936696
40
0.928674227936696
40
1
40
1
40
1
40
1
41
1
10
40.2776750384355
20
-2.59374176724148
30
0
41
1
10
40.2854007646909
20
-2.59602109142028
30
0
41
1
10
40.2931273589343
20
-2.59829589985182
30
0
41
1
10
41.1594551679772
20
-2.85281732923497
30
0
41
1
10
42.0070751664943
20
-3.04114566714262
30
0
41
1
10
43.7005314699415
20
-3.27583090807806
30
0
41
1
10
44.5464431145681
20
-3.322149774113
30
0
41
1
10
45.61588022959
20
-3.28490185212013
30
0
41
1
10
45.8306851861586
20
-3.27268200430691
30
0
41
1
10
46.1939510167086
20
-3.2440779866871
30
0
41
1
10
46.3426672797916
20
-3.23011269258817
30
0
41
1
10
46.4913369314078
20
-3.21392346002887
30
0
0
SPLINE
5
BF
100
AcDbEntity
8
1
62
256
6
ByLayer
370
18
48
1
60
0
100
AcDbSpline
70
4
71
3
72
24
73
20
40
0
40
0
40
0
40
0
40
0.0341909558815275
40
0.0341909558815275
40
0.14854190281142
40
0.14854190281142
40
0.377243796671204
40
0.377243796671204
40
0.434419270136151
40
0.434419270136151
40
0.491594743601098
40
0.491594743601098
40
0.605945690530989
40
0.605945690530989
40
0.720296637460879
40
0.720296637460879
40
0.83464758439077
40
0.83464758439077
40
1
40
1
40
1
40
1
41
1
10
71.8370509992321
20
2.42569425967926
30
0
41
1
10
71.964783666866
20
2.38396021910975
30
0
41
1
10
72.0922980261939
20
2.34104481846856
30
0
41
1
10
72.6454938034752
20
2.14974769625977
30
0
41
1
10
73.069442520523
20
1.99023427449717
30
0
41
1
10
74.3393661440991
20
1.4816842827959
30
0
41
1
10
75.1833430779504
20
1.10255486811602
30
0
41
1
10
76.2480520424855
20
0.603514168138872
30
0
41
1
10
76.4614822796123
20
0.502456101379778
30
0
41
1
10
76.8896680523289
20
0.298539854602268
30
0
41
1
10
77.1041997435307
20
0.195780180882139
30
0
41
1
10
77.7459527018227
20
-0.11208639667359
30
0
41
1
10
78.1727674773089
20
-0.317292823285357
30
0
41
1
10
79.0269738995988
20
-0.722137422596546
30
0
41
1
10
79.4548395693641
20
-0.922122651022164
30
0
41
1
10
80.3117472494048
20
-1.30970512225497
30
0
41
1
10
80.7371329933574
20
-1.49577648147871
30
0
41
1
10
81.7734628109181
20
-1.92620529480831
30
0
41
1
10
82.382590337229
20
-2.15948361321534
30
0
41
1
10
82.9920117974323
20
-2.36549156116024
30
0
0
SPLINE
5
C0
100
AcDbEntity
8
1
62
256
6
ByLayer
370
13
48
1
60
0
100
AcDbSpline
70
4
71
3
72
16
73
12
40
0
40
0
40
0
40
0
40
0.121649699859906
40
0.121649699859906
40
0.341237274894925
40
0.341237274894925
40
0.451031062412439
40
0.451031062412439
40
0.560824849929953
40
0.560824849929953
40
1
40
1
40
1
40
1
41
1
10
82.9920117942125
20
-2.3654915600718
30
0
41
1
10
83.2254920949007
20
-2.44441690286627
30
0
41
1
10
83.4590155390178
20
-2.5193395180346
30
0
41
1
10
84.1147904096507
20
-2.71731462991372
30
0
41
1
10
84.5376987452136
20
-2.83051093317914
30
0
41
1
10
85.1753179353375
20
-2.97625416771496
30
0
41
1
10
85.3883972495546
20
-3.02083140712014
30
0
41
1
10
85.8159623453805
20
-3.10153463705924
30
0
41
1
10
86.0305795968794
20
-3.13765576937956
30
0
41
1
10
87.1001182560832
20
-3.29483921123725
30
0
41
1
10
87.9505886097547
20
-3.34730285020575
30
0
41
1
10
88.806113220889
20
-3.32267847109051
30
0
0
SPLINE
5
C1
100
AcDbEntity
8
1
62
256
6
ByLayer
370
18
48
1
60
0
100
AcDbSpline
70
4
71
3
72
14
73
10
40
0
40
0
40
0
40
0
40
0.25
40
0.25
40
0.5
40
0.5
40
0.75
40
0.75
40
1
40
1
40
1
40
1
41
1
10
88.7572793193333
20
0.728000628002576
30
0
41
1
10
88.7534419250615
20
0.743207397952432
30
0
41
1
10
88.7523966983995
20
0.759248671642666
30
0
41
1
10
88.7594492544021
20
0.789513835659449
30
0
41
1
10
88.7680301525609
20
0.803704350302326
30
0
41
1
10
88.7919378003872
20
0.824307001624959
30
0
41
1
10
88.8066707757422
20
0.830902969603983
30
0
41
1
10
88.8370319928079
20
0.838610331125949
30
0
41
1
10
88.8528239522378
20
0.839849184555504
30
0
41
1
10
88.8685275999223
20
0.839390579671232
30
0
0
SPLINE
5
C2
100
AcDbEntity
8
1
62
256
6
ByLayer
370
18
48
1
60
0
100
AcDbSpline
70
4
71
3
72
24
73
20
40
0
40
0
40
0
40
0
40
0.102955869401988
40
0.102955869401988
40
0.21774007909133
40
0.21774007909133
40
0.447308498470016
40
0.447308498470016
40
0.504700603314688
40
0.504700603314688
40
0.56209270815936
40
0.56209270815936
40
0.676876917848704
40
0.676876917848704
40
0.906445337227389
40
0.906445337227389
40
0.963837442072061
40
0.963837442072061
40
1
40
1
40
1
40
1
41
1
10
7.23776587350804
20
2.17549124743798
30
0
41
1
10
7.6229839366969
20
2.03936849111599
30
0
41
1
10
8.00653795857761
20
1.89370465919919
30
0
41
1
10
8.81415826450009
20
1.56979247805944
30
0
41
1
10
9.23825402557083
20
1.3896867015626
30
0
41
1
10
10.509629476828
20
0.829382936574831
30
0
41
1
10
11.3563524819204
20
0.429981130825667
30
0
41
1
10
12.4255152866818
20
-0.0772216546274649
30
0
41
1
10
12.6402823352208
20
-0.179232345952073
30
0
41
1
10
13.0694555201715
20
-0.382088714801057
30
0
41
1
10
13.2834329851963
20
-0.48267132685757
30
0
41
1
10
13.9238902886013
20
-0.781101996927731
30
0
41
1
10
14.3487513610531
20
-0.975942750906199
30
0
41
1
10
15.6208772590847
20
-1.54046972320131
30
0
41
1
10
16.4661946980893
20
-1.88914828520717
30
0
41
1
10
17.5319732833103
20
-2.26613942714735
30
0
41
1
10
17.7455942843178
20
-2.33859124566067
30
0
41
1
10
18.0948267620139
20
-2.45142535313718
30
0
41
1
10
18.230177131369
20
-2.49378468168069
30
0
41
1
10
18.3654044672745
20
-2.53466306433049
30
0
0
SPLINE
5
C3
100
AcDbEntity
8
1
62
256
6
ByLayer
370
13
48
1
60
0
100
AcDbSpline
70
4
71
3
72
16
73
12
40
0
40
0
40
0
40
0
40
0.0372136779654415
40
0.0372136779654415
40
0.238421109973656
40
0.238421109973656
40
0.640835973990084
40
0.640835973990084
40
0.842043405998298
40
0.842043405998298
40
1
40
1
40
1
40
1
41
1
10
18.3654044674371
20
-2.53466306437963
30
0
41
1
10
18.4447908613916
20
-2.55866107755824
30
0
41
1
10
18.5241348533435
20
-2.58214870050071
30
0
41
1
10
19.031581488105
20
-2.72906731316709
30
0
41
1
10
19.4573719827671
20
-2.83739277158335
30
0
41
1
10
20.7313122624517
20
-3.11202426402011
30
0
41
1
10
21.5759693726726
20
-3.22789311663306
30
0
41
1
10
22.8515072392623
20
-3.29079744629794
30
0
41
1
10
23.2780864435906
20
-3.29333589815218
30
0
41
1
10
24.044539265501
20
-3.26392670537618
30
0
41
1
10
24.3804708403854
20
-3.23931853121377
30
0
41
1
10
24.7151403542253
20
-3.203597502847
30
0
0
SPLINE
5
C4
100
AcDbEntity
8
1
62
256
6
ByLayer
370
18
48
1
60
0
100
AcDbSpline
70
4
71
3
72
24
73
20
40
0
40
0
40
0
40
0
40
0.0466271105685409
40
0.0466271105685409
40
0.262493349216937
40
0.262493349216937
40
0.370426468541136
40
0.370426468541136
40
0.478359587865334
40
0.478359587865334
40
0.694225826513733
40
0.694225826513733
40
0.802158945837933
40
0.802158945837933
40
0.856125505500034
40
0.856125505500034
40
0.910092065162136
40
0.910092065162136
40
1
40
1
40
1
40
1
41
1
10
49.9906074637133
20
2.4466841768913
30
0
41
1
10
50.1751414977744
20
2.38757899418314
30
0
41
1
10
50.3592333796358
20
2.32597558532461
30
0
41
1
10
51.3937420656748
20
1.96617090228193
30
0
41
1
10
52.2378406787089
20
1.62162869173892
30
0
41
1
10
53.5090000636897
20
1.05957528548186
30
0
41
1
10
53.9335492508141
20
0.864708187786761
30
0
41
1
10
54.7872071252938
20
0.465463311208651
30
0
41
1
10
55.217475900463
20
0.260367485531731
30
0
41
1
10
56.4971033737324
20
-0.350955377528976
30
0
41
1
10
57.3417096006885
20
-0.755692110334678
30
0
41
1
10
58.6114609706406
20
-1.32618305554274
30
0
41
1
10
59.03514505011
20
-1.51033714049945
30
0
41
1
10
59.6734724732602
20
-1.77312018951932
30
0
41
1
10
59.8867034387546
20
-1.85850146923099
30
0
41
1
10
60.3143754578153
20
-2.02425680092199
30
0
41
1
10
60.5292298622873
20
-2.10477076303224
30
0
41
1
10
61.0995997608428
20
-2.31025893333677
30
0
41
1
10
61.4542747469177
20
-2.42931443367794
30
0
41
1
10
61.8079497495428
20
-2.53815933918105
30
0
0
SPLINE
5
C5
100
AcDbEntity
8
1
62
256
6
ByLayer
370
13
48
1
60
0
100
AcDbSpline
70
4
71
3
72
16
73
12
40
0
40
0
40
0
40
0
40
0.232609831495295
40
0.232609831495295
40
0.631254524786181
40
0.631254524786181
40
0.730915698108902
40
0.730915698108902
40
0.830576871431625
40
0.830576871431625
40
1
40
1
40
1
40
1
41
1
10
61.8079497493199
20
-2.53815933911238
30
0
41
1
10
62.3034377562229
20
-2.69064776744642
30
0
41
1
10
62.7969630791556
20
-2.8230956932924
30
0
41
1
10
64.136574523289
20
-3.12176251504286
30
0
41
1
10
64.9829152982829
20
-3.24475146064773
30
0
41
1
10
66.0544529934553
20
-3.30438554002362
30
0
41
1
10
66.2687663621028
20
-3.31156638427754
30
0
41
1
10
66.6956017541655
20
-3.31643800838327
30
0
41
1
10
66.908464391808
20
-3.31415470918307
30
0
41
1
10
67.4820722159993
20
-3.29533893173911
30
0
41
1
10
67.8420379109903
20
-3.26999652300455
30
0
41
1
10
68.2017006671543
20
-3.23164561491998
30
0
0
SPLINE
5
C6
100
AcDbEntity
8
1
62
256
6
ByLayer
370
18
48
1
60
0
100
AcDbSpline
70
4
71
3
72
10
73
6
40
0
40
0
40
0
40
0
40
0.5
40
0.5
40
1
40
1
40
1
40
1
41
1
10
88.8685275999223
20
0.839390579671232
30
0
41
1
10
89.0371672343916
20
0.834465675496091
30
0
41
1
10
89.2057629996532
20
0.829815966920705
30
0
41
1
10
89.5428133865251
20
0.821401956957658
30
0
41
1
10
89.7112797480315
20
0.817564010115717
30
0
41
1
10
89.8795017120543
20
0.815259191307462
30
0
0
SPLINE
5
C7
100
AcDbEntity
8
1
62
256
6
ByLayer
370
18
48
1
60
0
100
AcDbSpline
70
4
71
3
72
8
73
4
40
0
40
0
40
0
40
0
40
1
40
1
40
1
40
1
41
1
10
89.9696142497649
20
-0.0394364219262116
30
0
41
1
10
89.9389255780458
20
-0.0965058227460247
30
0
41
1
10
89.9083734601094
20
-0.153697585224251
30
0
41
1
10
89.8779587288369
20
-0.21101087470177
30
0
0
SPLINE
5
C8
100
AcDbEntity
8
1
62
256
6
ByLayer
370
18
48
1
60
0
100
AcDbSpline
70
4
71
3
72
14
73
10
40
0
40
0
40
0
40
0
40
0.0770086697477636
40
0.0770086697477636
40
0.216013874625496
40
0.216013874625496
40
0.772034694136435
40
0.772034694136435
40
1
40
1
40
1
40
1
41
1
10
66.8581388505728
20
-3.21627520961039
30
0
41
1
10
66.7402281268719
20
-3.2161077505699
30
0
41
1
10
66.6221759225031
20
-3.21453865938887
30
0
41
1
10
66.2905717435681
20
-3.20619942903116
30
0
41
1
10
66.076285044174
20
-3.19622217020503
30
0
41
1
10
65.0055385383092
20
-3.1234591695536
30
0
41
1
10
64.1591597449472
20
-2.99269760073472
30
0
41
1
10
62.9662080097277
20
-2.7199713771283
30
0
41
1
10
62.6193508045622
20
-2.63009985600874
30
0
41
1
10
62.2718459854464
20
-2.53051235500467
30
0
0
SPLINE
5
C9
100
AcDbEntity
8
1
62
256
6
ByLayer
370
13
48
1
60
0
100
AcDbSpline
70
4
71
3
72
22
73
18
40
0
40
0
40
0
40
0
40
0.151321949102782
40
0.151321949102782
40
0.215440828811326
40
0.215440828811326
40
0.279559708519871
40
0.279559708519871
40
0.40779746793696
40
0.40779746793696
40
0.664272986771138
40
0.664272986771138
40
0.792510746188226
40
0.792510746188226
40
0.920748505605313
40
0.920748505605313
40
1
40
1
40
1
40
1
41
1
10
62.271845024035
20
-2.53051207948454
30
0
41
1
10
61.7717654227385
20
-2.38719986092795
30
0
41
1
10
61.2703446841929
20
-2.22376693778321
30
0
41
1
10
60.5516920806545
20
-1.96605610887883
30
0
41
1
10
60.3370014276048
20
-1.88615829750441
30
0
41
1
10
59.9095983944744
20
-1.72199672384613
30
0
41
1
10
59.6964681835424
20
-1.63758916580221
30
0
41
1
10
59.0583471058162
20
-1.37827421341603
30
0
41
1
10
58.6346555458733
20
-1.19721471898114
30
0
41
1
10
57.3648700563992
20
-0.6378720058417
30
0
41
1
10
56.5200225289174
20
-0.243335660542215
30
0
41
1
10
55.2406186209931
20
0.349107696089959
30
0
41
1
10
54.8106774549327
20
0.547254951414459
30
0
41
1
10
53.9574402791886
20
0.93178005485106
30
0
41
1
10
53.5329502813007
20
1.11891613798076
30
0
41
1
10
52.8474030239153
20
1.40926350264772
30
0
41
1
10
52.5858515088765
20
1.51718508972226
30
0
41
1
10
52.324315987509
20
1.62160562445206
30
0
0
SPLINE
5
CA
100
AcDbEntity
8
1
62
256
6
ByLayer
370
18
48
1
60
0
100
AcDbSpline
70
4
71
3
72
12
73
8
40
0
40
0
40
0
40
0
40
0.271450644554511
40
0.271450644554511
40
0.895475606069708
40
0.895475606069708
40
1
40
1
40
1
40
1
41
1
10
23.5703041665396
20
-3.18781937323914
30
0
41
1
10
23.1976110797054
20
-3.19251254281861
30
0
41
1
10
22.8267761129791
20
-3.18333826725055
30
0
41
1
10
21.6067846294204
20
-3.10861810302254
30
0
41
1
10
20.7619538617886
20
-2.98517271794182
30
0
41
1
10
19.7704487083218
20
-2.76599902243112
30
0
41
1
10
19.6280732415277
20
-2.73275711398716
30
0
41
1
10
19.4855270732432
20
-2.6977614425023
30
0
0
SPLINE
5
CB
100
AcDbEntity
8
1
62
256
6
ByLayer
370
13
48
1
60
0
100
AcDbSpline
70
4
71
3
72
24
73
20
40
0
40
0
40
0
40
0
40
0.0781708889378292
40
0.0781708889378292
40
0.136946053673194
40
0.136946053673194
40
0.195721218408558
40
0.195721218408558
40
0.430821877350016
40
0.430821877350016
40
0.548372206820746
40
0.548372206820746
40
0.607147371556109
40
0.607147371556109
40
0.665922536291473
40
0.665922536291473
40
0.901023195232926
40
0.901023195232926
40
1
40
1
40
1
40
1
41
1
10
19.4855270736858
20
-2.69776144261098
30
0
41
1
10
19.2025631583245
20
-2.62829263582219
30
0
41
1
10
18.9189265942279
20
-2.55191313078296
30
0
41
1
10
18.4202247674238
20
-2.40659434652534
30
0
41
1
10
18.2052294637242
20
-2.34039172375952
30
0
41
1
10
17.7770130902902
20
-2.20204180057755
30
0
41
1
10
17.563494026644
20
-2.12981601762843
30
0
41
1
10
16.4980950634783
20
-1.7548873838679
30
0
41
1
10
15.6526454712781
20
-1.41085169880915
30
0
41
1
10
14.3805100039397
20
-0.857468915164077
30
0
41
1
10
13.9556851549241
20
-0.667022789037475
30
0
41
1
10
13.3154003189173
20
-0.376225483733492
30
0
41
1
10
13.1014894205653
20
-0.278390316443847
30
0
41
1
10
12.6725160896323
20
-0.0813659503031943
30
0
41
1
10
12.4579404259403
20
0.0175564452548826
30
0
41
1
10
11.3896478310336
20
0.508828122062482
30
0
41
1
10
10.5437681779653
20
0.893409620881215
30
0
41
1
10
9.3415147674875
20
1.40131090539597
30
0
41
1
10
8.98521454731807
20
1.54680528914622
30
0
41
1
10
8.62806978677676
20
1.68581948287414
30
0
0
SPLINE
5
CC
100
AcDbEntity
8
1
62
256
6
ByLayer
370
18
48
1
60
0
100
AcDbSpline
70
4
71
3
72
54
73
50
40
0
40
0
40
0
40
0
40
0.0625000000000003
40
0.0625000000000003
40
0.125000000000001
40
0.125000000000001
40
0.187500000000001
40
0.187500000000001
40
0.218750000000002
40
0.218750000000002
40
0.250000000000002
40
0.250000000000002
40
0.312500000000003
40
0.312500000000003
40
0.343750000000003
40
0.343750000000003
40
0.375000000000003
40
0.375000000000003
40
0.437500000000003
40
0.437500000000003
40
0.468750000000003
40
0.468750000000003
40
0.500000000000003
40
0.500000000000003
40
0.562500000000002
40
0.562500000000002
40
0.593750000000002
40
0.593750000000002
40
0.625000000000001
40
0.625000000000001
40
0.687499999999999
40
0.687499999999999
40
0.718749999999997
40
0.718749999999997
40
0.726562499999997
40
0.726562499999997
40
0.730468749999997
40
0.730468749999997
40
0.734374999999997
40
0.734374999999997
40
0.742187499999996
40
0.742187499999996
40
0.749999999999996
40
0.749999999999996
40
0.812499999999998
40
0.812499999999998
40
0.875
40
0.875
40
1
40
1
40
1
40
1
41
1
10
6.91085547157175
20
-2.69066228302444
30
0
41
1
10
6.8338325693461
20
-2.61806740865529
30
0
41
1
10
6.75933222123325
20
-2.53898691827587
30
0
41
1
10
6.61589509082225
20
-2.366268178512
30
0
41
1
10
6.5475763969784
20
-2.27326443969349
30
0
41
1
10
6.42038834965777
20
-2.07576754527844
30
0
41
1
10
6.36119141579604
20
-1.97091167700651
30
0
41
1
10
6.27997666496333
20
-1.80339088615005
30
0
41
1
10
6.25417518296942
20
-1.74583771425685
30
0
41
1
10
6.2053815094452
20
-1.62701921251025
30
0
41
1
10
6.1824291016012
20
-1.56579282028645
30
0
41
1
10
6.11928822522887
20
-1.37926597381284
30
0
41
1
10
6.08436511197243
20
-1.25019799687223
30
0
41
1
10
6.04440006919538
20
-1.0488292874154
30
0
41
1
10
6.03315868639265
20
-0.980406692671977
30
0
41
1
10
6.01527057320092
20
-0.840768472673204
30
0
41
1
10
6.00868966820565
20
-0.769803954192611
30
0
41
1
10
5.99669318223135
20
-0.557311529284362
30
0
41
1
10
5.99877913233172
20
-0.414755960667804
30
0
41
1
10
6.01816762245915
20
-0.199657233600391
30
0
41
1
10
6.02734962663015
20
-0.127746145833555
30
0
41
1
10
6.05146395673
20
0.0164933130621137
30
0
41
1
10
6.06636824728503
20
0.0884428431269555
30
0
41
1
10
6.11868662372677
20
0.299929339751941
30
0
41
1
10
6.16392260899292
20
0.436656760585691
30
0
41
1
10
6.24661025161902
20
0.635763469102329
30
0
41
1
10
6.27681385961699
20
0.701431320917948
30
0
41
1
10
6.34120234592109
20
0.829017056726428
30
0
41
1
10
6.37535527417719
20
0.890949644285769
30
0
41
1
10
6.48323919804193
20
1.07167573864481
30
0
41
1
10
6.56236896940848
20
1.1854238882801
30
0
41
1
10
6.69060848041724
20
1.34739414688266
30
0
41
1
10
6.73495192114521
20
1.39993557549127
30
0
41
1
10
6.79227950510634
20
1.46391443851854
30
0
41
1
10
6.80384560656648
20
1.47663117652402
30
0
41
1
10
6.82130954797069
20
1.49555254042517
30
0
41
1
10
6.82690351035427
20
1.50203148909131
30
0
41
1
10
6.84000361406532
20
1.51343939397245
30
0
41
1
10
6.84804810322549
20
1.51789159124414
30
0
41
1
10
6.87400227970639
20
1.52643384826592
30
0
41
1
10
6.89304075982059
20
1.52492825006323
30
0
41
1
10
6.93000521101212
20
1.52424749225915
30
0
41
1
10
6.94848407307322
20
1.5238080348862
30
0
41
1
10
7.11476368556217
20
1.51896428132025
30
0
41
1
10
7.26207367510301
20
1.50837547777405
30
0
41
1
10
7.55515095049142
20
1.47480197414598
30
0
41
1
10
7.70082975577503
20
1.45176644988672
30
0
41
1
10
8.131197255177
20
1.36477096297929
30
0
41
1
10
8.41080368506869
20
1.28283649865745
30
0
41
1
10
8.6834370104495
20
1.17562921899977
30
0
0
SPLINE
5
CD
100
AcDbEntity
8
1
62
256
6
ByLayer
370
18
48
1
60
0
100
AcDbSpline
70
4
71
3
72
8
73
4
40
0
40
0
40
0
40
0
40
1
40
1
40
1
40
1
41
1
10
89.9999575110142
20
0.034016940404257
30
0
41
1
10
89.9916751505485
20
0.0079565014513321
30
0
41
1
10
89.9806360849766
20
-0.0189399489205471
30
0
41
1
10
89.9696142497649
20
-0.0394364219261831
30
0
0
SPLINE
5
CE
100
AcDbEntity
8
1
62
256
6
ByLayer
370
18
48
1
60
0
100
AcDbSpline
70
4
71
3
72
8
73
4
40
0
40
0
40
0
40
0
40
1
40
1
40
1
40
1
41
1
10
88.7778836612608
20
3.39451819762107
30
0
41
1
10
88.6478260986262
20
3.39804488532499
30
0
41
1
10
88.5177406755282
20
3.39976420427766
30
0
41
1
10
88.387616322193
20
3.39967931719906
30
0
0
SPLINE
5
CF
100
AcDbEntity
8
1
62
256
6
ByLayer
370
18
48
1
60
0
100
AcDbSpline
70
4
71
3
72
54
73
50
40
0
40
0
40
0
40
0
40
0.0163162545359702
40
0.0163162545359702
40
0.0698122236782473
40
0.0698122236782473
40
0.123308192820525
40
0.123308192820525
40
0.176804161962802
40
0.176804161962802
40
0.230300131105079
40
0.230300131105079
40
0.283796100247356
40
0.283796100247356
40
0.337292069389633
40
0.337292069389633
40
0.39078803853191
40
0.39078803853191
40
0.444284007674187
40
0.444284007674187
40
0.497779976816464
40
0.497779976816464
40
0.551275945958742
40
0.551275945958742
40
0.604771915101019
40
0.604771915101019
40
0.631519899672156
40
0.631519899672156
40
0.658267884243294
40
0.658267884243294
40
0.711763853385569
40
0.711763853385569
40
0.738511837956706
40
0.738511837956706
40
0.765259822527843
40
0.765259822527843
40
0.818755791670117
40
0.818755791670117
40
0.845503776241255
40
0.845503776241255
40
0.872251760812392
40
0.872251760812392
40
0.925747729954665
40
0.925747729954665
40
0.952495714525801
40
0.952495714525801
40
0.979243699096938
40
0.979243699096938
40
1
40
1
40
1
40
1
41
1
10
68.7487423961332
20
-3.23112505002143
30
0
41
1
10
68.6189102333414
20
-3.25011296996197
30
0
41
1
10
68.4891597246926
20
-3.26738095671942
30
0
41
1
10
67.9341922238038
20
-3.33384818207017
30
0
41
1
10
67.5095365712658
20
-3.36617148158305
30
0
41
1
10
66.6583309992502
20
-3.39247644384693
30
0
41
1
10
66.2315169480113
20
-3.38637329971198
30
0
41
1
10
65.3808731026681
20
-3.33603680676958
30
0
41
1
10
64.9561858475441
20
-3.29184165764929
30
0
41
1
10
64.1050482821374
20
-3.16669402683325
30
0
41
1
10
63.6781737789184
20
-3.08546635795074
30
0
41
1
10
62.8273660656621
20
-2.88964813945796
30
0
41
1
10
62.4025544517682
20
-2.77504733616999
30
0
41
1
10
61.5515607655972
20
-2.515368033361
30
0
41
1
10
61.1246505732806
20
-2.36994196300418
30
0
41
1
10
60.2735650778382
20
-2.05510815306511
30
0
41
1
10
59.8487104818549
20
-1.88552639742883
30
0
41
1
10
58.9977598341703
20
-1.5264506935865
30
0
41
1
10
58.5708491741564
20
-1.33644619218015
30
0
41
1
10
57.7195226825321
20
-0.944922020584869
30
0
41
1
10
57.2946331803604
20
-0.74317340749576
30
0
41
1
10
56.4437320584492
20
-0.333055332049525
30
0
41
1
10
56.0168629848962
20
-0.124072642141499
30
0
41
1
10
55.1652515942544
20
0.29140671946675
30
0
41
1
10
54.7402939420286
20
0.498117295888107
30
0
41
1
10
54.1021509841257
20
0.802601574924466
30
0
41
1
10
53.8893476846464
20
0.903223797051282
30
0
41
1
10
53.4631154524926
20
1.10181503405491
30
0
41
1
10
53.2496748238167
20
1.19979796285457
30
0
41
1
10
52.6107833388824
20
1.48752787669588
30
0
41
1
10
52.1857912082779
20
1.6714580771216
30
0
41
1
10
51.547624880605
20
1.93180532411446
30
0
41
1
10
51.3347972782386
20
2.01601153545718
30
0
41
1
10
50.9086358086547
20
2.17874277157736
30
0
41
1
10
50.6951566627013
20
2.25730573328067
30
0
41
1
10
50.0560767186988
20
2.48243598904878
30
0
41
1
10
49.6309687812933
20
2.61872691195771
30
0
41
1
10
48.9928583020479
20
2.80009066978744
30
0
41
1
10
48.7800759921965
20
2.85669283305015
30
0
41
1
10
48.3539862040373
20
2.96173980339148
30
0
41
1
10
48.1404616010196
20
3.01022372090486
30
0
41
1
10
47.501092789459
20
3.14234886751839
30
0
41
1
10
47.0759548541147
20
3.21279874369236
30
0
41
1
10
46.4378424264357
20
3.2907527862252
30
0
41
1
10
46.2250750658976
20
3.31212121141297
30
0
41
1
10
45.7990487767729
20
3.34543249655278
30
0
41
1
10
45.5855585951859
20
3.35738251210469
30
0
41
1
10
45.206902527896
20
3.37006074326919
30
0
41
1
10
45.0416271987296
20
3.37271103570589
30
0
41
1
10
44.8764503834453
20
3.37248295780546
30
0
0
SPLINE
5
D0
100
AcDbEntity
8
1
62
256
6
ByLayer
370
18
48
1
60
0
100
AcDbSpline
70
4
71
3
72
38
73
34
40
0
40
0
40
0
40
0
40
0.0171297802984156
40
0.0171297802984156
40
0.0522322881449013
40
0.0522322881449013
40
0.0873347959913865
40
0.0873347959913865
40
0.157539811684356
40
0.157539811684356
40
0.192642319530841
40
0.192642319530841
40
0.227744827377326
40
0.227744827377326
40
0.297949843070296
40
0.297949843070296
40
0.368154858763267
40
0.368154858763267
40
0.438359874456237
40
0.438359874456237
40
0.508564890149208
40
0.508564890149208
40
0.578769905842178
40
0.578769905842178
40
0.648974921535148
40
0.648974921535148
40
0.719179937228119
40
0.719179937228119
40
0.789384952921089
40
0.789384952921089
40
0.85958996861406
40
0.85958996861406
40
1
40
1
40
1
40
1
41
1
10
25.236265832405
20
-3.20694685189437
30
0
41
1
10
25.1323148352456
20
-3.22194874442718
30
0
41
1
10
25.0283234621374
20
-3.23587224526881
30
0
41
1
10
24.7110500281646
20
-3.2749938713032
30
0
41
1
10
24.4973533777362
20
-3.29669927725436
30
0
41
1
10
24.0707568942341
20
-3.33056985920786
30
0
41
1
10
23.8577276233591
20
-3.34275954376255
30
0
41
1
10
23.2189130819383
20
-3.36505692707198
30
0
41
1
10
22.7935102500679
20
-3.36088958871122
30
0
41
1
10
22.1539188745111
20
-3.32605897730622
30
0
41
1
10
21.9402492382762
20
-3.30966128489797
30
0
41
1
10
21.5134969898216
20
-3.26752116825426
30
0
41
1
10
21.3004082739915
20
-3.24179816310058
30
0
41
1
10
20.6614901129591
20
-3.15103022484519
30
0
41
1
10
20.2360600067911
20
-3.07234079342456
30
0
41
1
10
19.383400283657
20
-2.88074215749384
30
0
41
1
10
18.9558982681384
20
-2.76764719694106
30
0
41
1
10
18.1038863740196
20
-2.51214612927493
30
0
41
1
10
17.6784287890615
20
-2.36960564330906
30
0
41
1
10
16.8258778761838
20
-2.05883406926682
30
0
41
1
10
16.398244868697
20
-1.89035389531779
30
0
41
1
10
15.5458953256723
20
-1.53517020026436
30
0
41
1
10
15.1205183219526
20
-1.34785996161162
30
0
41
1
10
14.2681431313357
20
-0.959795553827888
30
0
41
1
10
13.8404037089045
20
-0.758768447274036
30
0
41
1
10
12.9877094071256
20
-0.351926530743555
30
0
41
1
10
12.5623478335223
20
-0.145182301896455
30
0
41
1
10
11.7101033520509
20
0.267727279744804
30
0
41
1
10
11.2820720566532
20
0.474377182057935
30
0
41
1
10
10.4309255769515
20
0.877423080035925
30
0
41
1
10
10.0072076422027
20
1.07439221368207
30
0
41
1
10
8.73746879048801
20
1.64349153484352
30
0
41
1
10
7.89252648156898
20
1.99312678499132
30
0
41
1
10
7.03869500063726
20
2.29364144021844
30
0
0
SPLINE
5
D1
100
AcDbEntity
8
1
62
256
6
ByLayer
370
18
48
1
60
0
100
AcDbSpline
70
4
71
3
72
10
73
6
40
0
40
0
40
0
40
0
40
0.5
40
0.5
40
1
40
1
40
1
40
1
41
1
10
88.8980841654602
20
3.31005252604791
30
0
41
1
10
89.0627193570825
20
2.89536530101606
30
0
41
1
10
89.2274464569709
20
2.48041760807934
30
0
41
1
10
89.5552303408204
20
1.64895320492488
30
0
41
1
10
89.718252440436
20
1.23241385301364
30
0
41
1
10
89.8795017120544
20
0.81525919130749
30
0
0
SPLINE
5
D2
100
AcDbEntity
8
1
62
256
6
ByLayer
370
18
48
1
60
0
100
AcDbSpline
70
4
71
3
72
14
73
10
40
0
40
0
40
0
40
0
40
0.555092715465333
40
0.555092715465333
40
0.693865894331666
40
0.693865894331666
40
0.832639073197999
40
0.832639073197999
40
1
40
1
40
1
40
1
41
1
10
88.8251772983609
20
-3.22852821142672
30
0
41
1
10
87.9698779456845
20
-3.24014908014306
30
0
41
1
10
87.1194700127417
20
-3.17708152583171
30
0
41
1
10
86.0502463626684
20
-3.01018020356557
30
0
41
1
10
85.8357493935065
20
-2.97230283729604
30
0
41
1
10
85.4084560523314
20
-2.88849509242564
30
0
41
1
10
85.1954693903335
20
-2.8425550352668
30
0
41
1
10
84.7267431468268
20
-2.7327930041061
30
0
41
1
10
84.4712412471451
20
-2.66722966034558
30
0
41
1
10
84.216220311164
20
-2.59651206268788
30
0
0
SPLINE
5
D3
100
AcDbEntity
8
1
62
256
6
ByLayer
370
13
48
1
60
0
100
AcDbSpline
70
4
71
3
72
22
73
18
40
0
40
0
40
0
40
0
40
0.0497428841662763
40
0.0497428841662763
40
0.300338114485064
40
0.300338114485064
40
0.425635729644456
40
0.425635729644456
40
0.550933344803848
40
0.550933344803848
40
0.67623095996324
40
0.67623095996324
40
0.738879767542936
40
0.738879767542936
40
0.801528575122632
40
0.801528575122632
40
1
40
1
40
1
40
1
41
1
10
84.2162197494062
20
-2.59651190691179
30
0
41
1
10
84.0483217767564
20
-2.5499536016674
30
0
41
1
10
83.8806322778477
20
-2.5011611840236
30
0
41
1
10
82.8689555704971
20
-2.19376723192119
30
0
41
1
10
82.0279195077229
20
-1.88368515432589
30
0
41
1
10
80.7566637205221
20
-1.3624784121082
30
0
41
1
10
80.33124120298
20
-1.17946052381913
30
0
41
1
10
79.4745387687502
20
-0.799581312399368
30
0
41
1
10
79.0470368709701
20
-0.604278347138205
30
0
41
1
10
78.1931481750078
20
-0.209895942676383
30
0
41
1
10
77.7664516204715
20
-0.0105499251400261
30
0
41
1
10
77.1249122845753
20
0.287654020393859
30
0
41
1
10
76.9104635098577
20
0.38704944467699
30
0
41
1
10
76.4825648526603
20
0.583949396508046
30
0
41
1
10
76.2692387986741
20
0.681405399689936
30
0
41
1
10
75.3820095372943
20
1.08204102009697
30
0
41
1
10
74.7122465942833
20
1.37313322044324
30
0
41
1
10
74.042150142859
20
1.6411588589059
30
0
0
SPLINE
5
D4
100
AcDbEntity
8
1
62
256
6
ByLayer
370
18
48
1
60
0
100
AcDbSpline
70
4
71
3
72
12
73
8
40
0
40
0
40
0
40
0
40
0.461929227018164
40
0.461929227018164
40
0.996259743031998
40
0.996259743031998
40
1
40
1
40
1
40
1
41
1
10
45.081333187213
20
-3.2024283413709
30
0
41
1
10
44.3441123574335
20
-3.20003824772121
30
0
41
1
10
43.6127030290732
20
-3.14306072265231
30
0
41
1
10
42.0338098611391
20
-2.9101660607563
30
0
41
1
10
41.1858990765229
20
-2.71681326174766
30
0
41
1
10
40.321901245702
20
-2.46141507372303
30
0
41
1
10
40.3158958998041
20
-2.45963714093548
30
0
41
1
10
40.3098910576469
20
-2.45785661461468
30
0
0
SPLINE
5
D5
100
AcDbEntity
8
1
62
256
6
ByLayer
370
13
48
1
60
0
100
AcDbSpline
70
4
71
3
72
18
73
14
40
0
40
0
40
0
40
0
40
0.255697132312938
40
0.255697132312938
40
0.513196734509826
40
0.513196734509826
40
0.577571635059049
40
0.577571635059049
40
0.641946535608272
40
0.641946535608272
40
0.770696336706715
40
0.770696336706715
40
1
40
1
40
1
40
1
41
1
10
40.309891057987
20
-2.45785661471555
30
0
41
1
10
39.4580483147168
20
-2.20527238588923
30
0
41
1
10
38.6163428803863
20
-1.90049573091886
30
0
41
1
10
36.9287135554857
20
-1.21931460892847
30
0
41
1
10
36.0825120315635
20
-0.843096936243938
30
0
41
1
10
35.013412038158
20
-0.354092389780334
30
0
41
1
10
34.7985706115604
20
-0.255212259433051
30
0
41
1
10
34.3703930022261
20
-0.0577713949761574
30
0
41
1
10
34.1568994969037
20
0.0408597026821553
30
0
41
1
10
33.5177288773902
20
0.335432833181017
30
0
41
1
10
33.0934382488309
20
0.530211201363073
30
0
41
1
10
31.915169004608
20
1.06008305630701
30
0
41
1
10
31.1621493460777
20
1.38520297526381
30
0
41
1
10
30.4040863784622
20
1.68223031112313
30
0
0
SPLINE
5
D6
100
AcDbEntity
8
1
62
256
6
ByLayer
370
13
48
1
60
0
100
AcDbSpline
70
4
71
3
72
16
73
12
40
0
40
0
40
0
40
0
40
0.102733220298479
40
0.102733220298479
40
0.401822146865653
40
0.401822146865653
40
0.55136661014924
40
0.55136661014924
40
0.700911073432827
40
0.700911073432827
40
1
40
1
40
1
40
1
41
1
10
7.14787681603599
20
-3.17908839830034
30
0
41
1
10
7.14787836885228
20
-3.17929401877902
30
0
41
1
10
7.14788017392186
20
-3.1776938929325
30
0
41
1
10
7.14788838086156
20
-3.16437708059578
30
0
41
1
10
7.14789706116196
20
-3.13880928178151
30
0
41
1
10
7.14791428019163
20
-3.07749992236859
30
0
41
1
10
7.14792073703302
20
-3.05314675191326
30
0
41
1
10
7.14793485623349
20
-2.99741965374275
30
0
41
1
10
7.14794252603849
20
-2.9660264968401
30
0
41
1
10
7.14796717346849
20
-2.86149239022197
30
0
41
1
10
7.14798581808822
20
-2.77807134821845
30
0
41
1
10
7.14800584379435
20
-2.68063155209393
30
0
0
SPLINE
5
D7
100
AcDbEntity
8
1
62
256
6
ByLayer
370
18
48
1
60
0
100
AcDbSpline
70
4
71
3
72
48
73
44
40
0
40
0
40
0
40
0
40
0.0576206866337398
40
0.0576206866337398
40
0.11524137326748
40
0.11524137326748
40
0.172862059901219
40
0.172862059901219
40
0.201672403218089
40
0.201672403218089
40
0.230482746534959
40
0.230482746534959
40
0.288103433168701
40
0.288103433168701
40
0.316913776485572
40
0.316913776485572
40
0.345724119802443
40
0.345724119802443
40
0.403344806436186
40
0.403344806436186
40
0.432155149753058
40
0.432155149753058
40
0.460965493069929
40
0.460965493069929
40
0.51858617970367
40
0.51858617970367
40
0.576206866337412
40
0.576206866337412
40
0.633827552971153
40
0.633827552971153
40
0.691448239604894
40
0.691448239604894
40
0.749068926238636
40
0.749068926238636
40
0.806689612872377
40
0.806689612872377
40
0.864310299506118
40
0.864310299506118
40
0.92193098613986
40
0.92193098613986
40
0.979551672773601
40
0.979551672773601
40
1
40
1
40
1
40
1
41
1
10
88.7778836612608
20
-3.39451819762107
30
0
41
1
10
88.3527072930102
20
-3.40604743313443
30
0
41
1
10
87.9277853416538
20
-3.39827109184398
30
0
41
1
10
87.0760123978249
20
-3.34437100136535
30
0
41
1
10
86.6503744538574
20
-3.29826389678055
30
0
41
1
10
85.8008207955336
20
-3.16966843904458
30
0
41
1
10
85.3763376764749
20
-3.0871102986942
30
0
41
1
10
84.7378026755363
20
-2.93754481802961
30
0
41
1
10
84.5245492372559
20
-2.88336185182891
30
0
41
1
10
84.0990168261311
20
-2.76721795649649
30
0
41
1
10
83.8865188715591
20
-2.70520539053342
30
0
41
1
10
83.2492871742202
20
-2.50805061395565
30
0
41
1
10
82.8247760264356
20
-2.36183509630209
30
0
41
1
10
82.1863614019783
20
-2.12330167017345
30
0
41
1
10
81.9730891527663
20
-2.04049118129154
30
0
41
1
10
81.5474026490994
20
-1.86965971950039
30
0
41
1
10
81.3348371482845
20
-1.78158742984749
30
0
41
1
10
80.6974541625912
20
-1.51033818315022
30
0
41
1
10
80.2729479629914
20
-1.32012632894958
30
0
41
1
10
79.6346689562447
20
-1.02469896899859
30
0
41
1
10
79.4214284884729
20
-0.924404324324144
30
0
41
1
10
78.9955872248315
20
-0.721811837422877
30
0
41
1
10
78.7829541054195
20
-0.619512332091944
30
0
41
1
10
78.1453877792418
20
-0.310685000174601
30
0
41
1
10
77.7208346250767
20
-0.102132275453215
30
0
41
1
10
76.8699839726322
20
0.314734097337777
30
0
41
1
10
76.4433881106191
20
0.523034499503183
30
0
41
1
10
75.5931765775449
20
0.9298443329495
30
0
41
1
10
75.1686212775068
20
1.12881526798941
30
0
41
1
10
74.3178176210278
20
1.51241159639716
30
0
41
1
10
73.8910708006715
20
1.69718355356667
30
0
41
1
10
73.0406048126008
20
2.0441756922101
30
0
41
1
10
72.6160443991125
20
2.2068526592596
30
0
41
1
10
71.7654608921436
20
2.50601847728862
30
0
41
1
10
71.3386479707619
20
2.64249611257361
30
0
41
1
10
70.4878318898732
20
2.88300654167691
30
0
41
1
10
70.0632456706139
20
2.98752787501383
30
0
41
1
10
69.2127092822062
20
3.16192027652545
30
0
41
1
10
68.7858889957229
20
3.2318152800668
30
0
41
1
10
67.9348767073528
20
3.33379321472384
30
0
41
1
10
67.5102597029896
20
3.36611773469741
30
0
41
1
10
66.9340562890407
20
3.38396674542122
30
0
41
1
10
66.7829425949988
20
3.38622167486238
30
0
41
1
10
66.6317593598297
20
3.38606129152279
30
0
0
SPLINE
5
D8
100
AcDbEntity
8
1
62
256
6
ByLayer
370
18
48
1
60
0
100
AcDbSpline
70
4
71
3
72
50
73
46
40
0
40
0
40
0
40
0
40
0.0684893352752531
40
0.0684893352752531
40
0.175504144195071
40
0.175504144195071
40
0.229011548654981
40
0.229011548654981
40
0.282518953114891
40
0.282518953114891
40
0.309272655344846
40
0.309272655344846
40
0.336026357574801
40
0.336026357574801
40
0.389533762034713
40
0.389533762034713
40
0.416287464264667
40
0.416287464264667
40
0.443041166494622
40
0.443041166494622
40
0.496548570954532
40
0.496548570954532
40
0.523302273184487
40
0.523302273184487
40
0.550055975414441
40
0.550055975414441
40
0.603563379874351
40
0.603563379874351
40
0.630317082104306
40
0.630317082104306
40
0.657070784334261
40
0.657070784334261
40
0.71057818879417
40
0.71057818879417
40
0.76408559325408
40
0.76408559325408
40
0.81759299771399
40
0.81759299771399
40
0.8711004021739
40
0.8711004021739
40
0.92460780663381
40
0.92460780663381
40
0.978115211093721
40
0.978115211093721
40
1
40
1
40
1
40
1
41
1
10
47.0097591659217
20
-3.21647793774733
30
0
41
1
10
46.4651833535858
20
-3.29622781625199
30
0
41
1
10
45.9212620588194
20
-3.34603695203614
30
0
41
1
10
44.5217050955583
20
-3.3931667771671
30
0
41
1
10
43.6732242176066
20
-3.34475826738392
30
0
41
1
10
42.3934797385112
20
-3.1606680511953
30
0
41
1
10
41.9674129076988
20
-3.08097819940244
30
0
41
1
10
41.1165214975538
20
-2.8880686669763
30
0
41
1
10
40.6912202649366
20
-2.77479646573931
30
0
41
1
10
40.0516134263964
20
-2.58153401510705
30
0
41
1
10
39.8381158311753
20
-2.5132913556524
30
0
41
1
10
39.4120282924893
20
-2.37022611759971
30
0
41
1
10
39.1992017115785
20
-2.29533457635159
30
0
41
1
10
38.5608695774159
20
-2.06139281305988
30
0
41
1
10
38.1355448145879
20
-1.89302749991495
30
0
41
1
10
37.4960312494867
20
-1.62485319950284
30
0
41
1
10
37.2824547302454
20
-1.53288224955517
30
0
41
1
10
36.8562180636462
20
-1.3453316478352
30
0
41
1
10
36.6433371255489
20
-1.24966127577926
30
0
41
1
10
36.0049367086757
20
-0.957890380791099
30
0
41
1
10
35.5797138481763
20
-0.756919434933764
30
0
41
1
10
34.9403357415098
20
-0.449940163339733
30
0
41
1
10
34.7267205073294
20
-0.346668420844111
30
0
41
1
10
34.3003106829927
20
-0.139928969348631
30
0
41
1
10
34.087361477124
20
-0.0363895351567862
30
0
41
1
10
33.448784198197
20
0.273712334814661
30
0
41
1
10
33.0235684930424
20
0.480051017064938
30
0
41
1
10
32.3843081795163
20
0.784441084147261
30
0
41
1
10
32.1707201814971
20
0.885106656807267
30
0
41
1
10
31.7441663271343
20
1.08324726287108
30
0
41
1
10
31.5311653706754
20
1.18074071223316
30
0
41
1
10
30.8924824819752
20
1.46754178656286
30
0
41
1
10
30.4672169418606
20
1.65135039122117
30
0
41
1
10
29.6149730801737
20
1.99902597502216
30
0
41
1
10
29.187648489958
20
2.16270390791573
30
0
41
1
10
28.3358706257389
20
2.46244007555919
30
0
41
1
10
27.9105750459239
20
2.59903298466145
30
0
41
1
10
27.0584011409575
20
2.84177347991445
30
0
41
1
10
26.6309595634044
20
2.9478477148327
30
0
41
1
10
25.7790624429146
20
3.12465104605062
30
0
41
1
10
25.3537237741818
20
3.19564994361013
30
0
41
1
10
24.5016130179095
20
3.30091645300826
30
0
41
1
10
24.0741310766057
20
3.33510889898048
30
0
41
1
10
23.4737715944298
20
3.35620051222989
30
0
41
1
10
23.299626344896
20
3.3591344281572
30
0
41
1
10
23.1255076490848
20
3.3588834961032
30
0
0
SPLINE
5
D9
100
AcDbEntity
8
1
62
256
6
ByLayer
370
18
48
1
60
0
100
AcDbSpline
70
4
71
3
72
22
73
18
40
0
40
0
40
0
40
0
40
0.187230987691944
40
0.187230987691944
40
0.374461975383889
40
0.374461975383889
40
0.561692963075833
40
0.561692963075833
40
0.655308456921804
40
0.655308456921804
40
0.748923950767775
40
0.748923950767775
40
0.842539444613746
40
0.842539444613746
40
0.936154938459717
40
0.936154938459717
40
1
40
1
40
1
40
1
41
1
10
8.6834370104495
20
-3.17955715854768
30
0
41
1
10
9.09126235859182
20
-3.1761901851394
30
0
41
1
10
9.49694406087568
20
-3.15717106032986
30
0
41
1
10
10.3043223366497
20
-3.0860471639003
30
0
41
1
10
10.7061256125606
20
-3.03516841875916
30
0
41
1
10
11.5105550500058
20
-2.90293129214032
30
0
41
1
10
11.9126573702015
20
-2.82133369060654
30
0
41
1
10
12.5162284399081
20
-2.67797986676624
30
0
41
1
10
12.7172437047892
20
-2.62638602031089
30
0
41
1
10
13.1205059965721
20
-2.51835919455732
30
0
41
1
10
13.3225446420537
20
-2.46108097100083
30
0
41
1
10
13.7276189375249
20
-2.3390397696493
30
0
41
1
10
13.9306099860061
20
-2.27470751813703
30
0
41
1
10
14.3376779915176
20
-2.1397958793375
30
0
41
1
10
14.5415398205687
20
-2.06919033941426
30
0
41
1
10
14.8827031311959
20
-1.94630683485823
30
0
41
1
10
15.0208823254883
20
-1.89554800495088
30
0
41
1
10
15.1589234149705
20
-1.84390900501657
30
0
0
SPLINE
5
DA
100
AcDbEntity
8
1
62
256
6
ByLayer
370
18
48
1
60
0
100
AcDbSpline
70
4
71
3
72
94
73
90
40
0
40
0
40
0
40
0
40
0.0099489862199408
40
0.0099489862199408
40
0.0313000991089557
40
0.0313000991089557
40
0.0526512119979706
40
0.0526512119979706
40
0.0953534377760019
40
0.0953534377760019
40
0.116704550665018
40
0.116704550665018
40
0.138055663554033
40
0.138055663554033
40
0.180757889332066
40
0.180757889332066
40
0.202109002221082
40
0.202109002221082
40
0.223460115110098
40
0.223460115110098
40
0.244811227999114
40
0.244811227999114
40
0.26616234088813
40
0.26616234088813
40
0.287513453777146
40
0.287513453777146
40
0.308864566666163
40
0.308864566666163
40
0.330215679555179
40
0.330215679555179
40
0.351566792444195
40
0.351566792444195
40
0.372917905333212
40
0.372917905333212
40
0.394269018222228
40
0.394269018222228
40
0.415620131111244
40
0.415620131111244
40
0.43697124400026
40
0.43697124400026
40
0.458322356889276
40
0.458322356889276
40
0.479673469778293
40
0.479673469778293
40
0.501024582667309
40
0.501024582667309
40
0.522375695556325
40
0.522375695556325
40
0.543726808445341
40
0.543726808445341
40
0.565077921334357
40
0.565077921334357
40
0.586429034223374
40
0.586429034223374
40
0.60778014711239
40
0.60778014711239
40
0.629131260001406
40
0.629131260001406
40
0.650482372890422
40
0.650482372890422
40
0.671833485779438
40
0.671833485779438
40
0.693184598668455
40
0.693184598668455
40
0.714535711557471
40
0.714535711557471
40
0.735886824446487
40
0.735886824446487
40
0.757237937335503
40
0.757237937335503
40
0.77858905022452
40
0.77858905022452
40
0.799940163113535
40
0.799940163113535
40
0.821291276002552
40
0.821291276002552
40
0.842642388891568
40
0.842642388891568
40
0.863993501780584
40
0.863993501780584
40
0.906695727558617
40
0.906695727558617
40
0.928046840447634
40
0.928046840447634
40
0.94939795333665
40
0.94939795333665
40
0.992100179114683
40
0.992100179114683
40
1
40
1
40
1
40
1
41
1
10
30.2406486055014
20
3.1922033496941
30
0
41
1
10
30.3353375917435
20
3.19285652233077
30
0
41
1
10
30.4300389793785
20
3.19270167730326
30
0
41
1
10
30.728000486001
20
3.18974591250074
30
0
41
1
10
30.9314254059953
20
3.1831721023531
30
0
41
1
10
31.3387896680271
20
3.16037529861944
30
0
41
1
10
31.5417209109687
20
3.14450903999619
30
0
41
1
10
32.1500272148392
20
3.08589823710409
30
0
41
1
10
32.5540535275605
20
3.032133599476
30
0
41
1
10
33.1582090094531
20
2.93046146111772
30
0
41
1
10
33.3592328663465
20
2.89249033087381
30
0
41
1
10
33.7608949364842
20
2.80778256769978
30
0
41
1
10
33.9620785121655
20
2.76184346569246
30
0
41
1
10
34.5656322534207
20
2.61395661121838
30
0
41
1
10
34.9683262436462
20
2.50231821199691
30
0
41
1
10
35.5729828809991
20
2.31708345164711
30
0
41
1
10
35.7746918126043
20
2.25184029239506
30
0
41
1
10
36.1798443304426
20
2.11546461054286
30
0
41
1
10
36.3829916675506
20
2.0442172734962
30
0
41
1
10
36.790434349785
20
1.89608468197701
30
0
41
1
10
36.9944284969817
20
1.81937759284168
30
0
41
1
10
37.4013140665715
20
1.66168712361414
30
0
41
1
10
37.6043358769084
20
1.58040575988198
30
0
41
1
10
38.0102336533598
20
1.41453840552862
30
0
41
1
10
38.2135432560528
20
1.33038194693143
30
0
41
1
10
38.6200871575587
20
1.15772498376856
30
0
41
1
10
38.8234413846573
20
1.0696653147418
30
0
41
1
10
39.2305647239865
20
0.890731613436884
30
0
41
1
10
39.434568683926
20
0.799670460470139
30
0
41
1
10
39.8415011346877
20
0.615521297586497
30
0
41
1
10
40.0444521477211
20
0.522894734437614
30
0
41
1
10
40.4499065668267
20
0.337701597038347
30
0
41
1
10
40.652184717044
20
0.244713878560447
30
0
41
1
10
41.0559620669986
20
0.0587205950004375
30
0
41
1
10
41.2575422380995
20
-0.0343178008726568
30
0
41
1
10
41.660082184402
20
-0.220503807826645
30
0
41
1
10
41.8608264495516
20
-0.314122438878542
30
0
41
1
10
42.2630355360893
20
-0.498466542716898
30
0
41
1
10
42.464226327579
20
-0.58979138610016
30
0
41
1
10
42.8666145494151
20
-0.771288120960122
30
0
41
1
10
43.0677885936854
20
-0.861572375421531
30
0
41
1
10
43.4706706441771
20
-1.03933308460032
30
0
41
1
10
43.6722882530447
20
-1.12712372097789
30
0
41
1
10
44.0758261064581
20
-1.30089083307072
30
0
41
1
10
44.2780535817407
20
-1.38618919559371
30
0
41
1
10
44.6838010452058
20
-1.55259142116469
30
0
41
1
10
44.8872199413731
20
-1.6339293398884
30
0
41
1
10
45.2951493149507
20
-1.79302918882945
30
0
41
1
10
45.4988823628234
20
-1.87067944584183
30
0
41
1
10
45.9055506352892
20
-2.02075175537209
30
0
41
1
10
46.1084427046165
20
-2.09327749196993
30
0
41
1
10
46.5149334667977
20
-2.23195442091551
30
0
41
1
10
46.7182022299072
20
-2.29862905906859
30
0
41
1
10
47.1248469896949
20
-2.42572317773698
30
0
41
1
10
47.3283073147023
20
-2.48583814503598
30
0
41
1
10
47.7354598529255
20
-2.60058433420784
30
0
41
1
10
47.9394287988854
20
-2.65519258871211
30
0
41
1
10
48.3458088178682
20
-2.75698064621395
30
0
41
1
10
48.5487787622279
20
-2.80331697335581
30
0
41
1
10
48.9537890234984
20
-2.88939753148077
30
0
41
1
10
49.1558833679481
20
-2.92915097793028
30
0
41
1
10
49.5594005134881
20
-3.00022239948805
30
0
41
1
10
49.7608259901701
20
-3.03148878947295
30
0
41
1
10
50.1630522696419
20
-3.08730967844116
30
0
41
1
10
50.3638728878844
20
-3.11163248749989
30
0
41
1
10
50.7661248583906
20
-3.15160405592758
30
0
41
1
10
50.9672819177209
20
-3.16747458823366
30
0
41
1
10
51.369732489802
20
-3.19119597351431
30
0
41
1
10
51.5710022789585
20
-3.19975582617599
30
0
41
1
10
51.9738606959534
20
-3.20811342926436
30
0
41
1
10
52.1753911425544
20
-3.20753259776069
30
0
41
1
10
52.579350915022
20
-3.19842129605442
30
0
41
1
10
52.7820257898071
20
-3.18998319243525
30
0
41
1
10
53.1881628893816
20
-3.165006640174
30
0
41
1
10
53.3920092226805
20
-3.1484325995734
30
0
41
1
10
53.7994617366017
20
-3.1071433630562
30
0
41
1
10
54.0028362920775
20
-3.08291716827648
30
0
41
1
10
54.4089047227806
20
-3.02659757510816
30
0
41
1
10
54.6118188832887
20
-2.99375140147586
30
0
41
1
10
55.2213477040953
20
-2.88364515395398
30
0
41
1
10
55.6279168379128
20
-2.79470538786219
30
0
41
1
10
56.2385759158795
20
-2.64100293226559
30
0
41
1
10
56.4420265077192
20
-2.58605522229237
30
0
41
1
10
56.8480097456179
20
-2.47157037939425
30
0
41
1
10
57.0504997786359
20
-2.41079960483037
30
0
41
1
10
57.6567243387699
20
-2.21928863644453
30
0
41
1
10
58.0593866100759
20
-2.07982327274075
30
0
41
1
10
58.5352026727165
20
-1.90267718272688
30
0
41
1
10
58.6094919256104
20
-1.87477965081462
30
0
41
1
10
58.6837889404359
20
-1.84662538895444
30
0
0
SPLINE
5
DB
100
AcDbEntity
8
1
62
256
6
ByLayer
370
18
48
1
60
0
100
AcDbSpline
70
4
71
3
72
42
73
38
40
0
40
0
40
0
40
0
40
0.0368870706817376
40
0.0368870706817376
40
0.0850427171476512
40
0.0850427171476512
40
0.133198363613564
40
0.133198363613564
40
0.229509656545391
40
0.229509656545391
40
0.277665303011304
40
0.277665303011304
40
0.325820949477218
40
0.325820949477218
40
0.373976595943131
40
0.373976595943131
40
0.422132242409045
40
0.422132242409045
40
0.470287888874958
40
0.470287888874958
40
0.518443535340872
40
0.518443535340872
40
0.566599181806785
40
0.566599181806785
40
0.614754828272698
40
0.614754828272698
40
0.662910474738612
40
0.662910474738612
40
0.711066121204525
40
0.711066121204525
40
0.807377414136349
40
0.807377414136349
40
0.903688707068174
40
0.903688707068174
40
0.951844353534086
40
0.951844353534086
40
1
40
1
40
1
40
1
41
1
10
73.7730960290457
20
3.21983496652192
30
0
41
1
10
73.9279422226818
20
3.22009334582859
30
0
41
1
10
74.082534714162
20
3.21790778126967
30
0
41
1
10
74.4384646394918
20
3.20725020313455
30
0
41
1
10
74.639674121433
20
3.19723627592003
30
0
41
1
10
75.0413809532605
20
3.16965996467536
30
0
41
1
10
75.2417567336094
20
3.15182956324108
30
0
41
1
10
75.8438726058596
20
3.08642930406475
30
0
41
1
10
76.2452355083494
20
3.02739600342156
30
0
41
1
10
76.8480162544541
20
2.91566204236506
30
0
41
1
10
77.0490369378652
20
2.87449804868189
30
0
41
1
10
77.4514508337721
20
2.78473402009092
30
0
41
1
10
77.6532479917774
20
2.73685293202681
30
0
41
1
10
78.057811727697
20
2.63343497968603
30
0
41
1
10
78.2606600528883
20
2.57770953311919
30
0
41
1
10
78.6674586386571
20
2.45967833716327
30
0
41
1
10
78.8707200191911
20
2.39756727475438
30
0
41
1
10
79.2763409797934
20
2.26691198141347
30
0
41
1
10
79.478798185388
20
2.19831664293653
30
0
41
1
10
79.8843527486476
20
2.05681113164701
30
0
41
1
10
80.087119386961
20
1.98376076282207
30
0
41
1
10
80.4926942831178
20
1.83247724654012
30
0
41
1
10
80.6956189243997
20
1.7539821490931
30
0
41
1
10
81.1017834135552
20
1.59212154816686
30
0
41
1
10
81.3051886199827
20
1.50840891583647
30
0
41
1
10
81.7106825329255
20
1.33811272341293
30
0
41
1
10
81.9132312760033
20
1.25212982050968
30
0
41
1
10
82.3173115799187
20
1.07724506333429
30
0
41
1
10
82.5189389053986
20
0.988555630177899
30
0
41
1
10
83.1227932837977
20
0.719063806103065
30
0
41
1
10
83.5234070594476
20
0.533483254158398
30
0
41
1
10
84.3261005233542
20
0.162552512496063
30
0
41
1
10
84.7275355994717
20
-0.0242904003685851
30
0
41
1
10
85.3304498675767
20
-0.305062405257218
30
0
41
1
10
85.5313588567178
20
-0.399187958614618
30
0
41
1
10
85.934560428735
20
-0.585163272148463
30
0
41
1
10
86.1367140940192
20
-0.677304705872416
30
0
41
1
10
86.3393030444259
20
-0.768852948497084
30
0
0
SPLINE
5
DC
100
AcDbEntity
8
1
62
256
6
ByLayer
370
18
48
1
60
0
100
AcDbSpline
70
4
71
3
72
8
73
4
40
0
40
0
40
0
40
0
40
1
40
1
40
1
40
1
41
1
10
7.03869500063681
20
2.29364144021858
30
0
41
1
10
6.99545771200769
20
2.30885924276569
30
0
41
1
10
6.95916286842984
20
2.3328196373289
30
0
41
1
10
6.93438008994701
20
2.36149552692029
30
0
0
SPLINE
5
DD
100
AcDbEntity
8
1
62
256
6
ByLayer
370
18
48
1
60
0
100
AcDbSpline
70
4
71
3
72
8
73
4
40
0
40
0
40
0
40
0
40
1
40
1
40
1
40
1
41
1
10
88.8061132208891
20
-3.32267847109082
30
0
41
1
10
88.7967078078436
20
-3.34663991525571
30
0
41
1
10
88.7872976636471
20
-3.37058678478087
30
0
41
1
10
88.7778836612608
20
-3.39451819762107
30
0
0
SPLINE
5
DE
100
AcDbEntity
8
1
62
256
6
ByLayer
370
18
48
1
60
0
100
AcDbSpline
70
4
71
3
72
8
73
4
40
0
40
0
40
0
40
0
40
1
40
1
40
1
40
1
41
1
10
89.9999575110152
20
0.0340169404060191
30
0
41
1
10
90.0000141629473
20
0.0113389995055684
30
0
41
1
10
90.0000141629473
20
-0.0113389994965019
30
0
41
1
10
89.9999575110152
20
-0.0340169403969526
30
0
0
SPLINE
5
DF
100
AcDbEntity
8
1
62
256
6
ByLayer
370
18
48
1
60
0
100
AcDbSpline
70
4
71
3
72
8
73
4
40
0
40
0
40
0
40
0
40
1
40
1
40
1
40
1
41
1
10
6.93438008994701
20
2.36149552692029
30
0
41
1
10
6.91942972894762
20
2.37879443074044
30
0
41
1
10
6.91078177920673
20
2.39827903541385
30
0
41
1
10
6.91078268256507
20
2.41810856796263
30
0
0
SPLINE
5
E0
100
AcDbEntity
8
1
62
256
6
ByLayer
370
18
48
1
60
0
100
AcDbSpline
70
4
71
3
72
28
73
24
40
0
40
0
40
0
40
0
40
0.125000000000013
40
0.125000000000013
40
0.187500000000012
40
0.187500000000012
40
0.250000000000012
40
0.250000000000012
40
0.312500000000011
40
0.312500000000011
40
0.343750000000013
40
0.343750000000013
40
0.375000000000015
40
0.375000000000015
40
0.437500000000013
40
0.437500000000013
40
0.500000000000012
40
0.500000000000012
40
0.625000000000009
40
0.625000000000009
40
0.750000000000006
40
0.750000000000006
40
1
40
1
40
1
40
1
41
1
10
88.8777793287085
20
-1.5685460777149
30
0
41
1
10
88.8176595755554
20
-1.52680962552495
30
0
41
1
10
88.7594408815421
20
-1.48097611376178
30
0
41
1
10
88.6769318993946
20
-1.40184007174975
30
0
41
1
10
88.6505375338338
20
-1.37395452906023
30
0
41
1
10
88.6012815663107
20
-1.31419104422713
30
0
41
1
10
88.5780852903548
20
-1.28194252623533
30
0
41
1
10
88.5388017204925
20
-1.21232468450674
30
0
41
1
10
88.5226662899366
20
-1.17452128386773
30
0
41
1
10
88.5101880308605
20
-1.1171078760263
30
0
41
1
10
88.5079473175786
20
-1.09743814422973
30
0
41
1
10
88.5083360971775
20
-1.05958057503804
30
0
41
1
10
88.510873218989
20
-1.04158863737649
30
0
41
1
10
88.5252837933853
20
-0.990331794397065
30
0
41
1
10
88.5436475092819
20
-0.961867912945536
30
0
41
1
10
88.5874249699125
20
-0.916807242483117
30
0
41
1
10
88.6132700764915
20
-0.899314402149173
30
0
41
1
10
88.6946079368029
20
-0.857512149813545
30
0
41
1
10
88.7546273526806
20
-0.84269494792909
30
0
41
1
10
88.8769111675513
20
-0.825513841913477
30
0
41
1
10
88.9391385285986
20
-0.823518707286865
30
0
41
1
10
89.1278402656477
20
-0.829805096835827
30
0
41
1
10
89.2569169326019
20
-0.850508470176436
30
0
41
1
10
89.3840464603762
20
-0.881393899535084
30
0
0
SPLINE
5
E1
100
AcDbEntity
8
1
62
256
6
ByLayer
370
18
48
1
60
0
100
AcDbSpline
70
4
71
3
72
8
73
4
40
0
40
0
40
0
40
0
40
1
40
1
40
1
40
1
41
1
10
89.8795017120544
20
0.815259191307462
30
0
41
1
10
89.9161260155031
20
0.589221451035542
30
0
41
1
10
89.94887252482
20
0.363217104736918
30
0
41
1
10
89.9777182170433
20
0.137246350675866
30
0
0
SPLINE
5
E2
100
AcDbEntity
8
1
62
256
6
ByLayer
370
18
48
1
60
0
100
AcDbSpline
70
4
71
3
72
31
73
27
40
0
40
0
40
0
40
0
40
0.0060546166309594
40
0.0060546166309594
40
0.120712393930341
40
0.120712393930341
40
0.235370171229723
40
0.235370171229723
40
0.464685725828486
40
0.464685725828486
40
0.522014614478177
40
0.522014614478177
40
0.5363468366406
40
0.5363468366406
40
0.550679058803022
40
0.550679058803022
40
0.557845169884233
40
0.557845169884233
40
0.565011280965445
40
0.579343503127867
40
0.579343503127867
40
0.694001280427249
40
0.694001280427249
40
0.923316835026011
40
0.923316835026011
40
1
40
1
40
1
40
1
41
1
10
8.6834370104495
20
1.17562921899975
30
0
41
1
10
8.6834370104495
20
1.17036456050877
30
0
41
1
10
8.6834370104495
20
1.16508193186775
30
0
41
1
10
8.6834370104495
20
1.05940446703289
30
0
41
1
10
8.6834370104495
20
0.952479334252416
30
0
41
1
10
8.6834370104495
20
0.728679700565436
30
0
41
1
10
8.6834370104495
20
0.61153752736692
30
0
41
1
10
8.6834370104495
20
0.245290049467371
30
0
41
1
10
8.6834370104495
20
-0.0189068922352646
30
0
41
1
10
8.6834370104495
20
-0.371589871286233
30
0
41
1
10
8.6834370104495
20
-0.443203221754175
30
0
41
1
10
8.6834370104495
20
-0.534058083211988
30
0
41
1
10
8.6834370104495
20
-0.552297010938332
30
0
41
1
10
8.6834370104495
20
-0.588886466147414
30
0
41
1
10
8.68343701045018
20
-0.609388163163402
30
0
41
1
10
8.68343701045018
20
-0.645689204186027
30
0
41
1
10
8.6834370104495
20
-0.659034818610934
30
0
41
1
10
8.6834370104495
20
-0.68559193780311
30
0
41
1
10
8.6834370104495
20
-0.725441312009593
30
0
41
1
10
8.6834370104495
20
-0.765331895884145
30
0
41
1
10
8.6834370104495
20
-1.00484124986048
30
0
41
1
10
8.6834370104495
20
-1.21891673298811
30
0
41
1
10
8.6834370104495
20
-1.86487275494608
30
0
41
1
10
8.6834370104495
20
-2.29967033824087
30
0
41
1
10
8.6834370104495
20
-2.88485656406897
30
0
41
1
10
8.6834370104495
20
-3.03204675691751
30
0
41
1
10
8.6834370104495
20
-3.17955715854774
30
0
0
SPLINE
5
E3
100
AcDbEntity
8
1
62
256
6
ByLayer
370
18
48
1
60
0
100
AcDbSpline
70
4
71
3
72
8
73
4
40
0
40
0
40
0
40
0
40
1
40
1
40
1
40
1
41
1
10
8.6834370104495
20
3.1795571585476
30
0
41
1
10
8.66639720927597
20
3.17987155259334
30
0
41
1
10
8.64941119317297
20
3.18004136044149
30
0
41
1
10
8.63247815930282
20
3.18006516610976
30
0
0
SPLINE
5
E4
100
AcDbEntity
8
1
62
256
6
ByLayer
370
18
48
1
60
0
100
AcDbSpline
70
4
71
3
72
8
73
4
40
0
40
0
40
0
40
0
40
1
40
1
40
1
40
1
41
1
10
88.7814269922449
20
-3.22370706071735
30
0
41
1
10
88.794388933266
20
-3.22988118354047
30
0
41
1
10
88.8089513866259
20
-3.23146381056395
30
0
41
1
10
88.8251772943352
20
-3.22852821140742
30
0
0
SPLINE
5
E5
100
AcDbEntity
8
1
62
256
6
ByLayer
370
18
48
1
60
0
100
AcDbSpline
70
4
71
3
72
8
73
4
40
0
40
0
40
0
40
0
40
1
40
1
40
1
40
1
41
1
10
89.8795017120544
20
-0.81525919130749
30
0
41
1
10
89.9161253576661
20
-0.589225511070794
30
0
41
1
10
89.9488720056586
20
-0.363221171731937
30
0
41
1
10
89.9777182170433
20
-0.137246350675838
30
0
0
SPLINE
5
E6
100
AcDbEntity
8
1
62
256
6
ByLayer
370
18
48
1
60
0
100
AcDbSpline
70
4
71
3
72
8
73
4
40
0
40
0
40
0
40
0
40
1
40
1
40
1
40
1
41
1
10
88.8980841654602
20
-3.310052526048
30
0
41
1
10
88.8518828811393
20
-3.35480899109066
30
0
41
1
10
88.8119134068443
20
-3.38328262895746
30
0
41
1
10
88.7778836612608
20
-3.3945181976211
30
0
0
SPLINE
5
E7
100
AcDbEntity
8
SK1
62
256
6
ByLayer
370
18
48
1
60
0
100
AcDbSpline
70
4
71
3
72
8
73
4
40
0
40
0
40
0
40
0
40
1
40
1
40
1
40
1
41
1
10
-35.25
20
3.79901279814558
30
0
41
1
10
-35.5038836332418
20
3.35971431707759
30
0
41
1
10
-35.7560131506013
20
2.91939786515209
30
0
41
1
10
-36
20
2.4750126229325
30
0
0
SPLINE
5
E8
100
AcDbEntity
8
SK1
62
256
6
ByLayer
370
18
48
1
60
0
100
AcDbSpline
70
4
71
3
72
14
73
10
40
0
40
0
40
0
40
0
40
0.125000000000001
40
0.125000000000001
40
0.250000000000003
40
0.250000000000003
40
0.500000000000005
40
0.500000000000005
40
1
40
1
40
1
40
1
41
1
10
-35.15
20
3.96883028950273
30
0
41
1
10
-35.15
20
3.96928757342317
30
0
41
1
10
-35.1517507934569
20
3.96665964780155
30
0
41
1
10
-35.1569069278761
20
3.95838948321497
30
0
41
1
10
-35.160234831946
20
3.95288497948519
30
0
41
1
10
-35.1714888412645
20
3.93405155977834
30
0
41
1
10
-35.1802429568046
20
3.91914987494727
30
0
41
1
10
-35.2083191353841
20
3.87109182370367
30
0
41
1
10
-35.2286409685639
20
3.8359706356681
30
0
41
1
10
-35.25
20
3.79901279814558
30
0
0
SPLINE
5
E9
100
AcDbEntity
8
SK1
62
256
6
ByLayer
370
18
48
1
60
0
100
AcDbSpline
70
4
71
3
72
8
73
4
40
0
40
0
40
0
40
0
40
1
40
1
40
1
40
1
41
1
10
-35.2789109433349
20
-3.74896947813306
30
0
41
1
10
-35.523017944561
20
-3.32627198244708
30
0
41
1
10
-35.7652770092255
20
-2.902525144066
30
0
41
1
10
-36
20
-2.4750126229325
30
0
0
SPLINE
5
EA
100
AcDbEntity
8
SK1
62
256
6
ByLayer
370
18
48
1
60
0
100
AcDbSpline
70
4
71
3
72
14
73
10
40
0
40
0
40
0
40
0
40
0.499999999999998
40
0.499999999999998
40
0.749999999999997
40
0.749999999999997
40
0.874999999999999
40
0.874999999999999
40
1
40
1
40
1
40
1
41
1
10
-35.25
20
3.26552453932396
30
0
41
1
10
-35.2287404812745
20
3.30231018858041
30
0
41
1
10
-35.208362723075
20
3.34078252214229
30
0
41
1
10
-35.1802905070704
20
3.40017037355327
30
0
41
1
10
-35.1714466180788
20
3.42005689033798
30
0
41
1
10
-35.1602396792677
20
3.44889829642781
30
0
41
1
10
-35.1568594217207
20
3.45834946613613
30
0
41
1
10
-35.1517495297275
20
3.47553156321445
30
0
41
1
10
-35.15
20
3.48339682317265
30
0
41
1
10
-35.15
20
3.4886908565633
30
0
0
SPLINE
5
EB
100
AcDbEntity
8
SK1
62
256
6
ByLayer
370
18
48
1
60
0
100
AcDbSpline
70
4
71
3
72
8
73
4
40
0
40
0
40
0
40
0
40
1
40
1
40
1
40
1
41
1
10
-36
20
1.9415243641109
30
0
41
1
10
-35.75599290383
20
2.38594648277032
30
0
41
1
10
-35.5038984598463
20
2.82620040357006
30
0
41
1
10
-35.25
20
3.26552453932399
30
0
0
LINE
5
76
100
AcDbEntity
8
81
62
256
6
ByLayer
370
18
48
1
60
0
100
AcDbLine
10
90
20
0
30
0
11
95
21
0
31
0
39
0
210
0
220
0
230
1
0
LINE
5
77
100
AcDbEntity
8
1
62
256
6
ByLayer
370
18
48
1
60
0
100
AcDbLine
10
6.910796
20
3.348758
30
0
11
0.350219
21
3.344658
31
0
39
0
210
0
220
0
230
1
0
LINE
5
79
100
AcDbEntity
8
1
62
256
6
ByLayer
370
18
48
1
60
0
100
AcDbLine
10
23.136759
20
3.3589
30
0
11
22.040581
21
3.358214
31
0
39
0
210
0
220
0
230
1
0
LINE
5
7A
100
AcDbEntity
8
1
62
256
6
ByLayer
370
18
48
1
60
0
100
AcDbLine
10
66.63684
20
3.386087
30
0
11
65.548526
21
3.385407
31
0
39
0
210
0
220
0
230
1
0
LINE
5
7B
100
AcDbEntity
8
1
62
256
6
ByLayer
370
18
48
1
60
0
100
AcDbLine
10
65.548526
20
-3.385407
30
0
11
66.637112
21
-3.386087
31
0
39
0
210
0
220
0
230
1
0
LINE
5
7C
100
AcDbEntity
8
1
62
256
6
ByLayer
370
18
48
1
60
0
100
AcDbLine
10
22.040581
20
-3.358214
30
0
11
23.137299
21
-3.3589
31
0
39
0
210
0
220
0
230
1
0
LINE
5
7D
100
AcDbEntity
8
1
62
256
6
ByLayer
370
18
48
1
60
0
100
AcDbLine
10
0.350219
20
-3.344658
30
0
11
6.910796
21
-3.348758
31
0
39
0
210
0
220
0
230
1
0
LINE
5
7E
100
AcDbEntity
8
SK1
62
256
6
ByLayer
370
18
48
1
60
0
100
AcDbLine
10
-35.133975
20
4
30
0
11
-35.278898
21
3.748985
31
0
39
0
210
0
220
0
230
1
0
LINE
5
80
100
AcDbEntity
8
SK1
62
256
6
ByLayer
370
18
48
1
60
0
100
AcDbLine
10
-35.278898
20
-3.748985
30
0
11
-35.133975
21
-4
31
0
39
0
210
0
220
0
230
1
0
LINE
5
81
100
AcDbEntity
8
SK1
62
256
6
ByLayer
370
18
48
1
60
0
100
AcDbLine
10
0
20
4
30
0
11
-35.133975
21
4
31
0
39
0
210
0
220
0
230
1
0
LINE
5
82
100
AcDbEntity
8
SK1
62
256
6
ByLayer
370
18
48
1
60
0
100
AcDbLine
10
-35.133975
20
-4
30
0
11
0
21
-4
31
0
39
0
210
0
220
0
230
1
0
LINE
5
83
100
AcDbEntity
8
1
62
256
6
ByLayer
370
18
48
1
60
0
100
AcDbLine
10
44.887061
20
3.372493
30
0
11
43.795969
21
3.371812
31
0
39
0
210
0
220
0
230
1
0
LINE
5
84
100
AcDbEntity
8
1
62
256
6
ByLayer
370
18
48
1
60
0
100
AcDbLine
10
88.387772
20
3.399681
30
0
11
87.303098
21
3.399003
31
0
39
0
210
0
220
0
230
1
0
LINE
5
85
100
AcDbEntity
8
1
62
256
6
ByLayer
370
18
48
1
60
0
100
AcDbLine
10
87.303098
20
-3.399003
30
0
11
88.38796
21
-3.399682
31
0
39
0
210
0
220
0
230
1
0
LINE
5
86
100
AcDbEntity
8
1
62
256
6
ByLayer
370
18
48
1
60
0
100
AcDbLine
10
43.795969
20
-3.371812
30
0
11
44.88747
21
-3.372494
31
0
39
0
210
0
220
0
230
1
0
LINE
5
87
100
AcDbEntity
8
SK4
62
256
6
ByLayer
370
18
48
0.05
60
0
100
AcDbLine
10
95
20
0
30
0
11
-41
21
0
31
0
39
0
210
0
220
0
230
1
0
LINE
5
89
100
AcDbEntity
8
4
62
256
6
ByLayer
370
18
48
0.05
60
0
100
AcDbLine
10
90
20
0
30
0
11
0
21
0
31
0
39
0
210
0
220
0
230
1
0
LINE
5
8B
100
AcDbEntity
8
80
62
256
6
ByLayer
370
18
48
1
60
0
100
AcDbLine
10
0
20
0
30
0
11
-5
21
0
31
0
39
0
210
0
220
0
230
1
0
LINE
5
8C
100
AcDbEntity
8
1
62
256
6
ByLayer
370
13
48
1
60
0
100
AcDbLine
10
88.868528
20
0.839391
30
0
11
89.977718
21
0.137246
31
0
39
0
210
0
220
0
230
1
0
LINE
5
8D
100
AcDbEntity
8
1
62
256
6
ByLayer
370
18
48
1
60
0
100
AcDbLine
10
89.384046
20
-0.881394
30
0
11
89.877959
21
-0.211011
31
0
39
0
210
0
220
0
230
1
0
LINE
5
8E
100
AcDbEntity
8
1
62
256
6
ByLayer
370
18
48
1
60
0
100
AcDbLine
10
88.279488
20
-2.380602
30
0
11
88.877779
21
-1.568546
31
0
39
0
210
0
220
0
230
1
0
LINE
5
8F
100
AcDbEntity
8
1
62
256
6
ByLayer
370
13
48
1
60
0
100
AcDbLine
10
0.350219
20
3.344658
30
0
11
0.350219
21
-3.344658
31
0
39
0
210
0
220
0
230
1
0
LINE
5
90
100
AcDbEntity
8
1
62
256
6
ByLayer
370
13
48
1
60
0
100
AcDbLine
10
88.757279
20
0.728001
30
0
11
89.969614
21
-0.039436
31
0
39
0
210
0
220
0
230
1
0
LINE
5
91
100
AcDbEntity
8
SK1
62
256
6
ByLayer
370
18
48
1
60
0
100
AcDbLine
10
-35.15
20
3.488691
30
0
11
-35.15
21
3.96883
31
0
39
0
210
0
220
0
230
1
0
LINE
5
92
100
AcDbEntity
8
SK1
62
256
6
ByLayer
370
18
48
1
60
0
100
AcDbLine
10
-36
20
2.475013
30
0
11
-36
21
1.941509
31
0
39
0
210
0
220
0
230
1
0
LINE
5
93
100
AcDbEntity
8
SK1
62
256
6
ByLayer
370
13
48
1
60
0
100
AcDbLine
10
-35.25
20
3.799013
30
0
11
-35.25
21
3.265419
31
0
39
0
210
0
220
0
230
1
0
LINE
5
94
100
AcDbEntity
8
SK1
62
256
6
ByLayer
370
18
48
1
60
0
100
AcDbLine
10
-35.133975
20
4
30
0
11
-35.133975
21
-4
31
0
39
0
210
0
220
0
230
1
0
LINE
5
95
100
AcDbEntity
8
SK1
62
256
6
ByLayer
370
18
48
1
60
0
100
AcDbLine
10
-36
20
1.941524
30
0
11
-36
21
-2.475013
31
0
39
0
210
0
220
0
230
1
0
LINE
5
96
100
AcDbEntity
8
SK1
62
256
6
ByLayer
370
18
48
1
60
0
100
AcDbLine
10
0
20
4
30
0
11
0
21
-4
31
0
39
0
210
0
220
0
230
1
0
MTEXT
5
EC
100
AcDbEntity
8
SK6
62
256
6
ByLayer
370
13
48
1
60
0
100
AcDbMText
10
29.129169
20
35.782694
30
0
210
0
220
0
230
1
1
\W0.7431;460.1-0680-051A1-XM GC34
40
3.5
41
0
44
1.084337
50
0
71
8
72
5
7
iso_b_vert
0
DIMENSION
5
F9
100
AcDbEntity
8
SK2
62
256
6
ByLayer
370
13
48
1
60
0
100
AcDbDimension
2
DimnDraft3D1
10
88.9982
20
-13.613398
30
0
11
43.248259
21
-13.613398
31
0
70
32
71
5
72
1
41
1
210
0
220
0
230
1
3
Standard
100
AcDbAlignedDimension
13
0
23
-1.5875
33
0
14
88.9982
24
-4.9875
34
0
50
0
100
AcDbRotatedDimension
1001
ACAD
1000
DSTYLE
1002
{
1070
   279
1070
     0
1070
   172
1070
     1
1070
   173
1070
     1
1070
   340
1005
ED
1070
   271
1070
     2
1070
   272
1070
     2
1070
    77
1070
     1
1070
    73
1070
     0
1070
   171
1070
     3
1070
   274
1070
     4
1070
   177
1070
    35
1070
   176
1070
    35
1070
   178
1070
    35
1070
    48
1040
-0.005
1070
    41
1041
3.5
1070
   147
1041
1.75
1070
    42
1041
1.5875
1070
    44
1041
2.0
1070
   140
1041
3.5
1070
   343
1005
0
1070
   344
1005
0
1002
}
0
DIMENSION
5
103
100
AcDbEntity
8
SK2
62
256
6
ByLayer
370
13
48
1
60
0
100
AcDbDimension
2
DimnDraft3D2
10
90
20
-32.692985
30
0
11
27.3395
21
-32.692985
31
0
70
32
71
5
72
1
41
1
210
0
220
0
230
1
3
Standard
100
AcDbAlignedDimension
13
-36
23
-5.5875
33
0
14
90
24
-1.5875
34
0
50
0
100
AcDbRotatedDimension
1001
ACAD
1000
DSTYLE
1002
{
1070
   279
1070
     0
1070
   172
1070
     1
1070
   173
1070
     1
1070
   340
1005
ED
1070
   271
1070
     2
1070
   272
1070
     2
1070
    77
1070
     1
1070
    73
1070
     0
1070
   171
1070
     3
1070
   274
1070
     4
1070
   177
1070
    35
1070
   176
1070
    35
1070
   178
1070
    35
1070
    48
1040
-0.005
1070
    41
1041
3.5
1070
   147
1041
1.75
1070
    42
1041
1.5875
1070
    44
1041
2.0
1070
   140
1041
3.5
1070
   343
1005
0
1070
   344
1005
0
1002
}
0
DIMENSION
5
10D
100
AcDbEntity
8
SK2
62
256
6
ByLayer
370
13
48
1
60
0
100
AcDbDimension
2
DimnDraft3D3
10
90
20
15.009119
30
0
11
62.3
21
15.009119
31
0
70
32
71
5
72
1
41
1
210
0
220
0
230
1
3
Standard
100
AcDbAlignedDimension
13
34.6
23
4.9875
33
0
14
90
24
1.5875
34
0
50
0
100
AcDbRotatedDimension
1001
ACAD
1000
DSTYLE
1002
{
1070
   279
1070
     0
1070
   172
1070
     1
1070
   173
1070
     1
1070
   340
1005
ED
1070
   271
1070
     2
1070
   272
1070
     2
1070
    77
1070
     1
1070
    73
1070
     0
1070
   171
1070
     3
1070
   274
1070
     4
1070
   177
1070
    35
1070
   176
1070
    35
1070
   178
1070
    35
1070
    48
1040
-0.005
1070
    41
1041
3.5
1070
   147
1041
1.75
1070
    42
1041
1.5875
1070
    44
1041
2.0
1070
   140
1041
3.5
1070
   343
1005
0
1070
   344
1005
0
1002
}
0
DIMENSION
5
117
100
AcDbEntity
8
SK2
62
256
6
ByLayer
370
13
48
1
60
0
100
AcDbDimension
2
DimnDraft3D4
10
88.9982
20
-16.202503
30
0
11
99.981425
21
-16.202503
31
0
70
32
71
5
72
1
41
1
210
0
220
0
230
1
3
Standard
100
AcDbAlignedDimension
13
90
23
-1.5875
33
0
14
88.9982
24
-4.9875
34
0
50
0
100
AcDbRotatedDimension
1001
ACAD
1000
DSTYLE
1002
{
1070
   279
1070
     0
1070
   172
1070
     1
1070
   173
1070
     1
1070
   340
1005
ED
1070
   271
1070
     2
1070
   272
1070
     2
1070
    77
1070
     1
1070
    73
1070
     0
1070
   171
1070
     3
1070
   274
1070
     4
1070
   177
1070
    35
1070
   176
1070
    35
1070
   178
1070
    35
1070
    48
1040
-0.005
1070
    41
1041
3.5
1070
   147
1041
1.75
1070
    42
1041
1.5875
1070
    44
1041
2.0
1070
   140
1041
3.5
1070
   343
1005
0
1070
   344
1005
0
1002
}
0
DIMENSION
5
121
100
AcDbEntity
8
SK2
62
256
6
ByLayer
370
13
48
1
60
0
100
AcDbDimension
2
DimnDraft3D5
10
88.9982
20
-22.343428
30
0
11
24.258876
21
-22.343428
31
0
70
32
71
5
72
1
41
1
210
0
220
0
230
1
3
Standard
100
AcDbAlignedDimension
13
-36
23
-5.5875
33
0
14
88.9982
24
-4.9875
34
0
50
0
100
AcDbRotatedDimension
1001
ACAD
1000
DSTYLE
1002
{
1070
   279
1070
     0
1070
   172
1070
     1
1070
   173
1070
     1
1070
   340
1005
ED
1070
   271
1070
     2
1070
   272
1070
     2
1070
    77
1070
     1
1070
    73
1070
     0
1070
   171
1070
     3
1070
   274
1070
     4
1070
   177
1070
    35
1070
   176
1070
    35
1070
   178
1070
    35
1070
    48
1040
-0.005
1070
    41
1041
3.5
1070
   147
1041
1.75
1070
    42
1041
1.5875
1070
    44
1041
2.0
1070
   140
1041
3.5
1070
   343
1005
0
1070
   344
1005
0
1002
}
0
DIMENSION
5
12C
100
AcDbEntity
8
SK2
62
256
6
ByLayer
370
13
48
1
60
0
100
AcDbDimension
2
DimnDraft3D6
10
-46.625163
20
4
30
0
11
-47.250163
21
22.47418
31
0
70
33
71
5
72
1
41
1
210
0
220
0
230
1
3
Standard
100
AcDbAlignedDimension
13
-37.5875
23
-4
33
0
14
-37.5875
24
4
34
0
1001
ACAD
1000
DSTYLE
1002
{
1070
   279
1070
     0
1070
    74
1070
     0
1070
   173
1070
     1
1070
   340
1005
ED
1070
   271
1070
     3
1070
   272
1070
     2
1070
    77
1070
     1
1070
    73
1070
     0
1070
   171
1070
     3
1070
   274
1070
     4
1070
   177
1070
    35
1070
   176
1070
    35
1070
   178
1070
    35
1070
    48
1040
-0.005
1070
    41
1041
3.5
1070
   147
1041
1.75
1070
    42
1041
1.5875
1070
    44
1041
2.0
1070
   140
1041
3.5
1070
   343
1005
0
1070
   344
1005
0
1002
}
0
DIMENSION
5
137
100
AcDbEntity
8
2
62
256
6
ByLayer
370
13
48
1
60
0
100
AcDbDimension
2
DimnDraft3D7
10
104.083343
20
3.4
30
0
11
99.458343
21
20.467266
31
0
70
33
71
5
72
1
41
1
210
0
220
0
230
1
3
Standard
100
AcDbAlignedDimension
13
90.5857
23
-3.4
33
0
14
90.5857
24
3.4
34
0
1001
ACAD
1000
DSTYLE
1002
{
1070
   279
1070
     0
1070
    74
1070
     0
1070
   173
1070
     1
1070
   340
1005
ED
1070
   271
1070
     3
1070
   272
1070
     2
1070
    77
1070
     1
1070
    73
1070
     0
1070
   171
1070
     3
1070
   274
1070
     4
1070
   177
1070
    35
1070
   176
1070
    35
1070
   178
1070
    35
1070
    48
1040
-0.005
1070
    41
1041
3.5
1070
   147
1041
1.75
1070
    42
1041
1.5875
1070
    44
1041
2.0
1070
   140
1041
3.5
1070
   343
1005
0
1070
   344
1005
0
1002
}
0
ENDSEC
0
SECTION
2
OBJECTS
0
DICTIONARY
5
1a2
330
0
100
AcDbDictionary
280
0
281
1
3
ACAD_GROUP
350
1a3
3
ACAD_MLINESTYLE
350
1a4
0
DICTIONARY
5
1a3
330
0
100
AcDbDictionary
280
0
281
1
0
DICTIONARY
5
1a4
330
0
100
AcDbDictionary
280
0
281
1
3
Standard
350
18
0
MLINESTYLE
5
18
330
1a4
100
AcDbMlineStyle
2
Standard
70
0
3

62
256
51
90
52
90
71
2
49
-0.5
62
256
6
ByLayer
49
0.5
62
256
6
ByLayer
0
RASTERVARIABLES
5
190
330

100
AcDbRasterVariables
90
0
70
1
71
1
72
1
0
ENDSEC
0
EOF
