0
SECTION
2
HEADER
9
$ACADVER
1
AC1015
9
$DWGCODEPAGE
3
ANSI_1252
9
$HANDSEED
5
18f
9
$ANGBASE
50
0
9
$ANGDIR
70
0
9
$ATTMODE
70
1
9
$AUNITS
70
0
9
$AUPREC
70
0
9
$CECOLOR
62
256
9
$CELTSCALE
40
1
9
$CELTYPE
6
ByLayer
9
$CELWEIGHT
370
18
9
$CLAYER
8
0
9
$CMLJUST
70
0
9
$CMLSCALE
40
1
9
$CMLSTYLE
2
Standard
9
$DIMSTYLE
2
Standard
9
$TEXTSIZE
40
0.2
9
$TEXTSTYLE
7
Standard
9
$LUNITS
70
2
9
$LUPREC
70
4
9
$EXTNAMES
290
1
9
$INSUNITS
70
4
9
$LTSCALE
40
1
9
$LWDISPLAY
290
1
9
$PDMODE
70
0
9
$PDSIZE
40
0
9
$PLINEGEN
70
0
0
ENDSEC
0
SECTION
2
CLASSES
0
CLASS
1
RASTERVARIABLES
2
AcDbRasterVariables
3
ISM
90
0
280
0
281
0
0
ENDSEC
0
SECTION
2
TABLES
0
TABLE
2
VPORT
5
185
100
AcDbSymbolTable
0
VPORT
5
1
100
AcDbSymbolTableRecord
100
AcDbViewportTableRecord
2
*Active
70
0
10
0
20
0
11
1
21
1
12
-1
22
1
13
0
23
0
14
0.5
24
0.5
15
10
25
10
16
0
26
0
36
1
17
0
27
0
37
0
0
ENDTAB
0
TABLE
2
LTYPE
5
186
100
AcDbSymbolTable
0
LTYPE
5
14
100
AcDbSymbolTableRecord
100
AcDbLinetypeTableRecord
70
0
2
ByBlock
3

72
65
73
0
40
0
0
LTYPE
5
15
100
AcDbSymbolTableRecord
100
AcDbLinetypeTableRecord
70
0
2
ByLayer
3

72
65
73
0
40
0
0
LTYPE
5
16
100
AcDbSymbolTableRecord
100
AcDbLinetypeTableRecord
70
0
2
CONTINUOUS
3
Solid line
72
65
73
0
40
0
0
LTYPE
5
6A
100
AcDbSymbolTableRecord
100
AcDbLinetypeTableRecord
70
0
2
CENTER
3
____ _ ____ _ ____ _ ____
72
65
73
4
40
47.5
49
22
74
0
49
-8.5
74
0
49
8.5
74
0
49
-8.5
74
0
0
LTYPE
5
6B
100
AcDbSymbolTableRecord
100
AcDbLinetypeTableRecord
70
0
2
DASHED
3
__ __ __ __ __ __ __ __ __
72
65
73
2
40
25.72
49
12.86
74
0
49
-12.86
74
0
0
ENDTAB
0
TABLE
2
LAYER
5
187
100
AcDbSymbolTable
0
LAYER
5
10
100
AcDbSymbolTableRecord
100
AcDbLayerTableRecord
2
0
70
0
62
7
6
CONTINUOUS
290
1
370
-3
390
0
0
LAYER
5
6D
100
AcDbSymbolTableRecord
100
AcDbLayerTableRecord
2
81
70
0
62
-3
6
CONTINUOUS
290
1
370
-3
390
0
0
LAYER
5
6F
100
AcDbSymbolTableRecord
100
AcDbLayerTableRecord
2
80
70
0
62
-6
6
CONTINUOUS
290
1
370
-3
390
0
0
LAYER
5
74
100
AcDbSymbolTableRecord
100
AcDbLayerTableRecord
2
2
70
0
62
7
6
CONTINUOUS
290
1
370
-3
390
0
0
LAYER
5
78
100
AcDbSymbolTableRecord
100
AcDbLayerTableRecord
2
1
70
0
62
4
6
CONTINUOUS
290
1
370
-3
390
0
0
LAYER
5
86
100
AcDbSymbolTableRecord
100
AcDbLayerTableRecord
2
4
70
0
62
-2
6
CENTER
290
1
370
-3
390
0
0
LAYER
5
171
100
AcDbSymbolTableRecord
100
AcDbLayerTableRecord
2
SK2
70
0
62
7
6
CONTINUOUS
290
1
370
-3
390
0
0
LAYER
5
172
100
AcDbSymbolTableRecord
100
AcDbLayerTableRecord
2
SK1
70
0
62
4
6
CONTINUOUS
290
1
370
-3
390
0
0
LAYER
5
173
100
AcDbSymbolTableRecord
100
AcDbLayerTableRecord
2
SK4
70
0
62
2
6
CENTER
290
1
370
-3
390
0
0
LAYER
5
174
100
AcDbSymbolTableRecord
100
AcDbLayerTableRecord
2
SK6
70
0
62
5
6
CONTINUOUS
290
1
370
-3
390
0
0
ENDTAB
0
TABLE
2
STYLE
5
188
100
AcDbSymbolTable
0
STYLE
5
11
100
AcDbSymbolTableRecord
100
AcDbTextStyleTableRecord
2
Standard
3
txt
70
0
71
0
40
0
41
1
42
0
50
0
0
STYLE
5
CD
100
AcDbSymbolTableRecord
100
AcDbTextStyleTableRecord
2
iso_b_vert
3
simplex.shx
70
0
71
0
40
0
41
1
42
0
50
0
0
STYLE
5
CE
100
AcDbSymbolTableRecord
100
AcDbTextStyleTableRecord
2
DWGDirectTextStyle
3
simplex
70
0
71
0
40
0
41
1
42
0
50
0
0
ENDTAB
0
TABLE
2
DIMSTYLE
5
189
100
AcDbSymbolTable
100
AcDbDimStyleTable
0
DIMSTYLE
105
27
100
AcDbSymbolTableRecord
100
AcDbDimStyleTableRecord
2
Standard
70
0
3
<>
41
0.18
42
0.0625
44
0.18
140
0.18
147
0.09
73
0
74
0
77
1
271
2
275
0
278
52
280
0
340
11
0
ENDTAB
0
TABLE
2
VIEW
5
18a
100
AcDbSymbolTable
0
ENDTAB
0
TABLE
2
UCS
5
18b
100
AcDbSymbolTable
0
ENDTAB
0
TABLE
2
APPID
5
18c
100
AcDbSymbolTable
0
APPID
5
12
100
AcDbSymbolTableRecord
100
AcDbRegAppTableRecord
2
ACAD
70
0
0
ENDTAB
0
TABLE
2
BLOCK_RECORD
5
18d
100
AcDbSymbolTable
0
BLOCK_RECORD
5
1F
100
AcDbSymbolTableRecord
100
AcDbBlockTableRecord
2
*Model_Space
340
0
70
0
0
BLOCK_RECORD
5
1B
100
AcDbSymbolTableRecord
100
AcDbBlockTableRecord
2
*Paper_Space
340
0
70
0
0
BLOCK_RECORD
5
23
100
AcDbSymbolTableRecord
100
AcDbBlockTableRecord
2
*Paper_Space0
340
0
70
0
0
BLOCK_RECORD
5
D0
100
AcDbSymbolTableRecord
100
AcDbBlockTableRecord
2
DimnDraft3D1
340
0
70
0
0
BLOCK_RECORD
5
DA
100
AcDbSymbolTableRecord
100
AcDbBlockTableRecord
2
DimnDraft3D2
340
0
70
0
0
BLOCK_RECORD
5
E4
100
AcDbSymbolTableRecord
100
AcDbBlockTableRecord
2
DimnDraft3D3
340
0
70
0
0
BLOCK_RECORD
5
EE
100
AcDbSymbolTableRecord
100
AcDbBlockTableRecord
2
DimnDraft3D4
340
0
70
0
0
BLOCK_RECORD
5
F8
100
AcDbSymbolTableRecord
100
AcDbBlockTableRecord
2
DimnDraft3D5
340
0
70
0
0
BLOCK_RECORD
5
102
100
AcDbSymbolTableRecord
100
AcDbBlockTableRecord
2
DimnDraft3D6
340
0
70
0
0
BLOCK_RECORD
5
10D
100
AcDbSymbolTableRecord
100
AcDbBlockTableRecord
2
DimnDraft3D7
340
0
70
0
0
ENDTAB
0
ENDSEC
0
SECTION
2
BLOCKS
0
BLOCK
5
20
100
AcDbEntity
8
0
100
AcDbBlockBegin
2
*Model_Space
70
0
10
0
20
0
30
0
3
*Model_Space
0
ENDBLK
5
21
100
AcDbEntity
8
0
100
AcDbBlockEnd
0
BLOCK
5
1C
100
AcDbEntity
8
0
100
AcDbBlockBegin
2
*Paper_Space
70
0
10
0
20
0
30
0
3
*Paper_Space
0
ENDBLK
5
1D
100
AcDbEntity
8
0
100
AcDbBlockEnd
0
BLOCK
5
24
100
AcDbEntity
8
0
100
AcDbBlockBegin
2
*Paper_Space0
70
0
10
0
20
0
30
0
3
*Paper_Space0
0
ENDBLK
5
25
100
AcDbEntity
8
0
100
AcDbBlockEnd
0
BLOCK
5
D7
100
AcDbEntity
8
0
100
AcDbBlockBegin
2
DimnDraft3D1
70
0
10
0
20
0
30
0
3
DimnDraft3D1
0
MTEXT
5
D1
100
AcDbEntity
8
SK2
62
256
6
ByLayer
370
13
48
1
60
0
100
AcDbMText
10
15.205864
20
-12.438398
30
0
210
0
220
0
230
1
1
\W0.7669;42,09
40
3.5
41
0
44
1.084337
50
0
71
7
72
5
7
iso_b_vert
0
LINE
5
D2
100
AcDbEntity
8
SK2
62
256
6
ByLayer
370
13
48
1
60
0
100
AcDbLine
10
0
20
-1.5875
30
0
11
0
21
-15.313398
31
0
39
0
210
0
220
0
230
1
0
LINE
5
D3
100
AcDbEntity
8
SK2
62
256
6
ByLayer
370
13
48
1
60
0
100
AcDbLine
10
42.0887
20
-4.6875
30
0
11
42.0887
21
-15.313398
31
0
39
0
210
0
220
0
230
1
0
LINE
5
D4
100
AcDbEntity
8
SK2
62
256
6
ByLayer
370
13
48
1
60
0
100
AcDbLine
10
0
20
-13.313398
30
0
11
42.0887
21
-13.313398
31
0
39
0
210
0
220
0
230
1
0
SOLID
5
D5
100
AcDbEntity
8
SK2
62
256
6
ByLayer
370
13
48
1
60
0
100
AcDbTrace
10
0
20
-13.313398
30
0
11
3.499998
21
-12.852615
31
0
12
3.500002
22
-13.774182
32
0
13
0
23
-13.313398
33
0
39
0
210
0
220
0
230
1
0
SOLID
5
D6
100
AcDbEntity
8
SK2
62
256
6
ByLayer
370
13
48
1
60
0
100
AcDbTrace
10
42.0887
20
-13.313398
30
0
11
38.588702
21
-13.774182
31
0
12
38.588698
22
-12.852615
32
0
13
42.0887
23
-13.313398
33
0
39
0
210
0
220
0
230
1
0
ENDBLK
5
D8
100
AcDbEntity
8
0
100
AcDbBlockEnd
0
BLOCK
5
E1
100
AcDbEntity
8
0
100
AcDbBlockBegin
2
DimnDraft3D2
70
0
10
0
20
0
30
0
3
DimnDraft3D2
0
MTEXT
5
DB
100
AcDbEntity
8
SK2
62
256
6
ByLayer
370
13
48
1
60
0
100
AcDbMText
10
-0.518684
20
-31.817985
30
0
210
0
220
0
230
1
1
\W0.7317;79,00
40
3.5
41
0
44
1.084337
50
0
71
7
72
5
7
iso_b_vert
0
LINE
5
DC
100
AcDbEntity
8
SK2
62
256
6
ByLayer
370
13
48
1
60
0
100
AcDbLine
10
-36
20
-5.5875
30
0
11
-36
21
-34.692985
31
0
39
0
210
0
220
0
230
1
0
LINE
5
DD
100
AcDbEntity
8
SK2
62
256
6
ByLayer
370
13
48
1
60
0
100
AcDbLine
10
43
20
-1.5875
30
0
11
43
21
-34.692985
31
0
39
0
210
0
220
0
230
1
0
LINE
5
DE
100
AcDbEntity
8
SK2
62
256
6
ByLayer
370
13
48
1
60
0
100
AcDbLine
10
-36
20
-32.692985
30
0
11
43
21
-32.692985
31
0
39
0
210
0
220
0
230
1
0
SOLID
5
DF
100
AcDbEntity
8
SK2
62
256
6
ByLayer
370
13
48
1
60
0
100
AcDbTrace
10
-36
20
-32.692985
30
0
11
-32.500002
21
-32.232202
31
0
12
-32.499998
22
-33.153769
32
0
13
-36
23
-32.692985
33
0
39
0
210
0
220
0
230
1
0
SOLID
5
E0
100
AcDbEntity
8
SK2
62
256
6
ByLayer
370
13
48
1
60
0
100
AcDbTrace
10
43
20
-32.692985
30
0
11
39.500002
21
-33.153769
31
0
12
39.499998
22
-32.232202
32
0
13
43
23
-32.692985
33
0
39
0
210
0
220
0
230
1
0
ENDBLK
5
E2
100
AcDbEntity
8
0
100
AcDbBlockEnd
0
BLOCK
5
EB
100
AcDbEntity
8
0
100
AcDbBlockBegin
2
DimnDraft3D3
70
0
10
0
20
0
30
0
3
DimnDraft3D3
0
MTEXT
5
E5
100
AcDbEntity
8
SK2
62
256
6
ByLayer
370
13
48
1
60
0
100
AcDbMText
10
29.671316
20
15.584119
30
0
210
0
220
0
230
1
1
\W0.6563;19,51
40
3.5
41
0
44
1.084337
50
0
71
7
72
5
7
iso_b_vert
0
LINE
5
E6
100
AcDbEntity
8
SK2
62
256
6
ByLayer
370
13
48
1
60
0
100
AcDbLine
10
23.49
20
4.6875
30
0
11
23.49
21
16.709119
31
0
39
0
210
0
220
0
230
1
0
LINE
5
E7
100
AcDbEntity
8
SK2
62
256
6
ByLayer
370
13
48
1
60
0
100
AcDbLine
10
43
20
1.5875
30
0
11
43
21
16.709119
31
0
39
0
210
0
220
0
230
1
0
LINE
5
E8
100
AcDbEntity
8
SK2
62
256
6
ByLayer
370
13
48
1
60
0
100
AcDbLine
10
23.49
20
14.709119
30
0
11
43
21
14.709119
31
0
39
0
210
0
220
0
230
1
0
SOLID
5
E9
100
AcDbEntity
8
SK2
62
256
6
ByLayer
370
13
48
1
60
0
100
AcDbTrace
10
23.49
20
14.709119
30
0
11
26.989998
21
15.169903
31
0
12
26.990002
22
14.248335
32
0
13
23.49
23
14.709119
33
0
39
0
210
0
220
0
230
1
0
SOLID
5
EA
100
AcDbEntity
8
SK2
62
256
6
ByLayer
370
13
48
1
60
0
100
AcDbTrace
10
43
20
14.709119
30
0
11
39.500002
21
14.248335
31
0
12
39.499998
22
15.169903
32
0
13
43
23
14.709119
33
0
39
0
210
0
220
0
230
1
0
ENDBLK
5
EC
100
AcDbEntity
8
0
100
AcDbBlockEnd
0
BLOCK
5
F5
100
AcDbEntity
8
0
100
AcDbBlockBegin
2
DimnDraft3D4
70
0
10
0
20
0
30
0
3
DimnDraft3D4
0
MTEXT
5
EF
100
AcDbEntity
8
SK2
62
256
6
ByLayer
370
13
48
1
60
0
100
AcDbMText
10
50.278136
20
-15.027503
30
0
210
0
220
0
230
1
1
\W0.6993;0,91
40
3.5
41
0
44
1.084337
50
0
71
7
72
5
7
iso_b_vert
0
LINE
5
F0
100
AcDbEntity
8
SK2
62
256
6
ByLayer
370
13
48
1
60
0
100
AcDbLine
10
43
20
-1.5875
30
0
11
43
21
-17.902503
31
0
39
0
210
0
220
0
230
1
0
LINE
5
F1
100
AcDbEntity
8
SK2
62
256
6
ByLayer
370
13
48
1
60
0
100
AcDbLine
10
42.0887
20
-4.6875
30
0
11
42.0887
21
-17.902503
31
0
39
0
210
0
220
0
230
1
0
LINE
5
F2
100
AcDbEntity
8
SK2
62
256
6
ByLayer
370
13
48
1
60
0
100
AcDbLine
10
33.3387
20
-15.902503
30
0
11
56.559715
21
-15.902503
31
0
39
0
210
0
220
0
230
1
0
SOLID
5
F3
100
AcDbEntity
8
SK2
62
256
6
ByLayer
370
13
48
1
60
0
100
AcDbTrace
10
43
20
-15.902503
30
0
11
46.499998
21
-15.441719
31
0
12
46.500002
22
-16.363287
32
0
13
43
23
-15.902503
33
0
39
0
210
0
220
0
230
1
0
SOLID
5
F4
100
AcDbEntity
8
SK2
62
256
6
ByLayer
370
13
48
1
60
0
100
AcDbTrace
10
42.0887
20
-15.902503
30
0
11
38.588702
21
-16.363287
31
0
12
38.588698
22
-15.441719
32
0
13
42.0887
23
-15.902503
33
0
39
0
210
0
220
0
230
1
0
ENDBLK
5
F6
100
AcDbEntity
8
0
100
AcDbBlockEnd
0
BLOCK
5
FF
100
AcDbEntity
8
0
100
AcDbBlockBegin
2
DimnDraft3D5
70
0
10
0
20
0
30
0
3
DimnDraft3D5
0
MTEXT
5
F9
100
AcDbEntity
8
SK2
62
256
6
ByLayer
370
13
48
1
60
0
100
AcDbMText
10
-3.599308
20
-21.468428
30
0
210
0
220
0
230
1
1
\W0.7402;78,09
40
3.5
41
0
44
1.084337
50
0
71
7
72
5
7
iso_b_vert
0
LINE
5
FA
100
AcDbEntity
8
SK2
62
256
6
ByLayer
370
13
48
1
60
0
100
AcDbLine
10
-36
20
-5.5875
30
0
11
-36
21
-24.343428
31
0
39
0
210
0
220
0
230
1
0
LINE
5
FB
100
AcDbEntity
8
SK2
62
256
6
ByLayer
370
13
48
1
60
0
100
AcDbLine
10
42.0887
20
-4.6875
30
0
11
42.0887
21
-24.343428
31
0
39
0
210
0
220
0
230
1
0
LINE
5
FC
100
AcDbEntity
8
SK2
62
256
6
ByLayer
370
13
48
1
60
0
100
AcDbLine
10
-36
20
-22.343428
30
0
11
42.0887
21
-22.343428
31
0
39
0
210
0
220
0
230
1
0
SOLID
5
FD
100
AcDbEntity
8
SK2
62
256
6
ByLayer
370
13
48
1
60
0
100
AcDbTrace
10
-36
20
-22.343428
30
0
11
-32.500002
21
-21.882645
31
0
12
-32.499998
22
-22.804212
32
0
13
-36
23
-22.343428
33
0
39
0
210
0
220
0
230
1
0
SOLID
5
FE
100
AcDbEntity
8
SK2
62
256
6
ByLayer
370
13
48
1
60
0
100
AcDbTrace
10
42.0887
20
-22.343428
30
0
11
38.588702
21
-22.804212
31
0
12
38.588698
22
-21.882645
32
0
13
42.0887
23
-22.343428
33
0
39
0
210
0
220
0
230
1
0
ENDBLK
5
100
100
AcDbEntity
8
0
100
AcDbBlockEnd
0
BLOCK
5
10A
100
AcDbEntity
8
0
100
AcDbBlockBegin
2
DimnDraft3D6
70
0
10
0
20
0
30
0
3
DimnDraft3D6
0
MTEXT
5
103
100
AcDbEntity
8
SK2
62
256
6
ByLayer
370
13
48
1
60
0
100
AcDbMText
10
-46.375163
20
23.34918
30
0
210
0
220
0
230
1
1
\W0.7317;8,000
40
3.5
41
0
44
1.084337
50
90
71
7
72
5
7
iso_b_vert
0
MTEXT
5
104
100
AcDbEntity
8
SK2
62
256
6
ByLayer
370
13
48
1
60
0
100
AcDbMText
10
-46.375163
20
18.126524
30
0
210
0
220
0
230
1
1
%%c
40
3.5
41
0
44
1.084337
50
90
71
7
72
5
7
iso_b_vert
0
LINE
5
105
100
AcDbEntity
8
SK2
62
256
6
ByLayer
370
13
48
1
60
0
100
AcDbLine
10
-37.5875
20
-4
30
0
11
-46.625163
21
-4
31
0
39
0
210
0
220
0
230
1
0
LINE
5
106
100
AcDbEntity
8
SK2
62
256
6
ByLayer
370
13
48
1
60
0
100
AcDbLine
10
-37.5875
20
4
30
0
11
-46.625163
21
4
31
0
39
0
210
0
220
0
230
1
0
LINE
5
107
100
AcDbEntity
8
SK2
62
256
6
ByLayer
370
13
48
1
60
0
100
AcDbLine
10
-44.625163
20
-4
30
0
11
-44.625163
21
33.121549
31
0
39
0
210
0
220
0
230
1
0
SOLID
5
108
100
AcDbEntity
8
SK2
62
256
6
ByLayer
370
13
48
1
60
0
100
AcDbTrace
10
-44.625163
20
-4
30
0
11
-45.085946
21
-0.500002
31
0
12
-44.164379
22
-0.499998
32
0
13
-44.625163
23
-4
33
0
39
0
210
0
220
0
230
1
0
SOLID
5
109
100
AcDbEntity
8
SK2
62
256
6
ByLayer
370
13
48
1
60
0
100
AcDbTrace
10
-44.625163
20
4
30
0
11
-44.164379
21
0.500002
31
0
12
-45.085946
22
0.499998
32
0
13
-44.625163
23
4
33
0
39
0
210
0
220
0
230
1
0
ENDBLK
5
10B
100
AcDbEntity
8
0
100
AcDbBlockEnd
0
BLOCK
5
115
100
AcDbEntity
8
0
100
AcDbBlockBegin
2
DimnDraft3D7
70
0
10
0
20
0
30
0
3
DimnDraft3D7
0
MTEXT
5
10E
100
AcDbEntity
8
2
62
256
6
ByLayer
370
13
48
1
60
0
100
AcDbMText
10
53.333343
20
21.042266
30
0
210
0
220
0
230
1
1
\W0.7317;6,200
40
3.5
41
0
44
1.084337
50
90
71
7
72
5
7
iso_b_vert
0
MTEXT
5
10F
100
AcDbEntity
8
2
62
256
6
ByLayer
370
13
48
1
60
0
100
AcDbMText
10
53.333343
20
15.81961
30
0
210
0
220
0
230
1
1
%%c
40
3.5
41
0
44
1.084337
50
90
71
7
72
5
7
iso_b_vert
0
LINE
5
110
100
AcDbEntity
8
2
62
256
6
ByLayer
370
13
48
1
60
0
100
AcDbLine
10
43.6762
20
-3.1
30
0
11
57.083343
21
-3.1
31
0
39
0
210
0
220
0
230
1
0
LINE
5
111
100
AcDbEntity
8
2
62
256
6
ByLayer
370
13
48
1
60
0
100
AcDbLine
10
43.6762
20
3.1
30
0
11
57.083343
21
3.1
31
0
39
0
210
0
220
0
230
1
0
LINE
5
112
100
AcDbEntity
8
2
62
256
6
ByLayer
370
13
48
1
60
0
100
AcDbLine
10
55.083343
20
30.814635
30
0
11
55.083343
21
-11.85
31
0
39
0
210
0
220
0
230
1
0
SOLID
5
113
100
AcDbEntity
8
2
62
256
6
ByLayer
370
13
48
1
60
0
100
AcDbTrace
10
55.083343
20
-3.1
30
0
11
55.544126
21
-6.599998
31
0
12
54.622559
22
-6.600002
32
0
13
55.083343
23
-3.1
33
0
39
0
210
0
220
0
230
1
0
SOLID
5
114
100
AcDbEntity
8
2
62
256
6
ByLayer
370
13
48
1
60
0
100
AcDbTrace
10
55.083343
20
3.1
30
0
11
54.622559
21
6.599998
31
0
12
55.544126
22
6.600002
32
0
13
55.083343
23
3.1
33
0
39
0
210
0
220
0
230
1
0
ENDBLK
5
116
100
AcDbEntity
8
0
100
AcDbBlockEnd
0
ENDSEC
0
SECTION
2
ENTITIES
0
ARC
5
8E
100
AcDbEntity
8
1
62
256
6
ByLayer
370
18
48
1
60
0
100
AcDbCircle
39
0
10
-0.35
20
3.423927
30
0
40
0.350000000000001
210
0
220
0
230
-1
100
AcDbArc
50
269.96419
51
0
0
ARC
5
8F
100
AcDbEntity
8
1
62
256
6
ByLayer
370
18
48
1
60
0
100
AcDbCircle
39
0
10
-0.35
20
-3.423927
30
0
40
0.350000000000001
210
0
220
0
230
-1
100
AcDbArc
50
0
51
90.03581
0
ELLIPSE
5
90
100
AcDbEntity
8
1
62
256
6
ByLayer
370
13
48
1
60
0
100
AcDbEllipse
10
10.256834
20
-0.485695
30
0
11
-0.0330153912612728
21
-0.0943927112645096
31
0
210
0
220
0
230
1
40
0.427611
41
-1.57677610633101
42
-0.193630905307608
0
ELLIPSE
5
91
100
AcDbEntity
8
1
62
256
6
ByLayer
370
13
48
1
60
0
100
AcDbEllipse
10
10.317282
20
-0.509344
30
0
11
0.039570193906345
21
0.0918378993347205
31
0
210
0
220
0
230
1
40
0.066384
41
1.4146052247233
42
2.95810692463833
0
POINT
5
6C
100
AcDbEntity
8
81
62
256
6
ByLayer
370
18
48
1
60
0
100
AcDbPoint
10
43
20
0
30
0
39
0
210
0
220
0
230
1
50
360
0
POINT
5
6E
100
AcDbEntity
8
80
62
256
6
ByLayer
370
18
48
1
60
0
100
AcDbPoint
10
0
20
0
30
0
39
0
210
0
220
0
230
1
50
360
0
POINT
5
70
100
AcDbEntity
8
SK2
62
256
6
ByLayer
370
18
48
1
60
1
100
AcDbPoint
10
-36
20
-4
30
0
39
0
210
0
220
0
230
1
50
360
0
POINT
5
72
100
AcDbEntity
8
SK2
62
256
6
ByLayer
370
18
48
1
60
1
100
AcDbPoint
10
-36
20
4
30
0
39
0
210
0
220
0
230
1
50
360
0
POINT
5
73
100
AcDbEntity
8
2
62
256
6
ByLayer
370
18
48
1
60
1
100
AcDbPoint
10
42.0887
20
-3.1
30
0
39
0
210
0
220
0
230
1
50
360
0
POINT
5
75
100
AcDbEntity
8
2
62
256
6
ByLayer
370
18
48
1
60
1
100
AcDbPoint
10
42.0887
20
3.1
30
0
39
0
210
0
220
0
230
1
50
360
0
SPLINE
5
92
100
AcDbEntity
8
1
62
256
6
ByLayer
370
18
48
1
60
0
100
AcDbSpline
70
4
71
3
72
23
73
19
40
0
40
0
40
0
40
0
40
0.0558455235299274
40
0.110350358721687
40
0.144356632479326
40
0.193423651296023
40
0.254999928995663
40
0.31422688348316
40
0.364039903307869
40
0.421394871510696
40
0.48743872362702
40
0.534523723695067
40
0.60156503753786
40
0.6888236175673
40
0.798635429571875
40
0.88044429511324
40
0.949774419340848
40
1
40
1
40
1
40
1
41
1
10
30.1279204592998
20
2.93582725050589
30
0
41
1
10
29.9750341507412
20
2.93658287417116
30
0
41
1
10
29.6726021104619
20
2.93756071960229
30
0
41
1
10
29.2772782943459
20
2.93656547176525
30
0
41
1
10
28.8980705270927
20
2.93605750269023
30
0
41
1
10
28.4996680967637
20
2.93588583141641
30
0
41
1
10
28.0317248378375
20
2.93463891763406
30
0
41
1
10
27.5616995296446
20
2.93516402545944
30
0
41
1
10
27.1033995977782
20
2.93569953843016
30
0
41
1
10
26.6262635539585
20
2.93537117687012
30
0
41
1
10
26.1566234425103
20
2.9341867421665
30
0
41
1
10
25.6603012765161
20
2.93422447888588
30
0
41
1
10
25.1055376240522
20
2.93468338985028
30
0
41
1
10
24.3779833020668
20
2.93332207875963
30
0
41
1
10
23.6097475565082
20
2.9336964003231
30
0
41
1
10
22.8908783123347
20
2.93379013146912
30
0
41
1
10
22.3362171157294
20
2.93235235798844
30
0
41
1
10
22.0068139160478
20
2.93243346488151
30
0
41
1
10
21.8684860493517
20
2.93246268516393
30
0
0
SPLINE
5
93
100
AcDbEntity
8
1
62
256
6
ByLayer
370
18
48
1
60
0
100
AcDbSpline
70
4
71
3
72
29
73
25
40
0
40
0
40
0
40
0
40
0.069421374976568
40
0.121379804814052
40
0.161115879254248
40
0.207382983700747
40
0.260818851489791
40
0.304372621236907
40
0.340085604268407
40
0.395143130266423
40
0.449639168246734
40
0.495021045754586
40
0.533307955558341
40
0.565893911776445
40
0.607084053020466
40
0.664205300585537
40
0.711696578116729
40
0.755975596393515
40
0.809423878923992
40
0.863297510529906
40
0.899160866176689
40
0.929184674600827
40
0.973725984995129
40
1
40
1
40
1
40
1
41
1
10
19.9652568517888
20
-2.93128085706957
30
0
41
1
10
20.2003104412475
20
-2.93143635822233
30
0
41
1
10
20.6112862868637
20
-2.9317191877046
30
0
41
1
10
21.1572518830453
20
-2.9322694784872
30
0
41
1
10
21.6240595989815
20
-2.93253123863789
30
0
41
1
10
22.0963703364195
20
-2.93241924955413
30
0
41
1
10
22.5816410002599
20
-2.93272764146016
30
0
41
1
10
23.0311325317961
20
-2.93381088210296
30
0
41
1
10
23.4861394709928
20
-2.93368409802253
30
0
41
1
10
23.9782012233831
20
-2.93349018638
30
0
41
1
10
24.5030239148874
20
-2.93362224425738
30
0
41
1
10
24.9710320747296
20
-2.93440090509631
30
0
41
1
10
25.3648243620268
20
-2.93446735608362
30
0
41
1
10
25.744421461181
20
-2.93420568164814
30
0
41
1
10
26.1878141967583
20
-2.93421583360603
30
0
41
1
10
26.681707059487
20
-2.93549180137515
30
0
41
1
10
27.1860074479372
20
-2.9356746787204
30
0
41
1
10
27.6778746849178
20
-2.93493370273149
30
0
41
1
10
28.1913659918211
20
-2.93491310233182
30
0
41
1
10
28.6765459553986
20
-2.93609741376812
30
0
41
1
10
29.0817714775992
20
-2.93614626792734
30
0
41
1
10
29.4570644196375
20
-2.93724542178063
30
0
41
1
10
29.7925748346962
20
-2.9368573574651
30
0
41
1
10
30.0324601142454
20
-2.93630745522842
30
0
41
1
10
30.1215685507224
20
-2.93603065221146
30
0
0
SPLINE
5
94
100
AcDbEntity
8
1
62
256
6
ByLayer
370
18
48
1
60
0
100
AcDbSpline
70
4
71
2
72
6
73
3
40
0
40
0
40
0
40
1
40
1
40
1
41
1
10
41.6993713524129
20
-2.94481081229918
30
0
41
1
10
41.8202622618483
20
-2.94493794579083
30
0
41
1
10
41.9399567428199
20
-2.94403304644851
30
0
0
SPLINE
5
95
100
AcDbEntity
8
1
62
256
6
ByLayer
370
18
48
1
60
0
100
AcDbSpline
70
4
71
3
72
10
73
6
40
0
40
0
40
0
40
0
40
0.5
40
0.5
40
1
40
1
40
1
40
1
41
1
10
42.9908541197553
20
0.110735372592416
30
0
41
1
10
42.9912215586126
20
0.100753061561051
30
0
41
1
10
42.992243518309
20
0.0895399268698611
30
0
41
1
10
42.9952518988119
20
0.0660721130817592
30
0
41
1
10
42.9972444781977
20
0.0536964931024784
30
0
41
1
10
42.9996857857261
20
0.04074821461802
30
0
0
SPLINE
5
96
100
AcDbEntity
8
1
62
256
6
ByLayer
370
18
48
1
60
0
100
AcDbSpline
70
4
71
3
72
10
73
6
40
0
40
0
40
0
40
0
40
0.5
40
0.5
40
1
40
1
40
1
40
1
41
1
10
42.9996857857261
20
0.04074821461802
30
0
41
1
10
42.9964395164942
20
0.0247430493837442
30
0
41
1
10
42.9916786053714
20
0.007451113299993
30
0
41
1
10
42.9794571358668
20
-0.0259182608454296
30
0
41
1
10
42.9719805540943
20
-0.0418305786789972
30
0
41
1
10
42.9644078553645
20
-0.0543362865859933
30
0
0
SPLINE
5
97
100
AcDbEntity
8
1
62
256
6
ByLayer
370
18
48
1
60
0
100
AcDbSpline
70
4
71
3
72
32
73
28
40
0
40
0
40
0
40
0
40
0.0751089388145767
40
0.0751089388145767
40
0.152183193913362
40
0.152183193913362
40
0.229257449012147
40
0.229257449012147
40
0.306331704110933
40
0.306331704110933
40
0.383405959209718
40
0.383405959209718
40
0.460480214308503
40
0.460480214308503
40
0.537554469407288
40
0.537554469407288
40
0.614628724506074
40
0.614628724506074
40
0.691702979604859
40
0.691702979604859
40
0.768777234703644
40
0.768777234703644
40
0.845851489802429
40
0.845851489802429
40
0.922925744901215
40
0.922925744901215
40
1
40
1
40
1
40
1
41
1
10
30.1271176437158
20
2.93604936331488
30
0
41
1
10
30.3495417720578
20
2.93341676424825
30
0
41
1
10
30.5724334115906
20
2.92614412006486
30
0
41
1
10
31.0236793918231
20
2.90290386687582
30
0
41
1
10
31.2517972752767
20
2.88706513878992
30
0
41
1
10
31.7081351747567
20
2.84604199639548
30
0
41
1
10
31.9361621245676
20
2.81999036174398
30
0
41
1
10
32.3921881412754
20
2.75859784216749
30
0
41
1
10
32.6201684833525
20
2.72318084698591
30
0
41
1
10
33.0767869636516
20
2.64461389666741
30
0
41
1
10
33.3056246874635
20
2.60179851106548
30
0
41
1
10
33.7624512700267
20
2.5066183936089
30
0
41
1
10
33.990374887338
20
2.45405208315194
30
0
41
1
10
34.4464354995054
20
2.34195582438795
30
0
41
1
10
34.6743913095876
20
2.28212483227477
30
0
41
1
10
35.1302411491913
20
2.1555962301895
30
0
41
1
10
35.3582004203723
20
2.08921227946033
30
0
41
1
10
35.8147049942432
20
1.94874506344038
30
0
41
1
10
36.0434551927938
20
1.87467906526891
30
0
41
1
10
36.5000696168386
20
1.72068750877816
30
0
41
1
10
36.7281703458455
20
1.64101492652455
30
0
41
1
10
37.1843805939546
20
1.47758477367586
30
0
41
1
10
37.4123603543666
20
1.39365259576226
30
0
41
1
10
37.8682016556605
20
1.21993675391971
30
0
41
1
10
38.0962325227018
20
1.13072261603821
30
0
41
1
10
38.5528860515739
20
0.949352980104919
30
0
41
1
10
38.7816047393072
20
0.856928906603571
30
0
41
1
10
39.0099620351121
20
0.763164707186519
30
0
0
SPLINE
5
98
100
AcDbEntity
8
1
62
256
6
ByLayer
370
18
48
1
60
0
100
AcDbSpline
70
4
71
3
72
8
73
4
40
0
40
0
40
0
40
0
40
1
40
1
40
1
40
1
41
1
10
42.9024073248983
20
0.735472526628143
30
0
41
1
10
42.9078684280603
20
0.717820311885163
30
0
41
1
10
42.9130928452892
20
0.70016823342138
30
0
41
1
10
42.9180856260546
20
0.682516288329396
30
0
0
SPLINE
5
99
100
AcDbEntity
8
1
62
256
6
ByLayer
370
18
48
1
60
0
100
AcDbSpline
70
4
71
3
72
14
73
10
40
0
40
0
40
0
40
0
40
0.25
40
0.25
40
0.5
40
0.5
40
0.75
40
0.75
40
1
40
1
40
1
40
1
41
1
10
41.8089505161703
20
0.677095885704944
30
0
41
1
10
41.8077233643945
20
0.692474437058138
30
0
41
1
10
41.8105403313892
20
0.70814465543674
30
0
41
1
10
41.8253220472089
20
0.735486689657535
30
0
41
1
10
41.8372821978184
20
0.746948679089655
30
0
41
1
10
41.8644039899465
20
0.763089704593085
30
0
41
1
10
41.8797712603186
20
0.76823941252232
30
0
41
1
10
41.9106705256419
20
0.774168115119096
30
0
41
1
10
41.9265807519473
20
0.77505848967553
30
0
41
1
10
41.9424020334318
20
0.774430656727532
30
0
0
SPLINE
5
9A
100
AcDbEntity
8
1
62
256
6
ByLayer
370
18
48
1
60
0
100
AcDbSpline
70
4
71
3
72
12
73
8
40
0
40
0
40
0
40
0
40
0.260858172811589
40
0.260858172811589
40
0.521716345623178
40
0.521716345623178
40
1
40
1
40
1
40
1
41
1
10
41.9779857071859
20
-2.94362777568702
30
0
41
1
10
41.6464497655387
20
-2.94770233791144
30
0
41
1
10
41.3151213717141
20
-2.94155920697145
30
0
41
1
10
40.6518603637891
20
-2.9091257378509
30
0
41
1
10
40.3202938439215
20
-2.88281189389022
30
0
41
1
10
39.3856783827586
20
-2.78117922933009
30
0
41
1
10
38.7844424123764
20
-2.68329230156138
30
0
41
1
10
38.1839411503382
20
-2.55655035786347
30
0
0
SPLINE
5
9B
100
AcDbEntity
8
1
62
256
6
ByLayer
370
13
48
1
60
0
100
AcDbSpline
70
4
71
3
72
24
73
20
40
0
40
0
40
0
40
0
40
0.0145521984946128
40
0.0145521984946128
40
0.189354402305721
40
0.189354402305721
40
0.276755504211275
40
0.276755504211275
40
0.364156606116829
40
0.364156606116829
40
0.538958809927935
40
0.538958809927935
40
0.626359911833489
40
0.626359911833489
40
0.713761013739043
40
0.713761013739043
40
0.888563217550148
40
0.888563217550148
40
1
40
1
40
1
40
1
41
1
10
38.1839409277944
20
-2.55655031089333
30
0
41
1
10
38.129409793015
20
-2.54504095555683
30
0
41
1
10
38.0748847168874
20
-2.53329365195978
30
0
41
1
10
37.3654514994371
20
-2.37737240860105
30
0
41
1
10
36.710801300884
20
-2.19987861835807
30
0
41
1
10
35.7237164188804
20
-1.891042671484
30
0
41
1
10
35.3937847947707
20
-1.78111920795854
30
0
41
1
10
34.7311118973364
20
-1.54895831857644
30
0
41
1
10
34.3992038530682
20
-1.42691756031258
30
0
41
1
10
33.4063415244615
20
-1.04834571694559
30
0
41
1
10
32.7456499415994
20
-0.778953231582989
30
0
41
1
10
31.7505517584145
20
-0.362470004617762
30
0
41
1
10
31.4193920552921
20
-0.222278402239254
30
0
41
1
10
30.7599903191119
20
0.057391610182151
30
0
41
1
10
30.4313454878001
20
0.197131295333662
30
0
41
1
10
29.4469457479334
20
0.612097153146436
30
0
41
1
10
28.7927557870144
20
0.883082064449098
30
0
41
1
10
27.7186103413626
20
1.30286926631197
30
0
41
1
10
27.2996568693841
20
1.46021979467909
30
0
41
1
10
26.8789420916538
20
1.60926849368363
30
0
0
SPLINE
5
9C
100
AcDbEntity
8
1
62
256
6
ByLayer
370
13
48
1
60
0
100
AcDbSpline
70
4
71
3
72
8
73
4
40
0
40
0
40
0
40
0
40
1
40
1
40
1
40
1
41
1
10
10.085983278124
20
-0.416403337038872
30
0
41
1
10
10.1093583776288
20
-0.440210540156897
30
0
41
1
10
10.1545386507342
20
-0.460193647599368
30
0
41
1
10
10.2166688087048
20
-0.471012616279836
30
0
0
SPLINE
5
9D
100
AcDbEntity
8
1
62
256
6
ByLayer
370
18
48
1
60
0
100
AcDbSpline
70
4
71
3
72
8
73
4
40
0
40
0
40
0
40
0
40
1
40
1
40
1
40
1
41
1
10
42.9908541197554
20
-0.110735372592245
30
0
41
1
10
42.9915931513461
20
-0.0906579010515145
30
0
41
1
10
42.9948241130705
20
-0.0665336966661698
30
0
41
1
10
42.9996857857261
20
-0.0407482146183327
30
0
0
SPLINE
5
9E
100
AcDbEntity
8
1
62
256
6
ByLayer
370
18
48
1
60
0
100
AcDbSpline
70
4
71
3
72
35
73
31
40
0
40
0
40
0
40
0
40
0.121969654733904
40
0.121969654733904
40
0.201741300894749
40
0.201741300894749
40
0.281512947055593
40
0.281512947055593
40
0.441056239377282
40
0.441056239377282
40
0.520827885538126
40
0.520827885538126
40
0.560713708618548
40
0.560713708618548
40
0.580656620158759
40
0.585642348043812
40
0.585642348043812
40
0.590628075928865
40
0.590628075928865
40
0.595613803813917
40
0.595613803813917
40
0.60059953169897
40
0.60059953169897
40
0.76014282402066
40
0.76014282402066
40
0.91968611634235
40
0.91968611634235
40
0.999457762503194
40
0.999457762503194
40
1
40
1
40
1
40
1
41
1
10
17.0990765102362
20
3.00131176865509
30
0
41
1
10
17.0990765102362
20
2.80051747653607
30
0
41
1
10
17.0990765102362
20
2.60395776413873
30
0
41
1
10
17.0990765102362
20
2.28547498714246
30
0
41
1
10
17.0990765102362
20
2.16126731717097
30
0
41
1
10
17.0990765102362
20
1.91628723160514
30
0
41
1
10
17.0990765102363
20
1.79561801519097
30
0
41
1
10
17.0990765102363
20
1.44374899542555
30
0
41
1
10
17.0990765102362
20
1.22085264640498
30
0
41
1
10
17.0990765102362
20
0.903375599612644
30
0
41
1
10
17.0990765102363
20
0.800203065230875
30
0
41
1
10
17.0990765102363
20
0.650360218298573
30
0
41
1
10
17.0990765102362
20
0.601271802917012
30
0
41
1
10
17.0990765102362
20
0.528919861671085
30
0
41
1
10
17.0990765102362
20
0.499035802575946
30
0
41
1
10
17.0990765102363
20
0.469505271024303
30
0
41
1
10
17.0990765102363
20
0.457720890607874
30
0
41
1
10
17.0990765102362
20
0.451990824154336
30
0
41
1
10
17.0990765102362
20
0.443690242649751
30
0
41
1
10
17.0990765102362
20
0.440776977927157
30
0
41
1
10
17.0990765102362
20
0.437850137155891
30
0
41
1
10
17.0990765102363
20
0.438063871351488
30
0
41
1
10
17.0990765102363
20
0.430788975004248
30
0
41
1
10
17.0990765102362
20
0.44681810197369
30
0
41
1
10
17.0990765102362
20
0.525063172634162
30
0
41
1
10
17.0990765102363
20
0.587026633476768
30
0
41
1
10
17.0990765102363
20
0.716528552970317
30
0
41
1
10
17.0990765102362
20
0.766069443886693
30
0
41
1
10
17.0990765102362
20
0.821255407449286
30
0
41
1
10
17.0990765102362
20
0.821628245794955
30
0
41
1
10
17.0990765102362
20
0.82200133561247
30
0
0
SPLINE
5
9F
100
AcDbEntity
8
1
62
256
6
ByLayer
370
18
48
1
60
0
100
AcDbSpline
70
4
71
3
72
22
73
18
40
0
40
0
40
0
40
0
40
0.125000000000003
40
0.125000000000003
40
0.250000000000005
40
0.250000000000005
40
0.312500000000007
40
0.312500000000007
40
0.375000000000008
40
0.375000000000008
40
0.500000000000005
40
0.500000000000005
40
0.625000000000002
40
0.625000000000002
40
0.749999999999999
40
0.749999999999999
40
1
40
1
40
1
40
1
41
1
10
39.0099620351269
20
0.76316470718055
30
0
41
1
10
39.0256271291147
20
0.595624538327968
30
0
41
1
10
39.0615086799577
20
0.428204324363293
30
0
41
1
10
39.1699078903232
20
0.093581277764315
30
0
41
1
10
39.2400012025639
20
-0.0664108858965164
30
0
41
1
10
39.3634112053901
20
-0.297205228137216
30
0
41
1
10
39.4078830146657
20
-0.372975881978135
30
0
41
1
10
39.5013207625904
20
-0.519839353566312
30
0
41
1
10
39.5501756606752
20
-0.590826915191059
30
0
41
1
10
39.7022990410562
20
-0.797428999123298
30
0
41
1
10
39.8110672347639
20
-0.926750403095355
30
0
41
1
10
40.0402938860959
20
-1.17201647020733
30
0
41
1
10
40.1612516843078
20
-1.28826366428805
30
0
41
1
10
40.4075228961665
20
-1.5046168838202
30
0
41
1
10
40.533474903263
20
-1.60544486376125
30
0
41
1
10
40.9183673682691
20
-1.8895691250126
30
0
41
1
10
41.1843640642292
20
-2.05485672923979
30
0
41
1
10
41.4577135364138
20
-2.20014141304642
30
0
0
SPLINE
5
A0
100
AcDbEntity
8
1
62
256
6
ByLayer
370
18
48
1
60
0
100
AcDbSpline
70
4
71
3
72
8
73
4
40
0
40
0
40
0
40
0
40
1
40
1
40
1
40
1
41
1
10
10.2772631936565
20
-0.599160940150171
30
0
41
1
10
11.5289187649265
20
-1.13512147179932
30
0
41
1
10
12.7624592550709
20
-1.63357730623685
30
0
41
1
10
14.0066449952992
20
-2.03628879813701
30
0
0
SPLINE
5
A1
100
AcDbEntity
8
1
62
256
6
ByLayer
370
13
48
1
60
0
100
AcDbSpline
70
4
71
3
72
20
73
16
40
0
40
0
40
0
40
0
40
0.0307464577323513
40
0.0307464577323513
40
0.164427370893521
40
0.164427370893521
40
0.298108284054691
40
0.298108284054691
40
0.565470110377032
40
0.565470110377032
40
0.832831936699372
40
0.832831936699372
40
0.966512849860543
40
0.966512849860543
40
1
40
1
40
1
40
1
41
1
10
14.006645070234
20
-2.03628882239153
30
0
41
1
10
14.0825499037075
20
-2.06085729913892
30
0
41
1
10
14.1584943580791
20
-2.08506942195788
30
0
41
1
10
14.5648805385075
20
-2.21257571758517
30
0
41
1
10
14.8963919544166
20
-2.30941233235336
30
0
41
1
10
15.5609654489734
20
-2.48713975635886
30
0
41
1
10
15.8918177758435
20
-2.56727108969267
30
0
41
1
10
16.881342102599
20
-2.77991307695689
30
0
41
1
10
17.5367434293502
20
-2.88510983181936
30
0
41
1
10
18.8484650416723
20
-3.01554667063036
30
0
41
1
10
19.5043738613799
20
-3.04111555156854
30
0
41
1
10
20.4947861936106
20
-3.01716183218207
30
0
41
1
10
20.8265084319991
20
-2.99873897464167
30
0
41
1
10
21.2419682438622
20
-2.96280353399888
30
0
41
1
10
21.3251483273941
20
-2.95496558923216
30
0
41
1
10
21.4082911147318
20
-2.9464938595039
30
0
0
SPLINE
5
A2
100
AcDbEntity
8
1
62
256
6
ByLayer
370
18
48
1
60
0
100
AcDbSpline
70
4
71
3
72
14
73
10
40
0
40
0
40
0
40
0
40
0.25
40
0.25
40
0.5
40
0.5
40
0.75
40
0.75
40
1
40
1
40
1
40
1
41
1
10
10.3183773187607
20
2.88859406960904
30
0
41
1
10
10.2966608632439
20
2.891071742691
30
0
41
1
10
10.2734193234882
20
2.89584633788721
30
0
41
1
10
10.2252040813683
20
2.91213180230966
30
0
41
1
10
10.2002304811631
20
2.92391831172179
30
0
41
1
10
10.1557697988149
20
2.95290317368952
30
0
41
1
10
10.1362904661565
20
2.97005745943969
30
0
41
1
10
10.1060936466629
20
3.00430337301305
30
0
41
1
10
10.0947544484223
20
3.02175508844795
30
0
41
1
10
10.0864651979404
20
3.03868694707691
30
0
0
SPLINE
5
A3
100
AcDbEntity
8
1
62
256
6
ByLayer
370
18
48
1
60
0
100
AcDbSpline
70
4
71
3
72
8
73
4
40
0
40
0
40
0
40
0
40
1
40
1
40
1
40
1
41
1
10
42.9180856260546
20
-0.682516288329111
30
0
41
1
10
42.9572910669057
20
-0.491796862606492
30
0
41
1
10
42.9838439004998
20
-0.301183899250106
30
0
41
1
10
42.9908541197553
20
-0.110735372592274
30
0
0
SPLINE
5
A4
100
AcDbEntity
8
1
62
256
6
ByLayer
370
18
48
1
60
0
100
AcDbSpline
70
4
71
3
72
10
73
6
40
0
40
0
40
0
40
0
40
0.5
40
0.5
40
1
40
1
40
1
40
1
41
1
10
42.9644078553644
20
-0.0543362865859933
30
0
41
1
10
42.7345623471227
20
-0.433907809547861
30
0
41
1
10
42.4904952561631
20
-0.798832468822582
30
0
41
1
10
41.9855294407757
20
-1.51134682220479
30
0
41
1
10
41.7243395791815
20
-1.85887577222627
30
0
41
1
10
41.4577135364138
20
-2.20014141304642
30
0
0
SPLINE
5
A5
100
AcDbEntity
8
1
62
256
6
ByLayer
370
13
48
1
60
0
100
AcDbSpline
70
4
71
3
72
8
73
4
40
0
40
0
40
0
40
0
40
1
40
1
40
1
40
1
41
1
10
10.2166688087048
20
-0.575606685612769
30
0
41
1
10
10.23602747068
20
-0.582336095617848
30
0
41
1
10
10.2564013131245
20
-0.590227855971307
30
0
41
1
10
10.2772631936564
20
-0.599160940150171
30
0
0
SPLINE
5
A6
100
AcDbEntity
8
1
62
256
6
ByLayer
370
13
48
1
60
0
100
AcDbSpline
70
4
71
3
72
10
73
6
40
0
40
0
40
0
40
0
40
0.5
40
0.5
40
1
40
1
40
1
40
1
41
1
10
10.1211935467941
20
-0.511412416844365
30
0
41
1
10
10.1333113354534
20
-0.524750747297276
30
0
41
1
10
10.147657832507
20
-0.537256115147727
30
0
41
1
10
10.1796640297498
20
-0.558946093644465
30
0
41
1
10
10.1972549139714
20
-0.568188989909231
30
0
41
1
10
10.2166688087048
20
-0.575606685612769
30
0
0
SPLINE
5
A7
100
AcDbEntity
8
1
62
256
6
ByLayer
370
18
48
1
60
0
100
AcDbSpline
70
4
71
3
72
36
73
32
40
0
40
0
40
0
40
0
40
0.249999999999973
40
0.249999999999973
40
0.374999999999964
40
0.374999999999964
40
0.499999999999955
40
0.499999999999955
40
0.624999999999945
40
0.624999999999945
40
0.687499999999944
40
0.687499999999944
40
0.749999999999943
40
0.749999999999943
40
0.812499999999943
40
0.812499999999943
40
0.828124999999946
40
0.828124999999946
40
0.835937499999944
40
0.835937499999944
40
0.843749999999942
40
0.843749999999942
40
0.85156249999994
40
0.85156249999994
40
0.855468749999942
40
0.855468749999942
40
0.859374999999943
40
0.859374999999943
40
0.87499999999995
40
0.87499999999995
40
1
40
1
40
1
40
1
41
1
10
39.009962035127
20
0.763164707180465
30
0
41
1
10
39.2706826329126
20
0.583809313145338
30
0
41
1
10
39.5392347990182
20
0.431594245061689
30
0
41
1
10
39.954303607784
20
0.24569134279588
30
0
41
1
10
40.0953555720286
20
0.190770602864688
30
0
41
1
10
40.3759477488136
20
0.0993122850806571
30
0
41
1
10
40.5160701308801
20
0.0625033306960461
30
0
41
1
10
40.7959390786869
20
0.0081844225027794
30
0
41
1
10
40.9356868053474
20
-0.0093851471235098
30
0
41
1
10
41.1449854953601
20
-0.0191578726470141
30
0
41
1
10
41.2148053744628
20
-0.0196206931980782
30
0
41
1
10
41.3526347857725
20
-0.0145152503426687
30
0
41
1
10
41.4208366904697
20
-0.0089663605414216
30
0
41
1
10
41.555703279241
20
0.0085929308807238
30
0
41
1
10
41.6223811210675
20
0.0205480255598616
30
0
41
1
10
41.7045948595062
20
0.0402566856827207
30
0
41
1
10
41.7209847943554
20
0.0444362726324243
30
0
41
1
10
41.7454436898869
20
0.0510481472576316
30
0
41
1
10
41.7535774871264
20
0.0533096083279929
30
0
41
1
10
41.7698056016729
20
0.0579466293548307
30
0
41
1
10
41.7780667101796
20
0.0599527974122225
30
0
41
1
10
41.7937990936783
20
0.0656223672984311
30
0
41
1
10
41.8012308915007
20
0.0699495887541275
30
0
41
1
10
41.8094779921727
20
0.0804136085859568
30
0
41
1
10
41.8116733400345
20
0.0846085492314046
30
0
41
1
10
41.8142639070799
20
0.094109357555368
30
0
41
1
10
41.8147772511237
20
0.0992543178813889
30
0
41
1
10
41.8166060741471
20
0.125255646924302
30
0
41
1
10
41.817856096165
20
0.146124274497936
30
0
41
1
10
41.8272694897815
20
0.334524463883952
30
0
41
1
10
41.8226112786829
20
0.50590048675852
30
0
41
1
10
41.8089505161704
20
0.677095885704972
30
0
0
SPLINE
5
A8
100
AcDbEntity
8
1
62
256
6
ByLayer
370
18
48
1
60
0
100
AcDbSpline
70
4
71
3
72
10
73
6
40
0
40
0
40
0
40
0
40
0.5
40
0.5
40
1
40
1
40
1
40
1
41
1
10
42.0670967116089
20
3.01666525796745
30
0
41
1
10
42.2016481912968
20
2.63614085575747
30
0
41
1
10
42.3393200717849
20
2.25602622464859
30
0
41
1
10
42.6194956950114
20
1.49652478317287
30
0
41
1
10
42.7615342515439
20
1.11848218305934
30
0
41
1
10
42.9043619460176
20
0.74201605525181
30
0
0
SPLINE
5
A9
100
AcDbEntity
8
1
62
256
6
ByLayer
370
18
48
1
60
0
100
AcDbSpline
70
4
71
3
72
8
73
4
40
0
40
0
40
0
40
0
40
1
40
1
40
1
40
1
41
1
10
41.9424020334317
20
0.774430656727503
30
0
41
1
10
42.2623825116091
20
0.761732931381289
30
0
41
1
10
42.5824520177991
20
0.747829304949107
30
0
41
1
10
42.9024073248937
20
0.735472526628143
30
0
0
SPLINE
5
AA
100
AcDbEntity
8
1
62
256
6
ByLayer
370
13
48
1
60
0
100
AcDbSpline
70
4
71
3
72
8
73
4
40
0
40
0
40
0
40
0
40
1
40
1
40
1
40
1
41
1
10
10.3174145651106
20
-0.492463080958799
30
0
41
1
10
10.2826248353464
20
-0.483763271203173
30
0
41
1
10
10.2487276683117
20
-0.476595151546888
30
0
41
1
10
10.2166688087048
20
-0.471012616279865
30
0
0
SPLINE
5
AB
100
AcDbEntity
8
1
62
256
6
ByLayer
370
18
48
1
60
0
100
AcDbSpline
70
4
71
3
72
66
73
62
40
0
40
0
40
0
40
0
40
0.0334034597705518
40
0.0334034597705518
40
0.0501051896558274
40
0.0501051896558274
40
0.0668069195411029
40
0.0668069195411029
40
0.100210379311655
40
0.100210379311655
40
0.133613839082207
40
0.133613839082207
40
0.167017298852759
40
0.167017298852759
40
0.20042075862331
40
0.20042075862331
40
0.233824218393862
40
0.233824218393862
40
0.267227678164414
40
0.267227678164414
40
0.300631137934966
40
0.300631137934966
40
0.334034597705518
40
0.334034597705518
40
0.36743805747607
40
0.36743805747607
40
0.400841517246621
40
0.400841517246621
40
0.434244977017173
40
0.434244977017173
40
0.467648436787725
40
0.467648436787725
40
0.501051896558277
40
0.501051896558277
40
0.534455356328829
40
0.534455356328829
40
0.567858816099381
40
0.567858816099381
40
0.601262275869932
40
0.601262275869932
40
0.634665735640484
40
0.634665735640484
40
0.668069195411036
40
0.668069195411036
40
0.701472655181588
40
0.701472655181588
40
0.73487611495214
40
0.73487611495214
40
0.768279574722692
40
0.768279574722692
40
0.801683034493243
40
0.801683034493243
40
0.835086494263795
40
0.835086494263795
40
0.868489954034347
40
0.868489954034347
40
0.901893413804899
40
0.901893413804899
40
0.935296873575451
40
0.935296873575451
40
1
40
1
40
1
40
1
41
1
10
17.0990765102362
20
3.0013117685827
30
0
41
1
10
17.3610854397934
20
3.028633011875
30
0
41
1
10
17.6224993511216
20
3.04907471129758
30
0
41
1
10
18.0137778440146
20
3.06995842549253
30
0
41
1
10
18.1440371295117
20
3.07529677827779
30
0
41
1
10
18.4040462361278
20
3.08274878231623
30
0
41
1
10
18.5337347744984
20
3.08485240526934
30
0
41
1
10
18.9228655838272
20
3.08621976417155
30
0
41
1
10
19.1822396616689
20
3.08065648131787
30
0
41
1
10
19.7000060813568
20
3.05663424658815
30
0
41
1
10
19.9584596659908
20
3.0380825374248
30
0
41
1
10
20.4761348271514
20
2.98855447430202
30
0
41
1
10
20.7353397924583
20
2.95768727281316
30
0
41
1
10
21.2533588024617
20
2.88277317112005
30
0
41
1
10
21.512916844023
20
2.83922162998434
30
0
41
1
10
22.0335507256949
20
2.74043171418791
30
0
41
1
10
22.2941647491986
20
2.6846791745609
30
0
41
1
10
22.817353581585
20
2.56162169018361
30
0
41
1
10
23.0802122032157
20
2.49461730592503
30
0
41
1
10
23.6026559859524
20
2.35053145648902
30
0
41
1
10
23.8626418580715
20
2.27284746725985
30
0
41
1
10
24.3824424616479
20
2.10998864041048
30
0
41
1
10
24.6418712226981
20
2.02422957451961
30
0
41
1
10
25.1596251764638
20
1.84374664831015
30
0
41
1
10
25.4183319171041
20
1.74969516421498
30
0
41
1
10
25.9360501910929
20
1.55531636260668
30
0
41
1
10
26.1945429508639
20
1.45395777214802
30
0
41
1
10
26.7123112451126
20
1.24584822437794
30
0
41
1
10
26.9718299590714
20
1.13966130649217
30
0
41
1
10
27.4912339557578
20
0.921029277311845
30
0
41
1
10
27.7512500100897
20
0.808816600120736
30
0
41
1
10
28.2734512581037
20
0.582076200143376
30
0
41
1
10
28.5360660410588
20
0.467203228722923
30
0
41
1
10
29.0595729185506
20
0.233629282340502
30
0
41
1
10
29.32125373602
20
0.117076224560435
30
0
41
1
10
29.8443670999885
20
-0.115817968448397
30
0
41
1
10
30.105398896868
20
-0.233059543868421
30
0
41
1
10
30.628077137079
20
-0.465376966133164
30
0
41
1
10
30.8898766668839
20
-0.58011522489835
30
0
41
1
10
31.413756400304
20
-0.8081800261495
30
0
41
1
10
31.6758092390704
20
-0.921763533692939
30
0
41
1
10
32.1982021290593
20
-1.14134608938343
30
0
41
1
10
32.4585546370189
20
-1.24870319495992
30
0
41
1
10
32.9777606925784
20
-1.45813765953736
30
0
41
1
10
33.236991289862
20
-1.55940965937768
30
0
41
1
10
33.7550756879613
20
-1.75451979200031
30
0
41
1
10
34.0134079166314
20
-1.84933566460484
30
0
41
1
10
34.5305674966178
20
-2.0298395665761
30
0
41
1
10
34.7894689657341
20
-2.11547027220513
30
0
41
1
10
35.3070412404626
20
-2.27894572504869
30
0
41
1
10
35.5659344248392
20
-2.35636521944306
30
0
41
1
10
36.0853415528136
20
-2.50038895814686
30
0
41
1
10
36.3456697411536
20
-2.56732168751825
30
0
41
1
10
36.8670468513582
20
-2.69145436386697
30
0
41
1
10
37.1295564730026
20
-2.74768477761035
30
0
41
1
10
37.6531400958152
20
-2.8481457033775
30
0
41
1
10
37.9137100282237
20
-2.89257394694158
30
0
41
1
10
38.4341359505689
20
-2.96837093646053
30
0
41
1
10
38.6940826842855
20
-2.99978250701207
30
0
41
1
10
39.4557068381329
20
-3.07385618835929
30
0
41
1
10
39.9567977752753
20
-3.09854830928182
30
0
41
1
10
40.458650877861
20
-3.09886429818246
30
0
0
SPLINE
5
AC
100
AcDbEntity
8
1
62
256
6
ByLayer
370
18
48
1
60
0
100
AcDbSpline
70
4
71
3
72
16
73
12
40
0
40
0
40
0
40
0
40
0.269309854289362
40
0.269309854289362
40
0.403964781434043
40
0.403964781434043
40
0.538619708578723
40
0.538619708578723
40
0.807929562868085
40
0.807929562868085
40
1
40
1
40
1
40
1
41
1
10
41.4577135364138
20
-2.20014141304642
30
0
41
1
10
41.4965106483762
20
-2.32484127612312
30
0
41
1
10
41.5372984813162
20
-2.43424558799234
30
0
41
1
10
41.6007509731162
20
-2.5764260530525
30
0
41
1
10
41.6222882161447
20
-2.62013818229465
30
0
41
1
10
41.6660999591389
20
-2.70005386868033
30
0
41
1
10
41.6884065551897
20
-2.73625075508079
30
0
41
1
10
41.7550316134624
20
-2.83131698778715
30
0
41
1
10
41.7994934571346
20
-2.87767459984815
30
0
41
1
10
41.8759032996372
20
-2.92823747649268
30
0
41
1
10
41.9079042508196
20
-2.94062297083801
30
0
41
1
10
41.9397188467383
20
-2.94398061229074
30
0
0
SPLINE
5
AD
100
AcDbEntity
8
1
62
256
6
ByLayer
370
13
48
1
60
0
100
AcDbSpline
70
4
71
3
72
8
73
4
40
0
40
0
40
0
40
0
40
1
40
1
40
1
40
1
41
1
10
10.2154457534345
20
-0.583342238037488
30
0
41
1
10
10.2158520063364
20
-0.580765649230585
30
0
41
1
10
10.2162596928404
20
-0.578187141256848
30
0
41
1
10
10.2166688087048
20
-0.575606685612769
30
0
0
SPLINE
5
AE
100
AcDbEntity
8
1
62
256
6
ByLayer
370
18
48
1
60
0
100
AcDbSpline
70
4
71
3
72
8
73
4
40
0
40
0
40
0
40
0
40
1
40
1
40
1
40
1
41
1
10
42.9180856260546
20
0.682516288329396
30
0
41
1
10
42.9574423798533
20
0.491060783178341
30
0
41
1
10
42.9838748556767
20
0.300342931570697
30
0
41
1
10
42.9908541197554
20
0.110735372592245
30
0
0
SPLINE
5
AF
100
AcDbEntity
8
1
62
256
6
ByLayer
370
18
48
1
60
0
100
AcDbSpline
70
4
71
3
72
8
73
4
40
0
40
0
40
0
40
0
40
1
40
1
40
1
40
1
41
1
10
42.9996857857261
20
-0.0407482146182474
30
0
41
1
10
43.0001051085005
20
-0.0135510013675741
30
0
41
1
10
43.0001043037735
20
0.0136031958354579
30
0
41
1
10
42.9996857857261
20
0.04074821461802
30
0
0
SPLINE
5
B0
100
AcDbEntity
8
1
62
256
6
ByLayer
370
13
48
1
60
0
100
AcDbSpline
70
4
71
3
72
31
73
27
40
0
40
0
40
0
40
0
40
0.125
40
0.125
40
0.1875
40
0.1875
40
0.25
40
0.3125
40
0.3125
40
0.375
40
0.375
40
0.4375
40
0.4375
40
0.5
40
0.5
40
0.625
40
0.625
40
0.6875
40
0.6875
40
0.75
40
0.75
40
0.875
40
0.875
40
0.9375
40
0.9375
40
1
40
1
40
1
40
1
41
1
10
10.3174145651106
20
-0.492463080958799
30
0
41
1
10
10.3174908926017
20
-0.30118031963886
30
0
41
1
10
10.3175606890388
20
-0.108849416191276
30
0
41
1
10
10.3176581359383
20
0.181203964892575
30
0
41
1
10
10.3176893806768
20
0.278119570390714
30
0
41
1
10
10.3177487457721
20
0.468863247214557
30
0
41
1
10
10.3178053037329
20
0.657444607098967
30
0
41
1
10
10.3178572305495
20
0.841768218889229
30
0
41
1
10
10.317907256399
20
1.02393419134043
30
0
41
1
10
10.317931409168
20
1.11428793794744
30
0
41
1
10
10.3179776908231
20
1.29091536582106
30
0
41
1
10
10.31799977743
20
1.37700404101832
30
0
41
1
10
10.3180422313915
20
1.54474259121358
30
0
41
1
10
10.3180626288606
20
1.62652126431033
30
0
41
1
10
10.318120746559
20
1.86125612444212
30
0
41
1
10
10.3181558060262
20
2.00507584236857
30
0
41
1
10
10.3182041487075
20
2.20194810179905
30
0
41
1
10
10.3182195993204
20
2.26464791914654
30
0
41
1
10
10.3182488031562
20
2.38234672191285
30
0
41
1
10
10.3182624500669
20
2.43692015074797
30
0
41
1
10
10.3183006082249
20
2.58823235251086
30
0
41
1
10
10.3183224077066
20
2.67268058788127
30
0
41
1
10
10.3183486939902
20
2.77418884786246
30
0
41
1
10
10.3183563743144
20
2.80382476885126
30
0
41
1
10
10.3183689342019
20
2.85324335507209
30
0
41
1
10
10.3183738679047
20
2.87323424397019
30
0
41
1
10
10.3183773187607
20
2.88859406961367
30
0
0
SPLINE
5
B1
100
AcDbEntity
8
1
62
256
6
ByLayer
370
18
48
1
60
0
100
AcDbSpline
70
4
71
3
72
14
73
10
40
0
40
0
40
0
40
0
40
0.484966257624745
40
0.484966257624745
40
0.727449386437123
40
0.727449386437123
40
0.969932515249501
40
0.969932515249501
40
1
40
1
40
1
40
1
41
1
10
17.0990765102362
20
-3.0013117685827
30
0
41
1
10
17.3610854397934
20
-3.028633011875
30
0
41
1
10
17.6224993511216
20
-3.04907471129758
30
0
41
1
10
18.0137778440146
20
-3.06995842549253
30
0
41
1
10
18.1440371295117
20
-3.07529677827779
30
0
41
1
10
18.4040462361278
20
-3.08274878231623
30
0
41
1
10
18.5337347744984
20
-3.08485240526934
30
0
41
1
10
18.6795288913349
20
-3.08536470827588
30
0
41
1
10
18.6956125598012
20
-3.08539633633794
30
0
41
1
10
18.7116959437638
20
-3.08540308219585
30
0
0
SPLINE
5
B2
100
AcDbEntity
8
1
62
256
6
ByLayer
370
18
48
1
60
0
100
AcDbSpline
70
4
71
3
72
20
73
16
40
0
40
0
40
0
40
0
40
0.0035981026914224
40
0.0035981026914224
40
0.114309424614597
40
0.114309424614597
40
0.225020746537773
40
0.225020746537773
40
0.335732068460948
40
0.335732068460948
40
0.446443390384124
40
0.446443390384124
40
0.557154712307299
40
0.557154712307299
40
1
40
1
40
1
40
1
41
1
10
35.0230232113403
20
2.1892262433517
30
0
41
1
10
35.0314339537434
20
2.19189095703427
30
0
41
1
10
35.03984458933
20
2.19455153379278
30
0
41
1
10
35.3070412404626
20
2.27894572504866
30
0
41
1
10
35.5659344248392
20
2.35636521944306
30
0
41
1
10
36.0853415528136
20
2.50038895814686
30
0
41
1
10
36.3456697411536
20
2.56732168751827
30
0
41
1
10
36.8670468513582
20
2.69145436386697
30
0
41
1
10
37.1295564730026
20
2.74768477761035
30
0
41
1
10
37.6531400958152
20
2.8481457033775
30
0
41
1
10
37.9137100282237
20
2.89257394694158
30
0
41
1
10
38.4341359505689
20
2.96837093646053
30
0
41
1
10
38.6940826842855
20
2.99978250701207
30
0
41
1
10
39.9906766628349
20
3.12588603027697
30
0
41
1
10
41.022773135341
20
3.12373861970278
30
0
41
1
10
42.0670967116167
20
3.01666525794539
30
0
0
SPLINE
5
B3
100
AcDbEntity
8
1
62
256
6
ByLayer
370
18
48
1
60
0
100
AcDbSpline
70
4
71
3
72
8
73
4
40
0
40
0
40
0
40
0
40
1
40
1
40
1
40
1
41
1
10
42.9043619460176
20
-0.74201605525181
30
0
41
1
10
42.9090968789508
20
-0.722078316044815
30
0
41
1
10
42.9136728139233
20
-0.702248103109099
30
0
41
1
10
42.9180856260546
20
-0.682516288329083
30
0
0
SPLINE
5
B4
100
AcDbEntity
8
1
62
256
6
ByLayer
370
18
48
1
60
0
100
AcDbSpline
70
4
71
3
72
8
73
4
40
0
40
0
40
0
40
0
40
1
40
1
40
1
40
1
41
1
10
42.0670967116164
20
-3.0166652579457
30
0
41
1
10
42.0276090303632
20
-3.05735952028419
30
0
41
1
10
41.9873894701352
20
-3.08324480450636
30
0
41
1
10
41.9459992418874
20
-3.09410086407172
30
0
0
SPLINE
5
B5
100
AcDbEntity
8
1
62
256
6
ByLayer
370
18
48
1
60
0
100
AcDbSpline
70
4
71
3
72
12
73
8
40
0
40
0
40
0
40
0
40
0.411286113727603
40
0.411286113727603
40
0.822572227455207
40
0.822572227455207
40
1
40
1
40
1
40
1
41
1
10
10.3183773187271
20
-2.88859406961285
30
0
41
1
10
10.571708210096
20
-2.85969105043171
30
0
41
1
10
10.8365356104055
20
-2.81625715427592
30
0
41
1
10
11.3777219955102
20
-2.71055185481984
30
0
41
1
10
11.6552004164068
20
-2.64776974221505
30
0
41
1
10
12.0547575381756
20
-2.54781811096405
30
0
41
1
10
12.1755429557729
20
-2.51636837803184
30
0
41
1
10
12.2966509482454
20
-2.48375931243243
30
0
0
SPLINE
5
B6
100
AcDbEntity
8
1
62
256
6
ByLayer
370
18
48
1
60
0
100
AcDbSpline
70
4
71
3
72
8
73
4
40
0
40
0
40
0
40
0
40
1
40
1
40
1
40
1
41
1
10
42.9043619460176
20
0.74201605525181
30
0
41
1
10
42.9037115666917
20
0.739834350850487
30
0
41
1
10
42.9030600249741
20
0.737653175016845
30
0
41
1
10
42.902407324898
20
0.735472526626836
30
0
0
SPLINE
5
B7
100
AcDbEntity
8
1
62
256
6
ByLayer
370
18
48
1
60
0
100
AcDbSpline
70
4
71
3
72
8
73
4
40
0
40
0
40
0
40
0
40
1
40
1
40
1
40
1
41
1
10
42.0670967116158
20
3.01666525794633
30
0
41
1
10
42.0276090303628
20
3.05735952028445
30
0
41
1
10
41.987389470135
20
3.08324480450642
30
0
41
1
10
41.9459992418874
20
3.09410086407169
30
0
0
SPLINE
5
B8
100
AcDbEntity
8
1
62
256
6
ByLayer
370
18
48
1
60
0
100
AcDbSpline
70
4
71
3
72
52
73
48
40
0
40
0
40
0
40
0
40
0.0065909435043565
40
0.0065909435043565
40
0.0447989841388025
40
0.0447989841388025
40
0.0830070247732484
40
0.0830070247732484
40
0.121215065407694
40
0.121215065407694
40
0.15942310604214
40
0.15942310604214
40
0.197631146676586
40
0.197631146676586
40
0.235839187311032
40
0.235839187311032
40
0.312255268579924
40
0.312255268579924
40
0.350463309214371
40
0.350463309214371
40
0.388671349848818
40
0.388671349848818
40
0.465087431117714
40
0.465087431117714
40
0.503295471752161
40
0.503295471752161
40
0.541503512386609
40
0.541503512386609
40
0.617919593655505
40
0.617919593655505
40
0.656127634289954
40
0.656127634289954
40
0.675231654607178
40
0.675231654607178
40
0.694335674924402
40
0.694335674924402
40
0.770751756193301
40
0.770751756193301
40
0.808959796827751
40
0.808959796827751
40
0.8471678374622
40
0.8471678374622
40
0.9235839187311
40
0.9235839187311
40
0.96179195936555
40
0.96179195936555
40
1
40
1
40
1
40
1
41
1
10
35.0211982658768
20
-2.18557706969989
30
0
41
1
10
34.9818605219348
20
-2.19668605216708
30
0
41
1
10
34.9425201119623
20
-2.20769979128133
30
0
41
1
10
34.6750961786859
20
-2.28193772799639
30
0
41
1
10
34.4468157226802
20
-2.34186381054329
30
0
41
1
10
33.9897352415469
20
-2.45420786029996
30
0
41
1
10
33.7612803795646
20
-2.50687623135787
30
0
41
1
10
33.3048993576272
20
-2.6019356942528
30
0
41
1
10
33.0767770477288
20
-2.64461214073532
30
0
41
1
10
32.6207975718463
20
-2.72307606179444
30
0
41
1
10
32.3929694566492
20
-2.75848246249004
30
0
41
1
10
31.9368686179934
20
-2.81990541190311
30
0
41
1
10
31.7086167265386
20
-2.8459981749009
30
0
41
1
10
31.2513854822539
20
-2.88710268914085
30
0
41
1
10
31.0228955507786
20
-2.90295152556865
30
0
41
1
10
30.3379235847055
20
-2.93820733475513
30
0
41
1
10
29.8823120915595
20
-2.94397519312241
30
0
41
1
10
29.1975558571277
20
-2.92077752222269
30
0
41
1
10
28.9690397112243
20
-2.9083267210311
30
0
41
1
10
28.5118158581486
20
-2.87415540463465
30
0
41
1
10
28.2832765091869
20
-2.85189417671205
30
0
41
1
10
27.598221271805
20
-2.77302269548389
30
0
41
1
10
27.1426079870842
20
-2.70336528396535
30
0
41
1
10
26.4576655230956
20
-2.57071726434577
30
0
41
1
10
26.2291370988563
20
-2.52192679196216
30
0
41
1
10
25.7718667697757
20
-2.4167462708495
30
0
41
1
10
25.5432645229867
20
-2.36072606831317
30
0
41
1
10
24.8582859901394
20
-2.18093238015521
30
0
41
1
10
24.4024898008453
20
-2.0447914204087
30
0
41
1
10
23.717520523116
20
-1.82396629169202
30
0
41
1
10
23.489205724074
20
-1.74704968755262
30
0
41
1
10
23.1461407940855
20
-1.62741307062416
30
0
41
1
10
23.0318334356539
20
-1.58695098058979
30
0
41
1
10
22.8033395432045
20
-1.50463745369223
30
0
41
1
10
22.6891457324215
20
-1.4626721692598
30
0
41
1
10
22.1184151627813
20
-1.25046206685883
30
0
41
1
10
21.6627042795506
20
-1.07280857328172
30
0
41
1
10
20.9778300504988
20
-0.796639616473527
30
0
41
1
10
20.7494244338633
20
-0.702398484810146
30
0
41
1
10
20.2918954326322
20
-0.512841268918521
30
0
41
1
10
20.0634680779003
20
-0.417426462463084
30
0
41
1
10
19.3791607355082
20
-0.129435914561924
30
0
41
1
10
18.9238996674925
20
0.064201569259609
30
0
41
1
10
18.2405931918954
20
0.352526796929993
30
0
41
1
10
18.0129210666281
20
0.448662708368772
30
0
41
1
10
17.5564351566603
20
0.637833779586089
30
0
41
1
10
17.3278426077213
20
0.731431636405233
30
0
41
1
10
17.0990765102362
20
0.824453942662359
30
0
0
SPLINE
5
B9
100
AcDbEntity
8
1
62
256
6
ByLayer
370
18
48
1
60
0
100
AcDbSpline
70
4
71
3
72
24
73
20
40
0
40
0
40
0
40
0
40
0.125
40
0.125
40
0.250000000000001
40
0.250000000000001
40
0.375000000000001
40
0.375000000000001
40
0.500000000000001
40
0.500000000000001
40
0.625000000000002
40
0.625000000000002
40
0.750000000000002
40
0.750000000000002
40
0.875000000000002
40
0.875000000000002
40
0.937500000000001
40
0.937500000000001
40
1
40
1
40
1
40
1
41
1
10
17.0990765102362
20
0.824453942662359
30
0
41
1
10
16.8047913072934
20
0.9330368835287
30
0
41
1
10
16.5122812926131
20
1.04343278991175
30
0
41
1
10
15.929505587204
20
1.26278264386593
30
0
41
1
10
15.6390525691183
20
1.37166944268151
30
0
41
1
10
15.0600515466933
20
1.58666732636564
30
0
41
1
10
14.7718596654526
20
1.69224680781107
30
0
41
1
10
14.1971988621976
20
1.89598199476441
30
0
41
1
10
13.9103778243628
20
1.99416026545774
30
0
41
1
10
13.3393226458096
20
2.18052545218757
30
0
41
1
10
13.0558383962208
20
2.26829295066415
30
0
41
1
10
12.4928069888735
20
2.43164144424429
30
0
41
1
10
12.2130107896034
20
2.50821057696959
30
0
41
1
10
11.6581389561847
20
2.6470540876137
30
0
41
1
10
11.3829998840926
20
2.70942643486697
30
0
41
1
10
10.9758063949848
20
2.78910071023577
30
0
41
1
10
10.8406978443433
20
2.81337457127066
30
0
41
1
10
10.5755072944522
20
2.85585512333776
30
0
41
1
10
10.4452554654578
20
2.87411829254208
30
0
41
1
10
10.318377318722
20
2.88859406961347
30
0
0
SPLINE
5
BA
100
AcDbEntity
8
1
62
256
6
ByLayer
370
18
48
1
60
0
100
AcDbSpline
70
4
71
3
72
8
73
4
40
0
40
0
40
0
40
0
40
1
40
1
40
1
40
1
41
1
10
42.9180856260546
20
0.682516288329396
30
0
41
1
10
42.913675804705
20
0.702234729879166
30
0
41
1
10
42.9091001119222
20
0.722064702728517
30
0
41
1
10
42.9043619460176
20
0.74201605525181
30
0
0
SPLINE
5
BB
100
AcDbEntity
8
1
62
256
6
ByLayer
370
18
48
1
60
0
100
AcDbSpline
70
4
71
3
72
14
73
10
40
0
40
0
40
0
40
0
40
0.25
40
0.25
40
0.5
40
0.5
40
0.75
40
0.75
40
1
40
1
40
1
40
1
41
1
10
41.9779857071681
20
-2.94362777568725
30
0
41
1
10
41.9811915939552
20
-2.94322584646821
30
0
41
1
10
41.9837070610023
20
-2.94458984079427
30
0
41
1
10
41.9869364594982
20
-2.95197485252194
30
0
41
1
10
41.9875503409026
20
-2.95799269864347
30
0
41
1
10
41.9860850034425
20
-2.9750431714848
30
0
41
1
10
41.983951316208
20
-2.98612946459275
30
0
41
1
10
41.9772508763103
20
-3.01087503317939
30
0
41
1
10
41.9727631943065
20
-3.02431405016239
30
0
41
1
10
41.967794447576
20
-3.03729036590937
30
0
0
SPLINE
5
BC
100
AcDbEntity
8
1
62
256
6
ByLayer
370
18
48
1
60
0
100
AcDbSpline
70
4
71
3
72
8
73
4
40
0
40
0
40
0
40
0
40
1
40
1
40
1
40
1
41
1
10
41.9459992418875
20
3.09410086407166
30
0
41
1
10
41.8037583776716
20
3.09792092205194
30
0
41
1
10
41.6615671584358
20
3.09977086564018
30
0
41
1
10
41.5193840165914
20
3.09965720805008
30
0
0
SPLINE
5
BD
100
AcDbEntity
8
1
62
256
6
ByLayer
370
18
48
1
60
0
100
AcDbSpline
70
4
71
3
72
24
73
20
40
0
40
0
40
0
40
0
40
0.149406461068589
40
0.149406461068589
40
0.319525168854872
40
0.319525168854872
40
0.404584522748013
40
0.404584522748013
40
0.447114199694584
40
0.447114199694584
40
0.489643876641155
40
0.489643876641155
40
0.659762584427437
40
0.659762584427437
40
0.829881292213719
40
0.829881292213719
40
0.914940646106859
40
0.914940646106859
40
1
40
1
40
1
40
1
41
1
10
21.87206808329
20
-2.94636359401568
30
0
41
1
10
21.2910217338758
20
-3.02343621759135
30
0
41
1
10
20.7131461064706
20
-3.06884554192502
30
0
41
1
10
19.4780419219963
20
-3.09702945975619
30
0
41
1
10
18.8208396685381
20
-3.07017182104701
30
0
41
1
10
17.8289548265857
20
-2.967680213395
30
0
41
1
10
17.4973883098716
20
-2.9231317006728
30
0
41
1
10
16.9977877696819
20
-2.84088948693827
30
0
41
1
10
16.8309993666312
20
-2.81095023364654
30
0
41
1
10
16.4985979242433
20
-2.74652118253215
30
0
41
1
10
16.3327327424959
20
-2.71199043861276
30
0
41
1
10
15.5047647655279
20
-2.52825242082363
30
0
41
1
10
14.8470605074199
20
-2.34527316039473
30
0
41
1
10
13.5315458755332
20
-1.92217069571268
30
0
41
1
10
12.8739848942188
20
-1.68168397874518
30
0
41
1
10
11.8813735525623
20
-1.28915282885231
30
0
41
1
10
11.5494428632151
20
-1.15305309597161
30
0
41
1
10
10.8823035305406
20
-0.87261916337664
30
0
41
1
10
10.5489489340953
20
-0.729097262848057
30
0
41
1
10
10.2154457534345
20
-0.583342238038057
30
0
0
SPLINE
5
BE
100
AcDbEntity
8
1
62
256
6
ByLayer
370
18
48
1
60
0
100
AcDbSpline
70
4
71
3
72
40
73
36
40
0
40
0
40
0
40
0
40
0.0447117230351698
40
0.0447117230351698
40
0.0894234460703396
40
0.0894234460703396
40
0.178846892140681
40
0.178846892140681
40
0.268270338211022
40
0.268270338211022
40
0.312982061246193
40
0.312982061246193
40
0.357693784281365
40
0.357693784281365
40
0.447117230351706
40
0.447117230351706
40
0.536540676422047
40
0.536540676422047
40
0.581252399457219
40
0.581252399457219
40
0.62596412249239
40
0.62596412249239
40
0.715387568562734
40
0.715387568562734
40
0.804811014633077
40
0.804811014633077
40
0.849522737668249
40
0.849522737668249
40
0.871878599185834
40
0.871878599185834
40
0.89423446070342
40
0.89423446070342
40
0.98365790677376
40
0.98365790677376
40
1
40
1
40
1
40
1
41
1
10
41.9459992418874
20
-3.09410086407166
30
0
41
1
10
41.6132147160454
20
-3.10303821263648
30
0
41
1
10
41.280746001451
20
-3.10119066306379
30
0
41
1
10
40.6153755806022
20
-3.07610957532108
30
0
41
1
10
40.2817921687071
20
-3.05279951617754
30
0
41
1
10
39.2842850501559
20
-2.95161212515782
30
0
41
1
10
38.6249939030707
20
-2.84300985118429
30
0
41
1
10
37.3094756221331
20
-2.55309672139504
30
0
41
1
10
36.653020260828
20
-2.37204441273667
30
0
41
1
10
35.664103871316
20
-2.05474182440807
30
0
41
1
10
35.3337262492176
20
-1.94141288611257
30
0
41
1
10
34.6703618378296
20
-1.7013966078224
30
0
41
1
10
34.3364004757138
20
-1.5742580589266
30
0
41
1
10
33.3402195749226
20
-1.1798854103688
30
0
41
1
10
32.6814843412562
20
-0.899539810125674
30
0
41
1
10
31.3663047846344
20
-0.323180939880643
30
0
41
1
10
30.7097535191816
20
-0.0274080675234245
30
0
41
1
10
29.720087209547
20
0.412947813457293
30
0
41
1
10
29.3893919213901
20
0.559181085000063
30
0
41
1
10
28.7252567948777
20
0.847914371914186
30
0
41
1
10
28.3912356816392
20
0.990693553615046
30
0
41
1
10
27.3959068355291
20
1.40429748429116
30
0
41
1
10
26.737439845517
20
1.66193219696427
30
0
41
1
10
25.4222968351665
20
2.12541617453502
30
0
41
1
10
24.765429102561
20
2.33091777720915
30
0
41
1
10
23.7749755637786
20
2.58935631976928
30
0
41
1
10
23.4439158435803
20
2.66713439599491
30
0
41
1
10
22.9451187113367
20
2.7699841069934
30
0
41
1
10
22.7782300122265
20
2.80202570259533
30
0
41
1
10
22.4453520476947
20
2.8610849711709
30
0
41
1
10
22.279299526017
20
2.88809492564749
30
0
41
1
10
21.4505158621935
20
3.01032006319289
30
0
41
1
10
20.7922737208247
20
3.0670809955941
30
0
41
1
10
20.0144736213582
20
3.08478105032802
30
0
41
1
10
19.8943119606574
20
3.08611752858528
30
0
41
1
10
19.774141390691
20
3.08605838769216
30
0
0
SPLINE
5
BF
100
AcDbEntity
8
1
62
256
6
ByLayer
370
18
48
1
60
0
100
AcDbSpline
70
4
71
3
72
52
73
48
40
0
40
0
40
0
40
0
40
0.0312499999999974
40
0.0312499999999974
40
0.0624999999999948
40
0.0624999999999948
40
0.0937499999999922
40
0.0937499999999922
40
0.109374999999991
40
0.109374999999991
40
0.12499999999999
40
0.12499999999999
40
0.140624999999988
40
0.140624999999988
40
0.156249999999987
40
0.156249999999987
40
0.171874999999986
40
0.171874999999986
40
0.187499999999984
40
0.187499999999984
40
0.203124999999983
40
0.203124999999983
40
0.218749999999982
40
0.218749999999982
40
0.23437499999998
40
0.23437499999998
40
0.249999999999979
40
0.249999999999979
40
0.281249999999978
40
0.281249999999978
40
0.312499999999977
40
0.312499999999977
40
0.343749999999976
40
0.343749999999976
40
0.351562499999975
40
0.351562499999975
40
0.359374999999975
40
0.359374999999975
40
0.374999999999974
40
0.374999999999974
40
0.499999999999979
40
0.499999999999979
40
0.624999999999984
40
0.624999999999984
40
0.749999999999989
40
0.749999999999989
40
1
40
1
40
1
40
1
41
1
10
10.0864651979404
20
-3.03868694707691
30
0
41
1
10
9.99673195106053
20
-3.04911442556744
30
0
41
1
10
9.90827420137813
20
-3.05792883978407
30
0
41
1
10
9.73483451996034
20
-3.0715427107142
30
0
41
1
10
9.64987998254563
20
-3.07632597884236
30
0
41
1
10
9.48790757538291
20
-3.08053824813504
30
0
41
1
10
9.41052160047954
20
-3.08002448289051
30
0
41
1
10
9.30263377127531
20
-3.07378442613407
30
0
41
1
10
9.26805212130796
20
-3.07078404809232
30
0
41
1
10
9.20248762081212
20
-3.06248274397242
30
0
41
1
10
9.17164298150209
20
-3.05718354615613
30
0
41
1
10
9.11596765069524
20
-3.04396083218432
30
0
41
1
10
9.09099362966705
20
-3.03602495150102
30
0
41
1
10
9.04852999912367
20
-3.01682702461244
30
0
41
1
10
9.03140248455645
20
-3.00567687683605
30
0
41
1
10
9.00755502665967
20
-2.9802521338743
30
0
41
1
10
9.00072631735492
20
-2.96593132385578
30
0
41
1
10
8.99938176310764
20
-2.93360621297776
30
0
41
1
10
9.00494777647953
20
-2.91616546337025
30
0
41
1
10
9.02788246197508
20
-2.87950206426308
30
0
41
1
10
9.04552099396872
20
-2.85998201326433
30
0
41
1
10
9.09069042065198
20
-2.82041217042445
30
0
41
1
10
9.11787183353329
20
-2.80053933222427
30
0
41
1
10
9.17950875736233
20
-2.7607876225799
30
0
41
1
10
9.21423906763266
20
-2.74077509607022
30
0
41
1
10
9.28816932791537
20
-2.7016340551084
30
0
41
1
10
9.32732038661877
20
-2.68249140857267
30
0
41
1
10
9.44986349370728
20
-2.62620396638405
30
0
41
1
10
9.53840951890771
20
-2.59012098551332
30
0
41
1
10
9.72371553156125
20
-2.5206631748203
30
0
41
1
10
9.81954794045552
20
-2.4876455783446
30
0
41
1
10
10.0156587688689
20
-2.42434562092018
30
0
41
1
10
10.1159565625549
20
-2.393766435044
30
0
41
1
10
10.2433718432679
20
-2.35774902302839
30
0
41
1
10
10.2718139129866
20
-2.35451334035824
30
0
41
1
10
10.3281208220441
20
-2.35392730805188
30
0
41
1
10
10.356149262854
20
-2.35541510657134
30
0
41
1
10
10.4403519969443
20
-2.35820290384342
30
0
41
1
10
10.496475917478
20
-2.36021833794288
30
0
41
1
10
11.0014906334534
20
-2.37974628943738
30
0
41
1
10
11.4490402020415
20
-2.40705558201563
30
0
41
1
10
12.340590422942
20
-2.47755539629188
30
0
41
1
10
12.784557201623
20
-2.52075964059114
30
0
41
1
10
13.6638902225978
20
-2.61612082219855
30
0
41
1
10
14.0999864147117
20
-2.66826854548825
30
0
41
1
10
15.3988911768672
20
-2.82557370509477
30
0
41
1
10
16.2521242122738
20
-2.93129675293662
30
0
41
1
10
17.0990765102362
20
-3.0013117685827
30
0
0
SPLINE
5
C0
100
AcDbEntity
8
1
62
256
6
ByLayer
370
18
48
1
60
0
100
AcDbSpline
70
4
71
3
72
8
73
4
40
0
40
0
40
0
40
0
40
1
40
1
40
1
40
1
41
1
10
10.1211935468084
20
-0.511412416860367
30
0
41
1
10
10.0994218900576
20
-0.484326793891285
30
0
41
1
10
10.0859769453902
20
-0.451223495167341
30
0
41
1
10
10.0859832781239
20
-0.416403337042937
30
0
0
SPLINE
5
C1
100
AcDbEntity
8
1
62
256
6
ByLayer
370
18
48
1
60
0
100
AcDbSpline
70
4
71
3
72
24
73
20
40
0
40
0
40
0
40
0
40
0.0615926557142003
40
0.0615926557142003
40
0.244162152629081
40
0.244162152629081
40
0.426731649543961
40
0.426731649543961
40
0.518016398001401
40
0.518016398001401
40
0.609301146458842
40
0.609301146458842
40
0.791870643373722
40
0.791870643373722
40
0.883155391831161
40
0.883155391831161
40
0.974440140288599
40
0.974440140288599
40
1
40
1
40
1
40
1
41
1
10
25.4633003034089
20
2.06481226372966
30
0
41
1
10
25.6872173595429
20
1.99305076146467
30
0
41
1
10
25.9111847496682
20
1.91801612273861
30
0
41
1
10
26.7996172627035
20
1.60866355850862
30
0
41
1
10
27.4579301536507
20
1.35424898509942
30
0
41
1
10
28.7705637253197
20
0.816992894470786
30
0
41
1
10
29.4250262356999
20
0.53446044162726
30
0
41
1
10
30.410117976156
20
0.10392284992858
30
0
41
1
10
30.7390354865682
20
-0.0407279100311655
30
0
41
1
10
31.3991082260165
20
-0.329681858192913
30
0
41
1
10
31.7307551005754
20
-0.474275428590545
30
0
41
1
10
32.7270356002308
20
-0.902459684574666
30
0
41
1
10
33.3883552656339
20
-1.17805571959099
30
0
41
1
10
34.3824094016078
20
-1.56306167768312
30
0
41
1
10
34.7148309245317
20
-1.6868317270449
30
0
41
1
10
35.378136919794
20
-1.92135368485955
30
0
41
1
10
35.7083093098305
20
-2.03193646438638
30
0
41
1
10
36.1297466682609
20
-2.16388837236403
30
0
41
1
10
36.2218659055659
20
-2.1921583246704
30
0
41
1
10
36.3139255182189
20
-2.2198196195128
30
0
0
SPLINE
5
C2
100
AcDbEntity
8
1
62
256
6
ByLayer
370
13
48
1
60
0
100
AcDbSpline
70
4
71
3
72
14
73
10
40
0
40
0
40
0
40
0
40
0.300699126434381
40
0.300699126434381
40
0.650349563217191
40
0.650349563217191
40
0.825174781608596
40
0.825174781608596
40
1
40
1
40
1
40
1
41
1
10
36.3139255179543
20
-2.21981961943334
30
0
41
1
10
36.8794312190499
20
-2.38973799604733
30
0
41
1
10
37.4426870287895
20
-2.53668914153707
30
0
41
1
10
38.6615038751825
20
-2.79781442624361
30
0
41
1
10
39.3173857686384
20
-2.90239426267121
30
0
41
1
10
40.3080673533368
20
-2.99931066042137
30
0
41
1
10
40.6401625402134
20
-3.02163238201155
30
0
41
1
10
41.304199923436
20
-3.04525115972206
30
0
41
1
10
41.635893910591
20
-3.04658925569055
30
0
41
1
10
41.9677944475761
20
-3.03729036590937
30
0
0
SPLINE
5
C3
100
AcDbEntity
8
1
62
256
6
ByLayer
370
18
48
1
60
0
100
AcDbSpline
70
4
71
3
72
14
73
10
40
0
40
0
40
0
40
0
40
0.25
40
0.25
40
0.5
40
0.5
40
0.75
40
0.75
40
1
40
1
40
1
40
1
41
1
10
10.0864651979403
20
-3.03868694707691
30
0
41
1
10
10.0948162754184
20
-3.02162879886836
30
0
41
1
10
10.1060988444853
20
-3.00428606649322
30
0
41
1
10
10.1363969088322
20
-2.96994819771362
30
0
41
1
10
10.1556170262966
20
-2.95302320112927
30
0
41
1
10
10.2000616828867
20
-2.92400807036327
30
0
41
1
10
10.225264591089
20
-2.91210491142766
30
0
41
1
10
10.2735086907927
20
-2.89582262550002
30
0
41
1
10
10.2966621088911
20
-2.89107160057304
30
0
41
1
10
10.3183773187606
20
-2.88859406960904
30
0
0
SPLINE
5
C4
100
AcDbEntity
8
1
62
256
6
ByLayer
370
18
48
1
60
0
100
AcDbSpline
70
4
71
3
72
12
73
8
40
0
40
0
40
0
40
0
40
0.423921315075719
40
0.423921315075719
40
0.847842630151437
40
0.847842630151437
40
1
40
1
40
1
40
1
41
1
10
10.0864651979404
20
3.03868694707691
30
0
41
1
10
9.99673195106058
20
3.04911442556744
30
0
41
1
10
9.90827420137822
20
3.05792883978407
30
0
41
1
10
9.73483451996043
20
3.07154271071417
30
0
41
1
10
9.64987998254568
20
3.07632597884236
30
0
41
1
10
9.53982553612599
20
3.07918806488095
30
0
41
1
10
9.51122110911513
20
3.07960649575872
30
0
41
1
10
9.4831665297568
20
3.0796399460591
30
0
0
SPLINE
5
C5
100
AcDbEntity
8
1
62
256
6
ByLayer
370
18
48
1
60
0
100
AcDbSpline
70
4
71
3
72
12
73
8
40
0
40
0
40
0
40
0
40
0.187741107581937
40
0.187741107581937
40
0.458494071721291
40
0.458494071721291
40
1
40
1
40
1
40
1
41
1
10
12.3042525334184
20
2.47687087890344
30
0
41
1
10
12.6124233340025
20
2.50446870138387
30
0
41
1
10
12.9193573262224
20
2.53537833323202
30
0
41
1
10
13.6638902225975
20
2.61612082219852
30
0
41
1
10
14.0999864147115
20
2.66826854548822
30
0
41
1
10
15.3988911768669
20
2.82557370509474
30
0
41
1
10
16.2521242122738
20
2.93129675293659
30
0
41
1
10
17.0990765102362
20
3.0013117685827
30
0
0
SPLINE
5
C6
100
AcDbEntity
8
1
62
256
6
ByLayer
370
18
48
1
60
0
100
AcDbSpline
70
4
71
3
72
31
73
27
40
0
40
0
40
0
40
0
40
0.0625
40
0.0625
40
0.125
40
0.125
40
0.25
40
0.25
40
0.3125
40
0.3125
40
0.375
40
0.375
40
0.5
40
0.5
40
0.5625
40
0.5625
40
0.625
40
0.6875
40
0.6875
40
0.75
40
0.75
40
0.875
40
0.875
40
0.9375
40
0.9375
40
1
40
1
40
1
40
1
41
1
10
10.0859832781239
20
-0.416403337036343
30
0
41
1
10
10.0860012208718
20
-0.317746226633147
30
0
41
1
10
10.086018530377
20
-0.218607221589366
30
0
41
1
10
10.0860520551677
20
-0.0193617625932063
30
0
41
1
10
10.086068204757
20
0.0803784493021737
30
0
41
1
10
10.0861145834824
20
0.376475130816829
30
0
41
1
10
10.0861429887437
20
0.571103980987345
30
0
41
1
10
10.0861830135159
20
0.858875737575858
30
0
41
1
10
10.0861959869866
20
0.954603274953541
30
0
41
1
10
10.0862208072955
20
1.1413676868377
30
0
41
1
10
10.0862326735047
20
1.23251429203887
30
0
41
1
10
10.086266950558
20
1.49941124801896
30
0
41
1
10
10.086288059773
20
1.66867981429775
30
0
41
1
10
10.0863179303351
20
1.90913742598926
30
0
41
1
10
10.0863274988261
20
1.98635050178208
30
0
41
1
10
10.0863457577806
20
2.13323861568918
30
0
41
1
10
10.0863632118062
20
2.27318011435491
30
0
41
1
10
10.086379205829
20
2.39937855676374
30
0
41
1
10
10.0863944860162
20
2.5185885792277
30
0
41
1
10
10.0864018053322
20
2.57497000044634
30
0
41
1
10
10.0864222789123
20
2.73053629045091
30
0
41
1
10
10.0864340278074
20
2.81667184769677
30
0
41
1
10
10.0864484440734
20
2.92008478391889
30
0
41
1
10
10.086452707262
20
2.95022780351729
30
0
41
1
10
10.08645998806
20
3.00158613011871
30
0
41
1
10
10.0864629704059
20
3.02255853261485
30
0
41
1
10
10.0864651979404
20
3.03868694707691
30
0
0
SPLINE
5
C7
100
AcDbEntity
8
1
62
256
6
ByLayer
370
18
48
1
60
0
100
AcDbSpline
70
4
71
3
72
10
73
6
40
0
40
0
40
0
40
0
40
0.5
40
0.5
40
1
40
1
40
1
40
1
41
1
10
42.067096711614
20
-3.01666525795309
30
0
41
1
10
42.2022691411397
20
-2.63438475044904
30
0
41
1
10
42.3400516388671
20
-2.25402876393065
30
0
41
1
10
42.619643896296
20
-1.49613740867662
30
0
41
1
10
42.7614815992836
20
-1.11862096421552
30
0
41
1
10
42.9043619460176
20
-0.74201605525181
30
0
0
SPLINE
5
C8
100
AcDbEntity
8
1
62
256
6
ByLayer
370
18
48
1
60
0
100
AcDbSpline
70
4
71
3
72
8
73
4
40
0
40
0
40
0
40
0
40
1
40
1
40
1
40
1
41
1
10
41.967794447576
20
-3.03729036590937
30
0
41
1
10
41.9605390330067
20
-3.05623851429198
30
0
41
1
10
41.9532739802447
20
-3.07517535709701
30
0
41
1
10
41.9459992418874
20
-3.09410086407166
30
0
0
SPLINE
5
C9
100
AcDbEntity
8
1
62
256
6
ByLayer
370
18
48
1
60
0
100
AcDbSpline
70
4
71
3
72
10
73
6
40
0
40
0
40
0
40
0
40
0.5
40
0.5
40
1
40
1
40
1
40
1
41
1
10
10.2154457534344
20
-0.583342238038
30
0
41
1
10
10.1969362144473
20
-0.575252785011031
30
0
41
1
10
10.1797907314236
20
-0.565145398176043
30
0
41
1
10
10.1481341930577
20
-0.541011217995788
30
0
41
1
10
10.1336035991625
20
-0.526851480728624
30
0
41
1
10
10.1211935468084
20
-0.511412416860452
30
0
0
SPLINE
5
CA
100
AcDbEntity
8
1
62
256
6
ByLayer
370
18
48
1
60
0
100
AcDbSpline
70
4
71
3
72
14
73
10
40
0
40
0
40
0
40
0
40
0.3711679503986
40
0.3711679503986
40
0.783920857260276
40
0.783920857260276
40
0.990297310691112
40
0.990297310691112
40
1
40
1
40
1
40
1
41
1
10
19.9965928560517
20
-2.93129060269629
30
0
41
1
10
19.4041294602073
20
-2.92998838724955
30
0
41
1
10
18.8146580797044
20
-2.89647941641087
30
0
41
1
10
17.5697093564571
20
-2.76063209460142
30
0
41
1
10
16.9146232127101
20
-2.65080428500096
30
0
41
1
10
15.9259256331772
20
-2.43396254813482
30
0
41
1
10
15.5953775679414
20
-2.35290336877975
30
0
41
1
10
15.2478982056334
20
-2.25942911334138
30
0
41
1
10
15.2322969646035
20
-2.25521524804935
30
0
41
1
10
15.2166975133764
20
-2.25098494493395
30
0
0
SPLINE
5
CB
100
AcDbEntity
8
1
62
256
6
ByLayer
370
13
48
1
60
0
100
AcDbSpline
70
4
71
3
72
10
73
6
40
0
40
0
40
0
40
0
40
0.192406116132052
40
0.192406116132052
40
1
40
1
40
1
40
1
41
1
10
15.2166965484878
20
-2.25098468327269
30
0
41
1
10
14.9004955903593
20
-2.16523640280798
30
0
41
1
10
14.5850300142515
20
-2.07273426360533
30
0
41
1
10
12.9503184243652
20
-1.56184916793384
30
0
41
1
10
11.6434770029745
20
-1.04477477492873
30
0
41
1
10
10.3174145651106
20
-0.492463080958799
30
0
0
LINE
5
76
100
AcDbEntity
8
81
62
256
6
ByLayer
370
18
48
1
60
0
100
AcDbLine
10
43
20
0
30
0
11
48
21
0
31
0
39
0
210
0
220
0
230
1
0
LINE
5
77
100
AcDbEntity
8
1
62
256
6
ByLayer
370
18
48
1
60
0
100
AcDbLine
10
9.479476
20
3.079633
30
0
11
0.350219
21
3.073927
31
0
39
0
210
0
220
0
230
1
0
LINE
5
79
100
AcDbEntity
8
1
62
256
6
ByLayer
370
18
48
1
60
0
100
AcDbLine
10
41.522311
20
3.09966
30
0
11
40.45848
21
3.098995
31
0
39
0
210
0
220
0
230
1
0
LINE
5
7A
100
AcDbEntity
8
1
62
256
6
ByLayer
370
18
48
1
60
0
100
AcDbLine
10
40.45848
20
-3.098995
30
0
11
41.522419
21
-3.09966
31
0
39
0
210
0
220
0
230
1
0
LINE
5
7B
100
AcDbEntity
8
1
62
256
6
ByLayer
370
18
48
1
60
0
100
AcDbLine
10
0.350219
20
-3.073927
30
0
11
9.479476
21
-3.079633
31
0
39
0
210
0
220
0
230
1
0
LINE
5
7C
100
AcDbEntity
8
SK1
62
256
6
ByLayer
370
18
48
1
60
0
100
AcDbLine
10
-35.133975
20
4
30
0
11
-36
21
2.5
31
0
39
0
210
0
220
0
230
1
0
LINE
5
7E
100
AcDbEntity
8
SK1
62
256
6
ByLayer
370
18
48
1
60
0
100
AcDbLine
10
-36
20
-2.5
30
0
11
-35.133975
21
-4
31
0
39
0
210
0
220
0
230
1
0
LINE
5
7F
100
AcDbEntity
8
SK1
62
256
6
ByLayer
370
18
48
1
60
0
100
AcDbLine
10
0
20
4
30
0
11
-35.133975
21
4
31
0
39
0
210
0
220
0
230
1
0
LINE
5
80
100
AcDbEntity
8
SK1
62
256
6
ByLayer
370
18
48
1
60
0
100
AcDbLine
10
-35.133975
20
-4
30
0
11
0
21
-4
31
0
39
0
210
0
220
0
230
1
0
LINE
5
81
100
AcDbEntity
8
1
62
256
6
ByLayer
370
18
48
1
60
0
100
AcDbLine
10
19.771848
20
3.086065
30
0
11
18.708272
21
3.085401
31
0
39
0
210
0
220
0
230
1
0
LINE
5
82
100
AcDbEntity
8
1
62
256
6
ByLayer
370
18
48
1
60
0
100
AcDbLine
10
18.708272
20
-3.085401
30
0
11
19.771911
21
-3.086066
31
0
39
0
210
0
220
0
230
1
0
LINE
5
83
100
AcDbEntity
8
SK4
62
256
6
ByLayer
370
18
48
0.05
60
0
100
AcDbLine
10
48
20
0
30
0
11
-41
21
0
31
0
39
0
210
0
220
0
230
1
0
LINE
5
85
100
AcDbEntity
8
4
62
256
6
ByLayer
370
18
48
0.05
60
0
100
AcDbLine
10
43
20
0
30
0
11
0
21
0
31
0
39
0
210
0
220
0
230
1
0
LINE
5
87
100
AcDbEntity
8
80
62
256
6
ByLayer
370
18
48
1
60
0
100
AcDbLine
10
0
20
0
30
0
11
-5
21
0
31
0
39
0
210
0
220
0
230
1
0
LINE
5
88
100
AcDbEntity
8
SK1
62
256
6
ByLayer
370
18
48
1
60
0
100
AcDbLine
10
-36
20
2.5
30
0
11
-36
21
-2.5
31
0
39
0
210
0
220
0
230
1
0
LINE
5
89
100
AcDbEntity
8
SK1
62
256
6
ByLayer
370
18
48
1
60
0
100
AcDbLine
10
-35.133975
20
4
30
0
11
-35.133975
21
-4
31
0
39
0
210
0
220
0
230
1
0
LINE
5
8A
100
AcDbEntity
8
SK1
62
256
6
ByLayer
370
18
48
1
60
0
100
AcDbLine
10
0
20
4
30
0
11
0
21
-4
31
0
39
0
210
0
220
0
230
1
0
LINE
5
8B
100
AcDbEntity
8
1
62
256
6
ByLayer
370
13
48
1
60
0
100
AcDbLine
10
0.350219
20
3.073927
30
0
11
0.350219
21
-3.073927
31
0
39
0
210
0
220
0
230
1
0
LINE
5
8C
100
AcDbEntity
8
1
62
256
6
ByLayer
370
13
48
1
60
0
100
AcDbLine
10
41.808951
20
0.677096
30
0
11
42.964408
21
-0.054336
31
0
39
0
210
0
220
0
230
1
0
LINE
5
8D
100
AcDbEntity
8
1
62
256
6
ByLayer
370
13
48
1
60
0
100
AcDbLine
10
41.942402
20
0.774431
30
0
11
42.990854
21
0.110735
31
0
39
0
210
0
220
0
230
1
0
MTEXT
5
CC
100
AcDbEntity
8
SK6
62
256
6
ByLayer
370
13
48
1
60
0
100
AcDbMText
10
5.629169
20
35.482694
30
0
210
0
220
0
230
1
1
\W0.7538;460.1-0620-019A0-XM GC34
40
3.5
41
0
44
1.084337
50
0
71
8
72
5
7
iso_b_vert
0
DIMENSION
5
D9
100
AcDbEntity
8
SK2
62
256
6
ByLayer
370
13
48
1
60
0
100
AcDbDimension
2
DimnDraft3D1
10
42.0887
20
-13.313398
30
0
11
19.838759
21
-13.313398
31
0
70
32
71
5
72
1
41
1
210
0
220
0
230
1
3
Standard
100
AcDbAlignedDimension
13
0
23
-1.5875
33
0
14
42.0887
24
-4.6875
34
0
50
0
100
AcDbRotatedDimension
1001
ACAD
1000
DSTYLE
1002
{
1070
   279
1070
     0
1070
   172
1070
     1
1070
   173
1070
     1
1070
   340
1005
CD
1070
   271
1070
     2
1070
   272
1070
     2
1070
    77
1070
     1
1070
    73
1070
     0
1070
   171
1070
     3
1070
   274
1070
     4
1070
   177
1070
    35
1070
   176
1070
    35
1070
   178
1070
    35
1070
    48
1040
-0.005
1070
    41
1041
3.5
1070
   147
1041
1.75
1070
    42
1041
1.5875
1070
    44
1041
2.0
1070
   140
1041
3.5
1070
   343
1005
0
1070
   344
1005
0
1002
}
0
DIMENSION
5
E3
100
AcDbEntity
8
SK2
62
256
6
ByLayer
370
13
48
1
60
0
100
AcDbDimension
2
DimnDraft3D2
10
43
20
-32.692985
30
0
11
3.93
21
-32.692985
31
0
70
32
71
5
72
1
41
1
210
0
220
0
230
1
3
Standard
100
AcDbAlignedDimension
13
-36
23
-5.5875
33
0
14
43
24
-1.5875
34
0
50
0
100
AcDbRotatedDimension
1001
ACAD
1000
DSTYLE
1002
{
1070
   279
1070
     0
1070
   172
1070
     1
1070
   173
1070
     1
1070
   340
1005
CD
1070
   271
1070
     2
1070
   272
1070
     2
1070
    77
1070
     1
1070
    73
1070
     0
1070
   171
1070
     3
1070
   274
1070
     4
1070
   177
1070
    35
1070
   176
1070
    35
1070
   178
1070
    35
1070
    48
1040
-0.005
1070
    41
1041
3.5
1070
   147
1041
1.75
1070
    42
1041
1.5875
1070
    44
1041
2.0
1070
   140
1041
3.5
1070
   343
1005
0
1070
   344
1005
0
1002
}
0
DIMENSION
5
ED
100
AcDbEntity
8
SK2
62
256
6
ByLayer
370
13
48
1
60
0
100
AcDbDimension
2
DimnDraft3D3
10
43
20
14.709119
30
0
11
33.245
21
14.709119
31
0
70
32
71
5
72
1
41
1
210
0
220
0
230
1
3
Standard
100
AcDbAlignedDimension
13
23.49
23
4.6875
33
0
14
43
24
1.5875
34
0
50
0
100
AcDbRotatedDimension
1001
ACAD
1000
DSTYLE
1002
{
1070
   279
1070
     0
1070
   172
1070
     1
1070
   173
1070
     1
1070
   340
1005
CD
1070
   271
1070
     2
1070
   272
1070
     2
1070
    77
1070
     1
1070
    73
1070
     0
1070
   171
1070
     3
1070
   274
1070
     4
1070
   177
1070
    35
1070
   176
1070
    35
1070
   178
1070
    35
1070
    48
1040
-0.005
1070
    41
1041
3.5
1070
   147
1041
1.75
1070
    42
1041
1.5875
1070
    44
1041
2.0
1070
   140
1041
3.5
1070
   343
1005
0
1070
   344
1005
0
1002
}
0
DIMENSION
5
F7
100
AcDbEntity
8
SK2
62
256
6
ByLayer
370
13
48
1
60
0
100
AcDbDimension
2
DimnDraft3D4
10
42.0887
20
-15.902503
30
0
11
52.981425
21
-15.902503
31
0
70
32
71
5
72
1
41
1
210
0
220
0
230
1
3
Standard
100
AcDbAlignedDimension
13
43
23
-1.5875
33
0
14
42.0887
24
-4.6875
34
0
50
0
100
AcDbRotatedDimension
1001
ACAD
1000
DSTYLE
1002
{
1070
   279
1070
     0
1070
   172
1070
     1
1070
   173
1070
     1
1070
   340
1005
CD
1070
   271
1070
     2
1070
   272
1070
     2
1070
    77
1070
     1
1070
    73
1070
     0
1070
   171
1070
     3
1070
   274
1070
     4
1070
   177
1070
    35
1070
   176
1070
    35
1070
   178
1070
    35
1070
    48
1040
-0.005
1070
    41
1041
3.5
1070
   147
1041
1.75
1070
    42
1041
1.5875
1070
    44
1041
2.0
1070
   140
1041
3.5
1070
   343
1005
0
1070
   344
1005
0
1002
}
0
DIMENSION
5
101
100
AcDbEntity
8
SK2
62
256
6
ByLayer
370
13
48
1
60
0
100
AcDbDimension
2
DimnDraft3D5
10
42.0887
20
-22.343428
30
0
11
0.849376
21
-22.343428
31
0
70
32
71
5
72
1
41
1
210
0
220
0
230
1
3
Standard
100
AcDbAlignedDimension
13
-36
23
-5.5875
33
0
14
42.0887
24
-4.6875
34
0
50
0
100
AcDbRotatedDimension
1001
ACAD
1000
DSTYLE
1002
{
1070
   279
1070
     0
1070
   172
1070
     1
1070
   173
1070
     1
1070
   340
1005
CD
1070
   271
1070
     2
1070
   272
1070
     2
1070
    77
1070
     1
1070
    73
1070
     0
1070
   171
1070
     3
1070
   274
1070
     4
1070
   177
1070
    35
1070
   176
1070
    35
1070
   178
1070
    35
1070
    48
1040
-0.005
1070
    41
1041
3.5
1070
   147
1041
1.75
1070
    42
1041
1.5875
1070
    44
1041
2.0
1070
   140
1041
3.5
1070
   343
1005
0
1070
   344
1005
0
1002
}
0
DIMENSION
5
10C
100
AcDbEntity
8
SK2
62
256
6
ByLayer
370
13
48
1
60
0
100
AcDbDimension
2
DimnDraft3D6
10
-46.625163
20
4
30
0
11
-47.250163
21
22.47418
31
0
70
33
71
5
72
1
41
1
210
0
220
0
230
1
3
Standard
100
AcDbAlignedDimension
13
-37.5875
23
-4
33
0
14
-37.5875
24
4
34
0
1001
ACAD
1000
DSTYLE
1002
{
1070
   279
1070
     0
1070
    74
1070
     0
1070
   173
1070
     1
1070
   340
1005
CD
1070
   271
1070
     3
1070
   272
1070
     2
1070
    77
1070
     1
1070
    73
1070
     0
1070
   171
1070
     3
1070
   274
1070
     4
1070
   177
1070
    35
1070
   176
1070
    35
1070
   178
1070
    35
1070
    48
1040
-0.005
1070
    41
1041
3.5
1070
   147
1041
1.75
1070
    42
1041
1.5875
1070
    44
1041
2.0
1070
   140
1041
3.5
1070
   343
1005
0
1070
   344
1005
0
1002
}
0
DIMENSION
5
117
100
AcDbEntity
8
2
62
256
6
ByLayer
370
13
48
1
60
0
100
AcDbDimension
2
DimnDraft3D7
10
57.083343
20
3.1
30
0
11
52.458343
21
20.167266
31
0
70
33
71
5
72
1
41
1
210
0
220
0
230
1
3
Standard
100
AcDbAlignedDimension
13
43.6762
23
-3.1
33
0
14
43.6762
24
3.1
34
0
1001
ACAD
1000
DSTYLE
1002
{
1070
   279
1070
     0
1070
    74
1070
     0
1070
   173
1070
     1
1070
   340
1005
CD
1070
   271
1070
     3
1070
   272
1070
     2
1070
    77
1070
     1
1070
    73
1070
     0
1070
   171
1070
     3
1070
   274
1070
     4
1070
   177
1070
    35
1070
   176
1070
    35
1070
   178
1070
    35
1070
    48
1040
-0.005
1070
    41
1041
3.5
1070
   147
1041
1.75
1070
    42
1041
1.5875
1070
    44
1041
2.0
1070
   140
1041
3.5
1070
   343
1005
0
1070
   344
1005
0
1002
}
0
ENDSEC
0
SECTION
2
OBJECTS
0
DICTIONARY
5
182
330
0
100
AcDbDictionary
280
0
281
1
3
ACAD_GROUP
350
183
3
ACAD_MLINESTYLE
350
184
0
DICTIONARY
5
183
330
0
100
AcDbDictionary
280
0
281
1
0
DICTIONARY
5
184
330
0
100
AcDbDictionary
280
0
281
1
3
Standard
350
18
0
MLINESTYLE
5
18
330
184
100
AcDbMlineStyle
2
Standard
70
0
3

62
256
51
90
52
90
71
2
49
-0.5
62
256
6
ByLayer
49
0.5
62
256
6
ByLayer
0
RASTERVARIABLES
5
170
330

100
AcDbRasterVariables
90
0
70
1
71
1
72
1
0
ENDSEC
0
EOF
