0
SECTION
2
HEADER
9
$ACADVER
1
AC1015
9
$DWGCODEPAGE
3
ANSI_1252
9
$HANDSEED
5
1b5
9
$ANGBASE
50
0
9
$ANGDIR
70
0
9
$ATTMODE
70
1
9
$AUNITS
70
0
9
$AUPREC
70
0
9
$CECOLOR
62
256
9
$CELTSCALE
40
1
9
$CELTYPE
6
ByLayer
9
$CELWEIGHT
370
18
9
$CLAYER
8
0
9
$CMLJUST
70
0
9
$CMLSCALE
40
1
9
$CMLSTYLE
2
Standard
9
$DIMSTYLE
2
Standard
9
$TEXTSIZE
40
0.2
9
$TEXTSTYLE
7
Standard
9
$LUNITS
70
2
9
$LUPREC
70
4
9
$EXTNAMES
290
1
9
$INSUNITS
70
4
9
$LTSCALE
40
1
9
$LWDISPLAY
290
1
9
$PDMODE
70
0
9
$PDSIZE
40
0
9
$PLINEGEN
70
0
0
ENDSEC
0
SECTION
2
CLASSES
0
CLASS
1
RASTERVARIABLES
2
AcDbRasterVariables
3
ISM
90
0
280
0
281
0
0
ENDSEC
0
SECTION
2
TABLES
0
TABLE
2
VPORT
5
1ab
100
AcDbSymbolTable
0
VPORT
5
1
100
AcDbSymbolTableRecord
100
AcDbViewportTableRecord
2
*Active
70
0
10
0
20
0
11
1
21
1
12
-1
22
1
13
0
23
0
14
0.5
24
0.5
15
10
25
10
16
0
26
0
36
1
17
0
27
0
37
0
0
ENDTAB
0
TABLE
2
LTYPE
5
1ac
100
AcDbSymbolTable
0
LTYPE
5
14
100
AcDbSymbolTableRecord
100
AcDbLinetypeTableRecord
70
0
2
ByBlock
3

72
65
73
0
40
0
0
LTYPE
5
15
100
AcDbSymbolTableRecord
100
AcDbLinetypeTableRecord
70
0
2
ByLayer
3

72
65
73
0
40
0
0
LTYPE
5
16
100
AcDbSymbolTableRecord
100
AcDbLinetypeTableRecord
70
0
2
CONTINUOUS
3
Solid line
72
65
73
0
40
0
0
LTYPE
5
6A
100
AcDbSymbolTableRecord
100
AcDbLinetypeTableRecord
70
0
2
CENTER
3
____ _ ____ _ ____ _ ____
72
65
73
4
40
47.5
49
22
74
0
49
-8.5
74
0
49
8.5
74
0
49
-8.5
74
0
0
LTYPE
5
6B
100
AcDbSymbolTableRecord
100
AcDbLinetypeTableRecord
70
0
2
DASHED
3
__ __ __ __ __ __ __ __ __
72
65
73
2
40
25.72
49
12.86
74
0
49
-12.86
74
0
0
ENDTAB
0
TABLE
2
LAYER
5
1ad
100
AcDbSymbolTable
0
LAYER
5
10
100
AcDbSymbolTableRecord
100
AcDbLayerTableRecord
2
0
70
0
62
7
6
CONTINUOUS
290
1
370
-3
390
0
0
LAYER
5
6D
100
AcDbSymbolTableRecord
100
AcDbLayerTableRecord
2
81
70
0
62
-3
6
CONTINUOUS
290
1
370
-3
390
0
0
LAYER
5
6F
100
AcDbSymbolTableRecord
100
AcDbLayerTableRecord
2
80
70
0
62
-6
6
CONTINUOUS
290
1
370
-3
390
0
0
LAYER
5
74
100
AcDbSymbolTableRecord
100
AcDbLayerTableRecord
2
2
70
0
62
7
6
CONTINUOUS
290
1
370
-3
390
0
0
LAYER
5
78
100
AcDbSymbolTableRecord
100
AcDbLayerTableRecord
2
1
70
0
62
4
6
CONTINUOUS
290
1
370
-3
390
0
0
LAYER
5
8C
100
AcDbSymbolTableRecord
100
AcDbLayerTableRecord
2
4
70
0
62
-2
6
CENTER
290
1
370
-3
390
0
0
LAYER
5
197
100
AcDbSymbolTableRecord
100
AcDbLayerTableRecord
2
SK2
70
0
62
7
6
CONTINUOUS
290
1
370
-3
390
0
0
LAYER
5
198
100
AcDbSymbolTableRecord
100
AcDbLayerTableRecord
2
SK1
70
0
62
4
6
CONTINUOUS
290
1
370
-3
390
0
0
LAYER
5
199
100
AcDbSymbolTableRecord
100
AcDbLayerTableRecord
2
SK4
70
0
62
2
6
CENTER
290
1
370
-3
390
0
0
LAYER
5
19a
100
AcDbSymbolTableRecord
100
AcDbLayerTableRecord
2
SK6
70
0
62
5
6
CONTINUOUS
290
1
370
-3
390
0
0
ENDTAB
0
TABLE
2
STYLE
5
1ae
100
AcDbSymbolTable
0
STYLE
5
11
100
AcDbSymbolTableRecord
100
AcDbTextStyleTableRecord
2
Standard
3
txt
70
0
71
0
40
0
41
1
42
0
50
0
0
STYLE
5
F3
100
AcDbSymbolTableRecord
100
AcDbTextStyleTableRecord
2
iso_b_vert
3
simplex.shx
70
0
71
0
40
0
41
1
42
0
50
0
0
STYLE
5
F4
100
AcDbSymbolTableRecord
100
AcDbTextStyleTableRecord
2
DWGDirectTextStyle
3
simplex
70
0
71
0
40
0
41
1
42
0
50
0
0
ENDTAB
0
TABLE
2
DIMSTYLE
5
1af
100
AcDbSymbolTable
100
AcDbDimStyleTable
0
DIMSTYLE
105
27
100
AcDbSymbolTableRecord
100
AcDbDimStyleTableRecord
2
Standard
70
0
3
<>
41
0.18
42
0.0625
44
0.18
140
0.18
147
0.09
73
0
74
0
77
1
271
2
275
0
278
52
280
0
340
11
0
ENDTAB
0
TABLE
2
VIEW
5
1b0
100
AcDbSymbolTable
0
ENDTAB
0
TABLE
2
UCS
5
1b1
100
AcDbSymbolTable
0
ENDTAB
0
TABLE
2
APPID
5
1b2
100
AcDbSymbolTable
0
APPID
5
12
100
AcDbSymbolTableRecord
100
AcDbRegAppTableRecord
2
ACAD
70
0
0
ENDTAB
0
TABLE
2
BLOCK_RECORD
5
1b3
100
AcDbSymbolTable
0
BLOCK_RECORD
5
1F
100
AcDbSymbolTableRecord
100
AcDbBlockTableRecord
2
*Model_Space
340
0
70
0
0
BLOCK_RECORD
5
1B
100
AcDbSymbolTableRecord
100
AcDbBlockTableRecord
2
*Paper_Space
340
0
70
0
0
BLOCK_RECORD
5
23
100
AcDbSymbolTableRecord
100
AcDbBlockTableRecord
2
*Paper_Space0
340
0
70
0
0
BLOCK_RECORD
5
F6
100
AcDbSymbolTableRecord
100
AcDbBlockTableRecord
2
DimnDraft3D1
340
0
70
0
0
BLOCK_RECORD
5
100
100
AcDbSymbolTableRecord
100
AcDbBlockTableRecord
2
DimnDraft3D2
340
0
70
0
0
BLOCK_RECORD
5
10A
100
AcDbSymbolTableRecord
100
AcDbBlockTableRecord
2
DimnDraft3D3
340
0
70
0
0
BLOCK_RECORD
5
114
100
AcDbSymbolTableRecord
100
AcDbBlockTableRecord
2
DimnDraft3D4
340
0
70
0
0
BLOCK_RECORD
5
11E
100
AcDbSymbolTableRecord
100
AcDbBlockTableRecord
2
DimnDraft3D5
340
0
70
0
0
BLOCK_RECORD
5
128
100
AcDbSymbolTableRecord
100
AcDbBlockTableRecord
2
DimnDraft3D6
340
0
70
0
0
BLOCK_RECORD
5
133
100
AcDbSymbolTableRecord
100
AcDbBlockTableRecord
2
DimnDraft3D7
340
0
70
0
0
ENDTAB
0
ENDSEC
0
SECTION
2
BLOCKS
0
BLOCK
5
20
100
AcDbEntity
8
0
100
AcDbBlockBegin
2
*Model_Space
70
0
10
0
20
0
30
0
3
*Model_Space
0
ENDBLK
5
21
100
AcDbEntity
8
0
100
AcDbBlockEnd
0
BLOCK
5
1C
100
AcDbEntity
8
0
100
AcDbBlockBegin
2
*Paper_Space
70
0
10
0
20
0
30
0
3
*Paper_Space
0
ENDBLK
5
1D
100
AcDbEntity
8
0
100
AcDbBlockEnd
0
BLOCK
5
24
100
AcDbEntity
8
0
100
AcDbBlockBegin
2
*Paper_Space0
70
0
10
0
20
0
30
0
3
*Paper_Space0
0
ENDBLK
5
25
100
AcDbEntity
8
0
100
AcDbBlockEnd
0
BLOCK
5
FD
100
AcDbEntity
8
0
100
AcDbBlockBegin
2
DimnDraft3D1
70
0
10
0
20
0
30
0
3
DimnDraft3D1
0
MTEXT
5
F7
100
AcDbEntity
8
SK2
62
256
6
ByLayer
370
13
48
1
60
0
100
AcDbMText
10
28.357675
20
-12.338398
30
0
210
0
220
0
230
1
1
\W0.6713;67,12
40
3.5
41
0
44
1.084337
50
0
71
7
72
5
7
iso_b_vert
0
LINE
5
F8
100
AcDbEntity
8
SK2
62
256
6
ByLayer
370
13
48
1
60
0
100
AcDbLine
10
0
20
-1.5875
30
0
11
0
21
-15.213398
31
0
39
0
210
0
220
0
230
1
0
LINE
5
F9
100
AcDbEntity
8
SK2
62
256
6
ByLayer
370
13
48
1
60
0
100
AcDbLine
10
67.1188
20
-4.5875
30
0
11
67.1188
21
-15.213398
31
0
39
0
210
0
220
0
230
1
0
LINE
5
FA
100
AcDbEntity
8
SK2
62
256
6
ByLayer
370
13
48
1
60
0
100
AcDbLine
10
0
20
-13.213398
30
0
11
67.1188
21
-13.213398
31
0
39
0
210
0
220
0
230
1
0
SOLID
5
FB
100
AcDbEntity
8
SK2
62
256
6
ByLayer
370
13
48
1
60
0
100
AcDbTrace
10
0
20
-13.213398
30
0
11
3.499998
21
-12.752615
31
0
12
3.500002
22
-13.674182
32
0
13
0
23
-13.213398
33
0
39
0
210
0
220
0
230
1
0
SOLID
5
FC
100
AcDbEntity
8
SK2
62
256
6
ByLayer
370
13
48
1
60
0
100
AcDbTrace
10
67.1188
20
-13.213398
30
0
11
63.618802
21
-13.674182
31
0
12
63.618798
22
-12.752615
32
0
13
67.1188
23
-13.213398
33
0
39
0
210
0
220
0
230
1
0
ENDBLK
5
FE
100
AcDbEntity
8
0
100
AcDbBlockEnd
0
BLOCK
5
107
100
AcDbEntity
8
0
100
AcDbBlockBegin
2
DimnDraft3D2
70
0
10
0
20
0
30
0
3
DimnDraft3D2
0
MTEXT
5
101
100
AcDbEntity
8
SK2
62
256
6
ByLayer
370
13
48
1
60
0
100
AcDbMText
10
10.956811
20
-30.817985
30
0
210
0
220
0
230
1
1
\W0.7145;104,00
40
3.5
41
0
44
1.084337
50
0
71
7
72
5
7
iso_b_vert
0
LINE
5
102
100
AcDbEntity
8
SK2
62
256
6
ByLayer
370
13
48
1
60
0
100
AcDbLine
10
-36
20
-4.5875
30
0
11
-36
21
-33.692985
31
0
39
0
210
0
220
0
230
1
0
LINE
5
103
100
AcDbEntity
8
SK2
62
256
6
ByLayer
370
13
48
1
60
0
100
AcDbLine
10
68
20
-1.5875
30
0
11
68
21
-33.692985
31
0
39
0
210
0
220
0
230
1
0
LINE
5
104
100
AcDbEntity
8
SK2
62
256
6
ByLayer
370
13
48
1
60
0
100
AcDbLine
10
-36
20
-31.692985
30
0
11
68
21
-31.692985
31
0
39
0
210
0
220
0
230
1
0
SOLID
5
105
100
AcDbEntity
8
SK2
62
256
6
ByLayer
370
13
48
1
60
0
100
AcDbTrace
10
-36
20
-31.692985
30
0
11
-32.500002
21
-31.232202
31
0
12
-32.499998
22
-32.153769
32
0
13
-36
23
-31.692985
33
0
39
0
210
0
220
0
230
1
0
SOLID
5
106
100
AcDbEntity
8
SK2
62
256
6
ByLayer
370
13
48
1
60
0
100
AcDbTrace
10
68
20
-31.692985
30
0
11
64.500002
21
-32.153769
31
0
12
64.499998
22
-31.232202
32
0
13
68
23
-31.692985
33
0
39
0
210
0
220
0
230
1
0
ENDBLK
5
108
100
AcDbEntity
8
0
100
AcDbBlockEnd
0
BLOCK
5
111
100
AcDbEntity
8
0
100
AcDbBlockBegin
2
DimnDraft3D3
70
0
10
0
20
0
30
0
3
DimnDraft3D3
0
MTEXT
5
10B
100
AcDbEntity
8
SK2
62
256
6
ByLayer
370
13
48
1
60
0
100
AcDbMText
10
38.927105
20
15.484119
30
0
210
0
220
0
230
1
1
\W0.7581;48,88
40
3.5
41
0
44
1.084337
50
0
71
7
72
5
7
iso_b_vert
0
LINE
5
10C
100
AcDbEntity
8
SK2
62
256
6
ByLayer
370
13
48
1
60
0
100
AcDbLine
10
19.12
20
4.5875
30
0
11
19.12
21
16.609119
31
0
39
0
210
0
220
0
230
1
0
LINE
5
10D
100
AcDbEntity
8
SK2
62
256
6
ByLayer
370
13
48
1
60
0
100
AcDbLine
10
68
20
1.5875
30
0
11
68
21
16.609119
31
0
39
0
210
0
220
0
230
1
0
LINE
5
10E
100
AcDbEntity
8
SK2
62
256
6
ByLayer
370
13
48
1
60
0
100
AcDbLine
10
19.12
20
14.609119
30
0
11
68
21
14.609119
31
0
39
0
210
0
220
0
230
1
0
SOLID
5
10F
100
AcDbEntity
8
SK2
62
256
6
ByLayer
370
13
48
1
60
0
100
AcDbTrace
10
19.12
20
14.609119
30
0
11
22.619998
21
15.069903
31
0
12
22.620002
22
14.148335
32
0
13
19.12
23
14.609119
33
0
39
0
210
0
220
0
230
1
0
SOLID
5
110
100
AcDbEntity
8
SK2
62
256
6
ByLayer
370
13
48
1
60
0
100
AcDbTrace
10
68
20
14.609119
30
0
11
64.500002
21
14.148335
31
0
12
64.499998
22
15.069903
32
0
13
68
23
14.609119
33
0
39
0
210
0
220
0
230
1
0
ENDBLK
5
112
100
AcDbEntity
8
0
100
AcDbBlockEnd
0
BLOCK
5
11B
100
AcDbEntity
8
0
100
AcDbBlockBegin
2
DimnDraft3D4
70
0
10
0
20
0
30
0
3
DimnDraft3D4
0
MTEXT
5
115
100
AcDbEntity
8
SK2
62
256
6
ByLayer
370
13
48
1
60
0
100
AcDbMText
10
74.840636
20
-14.927503
30
0
210
0
220
0
230
1
1
\W0.7150;0,88
40
3.5
41
0
44
1.084337
50
0
71
7
72
5
7
iso_b_vert
0
LINE
5
116
100
AcDbEntity
8
SK2
62
256
6
ByLayer
370
13
48
1
60
0
100
AcDbLine
10
68
20
-1.5875
30
0
11
68
21
-17.802503
31
0
39
0
210
0
220
0
230
1
0
LINE
5
117
100
AcDbEntity
8
SK2
62
256
6
ByLayer
370
13
48
1
60
0
100
AcDbLine
10
67.1188
20
-4.5875
30
0
11
67.1188
21
-17.802503
31
0
39
0
210
0
220
0
230
1
0
LINE
5
118
100
AcDbEntity
8
SK2
62
256
6
ByLayer
370
13
48
1
60
0
100
AcDbLine
10
58.3688
20
-15.802503
30
0
11
81.997215
21
-15.802503
31
0
39
0
210
0
220
0
230
1
0
SOLID
5
119
100
AcDbEntity
8
SK2
62
256
6
ByLayer
370
13
48
1
60
0
100
AcDbTrace
10
68
20
-15.802503
30
0
11
71.499998
21
-15.341719
31
0
12
71.500002
22
-16.263287
32
0
13
68
23
-15.802503
33
0
39
0
210
0
220
0
230
1
0
SOLID
5
11A
100
AcDbEntity
8
SK2
62
256
6
ByLayer
370
13
48
1
60
0
100
AcDbTrace
10
67.1188
20
-15.802503
30
0
11
63.618802
21
-16.263287
31
0
12
63.618798
22
-15.341719
32
0
13
67.1188
23
-15.802503
33
0
39
0
210
0
220
0
230
1
0
ENDBLK
5
11C
100
AcDbEntity
8
0
100
AcDbBlockEnd
0
BLOCK
5
125
100
AcDbEntity
8
0
100
AcDbBlockBegin
2
DimnDraft3D5
70
0
10
0
20
0
30
0
3
DimnDraft3D5
0
MTEXT
5
11F
100
AcDbEntity
8
SK2
62
256
6
ByLayer
370
13
48
1
60
0
100
AcDbMText
10
8.497897
20
-20.468428
30
0
210
0
220
0
230
1
1
\W0.6440;103,12
40
3.5
41
0
44
1.084337
50
0
71
7
72
5
7
iso_b_vert
0
LINE
5
120
100
AcDbEntity
8
SK2
62
256
6
ByLayer
370
13
48
1
60
0
100
AcDbLine
10
-36
20
-4.5875
30
0
11
-36
21
-23.343428
31
0
39
0
210
0
220
0
230
1
0
LINE
5
121
100
AcDbEntity
8
SK2
62
256
6
ByLayer
370
13
48
1
60
0
100
AcDbLine
10
67.1188
20
-4.5875
30
0
11
67.1188
21
-23.343428
31
0
39
0
210
0
220
0
230
1
0
LINE
5
122
100
AcDbEntity
8
SK2
62
256
6
ByLayer
370
13
48
1
60
0
100
AcDbLine
10
-36
20
-21.343428
30
0
11
67.1188
21
-21.343428
31
0
39
0
210
0
220
0
230
1
0
SOLID
5
123
100
AcDbEntity
8
SK2
62
256
6
ByLayer
370
13
48
1
60
0
100
AcDbTrace
10
-36
20
-21.343428
30
0
11
-32.500002
21
-20.882645
31
0
12
-32.499998
22
-21.804212
32
0
13
-36
23
-21.343428
33
0
39
0
210
0
220
0
230
1
0
SOLID
5
124
100
AcDbEntity
8
SK2
62
256
6
ByLayer
370
13
48
1
60
0
100
AcDbTrace
10
67.1188
20
-21.343428
30
0
11
63.618802
21
-21.804212
31
0
12
63.618798
22
-20.882645
32
0
13
67.1188
23
-21.343428
33
0
39
0
210
0
220
0
230
1
0
ENDBLK
5
126
100
AcDbEntity
8
0
100
AcDbBlockEnd
0
BLOCK
5
130
100
AcDbEntity
8
0
100
AcDbBlockBegin
2
DimnDraft3D6
70
0
10
0
20
0
30
0
3
DimnDraft3D6
0
MTEXT
5
129
100
AcDbEntity
8
SK2
62
256
6
ByLayer
370
13
48
1
60
0
100
AcDbMText
10
-46.375163
20
22.34918
30
0
210
0
220
0
230
1
1
\W0.7317;6,000
40
3.5
41
0
44
1.084337
50
90
71
7
72
5
7
iso_b_vert
0
MTEXT
5
12A
100
AcDbEntity
8
SK2
62
256
6
ByLayer
370
13
48
1
60
0
100
AcDbMText
10
-46.375163
20
17.126524
30
0
210
0
220
0
230
1
1
%%c
40
3.5
41
0
44
1.084337
50
90
71
7
72
5
7
iso_b_vert
0
LINE
5
12B
100
AcDbEntity
8
SK2
62
256
6
ByLayer
370
13
48
1
60
0
100
AcDbLine
10
-37.5875
20
-3
30
0
11
-46.625163
21
-3
31
0
39
0
210
0
220
0
230
1
0
LINE
5
12C
100
AcDbEntity
8
SK2
62
256
6
ByLayer
370
13
48
1
60
0
100
AcDbLine
10
-37.5875
20
3
30
0
11
-46.625163
21
3
31
0
39
0
210
0
220
0
230
1
0
LINE
5
12D
100
AcDbEntity
8
SK2
62
256
6
ByLayer
370
13
48
1
60
0
100
AcDbLine
10
-44.625163
20
32.121549
30
0
11
-44.625163
21
-11.75
31
0
39
0
210
0
220
0
230
1
0
SOLID
5
12E
100
AcDbEntity
8
SK2
62
256
6
ByLayer
370
13
48
1
60
0
100
AcDbTrace
10
-44.625163
20
-3
30
0
11
-44.164379
21
-6.499998
31
0
12
-45.085946
22
-6.500002
32
0
13
-44.625163
23
-3
33
0
39
0
210
0
220
0
230
1
0
SOLID
5
12F
100
AcDbEntity
8
SK2
62
256
6
ByLayer
370
13
48
1
60
0
100
AcDbTrace
10
-44.625163
20
3
30
0
11
-45.085946
21
6.499998
31
0
12
-44.164379
22
6.500002
32
0
13
-44.625163
23
3
33
0
39
0
210
0
220
0
230
1
0
ENDBLK
5
131
100
AcDbEntity
8
0
100
AcDbBlockEnd
0
BLOCK
5
13B
100
AcDbEntity
8
0
100
AcDbBlockBegin
2
DimnDraft3D7
70
0
10
0
20
0
30
0
3
DimnDraft3D7
0
MTEXT
5
134
100
AcDbEntity
8
2
62
256
6
ByLayer
370
13
48
1
60
0
100
AcDbMText
10
78.333343
20
20.942266
30
0
210
0
220
0
230
1
1
\W0.7317;6,000
40
3.5
41
0
44
1.084337
50
90
71
7
72
5
7
iso_b_vert
0
MTEXT
5
135
100
AcDbEntity
8
2
62
256
6
ByLayer
370
13
48
1
60
0
100
AcDbMText
10
78.333343
20
15.71961
30
0
210
0
220
0
230
1
1
%%c
40
3.5
41
0
44
1.084337
50
90
71
7
72
5
7
iso_b_vert
0
LINE
5
136
100
AcDbEntity
8
2
62
256
6
ByLayer
370
13
48
1
60
0
100
AcDbLine
10
68.7063
20
-3
30
0
11
82.083343
21
-3
31
0
39
0
210
0
220
0
230
1
0
LINE
5
137
100
AcDbEntity
8
2
62
256
6
ByLayer
370
13
48
1
60
0
100
AcDbLine
10
68.7063
20
3
30
0
11
82.083343
21
3
31
0
39
0
210
0
220
0
230
1
0
LINE
5
138
100
AcDbEntity
8
2
62
256
6
ByLayer
370
13
48
1
60
0
100
AcDbLine
10
80.083343
20
30.714635
30
0
11
80.083343
21
-11.75
31
0
39
0
210
0
220
0
230
1
0
SOLID
5
139
100
AcDbEntity
8
2
62
256
6
ByLayer
370
13
48
1
60
0
100
AcDbTrace
10
80.083343
20
-3
30
0
11
80.544126
21
-6.499998
31
0
12
79.622559
22
-6.500002
32
0
13
80.083343
23
-3
33
0
39
0
210
0
220
0
230
1
0
SOLID
5
13A
100
AcDbEntity
8
2
62
256
6
ByLayer
370
13
48
1
60
0
100
AcDbTrace
10
80.083343
20
3
30
0
11
79.622559
21
6.499998
31
0
12
80.544126
22
6.500002
32
0
13
80.083343
23
3
33
0
39
0
210
0
220
0
230
1
0
ENDBLK
5
13C
100
AcDbEntity
8
0
100
AcDbBlockEnd
0
ENDSEC
0
SECTION
2
ENTITIES
0
ELLIPSE
5
9E
100
AcDbEntity
8
1
62
256
6
ByLayer
370
18
48
1
60
0
100
AcDbEllipse
10
7.318681
20
3.062319
30
0
11
0.25
21
0
31
0
210
0
220
0
230
1
40
1
41
-2.73011375440136
42
-1.75689125400826
0
ELLIPSE
5
9F
100
AcDbEntity
8
1
62
256
6
ByLayer
370
18
48
1
60
0
100
AcDbEllipse
10
7.318681
20
-3.062319
30
0
11
0.25
21
0
31
0
210
0
220
0
230
1
40
1
41
2.02603555430645
42
2.73046756233592
0
ELLIPSE
5
A0
100
AcDbEntity
8
1
62
256
6
ByLayer
370
13
48
1
60
0
100
AcDbEllipse
10
7.245127
20
1.174119
30
0
11
-0.0587322233108974
21
-0.080935319514776
31
0
210
0
220
0
230
1
40
0.233617
41
-0.963666864966224
42
-0.362660260315515
0
POINT
5
6C
100
AcDbEntity
8
81
62
256
6
ByLayer
370
18
48
1
60
0
100
AcDbPoint
10
68
20
0
30
0
39
0
210
0
220
0
230
1
50
360
0
POINT
5
6E
100
AcDbEntity
8
80
62
256
6
ByLayer
370
18
48
1
60
0
100
AcDbPoint
10
0
20
0
30
0
39
0
210
0
220
0
230
1
50
360
0
POINT
5
70
100
AcDbEntity
8
SK2
62
256
6
ByLayer
370
18
48
1
60
1
100
AcDbPoint
10
-36
20
-3
30
0
39
0
210
0
220
0
230
1
50
360
0
POINT
5
72
100
AcDbEntity
8
SK2
62
256
6
ByLayer
370
18
48
1
60
1
100
AcDbPoint
10
-36
20
3
30
0
39
0
210
0
220
0
230
1
50
360
0
POINT
5
73
100
AcDbEntity
8
2
62
256
6
ByLayer
370
18
48
1
60
1
100
AcDbPoint
10
67.1188
20
-3
30
0
39
0
210
0
220
0
230
1
50
360
0
POINT
5
75
100
AcDbEntity
8
2
62
256
6
ByLayer
370
18
48
1
60
1
100
AcDbPoint
10
67.1188
20
3
30
0
39
0
210
0
220
0
230
1
50
360
0
SPLINE
5
A1
100
AcDbEntity
8
1
62
256
6
ByLayer
370
18
48
1
60
0
100
AcDbSpline
70
4
71
1
72
4
73
2
40
0
40
0
40
1
40
1
41
1
10
7.35341777662319
20
2.81063836655389
30
0
41
1
10
7.31860605655257
20
2.81035492351222
30
0
0
SPLINE
5
A2
100
AcDbEntity
8
1
62
256
6
ByLayer
370
18
48
1
60
0
100
AcDbSpline
70
4
71
3
72
22
73
18
40
0
40
0
40
0
40
0
40
0.105620560481633
40
0.180313904865778
40
0.225702076596329
40
0.263597238010915
40
0.301317685197743
40
0.340913037572638
40
0.383810100107061
40
0.510892861013219
40
0.632694501675919
40
0.692229707157329
40
0.74963456243975
40
0.811830879106778
40
0.887815805548986
40
0.963134048373138
40
1
40
1
40
1
40
1
41
1
10
50.2333819996943
20
-2.83956408064947
30
0
41
1
10
50.4099613850819
20
-2.83961233678275
30
0
41
1
10
50.7114705663778
20
-2.83968656647198
30
0
41
1
10
51.089248094633
20
-2.8395295063211
30
0
41
1
10
51.353436046462
20
-2.83967313654065
30
0
41
1
10
51.555641622038
20
-2.83996361288135
30
0
41
1
10
51.7480998233419
20
-2.84051628239814
30
0
41
1
10
51.9492064988078
20
-2.8407028233793
30
0
41
1
10
52.2999202682761
20
-2.84072608350107
30
0
41
1
10
52.7877346677083
20
-2.84044988844133
30
0
41
1
10
53.3039387437576
20
-2.84026211485528
30
0
41
1
10
53.7033352292854
20
-2.84187790579301
30
0
41
1
10
54.0030788233651
20
-2.84163941407948
30
0
41
1
10
54.3303476540559
20
-2.84116302455621
30
0
41
1
10
54.687560352619
20
-2.8404747204543
30
0
41
1
10
55.0025030997792
20
-2.84062608159877
30
0
41
1
10
55.1900243215807
20
-2.84091687047871
30
0
41
1
10
55.2516338857956
20
-2.8410399224388
30
0
0
SPLINE
5
A3
100
AcDbEntity
8
1
62
256
6
ByLayer
370
18
48
1
60
0
100
AcDbSpline
70
4
71
3
72
16
73
12
40
0
40
0
40
0
40
0
40
0.0964964731235458
40
0.222158326292034
40
0.331009405337015
40
0.424900943037628
40
0.520936485312177
40
0.662759344594728
40
0.817046341943755
40
0.965092913922732
40
1
40
1
40
1
40
1
41
1
10
22.5619415564849
20
2.82243895560572
30
0
41
1
10
22.4470483403382
20
2.82219487104788
30
0
41
1
10
22.1824809752318
20
2.82160771703818
30
0
41
1
10
21.7879188411055
20
2.82155945920627
30
0
41
1
10
21.3965871085591
20
2.8197304265496
30
0
41
1
10
21.0404768238582
20
2.82007586831597
30
0
41
1
10
20.6458133717155
20
2.82029264950523
30
0
41
1
10
20.1783909127364
20
2.82159103556865
30
0
41
1
10
19.6492299381107
20
2.81975164829393
30
0
41
1
10
19.247315571199
20
2.81972371539021
30
0
41
1
10
19.0292663846141
20
2.81964406696574
30
0
41
1
10
18.9876653329607
20
2.81962754425669
30
0
0
SPLINE
5
A4
100
AcDbEntity
8
1
62
256
6
ByLayer
370
18
48
1
60
0
100
AcDbSpline
70
4
71
3
72
21
73
17
40
0
40
0
40
0
40
0
40
0.114871628335606
40
0.190656149838664
40
0.237139324372627
40
0.281688886379564
40
0.327919194787752
40
0.37945577130715
40
0.509980757011929
40
0.62985209690397
40
0.689774307892117
40
0.748059406416301
40
0.811167616197095
40
0.887240612276289
40
0.962482592919793
40
1
40
1
40
1
40
1
41
1
10
17.5323274478787
20
-2.81895737757043
30
0
41
1
10
17.7248427086294
20
-2.81910805749732
30
0
41
1
10
18.0443859892808
20
-2.81931623050335
30
0
41
1
10
18.4421341881977
20
-2.81939379962344
30
0
41
1
10
18.7216581612247
20
-2.81951695389307
30
0
41
1
10
18.9518371957908
20
-2.8196094125484
30
0
41
1
10
19.1904658057041
20
-2.81971880150218
30
0
41
1
10
19.5732718309404
20
-2.81971899897977
30
0
41
1
10
20.079486331231
20
-2.82175106969632
30
0
41
1
10
20.5998800130661
20
-2.82037056193391
30
0
41
1
10
20.9984780531424
20
-2.82009163467902
30
0
41
1
10
21.3024002230935
20
-2.81982345642936
30
0
41
1
10
21.633549819968
20
-2.82062677213682
30
0
41
1
10
21.993047723967
20
-2.82176294077482
30
0
41
1
10
22.3097932215557
20
-2.82192258606332
30
0
41
1
10
22.4986177430661
20
-2.82226474082103
30
0
41
1
10
22.5614255786128
20
-2.82237839217814
30
0
0
SPLINE
5
A5
100
AcDbEntity
8
1
62
256
6
ByLayer
370
18
48
1
60
0
100
AcDbSpline
70
4
71
3
72
21
73
17
40
0
40
0
40
0
40
0
40
0.116934917748181
40
0.193460102848544
40
0.23983070806496
40
0.284242845518699
40
0.33030968519005
40
0.381544092914548
40
0.511422855895282
40
0.631492555535847
40
0.691182084714231
40
0.749250730544385
40
0.812388951794414
40
0.888742709053035
40
0.963926323752013
40
1
40
1
40
1
40
1
41
1
10
33.8849724361648
20
-2.82902922224679
30
0
41
1
10
34.0806677984808
20
-2.82921651081796
30
0
41
1
10
34.4044399016542
20
-2.82946342501566
30
0
41
1
10
34.8061082971144
20
-2.82986743333132
30
0
41
1
10
35.0860173879933
20
-2.82983775065554
30
0
41
1
10
35.3151790340651
20
-2.82971528853034
30
0
41
1
10
35.5524374096505
20
-2.82965131780415
30
0
41
1
10
35.9328140139003
20
-2.82952815103897
30
0
41
1
10
36.4370870834113
20
-2.83145890352972
30
0
41
1
10
36.9555193694269
20
-2.83095345335951
30
0
41
1
10
37.3537204306489
20
-2.83081480954982
30
0
41
1
10
37.6565953354443
20
-2.83073558258141
30
0
41
1
10
37.98737996806
20
-2.83141373794095
30
0
41
1
10
38.3467907228867
20
-2.83197663994693
30
0
41
1
10
38.6609900513537
20
-2.83182365763585
30
0
41
1
10
38.8470198478883
20
-2.83176480677844
30
0
41
1
10
38.9073207167118
20
-2.83173582070515
30
0
0
SPLINE
5
A6
100
AcDbEntity
8
1
62
256
6
ByLayer
370
18
48
1
60
0
100
AcDbSpline
70
4
71
1
72
4
73
2
40
0
40
0
40
1
40
1
41
1
10
66.585296749412
20
-2.84981901394139
30
0
41
1
10
66.9525998824474
20
-2.84991545607116
30
0
0
SPLINE
5
A7
100
AcDbEntity
8
1
62
256
6
ByLayer
370
18
48
1
60
0
100
AcDbSpline
70
4
71
3
72
16
73
12
40
0
40
0
40
0
40
0
40
0.0942170675673082
40
0.219971510286202
40
0.328902294511291
40
0.422375993926652
40
0.517903231259925
40
0.65979919555392
40
0.813406182762482
40
0.96032078313381
40
1
40
1
40
1
40
1
41
1
10
38.9077275854531
20
2.83177007713195
30
0
41
1
10
38.7955722676556
20
2.83179272696395
30
0
41
1
10
38.5336601635792
20
2.83175444106365
30
0
41
1
10
38.1416692827576
20
2.83194803410126
30
0
41
1
10
37.7506608382201
20
2.83074276122238
30
0
41
1
10
37.3956524066244
20
2.83080265539439
30
0
41
1
10
37.0013636660296
20
2.8309205256657
30
0
41
1
10
36.5354215272461
20
2.83141635955639
30
0
41
1
10
36.0082514149232
20
2.82964201976816
30
0
41
1
10
35.6028717699855
20
2.82961611453109
30
0
41
1
10
35.3805352380549
20
2.82969801575479
30
0
41
1
10
35.3332548896294
20
2.82971759344139
30
0
0
SPLINE
5
A8
100
AcDbEntity
8
1
62
256
6
ByLayer
370
18
48
1
60
0
100
AcDbSpline
70
4
71
3
72
16
73
12
40
0
40
0
40
0
40
0
40
0.0943814680017217
40
0.219484706300818
40
0.326424970370072
40
0.418164321258425
40
0.5127519276971
40
0.65605588797005
40
0.806934363934293
40
0.948406217796997
40
1
40
1
40
1
40
1
41
1
10
55.2510607378861
20
2.84104629261964
30
0
41
1
10
55.1380474051364
20
2.84080012869495
30
0
41
1
10
54.8751931569135
20
2.84043252232004
30
0
41
1
10
54.4839978395496
20
2.84082690808441
30
0
41
1
10
54.0960553232029
20
2.84153309648147
30
0
41
1
10
53.7446363910099
20
2.84196079649038
30
0
41
1
10
53.3497502563094
20
2.84044250310507
30
0
41
1
10
52.8838072094967
20
2.84031430198417
30
0
41
1
10
52.3621604499956
20
2.84071209327402
30
0
41
1
10
51.9498130856561
20
2.84087331800254
30
0
41
1
10
51.7187347775803
20
2.84037508720002
30
0
41
1
10
51.6569918499482
20
2.8402398007234
30
0
0
SPLINE
5
A9
100
AcDbEntity
8
1
62
256
6
ByLayer
370
18
48
1
60
0
100
AcDbSpline
70
4
71
1
72
4
73
2
40
0
40
0
40
1
40
1
41
1
10
7.32650810020658
20
-2.81041926331369
30
0
41
1
10
7.35406618674034
20
-2.81064364601778
30
0
0
SPLINE
5
AA
100
AcDbEntity
8
1
62
256
6
ByLayer
370
18
48
1
60
0
100
AcDbSpline
70
4
71
3
72
10
73
6
40
0
40
0
40
0
40
0
40
0.5
40
0.5
40
1
40
1
40
1
40
1
41
1
10
8.26266603594937
20
2.59129054726699
30
0
41
1
10
8.09374064992335
20
2.65774189461598
30
0
41
1
10
7.93115707326919
20
2.71072299338383
30
0
41
1
10
7.61690541445873
20
2.78588870853645
30
0
41
1
10
7.4652292902943
20
2.8081600854328
30
0
41
1
10
7.31860331522068
20
2.81180788260363
30
0
0
SPLINE
5
AB
100
AcDbEntity
8
1
62
256
6
ByLayer
370
13
48
1
60
0
100
AcDbSpline
70
4
71
3
72
20
73
16
40
0
40
0
40
0
40
0
40
0.125
40
0.125
40
0.25
40
0.25
40
0.500000000000001
40
0.500000000000001
40
0.625
40
0.625
40
0.75
40
0.75
40
0.875
40
0.875
40
1
40
1
40
1
40
1
41
1
10
7.31892392637704
20
1.09028926761678
30
0
41
1
10
7.31891470651743
20
1.21581506973516
30
0
41
1
10
7.31890036781422
20
1.33642721321513
30
0
41
1
10
7.31886485187317
20
1.5680292666861
30
0
41
1
10
7.31884349490494
20
1.67973301281415
30
0
41
1
10
7.31877549078263
20
1.99326007654986
30
0
41
1
10
7.31872521508166
20
2.17446808952121
30
0
41
1
10
7.31866134054201
20
2.40371822685472
30
0
41
1
10
7.31864233821426
20
2.47157740464274
30
0
41
1
10
7.31861133341275
20
2.59011610149622
30
0
41
1
10
7.31859949360225
20
2.64025075101742
30
0
41
1
10
7.31858476615957
20
2.72144821073991
30
0
41
1
10
7.31858180216582
20
2.75277891658729
30
0
41
1
10
7.31858540573742
20
2.79670983981248
30
0
41
1
10
7.31859208440886
20
2.80922799788826
30
0
41
1
10
7.31860331503526
20
2.81180788260369
30
0
0
SPLINE
5
AC
100
AcDbEntity
8
1
62
256
6
ByLayer
370
18
48
1
60
0
100
AcDbSpline
70
4
71
3
72
36
73
32
40
0
40
0
40
0
40
0
40
0.11156980826758
40
0.11156980826758
40
0.16735471240137
40
0.16735471240137
40
0.223139616535159
40
0.223139616535159
40
0.334709424802737
40
0.334709424802737
40
0.390494328936526
40
0.390494328936526
40
0.446279233070314
40
0.446279233070314
40
0.557849041337892
40
0.557849041337892
40
0.613633945471682
40
0.613633945471682
40
0.669418849605471
40
0.669418849605471
40
0.72520375373926
40
0.72520375373926
40
0.78098865787305
40
0.78098865787305
40
0.836773562006839
40
0.836773562006839
40
0.892558466140628
40
0.892558466140628
40
0.948343370274418
40
0.948343370274418
40
1
40
1
40
1
40
1
41
1
10
8.26266603594934
20
0.0399679466544853
30
0
41
1
10
8.56943170092015
20
-0.139297186654431
30
0
41
1
10
8.87649317525694
20
-0.312577148947071
30
0
41
1
10
9.335662862589
20
-0.5678529745866
30
0
41
1
10
9.48842328635979
20
-0.652259898487756
30
0
41
1
10
9.7928481153923
20
-0.820539773642736
30
0
41
1
10
9.94418794115535
20
-0.904946806536458
30
0
41
1
10
10.4001338875418
20
-1.15116968348951
30
0
41
1
10
10.7057272200459
20
-1.30774560859638
30
0
41
1
10
11.1645719073602
20
-1.53455958065845
30
0
41
1
10
11.3174864413218
20
-1.60897568270465
30
0
41
1
10
11.6235551455382
20
-1.75480570803865
30
0
41
1
10
11.7777821023237
20
-1.82510484018528
30
0
41
1
10
12.2408386529692
20
-2.02730339954022
30
0
41
1
10
12.5492924938012
20
-2.1510423581731
30
0
41
1
10
13.0098178118716
20
-2.32191775870328
30
0
41
1
10
13.162878513665
20
-2.37642723461369
30
0
41
1
10
13.470902820543
20
-2.47757924556791
30
0
41
1
10
13.6256516162121
20
-2.52469441334102
30
0
41
1
10
13.9343052636352
20
-2.61223116059119
30
0
41
1
10
14.0884026466059
20
-2.65263798172924
30
0
41
1
10
14.3960003836983
20
-2.72676581995535
30
0
41
1
10
14.5490050856907
20
-2.76079255577028
30
0
41
1
10
14.855927488406
20
-2.82092851034429
30
0
41
1
10
15.0099562012803
20
-2.84704130880527
30
0
41
1
10
15.3187370371455
20
-2.89179298827753
30
0
41
1
10
15.4733499008129
20
-2.91044001515465
30
0
41
1
10
15.7808425032683
20
-2.94008162445763
30
0
41
1
10
15.9340700271184
20
-2.95112201042795
30
0
41
1
10
16.2272587261426
20
-2.96507295227599
30
0
41
1
10
16.368225719527
20
-2.96836683311025
30
0
41
1
10
16.5093664830299
20
-2.96839967845224
30
0
0
SPLINE
5
AD
100
AcDbEntity
8
1
62
256
6
ByLayer
370
18
48
1
60
0
100
AcDbSpline
70
4
71
3
72
84
73
80
40
0
40
0
40
0
40
0
40
0.0411597202508312
40
0.0411597202508312
40
0.0624200361475904
40
0.0624200361475904
40
0.0836803520443495
40
0.0836803520443495
40
0.104940667941109
40
0.104940667941109
40
0.126200983837868
40
0.126200983837868
40
0.168721615631387
40
0.168721615631387
40
0.189981931528147
40
0.189981931528147
40
0.211242247424907
40
0.211242247424907
40
0.232502563321667
40
0.232502563321667
40
0.253762879218427
40
0.253762879218427
40
0.275023195115187
40
0.275023195115187
40
0.296283511011947
40
0.296283511011947
40
0.317543826908707
40
0.317543826908707
40
0.338804142805467
40
0.338804142805467
40
0.381324774598985
40
0.381324774598985
40
0.402585090495744
40
0.402585090495744
40
0.423845406392503
40
0.423845406392503
40
0.466366038186023
40
0.466366038186023
40
0.487626354082782
40
0.487626354082782
40
0.508886669979541
40
0.508886669979541
40
0.55140730177306
40
0.55140730177306
40
0.593927933566578
40
0.593927933566578
40
0.615188249463337
40
0.615188249463337
40
0.636448565360097
40
0.636448565360097
40
0.678969197153613
40
0.678969197153613
40
0.700229513050372
40
0.700229513050372
40
0.721489828947132
40
0.721489828947132
40
0.742750144843891
40
0.742750144843891
40
0.76401046074065
40
0.76401046074065
40
0.78527077663741
40
0.78527077663741
40
0.806531092534169
40
0.806531092534169
40
0.827791408430928
40
0.827791408430928
40
0.849051724327687
40
0.849051724327687
40
0.891572356121206
40
0.891572356121206
40
0.912832672017965
40
0.912832672017965
40
0.934092987914724
40
0.934092987914724
40
0.976613619708242
40
0.976613619708242
40
0.997873935605001
40
0.997873935605001
40
1
40
1
40
1
40
1
41
1
10
27.6074861945871
20
1.58487291556457
30
0
41
1
10
27.9062607167651
20
1.72849239372266
30
0
41
1
10
28.2049213623657
20
1.86348677583803
30
0
41
1
10
28.6546754698698
20
2.05691717240796
30
0
41
1
10
28.8076994796169
20
2.12033529603784
30
0
41
1
10
29.1153192546839
20
2.24000064991068
30
0
41
1
10
29.2697017116586
20
2.29671880262185
30
0
41
1
10
29.5783472307458
20
2.40436416177263
30
0
41
1
10
29.7321026643506
20
2.4549804681962
30
0
41
1
10
30.0382201155568
20
2.55006821578093
30
0
41
1
10
30.190127358484
20
2.59490936719084
30
0
41
1
10
30.6467476666481
20
2.71735208313169
30
0
41
1
10
30.9517602001652
20
2.78389574133416
30
0
41
1
10
31.4081524737836
20
2.86318456767975
30
0
41
1
10
31.5600979083384
20
2.88614660164839
30
0
41
1
10
31.8632773833444
20
2.92493582589682
30
0
41
1
10
32.015502121129
20
2.94036666332119
30
0
41
1
10
32.3211442566181
20
2.96359542626357
30
0
41
1
10
32.4744712708556
20
2.97142323630717
30
0
41
1
10
32.781771148687
20
2.97948251691594
30
0
41
1
10
32.9361403366499
20
2.97969829619322
30
0
41
1
10
33.2436340919475
20
2.97220252403395
30
0
41
1
10
33.3965144301651
20
2.96440233911119
30
0
41
1
10
33.7035968278242
20
2.94128113814139
30
0
41
1
10
33.8574711502933
20
2.92597864009747
30
0
41
1
10
34.1652349305885
20
2.8878617071127
30
0
41
1
10
34.3191531107408
20
2.86504351234626
30
0
41
1
10
34.6270018817705
20
2.81171876034171
30
0
41
1
10
34.7806305954487
20
2.78087427529036
30
0
41
1
10
35.2410549200682
20
2.6778172025233
30
0
41
1
10
35.5491064404445
20
2.59624559363229
30
0
41
1
10
36.0105665395416
20
2.4535210685811
30
0
41
1
10
36.1644373081784
20
2.40266686722873
30
0
41
1
10
36.4713257250901
20
2.29309163798121
30
0
41
1
10
36.6249410375324
20
2.23513029350835
30
0
41
1
10
37.0852073657926
20
2.05554604507225
30
0
41
1
10
37.3912013671927
20
1.92654095689986
30
0
41
1
10
37.8473477066087
20
1.71715586771987
30
0
41
1
10
37.9984922731051
20
1.64403240915169
30
0
41
1
10
38.3019578839011
20
1.49550122418265
30
0
41
1
10
38.4541222712679
20
1.41990405391994
30
0
41
1
10
38.9111282735321
20
1.18806988208601
30
0
41
1
10
39.2163813697898
20
1.02669146168307
30
0
41
1
10
39.8266495298156
20
0.68674126870647
30
0
41
1
10
40.1362795559814
20
0.514559972516167
30
0
41
1
10
40.5978045156129
20
0.253459776723588
30
0
41
1
10
40.7514929041968
20
0.166004708358486
30
0
41
1
10
41.0579905299223
20
-0.0107597523639811
30
0
41
1
10
41.2107095994567
20
-0.100230904407198
30
0
41
1
10
41.6716339528619
20
-0.364253158989015
30
0
41
1
10
41.981049872188
20
-0.537547396376368
30
0
41
1
10
42.4418167021523
20
-0.793948887746836
30
0
41
1
10
42.5946006010303
20
-0.879636856615605
30
0
41
1
10
42.9008713270948
20
-1.04750700954443
30
0
41
1
10
43.0545415605253
20
-1.12940501838523
30
0
41
1
10
43.3625770380741
20
-1.2898154409944
30
0
41
1
10
43.5170915271678
20
-1.36859635912867
30
0
41
1
10
43.8245323620698
20
-1.52220051120528
30
0
41
1
10
43.9777220939209
20
-1.59697458442273
30
0
41
1
10
44.2820223789861
20
-1.74389494192766
30
0
41
1
10
44.4340205609572
20
-1.81466896126167
30
0
41
1
10
44.7385155550139
20
-1.94997173146325
30
0
41
1
10
44.8908265943703
20
-2.01478245369728
30
0
41
1
10
45.1950867147708
20
-2.13945111618236
30
0
41
1
10
45.3471348251233
20
-2.19917957658421
30
0
41
1
10
45.6507319351558
20
-2.31371366396135
30
0
41
1
10
45.8018746529735
20
-2.36892961042804
30
0
41
1
10
46.2578778868622
20
-2.52327990661274
30
0
41
1
10
46.5643196850037
20
-2.61255867975737
30
0
41
1
10
47.0257155131595
20
-2.72769240424935
30
0
41
1
10
47.1796058388986
20
-2.76296844208358
30
0
41
1
10
47.4858675745435
20
-2.82619347110258
30
0
41
1
10
47.6393002859064
20
-2.85374960531377
30
0
41
1
10
48.1002820888459
20
-2.92491942432744
30
0
41
1
10
48.4081501112882
20
-2.95739514787502
30
0
41
1
10
48.8690195383889
20
-2.98332124244862
30
0
41
1
10
49.0221102635287
20
-2.98802544131487
30
0
41
1
10
49.191045668876
20
-2.98881449385664
30
0
41
1
10
49.206406033891
20
-2.9888473516931
30
0
41
1
10
49.2217684633208
20
-2.98884139398984
30
0
0
SPLINE
5
AE
100
AcDbEntity
8
1
62
256
6
ByLayer
370
18
48
1
60
0
100
AcDbSpline
70
4
71
3
72
30
73
26
40
0
40
0
40
0
40
0
40
0.0491713158797765
40
0.0491713158797765
40
0.11708765045979
40
0.11708765045979
40
0.185003985039806
40
0.185003985039806
40
0.320836654199834
40
0.320836654199834
40
0.38875298877985
40
0.38875298877985
40
0.456669323359867
40
0.456669323359867
40
0.592501992519901
40
0.592501992519901
40
0.660418327099917
40
0.660418327099917
40
0.728334661679934
40
0.728334661679934
40
0.79625099625995
40
0.79625099625995
40
0.864167330839967
40
0.864167330839967
40
1
40
1
40
1
40
1
41
1
10
60.3121428428473
20
1.59485890827943
30
0
41
1
10
60.4227158582922
20
1.64842456153181
30
0
41
1
10
60.5335387069567
20
1.70089199455714
30
0
41
1
10
60.7978190362567
20
1.82352132280809
30
0
41
1
10
60.9517454304898
20
1.8927456647155
30
0
41
1
10
61.2590618303735
20
2.02711558723681
30
0
41
1
10
61.4117242744006
20
2.0925340930778
30
0
41
1
10
61.8714701789746
20
2.27748861714824
30
0
41
1
10
62.1790567637963
20
2.38767179659425
30
0
41
1
10
62.6400868315311
20
2.53567569266593
30
0
41
1
10
62.7936436721964
20
2.58236546988997
30
0
41
1
10
63.1000363554115
20
2.66873587577197
30
0
41
1
10
63.2534877688623
20
2.70796125001908
30
0
41
1
10
63.714304203809
20
2.81452361326512
30
0
41
1
10
64.0218293984753
20
2.87113995242632
30
0
41
1
10
64.4817383779854
20
2.93457475758669
30
0
41
1
10
64.6350035956401
20
2.95197319978018
30
0
41
1
10
64.9413785248402
20
2.97841094147688
30
0
41
1
10
65.0944215679766
20
2.98767053698921
30
0
41
1
10
65.3996511011919
20
2.99862877522398
30
0
41
1
10
65.5519086039154
20
3.00030774909516
30
0
41
1
10
65.855531681181
20
2.9960233807285
30
0
41
1
10
66.0064165696234
20
2.989966272299
30
0
41
1
10
66.4601754363322
20
2.96037335800017
30
0
41
1
10
66.7642186567438
20
2.92592778936901
30
0
41
1
10
67.0683693429016
20
2.87658065283577
30
0
0
SPLINE
5
AF
100
AcDbEntity
8
1
62
256
6
ByLayer
370
18
48
1
60
0
100
AcDbSpline
70
4
71
3
72
8
73
4
40
0
40
0
40
0
40
0
40
1
40
1
40
1
40
1
41
1
10
67.9813078450167
20
-0.108181189974488
30
0
41
1
10
67.9842027869433
20
-0.0854679807230241
30
0
41
1
10
67.9910567441995
20
-0.0565660133877941
30
0
41
1
10
67.9999715281726
20
-0.0261355698209513
30
0
0
SPLINE
5
B0
100
AcDbEntity
8
1
62
256
6
ByLayer
370
18
48
1
60
0
100
AcDbSpline
70
4
71
3
72
14
73
10
40
0
40
0
40
0
40
0
40
0.25
40
0.25
40
0.5
40
0.5
40
0.75
40
0.75
40
1
40
1
40
1
40
1
41
1
10
7.08947403180844
20
-2.95823957016953
30
0
41
1
10
7.10189365800216
20
-2.92965456763756
30
0
41
1
10
7.11973269745653
20
-2.90445835766656
30
0
41
1
10
7.15889159369965
20
-2.86541144535511
30
0
41
1
10
7.17953580326761
20
-2.85148457725711
30
0
41
1
10
7.22071395254818
20
-2.8305049930515
30
0
41
1
10
7.24077208739959
20
-2.82370429587559
30
0
41
1
10
7.28023365241404
20
-2.81455023452278
30
0
41
1
10
7.29968087493921
20
-2.81227863973746
30
0
41
1
10
7.31860331504322
20
-2.81180788260792
30
0
0
SPLINE
5
B1
100
AcDbEntity
8
1
62
256
6
ByLayer
370
18
48
1
60
0
100
AcDbSpline
70
4
71
3
72
12
73
8
40
0
40
0
40
0
40
0
40
0.268456248316013
40
0.268456248316013
40
0.536912496632027
40
0.536912496632027
40
1
40
1
40
1
40
1
41
1
10
66.981689063731
20
-2.8428497408602
30
0
41
1
10
66.6688899921459
20
-2.85487457140422
30
0
41
1
10
66.3557232130313
20
-2.85124250012012
30
0
41
1
10
65.734400512518
20
-2.81371198083161
30
0
41
1
10
65.4253496539208
20
-2.77990310348119
30
0
41
1
10
64.5844429816652
20
-2.64882587805695
30
0
41
1
10
64.0535637068613
20
-2.52319706192949
30
0
41
1
10
63.5184349144686
20
-2.35884265347298
30
0
0
SPLINE
5
B2
100
AcDbEntity
8
1
62
256
6
ByLayer
370
13
48
1
60
0
100
AcDbSpline
70
4
71
3
72
24
73
20
40
0
40
0
40
0
40
0
40
0.0303525797575394
40
0.0303525797575394
40
0.140726437482453
40
0.140726437482453
40
0.251100295207366
40
0.251100295207366
40
0.471848010657192
40
0.471848010657192
40
0.52703493951965
40
0.52703493951965
40
0.582221868382107
40
0.582221868382107
40
0.692595726107022
40
0.692595726107022
40
0.913343441556856
40
0.913343441556856
40
1
40
1
40
1
40
1
41
1
10
63.5184346124848
20
-2.3588425607245
30
0
41
1
10
63.4331249621281
20
-2.33264135735007
30
0
41
1
10
63.3477073128485
20
-2.30545596670171
30
0
41
1
10
62.9510701024059
20
-2.17492455988997
30
0
41
1
10
62.6371061180454
20
-2.05921512074312
30
0
41
1
10
62.0150696373107
20
-1.80917298784542
30
0
41
1
10
61.7057313672669
20
-1.6745396848369
30
0
41
1
10
60.7793467716085
20
-1.24745139199715
30
0
41
1
10
60.164160797292
20
-0.9314500541673
30
0
41
1
10
59.387201668713
20
-0.515834475560041
30
0
41
1
10
59.231421729054
20
-0.43167512360813
30
0
41
1
10
58.9187009546274
20
-0.261911991650095
30
0
41
1
10
58.7621993196819
20
-0.176525398307831
30
0
41
1
10
58.2948274840248
20
0.0786852545021475
30
0
41
1
10
57.9849350745406
20
0.24825969484823
30
0
41
1
10
57.0572432543842
20
0.74990447540327
30
0
41
1
10
56.4410661264997
20
1.07412093389072
30
0
41
1
10
55.5737858719976
20
1.48885738563092
30
0
41
1
10
55.3277119245742
20
1.60189527959125
30
0
41
1
10
55.0826554543031
20
1.70883224323245
30
0
0
SPLINE
5
B3
100
AcDbEntity
8
1
62
256
6
ByLayer
370
18
48
1
60
0
100
AcDbSpline
70
4
71
3
72
14
73
10
40
0
40
0
40
0
40
0
40
0.15171110657889
40
0.15171110657889
40
0.774765551937923
40
0.774765551937923
40
0.930529163277681
40
0.930529163277681
40
1
40
1
40
1
40
1
41
1
10
33.8974466095966
20
-2.8290440731121
30
0
41
1
10
33.7465757128582
20
-2.82865901118234
30
0
41
1
10
33.5958842283989
20
-2.82471390646478
30
0
41
1
10
32.8264673095597
20
-2.78657286389307
30
0
41
1
10
32.208146494442
20
-2.69617531085206
30
0
41
1
10
31.4252422393559
20
-2.51127025495674
30
0
41
1
10
31.2686173470751
20
-2.47079596790107
30
0
41
1
10
31.0431121221654
20
-2.4078270566944
30
0
41
1
10
30.9736395599795
20
-2.38778208824007
30
0
41
1
10
30.90423573114
20
-2.36713179284138
30
0
0
SPLINE
5
B4
100
AcDbEntity
8
1
62
256
6
ByLayer
370
13
48
1
60
0
100
AcDbSpline
70
4
71
3
72
24
73
20
40
0
40
0
40
0
40
0
40
0.0306043785950825
40
0.0306043785950825
40
0.141089430993355
40
0.141089430993355
40
0.251574483391627
40
0.251574483391627
40
0.3620595357899
40
0.3620595357899
40
0.583029640586444
40
0.583029640586444
40
0.693514692984718
40
0.693514692984718
40
0.748757219183854
40
0.748757219183854
40
0.80399974538299
40
0.80399974538299
40
1
40
1
40
1
40
1
41
1
10
30.9042366898109
20
-2.36713207808259
30
0
41
1
10
30.8180268282818
20
-2.34148135189304
30
0
41
1
10
30.7319230177837
20
-2.31489664674757
30
0
41
1
10
30.3353488432361
20
-2.1881884859562
30
0
41
1
10
30.0258801316091
20
-2.0771477457701
30
0
41
1
10
29.4072219793613
20
-1.83413325515886
30
0
41
1
10
29.097888695469
20
-1.70226247918646
30
0
41
1
10
28.4769029065098
20
-1.42115872166303
30
0
41
1
10
28.1649052286235
20
-1.27164708868955
30
0
41
1
10
27.2247884361913
20
-0.802123039576315
30
0
41
1
10
26.6061976226642
20
-0.469920120503815
30
0
41
1
10
25.6780116279932
20
0.0336626042393959
30
0
41
1
10
25.3684681419124
20
0.202220354073177
30
0
41
1
10
24.9022156776844
20
0.452875762439078
30
0
41
1
10
24.7464751037843
20
0.536064012327671
30
0
41
1
10
24.4341115090859
20
0.701273471830348
30
0
41
1
10
24.2771257997082
20
0.783484416876291
30
0
41
1
10
23.5654116539902
20
1.15089966062072
30
0
41
1
10
23.0164066181646
20
1.41947572452929
30
0
41
1
10
22.4673001652024
20
1.66005175843682
30
0
0
SPLINE
5
B5
100
AcDbEntity
8
1
62
256
6
ByLayer
370
18
48
1
60
0
100
AcDbSpline
70
4
71
3
72
86
73
82
40
0
40
0
40
0
40
0
40
0.0103846446743179
40
0.0103846446743179
40
0.0316658687405161
40
0.0316658687405161
40
0.0742283168729118
40
0.0742283168729118
40
0.0955095409391101
40
0.0955095409391101
40
0.116790765005308
40
0.116790765005308
40
0.138071989071507
40
0.138071989071507
40
0.159353213137705
40
0.159353213137705
40
0.180634437203903
40
0.180634437203903
40
0.201915661270101
40
0.201915661270101
40
0.2231968853363
40
0.2231968853363
40
0.244478109402498
40
0.244478109402498
40
0.287040557534895
40
0.287040557534895
40
0.308321781601094
40
0.308321781601094
40
0.329603005667292
40
0.329603005667292
40
0.350884229733491
40
0.350884229733491
40
0.37216545379969
40
0.37216545379969
40
0.414727901932087
40
0.414727901932087
40
0.436009125998286
40
0.436009125998286
40
0.457290350064485
40
0.457290350064485
40
0.499852798196883
40
0.499852798196883
40
0.521134022263082
40
0.521134022263082
40
0.542415246329281
40
0.542415246329281
40
0.584977694461681
40
0.584977694461681
40
0.62754014259408
40
0.62754014259408
40
0.64882136666028
40
0.64882136666028
40
0.670102590726479
40
0.670102590726479
40
0.691383814792679
40
0.691383814792679
40
0.712665038858879
40
0.712665038858879
40
0.73394626292508
40
0.73394626292508
40
0.755227486991281
40
0.755227486991281
40
0.797789935123685
40
0.797789935123685
40
0.819071159189886
40
0.819071159189886
40
0.840352383256087
40
0.840352383256087
40
0.861633607322288
40
0.861633607322288
40
0.88291483138849
40
0.88291483138849
40
0.925477279520894
40
0.925477279520894
40
0.946758503587095
40
0.946758503587095
40
0.968039727653296
40
0.968039727653296
40
0.989320951719497
40
0.989320951719497
40
1
40
1
40
1
40
1
41
1
10
11.2465590424696
20
1.57411321956633
30
0
41
1
10
11.3211963203277
20
1.6103722696628
30
0
41
1
10
11.3958442915209
20
1.64631019983176
30
0
41
1
10
11.6235551455382
20
1.75480570803865
30
0
41
1
10
11.7777821023236
20
1.82510484018528
30
0
41
1
10
12.2408386529692
20
2.02730339954019
30
0
41
1
10
12.5492924938012
20
2.1510423581731
30
0
41
1
10
13.0098178118716
20
2.32191775870325
30
0
41
1
10
13.162878513665
20
2.37642723461369
30
0
41
1
10
13.470902820543
20
2.47757924556788
30
0
41
1
10
13.625651616212
20
2.52469441334102
30
0
41
1
10
13.9343052636352
20
2.61223116059119
30
0
41
1
10
14.0884026466058
20
2.65263798172924
30
0
41
1
10
14.3960003836982
20
2.72676581995535
30
0
41
1
10
14.5490050856907
20
2.76079255577028
30
0
41
1
10
14.855927488406
20
2.82092851034426
30
0
41
1
10
15.0099562012802
20
2.84704130880527
30
0
41
1
10
15.3187370371455
20
2.89179298827753
30
0
41
1
10
15.4733499008129
20
2.91044001515465
30
0
41
1
10
15.7808425032683
20
2.94008162445763
30
0
41
1
10
15.9340700271184
20
2.95112201042795
30
0
41
1
10
16.2385240474711
20
2.96560899559307
30
0
41
1
10
16.390757243915
20
2.96887150941828
30
0
41
1
10
16.8481119007009
20
2.96729242542784
30
0
41
1
10
17.1531864382622
20
2.95131071959068
30
0
41
1
10
17.6094664621386
20
2.9043549997339
30
0
41
1
10
17.7609639889204
20
2.88462131704912
30
0
41
1
10
18.0658243632484
20
2.83814889849751
30
0
41
1
10
18.2189503830957
20
2.81139199724444
30
0
41
1
10
18.5260201977362
20
2.75062784363212
30
0
41
1
10
18.6799383302246
20
2.71658885705705
30
0
41
1
10
18.9885720735495
20
2.64098434596462
30
0
41
1
10
19.1422717369831
20
2.59931283995761
30
0
41
1
10
19.6023234556145
20
2.46384071948077
30
0
41
1
10
19.9105091132209
20
2.36213032101045
30
0
41
1
10
20.3727209178806
20
2.19089966733901
30
0
41
1
10
20.5270152545788
20
2.13077243990804
30
0
41
1
10
20.8346595607565
20
2.00361396209419
30
0
41
1
10
20.9878677906106
20
1.93690474367588
30
0
41
1
10
21.4493043480383
20
1.732427798576
30
0
41
1
10
21.757613050189
20
1.58820635321047
30
0
41
1
10
22.2193628791
20
1.35741344068208
30
0
41
1
10
22.3729891195856
20
1.2771355165664
30
0
41
1
10
22.6800909951602
20
1.11552564517942
30
0
41
1
10
22.8335864646153
20
1.0341790259356
30
0
41
1
10
23.2932798789128
20
0.787502076066602
30
0
41
1
10
23.59872012246
20
0.619615782723542
30
0
41
1
10
24.2047119729424
20
0.271873107876217
30
0
41
1
10
24.5094910695078
20
0.0994765236189608
30
0
41
1
10
24.9673814023897
20
-0.160271662632454
30
0
41
1
10
25.1202029579802
20
-0.246923321698631
30
0
41
1
10
25.425803961781
20
-0.42116357972111
30
0
41
1
10
25.5783063106601
20
-0.509266062715653
30
0
41
1
10
25.885731995055
20
-0.681939834487679
30
0
41
1
10
26.0403549183147
20
-0.767006799678995
30
0
41
1
10
26.3486382438769
20
-0.934545736417363
30
0
41
1
10
26.502576786829
20
-1.01716295520967
30
0
41
1
10
26.8100222315936
20
-1.18011048045642
30
0
41
1
10
26.9631209005131
20
-1.26109214601783
30
0
41
1
10
27.2696532651123
20
-1.41942828050867
30
0
41
1
10
27.4235203102455
20
-1.49611926914878
30
0
41
1
10
27.8865085021817
20
-1.71955730139851
30
0
41
1
10
28.1951156077706
20
-1.85926951363103
30
0
41
1
10
28.6546754698697
20
-2.05691717240793
30
0
41
1
10
28.8076994796169
20
-2.12033529603781
30
0
41
1
10
29.1153192546838
20
-2.24000064991065
30
0
41
1
10
29.2697017116586
20
-2.29671880262182
30
0
41
1
10
29.5783472307458
20
-2.4043641617726
30
0
41
1
10
29.7321026643506
20
-2.45498046819617
30
0
41
1
10
30.0382201155568
20
-2.55006821578093
30
0
41
1
10
30.1901273584839
20
-2.59490936719084
30
0
41
1
10
30.6467476666481
20
-2.71735208313166
30
0
41
1
10
30.9517602001651
20
-2.78389574133416
30
0
41
1
10
31.4081524737834
20
-2.86318456767975
30
0
41
1
10
31.5600979083384
20
-2.88614660164836
30
0
41
1
10
31.8632773833443
20
-2.92493582589682
30
0
41
1
10
32.0155021211289
20
-2.94036666332119
30
0
41
1
10
32.321144256618
20
-2.96359542626357
30
0
41
1
10
32.4744712708555
20
-2.97142323630717
30
0
41
1
10
32.7052236880344
20
-2.9774749747404
30
0
41
1
10
32.7825072799489
20
-2.97853670691612
30
0
41
1
10
32.859802466769
20
-2.97861914394122
30
0
0
SPLINE
5
B6
100
AcDbEntity
8
1
62
256
6
ByLayer
370
18
48
1
60
0
100
AcDbSpline
70
4
71
3
72
86
73
82
40
0
40
0
40
0
40
0
40
0.0074758849500797
40
0.0074758849500797
40
0.0287136223821214
40
0.0287136223821214
40
0.0499513598141628
40
0.0499513598141628
40
0.0711890972462046
40
0.0711890972462046
40
0.0924268346782463
40
0.0924268346782463
40
0.134902309542328
40
0.134902309542328
40
0.156140046974368
40
0.156140046974368
40
0.177377784406409
40
0.177377784406409
40
0.21985325927049
40
0.21985325927049
40
0.241090996702531
40
0.241090996702531
40
0.262328734134572
40
0.262328734134572
40
0.283566471566612
40
0.283566471566612
40
0.304804208998653
40
0.304804208998653
40
0.347279683862736
40
0.347279683862736
40
0.368517421294776
40
0.368517421294776
40
0.389755158726817
40
0.389755158726817
40
0.432230633590899
40
0.432230633590899
40
0.45346837102294
40
0.45346837102294
40
0.47470610845498
40
0.47470610845498
40
0.495943845887021
40
0.495943845887021
40
0.517181583319061
40
0.517181583319061
40
0.538419320751102
40
0.538419320751102
40
0.559657058183143
40
0.559657058183143
40
0.580894795615184
40
0.580894795615184
40
0.602132533047224
40
0.602132533047224
40
0.644608007911305
40
0.644608007911305
40
0.665845745343346
40
0.665845745343346
40
0.687083482775387
40
0.687083482775387
40
0.729558957639467
40
0.729558957639467
40
0.750796695071507
40
0.750796695071507
40
0.772034432503548
40
0.772034432503548
40
0.793272169935589
40
0.793272169935589
40
0.81450990736763
40
0.81450990736763
40
0.856985382231711
40
0.856985382231711
40
0.878223119663752
40
0.878223119663752
40
0.899460857095792
40
0.899460857095792
40
0.941936331959874
40
0.941936331959874
40
0.963174069391914
40
0.963174069391914
40
0.984411806823955
40
0.984411806823955
40
1
40
1
40
1
40
1
41
1
10
43.9688331065066
20
1.59233916034859
30
0
41
1
10
44.0226268345525
20
1.61855459869949
30
0
41
1
10
44.0763139436102
20
1.64457608371254
30
0
41
1
10
44.282022378986
20
1.74389494192761
30
0
41
1
10
44.4340205609571
20
1.81466896126162
30
0
41
1
10
44.7385155550137
20
1.94997173146319
30
0
41
1
10
44.8908265943703
20
2.01478245369722
30
0
41
1
10
45.1950867147708
20
2.13945111618233
30
0
41
1
10
45.3471348251232
20
2.19917957658419
30
0
41
1
10
45.6507319351557
20
2.31371366396132
30
0
41
1
10
45.8018746529734
20
2.36892961042801
30
0
41
1
10
46.2578778868621
20
2.52327990661271
30
0
41
1
10
46.5643196850036
20
2.61255867975734
30
0
41
1
10
47.0257155131595
20
2.72769240424932
30
0
41
1
10
47.1796058388985
20
2.76296844208355
30
0
41
1
10
47.4858675745434
20
2.82619347110256
30
0
41
1
10
47.6393002859063
20
2.85374960531374
30
0
41
1
10
48.1002820888457
20
2.92491942432744
30
0
41
1
10
48.4081501112881
20
2.95739514787499
30
0
41
1
10
48.8690195383889
20
2.98332124244862
30
0
41
1
10
49.0221102635287
20
2.98802544131487
30
0
41
1
10
49.3292651151151
20
2.98946008028744
30
0
41
1
10
49.4830810796408
20
2.98628999783989
30
0
41
1
10
49.7905480235121
20
2.97229438222507
30
0
41
1
10
49.9442604272835
20
2.96146471399942
30
0
41
1
10
50.2515040573383
20
2.93196881512981
30
0
41
1
10
50.4046599249622
20
2.91306964317835
30
0
41
1
10
50.8653685226773
20
2.84515104830683
30
0
41
1
10
51.1732940707575
20
2.78575755658116
30
0
41
1
10
51.6341531280817
20
2.67500062989143
30
0
41
1
10
51.787734950853
20
2.63453663217319
30
0
41
1
10
52.0938563421869
20
2.54537060677922
30
0
41
1
10
52.2477261970404
20
2.49746472732377
30
0
41
1
10
52.708745446378
20
2.34594054868379
30
0
41
1
10
53.0149355905524
20
2.23391305283386
30
0
41
1
10
53.470924938611
20
2.04768419693303
30
0
41
1
10
53.6220099951079
20
1.98203747795242
30
0
41
1
10
53.9254161734142
20
1.84764964119688
30
0
41
1
10
54.0774880592349
20
1.7786263322032
30
0
41
1
10
54.381791493187
20
1.63622708928583
30
0
41
1
10
54.5339992175542
20
1.56280719132877
30
0
41
1
10
54.8385395668651
20
1.41146837812255
30
0
41
1
10
54.9905782145637
20
1.33307925938769
30
0
41
1
10
55.2950741968527
20
1.17203710810551
30
0
41
1
10
55.4481628117409
20
1.09044417567674
30
0
41
1
10
55.7558291051409
20
0.924917320037054
30
0
41
1
10
55.9102115525022
20
0.840858828922222
30
0
41
1
10
56.2178070022465
20
0.670786057200331
30
0
41
1
10
56.3713929847648
20
0.584805652849781
30
0
41
1
10
56.6774880009137
20
0.409803704392317
30
0
41
1
10
56.8300968682572
20
0.32094170851974
30
0
41
1
10
57.2904836117846
20
0.0570339928762849
30
0
41
1
10
57.600020371834
20
-0.118916265349355
30
0
41
1
10
58.059034051091
20
-0.3816680329777
30
0
41
1
10
58.2108826063104
20
-0.469936579500427
30
0
41
1
10
58.5148419723521
20
-0.643205655760454
30
0
41
1
10
58.6670010521341
20
-0.728149253732852
30
0
41
1
10
59.1234233983224
20
-0.979115222969511
30
0
41
1
10
59.4276808465544
20
-1.14126217890643
30
0
41
1
10
59.8816026290725
20
-1.38034023919954
30
0
41
1
10
60.0333542741855
20
-1.45794390588216
30
0
41
1
10
60.3382440156764
20
-1.60828063806915
30
0
41
1
10
60.4912290381284
20
-1.68125978704217
30
0
41
1
10
60.7978190362566
20
-1.82352132280806
30
0
41
1
10
60.9517454304897
20
-1.89274566471548
30
0
41
1
10
61.2590618303734
20
-2.02711558723675
30
0
41
1
10
61.4117242744005
20
-2.09253409307775
30
0
41
1
10
61.8714701789745
20
-2.27748861714824
30
0
41
1
10
62.1790567637963
20
-2.38767179659425
30
0
41
1
10
62.640086831531
20
-2.53567569266591
30
0
41
1
10
62.7936436721964
20
-2.58236546988994
30
0
41
1
10
63.1000363554114
20
-2.66873587577194
30
0
41
1
10
63.2534877688623
20
-2.70796125001908
30
0
41
1
10
63.7143042038089
20
-2.8145236132651
30
0
41
1
10
64.0218293984752
20
-2.87113995242629
30
0
41
1
10
64.4817383779853
20
-2.93457475758669
30
0
41
1
10
64.63500359564
20
-2.95197319978018
30
0
41
1
10
64.9413785248401
20
-2.97841094147688
30
0
41
1
10
65.0944215679765
20
-2.98767053698919
30
0
41
1
10
65.3590533736407
20
-2.99717125056833
30
0
41
1
10
65.470877942195
20
-2.99914557438143
30
0
41
1
10
65.5824749660914
20
-2.99906431858542
30
0
0
SPLINE
5
B7
100
AcDbEntity
8
1
62
256
6
ByLayer
370
18
48
1
60
0
100
AcDbSpline
70
4
71
3
72
18
73
14
40
0
40
0
40
0
40
0
40
0.250000000000002
40
0.250000000000002
40
0.375000000000003
40
0.375000000000003
40
0.500000000000004
40
0.500000000000004
40
0.75
40
0.75
40
0.875
40
0.875
40
1
40
1
40
1
40
1
41
1
10
66.9200469609908
20
-2.84285182668771
30
0
41
1
10
66.8616341664385
20
-2.83203868337895
30
0
41
1
10
66.8076006937411
20
-2.80891916872329
30
0
41
1
10
66.7337006883931
20
-2.75414704564486
30
0
41
1
10
66.7102017877982
20
-2.7324079171224
30
0
41
1
10
66.666618237559
20
-2.68278405427478
30
0
41
1
10
66.6464186513723
20
-2.65484363877744
30
0
41
1
10
66.5906162871717
20
-2.56159798098844
30
0
41
1
10
66.5597704769643
20
-2.48694579643748
30
0
41
1
10
66.5237610498059
20
-2.35480909561323
30
0
41
1
10
66.5134605640409
20
-2.30717527349052
30
0
41
1
10
66.4968143847857
20
-2.20665543666686
30
0
41
1
10
66.4904098249733
20
-2.15362405287138
30
0
41
1
10
66.4859346961928
20
-2.09780545603778
30
0
0
SPLINE
5
B8
100
AcDbEntity
8
1
62
256
6
ByLayer
370
18
48
1
60
0
100
AcDbSpline
70
4
71
3
72
16
73
12
40
0
40
0
40
0
40
0
40
0.013885145670278
40
0.013885145670278
40
0.569285759853919
40
0.569285759853919
40
0.708135913399832
40
0.708135913399832
40
0.846986066945745
40
0.846986066945745
40
1
40
1
40
1
40
1
41
1
10
50.2729675558393
20
-2.8395850564149
30
0
41
1
10
50.2575047354406
20
-2.8395905049482
30
0
41
1
10
50.2420426983978
20
-2.83955819123446
30
0
41
1
10
49.6081315801822
20
-2.83668469225509
30
0
41
1
10
48.9911003533358
20
-2.77347188120899
30
0
41
1
10
48.2097899591323
20
-2.62113225885057
30
0
41
1
10
48.0528891219146
20
-2.58694559026594
30
0
41
1
10
47.7407483614581
20
-2.51202114492017
30
0
41
1
10
47.5851656359454
20
-2.47121799133672
30
0
41
1
10
47.2587915285732
20
-2.37880446078941
30
0
41
1
10
47.088057950263
20
-2.32651225222364
30
0
41
1
10
46.9175172053681
20
-2.27063542091838
30
0
0
SPLINE
5
B9
100
AcDbEntity
8
1
62
256
6
ByLayer
370
13
48
1
60
0
100
AcDbSpline
70
4
71
3
72
24
73
20
40
0
40
0
40
0
40
0
40
0.0510629204889188
40
0.0510629204889188
40
0.27851662283609
40
0.27851662283609
40
0.335380048422883
40
0.335380048422883
40
0.392243474009676
40
0.392243474009676
40
0.505970325183262
40
0.505970325183262
40
0.619697176356848
40
0.619697176356848
40
0.733424027530433
40
0.733424027530433
40
0.960877729877609
40
0.960877729877609
40
1
40
1
40
1
40
1
41
1
10
46.9175172052867
20
-2.27063542089172
30
0
41
1
10
46.7785487683737
20
-2.22510310009011
30
0
41
1
10
46.6397083751937
20
-2.17719054619184
30
0
41
1
10
45.8825874548839
20
-1.90363733213221
30
0
41
1
10
45.2647962327188
20
-1.63558194374039
30
0
41
1
10
44.4821661596831
20
-1.25893030551231
30
0
41
1
10
44.3256395468187
20
-1.18180188698179
30
0
41
1
10
44.0139093869678
20
-1.02528708392751
30
0
41
1
10
43.8584569128473
20
-0.945782188161445
30
0
41
1
10
43.3929285530192
20
-0.70426841934551
30
0
41
1
10
43.0837769426856
20
-0.53909265708981
30
0
41
1
10
42.4654551886085
20
-0.204959671803152
30
0
41
1
10
42.1562622739977
20
-0.0360324634817175
30
0
41
1
10
41.535537407392
20
0.301353610963872
30
0
41
1
10
41.2236812066306
20
0.470267811095226
30
0
41
1
10
40.2841536131936
20
0.968752719598086
30
0
41
1
10
39.6665578970834
20
1.2819555599433
30
0
41
1
10
38.9427890255336
20
1.61044954023413
30
0
41
1
10
38.8365636317084
20
1.65766834176282
30
0
41
1
10
38.7302882124294
20
1.70383063416713
30
0
0
SPLINE
5
BA
100
AcDbEntity
8
1
62
256
6
ByLayer
370
18
48
1
60
0
100
AcDbSpline
70
4
71
3
72
14
73
10
40
0
40
0
40
0
40
0
40
0.137435194441365
40
0.137435194441365
40
0.281195951877772
40
0.281195951877772
40
0.856238981623393
40
0.856238981623393
40
1
40
1
40
1
40
1
41
1
10
17.574970213159
20
-2.81899026698289
30
0
41
1
10
17.426017428783
20
-2.81902957197033
30
0
41
1
10
17.2767257873659
20
-2.81557226101805
30
0
41
1
10
16.9702761987573
20
-2.8013592793607
30
0
41
1
10
16.8134190951088
20
-2.79026674705469
30
0
41
1
10
16.0329170023963
20
-2.71647481758481
30
0
41
1
10
15.4150224211587
20
-2.59813136382331
30
0
41
1
10
14.6405647619014
20
-2.38484818797605
30
0
41
1
10
14.4855375449033
20
-2.33894378863042
30
0
41
1
10
14.3302311196146
20
-2.28990849199675
30
0
0
SPLINE
5
BB
100
AcDbEntity
8
1
62
256
6
ByLayer
370
13
48
1
60
0
100
AcDbSpline
70
4
71
3
72
20
73
16
40
0
40
0
40
0
40
0
40
0.0666665535898338
40
0.0666665535898338
40
0.199999903077001
40
0.199999903077001
40
0.466666602051333
40
0.466666602051333
40
0.599999951538498
40
0.599999951538498
40
0.666666626282081
40
0.666666626282081
40
0.733333301025664
40
0.733333301025664
40
1
40
1
40
1
40
1
41
1
10
14.330231118587
20
-2.28990849167229
30
0
41
1
10
14.1749252574321
20
-2.24087337314066
30
0
41
1
10
14.0193401900145
20
-2.18870738006655
30
0
41
1
10
13.551315562467
20
-2.02316698768189
30
0
41
1
10
13.2366555931417
20
-1.90016089637069
30
0
41
1
10
12.3010072819522
20
-1.505666163944
30
0
41
1
10
11.6832758357607
20
-1.2076802856522
30
0
41
1
10
10.7533597031052
20
-0.729842543934637
30
0
41
1
10
10.4426772517083
20
-0.565660495796948
30
0
41
1
10
9.97395624473415
20
-0.314859508557788
30
0
41
1
10
9.8169627722757
20
-0.230343869405942
30
0
41
1
10
9.50341184762644
20
-0.0610734400692081
30
0
41
1
10
9.3470331992944
20
0.0235942194365464
30
0
41
1
10
8.56628885223969
20
0.445536865295225
30
0
41
1
10
7.94538656826632
20
0.778680035233066
30
0
41
1
10
7.31892392637698
20
1.09028926761684
30
0
0
SPLINE
5
BC
100
AcDbEntity
8
1
62
256
6
ByLayer
370
18
48
1
60
0
100
AcDbSpline
70
4
71
3
72
8
73
4
40
0
40
0
40
0
40
0
40
1
40
1
40
1
40
1
41
1
10
67.9831732442171
20
-0.0126125289144738
30
0
41
1
10
67.9485256530315
20
-0.076864371525204
30
0
41
1
10
67.914074546085
20
-0.141292025374668
30
0
41
1
10
67.8798204160122
20
-0.205895931218748
30
0
0
SPLINE
5
BD
100
AcDbEntity
8
1
62
256
6
ByLayer
370
18
48
1
60
0
100
AcDbSpline
70
4
71
3
72
42
73
38
40
0
40
0
40
0
40
0
40
0.0552333529446654
40
0.0552333529446654
40
0.110466705889331
40
0.110466705889331
40
0.220933411778662
40
0.220933411778662
40
0.276166764723326
40
0.276166764723326
40
0.303783441195657
40
0.303783441195657
40
0.331400117667989
40
0.331400117667989
40
0.441866823557312
40
0.441866823557312
40
0.497100176501974
40
0.497100176501974
40
0.524716852974305
40
0.524716852974305
40
0.552333529446636
40
0.552333529446636
40
0.662800235335963
40
0.662800235335963
40
0.718033588280626
40
0.718033588280626
40
0.77326694122529
40
0.77326694122529
40
0.883733647114617
40
0.883733647114617
40
0.911350323586947
40
0.911350323586947
40
0.938967000059278
40
0.938967000059278
40
0.994200353003937
40
0.994200353003937
40
1
40
1
40
1
40
1
41
1
10
66.9446816730729
20
-2.98415124975128
30
0
41
1
10
66.6323700764976
20
-3.00243136908804
30
0
41
1
10
66.3205074913566
20
-3.00446779976826
30
0
41
1
10
65.6955617143333
20
-2.97621547561514
30
0
41
1
10
65.3813206076642
20
-2.9456673291937
30
0
41
1
10
64.4455322322214
20
-2.80766462806619
30
0
41
1
10
63.8288699313996
20
-2.65433556378261
30
0
41
1
10
62.9001549623383
20
-2.34513084880464
30
0
41
1
10
62.5899613228445
20
-2.22886415610498
30
0
41
1
10
62.1219060397609
20
-2.03628554525164
30
0
41
1
10
61.9650384056161
20
-1.96892523464797
30
0
41
1
10
61.6519089579172
20
-1.82937241362075
30
0
41
1
10
61.4958774603917
20
-1.75729170921144
30
0
41
1
10
60.7176082926164
20
-1.38666251282609
30
0
41
1
10
60.1013108337948
20
-1.05701921328071
30
0
41
1
10
59.1717961137082
20
-0.536771247687597
30
0
41
1
10
58.8610470410742
20
-0.359172069100652
30
0
41
1
10
58.3916266403288
20
-0.0897436626462991
30
0
41
1
10
58.2345089910556
20
0.0006118813437013
30
0
41
1
10
57.922135345181
20
0.180263259217668
30
0
41
1
10
57.7664546239322
20
0.269710959023769
30
0
41
1
10
56.9897020468786
20
0.713554612552713
30
0
41
1
10
56.3734167662441
20
1.05748648673034
30
0
41
1
10
55.4425017767232
20
1.5328542383611
30
0
41
1
10
55.1311349594085
20
1.68458109834361
30
0
41
1
10
54.5036465401988
20
1.97016933457013
30
0
41
1
10
54.1921495387644
20
2.10177613885773
30
0
41
1
10
53.260789610006
20
2.45957826184355
30
0
41
1
10
52.6446553408356
20
2.64940064724155
30
0
41
1
10
51.8675064829466
20
2.81330149316716
30
0
41
1
10
51.7117736250713
20
2.84245134814333
30
0
41
1
10
51.3993703660207
20
2.89316285881736
30
0
41
1
10
51.2422946374812
20
2.91475015280759
30
0
41
1
10
50.7728220182737
20
2.96724666121907
30
0
41
1
10
50.4618427431509
20
2.98605230405002
30
0
41
1
10
50.1191574507473
20
2.9892763435987
30
0
41
1
10
50.0866045047783
20
2.98940696465644
30
0
41
1
10
50.0540606961196
20
2.98936215575964
30
0
0
SPLINE
5
BE
100
AcDbEntity
8
1
62
256
6
ByLayer
370
18
48
1
60
0
100
AcDbSpline
70
4
71
3
72
46
73
42
40
0
40
0
40
0
40
0
40
0.0068547681076178
40
0.0068547681076178
40
0.0587838029963859
40
0.0587838029963859
40
0.0847483204407703
40
0.0847483204407703
40
0.110712837885155
40
0.110712837885155
40
0.214570907662691
40
0.214570907662691
40
0.26649994255146
40
0.26649994255146
40
0.292464459995845
40
0.292464459995845
40
0.318428977440229
40
0.318428977440229
40
0.422287047217769
40
0.422287047217769
40
0.47421608210654
40
0.47421608210654
40
0.526145116995311
40
0.526145116995311
40
0.630003186772852
40
0.630003186772852
40
0.681932221661622
40
0.681932221661622
40
0.707896739106007
40
0.707896739106007
40
0.733861256550392
40
0.733861256550392
40
0.837719326327934
40
0.837719326327934
40
0.889648361216705
40
0.889648361216705
40
0.915612878661089
40
0.915612878661089
40
0.941577396105475
40
0.941577396105475
40
1
40
1
40
1
40
1
41
1
10
35.3487392090906
20
-2.83378179276434
30
0
41
1
10
35.3078645498677
20
-2.84100533242287
30
0
41
1
10
35.2669920228936
20
-2.84796560031825
30
0
41
1
10
34.9164775633958
20
-2.90538245693617
30
0
41
1
10
34.6068132804126
20
-2.94092240050602
30
0
41
1
10
34.1404045731902
20
-2.97057712511838
30
0
41
1
10
33.9846614618279
20
-2.97652983097478
30
0
41
1
10
33.6723065997917
20
-2.98038972509747
30
0
41
1
10
33.5153594032846
20
-2.97828022753498
30
0
41
1
10
32.7311736197619
20
-2.94741673226602
30
0
41
1
10
32.112399997698
20
-2.8584535370498
30
0
41
1
10
31.1834139235618
20
-2.63794256549573
30
0
41
1
10
30.8734337167209
20
-2.55003635911746
30
0
41
1
10
30.4062175349604
20
-2.39790206486748
30
0
41
1
10
30.2501044921066
20
-2.34381316559572
30
0
41
1
10
29.9369046585583
20
-2.2289983713259
30
0
41
1
10
29.7796128182923
20
-2.16810935259679
30
0
41
1
10
28.9973129611975
20
-1.85099741182847
30
0
41
1
10
28.378930409406
20
-1.55573927147464
30
0
41
1
10
27.4493816667734
20
-1.07132889651336
30
0
41
1
10
27.1389827986413
20
-0.90327798715316
30
0
41
1
10
26.5147883772709
20
-0.557705452914803
30
0
41
1
10
26.1997776669523
20
-0.37904633513088
30
0
41
1
10
25.2628227671971
20
0.155804225084722
30
0
41
1
10
24.6448460469161
20
0.511687719721152
30
0
41
1
10
23.7144193921011
20
1.0209886171566
30
0
41
1
10
23.4035647780656
20
1.18643168303339
30
0
41
1
10
22.9345584367021
20
1.42520813435155
30
0
41
1
10
22.7773998214061
20
1.50339772772162
30
0
41
1
10
22.4636435301472
20
1.65507310620981
30
0
41
1
10
22.3072978822543
20
1.72846332500632
30
0
41
1
10
21.5275704175737
20
2.08246503954624
30
0
41
1
10
20.9102241877295
20
2.32415598431169
30
0
41
1
10
19.9785541245708
20
2.60709896031432
30
0
41
1
10
19.6671965638241
20
2.68831302885812
30
0
41
1
10
19.1971368962976
20
2.78836634537214
30
0
41
1
10
19.0397484866233
20
2.81807170419577
30
0
41
1
10
18.7266687699988
20
2.8694032315347
30
0
41
1
10
18.5706084004159
20
2.89111992048839
30
0
41
1
10
18.0644889543957
20
2.94888327052522
30
0
41
1
10
17.7158066028683
20
2.96890271061721
30
0
41
1
10
17.3671269081173
20
2.96893047863938
30
0
0
SPLINE
5
BF
100
AcDbEntity
8
1
62
256
6
ByLayer
370
18
48
1
60
0
100
AcDbSpline
70
4
71
3
72
8
73
4
40
0
40
0
40
0
40
0
40
1
40
1
40
1
40
1
41
1
10
67.068369342897
20
-2.87658065284714
30
0
41
1
10
67.3376960390841
20
-2.22003398658089
30
0
41
1
10
67.6049478746995
20
-1.56163951775827
30
0
41
1
10
67.8626576556949
20
-0.898301298719701
30
0
0
SPLINE
5
C0
100
AcDbEntity
8
1
62
256
6
ByLayer
370
18
48
1
60
0
100
AcDbSpline
70
4
71
3
72
8
73
4
40
0
40
0
40
0
40
0
40
1
40
1
40
1
40
1
41
1
10
67.8626576556948
20
-0.898301298719701
30
0
41
1
10
67.9081762364186
20
-0.634899283313558
30
0
41
1
10
67.9477429074167
20
-0.371525834022492
30
0
41
1
10
67.9813078450166
20
-0.108181189974601
30
0
0
SPLINE
5
C1
100
AcDbEntity
8
1
62
256
6
ByLayer
370
18
48
1
60
0
100
AcDbSpline
70
4
71
3
72
48
73
44
40
0
40
0
40
0
40
0
40
0.124999999999971
40
0.124999999999971
40
0.187499999999957
40
0.187499999999957
40
0.249999999999943
40
0.249999999999943
40
0.312499999999929
40
0.312499999999929
40
0.374999999999915
40
0.374999999999915
40
0.406249999999909
40
0.406249999999909
40
0.437499999999902
40
0.437499999999902
40
0.499999999999889
40
0.499999999999889
40
0.562499999999876
40
0.562499999999876
40
0.624999999999863
40
0.624999999999863
40
0.656249999999857
40
0.656249999999857
40
0.687499999999851
40
0.687499999999851
40
0.749999999999841
40
0.749999999999841
40
0.765624999999839
40
0.765624999999839
40
0.76953124999984
40
0.76953124999984
40
0.773437499999841
40
0.773437499999841
40
0.777343749999841
40
0.777343749999841
40
0.781249999999842
40
0.781249999999842
40
0.812499999999865
40
0.812499999999865
40
0.87499999999991
40
0.87499999999991
40
1
40
1
40
1
40
1
41
1
10
7.08947403180844
20
-2.95823957016955
30
0
41
1
10
6.92903544377833
20
-2.94626328540002
30
0
41
1
10
6.77979451036953
20
-2.90973080185361
30
0
41
1
10
6.5738582401446
20
-2.81112894057134
30
0
41
1
10
6.50782476014791
20
-2.77052145921039
30
0
41
1
10
6.38534159749446
20
-2.67425806735702
30
0
41
1
10
6.32881349171737
20
-2.61873905874586
30
0
41
1
10
6.22627080269075
20
-2.49151570564348
30
0
41
1
10
6.18007790762141
20
-2.41950943496292
30
0
41
1
10
6.10116186179019
20
-2.2579815165993
30
0
41
1
10
6.06914462167654
20
-2.17003425968082
30
0
41
1
10
6.03372237643259
20
-2.02664811543079
30
0
41
1
10
6.02402676713271
20
-1.97693428296114
30
0
41
1
10
6.0092663660057
20
-1.87344437518112
30
0
41
1
10
6.00421692748361
20
-1.81943155237485
30
0
41
1
10
5.99686512365264
20
-1.65482141068765
30
0
41
1
10
6.00209506461516
20
-1.54067542259474
30
0
41
1
10
6.03399556996118
20
-1.30400548454634
30
0
41
1
10
6.06123655381873
20
-1.18005972521655
30
0
41
1
10
6.13588420343345
20
-0.934727797124793
30
0
41
1
10
6.18315912954296
20
-0.812583065650159
30
0
41
1
10
6.2682562411066
20
-0.630490439369197
30
0
41
1
10
6.29904659267368
20
-0.569918375499128
30
0
41
1
10
6.36427377235191
20
-0.450958347907005
30
0
41
1
10
6.39881219971176
20
-0.3923387830813
30
0
41
1
10
6.50785389446173
20
-0.218941720185882
30
0
41
1
10
6.58792311832636
20
-0.1064956103192
30
0
41
1
10
6.69468611396459
20
0.0285125634809731
30
0
41
1
10
6.71637817192729
20
0.0552479014898779
30
0
41
1
10
6.74388831474258
20
0.0883282122560729
30
0
41
1
10
6.74934917890826
20
0.0949901852582968
30
0
41
1
10
6.76055782803024
20
0.108021903171249
30
0
41
1
10
6.76758869938581
20
0.113480492127707
30
0
41
1
10
6.78331258221294
20
0.120334742448932
30
0
41
1
10
6.79192578486774
20
0.121957613170878
30
0
41
1
10
6.80907971071125
20
0.124350750867251
30
0
41
1
10
6.81767375249541
20
0.125423235292203
30
0
41
1
10
6.89486379024046
20
0.136210961834251
30
0
41
1
10
6.96374297502808
20
0.1437023256195
30
0
41
1
10
7.17068037861679
20
0.16008315816137
30
0
41
1
10
7.30959452289466
20
0.162887526946889
30
0
41
1
10
7.72254498505515
20
0.148328129885499
30
0
41
1
10
7.99429827917768
20
0.108561679535569
30
0
41
1
10
8.26266603594937
20
0.0399679466544569
30
0
0
SPLINE
5
C2
100
AcDbEntity
8
1
62
256
6
ByLayer
370
18
48
1
60
0
100
AcDbSpline
70
4
71
3
72
14
73
10
40
0
40
0
40
0
40
0
40
0.295595176349327
40
0.295595176349327
40
0.591190352698654
40
0.591190352698654
40
0.886785529047981
40
0.886785529047981
40
1
40
1
40
1
40
1
41
1
10
8.26266603594934
20
-2.59129054726685
30
0
41
1
10
8.56005721284171
20
-2.52984967056312
30
0
41
1
10
8.85514353437247
20
-2.45639231538135
30
0
41
1
10
9.44139951947363
20
-2.28473991909985
30
0
41
1
10
9.73294624798589
20
-2.1873033889058
30
0
41
1
10
10.3182690653046
20
-1.9759779361147
30
0
41
1
10
10.6107945977058
20
-1.85997737999716
30
0
41
1
10
11.0159428130317
20
-1.68705328941411
30
0
41
1
10
11.1281420052749
20
-1.63774923176157
30
0
41
1
10
11.240508903724
20
-1.58726671517107
30
0
0
SPLINE
5
C3
100
AcDbEntity
8
1
62
256
6
ByLayer
370
18
48
1
60
0
100
AcDbSpline
70
4
71
3
72
92
73
88
40
0
40
0
40
0
40
0
40
0.0144687239717157
40
0.0144687239717157
40
0.0351384195111772
40
0.0351384195111772
40
0.0558081150506386
40
0.0558081150506386
40
0.0764778105901001
40
0.0764778105901001
40
0.0971475061295615
40
0.0971475061295615
40
0.117817201669023
40
0.117817201669023
40
0.138486897208484
40
0.138486897208484
40
0.159156592747946
40
0.159156592747946
40
0.179826288287407
40
0.179826288287407
40
0.200495983826869
40
0.200495983826869
40
0.241835374905792
40
0.241835374905792
40
0.262505070445254
40
0.262505070445254
40
0.283174765984715
40
0.283174765984715
40
0.324514157063636
40
0.324514157063636
40
0.345183852603097
40
0.345183852603097
40
0.365853548142557
40
0.365853548142557
40
0.407192939221477
40
0.407192939221477
40
0.427862634760937
40
0.427862634760937
40
0.448532330300397
40
0.448532330300397
40
0.489871721379317
40
0.489871721379317
40
0.531211112458237
40
0.531211112458237
40
0.551880807997696
40
0.551880807997696
40
0.572550503537155
40
0.572550503537155
40
0.593220199076614
40
0.593220199076614
40
0.613889894616073
40
0.613889894616073
40
0.634559590155532
40
0.634559590155532
40
0.644894437925262
40
0.644894437925262
40
0.655229285694991
40
0.655229285694991
40
0.696568676773911
40
0.696568676773911
40
0.71723837231337
40
0.71723837231337
40
0.737908067852829
40
0.737908067852829
40
0.779247458931748
40
0.779247458931748
40
0.789582306701478
40
0.789582306701478
40
0.799917154471208
40
0.799917154471208
40
0.820586850010667
40
0.820586850010667
40
0.841256545550126
40
0.841256545550126
40
0.861926241089585
40
0.861926241089585
40
0.882595936629044
40
0.882595936629044
40
0.903265632168503
40
0.903265632168503
40
0.944605023247421
40
0.944605023247421
40
0.96527471878688
40
0.96527471878688
40
0.985944414326339
40
0.985944414326339
40
1
40
1
40
1
40
1
41
1
10
22.5124984376144
20
2.82236506460575
30
0
41
1
10
22.6156675962657
20
2.82277642295
30
0
41
1
10
22.719029381488
20
2.82148638882211
30
0
41
1
10
22.9705752183367
20
2.81382927354676
30
0
41
1
10
23.1190084490902
20
2.80565874364399
30
0
41
1
10
23.4148705445408
20
2.78265687233991
30
0
41
1
10
23.5625074222632
20
2.76776439655964
30
0
41
1
10
23.8574923653095
20
2.73146790397595
30
0
41
1
10
24.0053319695429
20
2.71032452893988
30
0
41
1
10
24.3010770418821
20
2.66231652297736
30
0
41
1
10
24.4488938554619
20
2.63533733899217
30
0
41
1
10
24.7449386659732
20
2.57369181037848
30
0
41
1
10
24.8933565727263
20
2.53911735448168
30
0
41
1
10
25.1886099886205
20
2.46401297910259
30
0
41
1
10
25.3354758923638
20
2.42318920793804
30
0
41
1
10
25.6298473972683
20
2.33761081608793
30
0
41
1
10
25.7768019107165
20
2.29233255572979
30
0
41
1
10
26.0700650418345
20
2.19697153003895
30
0
41
1
10
26.2163974635241
20
2.14686701360299
30
0
41
1
10
26.5088053788279
20
2.04073368093594
30
0
41
1
10
26.6548459929197
20
1.98466828533847
30
0
41
1
10
27.0929178341976
20
1.80882499544691
30
0
41
1
10
27.3864964086407
20
1.68399449688334
30
0
41
1
10
27.8270182280507
20
1.48513441500361
30
0
41
1
10
27.9739098517436
20
1.41713121326836
30
0
41
1
10
28.2685780197946
20
1.27614515209976
30
0
41
1
10
28.4162178387027
20
1.20283064136646
30
0
41
1
10
28.8612116096564
20
0.981749237115423
30
0
41
1
10
29.1574149170666
20
0.829979626271182
30
0
41
1
10
29.6007584208596
20
0.596293811430002
30
0
41
1
10
29.7483014597293
20
0.517381386363127
30
0
41
1
10
30.0435825127415
20
0.357729354703338
30
0
41
1
10
30.1917629252402
20
0.277661420359465
30
0
41
1
10
30.6373179199371
20
0.0376389593244539
30
0
41
1
10
30.9333604957516
20
-0.122790175907426
30
0
41
1
10
31.3765698142849
20
-0.363211427889837
30
0
41
1
10
31.5238239093953
20
-0.44396879348335
30
0
41
1
10
31.8196377354546
20
-0.602387065588886
30
0
41
1
10
31.9680589573026
20
-0.680188393436254
30
0
41
1
10
32.4134705099087
20
-0.91238972147076
30
0
41
1
10
32.7093699095242
20
-1.06379511509499
30
0
41
1
10
33.2998961573148
20
-1.35559561200367
30
0
41
1
10
33.5962042117479
20
-1.49387514792932
30
0
41
1
10
34.0411664436725
20
-1.69173995688601
30
0
41
1
10
34.1894661760165
20
-1.75597100557943
30
0
41
1
10
34.4851687306609
20
-1.88081099844732
30
0
41
1
10
34.6324716194674
20
-1.94127767513001
30
0
41
1
10
34.9281609796947
20
-2.05476504318847
30
0
41
1
10
35.0763327028178
20
-2.1083972994457
30
0
41
1
10
35.3724837357965
20
-2.21131464018581
30
0
41
1
10
35.5205722510154
20
-2.26046067745762
30
0
41
1
10
35.8170193282088
20
-2.35367204806937
30
0
41
1
10
35.9652444375774
20
-2.39791681330303
30
0
41
1
10
36.1868728159537
20
-2.46047040871241
30
0
41
1
10
36.2606033620908
20
-2.48064436136224
30
0
41
1
10
36.4084426693023
20
-2.51884957176168
30
0
41
1
10
36.4824822233373
20
-2.53692681457858
30
0
41
1
10
36.852453122279
20
-2.62327639982385
30
0
41
1
10
37.1482283269393
20
-2.67975003589697
30
0
41
1
10
37.5924472472952
20
-2.74569547373724
30
0
41
1
10
37.7403631658811
20
-2.76460435046346
30
0
41
1
10
38.0363361206607
20
-2.79578068841522
30
0
41
1
10
38.1845237763274
20
-2.8078912850676
30
0
41
1
10
38.6283854645739
20
-2.83303808450907
30
0
41
1
10
38.9239047975336
20
-2.83634652511444
30
0
41
1
10
39.293708925308
20
-2.82288301372898
30
0
41
1
10
39.3676581703582
20
-2.81933003857213
30
0
41
1
10
39.5158514341855
20
-2.81072573671901
30
0
41
1
10
39.5900597144697
20
-2.80568319973685
30
0
41
1
10
39.8123763390858
20
-2.7880161473301
30
0
41
1
10
39.9603827279354
20
-2.77277796315275
30
0
41
1
10
40.2561486669937
20
-2.73514891194364
30
0
41
1
10
40.403946643347
20
-2.71292247136358
30
0
41
1
10
40.6994197729818
20
-2.66195586302115
30
0
41
1
10
40.8469088732533
20
-2.63304024862458
30
0
41
1
10
41.142886251724
20
-2.56925545927612
30
0
41
1
10
41.2917077994056
20
-2.5344442612751
30
0
41
1
10
41.5875933361527
20
-2.45902259587413
30
0
41
1
10
41.7350355050109
20
-2.41876416617046
30
0
41
1
10
42.1761949845315
20
-2.28799019323119
30
0
41
1
10
42.4682535342724
20
-2.18767809151731
30
0
41
1
10
42.9076376314438
20
-2.02612044048863
30
0
41
1
10
43.054000727254
20
-1.9699761874019
30
0
41
1
10
43.3465827823238
20
-1.85298775333482
30
0
41
1
10
43.4927729547431
20
-1.79250751761546
30
0
41
1
10
43.7385838475562
20
-1.68636203919081
30
0
41
1
10
43.8380925056935
20
-1.64215490151446
30
0
41
1
10
43.9377192654913
20
-1.59695127813214
30
0
0
SPLINE
5
C4
100
AcDbEntity
8
1
62
256
6
ByLayer
370
18
48
1
60
0
100
AcDbSpline
70
4
71
3
72
42
73
38
40
0
40
0
40
0
40
0
40
0.0357239865819193
40
0.0357239865819193
40
0.0816418919827831
40
0.0816418919827831
40
0.127559797383646
40
0.127559797383646
40
0.173477702784509
40
0.173477702784509
40
0.265313513586232
40
0.265313513586232
40
0.311231418987095
40
0.311231418987095
40
0.357149324387957
40
0.357149324387957
40
0.44898513518968
40
0.44898513518968
40
0.49490304059054
40
0.49490304059054
40
0.5408209459914
40
0.5408209459914
40
0.58673885139226
40
0.58673885139226
40
0.63265675679312
40
0.63265675679312
40
0.72449256759484
40
0.72449256759484
40
0.7704104729957
40
0.7704104729957
40
0.81632837839656
40
0.81632837839656
40
0.90816418919828
40
0.90816418919828
40
0.95408209459914
40
0.95408209459914
40
1
40
1
40
1
40
1
41
1
10
55.2193745149695
20
2.84099661582374
30
0
41
1
10
55.334045014495
20
2.84127632178871
30
0
41
1
10
55.4489232505788
20
2.83954339151262
30
0
41
1
10
55.7119286126655
20
2.83075329984516
30
0
41
1
10
55.8604226874521
20
2.82224216962601
30
0
41
1
10
56.1564493540862
20
2.79835817140776
30
0
41
1
10
56.3041230670672
20
2.78304450080995
30
0
41
1
10
56.5991631194292
20
2.74532183811709
30
0
41
1
10
56.7470531371837
20
2.72303675471625
30
0
41
1
10
57.1909566068414
20
2.64634075163207
30
0
41
1
10
57.4875017019962
20
2.5818849007978
30
0
41
1
10
57.9312664121517
20
2.46818646115673
30
0
41
1
10
58.0785905926487
20
2.42733680440915
30
0
41
1
10
58.3744257180635
20
2.33970570006466
30
0
41
1
10
58.5223706313564
20
2.29273361781412
30
0
41
1
10
58.966031965744
20
2.14370489072388
30
0
41
1
10
59.2622372438465
20
2.03309087777339
30
0
41
1
10
59.7057783985777
20
1.85285375923365
30
0
41
1
10
59.8537709822808
20
1.7911924036095
30
0
41
1
10
60.1496833347892
20
1.66360060873669
30
0
41
1
10
60.2975257888841
20
1.59749397082021
30
0
41
1
10
60.593099664101
20
1.46154141458726
30
0
41
1
10
60.7408322329744
20
1.39174826125176
30
0
41
1
10
61.0364247744539
20
1.24797030189015
30
0
41
1
10
61.1842683513594
20
1.17348085349474
30
0
41
1
10
61.6291869970436
20
0.949852254039627
30
0
41
1
10
61.9251393865334
20
0.7962482802902
30
0
41
1
10
62.3684302099282
20
0.559971414029548
30
0
41
1
10
62.5160713762652
20
0.480158886620302
30
0
41
1
10
62.8115552545807
20
0.318951836364306
30
0
41
1
10
62.9600730266782
20
0.238251136508438
30
0
41
1
10
63.4045542877578
20
-0.003252848133485
30
0
41
1
10
63.6989381625668
20
-0.164272849122966
30
0
41
1
10
64.1385797113085
20
-0.404251147270117
30
0
41
1
10
64.28451474084
20
-0.484540798622874
30
0
41
1
10
64.5774716678003
20
-0.641281589338462
30
0
41
1
10
64.7240016702917
20
-0.718627726731796
30
0
41
1
10
64.8704465565897
20
-0.795276489861607
30
0
0
SPLINE
5
C5
100
AcDbEntity
8
1
62
256
6
ByLayer
370
18
48
1
60
0
100
AcDbSpline
70
4
71
3
72
8
73
4
40
0
40
0
40
0
40
0
40
1
40
1
40
1
40
1
41
1
10
67.8798204160209
20
-0.205895931203088
30
0
41
1
10
67.5598959310109
20
-1.08488122969788
30
0
41
1
10
67.2399714460009
20
-1.96386652819265
30
0
41
1
10
66.9200469609906
20
-2.8428518266881
30
0
0
SPLINE
5
C6
100
AcDbEntity
8
1
62
256
6
ByLayer
370
18
48
1
60
0
100
AcDbSpline
70
4
71
3
72
8
73
4
40
0
40
0
40
0
40
0
40
1
40
1
40
1
40
1
41
1
10
67.9999715281801
20
0.0261355698398518
30
0
41
1
10
67.9950812696796
20
0.0122353371864108
30
0
41
1
10
67.989085721769
20
-0.0016482002524185
30
0
41
1
10
67.9831732442171
20
-0.0126125289145023
30
0
0
SPLINE
5
C7
100
AcDbEntity
8
1
62
256
6
ByLayer
370
18
48
1
60
0
100
AcDbSpline
70
4
71
3
72
8
73
4
40
0
40
0
40
0
40
0
40
1
40
1
40
1
40
1
41
1
10
66.9200469609908
20
-2.84285182668873
30
0
41
1
10
66.9291209675607
20
-2.84786736518103
30
0
41
1
10
66.9391162309001
20
-2.85021074464547
30
0
41
1
10
66.9500615764349
20
-2.84991820083448
30
0
0
SPLINE
5
C8
100
AcDbEntity
8
1
62
256
6
ByLayer
370
13
48
1
60
0
100
AcDbSpline
70
4
71
3
72
10
73
6
40
0
40
0
40
0
40
0
40
0.5
40
0.5
40
1
40
1
40
1
40
1
41
1
10
7.31892392637707
20
1.09028926761678
30
0
41
1
10
7.29749262064774
20
1.09668121242348
30
0
41
1
10
7.27647593186481
20
1.10394775442117
30
0
41
1
10
7.23528747100022
20
1.12028799440591
30
0
41
1
10
7.2150154720625
20
1.12943606185595
30
0
41
1
10
7.19609060563874
20
1.13921290420416
30
0
0
SPLINE
5
C9
100
AcDbEntity
8
1
62
256
6
ByLayer
370
18
48
1
60
0
100
AcDbSpline
70
4
71
3
72
8
73
4
40
0
40
0
40
0
40
0
40
1
40
1
40
1
40
1
41
1
10
67.999971528173
20
0.0261355698056605
30
0
41
1
10
68.0000094905842
20
0.0087118678892182
30
0
41
1
10
68.0000094905843
20
-0.0087118679038554
30
0
41
1
10
67.999971528173
20
-0.0261355698202976
30
0
0
SPLINE
5
CA
100
AcDbEntity
8
1
62
256
6
ByLayer
370
18
48
1
60
0
100
AcDbSpline
70
4
71
3
72
8
73
4
40
0
40
0
40
0
40
0
40
1
40
1
40
1
40
1
41
1
10
66.9446816730729
20
2.98415124975128
30
0
41
1
10
66.7658759837844
20
2.99461704536734
30
0
41
1
10
66.5871028087781
20
2.99976513413762
30
0
41
1
10
66.4081628468505
20
2.99959029213602
30
0
0
SPLINE
5
CB
100
AcDbEntity
8
1
62
256
6
ByLayer
370
18
48
1
60
0
100
AcDbSpline
70
4
71
3
72
44
73
40
40
0
40
0
40
0
40
0
40
0.0328334906966462
40
0.0328334906966462
40
0.0847700868175017
40
0.0847700868175017
40
0.188643279059213
40
0.188643279059213
40
0.21461157711964
40
0.21461157711964
40
0.240579875180068
40
0.240579875180068
40
0.292516471300922
40
0.292516471300922
40
0.39638966354263
40
0.39638966354263
40
0.422357961603057
40
0.422357961603057
40
0.448326259663483
40
0.448326259663483
40
0.500262855784339
40
0.500262855784339
40
0.60413604802605
40
0.60413604802605
40
0.708009240267761
40
0.708009240267761
40
0.759945836388617
40
0.759945836388617
40
0.785914134449045
40
0.785914134449045
40
0.811882432509472
40
0.811882432509472
40
0.915755624751185
40
0.915755624751185
40
0.967692220872041
40
0.967692220872041
40
0.993660518932469
40
0.993660518932469
40
1
40
1
40
1
40
1
41
1
10
51.6791321832994
20
-2.84690787874197
30
0
41
1
10
51.4812235319627
20
-2.88158934327359
30
0
41
1
10
51.282986034101
20
-2.91019983479913
30
0
41
1
10
50.7739213409977
20
-2.96712404968122
30
0
41
1
10
50.4636751385572
20
-2.98595884064301
30
0
41
1
10
49.5344916793819
20
-2.99492860423427
30
0
41
1
10
48.9175558432748
20
-2.9373212034568
30
0
41
1
10
48.1364367575541
20
-2.78749375536162
30
0
41
1
10
47.9793321216471
20
-2.75354702462192
30
0
41
1
10
47.6660967147012
20
-2.67842730216185
30
0
41
1
10
47.5100478599333
20
-2.63728857684188
30
0
41
1
10
47.0430406390163
20
-2.50376257315202
30
0
41
1
10
46.7332265864797
20
-2.40126261619062
30
0
41
1
10
45.8045525804614
20
-2.05790158381976
30
0
41
1
10
45.1866694390724
20
-1.78094634820778
30
0
41
1
10
44.4036753408571
20
-1.3894714445
30
0
41
1
10
44.2465382069713
20
-1.30892046238131
30
0
41
1
10
43.9339922540838
20
-1.14543812093962
30
0
41
1
10
43.7781895432995
20
-1.06231435666604
30
0
41
1
10
43.3117724044832
20
-0.809536601778319
30
0
41
1
10
43.0022664856025
20
-0.63627087684722
30
0
41
1
10
42.0737316678744
20
-0.109830129944555
30
0
41
1
10
41.4545987668514
20
0.250486050018907
30
0
41
1
10
40.1989115754905
20
0.955464337525143
30
0
41
1
10
39.5802059654347
20
1.28909931311441
30
0
41
1
10
38.6514359337077
20
1.73928689473871
30
0
41
1
10
38.3416632353469
20
1.88087521993503
30
0
41
1
10
37.8749967974884
20
2.07792581252761
30
0
41
1
10
37.7191015223322
20
2.14104722975043
30
0
41
1
10
37.4063815234081
20
2.2617684677987
30
0
41
1
10
37.2491680523621
20
2.31948107084625
30
0
41
1
10
36.4661997387615
20
2.59048222696467
30
0
41
1
10
35.8481063552986
20
2.75261087920399
30
0
41
1
10
34.9188817525599
20
2.90507008826882
30
0
41
1
10
34.6087804063105
20
2.94075701387524
30
0
41
1
10
34.1411954127923
20
2.9705468856497
30
0
41
1
10
33.9849729632456
20
2.97653042708873
30
0
41
1
10
33.7899606770944
20
2.97893473675165
30
0
41
1
10
33.7516756062379
20
2.97916342507872
30
0
41
1
10
33.7133876916878
20
2.97915002858503
30
0
0
SPLINE
5
CC
100
AcDbEntity
8
1
62
256
6
ByLayer
370
18
48
1
60
0
100
AcDbSpline
70
4
71
3
72
30
73
26
40
0
40
0
40
0
40
0
40
0.0470899790874532
40
0.0470899790874532
40
0.205908315906208
40
0.205908315906208
40
0.245612900110897
40
0.245612900110897
40
0.285317484315586
40
0.285317484315586
40
0.364726652724965
40
0.364726652724965
40
0.523544989543724
40
0.523544989543724
40
0.563249573748413
40
0.563249573748413
40
0.602954157953102
40
0.602954157953102
40
0.682363326362482
40
0.682363326362482
40
0.841181663181242
40
0.841181663181242
40
0.920590831590621
40
0.920590831590621
40
1
40
1
40
1
40
1
41
1
10
18.9706048567741
20
-2.82900443200145
30
0
41
1
10
18.7853644778274
20
-2.86107699487192
30
0
41
1
10
18.6007192728292
20
-2.88765283289379
30
0
41
1
10
17.794842922803
20
-2.9797603769037
30
0
41
1
10
17.1773292154876
20
-2.9881157397229
30
0
41
1
10
16.3985054367511
20
-2.91902127667021
30
0
41
1
10
16.2423680735751
20
-2.90123377827359
30
0
41
1
10
15.9290494921273
20
-2.85771440595218
30
0
41
1
10
15.7715606142225
20
-2.83191302279971
30
0
41
1
10
15.3014577133379
20
-2.74347263492376
30
0
41
1
10
14.990237876053
20
-2.66958089907971
30
0
41
1
10
14.0588939988619
20
-2.40722873077488
30
0
41
1
10
13.4409312417058
20
-2.17835549149987
30
0
41
1
10
12.6606722197386
20
-1.8370874380505
30
0
41
1
10
12.5042030832948
20
-1.76610855823671
30
0
41
1
10
12.1901119605602
20
-1.61905934431368
30
0
41
1
10
12.0329658058708
20
-1.54320866974456
30
0
41
1
10
11.563766517395
20
-1.3108508843257
30
0
41
1
10
11.2529372299302
20
-1.14869152869335
30
0
41
1
10
10.322088767306
20
-0.647765529660433
30
0
41
1
10
9.70357784790332
20
-0.294821139098531
30
0
41
1
10
8.76531951015892
20
0.23948405957978
30
0
41
1
10
8.45026671084719
20
0.418605340587192
30
0
41
1
10
7.82288094724728
20
0.768536532934633
30
0
41
1
10
7.50941252451821
20
0.939852588389272
30
0
41
1
10
7.19507550422526
20
1.10565921889739
30
0
0
SPLINE
5
CD
100
AcDbEntity
8
1
62
256
6
ByLayer
370
18
48
1
60
0
100
AcDbSpline
70
4
71
3
72
34
73
30
40
0
40
0
40
0
40
0
40
0.0625000000000006
40
0.0625000000000006
40
0.125000000000001
40
0.125000000000001
40
0.187500000000002
40
0.187500000000002
40
0.250000000000002
40
0.250000000000002
40
0.312500000000003
40
0.312500000000003
40
0.375000000000004
40
0.375000000000004
40
0.437500000000004
40
0.437500000000004
40
0.500000000000005
40
0.500000000000005
40
0.562500000000005
40
0.562500000000005
40
0.625000000000006
40
0.625000000000006
40
0.687500000000007
40
0.687500000000007
40
0.750000000000007
40
0.750000000000007
40
0.875000000000004
40
0.875000000000004
40
1
40
1
40
1
40
1
41
1
10
67.0939720339415
20
-1.27252142135811
30
0
41
1
10
67.0904148158236
20
-1.30306561735014
30
0
41
1
10
67.089707069931
20
-1.3313504094987
30
0
41
1
10
67.0935640255408
20
-1.38000914069741
30
0
41
1
10
67.0981311442386
20
-1.40087363673479
30
0
41
1
10
67.1113450302385
20
-1.43443202760213
30
0
41
1
10
67.1200567627966
20
-1.44741324402085
30
0
41
1
10
67.1405446768771
20
-1.46587028838189
30
0
41
1
10
67.1522263811309
20
-1.47137711569397
30
0
41
1
10
67.1781845419852
20
-1.47567409828926
30
0
41
1
10
67.1922142877371
20
-1.47438876109939
30
0
41
1
10
67.2218366622869
20
-1.46560388828132
30
0
41
1
10
67.2376474826006
20
-1.45798643891718
30
0
41
1
10
67.2700430765294
20
-1.43696689355204
30
0
41
1
10
67.2866241825359
20
-1.42363437729341
30
0
41
1
10
67.3205712612354
20
-1.39118947226211
30
0
41
1
10
67.3380272681511
20
-1.37193475141871
30
0
41
1
10
67.3727140659452
20
-1.32813784819351
30
0
41
1
10
67.38989895452
20
-1.30367770946509
30
0
41
1
10
67.4231438978237
20
-1.25029089973441
30
0
41
1
10
67.4395395995621
20
-1.22076016175524
30
0
41
1
10
67.4698259145287
20
-1.15858767678097
30
0
41
1
10
67.4839378633008
20
-1.12552131902265
30
0
41
1
10
67.5084080637314
20
-1.05788095320179
30
0
41
1
10
67.5185210113694
20
-1.02414825316325
30
0
41
1
10
67.5417648533958
20
-0.923242634870093
30
0
41
1
10
67.5457681809477
20
-0.86286039973163
30
0
41
1
10
67.5325937942412
20
-0.772846546756597
30
0
41
1
10
67.5160911924823
20
-0.743900435136425
30
0
41
1
10
67.4940495044611
20
-0.729499589380907
30
0
0
SPLINE
5
CE
100
AcDbEntity
8
1
62
256
6
ByLayer
370
18
48
1
60
0
100
AcDbSpline
70
4
71
3
72
14
73
10
40
0
40
0
40
0
40
0
40
0.25
40
0.25
40
0.5
40
0.5
40
0.75
40
0.75
40
1
40
1
40
1
40
1
41
1
10
64.8704465565897
20
-0.79527648986155
30
0
41
1
10
64.985450391588
20
-0.936297029566248
30
0
41
1
10
65.1083044018073
20
-1.06860144372084
30
0
41
1
10
65.3670271938378
20
-1.31875984512783
30
0
41
1
10
65.5002139931971
20
-1.4339146807819
30
0
41
1
10
65.7725946189267
20
-1.64810744207895
30
0
41
1
10
65.9118000817412
20
-1.74721792692742
30
0
41
1
10
66.1952032785043
20
-1.93221641756165
30
0
41
1
10
66.3394170084252
20
-2.01806205657582
30
0
41
1
10
66.4859346961914
20
-2.09780545603732
30
0
0
SPLINE
5
CF
100
AcDbEntity
8
1
62
256
6
ByLayer
370
18
48
1
60
0
100
AcDbSpline
70
4
71
3
72
8
73
4
40
0
40
0
40
0
40
0
40
1
40
1
40
1
40
1
41
1
10
7.12987209542084
20
1.15504517495839
30
0
41
1
10
7.10525023641992
20
1.18116891501609
30
0
41
1
10
7.08966716742643
20
1.2137689006212
30
0
41
1
10
7.08966560747902
20
1.24796188338419
30
0
0
SPLINE
5
D0
100
AcDbEntity
8
1
62
256
6
ByLayer
370
13
48
1
60
0
100
AcDbSpline
70
4
71
3
72
8
73
4
40
0
40
0
40
0
40
0
40
1
40
1
40
1
40
1
41
1
10
7.08966560747874
20
1.2479618833913
30
0
41
1
10
7.11045868559859
20
1.20375315059692
30
0
41
1
10
7.14655990373706
20
1.16480113574315
30
0
41
1
10
7.19609060563872
20
1.13921290420416
30
0
0
SPLINE
5
D1
100
AcDbEntity
8
1
62
256
6
ByLayer
370
18
48
1
60
0
100
AcDbSpline
70
4
71
3
72
8
73
4
40
0
40
0
40
0
40
0
40
1
40
1
40
1
40
1
41
1
10
67.8626576556949
20
0.898301298719645
30
0
41
1
10
67.9081775944298
20
0.634891424920653
30
0
41
1
10
67.9477439115267
20
0.371517955950111
30
0
41
1
10
67.9813078450166
20
0.108181189974658
30
0
0
SPLINE
5
D2
100
AcDbEntity
8
1
62
256
6
ByLayer
370
18
48
1
60
0
100
AcDbSpline
70
4
71
3
72
8
73
4
40
0
40
0
40
0
40
0
40
1
40
1
40
1
40
1
41
1
10
7.31860331503529
20
2.81180788260826
30
0
41
1
10
7.30412170778223
20
2.81216815960363
30
0
41
1
10
7.28944114529762
20
2.81356802601437
30
0
41
1
10
7.27452035910056
20
2.81624545735664
30
0
0
SPLINE
5
D3
100
AcDbEntity
8
1
62
256
6
ByLayer
370
18
48
1
60
0
100
AcDbSpline
70
4
71
3
72
24
73
20
40
0
40
0
40
0
40
0
40
0.0841753573508097
40
0.0841753573508097
40
0.31106121445046
40
0.31106121445046
40
0.367782678725373
40
0.367782678725373
40
0.424504143000285
40
0.424504143000285
40
0.537947071550111
40
0.537947071550111
40
0.764832928649767
40
0.764832928649767
40
0.878275857199597
40
0.878275857199597
40
0.991718785749426
40
0.991718785749426
40
1
40
1
40
1
40
1
41
1
10
21.5275328760354
20
2.03315976736667
30
0
41
1
10
21.7580429883522
20
1.9404063769081
30
0
41
1
10
21.9879635574168
20
1.84194441094226
30
0
41
1
10
22.8371243288896
20
1.45943578809872
30
0
41
1
10
23.4553868538338
20
1.14370496042747
30
0
41
1
10
24.2386114684167
20
0.721032120756519
30
0
41
1
10
24.3957241896373
20
0.635130963906732
30
0
41
1
10
24.7082981256638
20
0.462885285691158
30
0
41
1
10
24.8641347672409
20
0.376316647394276
30
0
41
1
10
25.3306288526876
20
0.115869245067643
30
0
41
1
10
25.6402772397875
20
-0.0587408730899028
30
0
41
1
10
26.5686572342369
20
-0.579163059057976
30
0
41
1
10
27.1875900423991
20
-0.920221461865935
30
0
41
1
10
28.1287413377351
20
-1.39990631163226
30
0
41
1
10
28.4408303103307
20
-1.55182767387248
30
0
41
1
10
29.0621083956345
20
-1.83643965242496
30
0
41
1
10
29.3715380052478
20
-1.96935671074454
30
0
41
1
10
29.7035115402008
20
-2.10011809669624
30
0
41
1
10
29.7260978016071
20
-2.10895391293283
30
0
41
1
10
29.7486856474282
20
-2.11772905389535
30
0
0
SPLINE
5
D4
100
AcDbEntity
8
1
62
256
6
ByLayer
370
13
48
1
60
0
100
AcDbSpline
70
4
71
3
72
20
73
16
40
0
40
0
40
0
40
0
40
0.162688760966946
40
0.162688760966946
40
0.250438706923587
40
0.250438706923587
40
0.338188652880229
40
0.338188652880229
40
0.689188436706806
40
0.689188436706806
40
0.864688328620097
40
0.864688328620097
40
0.952438274576744
40
0.952438274576744
40
1
40
1
40
1
40
1
41
1
10
29.7486847152271
20
-2.11772869174493
30
0
41
1
10
30.0355241913798
20
-2.22916283825393
30
0
41
1
10
30.3226191703859
20
-2.3308124559519
30
0
41
1
10
30.7660858764871
20
-2.47080920378883
30
0
41
1
10
30.921751406808
20
-2.51675774011673
30
0
41
1
10
31.2339469549181
20
-2.6020425560267
30
0
41
1
10
31.3907909353725
20
-2.64144473362123
30
0
41
1
10
32.174202267473
20
-2.81995731141186
30
0
41
1
10
32.7926938129779
20
-2.90223079047234
30
0
41
1
10
33.7211363408354
20
-2.9328196727879
30
0
41
1
10
34.0307529692639
20
-2.92758898232833
30
0
41
1
10
34.4974588171574
20
-2.89613105485486
30
0
41
1
10
34.6533629130239
20
-2.8816924310928
30
0
41
1
10
34.894500843021
20
-2.85336855747235
30
0
41
1
10
34.9794701766677
20
-2.84224355815857
30
0
41
1
10
35.0644598090199
20
-2.82998877928307
30
0
0
SPLINE
5
D5
100
AcDbEntity
8
1
62
256
6
ByLayer
370
18
48
1
60
0
100
AcDbSpline
70
4
71
3
72
24
73
20
40
0
40
0
40
0
40
0
40
0.0962070614995998
40
0.0962070614995998
40
0.201813047941122
40
0.201813047941122
40
0.41302502082417
40
0.41302502082417
40
0.518631007265694
40
0.518631007265694
40
0.571434000486454
40
0.571434000486454
40
0.624236993707213
40
0.624236993707213
40
0.835448966590246
40
0.835448966590246
40
0.941054953031763
40
0.941054953031763
40
1
40
1
40
1
40
1
41
1
10
54.0113763069152
20
2.13343824585638
30
0
41
1
10
54.2933397059574
20
2.0240440810966
30
0
41
1
10
54.5757402822391
20
1.90494930532128
30
0
41
1
10
55.1709331476118
20
1.63699054626332
30
0
41
1
10
55.485264397156
20
1.48581259094161
30
0
41
1
10
56.4197673660576
20
1.01473448619177
30
0
41
1
10
57.0359880831991
20
0.675630367274493
30
0
41
1
10
57.9640505230418
20
0.153921006994892
30
0
41
1
10
58.2741289840594
20
-0.0219617753747627
30
0
41
1
10
58.7420252273628
20
-0.285818610614058
30
0
41
1
10
58.8988041498451
20
-0.374012918247132
30
0
41
1
10
59.2116696783673
20
-0.548860733674843
30
0
41
1
10
59.3674960302461
20
-0.635394357183401
30
0
41
1
10
60.1445979769923
20
-1.06204008803337
30
0
41
1
10
60.7596871294924
20
-1.38400242956214
30
0
41
1
10
61.6864272181529
20
-1.81575598322587
30
0
41
1
10
61.9959400305839
20
-1.95126583830446
30
0
41
1
10
62.4810055805049
20
-2.14632638722532
30
0
41
1
10
62.6556991369013
20
-2.2130420865075
30
0
41
1
10
62.8302586516821
20
-2.27589805386191
30
0
0
SPLINE
5
D6
100
AcDbEntity
8
1
62
256
6
ByLayer
370
13
48
1
60
0
100
AcDbSpline
70
4
71
3
72
14
73
10
40
0
40
0
40
0
40
0
40
0.0994720693748835
40
0.0994720693748835
40
0.549736034687438
40
0.549736034687438
40
0.774868017343719
40
0.774868017343719
40
1
40
1
40
1
40
1
41
1
10
62.8302595911372
20
-2.27589839214397
30
0
41
1
10
62.9684407088296
20
-2.32565509514529
30
0
41
1
10
63.1065378309835
20
-2.37299317816405
30
0
41
1
10
63.8663428115702
20
-2.61931958767863
30
0
41
1
10
64.4815190858031
20
-2.76682913774917
30
0
41
1
10
65.4075572507391
20
-2.89818456091734
30
0
41
1
10
65.7167785771017
20
-2.92702596394202
30
0
41
1
10
66.3386883059547
20
-2.95337367098057
30
0
41
1
10
66.6522735810079
20
-2.95076516798423
30
0
41
1
10
66.9653186502603
20
-2.93197165067485
30
0
0
SPLINE
5
D7
100
AcDbEntity
8
1
62
256
6
ByLayer
370
18
48
1
60
0
100
AcDbSpline
70
4
71
3
72
8
73
4
40
0
40
0
40
0
40
0
40
1
40
1
40
1
40
1
41
1
10
67.9813078450166
20
0.108181189974658
30
0
41
1
10
67.9842027869433
20
0.0854679807230525
30
0
41
1
10
67.9910567441995
20
0.0565660133875951
30
0
41
1
10
67.9999715281728
20
0.026135569820525
30
0
0
SPLINE
5
D8
100
AcDbEntity
8
1
62
256
6
ByLayer
370
18
48
1
60
0
100
AcDbSpline
70
4
71
3
72
23
73
19
40
0
40
0
40
0
40
0
40
0.130915215784478
40
0.130915215784478
40
0.261830431568956
40
0.392745647353433
40
0.392745647353433
40
0.523660863137911
40
0.523660863137911
40
0.654576078922389
40
0.654576078922389
40
0.720033686814628
40
0.720033686814628
40
0.785491294706867
40
0.785491294706867
40
0.916406510491344
40
0.916406510491344
40
1
40
1
40
1
40
1
41
1
10
7.08966560747905
20
1.24796188339209
30
0
41
1
10
7.08965949689252
20
1.3819019875051
30
0
41
1
10
7.089650385482
20
1.51150797110384
30
0
41
1
10
7.08962838066839
20
1.75745997039223
30
0
41
1
10
7.08960280516482
20
1.98877255214748
30
0
41
1
10
7.08957412032049
20
2.19164871482695
30
0
41
1
10
7.0895457633053
20
2.37976719403397
30
0
41
1
10
7.0895320258137
20
2.46467077620903
30
0
41
1
10
7.08950733695013
20
2.61507242903903
30
0
41
1
10
7.08949633155231
20
2.68088822297489
30
0
41
1
10
7.08948285688751
20
2.76526177605496
30
0
41
1
10
7.08947885671532
20
2.79107677033008
30
0
41
1
10
7.08947210233359
20
2.83719641604245
30
0
41
1
10
7.08946934417301
20
2.85751517689957
30
0
41
1
10
7.08946301224273
20
2.91044550663199
30
0
41
1
10
7.0894613872662
20
2.93507400672101
30
0
41
1
10
7.08946321365963
20
2.95794203334864
30
0
41
1
10
7.08946507288778
20
2.96244427680009
30
0
41
1
10
7.08946801263812
20
2.9624808636836
30
0
0
SPLINE
5
D9
100
AcDbEntity
8
1
62
256
6
ByLayer
370
18
48
1
60
0
100
AcDbSpline
70
4
71
3
72
18
73
14
40
0
40
0
40
0
40
0
40
0.303163889443355
40
0.303163889443355
40
0.378954861804193
40
0.378954861804193
40
0.45474583416503
40
0.45474583416503
40
0.606327778886703
40
0.606327778886703
40
0.90949166833005
40
0.90949166833005
40
1
40
1
40
1
40
1
41
1
10
7.27004188265676
20
1.04760313691645
30
0
41
1
10
7.89740835398905
20
0.720675143729522
30
0
41
1
10
8.51874221283987
20
0.37342533958747
30
0
41
1
10
9.300177885881
20
-0.0639781142469644
30
0
41
1
10
9.45669985788362
20
-0.151633465516852
30
0
41
1
10
9.77056203998714
20
-0.326665900479895
30
0
41
1
10
9.92770366262513
20
-0.413934353846145
30
0
41
1
10
10.3967771820255
20
-0.672454685423048
30
0
41
1
10
10.7076122776961
20
-0.841134991129394
30
0
41
1
10
11.6378425388116
20
-1.33062003167146
30
0
41
1
10
12.2556577754915
20
-1.63381317078262
30
0
41
1
10
13.0662375178289
20
-1.97862655205117
30
0
41
1
10
13.2536306492838
20
-2.05463808243709
30
0
41
1
10
13.4408474110678
20
-2.12646885730234
30
0
0
SPLINE
5
DA
100
AcDbEntity
8
1
62
256
6
ByLayer
370
13
48
1
60
0
100
AcDbSpline
70
4
71
3
72
20
73
16
40
0
40
0
40
0
40
0
40
0.0714513282642688
40
0.0714513282642688
40
0.248790472227779
40
0.248790472227779
40
0.603468760154795
40
0.603468760154795
40
0.69213833213655
40
0.69213833213655
40
0.780807904118305
40
0.780807904118305
40
0.958147048081815
40
0.958147048081815
40
1
40
1
40
1
40
1
41
1
10
13.4408477947973
20
-2.1264690045306
30
0
41
1
10
13.5671786227266
20
-2.17493924011762
30
0
41
1
10
13.6934291433291
20
-2.22150583902379
30
0
41
1
10
14.131453013417
20
-2.37603934176397
30
0
41
1
10
14.4419162407804
20
-2.47340809490282
30
0
41
1
10
15.3715474249862
20
-2.72440353125697
30
0
41
1
10
15.9895781251802
20
-2.83660878757192
30
0
41
1
10
16.7707234429214
20
-2.89965906903785
30
0
41
1
10
16.9277513246785
20
-2.90842572917117
30
0
41
1
10
17.2413404317664
20
-2.91798815557982
30
0
41
1
10
17.3975863140062
20
-2.91880312294978
30
0
41
1
10
17.8651996972235
20
-2.90940269614862
30
0
41
1
10
18.1753887897956
20
-2.88740978895038
30
0
41
1
10
18.5582798192679
20
-2.84162698614878
30
0
41
1
10
18.6313646324366
20
-2.83204356416567
30
0
41
1
10
18.7044406071022
20
-2.82162628913156
30
0
0
SPLINE
5
DB
100
AcDbEntity
8
1
62
256
6
ByLayer
370
18
48
1
60
0
100
AcDbSpline
70
4
71
3
72
20
73
16
40
0
40
0
40
0
40
0
40
0.380130700668163
40
0.380130700668163
40
0.486163762755349
40
0.486163762755349
40
0.592196824842535
40
0.592196824842535
40
0.698229886929721
40
0.698229886929721
40
0.751246417973313
40
0.751246417973313
40
0.804262949016904
40
0.804262949016904
40
1
40
1
40
1
40
1
41
1
10
37.5457196340951
20
2.16992211495281
30
0
41
1
10
38.663449710982
20
1.74747118795739
30
0
41
1
10
39.757468327435
20
1.18392628421077
30
0
41
1
10
41.195239137545
20
0.388865122935442
30
0
41
1
10
41.5070366050389
20
0.213328186039149
30
0
41
1
10
42.1279442130467
20
-0.13625735682129
30
0
41
1
10
42.4372237135246
20
-0.310692909559094
30
0
41
1
10
43.0557053895643
20
-0.654819972678325
30
0
41
1
10
43.3649243367961
20
-0.824482905315847
30
0
41
1
10
43.8307580702555
20
-1.07169458745719
30
0
41
1
10
43.9863403806721
20
-1.15293852252501
30
0
41
1
10
44.298385418386
20
-1.312629969049
30
0
41
1
10
44.4551662544385
20
-1.39122906996863
30
0
41
1
10
45.1900282068714
20
-1.75038061499325
30
0
41
1
10
45.7608569222803
20
-2.00189600043853
30
0
41
1
10
46.3316666056964
20
-2.21369943783472
30
0
0
SPLINE
5
DC
100
AcDbEntity
8
1
62
256
6
ByLayer
370
13
48
1
60
0
100
AcDbSpline
70
4
71
3
72
20
73
16
40
0
40
0
40
0
40
0
40
0.0286140527907631
40
0.0286140527907631
40
0.214418579559836
40
0.214418579559836
40
0.307320842944373
40
0.307320842944373
40
0.400223106328909
40
0.400223106328909
40
0.771832159867055
40
0.771832159867055
40
0.957636686636128
40
0.957636686636128
40
1
40
1
40
1
40
1
41
1
10
46.331665667797
20
-2.21369908981975
30
0
41
1
10
46.379284931734
20
-2.23136859710431
30
0
41
1
10
46.4269040631882
20
-2.24876172615819
30
0
41
1
10
46.7837678280035
20
-2.37698809643365
30
0
41
1
10
47.0931554810466
20
-2.47625310128996
30
0
41
1
10
47.5592833254117
20
-2.60504006723483
30
0
41
1
10
47.7150038158267
20
-2.64463355196091
30
0
41
1
10
48.0274857687695
20
-2.71677807299687
30
0
41
1
10
48.1845785521896
20
-2.74938455240328
30
0
41
1
10
48.9662947243088
20
-2.89288186790924
30
0
41
1
10
49.5832360131166
20
-2.94630299606058
30
0
41
1
10
50.5112573029172
20
-2.93257834393774
30
0
41
1
10
50.8209028220483
20
-2.91246692107441
30
0
41
1
10
51.2028826080723
20
-2.86865133829619
30
0
41
1
10
51.2738784614075
20
-2.85970378996038
30
0
41
1
10
51.3449670454198
20
-2.84994143573948
30
0
0
SPLINE
5
DD
100
AcDbEntity
8
1
62
256
6
ByLayer
370
18
48
1
60
0
100
AcDbSpline
70
4
71
3
72
8
73
4
40
0
40
0
40
0
40
0
40
1
40
1
40
1
40
1
41
1
10
66.9653186502652
20
-2.93197165067718
30
0
41
1
10
66.9584437381968
20
-2.94937505656458
30
0
41
1
10
66.9515645581672
20
-2.9667684685202
30
0
41
1
10
66.9446816730729
20
-2.98415124975128
30
0
0
SPLINE
5
DE
100
AcDbEntity
8
1
62
256
6
ByLayer
370
18
48
1
60
0
100
AcDbSpline
70
4
71
3
72
8
73
4
40
0
40
0
40
0
40
0
40
1
40
1
40
1
40
1
41
1
10
67.0683693428992
20
2.8765806528385
30
0
41
1
10
67.0207598189533
20
2.92907406104024
30
0
41
1
10
66.9796951328373
20
2.96507388552072
30
0
41
1
10
66.9446816730729
20
2.98415124975128
30
0
0
SPLINE
5
DF
100
AcDbEntity
8
1
62
256
6
ByLayer
370
18
48
1
60
0
100
AcDbSpline
70
4
71
3
72
12
73
8
40
0
40
0
40
0
40
0
40
0.5
40
0.5
40
0.75
40
0.75
40
1
40
1
40
1
40
1
41
1
10
7.3186033155624
20
-2.81180788259499
30
0
41
1
10
7.46391791326946
20
-2.80819271016486
30
0
41
1
10
7.61512714883477
20
-2.78623436379578
30
0
41
1
10
7.85150838093546
20
-2.72981347533761
30
0
41
1
10
7.93210543623042
20
-2.70699683604266
30
0
41
1
10
8.09567764117639
20
-2.65425351324589
30
0
41
1
10
8.17856869643927
20
-2.62437249930716
30
0
41
1
10
8.26266603594939
20
-2.59129054726679
30
0
0
SPLINE
5
E0
100
AcDbEntity
8
1
62
256
6
ByLayer
370
18
48
1
60
0
100
AcDbSpline
70
4
71
3
72
12
73
8
40
0
40
0
40
0
40
0
40
0.25
40
0.25
40
0.500000000000001
40
0.500000000000001
40
1
40
1
40
1
40
1
41
1
10
66.6993686041433
20
0.80006655912635
30
0
41
1
10
66.6972857575514
20
0.809926754937464
30
0
41
1
10
66.6970678361495
20
0.820252993087223
30
0
41
1
10
66.7021660397878
20
0.839633829330722
30
0
41
1
10
66.7076764823793
20
0.848671960925884
30
0
41
1
10
66.7304836831549
20
0.8691902204462
30
0
41
1
10
66.7515493699485
20
0.873822613363444
30
0
41
1
10
66.7717535398992
20
0.873858037476396
30
0
0
SPLINE
5
E1
100
AcDbEntity
8
1
62
256
6
ByLayer
370
18
48
1
60
0
100
AcDbSpline
70
4
71
3
72
28
73
24
40
0
40
0
40
0
40
0
40
0.125000000000016
40
0.125000000000016
40
0.187500000000015
40
0.187500000000015
40
0.250000000000014
40
0.250000000000014
40
0.312500000000013
40
0.312500000000013
40
0.375000000000012
40
0.375000000000012
40
0.437500000000011
40
0.437500000000011
40
0.50000000000001
40
0.50000000000001
40
0.625000000000007
40
0.625000000000007
40
0.750000000000005
40
0.750000000000005
40
0.875000000000002
40
0.875000000000002
40
1
40
1
40
1
40
1
41
1
10
67.0939720339414
20
-1.27252142135816
30
0
41
1
10
67.0464595746852
20
-1.23931809960865
30
0
41
1
10
66.9997095061057
20
-1.20247161920446
30
0
41
1
10
66.9340259427721
20
-1.13982266447067
30
0
41
1
10
66.9127632216885
20
-1.11756196405028
30
0
41
1
10
66.8732089782729
20
-1.07017477845562
30
0
41
1
10
66.8547485883483
20
-1.04497925160865
30
0
41
1
10
66.8227731875024
20
-0.989733949039987
30
0
41
1
10
66.8095446972226
20
-0.959867452763916
30
0
41
1
10
66.7954794779695
20
-0.898925607537535
30
0
41
1
10
66.7952013668184
20
-0.867547769793589
30
0
41
1
10
66.8104433171789
20
-0.813283964222052
30
0
41
1
10
66.8253151002039
20
-0.79080457927347
30
0
41
1
10
66.8605986985604
20
-0.755612041553889
30
0
41
1
10
66.8813896978371
20
-0.742105804409704
30
0
41
1
10
66.9465886553587
20
-0.710029584292755
30
0
41
1
10
66.9945779200193
20
-0.698920552234313
30
0
41
1
10
67.091914355029
20
-0.686245204930259
30
0
41
1
10
67.1412909615298
20
-0.684964376493213
30
0
41
1
10
67.2408986565192
20
-0.688502451796296
30
0
41
1
10
67.2911435174189
20
-0.693419670093192
30
0
41
1
10
67.3923028215717
20
-0.70803393011667
30
0
41
1
10
67.4433644643975
20
-0.717797206394692
30
0
41
1
10
67.494049504461
20
-0.729499589380907
30
0
0
SPLINE
5
E2
100
AcDbEntity
8
1
62
256
6
ByLayer
370
18
48
1
60
0
100
AcDbSpline
70
4
71
3
72
10
73
6
40
0
40
0
40
0
40
0
40
0.5
40
0.5
40
1
40
1
40
1
40
1
41
1
10
67.0683693428906
20
2.87658065286271
30
0
41
1
10
67.2026254838707
20
2.54929998208584
30
0
41
1
10
67.3365462585998
20
2.22094449259723
30
0
41
1
10
67.6021172613096
20
1.5613934131033
30
0
41
1
10
67.7338209042205
20
1.22992371886855
30
0
41
1
10
67.8626576556949
20
0.898301298719616
30
0
0
SPLINE
5
E3
100
AcDbEntity
8
1
62
256
6
ByLayer
370
18
48
1
60
0
100
AcDbSpline
70
4
71
3
72
8
73
4
40
0
40
0
40
0
40
0
40
1
40
1
40
1
40
1
41
1
10
7.12987209540935
20
1.1550451749759
30
0
41
1
10
7.14836219372347
20
1.13069664280556
30
0
41
1
10
7.17024555586369
20
1.10990341957904
30
0
41
1
10
7.19609060563874
20
1.09325148094638
30
0
0
SPLINE
5
E4
100
AcDbEntity
8
1
62
256
6
ByLayer
370
18
48
1
60
0
100
AcDbSpline
70
4
71
3
72
36
73
32
40
0
40
0
40
0
40
0
40
0.124999999999997
40
0.124999999999997
40
0.249999999999993
40
0.249999999999993
40
0.312499999999987
40
0.312499999999987
40
0.374999999999981
40
0.374999999999981
40
0.499999999999969
40
0.499999999999969
40
0.562499999999967
40
0.562499999999967
40
0.624999999999964
40
0.749999999999959
40
0.749999999999959
40
0.78124999999996
40
0.78124999999996
40
0.796874999999963
40
0.796874999999963
40
0.804687499999964
40
0.804687499999964
40
0.812499999999965
40
0.812499999999965
40
0.828124999999967
40
0.828124999999967
40
0.843749999999969
40
0.843749999999969
40
0.874999999999975
40
1
40
1
40
1
40
1
41
1
10
64.8704465565896
20
-0.795276489861635
30
0
41
1
10
64.9961382551973
20
-0.82409162916224
30
0
41
1
10
65.1227979735666
20
-0.845360468559903
30
0
41
1
10
65.3722030154191
20
-0.868162427872903
30
0
41
1
10
65.4950148679273
20
-0.869883897556747
30
0
41
1
10
65.6757784393566
20
-0.854781861945298
30
0
41
1
10
65.735450947529
20
-0.846768149290966
30
0
41
1
10
65.853445711465
20
-0.823827940371444
30
0
41
1
10
65.9121943822026
20
-0.808934717964149
30
0
41
1
10
66.0824867989541
20
-0.751070159382948
30
0
41
1
10
66.1884895389481
20
-0.697690223724095
30
0
41
1
10
66.3362372268593
20
-0.595477696010931
30
0
41
1
10
66.3837308785119
20
-0.557527326774931
30
0
41
1
10
66.4741548864391
20
-0.474521864285947
30
0
41
1
10
66.6015446611767
20
-0.340759464609022
30
0
41
1
10
66.7060895248593
20
-0.181359733901246
30
0
41
1
10
66.7825536184484
20
-0.0365673990687583
30
0
41
1
10
66.7972717703943
20
-0.0070893698342331
30
0
41
1
10
66.8185098184643
20
0.037786739764158
30
0
41
1
10
66.8254512478579
20
0.0528590883338325
30
0
41
1
10
66.8356636136557
20
0.0756322275164507
30
0
41
1
10
66.8386909867512
20
0.0837261027765521
30
0
41
1
10
66.8415699095739
20
0.101295027024179
30
0
41
1
10
66.8417493869529
20
0.110591520739604
30
0
41
1
10
66.8396194542574
20
0.139073452646471
30
0
41
1
10
66.8352320817339
20
0.157944103054461
30
0
41
1
10
66.8268097334104
20
0.195699334372677
30
0
41
1
10
66.8229207088555
20
0.214589685820158
30
0
41
1
10
66.810982703144
20
0.271250024082264
30
0
41
1
10
66.771168014032
20
0.460116346442476
30
0
41
1
10
66.7312842457711
20
0.648977910966693
30
0
41
1
10
66.6993686041433
20
0.80006655912635
30
0
0
SPLINE
5
E5
100
AcDbEntity
8
1
62
256
6
ByLayer
370
18
48
1
60
0
100
AcDbSpline
70
4
71
3
72
32
73
28
40
0
40
0
40
0
40
0
40
0.0049063690691622
40
0.0049063690691622
40
0.13834215510042
40
0.13834215510042
40
0.271777941131677
40
0.271777941131677
40
0.405213727162935
40
0.405213727162935
40
0.471931620178563
40
0.505290566686377
40
0.521970039940284
40
0.521970039940284
40
0.538649513194192
40
0.538649513194192
40
0.546989249821145
40
0.546989249821145
40
0.555328986448099
40
0.572008459702006
40
0.60536740620982
40
0.60536740620982
40
0.67208529922545
40
0.67208529922545
40
0.805521085256707
40
0.805521085256707
40
1
40
1
40
1
40
1
41
1
10
8.26266603594934
20
0.0399679466544853
30
0
41
1
10
8.26266603594934
20
0.038292364240192
30
0
41
1
10
8.26266603594931
20
0.0366074440238151
30
0
41
1
10
8.26266603594931
20
-0.0111636570931068
30
0
41
1
10
8.26266603594934
20
-0.0642217658794664
30
0
41
1
10
8.26266603594934
20
-0.183864707400431
30
0
41
1
10
8.26266603594934
20
-0.250616464412587
30
0
41
1
10
8.26266603594934
20
-0.396631517347544
30
0
41
1
10
8.26266603594934
20
-0.475885394060924
30
0
41
1
10
8.26266603594934
20
-0.604082816004819
30
0
41
1
10
8.26266603594934
20
-0.670515200583225
30
0
41
1
10
8.26266603594931
20
-0.752140359727662
30
0
41
1
10
8.26266603594937
20
-0.788012722841728
30
0
41
1
10
8.26266603594937
20
-0.812126333917945
30
0
41
1
10
8.26266603594934
20
-0.823262946500847
30
0
41
1
10
8.26266603594934
20
-0.846730097642848
30
0
41
1
10
8.26266603594934
20
-0.855626714857408
30
0
41
1
10
8.26266603594934
20
-0.875740595606885
30
0
41
1
10
8.26266603594934
20
-0.905941375767867
30
0
41
1
10
8.26266603594934
20
-0.976620261806602
30
0
41
1
10
8.26266603594934
20
-1.03756522341521
30
0
41
1
10
8.26266603594934
20
-1.15994585331455
30
0
41
1
10
8.26266603594934
20
-1.24215865431737
30
0
41
1
10
8.26266603594934
20
-1.49061421089269
30
0
41
1
10
8.26266603594934
20
-1.65871563065437
30
0
41
1
10
8.26266603594934
20
-2.07822326636818
30
0
41
1
10
8.26266603594934
20
-2.33216230519886
30
0
41
1
10
8.26266603594934
20
-2.59129054725764
30
0
0
SPLINE
5
E6
100
AcDbEntity
8
1
62
256
6
ByLayer
370
18
48
1
60
0
100
AcDbSpline
70
4
71
3
72
14
73
10
40
0
40
0
40
0
40
0
40
0.25
40
0.25
40
0.5
40
0.5
40
0.75
40
0.75
40
1
40
1
40
1
40
1
41
1
10
66.9816890637294
20
-2.84284974086029
30
0
41
1
10
66.9841848935729
20
-2.84186980005307
30
0
41
1
10
66.9860318892554
20
-2.84258934316432
30
0
41
1
10
66.9880208158211
20
-2.84845943669802
30
0
41
1
10
66.9881122266113
20
-2.85371257162211
30
0
41
1
10
66.9856133200893
20
-2.86977038387232
30
0
41
1
10
66.9829800366458
20
-2.88056121783936
30
0
41
1
10
66.9754060895806
20
-2.90515213529514
30
0
41
1
10
66.970512119572
20
-2.91882471099117
30
0
41
1
10
66.9653186502663
20
-2.93197165067448
30
0
0
SPLINE
5
E7
100
AcDbEntity
8
1
62
256
6
ByLayer
370
18
48
1
60
0
100
AcDbSpline
70
4
71
3
72
8
73
4
40
0
40
0
40
0
40
0
40
1
40
1
40
1
40
1
41
1
10
7.19507550422438
20
1.10565921889784
30
0
41
1
10
7.17029672341684
20
1.11872954115887
30
0
41
1
10
7.14854947353618
20
1.13522851648366
30
0
41
1
10
7.12987209540879
20
1.15504517497448
30
0
0
SPLINE
5
E8
100
AcDbEntity
8
1
62
256
6
ByLayer
370
18
48
1
60
0
100
AcDbSpline
70
4
71
3
72
10
73
6
40
0
40
0
40
0
40
0
40
0.5
40
0.5
40
1
40
1
40
1
40
1
41
1
10
66.7717535398994
20
0.873858037475344
30
0
41
1
10
66.9543176655576
20
0.874178128438444
30
0
41
1
10
67.1366898732766
20
0.875462928666536
30
0
41
1
10
67.500551702285
20
0.882469004986518
30
0
41
1
10
67.6817567467586
20
0.889620756477115
30
0
41
1
10
67.8626576556948
20
0.898301298719616
30
0
0
SPLINE
5
E9
100
AcDbEntity
8
1
62
256
6
ByLayer
370
18
48
1
60
0
100
AcDbSpline
70
4
71
3
72
94
73
90
40
0
40
0
40
0
40
0
40
0.0136737937397691
40
0.0136737937397691
40
0.0343289892833718
40
0.0343289892833718
40
0.0756393803705772
40
0.0756393803705772
40
0.0962945759141807
40
0.0962945759141807
40
0.116949771457784
40
0.116949771457784
40
0.15826016254499
40
0.15826016254499
40
0.178915358088592
40
0.178915358088592
40
0.199570553632195
40
0.199570553632195
40
0.2408809447194
40
0.2408809447194
40
0.261536140263002
40
0.261536140263002
40
0.282191335806604
40
0.282191335806604
40
0.302846531350206
40
0.302846531350206
40
0.323501726893808
40
0.323501726893808
40
0.364812117981011
40
0.364812117981011
40
0.385467313524612
40
0.385467313524612
40
0.406122509068213
40
0.406122509068213
40
0.447432900155416
40
0.447432900155416
40
0.468088095699016
40
0.468088095699016
40
0.488743291242617
40
0.488743291242617
40
0.509398486786217
40
0.509398486786217
40
0.530053682329818
40
0.530053682329818
40
0.550708877873418
40
0.550708877873418
40
0.571364073417019
40
0.571364073417019
40
0.592019268960619
40
0.592019268960619
40
0.61267446450422
40
0.61267446450422
40
0.63332966004782
40
0.63332966004782
40
0.653984855591421
40
0.653984855591421
40
0.674640051135021
40
0.674640051135021
40
0.684967648906821
40
0.684967648906821
40
0.695295246678622
40
0.695295246678622
40
0.715950442222222
40
0.715950442222222
40
0.736605637765823
40
0.736605637765823
40
0.757260833309423
40
0.757260833309423
40
0.777916028853023
40
0.777916028853023
40
0.798571224396624
40
0.798571224396624
40
0.819226419940224
40
0.819226419940224
40
0.839881615483825
40
0.839881615483825
40
0.860536811027425
40
0.860536811027425
40
0.881192006571026
40
0.881192006571026
40
0.901847202114626
40
0.901847202114626
40
0.922502397658227
40
0.922502397658227
40
0.943157593201827
40
0.943157593201827
40
0.984467984289028
40
0.984467984289028
40
1
40
1
40
1
40
1
41
1
10
60.323988749184
20
-1.58488798804484
30
0
41
1
10
60.2267480153328
20
-1.62891099999467
30
0
41
1
10
60.1293213315627
20
-1.67214295166221
30
0
41
1
10
59.8841572316912
20
-1.77836985218363
30
0
41
1
10
59.7359562153828
20
-1.84023693035937
30
0
41
1
10
59.2938489847233
20
-2.02085261423588
30
0
41
1
10
58.9992313640528
20
-2.13165303069539
30
0
41
1
10
58.556665105948
20
-2.28159038719622
30
0
41
1
10
58.4089903740941
20
-2.32889791134673
30
0
41
1
10
58.1134156760908
20
-2.41747013484937
30
0
41
1
10
57.9658097532964
20
-2.45882410137696
30
0
41
1
10
57.5237745150484
20
-2.57345203615648
30
0
41
1
10
57.229986232634
20
-2.63829005247973
30
0
41
1
10
56.7904182960371
20
-2.71606690464259
30
0
41
1
10
56.6439670649115
20
-2.73873052249334
30
0
41
1
10
56.3524432587872
20
-2.77749179298109
30
0
41
1
10
56.206730201392
20
-2.7933574913036
30
0
41
1
10
55.7690198282369
20
-2.8310733850488
30
0
41
1
10
55.4766938279887
20
-2.84263529293187
30
0
41
1
10
55.0365143955462
20
-2.83994486533533
30
0
41
1
10
54.8899622259931
20
-2.83572704207217
30
0
41
1
10
54.5958980794876
20
-2.82087509682691
30
0
41
1
10
54.4482557194569
20
-2.81025322009233
30
0
41
1
10
54.1522380568815
20
-2.78224042797211
30
0
41
1
10
54.0044326036149
20
-2.7648927027424
30
0
41
1
10
53.7089780504888
20
-2.72336286507883
30
0
41
1
10
53.5611785526923
20
-2.69897416783874
30
0
41
1
10
53.119795857124
20
-2.61428766447168
30
0
41
1
10
52.8249930773105
20
-2.54701391822314
30
0
41
1
10
52.3809765879154
20
-2.42770985802193
30
0
41
1
10
52.2329386727206
20
-2.38506811393245
30
0
41
1
10
51.937368871217
20
-2.29432744254697
30
0
41
1
10
51.7901722962825
20
-2.24566551122527
30
0
41
1
10
51.3488093520734
20
-2.08874595411598
30
0
41
1
10
51.0538244576709
20
-1.9760370106732
30
0
41
1
10
50.6098256284856
20
-1.79436299962333
30
0
41
1
10
50.4614174020517
20
-1.73205294648281
30
0
41
1
10
50.1665773669345
20
-1.60160305615142
30
0
41
1
10
50.0193683100923
20
-1.53447611890758
30
0
41
1
10
49.7248851885821
20
-1.39555325271627
30
0
41
1
10
49.5775694390176
20
-1.3243071325245
30
0
41
1
10
49.2825203659419
20
-1.17993901184428
30
0
41
1
10
49.134798904269
20
-1.10646551587951
30
0
41
1
10
48.8389297680146
20
-0.956818986343762
30
0
41
1
10
48.6911652813772
20
-0.880156924338991
30
0
41
1
10
48.3962781542063
20
-0.725232441525833
30
0
41
1
10
48.24886824018
20
-0.647099206751761
30
0
41
1
10
47.953996882446
20
-0.489644990861592
30
0
41
1
10
47.8065452614863
20
-0.41033483520755
30
0
41
1
10
47.511312301727
20
-0.251151233799618
30
0
41
1
10
47.3633360239935
20
-0.171625757100031
30
0
41
1
10
47.0681440017718
20
-0.0097705201276597
30
0
41
1
10
46.9205918472462
20
0.0717082468003127
30
0
41
1
10
46.6260533284578
20
0.232477036139045
30
0
41
1
10
46.4789894508361
20
0.312206500087086
30
0
41
1
10
46.1853178148439
20
0.470324390007789
30
0
41
1
10
46.0386632799949
20
0.548626475422765
30
0
41
1
10
45.8189330089934
20
0.664829395172262
30
0
41
1
10
45.7456771318293
20
0.703255605179692
30
0
41
1
10
45.5996122155581
20
0.780307317803334
30
0
41
1
10
45.5267657950612
20
0.818860661379119
30
0
41
1
10
45.3080442283872
20
0.933215762264808
30
0
41
1
10
45.1621820279775
20
1.00806619733896
30
0
41
1
10
44.8700111072809
20
1.15499998684027
30
0
41
1
10
44.7237503269888
20
1.22719245724062
30
0
41
1
10
44.4307197363114
20
1.3685885375919
30
0
41
1
10
44.2838458631413
20
1.43762481705977
30
0
41
1
10
43.9900564553122
20
1.57331515212829
30
0
41
1
10
43.8433724043151
20
1.64033055416439
30
0
41
1
10
43.5483563407412
20
1.76903469455453
30
0
41
1
10
43.4001359525235
20
1.83094810345386
30
0
41
1
10
43.1042257231643
20
1.95033235624325
30
0
41
1
10
42.9563297933281
20
2.00764171856761
30
0
41
1
10
42.6605515991953
20
2.1173887000819
30
0
41
1
10
42.5128813283863
20
2.17020752376021
30
0
41
1
10
42.2178906488264
20
2.27108372250231
30
0
41
1
10
42.0702348523068
20
2.31872748928114
30
0
41
1
10
41.7743677229831
20
2.407616345636
30
0
41
1
10
41.6260093830873
20
2.4486869259529
30
0
41
1
10
41.3301401272433
20
2.5250657779722
30
0
41
1
10
41.1824433839404
20
2.56027835555267
30
0
41
1
10
40.8880841009702
20
2.62451362723098
30
0
41
1
10
40.74180875625
20
2.65389937254389
30
0
41
1
10
40.4488725704102
20
2.70572474023874
30
0
41
1
10
40.3024647547792
20
2.72839868240388
30
0
41
1
10
39.863405852643
20
2.78646911113739
30
0
41
1
10
39.5705066857175
20
2.81089356493311
30
0
41
1
10
39.1682018890809
20
2.82793179180965
30
0
41
1
10
39.0581232273646
20
2.83065749140826
30
0
41
1
10
38.9478578517311
20
2.83146621503954
30
0
0
SPLINE
5
EA
100
AcDbEntity
8
1
62
256
6
ByLayer
370
18
48
1
60
0
100
AcDbSpline
70
4
71
3
72
80
73
76
40
0
40
0
40
0
40
0
40
0.0157480279319573
40
0.0157480279319573
40
0.0386376086777254
40
0.0386376086777254
40
0.0615271894234933
40
0.0615271894234933
40
0.0844167701692614
40
0.0844167701692614
40
0.107306350915029
40
0.107306350915029
40
0.130195931660797
40
0.130195931660797
40
0.153085512406565
40
0.153085512406565
40
0.175975093152333
40
0.175975093152333
40
0.198864673898101
40
0.198864673898101
40
0.221754254643869
40
0.221754254643869
40
0.267533416135404
40
0.267533416135404
40
0.290422996881172
40
0.290422996881172
40
0.313312577626939
40
0.313312577626939
40
0.336202158372706
40
0.336202158372706
40
0.359091739118473
40
0.359091739118473
40
0.404870900610009
40
0.404870900610009
40
0.427760481355778
40
0.427760481355778
40
0.450650062101546
40
0.450650062101546
40
0.496429223593083
40
0.496429223593083
40
0.519318804338851
40
0.519318804338851
40
0.54220838508462
40
0.54220838508462
40
0.565097965830389
40
0.565097965830389
40
0.587987546576157
40
0.587987546576157
40
0.610877127321926
40
0.610877127321926
40
0.633766708067694
40
0.633766708067694
40
0.656656288813463
40
0.656656288813463
40
0.679545869559232
40
0.679545869559232
40
0.702435450305
40
0.702435450305
40
0.725325031050769
40
0.725325031050769
40
0.748214611796538
40
0.748214611796538
40
0.771104192542306
40
0.771104192542306
40
0.816883354033844
40
0.816883354033844
40
0.839772934779614
40
0.839772934779614
40
0.862662515525383
40
0.862662515525383
40
0.908441677016922
40
0.908441677016922
40
0.954220838508461
40
0.954220838508461
40
1
40
1
40
1
40
1
41
1
10
27.6199759247722
20
-1.57849437166476
30
0
41
1
10
27.5181315446009
20
-1.62412330221494
30
0
41
1
10
27.4161965706691
20
-1.66891107045774
30
0
41
1
10
27.1658285498243
20
-1.77652849345168
30
0
41
1
10
27.017055220158
20
-1.83834080102432
30
0
41
1
10
26.7210025634886
20
-1.95869567486801
30
0
41
1
10
26.5731641642799
20
-2.01633229384379
30
0
41
1
10
26.2775117854235
20
-2.125361772964
30
0
41
1
10
26.1297486886929
20
-2.17675950085439
30
0
41
1
10
25.8339450286711
20
-2.27429188226711
30
0
41
1
10
25.6858467599828
20
-2.32057274306061
30
0
41
1
10
25.3894028238411
20
-2.40803272876084
30
0
41
1
10
25.2413287156621
20
-2.44972024455467
30
0
41
1
10
24.9454014026131
20
-2.52649510904445
30
0
41
1
10
24.7977690879895
20
-2.5616585801682
30
0
41
1
10
24.5032663938709
20
-2.62472877204823
30
0
41
1
10
24.3564272943527
20
-2.65241304082772
30
0
41
1
10
24.0629359133168
20
-2.70159706134822
30
0
41
1
10
23.9161650822516
20
-2.72320589086237
30
0
41
1
10
23.6239760510782
20
-2.76088724131691
30
0
41
1
10
23.477923049004
20
-2.77655921601291
30
0
41
1
10
23.0393206529932
20
-2.81359462825821
30
0
41
1
10
22.7465556965944
20
-2.82499201481588
30
0
41
1
10
22.3058997393268
20
-2.8204158859204
30
0
41
1
10
22.1591941447712
20
-2.81565087515443
30
0
41
1
10
21.8648976330281
20
-2.79936083802752
30
0
41
1
10
21.7172308789948
20
-2.78737188024871
30
0
41
1
10
21.4207335668017
20
-2.75652172185284
30
0
41
1
10
21.2723722884515
20
-2.73829232131499
30
0
41
1
10
20.9759417858956
20
-2.6956888429925
30
0
41
1
10
20.827569731606
20
-2.67149751574627
30
0
41
1
10
20.3845560181898
20
-2.58817077621308
30
0
41
1
10
20.0890162026794
20
-2.52048888311148
30
0
41
1
10
19.6438736547418
20
-2.39698534879264
30
0
41
1
10
19.4953662178811
20
-2.3535448735266
30
0
41
1
10
19.1993954571047
20
-2.26182197438666
30
0
41
1
10
19.0521862217213
20
-2.21290053634718
30
0
41
1
10
18.6113072974006
20
-2.05844056647766
30
0
41
1
10
18.3179288772769
20
-1.94626498134741
30
0
41
1
10
17.8778024231605
20
-1.76559704999369
30
0
41
1
10
17.7308553681603
20
-1.70358722377316
30
0
41
1
10
17.4380455971392
20
-1.57378669328648
30
0
41
1
10
17.2916706546393
20
-1.50665003410117
30
0
41
1
10
16.9981004742079
20
-1.36856433886362
30
0
41
1
10
16.8509755705759
20
-1.29783940308579
30
0
41
1
10
16.5559812107385
20
-1.1541646967103
30
0
41
1
10
16.4080755837622
20
-1.08107798999939
30
0
41
1
10
16.1114032735606
20
-0.932160900807304
30
0
41
1
10
15.9628410613999
20
-0.855650158254264
30
0
41
1
10
15.6666982336585
20
-0.700832530745913
30
0
41
1
10
15.5186963257005
20
-0.622797898128681
30
0
41
1
10
15.222837492475
20
-0.465187895524792
30
0
41
1
10
15.0749257266099
20
-0.385798101394812
30
0
41
1
10
14.7787127046558
20
-0.226908574626606
30
0
41
1
10
14.6302377860789
20
-0.147699101384802
30
0
41
1
10
14.3340791034621
20
0.0131879869204568
30
0
41
1
10
14.1858610474101
20
0.0942931211486382
30
0
41
1
10
13.8893686173453
20
0.254858804549514
30
0
41
1
10
13.7412364244651
20
0.33460488663377
30
0
41
1
10
13.4450544759801
20
0.492811462963118
30
0
41
1
10
13.2969478570608
20
0.571182397190427
30
0
41
1
10
13.0006051703637
20
0.726337950718374
30
0
41
1
10
12.8527003600273
20
0.803715634899817
30
0
41
1
10
12.4087523025131
20
1.03330461228561
30
0
41
1
10
12.1115172864504
20
1.18153837979034
30
0
41
1
10
11.6669938440496
20
1.3926891265819
30
0
41
1
10
11.5186409180366
20
1.46097753760276
30
0
41
1
10
11.2229048037678
20
1.59558930119002
30
0
41
1
10
11.0752664775727
20
1.66146960729634
30
0
41
1
10
10.6310253810903
20
1.85181126923956
30
0
41
1
10
10.3335269671728
20
1.97019071864639
30
0
41
1
10
9.74127108296139
20
2.18456540867231
30
0
41
1
10
9.44702158054895
20
2.28298807852139
30
0
41
1
10
8.85686927507899
20
2.45599145294978
30
0
41
1
10
8.56057678413885
20
2.52974232737867
30
0
41
1
10
8.26266603594948
20
2.59129054726696
30
0
0
SPLINE
5
EB
100
AcDbEntity
8
1
62
256
6
ByLayer
370
18
48
1
60
0
100
AcDbSpline
70
4
71
3
72
8
73
4
40
0
40
0
40
0
40
0
40
1
40
1
40
1
40
1
41
1
10
67.0683693429006
20
-2.87658065283693
30
0
41
1
10
67.020759818954
20
-2.92907406103953
30
0
41
1
10
66.9796951328377
20
-2.96507388552053
30
0
41
1
10
66.9446816730729
20
-2.98415124975128
30
0
0
SPLINE
5
EC
100
AcDbEntity
8
SK1
62
256
6
ByLayer
370
18
48
1
60
0
100
AcDbSpline
70
4
71
3
72
8
73
4
40
0
40
0
40
0
40
0
40
1
40
1
40
1
40
1
41
1
10
-35.4
20
-0.531279056479889
30
0
41
1
10
-35.6037649922731
20
-0.560779505561356
30
0
41
1
10
-35.8061220492769
20
-0.590347809217718
30
0
41
1
10
-35.9999999999999
20
-0.620270365815969
30
0
0
SPLINE
5
ED
100
AcDbEntity
8
SK1
62
256
6
ByLayer
370
18
48
1
60
0
100
AcDbSpline
70
4
71
3
72
14
73
10
40
0
40
0
40
0
40
0
40
0.124999999999999
40
0.124999999999999
40
0.249999999999997
40
0.249999999999997
40
0.499999999999998
40
0.499999999999998
40
1
40
1
40
1
40
1
41
1
10
-35.3
20
-0.415200715091856
30
0
41
1
10
-35.3
20
-0.426208476008441
30
0
41
1
10
-35.3017630921622
20
-0.43643767040146
30
0
41
1
10
-35.3069001258798
20
-0.454320754498951
30
0
41
1
10
-35.3102891553569
20
-0.462147770601774
30
0
41
1
10
-35.3214371862118
20
-0.482842583055913
30
0
41
1
10
-35.3303375656042
20
-0.493400357120407
30
0
41
1
10
-35.3581287596296
20
-0.518839598866208
30
0
41
1
10
-35.378758598852
20
-0.52820379381609
30
0
41
1
10
-35.4
20
-0.531279056480173
30
0
0
SPLINE
5
EE
100
AcDbEntity
8
SK1
62
256
6
ByLayer
370
18
48
1
60
0
100
AcDbSpline
70
4
71
3
72
8
73
4
40
0
40
0
40
0
40
0
40
1
40
1
40
1
40
1
41
1
10
-36
20
-0.874860520416235
30
0
41
1
10
-35.8060547428094
20
-0.90479346489812
30
0
41
1
10
-35.6037435428984
20
-0.934354486043276
30
0
41
1
10
-35.4
20
-0.963851829752343
30
0
0
SPLINE
5
EF
100
AcDbEntity
8
SK1
62
256
6
ByLayer
370
18
48
1
60
0
100
AcDbSpline
70
4
71
3
72
14
73
10
40
0
40
0
40
0
40
0
40
0.124999999999999
40
0.124999999999999
40
0.249999999999997
40
0.249999999999997
40
0.499999999999998
40
0.499999999999998
40
1
40
1
40
1
40
1
41
1
10
-35.3
20
0.415200715091885
30
0
41
1
10
-35.3
20
0.426208476008469
30
0
41
1
10
-35.3017630921622
20
0.43643767040146
30
0
41
1
10
-35.3069001258798
20
0.45432075449898
30
0
41
1
10
-35.3102891553569
20
0.462147770601774
30
0
41
1
10
-35.3214371862119
20
0.482842583055941
30
0
41
1
10
-35.3303375656042
20
0.493400357120436
30
0
41
1
10
-35.3581287596296
20
0.518839598866236
30
0
41
1
10
-35.378758598852
20
0.528203793816118
30
0
41
1
10
-35.4
20
0.531279056480201
30
0
0
SPLINE
5
F0
100
AcDbEntity
8
SK1
62
256
6
ByLayer
370
18
48
1
60
0
100
AcDbSpline
70
4
71
3
72
14
73
10
40
0
40
0
40
0
40
0
40
0.499999999999997
40
0.499999999999997
40
0.749999999999997
40
0.749999999999997
40
0.874999999999998
40
0.874999999999998
40
1
40
1
40
1
40
1
41
1
10
-35.4
20
-0.963851829753139
30
0
41
1
10
-35.3787677796885
20
-0.966925763244831
30
0
41
1
10
-35.3584290958895
20
-0.963948654889748
30
0
41
1
10
-35.3303626450498
20
-0.947301920456169
30
0
41
1
10
-35.3215171954455
20
-0.939754135241628
30
0
41
1
10
-35.3102812516991
20
-0.922889532830197
30
0
41
1
10
-35.3068890218585
20
-0.916296052992891
30
0
41
1
10
-35.3017585680987
20
-0.900531180936611
30
0
41
1
10
-35.3
20
-0.891156302887225
30
0
41
1
10
-35.3
20
-0.880579386309421
30
0
0
SPLINE
5
F1
100
AcDbEntity
8
SK1
62
256
6
ByLayer
370
18
48
1
60
0
100
AcDbSpline
70
4
71
3
72
8
73
4
40
0
40
0
40
0
40
0
40
1
40
1
40
1
40
1
41
1
10
-35.4
20
0.531279056479917
30
0
41
1
10
-35.6037649922731
20
0.560779505561385
30
0
41
1
10
-35.8061220492769
20
0.590347809217747
30
0
41
1
10
-35.9999999999999
20
0.620270365815998
30
0
0
LINE
5
76
100
AcDbEntity
8
81
62
256
6
ByLayer
370
18
48
1
60
0
100
AcDbLine
10
68
20
0
30
0
11
73
21
0
31
0
39
0
210
0
220
0
230
1
0
LINE
5
77
100
AcDbEntity
8
1
62
256
6
ByLayer
370
18
48
1
60
0
100
AcDbLine
10
7.089468
20
2.962513
30
0
11
1
21
2.958707
31
0
39
0
210
0
220
0
230
1
0
LINE
5
79
100
AcDbEntity
8
1
62
256
6
ByLayer
370
18
48
1
60
0
100
AcDbLine
10
17.360622
20
2.968932
30
0
11
16.507969
21
2.9684
31
0
39
0
210
0
220
0
230
1
0
LINE
5
7A
100
AcDbEntity
8
1
62
256
6
ByLayer
370
18
48
1
60
0
100
AcDbLine
10
33.710623
20
2.979151
30
0
11
32.863647
21
2.978622
31
0
39
0
210
0
220
0
230
1
0
LINE
5
7B
100
AcDbEntity
8
1
62
256
6
ByLayer
370
18
48
1
60
0
100
AcDbLine
10
50.06098
20
2.98937
30
0
11
49.215487
21
2.988842
31
0
39
0
210
0
220
0
230
1
0
LINE
5
7C
100
AcDbEntity
8
1
62
256
6
ByLayer
370
18
48
1
60
0
100
AcDbLine
10
66.41102
20
2.999589
30
0
11
65.570463
21
2.999064
31
0
39
0
210
0
220
0
230
1
0
LINE
5
7D
100
AcDbEntity
8
1
62
256
6
ByLayer
370
18
48
1
60
0
100
AcDbLine
10
65.570463
20
-2.999064
30
0
11
66.411421
21
-2.999589
31
0
39
0
210
0
220
0
230
1
0
LINE
5
7E
100
AcDbEntity
8
1
62
256
6
ByLayer
370
18
48
1
60
0
100
AcDbLine
10
49.215487
20
-2.988842
30
0
11
50.060604
21
-2.98937
31
0
39
0
210
0
220
0
230
1
0
LINE
5
7F
100
AcDbEntity
8
1
62
256
6
ByLayer
370
18
48
1
60
0
100
AcDbLine
10
32.863647
20
-2.978622
30
0
11
33.710504
21
-2.979151
31
0
39
0
210
0
220
0
230
1
0
LINE
5
80
100
AcDbEntity
8
1
62
256
6
ByLayer
370
18
48
1
60
0
100
AcDbLine
10
16.507969
20
-2.9684
30
0
11
17.360769
21
-2.968933
31
0
39
0
210
0
220
0
230
1
0
LINE
5
81
100
AcDbEntity
8
1
62
256
6
ByLayer
370
18
48
1
60
0
100
AcDbLine
10
1
20
-2.958707
30
0
11
7.089468
21
-2.962513
31
0
39
0
210
0
220
0
230
1
0
LINE
5
82
100
AcDbEntity
8
1
62
256
6
ByLayer
370
18
48
1
60
0
100
AcDbLine
10
0
20
-3
30
0
11
1
21
-2.958707
31
0
39
0
210
0
220
0
230
1
0
LINE
5
83
100
AcDbEntity
8
1
62
256
6
ByLayer
370
18
48
1
60
0
100
AcDbLine
10
1
20
2.958707
30
0
11
0
21
3
31
0
39
0
210
0
220
0
230
1
0
LINE
5
84
100
AcDbEntity
8
SK1
62
256
6
ByLayer
370
18
48
1
60
0
100
AcDbLine
10
-35.278312
20
3
30
0
11
-36
21
1.75
31
0
39
0
210
0
220
0
230
1
0
LINE
5
86
100
AcDbEntity
8
SK1
62
256
6
ByLayer
370
18
48
1
60
0
100
AcDbLine
10
-36
20
-1.75
30
0
11
-35.278312
21
-3
31
0
39
0
210
0
220
0
230
1
0
LINE
5
87
100
AcDbEntity
8
SK1
62
256
6
ByLayer
370
18
48
1
60
0
100
AcDbLine
10
0
20
3
30
0
11
-35.278312
21
3
31
0
39
0
210
0
220
0
230
1
0
LINE
5
88
100
AcDbEntity
8
SK1
62
256
6
ByLayer
370
18
48
1
60
0
100
AcDbLine
10
-35.278312
20
-3
30
0
11
0
21
-3
31
0
39
0
210
0
220
0
230
1
0
LINE
5
89
100
AcDbEntity
8
SK4
62
256
6
ByLayer
370
18
48
0.05
60
0
100
AcDbLine
10
73
20
0
30
0
11
-41
21
0
31
0
39
0
210
0
220
0
230
1
0
LINE
5
8B
100
AcDbEntity
8
4
62
256
6
ByLayer
370
18
48
0.05
60
0
100
AcDbLine
10
68
20
0
30
0
11
0
21
0
31
0
39
0
210
0
220
0
230
1
0
LINE
5
8D
100
AcDbEntity
8
80
62
256
6
ByLayer
370
18
48
1
60
0
100
AcDbLine
10
0
20
0
30
0
11
-5
21
0
31
0
39
0
210
0
220
0
230
1
0
LINE
5
8E
100
AcDbEntity
8
1
62
256
6
ByLayer
370
18
48
1
60
0
100
AcDbLine
10
9.174289
20
0.006506
30
0
11
9.174287
21
0.006584
31
0
39
0
210
0
220
0
230
1
0
LINE
5
8F
100
AcDbEntity
8
1
62
256
6
ByLayer
370
13
48
1
60
0
100
AcDbLine
10
66.771754
20
0.873858
30
0
11
67.981308
21
0.108181
31
0
39
0
210
0
220
0
230
1
0
LINE
5
90
100
AcDbEntity
8
1
62
256
6
ByLayer
370
18
48
1
60
0
100
AcDbLine
10
7.089468
20
-2.962481
30
0
11
7.089474
21
-2.95824
31
0
39
0
210
0
220
0
230
1
0
LINE
5
91
100
AcDbEntity
8
1
62
256
6
ByLayer
370
13
48
1
60
0
100
AcDbLine
10
66.699369
20
0.800067
30
0
11
67.983173
21
-0.012613
31
0
39
0
210
0
220
0
230
1
0
LINE
5
92
100
AcDbEntity
8
1
62
256
6
ByLayer
370
13
48
1
60
0
100
AcDbLine
10
7.318599
20
-2.810406
30
0
11
7.318603
21
-2.811808
31
0
39
0
210
0
220
0
230
1
0
LINE
5
93
100
AcDbEntity
8
1
62
256
6
ByLayer
370
18
48
1
60
0
100
AcDbLine
10
1
20
2.958707
30
0
11
1
21
-2.958707
31
0
39
0
210
0
220
0
230
1
0
LINE
5
94
100
AcDbEntity
8
1
62
256
6
ByLayer
370
18
48
1
60
0
100
AcDbLine
10
67.49405
20
-0.7295
30
0
11
67.87982
21
-0.205896
31
0
39
0
210
0
220
0
230
1
0
LINE
5
95
100
AcDbEntity
8
1
62
256
6
ByLayer
370
18
48
1
60
0
100
AcDbLine
10
0
20
-3
30
0
11
0
21
3
31
0
39
0
210
0
220
0
230
1
0
LINE
5
96
100
AcDbEntity
8
1
62
256
6
ByLayer
370
18
48
1
60
0
100
AcDbLine
10
66.485935
20
-2.097805
30
0
11
67.093972
21
-1.272521
31
0
39
0
210
0
220
0
230
1
0
LINE
5
97
100
AcDbEntity
8
SK1
62
256
6
ByLayer
370
18
48
1
60
0
100
AcDbLine
10
-35.3
20
-0.880579
30
0
11
-35.3
21
0.415201
31
0
39
0
210
0
220
0
230
1
0
LINE
5
98
100
AcDbEntity
8
SK1
62
256
6
ByLayer
370
18
48
1
60
0
100
AcDbLine
10
0
20
-3
30
0
11
0
21
3
31
0
39
0
210
0
220
0
230
1
0
LINE
5
99
100
AcDbEntity
8
SK1
62
256
6
ByLayer
370
18
48
1
60
0
100
AcDbLine
10
-36
20
-1.75
30
0
11
-36
21
-0.874861
31
0
39
0
210
0
220
0
230
1
0
LINE
5
9A
100
AcDbEntity
8
SK1
62
256
6
ByLayer
370
18
48
1
60
0
100
AcDbLine
10
-35.278312
20
3
30
0
11
-35.278312
21
-3
31
0
39
0
210
0
220
0
230
1
0
LINE
5
9B
100
AcDbEntity
8
SK1
62
256
6
ByLayer
370
18
48
1
60
0
100
AcDbLine
10
-36
20
-0.62027
30
0
11
-36
21
-0.874861
31
0
39
0
210
0
220
0
230
1
0
LINE
5
9C
100
AcDbEntity
8
SK1
62
256
6
ByLayer
370
18
48
1
60
0
100
AcDbLine
10
-36
20
1.75
30
0
11
-36
21
0.62027
31
0
39
0
210
0
220
0
230
1
0
LINE
5
9D
100
AcDbEntity
8
SK1
62
256
6
ByLayer
370
13
48
1
60
0
100
AcDbLine
10
-35.4
20
-0.531279
30
0
11
-35.4
21
-0.963852
31
0
39
0
210
0
220
0
230
1
0
MTEXT
5
F2
100
AcDbEntity
8
SK6
62
256
6
ByLayer
370
13
48
1
60
0
100
AcDbMText
10
18.129169
20
35.382694
30
0
210
0
220
0
230
1
1
\W0.7585;460.1-0600-045A1-XM GC34
40
3.5
41
0
44
1.084337
50
0
71
8
72
5
7
iso_b_vert
0
DIMENSION
5
FF
100
AcDbEntity
8
SK2
62
256
6
ByLayer
370
13
48
1
60
0
100
AcDbDimension
2
DimnDraft3D1
10
67.1188
20
-13.213398
30
0
11
32.368859
21
-13.213398
31
0
70
32
71
5
72
1
41
1
210
0
220
0
230
1
3
Standard
100
AcDbAlignedDimension
13
0
23
-1.5875
33
0
14
67.1188
24
-4.5875
34
0
50
0
100
AcDbRotatedDimension
1001
ACAD
1000
DSTYLE
1002
{
1070
   279
1070
     0
1070
   172
1070
     1
1070
   173
1070
     1
1070
   340
1005
F3
1070
   271
1070
     2
1070
   272
1070
     2
1070
    77
1070
     1
1070
    73
1070
     0
1070
   171
1070
     3
1070
   274
1070
     4
1070
   177
1070
    35
1070
   176
1070
    35
1070
   178
1070
    35
1070
    48
1040
-0.005
1070
    41
1041
3.5
1070
   147
1041
1.75
1070
    42
1041
1.5875
1070
    44
1041
2.0
1070
   140
1041
3.5
1070
   343
1005
0
1070
   344
1005
0
1002
}
0
DIMENSION
5
109
100
AcDbEntity
8
SK2
62
256
6
ByLayer
370
13
48
1
60
0
100
AcDbDimension
2
DimnDraft3D2
10
68
20
-31.692985
30
0
11
16.4601
21
-31.692985
31
0
70
32
71
5
72
1
41
1
210
0
220
0
230
1
3
Standard
100
AcDbAlignedDimension
13
-36
23
-4.5875
33
0
14
68
24
-1.5875
34
0
50
0
100
AcDbRotatedDimension
1001
ACAD
1000
DSTYLE
1002
{
1070
   279
1070
     0
1070
   172
1070
     1
1070
   173
1070
     1
1070
   340
1005
F3
1070
   271
1070
     2
1070
   272
1070
     2
1070
    77
1070
     1
1070
    73
1070
     0
1070
   171
1070
     3
1070
   274
1070
     4
1070
   177
1070
    35
1070
   176
1070
    35
1070
   178
1070
    35
1070
    48
1040
-0.005
1070
    41
1041
3.5
1070
   147
1041
1.75
1070
    42
1041
1.5875
1070
    44
1041
2.0
1070
   140
1041
3.5
1070
   343
1005
0
1070
   344
1005
0
1002
}
0
DIMENSION
5
113
100
AcDbEntity
8
SK2
62
256
6
ByLayer
370
13
48
1
60
0
100
AcDbDimension
2
DimnDraft3D3
10
68
20
14.609119
30
0
11
43.56
21
14.609119
31
0
70
32
71
5
72
1
41
1
210
0
220
0
230
1
3
Standard
100
AcDbAlignedDimension
13
19.12
23
4.5875
33
0
14
68
24
1.5875
34
0
50
0
100
AcDbRotatedDimension
1001
ACAD
1000
DSTYLE
1002
{
1070
   279
1070
     0
1070
   172
1070
     1
1070
   173
1070
     1
1070
   340
1005
F3
1070
   271
1070
     2
1070
   272
1070
     2
1070
    77
1070
     1
1070
    73
1070
     0
1070
   171
1070
     3
1070
   274
1070
     4
1070
   177
1070
    35
1070
   176
1070
    35
1070
   178
1070
    35
1070
    48
1040
-0.005
1070
    41
1041
3.5
1070
   147
1041
1.75
1070
    42
1041
1.5875
1070
    44
1041
2.0
1070
   140
1041
3.5
1070
   343
1005
0
1070
   344
1005
0
1002
}
0
DIMENSION
5
11D
100
AcDbEntity
8
SK2
62
256
6
ByLayer
370
13
48
1
60
0
100
AcDbDimension
2
DimnDraft3D4
10
67.1188
20
-15.802503
30
0
11
77.981425
21
-15.802503
31
0
70
32
71
5
72
1
41
1
210
0
220
0
230
1
3
Standard
100
AcDbAlignedDimension
13
68
23
-1.5875
33
0
14
67.1188
24
-4.5875
34
0
50
0
100
AcDbRotatedDimension
1001
ACAD
1000
DSTYLE
1002
{
1070
   279
1070
     0
1070
   172
1070
     1
1070
   173
1070
     1
1070
   340
1005
F3
1070
   271
1070
     2
1070
   272
1070
     2
1070
    77
1070
     1
1070
    73
1070
     0
1070
   171
1070
     3
1070
   274
1070
     4
1070
   177
1070
    35
1070
   176
1070
    35
1070
   178
1070
    35
1070
    48
1040
-0.005
1070
    41
1041
3.5
1070
   147
1041
1.75
1070
    42
1041
1.5875
1070
    44
1041
2.0
1070
   140
1041
3.5
1070
   343
1005
0
1070
   344
1005
0
1002
}
0
DIMENSION
5
127
100
AcDbEntity
8
SK2
62
256
6
ByLayer
370
13
48
1
60
0
100
AcDbDimension
2
DimnDraft3D5
10
67.1188
20
-21.343428
30
0
11
13.379476
21
-21.343428
31
0
70
32
71
5
72
1
41
1
210
0
220
0
230
1
3
Standard
100
AcDbAlignedDimension
13
-36
23
-4.5875
33
0
14
67.1188
24
-4.5875
34
0
50
0
100
AcDbRotatedDimension
1001
ACAD
1000
DSTYLE
1002
{
1070
   279
1070
     0
1070
   172
1070
     1
1070
   173
1070
     1
1070
   340
1005
F3
1070
   271
1070
     2
1070
   272
1070
     2
1070
    77
1070
     1
1070
    73
1070
     0
1070
   171
1070
     3
1070
   274
1070
     4
1070
   177
1070
    35
1070
   176
1070
    35
1070
   178
1070
    35
1070
    48
1040
-0.005
1070
    41
1041
3.5
1070
   147
1041
1.75
1070
    42
1041
1.5875
1070
    44
1041
2.0
1070
   140
1041
3.5
1070
   343
1005
0
1070
   344
1005
0
1002
}
0
DIMENSION
5
132
100
AcDbEntity
8
SK2
62
256
6
ByLayer
370
13
48
1
60
0
100
AcDbDimension
2
DimnDraft3D6
10
-46.625163
20
3
30
0
11
-47.250163
21
21.47418
31
0
70
33
71
5
72
1
41
1
210
0
220
0
230
1
3
Standard
100
AcDbAlignedDimension
13
-37.5875
23
-3
33
0
14
-37.5875
24
3
34
0
1001
ACAD
1000
DSTYLE
1002
{
1070
   279
1070
     0
1070
    74
1070
     0
1070
   173
1070
     1
1070
   340
1005
F3
1070
   271
1070
     3
1070
   272
1070
     2
1070
    77
1070
     1
1070
    73
1070
     0
1070
   171
1070
     3
1070
   274
1070
     4
1070
   177
1070
    35
1070
   176
1070
    35
1070
   178
1070
    35
1070
    48
1040
-0.005
1070
    41
1041
3.5
1070
   147
1041
1.75
1070
    42
1041
1.5875
1070
    44
1041
2.0
1070
   140
1041
3.5
1070
   343
1005
0
1070
   344
1005
0
1002
}
0
DIMENSION
5
13D
100
AcDbEntity
8
2
62
256
6
ByLayer
370
13
48
1
60
0
100
AcDbDimension
2
DimnDraft3D7
10
82.083343
20
3
30
0
11
77.458343
21
20.067266
31
0
70
33
71
5
72
1
41
1
210
0
220
0
230
1
3
Standard
100
AcDbAlignedDimension
13
68.7063
23
-3
33
0
14
68.7063
24
3
34
0
1001
ACAD
1000
DSTYLE
1002
{
1070
   279
1070
     0
1070
    74
1070
     0
1070
   173
1070
     1
1070
   340
1005
F3
1070
   271
1070
     3
1070
   272
1070
     2
1070
    77
1070
     1
1070
    73
1070
     0
1070
   171
1070
     3
1070
   274
1070
     4
1070
   177
1070
    35
1070
   176
1070
    35
1070
   178
1070
    35
1070
    48
1040
-0.005
1070
    41
1041
3.5
1070
   147
1041
1.75
1070
    42
1041
1.5875
1070
    44
1041
2.0
1070
   140
1041
3.5
1070
   343
1005
0
1070
   344
1005
0
1002
}
0
ENDSEC
0
SECTION
2
OBJECTS
0
DICTIONARY
5
1a8
330
0
100
AcDbDictionary
280
0
281
1
3
ACAD_GROUP
350
1a9
3
ACAD_MLINESTYLE
350
1aa
0
DICTIONARY
5
1a9
330
0
100
AcDbDictionary
280
0
281
1
0
DICTIONARY
5
1aa
330
0
100
AcDbDictionary
280
0
281
1
3
Standard
350
18
0
MLINESTYLE
5
18
330
1aa
100
AcDbMlineStyle
2
Standard
70
0
3

62
256
51
90
52
90
71
2
49
-0.5
62
256
6
ByLayer
49
0.5
62
256
6
ByLayer
0
RASTERVARIABLES
5
196
330

100
AcDbRasterVariables
90
0
70
1
71
1
72
1
0
ENDSEC
0
EOF
