0
SECTION
2
HEADER
9
$ACADVER
1
AC1015
9
$DWGCODEPAGE
3
ANSI_1252
9
$HANDSEED
5
19e
9
$ANGBASE
50
0
9
$ANGDIR
70
0
9
$ATTMODE
70
1
9
$AUNITS
70
0
9
$AUPREC
70
0
9
$CECOLOR
62
256
9
$CELTSCALE
40
1
9
$CELTYPE
6
ByLayer
9
$CELWEIGHT
370
18
9
$CLAYER
8
0
9
$CMLJUST
70
0
9
$CMLSCALE
40
1
9
$CMLSTYLE
2
Standard
9
$DIMSTYLE
2
Standard
9
$TEXTSIZE
40
0.2
9
$TEXTSTYLE
7
Standard
9
$LUNITS
70
2
9
$LUPREC
70
4
9
$EXTNAMES
290
1
9
$INSUNITS
70
4
9
$LTSCALE
40
1
9
$LWDISPLAY
290
1
9
$PDMODE
70
0
9
$PDSIZE
40
0
9
$PLINEGEN
70
0
0
ENDSEC
0
SECTION
2
CLASSES
0
CLASS
1
RASTERVARIABLES
2
AcDbRasterVariables
3
ISM
90
0
280
0
281
0
0
ENDSEC
0
SECTION
2
TABLES
0
TABLE
2
VPORT
5
194
100
AcDbSymbolTable
0
VPORT
5
1
100
AcDbSymbolTableRecord
100
AcDbViewportTableRecord
2
*Active
70
0
10
0
20
0
11
1
21
1
12
-1
22
1
13
0
23
0
14
0.5
24
0.5
15
10
25
10
16
0
26
0
36
1
17
0
27
0
37
0
0
ENDTAB
0
TABLE
2
LTYPE
5
195
100
AcDbSymbolTable
0
LTYPE
5
14
100
AcDbSymbolTableRecord
100
AcDbLinetypeTableRecord
70
0
2
ByBlock
3

72
65
73
0
40
0
0
LTYPE
5
15
100
AcDbSymbolTableRecord
100
AcDbLinetypeTableRecord
70
0
2
ByLayer
3

72
65
73
0
40
0
0
LTYPE
5
16
100
AcDbSymbolTableRecord
100
AcDbLinetypeTableRecord
70
0
2
CONTINUOUS
3
Solid line
72
65
73
0
40
0
0
LTYPE
5
6A
100
AcDbSymbolTableRecord
100
AcDbLinetypeTableRecord
70
0
2
CENTER
3
____ _ ____ _ ____ _ ____
72
65
73
4
40
47.5
49
22
74
0
49
-8.5
74
0
49
8.5
74
0
49
-8.5
74
0
0
LTYPE
5
6B
100
AcDbSymbolTableRecord
100
AcDbLinetypeTableRecord
70
0
2
DASHED
3
__ __ __ __ __ __ __ __ __
72
65
73
2
40
25.72
49
12.86
74
0
49
-12.86
74
0
0
ENDTAB
0
TABLE
2
LAYER
5
196
100
AcDbSymbolTable
0
LAYER
5
10
100
AcDbSymbolTableRecord
100
AcDbLayerTableRecord
2
0
70
0
62
7
6
CONTINUOUS
290
1
370
-3
390
0
0
LAYER
5
6D
100
AcDbSymbolTableRecord
100
AcDbLayerTableRecord
2
81
70
0
62
-3
6
CONTINUOUS
290
1
370
-3
390
0
0
LAYER
5
6F
100
AcDbSymbolTableRecord
100
AcDbLayerTableRecord
2
80
70
0
62
-6
6
CONTINUOUS
290
1
370
-3
390
0
0
LAYER
5
74
100
AcDbSymbolTableRecord
100
AcDbLayerTableRecord
2
2
70
0
62
7
6
CONTINUOUS
290
1
370
-3
390
0
0
LAYER
5
78
100
AcDbSymbolTableRecord
100
AcDbLayerTableRecord
2
1
70
0
62
4
6
CONTINUOUS
290
1
370
-3
390
0
0
LAYER
5
88
100
AcDbSymbolTableRecord
100
AcDbLayerTableRecord
2
4
70
0
62
-2
6
CENTER
290
1
370
-3
390
0
0
LAYER
5
180
100
AcDbSymbolTableRecord
100
AcDbLayerTableRecord
2
SK2
70
0
62
7
6
CONTINUOUS
290
1
370
-3
390
0
0
LAYER
5
181
100
AcDbSymbolTableRecord
100
AcDbLayerTableRecord
2
SK1
70
0
62
4
6
CONTINUOUS
290
1
370
-3
390
0
0
LAYER
5
182
100
AcDbSymbolTableRecord
100
AcDbLayerTableRecord
2
SK4
70
0
62
2
6
CENTER
290
1
370
-3
390
0
0
LAYER
5
183
100
AcDbSymbolTableRecord
100
AcDbLayerTableRecord
2
SK6
70
0
62
5
6
CONTINUOUS
290
1
370
-3
390
0
0
ENDTAB
0
TABLE
2
STYLE
5
197
100
AcDbSymbolTable
0
STYLE
5
11
100
AcDbSymbolTableRecord
100
AcDbTextStyleTableRecord
2
Standard
3
txt
70
0
71
0
40
0
41
1
42
0
50
0
0
STYLE
5
DC
100
AcDbSymbolTableRecord
100
AcDbTextStyleTableRecord
2
iso_b_vert
3
simplex.shx
70
0
71
0
40
0
41
1
42
0
50
0
0
STYLE
5
DD
100
AcDbSymbolTableRecord
100
AcDbTextStyleTableRecord
2
DWGDirectTextStyle
3
simplex
70
0
71
0
40
0
41
1
42
0
50
0
0
ENDTAB
0
TABLE
2
DIMSTYLE
5
198
100
AcDbSymbolTable
100
AcDbDimStyleTable
0
DIMSTYLE
105
27
100
AcDbSymbolTableRecord
100
AcDbDimStyleTableRecord
2
Standard
70
0
3
<>
41
0.18
42
0.0625
44
0.18
140
0.18
147
0.09
73
0
74
0
77
1
271
2
275
0
278
52
280
0
340
11
0
ENDTAB
0
TABLE
2
VIEW
5
199
100
AcDbSymbolTable
0
ENDTAB
0
TABLE
2
UCS
5
19a
100
AcDbSymbolTable
0
ENDTAB
0
TABLE
2
APPID
5
19b
100
AcDbSymbolTable
0
APPID
5
12
100
AcDbSymbolTableRecord
100
AcDbRegAppTableRecord
2
ACAD
70
0
0
ENDTAB
0
TABLE
2
BLOCK_RECORD
5
19c
100
AcDbSymbolTable
0
BLOCK_RECORD
5
1F
100
AcDbSymbolTableRecord
100
AcDbBlockTableRecord
2
*Model_Space
340
0
70
0
0
BLOCK_RECORD
5
1B
100
AcDbSymbolTableRecord
100
AcDbBlockTableRecord
2
*Paper_Space
340
0
70
0
0
BLOCK_RECORD
5
23
100
AcDbSymbolTableRecord
100
AcDbBlockTableRecord
2
*Paper_Space0
340
0
70
0
0
BLOCK_RECORD
5
DF
100
AcDbSymbolTableRecord
100
AcDbBlockTableRecord
2
DimnDraft3D1
340
0
70
0
0
BLOCK_RECORD
5
E9
100
AcDbSymbolTableRecord
100
AcDbBlockTableRecord
2
DimnDraft3D2
340
0
70
0
0
BLOCK_RECORD
5
F3
100
AcDbSymbolTableRecord
100
AcDbBlockTableRecord
2
DimnDraft3D3
340
0
70
0
0
BLOCK_RECORD
5
FD
100
AcDbSymbolTableRecord
100
AcDbBlockTableRecord
2
DimnDraft3D4
340
0
70
0
0
BLOCK_RECORD
5
107
100
AcDbSymbolTableRecord
100
AcDbBlockTableRecord
2
DimnDraft3D5
340
0
70
0
0
BLOCK_RECORD
5
111
100
AcDbSymbolTableRecord
100
AcDbBlockTableRecord
2
DimnDraft3D6
340
0
70
0
0
BLOCK_RECORD
5
11C
100
AcDbSymbolTableRecord
100
AcDbBlockTableRecord
2
DimnDraft3D7
340
0
70
0
0
ENDTAB
0
ENDSEC
0
SECTION
2
BLOCKS
0
BLOCK
5
20
100
AcDbEntity
8
0
100
AcDbBlockBegin
2
*Model_Space
70
0
10
0
20
0
30
0
3
*Model_Space
0
ENDBLK
5
21
100
AcDbEntity
8
0
100
AcDbBlockEnd
0
BLOCK
5
1C
100
AcDbEntity
8
0
100
AcDbBlockBegin
2
*Paper_Space
70
0
10
0
20
0
30
0
3
*Paper_Space
0
ENDBLK
5
1D
100
AcDbEntity
8
0
100
AcDbBlockEnd
0
BLOCK
5
24
100
AcDbEntity
8
0
100
AcDbBlockBegin
2
*Paper_Space0
70
0
10
0
20
0
30
0
3
*Paper_Space0
0
ENDBLK
5
25
100
AcDbEntity
8
0
100
AcDbBlockEnd
0
BLOCK
5
E6
100
AcDbEntity
8
0
100
AcDbBlockBegin
2
DimnDraft3D1
70
0
10
0
20
0
30
0
3
DimnDraft3D1
0
MTEXT
5
E0
100
AcDbEntity
8
SK2
62
256
6
ByLayer
370
13
48
1
60
0
100
AcDbMText
10
9.417975
20
-12.138398
30
0
210
0
220
0
230
1
1
\W0.6713;29,18
40
3.5
41
0
44
1.084337
50
0
71
7
72
5
7
iso_b_vert
0
LINE
5
E1
100
AcDbEntity
8
SK2
62
256
6
ByLayer
370
13
48
1
60
0
100
AcDbLine
10
0
20
-1.5875
30
0
11
0
21
-15.013398
31
0
39
0
210
0
220
0
230
1
0
LINE
5
E2
100
AcDbEntity
8
SK2
62
256
6
ByLayer
370
13
48
1
60
0
100
AcDbLine
10
29.1791
20
-4.3875
30
0
11
29.1791
21
-15.013398
31
0
39
0
210
0
220
0
230
1
0
LINE
5
E3
100
AcDbEntity
8
SK2
62
256
6
ByLayer
370
13
48
1
60
0
100
AcDbLine
10
0
20
-13.013398
30
0
11
29.1791
21
-13.013398
31
0
39
0
210
0
220
0
230
1
0
SOLID
5
E4
100
AcDbEntity
8
SK2
62
256
6
ByLayer
370
13
48
1
60
0
100
AcDbTrace
10
0
20
-13.013398
30
0
11
3.499998
21
-12.552615
31
0
12
3.500002
22
-13.474182
32
0
13
0
23
-13.013398
33
0
39
0
210
0
220
0
230
1
0
SOLID
5
E5
100
AcDbEntity
8
SK2
62
256
6
ByLayer
370
13
48
1
60
0
100
AcDbTrace
10
29.1791
20
-13.013398
30
0
11
25.679102
21
-13.474182
31
0
12
25.679098
22
-12.552615
32
0
13
29.1791
23
-13.013398
33
0
39
0
210
0
220
0
230
1
0
ENDBLK
5
E7
100
AcDbEntity
8
0
100
AcDbBlockEnd
0
BLOCK
5
F0
100
AcDbEntity
8
0
100
AcDbBlockBegin
2
DimnDraft3D2
70
0
10
0
20
0
30
0
3
DimnDraft3D2
0
MTEXT
5
EA
100
AcDbEntity
8
SK2
62
256
6
ByLayer
370
13
48
1
60
0
100
AcDbMText
10
-6.928284
20
-30.817985
30
0
210
0
220
0
230
1
1
\W0.7317;66,00
40
3.5
41
0
44
1.084337
50
0
71
7
72
5
7
iso_b_vert
0
LINE
5
EB
100
AcDbEntity
8
SK2
62
256
6
ByLayer
370
13
48
1
60
0
100
AcDbLine
10
-36
20
-4.5875
30
0
11
-36
21
-33.692985
31
0
39
0
210
0
220
0
230
1
0
LINE
5
EC
100
AcDbEntity
8
SK2
62
256
6
ByLayer
370
13
48
1
60
0
100
AcDbLine
10
30
20
-1.5875
30
0
11
30
21
-33.692985
31
0
39
0
210
0
220
0
230
1
0
LINE
5
ED
100
AcDbEntity
8
SK2
62
256
6
ByLayer
370
13
48
1
60
0
100
AcDbLine
10
-36
20
-31.692985
30
0
11
30
21
-31.692985
31
0
39
0
210
0
220
0
230
1
0
SOLID
5
EE
100
AcDbEntity
8
SK2
62
256
6
ByLayer
370
13
48
1
60
0
100
AcDbTrace
10
-36
20
-31.692985
30
0
11
-32.500002
21
-31.232202
31
0
12
-32.499998
22
-32.153769
32
0
13
-36
23
-31.692985
33
0
39
0
210
0
220
0
230
1
0
SOLID
5
EF
100
AcDbEntity
8
SK2
62
256
6
ByLayer
370
13
48
1
60
0
100
AcDbTrace
10
30
20
-31.692985
30
0
11
26.500002
21
-32.153769
31
0
12
26.499998
22
-31.232202
32
0
13
30
23
-31.692985
33
0
39
0
210
0
220
0
230
1
0
ENDBLK
5
F1
100
AcDbEntity
8
0
100
AcDbBlockEnd
0
BLOCK
5
FA
100
AcDbEntity
8
0
100
AcDbBlockBegin
2
DimnDraft3D3
70
0
10
0
20
0
30
0
3
DimnDraft3D3
0
MTEXT
5
F4
100
AcDbEntity
8
SK2
62
256
6
ByLayer
370
13
48
1
60
0
100
AcDbMText
10
17.178816
20
15.284119
30
0
210
0
220
0
230
1
1
\W0.6713;17,62
40
3.5
41
0
44
1.084337
50
0
71
7
72
5
7
iso_b_vert
0
LINE
5
F5
100
AcDbEntity
8
SK2
62
256
6
ByLayer
370
13
48
1
60
0
100
AcDbLine
10
12.38
20
4.3875
30
0
11
12.38
21
16.409119
31
0
39
0
210
0
220
0
230
1
0
LINE
5
F6
100
AcDbEntity
8
SK2
62
256
6
ByLayer
370
13
48
1
60
0
100
AcDbLine
10
30
20
1.5875
30
0
11
30
21
16.409119
31
0
39
0
210
0
220
0
230
1
0
LINE
5
F7
100
AcDbEntity
8
SK2
62
256
6
ByLayer
370
13
48
1
60
0
100
AcDbLine
10
12.38
20
14.409119
30
0
11
30
21
14.409119
31
0
39
0
210
0
220
0
230
1
0
SOLID
5
F8
100
AcDbEntity
8
SK2
62
256
6
ByLayer
370
13
48
1
60
0
100
AcDbTrace
10
12.38
20
14.409119
30
0
11
15.879998
21
14.869903
31
0
12
15.880002
22
13.948335
32
0
13
12.38
23
14.409119
33
0
39
0
210
0
220
0
230
1
0
SOLID
5
F9
100
AcDbEntity
8
SK2
62
256
6
ByLayer
370
13
48
1
60
0
100
AcDbTrace
10
30
20
14.409119
30
0
11
26.500002
21
13.948335
31
0
12
26.499998
22
14.869903
32
0
13
30
23
14.409119
33
0
39
0
210
0
220
0
230
1
0
ENDBLK
5
FB
100
AcDbEntity
8
0
100
AcDbBlockEnd
0
BLOCK
5
104
100
AcDbEntity
8
0
100
AcDbBlockBegin
2
DimnDraft3D4
70
0
10
0
20
0
30
0
3
DimnDraft3D4
0
MTEXT
5
FE
100
AcDbEntity
8
SK2
62
256
6
ByLayer
370
13
48
1
60
0
100
AcDbMText
10
36.840636
20
-14.727503
30
0
210
0
220
0
230
1
1
\W0.7150;0,82
40
3.5
41
0
44
1.084337
50
0
71
7
72
5
7
iso_b_vert
0
LINE
5
FF
100
AcDbEntity
8
SK2
62
256
6
ByLayer
370
13
48
1
60
0
100
AcDbLine
10
30
20
-1.5875
30
0
11
30
21
-17.602503
31
0
39
0
210
0
220
0
230
1
0
LINE
5
100
100
AcDbEntity
8
SK2
62
256
6
ByLayer
370
13
48
1
60
0
100
AcDbLine
10
29.1791
20
-4.3875
30
0
11
29.1791
21
-17.602503
31
0
39
0
210
0
220
0
230
1
0
LINE
5
101
100
AcDbEntity
8
SK2
62
256
6
ByLayer
370
13
48
1
60
0
100
AcDbLine
10
20.4291
20
-15.602503
30
0
11
43.997215
21
-15.602503
31
0
39
0
210
0
220
0
230
1
0
SOLID
5
102
100
AcDbEntity
8
SK2
62
256
6
ByLayer
370
13
48
1
60
0
100
AcDbTrace
10
30
20
-15.602503
30
0
11
33.499998
21
-15.141719
31
0
12
33.500002
22
-16.063287
32
0
13
30
23
-15.602503
33
0
39
0
210
0
220
0
230
1
0
SOLID
5
103
100
AcDbEntity
8
SK2
62
256
6
ByLayer
370
13
48
1
60
0
100
AcDbTrace
10
29.1791
20
-15.602503
30
0
11
25.679102
21
-16.063287
31
0
12
25.679098
22
-15.141719
32
0
13
29.1791
23
-15.602503
33
0
39
0
210
0
220
0
230
1
0
ENDBLK
5
105
100
AcDbEntity
8
0
100
AcDbBlockEnd
0
BLOCK
5
10E
100
AcDbEntity
8
0
100
AcDbBlockBegin
2
DimnDraft3D5
70
0
10
0
20
0
30
0
3
DimnDraft3D5
0
MTEXT
5
108
100
AcDbEntity
8
SK2
62
256
6
ByLayer
370
13
48
1
60
0
100
AcDbMText
10
-9.571408
20
-20.468428
30
0
210
0
220
0
230
1
1
\W0.6713;65,18
40
3.5
41
0
44
1.084337
50
0
71
7
72
5
7
iso_b_vert
0
LINE
5
109
100
AcDbEntity
8
SK2
62
256
6
ByLayer
370
13
48
1
60
0
100
AcDbLine
10
-36
20
-4.5875
30
0
11
-36
21
-23.343428
31
0
39
0
210
0
220
0
230
1
0
LINE
5
10A
100
AcDbEntity
8
SK2
62
256
6
ByLayer
370
13
48
1
60
0
100
AcDbLine
10
29.1791
20
-4.3875
30
0
11
29.1791
21
-23.343428
31
0
39
0
210
0
220
0
230
1
0
LINE
5
10B
100
AcDbEntity
8
SK2
62
256
6
ByLayer
370
13
48
1
60
0
100
AcDbLine
10
-36
20
-21.343428
30
0
11
29.1791
21
-21.343428
31
0
39
0
210
0
220
0
230
1
0
SOLID
5
10C
100
AcDbEntity
8
SK2
62
256
6
ByLayer
370
13
48
1
60
0
100
AcDbTrace
10
-36
20
-21.343428
30
0
11
-32.500002
21
-20.882645
31
0
12
-32.499998
22
-21.804212
32
0
13
-36
23
-21.343428
33
0
39
0
210
0
220
0
230
1
0
SOLID
5
10D
100
AcDbEntity
8
SK2
62
256
6
ByLayer
370
13
48
1
60
0
100
AcDbTrace
10
29.1791
20
-21.343428
30
0
11
25.679102
21
-21.804212
31
0
12
25.679098
22
-20.882645
32
0
13
29.1791
23
-21.343428
33
0
39
0
210
0
220
0
230
1
0
ENDBLK
5
10F
100
AcDbEntity
8
0
100
AcDbBlockEnd
0
BLOCK
5
119
100
AcDbEntity
8
0
100
AcDbBlockBegin
2
DimnDraft3D6
70
0
10
0
20
0
30
0
3
DimnDraft3D6
0
MTEXT
5
112
100
AcDbEntity
8
SK2
62
256
6
ByLayer
370
13
48
1
60
0
100
AcDbMText
10
-46.375163
20
22.34918
30
0
210
0
220
0
230
1
1
\W0.7317;6,000
40
3.5
41
0
44
1.084337
50
90
71
7
72
5
7
iso_b_vert
0
MTEXT
5
113
100
AcDbEntity
8
SK2
62
256
6
ByLayer
370
13
48
1
60
0
100
AcDbMText
10
-46.375163
20
17.126524
30
0
210
0
220
0
230
1
1
%%c
40
3.5
41
0
44
1.084337
50
90
71
7
72
5
7
iso_b_vert
0
LINE
5
114
100
AcDbEntity
8
SK2
62
256
6
ByLayer
370
13
48
1
60
0
100
AcDbLine
10
-37.5875
20
-3
30
0
11
-46.625163
21
-3
31
0
39
0
210
0
220
0
230
1
0
LINE
5
115
100
AcDbEntity
8
SK2
62
256
6
ByLayer
370
13
48
1
60
0
100
AcDbLine
10
-37.5875
20
3
30
0
11
-46.625163
21
3
31
0
39
0
210
0
220
0
230
1
0
LINE
5
116
100
AcDbEntity
8
SK2
62
256
6
ByLayer
370
13
48
1
60
0
100
AcDbLine
10
-44.625163
20
32.121549
30
0
11
-44.625163
21
-11.75
31
0
39
0
210
0
220
0
230
1
0
SOLID
5
117
100
AcDbEntity
8
SK2
62
256
6
ByLayer
370
13
48
1
60
0
100
AcDbTrace
10
-44.625163
20
-3
30
0
11
-44.164379
21
-6.499998
31
0
12
-45.085946
22
-6.500002
32
0
13
-44.625163
23
-3
33
0
39
0
210
0
220
0
230
1
0
SOLID
5
118
100
AcDbEntity
8
SK2
62
256
6
ByLayer
370
13
48
1
60
0
100
AcDbTrace
10
-44.625163
20
3
30
0
11
-45.085946
21
6.499998
31
0
12
-44.164379
22
6.500002
32
0
13
-44.625163
23
3
33
0
39
0
210
0
220
0
230
1
0
ENDBLK
5
11A
100
AcDbEntity
8
0
100
AcDbBlockEnd
0
BLOCK
5
124
100
AcDbEntity
8
0
100
AcDbBlockBegin
2
DimnDraft3D7
70
0
10
0
20
0
30
0
3
DimnDraft3D7
0
MTEXT
5
11D
100
AcDbEntity
8
2
62
256
6
ByLayer
370
13
48
1
60
0
100
AcDbMText
10
40.333343
20
20.742266
30
0
210
0
220
0
230
1
1
\W0.7317;5,600
40
3.5
41
0
44
1.084337
50
90
71
7
72
5
7
iso_b_vert
0
MTEXT
5
11E
100
AcDbEntity
8
2
62
256
6
ByLayer
370
13
48
1
60
0
100
AcDbMText
10
40.333343
20
15.51961
30
0
210
0
220
0
230
1
1
%%c
40
3.5
41
0
44
1.084337
50
90
71
7
72
5
7
iso_b_vert
0
LINE
5
11F
100
AcDbEntity
8
2
62
256
6
ByLayer
370
13
48
1
60
0
100
AcDbLine
10
30.7666
20
-2.8
30
0
11
44.083343
21
-2.8
31
0
39
0
210
0
220
0
230
1
0
LINE
5
120
100
AcDbEntity
8
2
62
256
6
ByLayer
370
13
48
1
60
0
100
AcDbLine
10
30.7666
20
2.8
30
0
11
44.083343
21
2.8
31
0
39
0
210
0
220
0
230
1
0
LINE
5
121
100
AcDbEntity
8
2
62
256
6
ByLayer
370
13
48
1
60
0
100
AcDbLine
10
42.083343
20
30.514635
30
0
11
42.083343
21
-11.55
31
0
39
0
210
0
220
0
230
1
0
SOLID
5
122
100
AcDbEntity
8
2
62
256
6
ByLayer
370
13
48
1
60
0
100
AcDbTrace
10
42.083343
20
-2.8
30
0
11
42.544126
21
-6.299998
31
0
12
41.622559
22
-6.300002
32
0
13
42.083343
23
-2.8
33
0
39
0
210
0
220
0
230
1
0
SOLID
5
123
100
AcDbEntity
8
2
62
256
6
ByLayer
370
13
48
1
60
0
100
AcDbTrace
10
42.083343
20
2.8
30
0
11
41.622559
21
6.299998
31
0
12
42.544126
22
6.300002
32
0
13
42.083343
23
2.8
33
0
39
0
210
0
220
0
230
1
0
ENDBLK
5
125
100
AcDbEntity
8
0
100
AcDbBlockEnd
0
ENDSEC
0
SECTION
2
ENTITIES
0
ELLIPSE
5
95
100
AcDbEntity
8
1
62
256
6
ByLayer
370
18
48
1
60
0
100
AcDbEllipse
10
3.446601
20
2.895153
30
0
11
-0.25
21
3.06151588455594E-17
31
0
210
0
220
0
230
1
40
1
41
0.49364549340317
42
1.58200851983524
0
ELLIPSE
5
96
100
AcDbEntity
8
1
62
256
6
ByLayer
370
18
48
1
60
0
100
AcDbEllipse
10
3.446601
20
-2.895153
30
0
11
-0.25
21
3.06151588455594E-17
31
0
210
0
220
0
230
1
40
1
41
-1.56872272815743
42
-0.495063377017269
0
ELLIPSE
5
97
100
AcDbEntity
8
1
62
256
6
ByLayer
370
13
48
1
60
0
100
AcDbEllipse
10
3.376346
20
0.470262
30
0
11
-0.0511959685901566
21
-0.0859009476089507
31
0
210
0
220
0
230
1
40
0.350181
41
-1.19319996032967
42
0.130750589797077
0
ELLIPSE
5
98
100
AcDbEntity
8
1
62
256
6
ByLayer
370
13
48
1
60
0
100
AcDbEllipse
10
3.446838
20
0.431203
30
0
11
0.0461449983178568
21
0.0887166226264559
31
0
210
0
220
0
230
1
40
0.074416
41
3.0308592484775
42
-1.70950979625521
0
POINT
5
6C
100
AcDbEntity
8
81
62
256
6
ByLayer
370
18
48
1
60
0
100
AcDbPoint
10
30
20
0
30
0
39
0
210
0
220
0
230
1
50
360
0
POINT
5
6E
100
AcDbEntity
8
80
62
256
6
ByLayer
370
18
48
1
60
0
100
AcDbPoint
10
0
20
0
30
0
39
0
210
0
220
0
230
1
50
360
0
POINT
5
70
100
AcDbEntity
8
SK2
62
256
6
ByLayer
370
18
48
1
60
1
100
AcDbPoint
10
-36
20
-3
30
0
39
0
210
0
220
0
230
1
50
360
0
POINT
5
72
100
AcDbEntity
8
SK2
62
256
6
ByLayer
370
18
48
1
60
1
100
AcDbPoint
10
-36
20
3
30
0
39
0
210
0
220
0
230
1
50
360
0
POINT
5
73
100
AcDbEntity
8
2
62
256
6
ByLayer
370
18
48
1
60
1
100
AcDbPoint
10
29.1791
20
-2.8
30
0
39
0
210
0
220
0
230
1
50
360
0
POINT
5
75
100
AcDbEntity
8
2
62
256
6
ByLayer
370
18
48
1
60
1
100
AcDbPoint
10
29.1791
20
2.8
30
0
39
0
210
0
220
0
230
1
50
360
0
SPLINE
5
99
100
AcDbEntity
8
1
62
256
6
ByLayer
370
18
48
1
60
0
100
AcDbSpline
70
4
71
2
72
6
73
3
40
0
40
0
40
0
40
1
40
1
40
1
41
1
10
4.04347429044549
20
0.0056921591543357
30
0
41
1
10
4.0434707668922
20
0.0057029259562285
30
0
41
1
10
4.04346724334334
20
0.0057137165705683
30
0
0
SPLINE
5
9A
100
AcDbEntity
8
1
62
256
6
ByLayer
370
18
48
1
60
0
100
AcDbSpline
70
4
71
2
72
6
73
3
40
0
40
0
40
0
40
1
40
1
40
1
41
1
10
28.6589114929325
20
-2.65886212890084
30
0
41
1
10
28.854349711406
20
-2.65863346643684
30
0
41
1
10
29.0496127164178
20
-2.65881043851769
30
0
0
SPLINE
5
9B
100
AcDbEntity
8
1
62
256
6
ByLayer
370
18
48
1
60
0
100
AcDbSpline
70
4
71
2
72
6
73
3
40
0
40
0
40
0
40
1
40
1
40
1
41
1
10
3.44772305136541
20
-2.64470646838853
30
0
41
1
10
3.88221182467302
20
-2.64725063008399
30
0
41
1
10
4.31656781711052
20
-2.64648312695996
30
0
0
SPLINE
5
9C
100
AcDbEntity
8
1
62
256
6
ByLayer
370
18
48
1
60
0
100
AcDbSpline
70
4
71
3
72
21
73
17
40
0
40
0
40
0
40
0
40
0.0167835324000442
40
0.0942660112594961
40
0.145922189795058
40
0.190294343760317
40
0.235874794361652
40
0.283122250407951
40
0.37066745236954
40
0.474934548338857
40
0.581129431955999
40
0.701219431070875
40
0.797736252302474
40
0.893618536042477
40
0.950816662883201
40
1
40
1
40
1
40
1
41
1
10
20.4092365084036
20
2.65310026027723
30
0
41
1
10
20.3723465964742
20
2.65298954892913
30
0
41
1
10
20.1651507902566
20
2.65244151908499
30
0
41
1
10
19.8443965547466
20
2.65249532702765
30
0
41
1
10
19.4630124900018
20
2.65308790094312
30
0
41
1
10
19.1517428283194
20
2.65372709049311
30
0
41
1
10
18.8501651568769
20
2.65329374104667
30
0
41
1
10
18.4536896696857
20
2.6524644049824
30
0
41
1
10
17.928215958283
20
2.65135283638671
30
0
41
1
10
17.2731723810711
20
2.65214062579898
30
0
41
1
10
16.5465937405129
20
2.65187488906722
30
0
41
1
10
15.8370481816324
20
2.65108186769919
30
0
41
1
10
15.1501665425348
20
2.65125205998896
30
0
41
1
10
14.6015356802833
20
2.6505543652446
30
0
41
1
10
14.1569314809458
20
2.65089579143179
30
0
41
1
10
13.923165787997
20
2.6508642620054
30
0
41
1
10
13.8150769731761
20
2.65078535431408
30
0
0
SPLINE
5
9D
100
AcDbEntity
8
1
62
256
6
ByLayer
370
18
48
1
60
0
100
AcDbSpline
70
4
71
3
72
22
73
18
40
0
40
0
40
0
40
0
40
0.0793323965323784
40
0.14482763535114
40
0.191321660464555
40
0.231608627359489
40
0.271699520401303
40
0.311477119660196
40
0.404238519605262
40
0.518872910087135
40
0.630906206288433
40
0.734470595957276
40
0.815476710045888
40
0.859492417686905
40
0.904199392081862
40
0.972852688796522
40
1
40
1
40
1
40
1
41
1
10
12.4430095259052
20
-2.64966458637579
30
0
41
1
10
12.6536006713617
20
-2.64962988604046
30
0
41
1
10
13.0381043370456
20
-2.64971760407639
30
0
41
1
10
13.5463533274547
20
-2.65049180206083
30
0
41
1
10
13.9507093517098
20
-2.65093210518239
30
0
41
1
10
14.2876377615513
20
-2.65080756552908
30
0
41
1
10
14.6067871421311
20
-2.6506419103662
30
0
41
1
10
15.0652969608408
20
-2.65092526747296
30
0
41
1
10
15.7218068223559
20
-2.65131442216188
30
0
41
1
10
16.5702281354
20
-2.65203386858428
30
0
41
1
10
17.4473375568119
20
-2.6514331564162
30
0
41
1
10
18.2351325958475
20
-2.65212668566352
30
0
41
1
10
18.8422698806731
20
-2.65354231363531
30
0
41
1
10
19.2930796503876
20
-2.65352219000803
30
0
41
1
10
19.7110781141476
20
-2.65263698003489
30
0
41
1
10
20.0842686487879
20
-2.65226269310654
30
0
41
1
10
20.3387124386854
20
-2.65292425781053
30
0
41
1
10
20.4108146649249
20
-2.65316264771991
30
0
0
SPLINE
5
9E
100
AcDbEntity
8
1
62
256
6
ByLayer
370
18
48
1
60
0
100
AcDbSpline
70
4
71
2
72
6
73
3
40
0
40
0
40
0
40
1
40
1
40
1
41
1
10
4.31309449764058
20
2.64648384252416
30
0
41
1
10
3.88047489950972
20
2.64724436786409
30
0
41
1
10
3.44772305136539
20
2.64470646838865
30
0
0
SPLINE
5
9F
100
AcDbEntity
8
1
62
256
6
ByLayer
370
18
48
1
60
0
100
AcDbSpline
70
4
71
3
72
52
73
48
40
0
40
0
40
0
40
0
40
0.0624999999999961
40
0.0624999999999961
40
0.124999999999992
40
0.124999999999992
40
0.15624999999999
40
0.15624999999999
40
0.187499999999988
40
0.187499999999988
40
0.203124999999988
40
0.203124999999988
40
0.218749999999988
40
0.218749999999988
40
0.234374999999987
40
0.234374999999987
40
0.249999999999987
40
0.249999999999987
40
0.265624999999986
40
0.265624999999986
40
0.281249999999986
40
0.281249999999986
40
0.312499999999983
40
0.312499999999983
40
0.343749999999981
40
0.343749999999981
40
0.374999999999979
40
0.374999999999979
40
0.382812499999978
40
0.386718749999978
40
0.386718749999978
40
0.390624999999979
40
0.390624999999979
40
0.39843749999998
40
0.39843749999998
40
0.406249999999981
40
0.437499999999982
40
0.437499999999982
40
0.499999999999983
40
0.499999999999983
40
0.624999999999987
40
0.624999999999987
40
0.749999999999992
40
0.749999999999992
40
0.874999999999996
40
0.874999999999996
40
1
40
1
40
1
40
1
41
1
10
3.22283851091782
20
-2.70587530945196
30
0
41
1
10
3.07511955670975
20
-2.68079638727454
30
0
41
1
10
2.93062555061479
20
-2.64904528942776
30
0
41
1
10
2.65191989345985
20
-2.56713252886965
30
0
41
1
10
2.51663585337604
20
-2.51678629802197
30
0
41
1
10
2.33314088587036
20
-2.4203929151162
30
0
41
1
10
2.2748662573091
20
-2.38449164057152
30
0
41
1
10
2.16988674344253
20
-2.30385961615335
30
0
41
1
10
2.12322660800325
20
-2.25936844535258
30
0
41
1
10
2.06669472223825
20
-2.18355645305238
30
0
41
1
10
2.05002317547607
20
-2.15651022489322
30
0
41
1
10
2.0232927061621
20
-2.09987958606598
30
0
41
1
10
2.01320598941936
20
-2.07037109072442
30
0
41
1
10
2.00081091727378
20
-2.00865464033547
30
0
41
1
10
1.9986054087662
20
-1.9760980199824
30
0
41
1
10
2.00317932601095
20
-1.91073205192029
30
0
41
1
10
2.00981131126244
20
-1.87772524436434
30
0
41
1
10
2.03179085058076
20
-1.81118870819444
30
0
41
1
10
2.0472994169142
20
-1.77754358211197
30
0
41
1
10
2.08516119178199
20
-1.71256106962289
30
0
41
1
10
2.10759260494092
20
-1.68086246530532
30
0
41
1
10
2.18386672108355
20
-1.5879287418594
30
0
41
1
10
2.24463623755597
20
-1.53104158706606
30
0
41
1
10
2.37763803764184
20
-1.4252794849404
30
0
41
1
10
2.45050653266429
20
-1.37607583807142
30
0
41
1
10
2.60171640719904
20
-1.28522044103667
30
0
41
1
10
2.68056903922371
20
-1.24321729248632
30
0
41
1
10
2.78165491374409
20
-1.19419788952408
30
0
41
1
10
2.81216096194205
20
-1.17976175418878
30
0
41
1
10
2.84291920612401
20
-1.16570601392343
30
0
41
1
10
2.86347877443399
20
-1.15641736226249
30
0
41
1
10
2.87397307671944
20
-1.15190822404995
30
0
41
1
10
2.90681356384422
20
-1.14450638930367
30
0
41
1
10
2.92989373160401
20
-1.14481090749891
30
0
41
1
10
2.9751355076524
20
-1.14786014376136
30
0
41
1
10
3.08821556214485
20
-1.15577229981039
30
0
41
1
10
3.2011848507554
20
-1.16512270568998
30
0
41
1
10
3.47189770793011
20
-1.19023269863794
30
0
41
1
10
3.65188532854126
20
-1.21054213283367
30
0
41
1
10
4.1904357207008
20
-1.28143777083901
30
0
41
1
10
4.54601717572453
20
-1.34189767147672
30
0
41
1
10
5.24865274088373
20
-1.48303977067579
30
0
41
1
10
5.59607999170788
20
-1.56371453392305
30
0
41
1
10
6.2842744591093
20
-1.73728389190356
30
0
41
1
10
6.62506159251012
20
-1.8300895322605
30
0
41
1
10
7.30178705723188
20
-2.01788838611464
30
0
41
1
10
7.63665562538228
20
-2.11251159902463
30
0
41
1
10
7.96847780054492
20
-2.20234500760489
30
0
0
SPLINE
5
A0
100
AcDbEntity
8
1
62
256
6
ByLayer
370
18
48
1
60
0
100
AcDbSpline
70
4
71
3
72
8
73
4
40
0
40
0
40
0
40
0
40
1
40
1
40
1
40
1
41
1
10
29.982165789076
20
0.301582063679774
30
0
41
1
10
29.9621333733231
20
0.473845400700611
30
0
41
1
10
29.9255055942818
20
0.650311302432101
30
0
41
1
10
29.875144700226
20
0.839503426535913
30
0
0
SPLINE
5
A1
100
AcDbEntity
8
1
62
256
6
ByLayer
370
18
48
1
60
0
100
AcDbSpline
70
4
71
3
72
8
73
4
40
0
40
0
40
0
40
0
40
1
40
1
40
1
40
1
41
1
10
29.9821657890752
20
0.301582063681252
30
0
41
1
10
29.9889208897018
20
0.229536198865247
30
0
41
1
10
29.9928097840023
20
0.157635064154505
30
0
41
1
10
29.9933048793358
20
0.0859053005265764
30
0
0
SPLINE
5
A2
100
AcDbEntity
8
1
62
256
6
ByLayer
370
13
48
1
60
0
100
AcDbSpline
70
4
71
3
72
8
73
4
40
0
40
0
40
0
40
0
40
1
40
1
40
1
40
1
41
1
10
3.22230680401481
20
0.536201640184089
30
0
41
1
10
3.24441435654003
20
0.502918415099089
30
0
41
1
10
3.28086618560926
20
0.473929738620484
30
0
41
1
10
3.32950850320691
20
0.455256525185661
30
0
0
SPLINE
5
A3
100
AcDbEntity
8
1
62
256
6
ByLayer
370
13
48
1
60
0
100
AcDbSpline
70
4
71
3
72
8
73
4
40
0
40
0
40
0
40
0
40
1
40
1
40
1
40
1
41
1
10
3.44699644538213
20
0.41553516356251
30
0
41
1
10
3.40606283044315
20
0.427839790819917
30
0
41
1
10
3.36607699515696
20
0.441218311366384
30
0
41
1
10
3.32950850320691
20
0.455256525185632
30
0
0
SPLINE
5
A4
100
AcDbEntity
8
1
62
256
6
ByLayer
370
18
48
1
60
0
100
AcDbSpline
70
4
71
3
72
8
73
4
40
0
40
0
40
0
40
0
40
1
40
1
40
1
40
1
41
1
10
3.32871409512853
20
0.386448185864452
30
0
41
1
10
3.30847841803418
20
0.397162339711741
30
0
41
1
10
3.29017044885023
20
0.410329874643708
30
0
41
1
10
3.27373988326369
20
0.425870929529623
30
0
0
SPLINE
5
A5
100
AcDbEntity
8
1
62
256
6
ByLayer
370
18
48
1
60
0
100
AcDbSpline
70
4
71
3
72
36
73
32
40
0
40
0
40
0
40
0
40
0.124999999999995
40
0.124999999999995
40
0.187499999999987
40
0.187499999999987
40
0.249999999999978
40
0.249999999999978
40
0.31249999999997
40
0.31249999999997
40
0.343749999999966
40
0.343749999999966
40
0.374999999999961
40
0.374999999999961
40
0.406249999999957
40
0.406249999999957
40
0.437499999999953
40
0.437499999999953
40
0.468749999999949
40
0.468749999999949
40
0.499999999999944
40
0.499999999999944
40
0.562499999999947
40
0.562499999999947
40
0.624999999999949
40
0.624999999999949
40
0.749999999999966
40
0.749999999999966
40
0.874999999999983
40
0.874999999999983
40
1
40
1
40
1
40
1
41
1
10
29.1227514347469
20
-1.29444831772918
30
0
41
1
10
29.0351341834778
20
-1.26085057869903
30
0
41
1
10
28.9484154665732
20
-1.22027116671777
30
0
41
1
10
28.8218229203097
20
-1.14811236067499
30
0
41
1
10
28.7801227187387
20
-1.12211598217922
30
0
41
1
10
28.6979607252738
20
-1.06528366803263
30
0
41
1
10
28.6572376387758
20
-1.03424959810846
30
0
41
1
10
28.579367612583
20
-0.966803370325664
30
0
41
1
10
28.5420646671549
20
-0.93047371220834
30
0
41
1
10
28.4903416589533
20
-0.869221320710238
30
0
41
1
10
28.4737142886487
20
-0.84746948250762
30
0
41
1
10
28.4437613684856
20
-0.802032775213803
30
0
41
1
10
28.4302893276342
20
-0.778280036546931
30
0
41
1
10
28.4083206331271
20
-0.727353660376764
30
0
41
1
10
28.4000642535975
20
-0.700356721945013
30
0
41
1
10
28.3938021365499
20
-0.646614707104703
30
0
41
1
10
28.3961413733582
20
-0.620350601957853
30
0
41
1
10
28.4115831106537
20
-0.574821729555197
30
0
41
1
10
28.4244538913355
20
-0.555564332867107
30
0
41
1
10
28.4550163374498
20
-0.524660230081082
30
0
41
1
10
28.4729181848742
20
-0.512552963647664
30
0
41
1
10
28.5290951630733
20
-0.483808608673399
30
0
41
1
10
28.5709881122223
20
-0.473676952010095
30
0
41
1
10
28.6554717088402
20
-0.462623412385796
30
0
41
1
10
28.698728615395
20
-0.461756376707427
30
0
41
1
10
28.8304175562338
20
-0.467960636706579
30
0
41
1
10
28.9187987380999
20
-0.483566620946419
30
0
41
1
10
29.0946489491271
20
-0.527885608084262
30
0
41
1
10
29.1824711557986
20
-0.556942964581339
30
0
41
1
10
29.3579293711056
20
-0.627539533563663
30
0
41
1
10
29.4447194206426
20
-0.668738111402803
30
0
41
1
10
29.5296102550039
20
-0.716743437374333
30
0
0
SPLINE
5
A6
100
AcDbEntity
8
1
62
256
6
ByLayer
370
18
48
1
60
0
100
AcDbSpline
70
4
71
3
72
10
73
6
40
0
40
0
40
0
40
0
40
0.5
40
0.5
40
1
40
1
40
1
40
1
41
1
10
29.9998035835515
20
0.0313837039145142
30
0
41
1
10
29.9976475043881
20
0.0216995186223414
30
0
41
1
10
29.9946456973827
20
0.011442845735246
30
0
41
1
10
29.9872678088281
20
-0.0079279403855992
30
0
41
1
10
29.9828979163017
20
-0.0169785698591056
30
0
41
1
10
29.9784227524843
20
-0.0242868332194064
30
0
0
SPLINE
5
A7
100
AcDbEntity
8
1
62
256
6
ByLayer
370
18
48
1
60
0
100
AcDbSpline
70
4
71
3
72
16
73
12
40
0
40
0
40
0
40
0
40
0.154570188794628
40
0.154570188794628
40
0.309140377589257
40
0.309140377589257
40
0.618280755178517
40
0.618280755178517
40
0.927421132767777
40
0.927421132767777
40
1
40
1
40
1
40
1
41
1
10
3.40024641281838
20
0.343409080992757
30
0
41
1
10
3.66982499517192
20
0.202611715851475
30
0
41
1
10
3.9389135224468
20
0.0607747743855782
30
0
41
1
10
4.47723825877154
20
-0.222827371444254
30
0
41
1
10
4.74720706827785
20
-0.36490986553693
30
0
41
1
10
5.55436456429851
20
-0.783564290584764
30
0
41
1
10
6.08680935117977
20
-1.05138015255471
30
0
41
1
10
7.15117005343791
20
-1.54584750133688
30
0
41
1
10
7.68276458291811
20
-1.77308337421667
30
0
41
1
10
8.34571098416788
20
-2.01677446549184
30
0
41
1
10
8.47218894985906
20
-2.06152790164913
30
0
41
1
10
8.59867226764658
20
-2.10444465184275
30
0
0
SPLINE
5
A8
100
AcDbEntity
8
1
62
256
6
ByLayer
370
13
48
1
60
0
100
AcDbSpline
70
4
71
3
72
20
73
16
40
0
40
0
40
0
40
0
40
0.0857369821699952
40
0.0857369821699952
40
0.247368326892334
40
0.247368326892334
40
0.570631016337009
40
0.570631016337009
40
0.732262361059347
40
0.732262361059347
40
0.813078033420518
40
0.813078033420518
40
0.893893705781689
40
0.893893705781689
40
1
40
1
40
1
40
1
41
1
10
8.59867181606586
20
-2.10444449861799
30
0
41
1
10
8.74155838484961
20
-2.15292700137846
30
0
41
1
10
8.8844517845817
20
-2.19906553898036
30
0
41
1
10
9.29499165697445
20
-2.32435892701318
30
0
41
1
10
9.56195732576205
20
-2.39691537108365
30
0
41
1
10
10.3612297306972
20
-2.58495639475032
30
0
41
1
10
10.891869042979
20
-2.6713218472847
30
0
41
1
10
11.6922345040641
20
-2.73675917029826
30
0
41
1
10
11.9598064207474
20
-2.7479447091502
30
0
41
1
10
12.3634738105809
20
-2.7481856823195
30
0
41
1
10
12.4984936549067
20
-2.74549880851166
30
0
41
1
10
12.7678217190981
20
-2.73462674446856
30
0
41
1
10
12.9023170543221
20
-2.72644409232186
30
0
41
1
10
13.2132101654509
20
-2.70122607894115
30
0
41
1
10
13.3895834484417
20
-2.6822734648631
30
0
41
1
10
13.5660679726779
20
-2.65872903741078
30
0
0
SPLINE
5
A9
100
AcDbEntity
8
1
62
256
6
ByLayer
370
18
48
1
60
0
100
AcDbSpline
70
4
71
3
72
8
73
4
40
0
40
0
40
0
40
0
40
1
40
1
40
1
40
1
41
1
10
29.0980456861339
20
-2.74486207786231
30
0
41
1
10
29.0927109188152
20
-2.75886633538246
30
0
41
1
10
29.0873697771398
20
-2.7728624291737
30
0
41
1
10
29.0820222388522
20
-2.78685034434272
30
0
0
SPLINE
5
AA
100
AcDbEntity
8
1
62
256
6
ByLayer
370
18
48
1
60
0
100
AcDbSpline
70
4
71
3
72
8
73
4
40
0
40
0
40
0
40
0
40
1
40
1
40
1
40
1
41
1
10
29.0820222388521
20
2.7868503443427
30
0
41
1
10
28.9134066420984
20
2.7955231310188
30
0
41
1
10
28.7449655697982
20
2.79977541899714
30
0
41
1
10
28.5765402438018
20
2.79962359362338
30
0
0
SPLINE
5
AB
100
AcDbEntity
8
1
62
256
6
ByLayer
370
18
48
1
60
0
100
AcDbSpline
70
4
71
3
72
28
73
24
40
0
40
0
40
0
40
0
40
0.0788026084340906
40
0.0788026084340906
40
0.117185833082669
40
0.117185833082669
40
0.155569057731247
40
0.155569057731247
40
0.232335507028405
40
0.232335507028405
40
0.385868405622721
40
0.385868405622721
40
0.462634854919879
40
0.462634854919879
40
0.501018079568458
40
0.501018079568458
40
0.539401304217037
40
0.539401304217037
40
0.692934202811358
40
0.692934202811358
40
0.846467101405679
40
0.846467101405679
40
1
40
1
40
1
40
1
41
1
10
13.820989167391
20
-2.66074736717121
30
0
41
1
10
13.5468199131598
20
-2.70487756971275
30
0
41
1
10
13.2721841942643
20
-2.73801221813147
30
0
41
1
10
12.8619794119278
20
-2.77009373652589
30
0
41
1
10
12.7273087927484
20
-2.77785680728422
30
0
41
1
10
12.4571713220369
20
-2.78778826964813
30
0
41
1
10
12.3217210559838
20
-2.78994126952128
30
0
41
1
10
11.9172469017481
20
-2.78795682025932
30
0
41
1
10
11.6491011928701
20
-2.77541264024131
30
0
41
1
10
10.8466659722033
20
-2.70520107357947
30
0
41
1
10
10.3143038270611
20
-2.61504346766506
30
0
41
1
10
9.51169162560143
20
-2.41963897056681
30
0
41
1
10
9.24348410360383
20
-2.34445927053753
30
0
41
1
10
8.83900557379607
20
-2.21743294810358
30
0
41
1
10
8.7035504276005
20
-2.17260728966153
30
0
41
1
10
8.43338909389661
20
-2.07891519443243
30
0
41
1
10
8.29868712434327
20
-2.03006344739001
30
0
41
1
10
7.62658969479935
20
-1.77654647383949
30
0
41
1
10
7.09379282478039
20
-1.54353828029738
30
0
41
1
10
6.02581091203535
20
-1.03689243016444
30
0
41
1
10
5.49100290283428
20
-0.762665411526825
30
0
41
1
10
4.40838236254137
20
-0.191377826150926
30
0
41
1
10
3.86979477048266
20
0.0999630056310821
30
0
41
1
10
3.32871409512774
20
0.386448185864907
30
0
0
SPLINE
5
AC
100
AcDbEntity
8
1
62
256
6
ByLayer
370
18
48
1
60
0
100
AcDbSpline
70
4
71
3
72
8
73
4
40
0
40
0
40
0
40
0
40
1
40
1
40
1
40
1
41
1
10
29.9933048793356
20
-0.0859053005269175
30
0
41
1
10
29.9934102543672
20
-0.070638491097867
30
0
41
1
10
29.9958944340715
20
-0.0515156383368378
30
0
41
1
10
29.9998035835509
20
-0.03138370391585
30
0
0
SPLINE
5
AD
100
AcDbEntity
8
1
62
256
6
ByLayer
370
18
48
1
60
0
100
AcDbSpline
70
4
71
3
72
26
73
22
40
0
40
0
40
0
40
0
40
0.073099982616764
40
0.073099982616764
40
0.146199965233528
40
0.146199965233528
40
0.292399930467056
40
0.292399930467056
40
0.36549991308382
40
0.36549991308382
40
0.438599895700583
40
0.438599895700583
40
0.584799860934111
40
0.584799860934111
40
0.730999826167639
40
0.730999826167639
40
0.804099808784403
40
0.804099808784403
40
0.877199791401167
40
0.877199791401167
40
1
40
1
40
1
40
1
41
1
10
3.22230680402308
20
0.536201640207878
30
0
41
1
10
3.22232705234413
20
0.628583088323467
30
0
41
1
10
3.22234593686892
20
0.71985219105963
30
0
41
1
10
3.22238144400677
20
0.900159561465671
30
0
41
1
10
3.22239803867583
20
0.989095701042658
30
0
41
1
10
3.22244435973281
20
1.24797107648425
30
0
41
1
10
3.22247097108797
20
1.41164989490926
30
0
41
1
10
3.22250757358407
20
1.64378936407675
30
0
41
1
10
3.22251927791015
20
1.71932734676713
30
0
41
1
10
3.22254162851806
20
1.86313763454106
30
0
41
1
10
3.22255229195235
20
1.93150645429671
30
0
41
1
10
3.22258343831095
20
2.1262658472381
30
0
41
1
10
3.2226031162989
20
2.24244076307838
30
0
41
1
10
3.22264293314561
20
2.44614855411754
30
0
41
1
10
3.22266241926394
20
2.53024291329427
30
0
41
1
10
3.22269192537419
20
2.63081135373608
30
0
41
1
10
3.22270179325852
20
2.6600387339347
30
0
41
1
10
3.22272158725042
20
2.70968138854829
30
0
41
1
10
3.22273151449821
20
2.73003102176989
30
0
41
1
10
3.22275743725967
20
2.77147697983943
30
0
41
1
10
3.22277317184933
20
2.78423059571981
30
0
41
1
10
3.22278776251093
20
2.7837659257327
30
0
0
SPLINE
5
AE
100
AcDbEntity
8
1
62
256
6
ByLayer
370
18
48
1
60
0
100
AcDbSpline
70
4
71
3
72
62
73
58
40
0
40
0
40
0
40
0
40
0.025059836190001
40
0.025059836190001
40
0.0611687311459269
40
0.0611687311459269
40
0.0972776261018528
40
0.0972776261018528
40
0.133386521057779
40
0.133386521057779
40
0.169495416013704
40
0.169495416013704
40
0.20560431096963
40
0.20560431096963
40
0.241713205925556
40
0.241713205925556
40
0.277822100881482
40
0.277822100881482
40
0.313930995837408
40
0.313930995837408
40
0.350039890793334
40
0.350039890793334
40
0.38614878574926
40
0.38614878574926
40
0.422257680705186
40
0.422257680705186
40
0.458366575661112
40
0.458366575661112
40
0.494475470617038
40
0.494475470617038
40
0.530584365572963
40
0.530584365572963
40
0.566693260528889
40
0.566693260528889
40
0.602802155484815
40
0.602802155484815
40
0.638911050440741
40
0.638911050440741
40
0.675019945396667
40
0.675019945396667
40
0.711128840352593
40
0.711128840352593
40
0.747237735308519
40
0.747237735308519
40
0.783346630264445
40
0.783346630264445
40
0.819455525220371
40
0.819455525220371
40
0.855564420176297
40
0.855564420176297
40
0.891673315132222
40
0.891673315132222
40
0.927782210088148
40
0.927782210088148
40
0.963891105044074
40
0.963891105044074
40
1
40
1
40
1
40
1
41
1
10
23.9346039329672
20
-2.07315192818268
30
0
41
1
10
23.8011492720759
20
-2.11554188549536
30
0
41
1
10
23.6675515847846
20
-2.15565553815492
30
0
41
1
10
23.3420191733738
20
-2.24820480454449
30
0
41
1
10
23.1503635411854
20
-2.29905992884815
30
0
41
1
10
22.7667596155712
20
-2.39109192195661
30
0
41
1
10
22.5749263540462
20
-2.43249050153861
30
0
41
1
10
22.1910038869967
20
-2.50445078948053
30
0
41
1
10
21.9985613475088
20
-2.53440367503435
30
0
41
1
10
21.6137676729283
20
-2.58539395319181
30
0
41
1
10
21.4215231815725
20
-2.60631428881302
30
0
41
1
10
21.0380126352349
20
-2.63763668074171
30
0
41
1
10
20.8462428499955
20
-2.64805842920103
30
0
41
1
10
20.4621155482642
20
-2.65539002169044
30
0
41
1
10
20.2699093746903
20
-2.65331795113252
30
0
41
1
10
19.8849799546165
20
-2.64026610447613
30
0
41
1
10
19.6927098677738
20
-2.628707528544
30
0
41
1
10
19.3086047748194
20
-2.59497980428782
30
0
41
1
10
19.1169563588596
20
-2.57269707926594
30
0
41
1
10
18.7331445653985
20
-2.51651853060716
30
0
41
1
10
18.5410029036542
20
-2.48328035341157
30
0
41
1
10
18.1563380632531
20
-2.40688471460248
30
0
41
1
10
17.9637631397549
20
-2.36310749229389
30
0
41
1
10
17.5793618543284
20
-2.26767956867411
30
0
41
1
10
17.3872618446492
20
-2.21590880523502
30
0
41
1
10
17.0034911165237
20
-2.10260912977949
30
0
41
1
10
16.8116797797129
20
-2.04113034645843
30
0
41
1
10
16.4270675849661
20
-1.90991919873238
30
0
41
1
10
16.2342683727963
20
-1.83994398888245
30
0
41
1
10
15.8496149303003
20
-1.6937564869371
30
0
41
1
10
15.6575351759433
20
-1.61744218851865
30
0
41
1
10
15.2733738668785
20
-1.45829873140158
30
0
41
1
10
15.0814722029613
20
-1.37512846590997
30
0
41
1
10
14.6972147220157
20
-1.20368860945143
30
0
41
1
10
14.5045875060175
20
-1.11562695609013
30
0
41
1
10
14.1194958948272
20
-0.934983218642429
30
0
41
1
10
13.9274522428095
20
-0.842508213440709
30
0
41
1
10
13.5433977931611
20
-0.654853298582651
30
0
41
1
10
13.3512796494396
20
-0.559531551273437
30
0
41
1
10
12.967083568476
20
-0.367114831060206
30
0
41
1
10
12.7751746637089
20
-0.26946448606077
30
0
41
1
10
12.3901662213144
20
-0.0740112663158072
30
0
41
1
10
12.1977064677396
20
0.0241436111529936
30
0
41
1
10
11.8137135341022
20
0.219653630814264
30
0
41
1
10
11.6218535068758
20
0.316895299481189
30
0
41
1
10
11.2378644646398
20
0.509493864777738
30
0
41
1
10
11.0458346522512
20
0.604938742907592
30
0
41
1
10
10.6614781042979
20
0.793976794567072
30
0
41
1
10
10.4687588677141
20
0.887072379829391
30
0
41
1
10
10.084187677503
20
1.06927853028861
30
0
41
1
10
9.89219953239711
20
1.15858614671086
30
0
41
1
10
9.50769697068347
20
1.33078451513481
30
0
41
1
10
9.31498081353334
20
1.41385456678017
30
0
41
1
10
8.93002084169865
20
1.57513862931597
30
0
41
1
10
8.73809894441004
20
1.6537269566617
30
0
41
1
10
8.35363093371788
20
1.80253004414786
30
0
41
1
10
8.16114239591221
20
1.87270995363929
30
0
41
1
10
7.96847780054492
20
1.9388200741831
30
0
0
SPLINE
5
AF
100
AcDbEntity
8
1
62
256
6
ByLayer
370
18
48
1
60
0
100
AcDbSpline
70
4
71
3
72
10
73
6
40
0
40
0
40
0
40
0
40
0.5
40
0.5
40
1
40
1
40
1
40
1
41
1
10
29.9933048793358
20
0.0859053005266901
30
0
41
1
10
29.9933573263052
20
0.0783067463446798
30
0
41
1
10
29.9940268684326
20
0.0696135592534688
30
0
41
1
10
29.9962547548982
20
0.05131944203697
30
0
41
1
10
29.9978322360444
20
0.041536050080623
30
0
41
1
10
29.9998035835513
20
0.0313837039144573
30
0
0
SPLINE
5
B0
100
AcDbEntity
8
1
62
256
6
ByLayer
370
18
48
1
60
0
100
AcDbSpline
70
4
71
3
72
22
73
18
40
0
40
0
40
0
40
0
40
0.193350158126712
40
0.193350158126712
40
0.290025237190069
40
0.290025237190069
40
0.386700316253425
40
0.386700316253425
40
0.580050474380137
40
0.580050474380137
40
0.773400632506849
40
0.773400632506849
40
0.870075711570203
40
0.870075711570203
40
0.966750790633557
40
0.966750790633557
40
1
40
1
40
1
40
1
41
1
10
7.96847780054489
20
-2.20234500760489
30
0
41
1
10
8.18971251124773
20
-2.27579647085136
30
0
41
1
10
8.41100105964722
20
-2.34228931957418
30
0
41
1
10
8.74289612058334
20
-2.43216907841958
30
0
41
1
10
8.85348126820725
20
-2.46052183331474
30
0
41
1
10
9.07429231735313
20
-2.51419144011635
30
0
41
1
10
9.18459230867194
20
-2.53942827922518
30
0
41
1
10
9.51624339002154
20
-2.60952191594032
30
0
41
1
10
9.73829663984606
20
-2.64919774098581
30
0
41
1
10
10.1810116060481
20
-2.71444939406666
30
0
41
1
10
10.4018974608178
20
-2.73967429166089
30
0
41
1
10
10.7335972914758
20
-2.76621921214692
30
0
41
1
10
10.844163999588
20
-2.77321483553067
30
0
41
1
10
11.0651046394164
20
-2.78349979966407
30
0
41
1
10
11.1753992935892
20
-2.78677993071889
30
0
41
1
10
11.3240040296381
20
-2.78861173818316
30
0
41
1
10
11.3620671300654
20
-2.78885732112795
30
0
41
1
10
11.4001522482676
20
-2.78887959869618
30
0
0
SPLINE
5
B1
100
AcDbEntity
8
1
62
256
6
ByLayer
370
18
48
1
60
0
100
AcDbSpline
70
4
71
3
72
20
73
16
40
0
40
0
40
0
40
0
40
0.117776848639265
40
0.117776848639265
40
0.243808727405084
40
0.243808727405084
40
0.369840606170904
40
0.369840606170904
40
0.495872484936723
40
0.495872484936723
40
0.621904363702542
40
0.621904363702542
40
0.747936242468361
40
0.747936242468361
40
1
40
1
40
1
40
1
41
1
10
23.9337234819496
20
2.07789992165766
30
0
41
1
10
24.1403416118367
20
2.1520889166207
30
0
41
1
10
24.3470233828903
20
2.22186187267411
30
0
41
1
10
24.7751790477063
20
2.35494684220004
30
0
41
1
10
24.9964271246413
20
2.41694556905148
30
0
41
1
10
25.4381339966499
20
2.52817119771598
30
0
41
1
10
25.6584019366652
20
2.57743617256082
30
0
41
1
10
26.1007340097665
20
2.6610347725678
30
0
41
1
10
26.3223426868137
20
2.69600322524417
30
0
41
1
10
26.7645483149521
20
2.75103837071325
30
0
41
1
10
26.985692912181
20
2.77097805105254
30
0
41
1
10
27.4278040420899
20
2.79600189963074
30
0
41
1
10
27.6483370876301
20
2.80103444308369
30
0
41
1
10
28.3131437653491
20
2.79319276651015
30
0
41
1
10
28.7540788620014
20
2.75744307921249
30
0
41
1
10
29.196582096543
20
2.69259324063023
30
0
0
SPLINE
5
B2
100
AcDbEntity
8
1
62
256
6
ByLayer
370
18
48
1
60
0
100
AcDbSpline
70
4
71
3
72
8
73
4
40
0
40
0
40
0
40
0
40
1
40
1
40
1
40
1
41
1
10
29.8559014335242
20
0.76065262936342
30
0
41
1
10
29.9174917516988
20
0.608830739222554
30
0
41
1
10
29.9585892759371
20
0.455746181672907
30
0
41
1
10
29.982165789077
20
0.301582063681053
30
0
0
SPLINE
5
B3
100
AcDbEntity
8
1
62
256
6
ByLayer
370
18
48
1
60
0
100
AcDbSpline
70
4
71
3
72
8
73
4
40
0
40
0
40
0
40
0
40
1
40
1
40
1
40
1
41
1
10
3.27373988326448
20
0.425870929528998
30
0
41
1
10
3.29006770299614
20
0.409146872339534
30
0
41
1
10
3.30854091598732
20
0.394658854608281
30
0
41
1
10
3.32950850320691
20
0.382757082622533
30
0
0
SPLINE
5
B4
100
AcDbEntity
8
1
62
256
6
ByLayer
370
18
48
1
60
0
100
AcDbSpline
70
4
71
3
72
12
73
8
40
0
40
0
40
0
40
0
40
0.138122347730655
40
0.138122347730655
40
0.569061173865327
40
0.569061173865327
40
1
40
1
40
1
40
1
41
1
10
3.22278775185916
20
-2.78376626260706
30
0
41
1
10
3.22279053578748
20
-2.78367883341008
30
0
41
1
10
3.22279327807937
20
-2.78311022351136
30
0
41
1
10
3.22280438672968
20
-2.77878535246538
30
0
41
1
10
3.22281237726483
20
-2.77070232224205
30
0
41
1
10
3.22282674895763
20
-2.74515048901972
30
0
41
1
10
3.22283313377358
20
-2.72776033978263
30
0
41
1
10
3.22283851091774
20
-2.70587530945198
30
0
0
SPLINE
5
B5
100
AcDbEntity
8
1
62
256
6
ByLayer
370
18
48
1
60
0
100
AcDbSpline
70
4
71
3
72
8
73
4
40
0
40
0
40
0
40
0
40
1
40
1
40
1
40
1
41
1
10
3.27373988326354
20
0.425870929529765
30
0
41
1
10
3.24301299895356
20
0.454934335352277
30
0
41
1
10
3.22229762169755
20
0.494307967690844
30
0
41
1
10
3.22230680402308
20
0.536201640207878
30
0
0
SPLINE
5
B6
100
AcDbEntity
8
1
62
256
6
ByLayer
370
18
48
1
60
0
100
AcDbSpline
70
4
71
3
72
14
73
10
40
0
40
0
40
0
40
0
40
0.0555496733614285
40
0.0555496733614285
40
0.314978647204898
40
0.314978647204898
40
0.833836594891836
40
0.833836594891836
40
1
40
1
40
1
40
1
41
1
10
12.4349397171908
20
-2.6496713832675
30
0
41
1
10
12.377376897111
20
-2.64959741542833
30
0
41
1
10
12.3198331140331
20
-2.64903613681898
30
0
41
1
10
11.9937554730379
20
-2.64308045342736
30
0
41
1
10
11.7265947199252
20
-2.62759652990445
30
0
41
1
10
10.9273359351345
20
-2.55072082986033
30
0
41
1
10
10.3972488381547
20
-2.4587186230529
30
0
41
1
10
9.6946002521554
20
-2.28846703274326
30
0
41
1
10
9.52393298047176
20
-2.24333236654979
30
0
41
1
10
9.35287402820865
20
-2.19452997964035
30
0
0
SPLINE
5
B7
100
AcDbEntity
8
1
62
256
6
ByLayer
370
13
48
1
60
0
100
AcDbSpline
70
4
71
3
72
18
73
14
40
0
40
0
40
0
40
0
40
0.0488488520051193
40
0.0488488520051193
40
0.184727587432961
40
0.184727587432961
40
0.456485058288641
40
0.456485058288641
40
0.728242529144321
40
0.728242529144321
40
0.864121264572161
40
0.864121264572161
40
1
40
1
40
1
40
1
41
1
10
9.3528740284452
20
-2.19452997970782
30
0
41
1
10
9.25686064648085
20
-2.16713777279432
30
0
41
1
10
9.16072386769923
20
-2.13859007059503
30
0
41
1
10
8.79659547610831
20
-2.02637738410843
30
0
41
1
10
8.52678759040589
20
-1.93479769300347
30
0
41
1
10
7.72286761702077
20
-1.64015501430228
30
0
41
1
10
7.19186110446407
20
-1.41599439422774
30
0
41
1
10
6.12878261053106
20
-0.931538850729055
30
0
41
1
10
5.59691546325297
20
-0.670811934107206
30
0
41
1
10
4.79120174184817
20
-0.265613840359293
30
0
41
1
10
4.52179849472145
20
-0.128484871095111
30
0
41
1
10
3.98453966658423
20
0.144549763594398
30
0
41
1
10
3.71599795511233
20
0.280745752250283
30
0
41
1
10
3.44699644538213
20
0.41553516356251
30
0
0
SPLINE
5
B8
100
AcDbEntity
8
1
62
256
6
ByLayer
370
13
48
1
60
0
100
AcDbSpline
70
4
71
3
72
27
73
23
40
0
40
0
40
0
40
0
40
0.137329525195783
40
0.137329525195783
40
0.205994287793674
40
0.205994287793674
40
0.274659050391566
40
0.343323812989457
40
0.343323812989457
40
0.411988575587348
40
0.411988575587348
40
0.48065333818524
40
0.48065333818524
40
0.549318100783131
40
0.549318100783131
40
0.686647625978914
40
0.686647625978914
40
0.823977151174697
40
0.823977151174697
40
0.96130667637048
40
0.96130667637048
40
1
40
1
40
1
40
1
41
1
10
3.4469964453821
20
0.415535163562538
30
0
41
1
10
3.44706182030444
20
0.594418035205763
30
0
41
1
10
3.44711646524021
20
0.768215214254383
30
0
41
1
10
3.44718817061994
20
1.02136805209935
30
0
41
1
10
3.4472103432295
20
1.10450216353635
30
0
41
1
10
3.44725138669944
20
1.26499337713275
30
0
41
1
10
3.44728937900624
20
1.42056647058408
30
0
41
1
10
3.4473232646618
20
1.56645778284229
30
0
41
1
10
3.44735597699167
20
1.70743444747291
30
0
41
1
10
3.44737181214748
20
1.77574171532891
30
0
41
1
10
3.4474027040163
20
1.90553220431835
30
0
41
1
10
3.44741776781319
20
1.96705169013967
30
0
41
1
10
3.4474478345976
20
2.0833347003767
30
0
41
1
10
3.44746281923554
20
2.13798400473058
30
0
41
1
10
3.44750772425959
20
2.28913260617591
30
0
41
1
10
3.44753793848477
20
2.37398111491007
30
0
41
1
10
3.44760097535314
20
2.51173778394804
30
0
41
1
10
3.44763400506355
20
2.56440243419482
30
0
41
1
10
3.44769840242688
20
2.63176082360045
30
0
41
1
10
3.44773004172009
20
2.64740303276881
30
0
41
1
10
3.4477672529944
20
2.64419487475584
30
0
41
1
10
3.44777523723712
20
2.64201106462542
30
0
41
1
10
3.44778289547895
20
2.63837164665782
30
0
0
SPLINE
5
B9
100
AcDbEntity
8
1
62
256
6
ByLayer
370
18
48
1
60
0
100
AcDbSpline
70
4
71
3
72
8
73
4
40
0
40
0
40
0
40
0
40
1
40
1
40
1
40
1
41
1
10
29.9784227524843
20
-0.0242868332194064
30
0
41
1
10
29.833883155201
20
-0.260330358342088
30
0
41
1
10
29.6836564046918
20
-0.490506962114836
30
0
41
1
10
29.5296102550039
20
-0.716743437374305
30
0
0
SPLINE
5
BA
100
AcDbEntity
8
1
62
256
6
ByLayer
370
18
48
1
60
0
100
AcDbSpline
70
4
71
3
72
8
73
4
40
0
40
0
40
0
40
0
40
1
40
1
40
1
40
1
41
1
10
29.9998035835513
20
-0.0313837039153668
30
0
41
1
10
30.0000656703988
20
-0.0104414586349151
30
0
41
1
10
30.0000652461181
20
0.0104753610976616
30
0
41
1
10
29.9998035835513
20
0.0313837039144289
30
0
0
SPLINE
5
BB
100
AcDbEntity
8
1
62
256
6
ByLayer
370
18
48
1
60
0
100
AcDbSpline
70
4
71
3
72
30
73
26
40
0
40
0
40
0
40
0
40
0.250000000000022
40
0.250000000000022
40
0.375000000000033
40
0.375000000000033
40
0.500000000000044
40
0.500000000000044
40
0.625000000000055
40
0.625000000000055
40
0.750000000000066
40
0.750000000000066
40
0.812500000000077
40
0.812500000000077
40
0.828125000000079
40
0.828125000000079
40
0.843750000000082
40
0.843750000000082
40
0.851562500000078
40
0.851562500000078
40
0.859375000000075
40
0.859375000000075
40
0.875000000000067
40
0.875000000000067
40
1
40
1
40
1
40
1
41
1
10
26.4150368407512
20
1.08057889098953
30
0
41
1
10
26.6230334481138
20
0.897236717784494
30
0
41
1
10
26.8416152683721
20
0.737122375922439
30
0
41
1
10
27.1862519803186
20
0.533737174384413
30
0
41
1
10
27.3033568339702
20
0.472308631892901
30
0
41
1
10
27.5379684488991
20
0.366607079916832
30
0
41
1
10
27.656084380145
20
0.321957101667124
30
0
41
1
10
27.8939553653744
20
0.249249812055979
30
0
41
1
10
28.0142208676419
20
0.221158379775318
30
0
41
1
10
28.254462680741
20
0.185492965715611
30
0
41
1
10
28.3732268170222
20
0.178120363367753
30
0
41
1
10
28.5489701347588
20
0.185586664037544
30
0
41
1
10
28.6071543300534
20
0.191192912014628
30
0
41
1
10
28.6786889890001
20
0.202361970617687
30
0
41
1
10
28.6929467389234
20
0.204804874137864
30
0
41
1
10
28.7213415442132
20
0.210113794698032
30
0
41
1
10
28.73562483022
20
0.212479772123913
30
0
41
1
10
28.7564530245946
20
0.218033174362347
30
0
41
1
10
28.7630243805459
20
0.221001762911754
30
0
41
1
10
28.7736275761679
20
0.231090208822423
30
0
41
1
10
28.777492886631
20
0.238112072263334
30
0
41
1
10
28.7822232117844
20
0.2629474389135
30
0
41
1
10
28.7847770240285
20
0.279852719904341
30
0
41
1
10
28.8076288399651
20
0.431701902286306
30
0
41
1
10
28.8147674869371
20
0.572299124623896
30
0
41
1
10
28.8127265544242
20
0.713626781984317
30
0
0
SPLINE
5
BC
100
AcDbEntity
8
1
62
256
6
ByLayer
370
18
48
1
60
0
100
AcDbSpline
70
4
71
3
72
18
73
14
40
0
40
0
40
0
40
0
40
0.312146944617724
40
0.312146944617724
40
0.468220416926588
40
0.468220416926588
40
0.624293889235452
40
0.624293889235452
40
0.780367361544316
40
0.780367361544316
40
0.93644083385318
40
0.93644083385318
40
1
40
1
40
1
40
1
41
1
10
7.96847780054492
20
1.9388200741831
30
0
41
1
10
7.57587349206108
20
2.06661585702881
30
0
41
1
10
7.18861518553419
20
2.18658141052535
30
0
41
1
10
6.61013134051481
20
2.34002588086443
30
0
41
1
10
6.41825510411635
20
2.38649098088311
30
0
41
1
10
6.03752345687235
20
2.46846065413726
30
0
41
1
10
5.84835615053632
20
2.50424744990636
30
0
41
1
10
5.47201117918419
20
2.56352776806744
30
0
41
1
10
5.28479065640559
20
2.58735052123035
30
0
41
1
10
4.91180673372247
20
2.62458040414978
30
0
41
1
10
4.7261067240878
20
2.63739763915305
30
0
41
1
10
4.46607391498881
20
2.64555625362487
30
0
41
1
10
4.39097180363871
20
2.64677533661478
30
0
41
1
10
4.3160440746629
20
2.64675563866319
30
0
0
SPLINE
5
BD
100
AcDbEntity
8
1
62
256
6
ByLayer
370
18
48
1
60
0
100
AcDbSpline
70
4
71
3
72
18
73
14
40
0
40
0
40
0
40
0
40
0.138442464232238
40
0.138442464232238
40
0.276884928464476
40
0.276884928464476
40
0.415327392696713
40
0.415327392696713
40
0.553769856928951
40
0.553769856928951
40
0.830654785393427
40
0.830654785393427
40
1
40
1
40
1
40
1
41
1
10
3.44783344638333
20
-2.58265141442621
30
0
41
1
10
3.62476258274606
20
-2.61122789298395
30
0
41
1
10
3.80566985336111
20
-2.6289699344961
30
0
41
1
10
4.17258892061898
20
-2.64792994669278
30
0
41
1
10
4.3592063728336
20
-2.64903766465039
30
0
41
1
10
4.73373639837263
20
-2.63702626925146
30
0
41
1
10
4.92121261723369
20
-2.62384832308032
30
0
41
1
10
5.29657229875718
20
-2.58595571726201
30
0
41
1
10
5.48445123955554
20
-2.56182222345043
30
0
41
1
10
6.04912944899391
20
-2.47208840708169
30
0
41
1
10
6.42688684400053
20
-2.38879475605074
30
0
41
1
10
7.04190942550318
20
-2.2253940623967
30
0
41
1
10
7.27679112380343
20
-2.15666725440988
30
0
41
1
10
7.51389458937567
20
-2.08338564409567
30
0
0
SPLINE
5
BE
100
AcDbEntity
8
1
62
256
6
ByLayer
370
18
48
1
60
0
100
AcDbSpline
70
4
71
3
72
74
73
70
40
0
40
0
40
0
40
0
40
0.033535146013726
40
0.033535146013726
40
0.0503027190205886
40
0.0503027190205886
40
0.0670702920274512
40
0.0670702920274512
40
0.100605438041176
40
0.100605438041176
40
0.134140584054902
40
0.134140584054902
40
0.150908157061765
40
0.150908157061765
40
0.167675730068627
40
0.167675730068627
40
0.201210876082354
40
0.201210876082354
40
0.23474602209608
40
0.23474602209608
40
0.251513595102942
40
0.251513595102942
40
0.268281168109805
40
0.268281168109805
40
0.301816314123531
40
0.301816314123531
40
0.335351460137257
40
0.335351460137257
40
0.368886606150983
40
0.368886606150983
40
0.402421752164709
40
0.402421752164709
40
0.435956898178435
40
0.435956898178435
40
0.469492044192161
40
0.469492044192161
40
0.503027190205887
40
0.503027190205887
40
0.536562336219613
40
0.536562336219613
40
0.570097482233339
40
0.570097482233339
40
0.603632628247065
40
0.603632628247065
40
0.637167774260791
40
0.637167774260791
40
0.670702920274517
40
0.670702920274517
40
0.704238066288243
40
0.704238066288243
40
0.737773212301969
40
0.737773212301969
40
0.771308358315695
40
0.771308358315695
40
0.788075931322558
40
0.788075931322558
40
0.804843504329421
40
0.804843504329421
40
0.838378650343148
40
0.838378650343148
40
0.871913796356875
40
0.871913796356875
40
0.905448942370602
40
0.905448942370602
40
0.938984088384329
40
0.938984088384329
40
0.972519234398056
40
0.972519234398056
40
1
40
1
40
1
40
1
41
1
10
7.96847780054489
20
2.20234500760489
30
0
41
1
10
8.18971251124773
20
2.27579647085136
30
0
41
1
10
8.41100105964722
20
2.34228931957418
30
0
41
1
10
8.74289612058334
20
2.43216907841958
30
0
41
1
10
8.85348126820728
20
2.46052183331474
30
0
41
1
10
9.07429231735313
20
2.51419144011635
30
0
41
1
10
9.18459230867191
20
2.53942827922518
30
0
41
1
10
9.51624339002151
20
2.60952191594032
30
0
41
1
10
9.73829663984606
20
2.64919774098581
30
0
41
1
10
10.1810116060481
20
2.71444939406666
30
0
41
1
10
10.4018974608178
20
2.73967429166089
30
0
41
1
10
10.7335972914758
20
2.76621921214692
30
0
41
1
10
10.844163999588
20
2.77321483553067
30
0
41
1
10
11.0651046394163
20
2.78349979966407
30
0
41
1
10
11.1753992935892
20
2.78677993071889
30
0
41
1
10
11.5071242107778
20
2.79086900752455
30
0
41
1
10
11.7294014827951
20
2.78604729143308
30
0
41
1
10
12.1717589630763
20
2.76126645476134
30
0
41
1
10
12.3924378836976
20
2.74128703102014
30
0
41
1
10
12.7240657446412
20
2.70054129972505
30
0
41
1
10
12.8346566459079
20
2.68515586761052
30
0
41
1
10
13.0557411184722
20
2.65065270653949
30
0
41
1
10
13.1661129820207
20
2.63144791518786
30
0
41
1
10
13.4979693231018
20
2.56866322244977
30
0
41
1
10
13.7201192883317
20
2.52003528422981
30
0
41
1
10
14.1622348438302
20
2.40901085325038
30
0
41
1
10
14.3827712066932
20
2.34661878163502
30
0
41
1
10
14.8249014737608
20
2.21025867496556
30
0
41
1
10
15.0460925657381
20
2.13592171636594
30
0
41
1
10
15.48882157449
20
1.97471714975157
30
0
41
1
10
15.7104836733293
20
1.88941357236979
30
0
41
1
10
16.1524737733274
20
1.70837469142222
30
0
41
1
10
16.372928771855
20
1.61250329788407
30
0
41
1
10
16.8150994273958
20
1.4136022208659
30
0
41
1
10
17.0369436752487
20
1.3102661358449
30
0
41
1
10
17.4792553413012
20
1.09485282991554
30
0
41
1
10
17.7005279829474
20
0.985131918635176
30
0
41
1
10
18.1424961863876
20
0.760362668056729
30
0
41
1
10
18.3629312259976
20
0.644812236215898
30
0
41
1
10
18.8052229438886
20
0.41192295863712
30
0
41
1
10
19.0274483632981
20
0.29446457372967
30
0
41
1
10
19.4693454276878
20
0.0563696799785589
30
0
41
1
10
19.6902951966665
20
-0.0622159459485374
30
0
41
1
10
20.1322948780578
20
-0.298303605446392
30
0
41
1
10
20.3528042488313
20
-0.416809484913585
30
0
41
1
10
20.7953026064562
20
-0.650155117391449
30
0
41
1
10
21.0174413081173
20
-0.764837769085204
30
0
41
1
10
21.4592351711394
20
-0.99087452574139
30
0
41
1
10
21.6798332266367
20
-1.10135760624021
30
0
41
1
10
22.1219044816
20
-1.31480613675771
30
0
41
1
10
22.3425847200735
20
-1.41909955083753
30
0
41
1
10
22.7853777193262
20
-1.61918640764014
30
0
41
1
10
23.0070832470447
20
-1.71438567734987
30
0
41
1
10
23.3383852385868
20
-1.8505762900806
30
0
41
1
10
23.4485527819369
20
-1.89503162992187
30
0
41
1
10
23.6692701137709
20
-1.98078458168499
30
0
41
1
10
23.7797330399212
20
-2.02221251205975
30
0
41
1
10
24.111369508354
20
-2.14228114478371
30
0
41
1
10
24.3325266175385
20
-2.21735579758601
30
0
41
1
10
24.7751790477064
20
-2.35494684220004
30
0
41
1
10
24.9964271246413
20
-2.41694556905151
30
0
41
1
10
25.4381339966499
20
-2.52817119771598
30
0
41
1
10
25.6584019366652
20
-2.57743617256082
30
0
41
1
10
26.1007340097665
20
-2.6610347725678
30
0
41
1
10
26.3223426868138
20
-2.69600322524417
30
0
41
1
10
26.7645483149521
20
-2.75103837071325
30
0
41
1
10
26.985692912181
20
-2.77097805105254
30
0
41
1
10
27.3878950319479
20
-2.7937430172839
30
0
41
1
10
27.5686907058964
20
-2.79897352506143
30
0
41
1
10
27.750011383872
20
-2.79908957129942
30
0
0
SPLINE
5
BF
100
AcDbEntity
8
1
62
256
6
ByLayer
370
18
48
1
60
0
100
AcDbSpline
70
4
71
3
72
26
73
22
40
0
40
0
40
0
40
0
40
0.0403094429659301
40
0.0403094429659301
40
0.136278498669337
40
0.136278498669337
40
0.232247554372744
40
0.232247554372744
40
0.328216610076152
40
0.328216610076152
40
0.424185665779559
40
0.424185665779559
40
0.520154721482966
40
0.520154721482966
40
0.616123777186374
40
0.616123777186374
40
0.712092832889781
40
0.712092832889781
40
0.808061888593188
40
0.808061888593188
40
1
40
1
40
1
40
1
41
1
10
20.4072892920359
20
2.65337268690217
30
0
41
1
10
20.4879328503555
20
2.65379571376886
30
0
41
1
10
20.5686055596804
20
2.65330755118569
30
0
41
1
10
20.8414960918872
20
2.64826305035314
30
0
41
1
10
21.0341116281868
20
2.63789066475584
30
0
41
1
10
21.4184658044949
20
2.6066274569387
30
0
41
1
10
21.6107166603249
20
2.58574483868767
30
0
41
1
10
21.9948205795295
20
2.53495185475066
30
0
41
1
10
22.1866890698713
20
2.50517614969567
30
0
41
1
10
22.5707926246546
20
2.43334687626685
30
0
41
1
10
22.7632394199133
20
2.39189006589441
30
0
41
1
10
23.1483440124721
20
2.29959018025818
30
0
41
1
10
23.3403547441178
20
2.24865417118545
30
0
41
1
10
23.7246858890757
20
2.13943581181368
30
0
41
1
10
23.9167052699899
20
2.08047092355204
30
0
41
1
10
24.3006780553196
20
1.95257021514814
30
0
41
1
10
24.4927646577004
20
1.88424504164297
30
0
41
1
10
24.8778810330447
20
1.7407108559095
30
0
41
1
10
25.070522757597
20
1.66561543970687
30
0
41
1
10
25.6466543850754
20
1.43044758563244
30
0
41
1
10
26.0303880526948
20
1.25995133193646
30
0
41
1
10
26.4150368407494
20
1.08057889099035
30
0
0
SPLINE
5
C0
100
AcDbEntity
8
1
62
256
6
ByLayer
370
18
48
1
60
0
100
AcDbSpline
70
4
71
3
72
8
73
4
40
0
40
0
40
0
40
0
40
1
40
1
40
1
40
1
41
1
10
29.8751447002258
20
0.839503426535771
30
0
41
1
10
29.8689929861234
20
0.813152584042655
30
0
41
1
10
29.8625751660971
20
0.78686971947505
30
0
41
1
10
29.8559014335244
20
0.760652629363335
30
0
0
SPLINE
5
C1
100
AcDbEntity
8
1
62
256
6
ByLayer
370
18
48
1
60
0
100
AcDbSpline
70
4
71
3
72
14
73
10
40
0
40
0
40
0
40
0
40
0.25
40
0.25
40
0.5
40
0.5
40
0.75
40
0.75
40
1
40
1
40
1
40
1
41
1
10
3.22283851091785
20
-2.70587530945201
30
0
41
1
10
3.23310946191253
20
-2.68380512571093
30
0
41
1
10
3.24689123512798
20
-2.66259176463066
30
0
41
1
10
3.28031305798811
20
-2.62648624151606
30
0
41
1
10
3.30005602447471
20
-2.61153477553981
30
0
41
1
10
3.34209044130475
20
-2.59028787189257
30
0
41
1
10
3.36406920059631
20
-2.58401603848509
30
0
41
1
10
3.40701975833534
20
-2.57863207807463
30
0
41
1
10
3.42770413659977
20
-2.57940025522498
30
0
41
1
10
3.44783344611534
20
-2.58265141438292
30
0
0
SPLINE
5
C2
100
AcDbEntity
8
1
62
256
6
ByLayer
370
18
48
1
60
0
100
AcDbSpline
70
4
71
3
72
18
73
14
40
0
40
0
40
0
40
0
40
0.282166927864617
40
0.282166927864617
40
0.423250391796925
40
0.423250391796925
40
0.564333855729233
40
0.564333855729233
40
0.84650078359385
40
0.84650078359385
40
0.987584247526161
40
0.987584247526161
40
1
40
1
40
1
40
1
41
1
10
28.6085424809941
20
-1.98139003045415
30
0
41
1
10
28.6464204080325
20
-2.09934677842435
30
0
41
1
10
28.6860041748849
20
-2.20232060073238
30
0
41
1
10
28.747324878829
20
-2.33526726764237
30
0
41
1
10
28.7680970953273
20
-2.37596862302453
30
0
41
1
10
28.8102863992567
20
-2.44996714851521
30
0
41
1
10
28.8316476966256
20
-2.48311299731347
30
0
41
1
10
28.8953311029119
20
-2.56936370900826
30
0
41
1
10
28.9376789055597
20
-2.61020570394839
30
0
41
1
10
29.0012909081447
20
-2.64645061742843
30
0
41
1
10
29.0225889224996
20
-2.65434015085882
30
0
41
1
10
29.0456174794419
20
-2.65812853339966
30
0
41
1
10
29.0474787485611
20
-2.65840104057011
30
0
41
1
10
29.0493386655933
20
-2.6586396198895
30
0
0
SPLINE
5
C3
100
AcDbEntity
8
1
62
256
6
ByLayer
370
18
48
1
60
0
100
AcDbSpline
70
4
71
3
72
10
73
6
40
0
40
0
40
0
40
0
40
0.5
40
0.5
40
1
40
1
40
1
40
1
41
1
10
29.1965820965369
20
2.69259324064757
30
0
41
1
10
29.3053669352541
20
2.38324363439213
30
0
41
1
10
29.4169289828538
20
2.07378996701223
30
0
41
1
10
29.6441987755686
20
1.45493027394878
30
0
41
1
10
29.7593829260497
20
1.14664461195278
30
0
41
1
10
29.8751447002258
20
0.839503426535771
30
0
0
SPLINE
5
C4
100
AcDbEntity
8
1
62
256
6
ByLayer
370
18
48
1
60
0
100
AcDbSpline
70
4
71
3
72
24
73
20
40
0
40
0
40
0
40
0
40
0.154756384077974
40
0.154756384077974
40
0.251660208526236
40
0.251660208526236
40
0.348564032974498
40
0.348564032974498
40
0.542371681871022
40
0.542371681871022
40
0.639275506319283
40
0.639275506319283
40
0.687727418543413
40
0.687727418543413
40
0.736179330767542
40
0.736179330767542
40
0.929986979664065
40
0.929986979664065
40
1
40
1
40
1
40
1
41
1
10
16.5906593229268
20
1.84002550112356
30
0
41
1
10
17.0202144886968
20
1.67141061509571
30
0
41
1
10
17.448403929721
20
1.48463562436785
30
0
41
1
10
18.1468026955643
20
1.158066715145
30
0
41
1
10
18.4168775328747
20
1.026609923222
30
0
41
1
10
18.9532134371833
20
0.758407845814816
30
0
41
1
10
19.2201629624137
20
0.62142304368507
30
0
41
1
10
20.0192593150944
20
0.20548792147531
30
0
41
1
10
20.5496617895346
20
-0.0784295652281912
30
0
41
1
10
21.3500143522799
20
-0.498349500586073
30
0
41
1
10
21.6175902960041
20
-0.637328043791683
30
0
41
1
10
22.0211688694984
20
-0.842318635000197
30
0
41
1
10
22.1561101699654
20
-0.9100881847084
30
0
41
1
10
22.4247385421591
20
-1.04310406345172
30
0
41
1
10
22.5586956870945
20
-1.1084835724844
30
0
41
1
10
23.227191107695
20
-1.4288871830008
30
0
41
1
10
23.7578261873065
20
-1.66453192616413
30
0
41
1
10
24.4817229645924
20
-1.94622434200858
30
0
41
1
10
24.6739932837343
20
-2.01721876748022
30
0
41
1
10
24.8666788170465
20
-2.08406673828074
30
0
0
SPLINE
5
C5
100
AcDbEntity
8
1
62
256
6
ByLayer
370
13
48
1
60
0
100
AcDbSpline
70
4
71
3
72
14
73
10
40
0
40
0
40
0
40
0
40
0.0525817015397853
40
0.0525817015397853
40
0.242065361231828
40
0.242065361231828
40
0.621032680615914
40
0.621032680615914
40
1
40
1
40
1
40
1
41
1
10
24.8666788170492
20
-2.08406673828171
30
0
41
1
10
24.9406860360872
20
-2.10974190097934
30
0
41
1
10
25.0147545073853
20
-2.13480538002517
30
0
41
1
10
25.3560845431886
20
-2.24727134442534
30
0
41
1
10
25.6246820617237
20
-2.32724211448266
30
0
41
1
10
26.4325609276638
20
-2.53886576380205
30
0
41
1
10
26.9652121888011
20
-2.63972055325908
30
0
41
1
10
28.0296701351138
20
-2.7567538681152
30
0
41
1
10
28.5615377567324
20
-2.77312090813538
30
0
41
1
10
29.0980456861336
20
-2.74486207786231
30
0
0
SPLINE
5
C6
100
AcDbEntity
8
1
62
256
6
ByLayer
370
18
48
1
60
0
100
AcDbSpline
70
4
71
3
72
26
73
22
40
0
40
0
40
0
40
0
40
0.0625
40
0.0625
40
0.125
40
0.125
40
0.1875
40
0.1875
40
0.25
40
0.25
40
0.375
40
0.375
40
0.5
40
0.5
40
0.625
40
0.625
40
0.75
40
0.75
40
0.875
40
0.875
40
1
40
1
40
1
40
1
41
1
10
29.529610255005
20
-0.716743437374731
30
0
41
1
10
29.5314933141345
20
-0.734256092847772
30
0
41
1
10
29.5320607397157
20
-0.753660028162841
30
0
41
1
10
29.5303561146104
20
-0.795002603410467
30
0
41
1
10
29.5281310909836
20
-0.816695632200691
30
0
41
1
10
29.5209950925485
20
-0.862200477160144
30
0
41
1
10
29.5160221525554
20
-0.886125273266288
30
0
41
1
10
29.5039854054646
20
-0.93359300854965
30
0
41
1
10
29.4968143881026
20
-0.957650102378295
30
0
41
1
10
29.4726409277827
20
-1.02882283063033
30
0
41
1
10
29.4532077255586
20
-1.07432696808399
30
0
41
1
10
29.411602011805
20
-1.15584359130347
30
0
41
1
10
29.3891724663426
20
-1.19233529055066
30
0
41
1
10
29.3441710819516
20
-1.25320142625478
30
0
41
1
10
29.3211556858259
20
-1.27818283519065
30
0
41
1
10
29.2764447909699
20
-1.31537972164034
30
0
41
1
10
29.2542129027681
20
-1.32802997181997
30
0
41
1
10
29.2122071873013
20
-1.34040795537982
30
0
41
1
10
29.1919137728739
20
-1.3403250735256
30
0
41
1
10
29.1546502417432
20
-1.32715374914659
30
0
41
1
10
29.1377338030459
20
-1.3143578343969
30
0
41
1
10
29.1227514347469
20
-1.29444831772918
30
0
0
SPLINE
5
C7
100
AcDbEntity
8
1
62
256
6
ByLayer
370
18
48
1
60
0
100
AcDbSpline
70
4
71
3
72
8
73
4
40
0
40
0
40
0
40
0
40
1
40
1
40
1
40
1
41
1
10
29.8751447002258
20
-0.839503426535828
30
0
41
1
10
29.9251580060085
20
-0.651617096639058
30
0
41
1
10
29.9620039080672
20
-0.474958702108807
30
0
41
1
10
29.9821657890723
20
-0.301582063711351
30
0
0
SPLINE
5
C8
100
AcDbEntity
8
1
62
256
6
ByLayer
370
18
48
1
60
0
100
AcDbSpline
70
4
71
3
72
12
73
8
40
0
40
0
40
0
40
0
40
0.250000000000072
40
0.250000000000072
40
0.500000000000144
40
0.500000000000144
40
1
40
1
40
1
40
1
41
1
10
28.8127265544242
20
0.713626781984289
30
0
41
1
10
28.8125826132842
20
0.723594217939677
30
0
41
1
10
28.8152014287277
20
0.733578418157691
30
0
41
1
10
28.8258768505065
20
0.750788669121562
30
0
41
1
10
28.8339110297382
20
0.75797476909662
30
0
41
1
10
28.8608071445264
20
0.773509331679776
30
0
41
1
10
28.8819494079353
20
0.776816472566139
30
0
41
1
10
28.9026247282698
20
0.776331961129415
30
0
0
SPLINE
5
C9
100
AcDbEntity
8
1
62
256
6
ByLayer
370
18
48
1
60
0
100
AcDbSpline
70
4
71
3
72
40
73
36
40
0
40
0
40
0
40
0
40
0.0954836040864524
40
0.0954836040864524
40
0.14322540612968
40
0.14322540612968
40
0.190967208172907
40
0.190967208172907
40
0.28645081225936
40
0.28645081225936
40
0.310321713280974
40
0.310321713280974
40
0.334192614302587
40
0.334192614302587
40
0.381934416345815
40
0.381934416345815
40
0.477418020432271
40
0.477418020432271
40
0.5251598224755
40
0.5251598224755
40
0.572901624518728
40
0.572901624518728
40
0.76386883269164
40
0.76386883269164
40
0.787739733713254
40
0.787739733713254
40
0.811610634734868
40
0.811610634734868
40
0.859352436778095
40
0.859352436778095
40
0.95483604086455
40
0.95483604086455
40
0.978706941886164
40
0.978706941886164
40
1
40
1
40
1
40
1
41
1
10
29.0820222388522
20
-2.7868503443427
30
0
41
1
10
28.5425959354151
20
-2.81459587528553
30
0
41
1
10
28.0052960042576
20
-2.79708240837741
30
0
41
1
10
27.1947533306409
20
-2.7039834834095
30
0
41
1
10
26.9249875099867
20
-2.66187632250603
30
0
41
1
10
26.3886324617112
20
-2.5574503285533
30
0
41
1
10
26.1214633492291
20
-2.49506457397578
30
0
41
1
10
25.3209914273846
20
-2.27945034925924
30
0
41
1
10
24.7885444738678
20
-2.09791782003583
30
0
41
1
10
24.117666223685
20
-1.83119042274723
30
0
41
1
10
23.983223628941
20
-1.77585564077879
30
0
41
1
10
23.7136045148937
20
-1.66144283196212
30
0
41
1
10
23.578184263074
20
-1.60225197247382
30
0
41
1
10
23.1734993527564
20
-1.42073128358393
30
0
41
1
10
22.9051867871457
20
-1.29421397958626
30
0
41
1
10
22.1026353148338
20
-0.901882098809892
30
0
41
1
10
21.5705997221908
20
-0.623602882331767
30
0
41
1
10
20.7688604376857
20
-0.196163701006299
30
0
41
1
10
20.5009739067278
20
-0.0520649806722986
30
0
41
1
10
19.9625937156146
20
0.236917645155728
30
0
41
1
10
19.6914625899356
20
0.382042727508548
30
0
41
1
10
18.3467913537373
20
1.09071815867634
30
0
41
1
10
17.290938483872
20
1.61289299703537
30
0
41
1
10
16.075056974264
20
2.06426090983175
30
0
41
1
10
15.9397705033917
20
2.11241024779579
30
0
41
1
10
15.670355755381
20
2.20393011905134
30
0
41
1
10
15.5359824781795
20
2.24739274159776
30
0
41
1
10
15.133609435267
20
2.3706983179257
30
0
41
1
10
14.8664056493379
20
2.44350834742272
30
0
41
1
10
14.0657291396688
20
2.63201055653914
30
0
41
1
10
13.532945805787
20
2.71763416853653
30
0
41
1
10
12.8618282573378
20
2.77010161881825
30
0
41
1
10
12.727314449026
20
2.77785404401161
30
0
41
1
10
12.4721010414068
20
2.78724166242091
30
0
41
1
10
12.351280754145
20
2.78944105093601
30
0
41
1
10
12.2307758154613
20
2.78939564236038
30
0
0
SPLINE
5
CA
100
AcDbEntity
8
1
62
256
6
ByLayer
370
18
48
1
60
0
100
AcDbSpline
70
4
71
3
72
8
73
4
40
0
40
0
40
0
40
0
40
1
40
1
40
1
40
1
41
1
10
29.9821657890723
20
-0.301582063711408
30
0
41
1
10
29.9889089574912
20
-0.229663460698219
30
0
41
1
10
29.9928088555334
20
-0.157769581389886
30
0
41
1
10
29.9933048793358
20
-0.0859053005265764
30
0
0
SPLINE
5
CB
100
AcDbEntity
8
1
62
256
6
ByLayer
370
18
48
1
60
0
100
AcDbSpline
70
4
71
3
72
10
73
6
40
0
40
0
40
0
40
0
40
0.925353492243554
40
0.925353492243554
40
1
40
1
40
1
40
1
41
1
10
29.1067707308532
20
-2.65511183874088
30
0
41
1
10
28.0352225588827
20
-2.68781006780594
30
0
41
1
10
26.9816977012832
20
-2.54956529351816
30
0
41
1
10
25.8192980498009
20
-2.23613785543122
30
0
41
1
10
25.7326625017597
20
-2.21184190115721
30
0
41
1
10
25.6461455019278
20
-2.1866795670235
30
0
0
SPLINE
5
CC
100
AcDbEntity
8
1
62
256
6
ByLayer
370
13
48
1
60
0
100
AcDbSpline
70
4
71
3
72
24
73
20
40
0
40
0
40
0
40
0
40
0.157668161682522
40
0.157668161682522
40
0.345667411453496
40
0.345667411453496
40
0.392667223896239
40
0.392667223896239
40
0.439667036338983
40
0.439667036338983
40
0.533666661224471
40
0.533666661224471
40
0.721665910995446
40
0.721665910995446
40
0.815665535880932
40
0.815665535880932
40
0.909665160766419
40
0.909665160766419
40
1
40
1
40
1
40
1
41
1
10
25.6461454707291
20
-2.18667955794976
30
0
41
1
10
25.1964096118241
20
-2.05587978365043
30
0
41
1
10
24.7498771230583
20
-1.90166898171239
30
0
41
1
10
23.7733217504059
20
-1.52251378400317
30
0
41
1
10
23.2431241864218
20
-1.28992125672153
30
0
41
1
10
22.5754336732066
20
-0.976014206349788
30
0
41
1
10
22.4416441417263
20
-0.912076950703266
30
0
41
1
10
22.1733662584206
20
-0.782260534864491
30
0
41
1
10
22.0386467646654
20
-0.716269906391886
30
0
41
1
10
21.6359209003991
20
-0.517040073130914
30
0
41
1
10
21.3688243294212
20
-0.382284208638112
30
0
41
1
10
20.5697148987956
20
0.0237934113480378
30
0
41
1
10
20.0397846859449
20
0.296733445339669
30
0
41
1
10
19.2415806384396
20
0.694472368659007
30
0
41
1
10
18.9749362054717
20
0.825054566351184
30
0
41
1
10
18.4392931552277
20
1.07983565746989
30
0
41
1
10
18.1697310603575
20
1.20422789733871
30
0
41
1
10
17.6433309346594
20
1.43679609277865
30
0
41
1
10
17.3857950603612
20
1.54560064603172
30
0
41
1
10
17.1281371902722
20
1.64837672786862
30
0
0
SPLINE
5
CD
100
AcDbEntity
8
1
62
256
6
ByLayer
370
18
48
1
60
0
100
AcDbSpline
70
4
71
3
72
8
73
4
40
0
40
0
40
0
40
0
40
1
40
1
40
1
40
1
41
1
10
29.1965820965429
20
-2.69259324063026
30
0
41
1
10
29.1590425341124
20
-2.73933809699452
30
0
41
1
10
29.1210215542715
20
-2.77059636699738
30
0
41
1
10
29.0820222388522
20
-2.7868503443427
30
0
0
SPLINE
5
CE
100
AcDbEntity
8
1
62
256
6
ByLayer
370
18
48
1
60
0
100
AcDbSpline
70
4
71
3
72
10
73
6
40
0
40
0
40
0
40
0
40
0.5
40
0.5
40
1
40
1
40
1
40
1
41
1
10
29.1965820965426
20
-2.69259324063123
30
0
41
1
10
29.3060845446976
20
-2.3812029805531
30
0
41
1
10
29.4177920439449
20
-2.07142143236234
30
0
41
1
10
29.6445148396479
20
-1.45408812574442
30
0
41
1
10
29.7594430609074
20
-1.14648506108509
30
0
41
1
10
29.8751447002257
20
-0.839503426535828
30
0
0
SPLINE
5
CF
100
AcDbEntity
8
1
62
256
6
ByLayer
370
18
48
1
60
0
100
AcDbSpline
70
4
71
3
72
8
73
4
40
0
40
0
40
0
40
0
40
1
40
1
40
1
40
1
41
1
10
29.1965820965425
20
2.6925932406308
30
0
41
1
10
29.1590425341121
20
2.73933809699474
30
0
41
1
10
29.1210215542714
20
2.77059636699747
30
0
41
1
10
29.0820222388522
20
2.7868503443427
30
0
0
SPLINE
5
D0
100
AcDbEntity
8
1
62
256
6
ByLayer
370
18
48
1
60
0
100
AcDbSpline
70
4
71
3
72
28
73
24
40
0
40
0
40
0
40
0
40
0.0624999999999992
40
0.0624999999999992
40
0.124999999999998
40
0.124999999999998
40
0.187499999999998
40
0.187499999999998
40
0.249999999999997
40
0.249999999999997
40
0.374999999999999
40
0.374999999999999
40
0.4375
40
0.4375
40
0.500000000000001
40
0.500000000000001
40
0.62500000000001
40
0.62500000000001
40
0.68750000000001
40
0.68750000000001
40
0.750000000000011
40
0.750000000000011
40
1
40
1
40
1
40
1
41
1
10
26.4150368407512
20
1.0805788909893
30
0
41
1
10
26.4044959110341
20
1.00163627513581
30
0
41
1
10
26.3996118427983
20
0.920696199097705
30
0
41
1
10
26.4015886485116
20
0.754668861438006
30
0
41
1
10
26.4086230569647
20
0.66918968552659
30
0
41
1
10
26.4337563187937
20
0.500628374983847
30
0
41
1
10
26.4518069350885
20
0.41675390734909
30
0
41
1
10
26.4980289489853
20
0.249754597753963
30
0
41
1
10
26.5264815311127
20
0.166015187886757
30
0
41
1
10
26.6236025006587
20
-0.07794992599068
30
0
41
1
10
26.7037354790971
20
-0.231970197186882
30
0
41
1
10
26.8415165051427
20
-0.453146743183311
30
0
41
1
10
26.8905418490931
20
-0.525294470167609
30
0
41
1
10
26.9919790195061
20
-0.663777579823375
30
0
41
1
10
27.0446250135292
20
-0.730510702447731
30
0
41
1
10
27.2076638980948
20
-0.924071484889708
30
0
41
1
10
27.3231428029341
20
-1.04427993557036
30
0
41
1
10
27.5044103980113
20
-1.21411690597856
30
0
41
1
10
27.5663261018119
20
-1.26907682851541
30
0
41
1
10
27.69120513316
20
-1.37459590795487
30
0
41
1
10
27.7543173741126
20
-1.42530164404428
30
0
41
1
10
28.0728871081579
20
-1.66964540375284
30
0
41
1
10
28.337139377859
20
-1.83643332272661
30
0
41
1
10
28.6085424809941
20
-1.98139003045412
30
0
0
SPLINE
5
D1
100
AcDbEntity
8
1
62
256
6
ByLayer
370
18
48
1
60
0
100
AcDbSpline
70
4
71
3
72
8
73
4
40
0
40
0
40
0
40
0
40
1
40
1
40
1
40
1
41
1
10
7.5120866743967
20
2.07684443317993
30
0
41
1
10
7.6648803324193
20
2.11932646824198
30
0
41
1
10
7.81699650756102
20
2.16133484642981
30
0
41
1
10
7.96847780054492
20
2.20234500760489
30
0
0
SPLINE
5
D2
100
AcDbEntity
8
1
62
256
6
ByLayer
370
18
48
1
60
0
100
AcDbSpline
70
4
71
3
72
10
73
6
40
0
40
0
40
0
40
0
40
0.5
40
0.5
40
1
40
1
40
1
40
1
41
1
10
28.9026247282698
20
0.776331961129387
30
0
41
1
10
29.0616303750999
20
0.772605776811787
30
0
41
1
10
29.2206424048405
20
0.768820601151589
30
0
41
1
10
29.5384787199956
20
0.762985397121525
30
0
41
1
10
29.6972104791046
20
0.761789001695774
30
0
41
1
10
29.8559014335242
20
0.760652629363392
30
0
0
SPLINE
5
D3
100
AcDbEntity
8
1
62
256
6
ByLayer
370
18
48
1
60
0
100
AcDbSpline
70
4
71
3
72
8
73
4
40
0
40
0
40
0
40
0
40
1
40
1
40
1
40
1
41
1
10
29.1227514347469
20
-1.29444831772915
30
0
41
1
10
28.9542661229173
20
-1.52649490900828
30
0
41
1
10
28.7825235213908
20
-1.75525778013309
30
0
41
1
10
28.6085424809941
20
-1.98139003045418
30
0
0
SPLINE
5
D4
100
AcDbEntity
8
1
62
256
6
ByLayer
370
18
48
1
60
0
100
AcDbSpline
70
4
71
3
72
10
73
6
40
0
40
0
40
0
40
0
40
0.175945261423413
40
0.175945261423413
40
1
40
1
40
1
40
1
41
1
10
7.96847780054489
20
2.20234500763732
30
0
41
1
10
7.96847780054489
20
2.18559907166701
30
0
41
1
10
7.96847780054489
20
2.16897899790885
30
0
41
1
10
7.96847780054492
20
2.0752238188166
30
0
41
1
10
7.96847780054492
20
2.00067581322705
30
0
41
1
10
7.96847780054492
20
1.92878000763741
30
0
0
SPLINE
5
D5
100
AcDbEntity
8
1
62
256
6
ByLayer
370
18
48
1
60
0
100
AcDbSpline
70
4
71
3
72
14
73
10
40
0
40
0
40
0
40
0
40
0.25
40
0.25
40
0.5
40
0.5
40
0.75
40
0.75
40
1
40
1
40
1
40
1
41
1
10
29.1067707308624
20
-2.6551118387406
30
0
41
1
10
29.110039899298
20
-2.6542821709383
30
0
41
1
10
29.112667600064
20
-2.6550902215719
30
0
41
1
10
29.1162525914943
20
-2.66102448624923
30
0
41
1
10
29.117159981646
20
-2.6662225819633
30
0
41
1
10
29.1162016737083
20
-2.68218287581416
30
0
41
1
10
29.114268001731
20
-2.69295455956021
30
0
41
1
10
29.1077022283029
20
-2.71770977702352
30
0
41
1
10
29.1031109948864
20
-2.73156517399477
30
0
41
1
10
29.0980456861323
20
-2.74486207786546
30
0
0
SPLINE
5
D6
100
AcDbEntity
8
1
62
256
6
ByLayer
370
13
48
1
60
0
100
AcDbSpline
70
4
71
3
72
12
73
8
40
0
40
0
40
0
40
0
40
0.0162586858827868
40
0.0162586858827868
40
0.508129342941393
40
0.508129342941393
40
1
40
1
40
1
40
1
41
1
10
3.44775763164299
20
-2.6450093241987
30
0
41
1
10
3.44775811287354
20
-2.64497786947754
30
0
41
1
10
3.44775859340101
20
-2.64494145880727
30
0
41
1
10
3.44777358896414
20
-2.64364862115622
30
0
41
1
10
3.44778748893788
20
-2.63774081287335
30
0
41
1
10
3.447812599131
20
-2.61686942708928
30
0
41
1
10
3.44782386426061
20
-2.60195196913196
30
0
41
1
10
3.44783344611534
20
-2.58265141438704
30
0
0
SPLINE
5
D7
100
AcDbEntity
8
SK1
62
256
6
ByLayer
370
18
48
1
60
0
100
AcDbSpline
70
4
71
3
72
14
73
10
40
0
40
0
40
0
40
0
40
0.125
40
0.125
40
0.25
40
0.25
40
0.5
40
0.5
40
1
40
1
40
1
40
1
41
1
10
-35.3
20
-1.95705313589312
30
0
41
1
10
-35.3
20
-1.94877193754431
30
0
41
1
10
-35.3017593723636
20
-1.93856175750025
30
0
41
1
10
-35.3069353411979
20
-1.91789001853823
30
0
41
1
10
-35.3102739075534
20
-1.90750936011719
30
0
41
1
10
-35.3215583577555
20
-1.87629165140726
30
0
41
1
10
-35.3303095934911
20
-1.85654141222716
30
0
41
1
10
-35.358391202053
20
-1.79890645125533
30
0
41
1
10
-35.378655954467
20
-1.76448987161152
30
0
41
1
10
-35.4
20
-1.7334290399609
30
0
0
SPLINE
5
D8
100
AcDbEntity
8
SK1
62
256
6
ByLayer
370
18
48
1
60
0
100
AcDbSpline
70
4
71
3
72
14
73
10
40
0
40
0
40
0
40
0
40
0.499999999999999
40
0.499999999999999
40
0.75
40
0.75
40
0.875
40
0.875
40
1
40
1
40
1
40
1
41
1
10
-35.3999999999999
20
-2.61464035737919
30
0
41
1
10
-35.3787677796885
20
-2.64553845585087
30
0
41
1
10
-35.3584290958895
20
-2.67291530317047
30
0
41
1
10
-35.3303626450498
20
-2.70558381236558
30
0
41
1
10
-35.3215171954455
20
-2.71494263169211
30
0
41
1
10
-35.3102812516991
20
-2.72380944155216
30
0
41
1
10
-35.3068890218584
20
-2.72586265423939
30
0
41
1
10
-35.3017585680987
20
-2.72656230885733
30
0
41
1
10
-35.3
20
-2.72515191077363
30
0
41
1
10
-35.3
20
-2.72076961098853
30
0
0
SPLINE
5
D9
100
AcDbEntity
8
SK1
62
256
6
ByLayer
370
18
48
1
60
0
100
AcDbSpline
70
4
71
3
72
8
73
4
40
0
40
0
40
0
40
0
40
1
40
1
40
1
40
1
41
1
10
-35.4
20
-1.7334290399609
30
0
41
1
10
-35.6037632637287
20
-1.43690341545056
30
0
41
1
10
-35.8060850973302
20
-1.13974803481025
30
0
41
1
10
-36
20
-0.838919693414937
30
0
0
SPLINE
5
DA
100
AcDbEntity
8
SK1
62
256
6
ByLayer
370
18
48
1
60
0
100
AcDbSpline
70
4
71
3
72
8
73
4
40
0
40
0
40
0
40
0
40
1
40
1
40
1
40
1
41
1
10
-36
20
-1.72013101083272
30
0
41
1
10
-35.8061805493572
20
-2.02081127348543
30
0
41
1
10
-35.6038214160057
20
-2.31803010701418
30
0
41
1
10
-35.4
20
-2.61464035737865
30
0
0
LINE
5
76
100
AcDbEntity
8
81
62
256
6
ByLayer
370
18
48
1
60
0
100
AcDbLine
10
30
20
0
30
0
11
35
21
0
31
0
39
0
210
0
220
0
230
1
0
LINE
5
77
100
AcDbEntity
8
1
62
256
6
ByLayer
370
18
48
1
60
0
100
AcDbLine
10
3.22278
20
2.783766
30
0
11
0.2
21
2.781877
31
0
39
0
210
0
220
0
230
1
0
LINE
5
79
100
AcDbEntity
8
1
62
256
6
ByLayer
370
18
48
1
60
0
100
AcDbLine
10
12.228838
20
2.789395
30
0
11
11.400346
21
2.788877
31
0
39
0
210
0
220
0
230
1
0
LINE
5
7A
100
AcDbEntity
8
1
62
256
6
ByLayer
370
18
48
1
60
0
100
AcDbLine
10
28.579103
20
2.799614
30
0
11
27.750428
21
2.799096
31
0
39
0
210
0
220
0
230
1
0
LINE
5
7B
100
AcDbEntity
8
1
62
256
6
ByLayer
370
18
48
1
60
0
100
AcDbLine
10
27.750428
20
-2.799096
30
0
11
28.579078
21
-2.799614
31
0
39
0
210
0
220
0
230
1
0
LINE
5
7C
100
AcDbEntity
8
1
62
256
6
ByLayer
370
18
48
1
60
0
100
AcDbLine
10
11.400346
20
-2.788877
30
0
11
12.228863
21
-2.789395
31
0
39
0
210
0
220
0
230
1
0
LINE
5
7D
100
AcDbEntity
8
1
62
256
6
ByLayer
370
18
48
1
60
0
100
AcDbLine
10
0.2
20
-2.781877
30
0
11
3.22278
21
-2.783766
31
0
39
0
210
0
220
0
230
1
0
LINE
5
7E
100
AcDbEntity
8
1
62
256
6
ByLayer
370
18
48
1
60
0
100
AcDbLine
10
0
20
-3
30
0
11
0.2
21
-2.781877
31
0
39
0
210
0
220
0
230
1
0
LINE
5
7F
100
AcDbEntity
8
1
62
256
6
ByLayer
370
18
48
1
60
0
100
AcDbLine
10
0.2
20
2.781877
30
0
11
0
21
3
31
0
39
0
210
0
220
0
230
1
0
LINE
5
80
100
AcDbEntity
8
SK1
62
256
6
ByLayer
370
18
48
1
60
0
100
AcDbLine
10
0
20
3
30
0
11
-35.278312
21
3
31
0
39
0
210
0
220
0
230
1
0
LINE
5
82
100
AcDbEntity
8
SK1
62
256
6
ByLayer
370
18
48
1
60
0
100
AcDbLine
10
-35.278312
20
-3
30
0
11
0
21
-3
31
0
39
0
210
0
220
0
230
1
0
LINE
5
83
100
AcDbEntity
8
SK1
62
256
6
ByLayer
370
18
48
1
60
0
100
AcDbLine
10
-35.278312
20
3
30
0
11
-36
21
1.75
31
0
39
0
210
0
220
0
230
1
0
LINE
5
84
100
AcDbEntity
8
SK1
62
256
6
ByLayer
370
18
48
1
60
0
100
AcDbLine
10
-36
20
-1.75
30
0
11
-35.278312
21
-3
31
0
39
0
210
0
220
0
230
1
0
LINE
5
85
100
AcDbEntity
8
SK4
62
256
6
ByLayer
370
18
48
0.05
60
0
100
AcDbLine
10
35
20
0
30
0
11
-41
21
0
31
0
39
0
210
0
220
0
230
1
0
LINE
5
87
100
AcDbEntity
8
4
62
256
6
ByLayer
370
18
48
0.05
60
0
100
AcDbLine
10
30
20
0
30
0
11
0
21
0
31
0
39
0
210
0
220
0
230
1
0
LINE
5
89
100
AcDbEntity
8
80
62
256
6
ByLayer
370
18
48
1
60
0
100
AcDbLine
10
0
20
0
30
0
11
-5
21
0
31
0
39
0
210
0
220
0
230
1
0
LINE
5
8A
100
AcDbEntity
8
1
62
256
6
ByLayer
370
13
48
1
60
0
100
AcDbLine
10
28.902625
20
0.776332
30
0
11
29.993305
21
0.085905
31
0
39
0
210
0
220
0
230
1
0
LINE
5
8B
100
AcDbEntity
8
1
62
256
6
ByLayer
370
13
48
1
60
0
100
AcDbLine
10
28.812727
20
0.713627
30
0
11
29.978423
21
-0.024287
31
0
39
0
210
0
220
0
230
1
0
LINE
5
8C
100
AcDbEntity
8
1
62
256
6
ByLayer
370
18
48
1
60
0
100
AcDbLine
10
0.2
20
2.781877
30
0
11
0.2
21
-2.781877
31
0
39
0
210
0
220
0
230
1
0
LINE
5
8D
100
AcDbEntity
8
1
62
256
6
ByLayer
370
18
48
1
60
0
100
AcDbLine
10
0
20
-3
30
0
11
0
21
3
31
0
39
0
210
0
220
0
230
1
0
LINE
5
8E
100
AcDbEntity
8
SK1
62
256
6
ByLayer
370
13
48
1
60
0
100
AcDbLine
10
-35.4
20
-1.733409
30
0
11
-35.4
21
-2.61464
31
0
39
0
210
0
220
0
230
1
0
LINE
5
8F
100
AcDbEntity
8
SK1
62
256
6
ByLayer
370
18
48
1
60
0
100
AcDbLine
10
-36
20
-0.838898
30
0
11
-36
21
-1.720131
31
0
39
0
210
0
220
0
230
1
0
LINE
5
90
100
AcDbEntity
8
SK1
62
256
6
ByLayer
370
18
48
1
60
0
100
AcDbLine
10
-35.278312
20
3
30
0
11
-35.278312
21
-3
31
0
39
0
210
0
220
0
230
1
0
LINE
5
91
100
AcDbEntity
8
SK1
62
256
6
ByLayer
370
18
48
1
60
0
100
AcDbLine
10
-35.3
20
-2.72077
30
0
11
-35.3
21
-1.957053
31
0
39
0
210
0
220
0
230
1
0
LINE
5
92
100
AcDbEntity
8
SK1
62
256
6
ByLayer
370
18
48
1
60
0
100
AcDbLine
10
-36
20
-1.75
30
0
11
-36
21
-1.720131
31
0
39
0
210
0
220
0
230
1
0
LINE
5
93
100
AcDbEntity
8
SK1
62
256
6
ByLayer
370
18
48
1
60
0
100
AcDbLine
10
-36
20
1.75
30
0
11
-36
21
-0.83892
31
0
39
0
210
0
220
0
230
1
0
LINE
5
94
100
AcDbEntity
8
SK1
62
256
6
ByLayer
370
18
48
1
60
0
100
AcDbLine
10
0
20
-3
30
0
11
0
21
3
31
0
39
0
210
0
220
0
230
1
0
MTEXT
5
DB
100
AcDbEntity
8
SK6
62
256
6
ByLayer
370
13
48
1
60
0
100
AcDbMText
10
-0.870831
20
35.182694
30
0
210
0
220
0
230
1
1
\W0.7431;460.1-0560-017A1-XM GC34
40
3.5
41
0
44
1.084337
50
0
71
8
72
5
7
iso_b_vert
0
DIMENSION
5
E8
100
AcDbEntity
8
SK2
62
256
6
ByLayer
370
13
48
1
60
0
100
AcDbDimension
2
DimnDraft3D1
10
29.1791
20
-13.013398
30
0
11
13.429159
21
-13.013398
31
0
70
32
71
5
72
1
41
1
210
0
220
0
230
1
3
Standard
100
AcDbAlignedDimension
13
0
23
-1.5875
33
0
14
29.1791
24
-4.3875
34
0
50
0
100
AcDbRotatedDimension
1001
ACAD
1000
DSTYLE
1002
{
1070
   279
1070
     0
1070
   172
1070
     1
1070
   173
1070
     1
1070
   340
1005
DC
1070
   271
1070
     2
1070
   272
1070
     2
1070
    77
1070
     1
1070
    73
1070
     0
1070
   171
1070
     3
1070
   274
1070
     4
1070
   177
1070
    35
1070
   176
1070
    35
1070
   178
1070
    35
1070
    48
1040
-0.005
1070
    41
1041
3.5
1070
   147
1041
1.75
1070
    42
1041
1.5875
1070
    44
1041
2.0
1070
   140
1041
3.5
1070
   343
1005
0
1070
   344
1005
0
1002
}
0
DIMENSION
5
F2
100
AcDbEntity
8
SK2
62
256
6
ByLayer
370
13
48
1
60
0
100
AcDbDimension
2
DimnDraft3D2
10
30
20
-31.692985
30
0
11
-2.4796
21
-31.692985
31
0
70
32
71
5
72
1
41
1
210
0
220
0
230
1
3
Standard
100
AcDbAlignedDimension
13
-36
23
-4.5875
33
0
14
30
24
-1.5875
34
0
50
0
100
AcDbRotatedDimension
1001
ACAD
1000
DSTYLE
1002
{
1070
   279
1070
     0
1070
   172
1070
     1
1070
   173
1070
     1
1070
   340
1005
DC
1070
   271
1070
     2
1070
   272
1070
     2
1070
    77
1070
     1
1070
    73
1070
     0
1070
   171
1070
     3
1070
   274
1070
     4
1070
   177
1070
    35
1070
   176
1070
    35
1070
   178
1070
    35
1070
    48
1040
-0.005
1070
    41
1041
3.5
1070
   147
1041
1.75
1070
    42
1041
1.5875
1070
    44
1041
2.0
1070
   140
1041
3.5
1070
   343
1005
0
1070
   344
1005
0
1002
}
0
DIMENSION
5
FC
100
AcDbEntity
8
SK2
62
256
6
ByLayer
370
13
48
1
60
0
100
AcDbDimension
2
DimnDraft3D3
10
30
20
14.409119
30
0
11
21.19
21
14.409119
31
0
70
32
71
5
72
1
41
1
210
0
220
0
230
1
3
Standard
100
AcDbAlignedDimension
13
12.38
23
4.3875
33
0
14
30
24
1.5875
34
0
50
0
100
AcDbRotatedDimension
1001
ACAD
1000
DSTYLE
1002
{
1070
   279
1070
     0
1070
   172
1070
     1
1070
   173
1070
     1
1070
   340
1005
DC
1070
   271
1070
     2
1070
   272
1070
     2
1070
    77
1070
     1
1070
    73
1070
     0
1070
   171
1070
     3
1070
   274
1070
     4
1070
   177
1070
    35
1070
   176
1070
    35
1070
   178
1070
    35
1070
    48
1040
-0.005
1070
    41
1041
3.5
1070
   147
1041
1.75
1070
    42
1041
1.5875
1070
    44
1041
2.0
1070
   140
1041
3.5
1070
   343
1005
0
1070
   344
1005
0
1002
}
0
DIMENSION
5
106
100
AcDbEntity
8
SK2
62
256
6
ByLayer
370
13
48
1
60
0
100
AcDbDimension
2
DimnDraft3D4
10
29.1791
20
-15.602503
30
0
11
39.981425
21
-15.602503
31
0
70
32
71
5
72
1
41
1
210
0
220
0
230
1
3
Standard
100
AcDbAlignedDimension
13
30
23
-1.5875
33
0
14
29.1791
24
-4.3875
34
0
50
0
100
AcDbRotatedDimension
1001
ACAD
1000
DSTYLE
1002
{
1070
   279
1070
     0
1070
   172
1070
     1
1070
   173
1070
     1
1070
   340
1005
DC
1070
   271
1070
     2
1070
   272
1070
     2
1070
    77
1070
     1
1070
    73
1070
     0
1070
   171
1070
     3
1070
   274
1070
     4
1070
   177
1070
    35
1070
   176
1070
    35
1070
   178
1070
    35
1070
    48
1040
-0.005
1070
    41
1041
3.5
1070
   147
1041
1.75
1070
    42
1041
1.5875
1070
    44
1041
2.0
1070
   140
1041
3.5
1070
   343
1005
0
1070
   344
1005
0
1002
}
0
DIMENSION
5
110
100
AcDbEntity
8
SK2
62
256
6
ByLayer
370
13
48
1
60
0
100
AcDbDimension
2
DimnDraft3D5
10
29.1791
20
-21.343428
30
0
11
-5.560224
21
-21.343428
31
0
70
32
71
5
72
1
41
1
210
0
220
0
230
1
3
Standard
100
AcDbAlignedDimension
13
-36
23
-4.5875
33
0
14
29.1791
24
-4.3875
34
0
50
0
100
AcDbRotatedDimension
1001
ACAD
1000
DSTYLE
1002
{
1070
   279
1070
     0
1070
   172
1070
     1
1070
   173
1070
     1
1070
   340
1005
DC
1070
   271
1070
     2
1070
   272
1070
     2
1070
    77
1070
     1
1070
    73
1070
     0
1070
   171
1070
     3
1070
   274
1070
     4
1070
   177
1070
    35
1070
   176
1070
    35
1070
   178
1070
    35
1070
    48
1040
-0.005
1070
    41
1041
3.5
1070
   147
1041
1.75
1070
    42
1041
1.5875
1070
    44
1041
2.0
1070
   140
1041
3.5
1070
   343
1005
0
1070
   344
1005
0
1002
}
0
DIMENSION
5
11B
100
AcDbEntity
8
SK2
62
256
6
ByLayer
370
13
48
1
60
0
100
AcDbDimension
2
DimnDraft3D6
10
-46.625163
20
3
30
0
11
-47.250163
21
21.47418
31
0
70
33
71
5
72
1
41
1
210
0
220
0
230
1
3
Standard
100
AcDbAlignedDimension
13
-37.5875
23
-3
33
0
14
-37.5875
24
3
34
0
1001
ACAD
1000
DSTYLE
1002
{
1070
   279
1070
     0
1070
    74
1070
     0
1070
   173
1070
     1
1070
   340
1005
DC
1070
   271
1070
     3
1070
   272
1070
     2
1070
    77
1070
     1
1070
    73
1070
     0
1070
   171
1070
     3
1070
   274
1070
     4
1070
   177
1070
    35
1070
   176
1070
    35
1070
   178
1070
    35
1070
    48
1040
-0.005
1070
    41
1041
3.5
1070
   147
1041
1.75
1070
    42
1041
1.5875
1070
    44
1041
2.0
1070
   140
1041
3.5
1070
   343
1005
0
1070
   344
1005
0
1002
}
0
DIMENSION
5
126
100
AcDbEntity
8
2
62
256
6
ByLayer
370
13
48
1
60
0
100
AcDbDimension
2
DimnDraft3D7
10
44.083343
20
2.8
30
0
11
39.458343
21
19.867266
31
0
70
33
71
5
72
1
41
1
210
0
220
0
230
1
3
Standard
100
AcDbAlignedDimension
13
30.7666
23
-2.8
33
0
14
30.7666
24
2.8
34
0
1001
ACAD
1000
DSTYLE
1002
{
1070
   279
1070
     0
1070
    74
1070
     0
1070
   173
1070
     1
1070
   340
1005
DC
1070
   271
1070
     3
1070
   272
1070
     2
1070
    77
1070
     1
1070
    73
1070
     0
1070
   171
1070
     3
1070
   274
1070
     4
1070
   177
1070
    35
1070
   176
1070
    35
1070
   178
1070
    35
1070
    48
1040
-0.005
1070
    41
1041
3.5
1070
   147
1041
1.75
1070
    42
1041
1.5875
1070
    44
1041
2.0
1070
   140
1041
3.5
1070
   343
1005
0
1070
   344
1005
0
1002
}
0
ENDSEC
0
SECTION
2
OBJECTS
0
DICTIONARY
5
191
330
0
100
AcDbDictionary
280
0
281
1
3
ACAD_GROUP
350
192
3
ACAD_MLINESTYLE
350
193
0
DICTIONARY
5
192
330
0
100
AcDbDictionary
280
0
281
1
0
DICTIONARY
5
193
330
0
100
AcDbDictionary
280
0
281
1
3
Standard
350
18
0
MLINESTYLE
5
18
330
193
100
AcDbMlineStyle
2
Standard
70
0
3

62
256
51
90
52
90
71
2
49
-0.5
62
256
6
ByLayer
49
0.5
62
256
6
ByLayer
0
RASTERVARIABLES
5
17f
330

100
AcDbRasterVariables
90
0
70
1
71
1
72
1
0
ENDSEC
0
EOF
