0
SECTION
2
HEADER
9
$ACADVER
1
AC1015
9
$DWGCODEPAGE
3
ANSI_1252
9
$HANDSEED
5
1b4
9
$ANGBASE
50
0
9
$ANGDIR
70
0
9
$ATTMODE
70
1
9
$AUNITS
70
0
9
$AUPREC
70
0
9
$CECOLOR
62
256
9
$CELTSCALE
40
1
9
$CELTYPE
6
ByLayer
9
$CELWEIGHT
370
18
9
$CLAYER
8
0
9
$CMLJUST
70
0
9
$CMLSCALE
40
1
9
$CMLSTYLE
2
Standard
9
$DIMSTYLE
2
Standard
9
$TEXTSIZE
40
0.2
9
$TEXTSTYLE
7
Standard
9
$LUNITS
70
2
9
$LUPREC
70
4
9
$EXTNAMES
290
1
9
$INSUNITS
70
4
9
$LTSCALE
40
1
9
$LWDISPLAY
290
1
9
$PDMODE
70
0
9
$PDSIZE
40
0
9
$PLINEGEN
70
0
0
ENDSEC
0
SECTION
2
CLASSES
0
CLASS
1
RASTERVARIABLES
2
AcDbRasterVariables
3
ISM
90
0
280
0
281
0
0
ENDSEC
0
SECTION
2
TABLES
0
TABLE
2
VPORT
5
1aa
100
AcDbSymbolTable
0
VPORT
5
1
100
AcDbSymbolTableRecord
100
AcDbViewportTableRecord
2
*Active
70
0
10
0
20
0
11
1
21
1
12
-1
22
1
13
0
23
0
14
0.5
24
0.5
15
10
25
10
16
0
26
0
36
1
17
0
27
0
37
0
0
ENDTAB
0
TABLE
2
LTYPE
5
1ab
100
AcDbSymbolTable
0
LTYPE
5
14
100
AcDbSymbolTableRecord
100
AcDbLinetypeTableRecord
70
0
2
ByBlock
3

72
65
73
0
40
0
0
LTYPE
5
15
100
AcDbSymbolTableRecord
100
AcDbLinetypeTableRecord
70
0
2
ByLayer
3

72
65
73
0
40
0
0
LTYPE
5
16
100
AcDbSymbolTableRecord
100
AcDbLinetypeTableRecord
70
0
2
CONTINUOUS
3
Solid line
72
65
73
0
40
0
0
LTYPE
5
6A
100
AcDbSymbolTableRecord
100
AcDbLinetypeTableRecord
70
0
2
CENTER
3
____ _ ____ _ ____ _ ____
72
65
73
4
40
47.5
49
22
74
0
49
-8.5
74
0
49
8.5
74
0
49
-8.5
74
0
0
LTYPE
5
6B
100
AcDbSymbolTableRecord
100
AcDbLinetypeTableRecord
70
0
2
DASHED
3
__ __ __ __ __ __ __ __ __
72
65
73
2
40
25.72
49
12.86
74
0
49
-12.86
74
0
0
ENDTAB
0
TABLE
2
LAYER
5
1ac
100
AcDbSymbolTable
0
LAYER
5
10
100
AcDbSymbolTableRecord
100
AcDbLayerTableRecord
2
0
70
0
62
7
6
CONTINUOUS
290
1
370
-3
390
0
0
LAYER
5
6D
100
AcDbSymbolTableRecord
100
AcDbLayerTableRecord
2
81
70
0
62
-3
6
CONTINUOUS
290
1
370
-3
390
0
0
LAYER
5
6F
100
AcDbSymbolTableRecord
100
AcDbLayerTableRecord
2
80
70
0
62
-6
6
CONTINUOUS
290
1
370
-3
390
0
0
LAYER
5
74
100
AcDbSymbolTableRecord
100
AcDbLayerTableRecord
2
2
70
0
62
7
6
CONTINUOUS
290
1
370
-3
390
0
0
LAYER
5
78
100
AcDbSymbolTableRecord
100
AcDbLayerTableRecord
2
1
70
0
62
4
6
CONTINUOUS
290
1
370
-3
390
0
0
LAYER
5
8C
100
AcDbSymbolTableRecord
100
AcDbLayerTableRecord
2
4
70
0
62
-2
6
CENTER
290
1
370
-3
390
0
0
LAYER
5
196
100
AcDbSymbolTableRecord
100
AcDbLayerTableRecord
2
SK2
70
0
62
7
6
CONTINUOUS
290
1
370
-3
390
0
0
LAYER
5
197
100
AcDbSymbolTableRecord
100
AcDbLayerTableRecord
2
SK1
70
0
62
4
6
CONTINUOUS
290
1
370
-3
390
0
0
LAYER
5
198
100
AcDbSymbolTableRecord
100
AcDbLayerTableRecord
2
SK4
70
0
62
2
6
CENTER
290
1
370
-3
390
0
0
LAYER
5
199
100
AcDbSymbolTableRecord
100
AcDbLayerTableRecord
2
SK6
70
0
62
5
6
CONTINUOUS
290
1
370
-3
390
0
0
ENDTAB
0
TABLE
2
STYLE
5
1ad
100
AcDbSymbolTable
0
STYLE
5
11
100
AcDbSymbolTableRecord
100
AcDbTextStyleTableRecord
2
Standard
3
txt
70
0
71
0
40
0
41
1
42
0
50
0
0
STYLE
5
F2
100
AcDbSymbolTableRecord
100
AcDbTextStyleTableRecord
2
iso_b_vert
3
simplex.shx
70
0
71
0
40
0
41
1
42
0
50
0
0
STYLE
5
F3
100
AcDbSymbolTableRecord
100
AcDbTextStyleTableRecord
2
DWGDirectTextStyle
3
simplex
70
0
71
0
40
0
41
1
42
0
50
0
0
ENDTAB
0
TABLE
2
DIMSTYLE
5
1ae
100
AcDbSymbolTable
100
AcDbDimStyleTable
0
DIMSTYLE
105
27
100
AcDbSymbolTableRecord
100
AcDbDimStyleTableRecord
2
Standard
70
0
3
<>
41
0.18
42
0.0625
44
0.18
140
0.18
147
0.09
73
0
74
0
77
1
271
2
275
0
278
52
280
0
340
11
0
ENDTAB
0
TABLE
2
VIEW
5
1af
100
AcDbSymbolTable
0
ENDTAB
0
TABLE
2
UCS
5
1b0
100
AcDbSymbolTable
0
ENDTAB
0
TABLE
2
APPID
5
1b1
100
AcDbSymbolTable
0
APPID
5
12
100
AcDbSymbolTableRecord
100
AcDbRegAppTableRecord
2
ACAD
70
0
0
ENDTAB
0
TABLE
2
BLOCK_RECORD
5
1b2
100
AcDbSymbolTable
0
BLOCK_RECORD
5
1F
100
AcDbSymbolTableRecord
100
AcDbBlockTableRecord
2
*Model_Space
340
0
70
0
0
BLOCK_RECORD
5
1B
100
AcDbSymbolTableRecord
100
AcDbBlockTableRecord
2
*Paper_Space
340
0
70
0
0
BLOCK_RECORD
5
23
100
AcDbSymbolTableRecord
100
AcDbBlockTableRecord
2
*Paper_Space0
340
0
70
0
0
BLOCK_RECORD
5
F5
100
AcDbSymbolTableRecord
100
AcDbBlockTableRecord
2
DimnDraft3D1
340
0
70
0
0
BLOCK_RECORD
5
FF
100
AcDbSymbolTableRecord
100
AcDbBlockTableRecord
2
DimnDraft3D2
340
0
70
0
0
BLOCK_RECORD
5
109
100
AcDbSymbolTableRecord
100
AcDbBlockTableRecord
2
DimnDraft3D3
340
0
70
0
0
BLOCK_RECORD
5
113
100
AcDbSymbolTableRecord
100
AcDbBlockTableRecord
2
DimnDraft3D4
340
0
70
0
0
BLOCK_RECORD
5
11D
100
AcDbSymbolTableRecord
100
AcDbBlockTableRecord
2
DimnDraft3D5
340
0
70
0
0
BLOCK_RECORD
5
127
100
AcDbSymbolTableRecord
100
AcDbBlockTableRecord
2
DimnDraft3D6
340
0
70
0
0
BLOCK_RECORD
5
132
100
AcDbSymbolTableRecord
100
AcDbBlockTableRecord
2
DimnDraft3D7
340
0
70
0
0
ENDTAB
0
ENDSEC
0
SECTION
2
BLOCKS
0
BLOCK
5
20
100
AcDbEntity
8
0
100
AcDbBlockBegin
2
*Model_Space
70
0
10
0
20
0
30
0
3
*Model_Space
0
ENDBLK
5
21
100
AcDbEntity
8
0
100
AcDbBlockEnd
0
BLOCK
5
1C
100
AcDbEntity
8
0
100
AcDbBlockBegin
2
*Paper_Space
70
0
10
0
20
0
30
0
3
*Paper_Space
0
ENDBLK
5
1D
100
AcDbEntity
8
0
100
AcDbBlockEnd
0
BLOCK
5
24
100
AcDbEntity
8
0
100
AcDbBlockBegin
2
*Paper_Space0
70
0
10
0
20
0
30
0
3
*Paper_Space0
0
ENDBLK
5
25
100
AcDbEntity
8
0
100
AcDbBlockEnd
0
BLOCK
5
FC
100
AcDbEntity
8
0
100
AcDbBlockBegin
2
DimnDraft3D1
70
0
10
0
20
0
30
0
3
DimnDraft3D1
0
MTEXT
5
F6
100
AcDbEntity
8
SK2
62
256
6
ByLayer
370
13
48
1
60
0
100
AcDbMText
10
28.070875
20
-11.838398
30
0
210
0
220
0
230
1
1
\W0.7317;67,27
40
3.5
41
0
44
1.084337
50
0
71
7
72
5
7
iso_b_vert
0
LINE
5
F7
100
AcDbEntity
8
SK2
62
256
6
ByLayer
370
13
48
1
60
0
100
AcDbLine
10
0
20
-1.5875
30
0
11
0
21
-14.713398
31
0
39
0
210
0
220
0
230
1
0
LINE
5
F8
100
AcDbEntity
8
SK2
62
256
6
ByLayer
370
13
48
1
60
0
100
AcDbLine
10
67.2695
20
-4.0875
30
0
11
67.2695
21
-14.713398
31
0
39
0
210
0
220
0
230
1
0
LINE
5
F9
100
AcDbEntity
8
SK2
62
256
6
ByLayer
370
13
48
1
60
0
100
AcDbLine
10
0
20
-12.713398
30
0
11
67.2695
21
-12.713398
31
0
39
0
210
0
220
0
230
1
0
SOLID
5
FA
100
AcDbEntity
8
SK2
62
256
6
ByLayer
370
13
48
1
60
0
100
AcDbTrace
10
0
20
-12.713398
30
0
11
3.499998
21
-12.252615
31
0
12
3.500002
22
-13.174182
32
0
13
0
23
-12.713398
33
0
39
0
210
0
220
0
230
1
0
SOLID
5
FB
100
AcDbEntity
8
SK2
62
256
6
ByLayer
370
13
48
1
60
0
100
AcDbTrace
10
67.2695
20
-12.713398
30
0
11
63.769502
21
-13.174182
31
0
12
63.769498
22
-12.252615
32
0
13
67.2695
23
-12.713398
33
0
39
0
210
0
220
0
230
1
0
ENDBLK
5
FD
100
AcDbEntity
8
0
100
AcDbBlockEnd
0
BLOCK
5
106
100
AcDbEntity
8
0
100
AcDbBlockBegin
2
DimnDraft3D2
70
0
10
0
20
0
30
0
3
DimnDraft3D2
0
MTEXT
5
100
100
AcDbEntity
8
SK2
62
256
6
ByLayer
370
13
48
1
60
0
100
AcDbMText
10
11.107511
20
-30.817985
30
0
210
0
220
0
230
1
1
\W0.7145;104,00
40
3.5
41
0
44
1.084337
50
0
71
7
72
5
7
iso_b_vert
0
LINE
5
101
100
AcDbEntity
8
SK2
62
256
6
ByLayer
370
13
48
1
60
0
100
AcDbLine
10
-36
20
-4.5875
30
0
11
-36
21
-33.692985
31
0
39
0
210
0
220
0
230
1
0
LINE
5
102
100
AcDbEntity
8
SK2
62
256
6
ByLayer
370
13
48
1
60
0
100
AcDbLine
10
68
20
-1.5875
30
0
11
68
21
-33.692985
31
0
39
0
210
0
220
0
230
1
0
LINE
5
103
100
AcDbEntity
8
SK2
62
256
6
ByLayer
370
13
48
1
60
0
100
AcDbLine
10
-36
20
-31.692985
30
0
11
68
21
-31.692985
31
0
39
0
210
0
220
0
230
1
0
SOLID
5
104
100
AcDbEntity
8
SK2
62
256
6
ByLayer
370
13
48
1
60
0
100
AcDbTrace
10
-36
20
-31.692985
30
0
11
-32.500002
21
-31.232202
31
0
12
-32.499998
22
-32.153769
32
0
13
-36
23
-31.692985
33
0
39
0
210
0
220
0
230
1
0
SOLID
5
105
100
AcDbEntity
8
SK2
62
256
6
ByLayer
370
13
48
1
60
0
100
AcDbTrace
10
68
20
-31.692985
30
0
11
64.500002
21
-32.153769
31
0
12
64.499998
22
-31.232202
32
0
13
68
23
-31.692985
33
0
39
0
210
0
220
0
230
1
0
ENDBLK
5
107
100
AcDbEntity
8
0
100
AcDbBlockEnd
0
BLOCK
5
110
100
AcDbEntity
8
0
100
AcDbBlockBegin
2
DimnDraft3D3
70
0
10
0
20
0
30
0
3
DimnDraft3D3
0
MTEXT
5
10A
100
AcDbEntity
8
SK2
62
256
6
ByLayer
370
13
48
1
60
0
100
AcDbMText
10
43.002105
20
14.984119
30
0
210
0
220
0
230
1
1
\W0.7581;40,73
40
3.5
41
0
44
1.084337
50
0
71
7
72
5
7
iso_b_vert
0
LINE
5
10B
100
AcDbEntity
8
SK2
62
256
6
ByLayer
370
13
48
1
60
0
100
AcDbLine
10
27.27
20
4.0875
30
0
11
27.27
21
16.109119
31
0
39
0
210
0
220
0
230
1
0
LINE
5
10C
100
AcDbEntity
8
SK2
62
256
6
ByLayer
370
13
48
1
60
0
100
AcDbLine
10
68
20
1.5875
30
0
11
68
21
16.109119
31
0
39
0
210
0
220
0
230
1
0
LINE
5
10D
100
AcDbEntity
8
SK2
62
256
6
ByLayer
370
13
48
1
60
0
100
AcDbLine
10
27.27
20
14.109119
30
0
11
68
21
14.109119
31
0
39
0
210
0
220
0
230
1
0
SOLID
5
10E
100
AcDbEntity
8
SK2
62
256
6
ByLayer
370
13
48
1
60
0
100
AcDbTrace
10
27.27
20
14.109119
30
0
11
30.769998
21
14.569903
31
0
12
30.770002
22
13.648335
32
0
13
27.27
23
14.109119
33
0
39
0
210
0
220
0
230
1
0
SOLID
5
10F
100
AcDbEntity
8
SK2
62
256
6
ByLayer
370
13
48
1
60
0
100
AcDbTrace
10
68
20
14.109119
30
0
11
64.500002
21
13.648335
31
0
12
64.499998
22
14.569903
32
0
13
68
23
14.109119
33
0
39
0
210
0
220
0
230
1
0
ENDBLK
5
111
100
AcDbEntity
8
0
100
AcDbBlockEnd
0
BLOCK
5
11A
100
AcDbEntity
8
0
100
AcDbBlockBegin
2
DimnDraft3D4
70
0
10
0
20
0
30
0
3
DimnDraft3D4
0
MTEXT
5
114
100
AcDbEntity
8
SK2
62
256
6
ByLayer
370
13
48
1
60
0
100
AcDbMText
10
74.840636
20
-14.427503
30
0
210
0
220
0
230
1
1
\W0.7150;0,73
40
3.5
41
0
44
1.084337
50
0
71
7
72
5
7
iso_b_vert
0
LINE
5
115
100
AcDbEntity
8
SK2
62
256
6
ByLayer
370
13
48
1
60
0
100
AcDbLine
10
68
20
-1.5875
30
0
11
68
21
-17.302503
31
0
39
0
210
0
220
0
230
1
0
LINE
5
116
100
AcDbEntity
8
SK2
62
256
6
ByLayer
370
13
48
1
60
0
100
AcDbLine
10
67.2695
20
-4.0875
30
0
11
67.2695
21
-17.302503
31
0
39
0
210
0
220
0
230
1
0
LINE
5
117
100
AcDbEntity
8
SK2
62
256
6
ByLayer
370
13
48
1
60
0
100
AcDbLine
10
58.5195
20
-15.302503
30
0
11
81.997215
21
-15.302503
31
0
39
0
210
0
220
0
230
1
0
SOLID
5
118
100
AcDbEntity
8
SK2
62
256
6
ByLayer
370
13
48
1
60
0
100
AcDbTrace
10
68
20
-15.302503
30
0
11
71.499998
21
-14.841719
31
0
12
71.500002
22
-15.763287
32
0
13
68
23
-15.302503
33
0
39
0
210
0
220
0
230
1
0
SOLID
5
119
100
AcDbEntity
8
SK2
62
256
6
ByLayer
370
13
48
1
60
0
100
AcDbTrace
10
67.2695
20
-15.302503
30
0
11
63.769502
21
-15.763287
31
0
12
63.769498
22
-14.841719
32
0
13
67.2695
23
-15.302503
33
0
39
0
210
0
220
0
230
1
0
ENDBLK
5
11B
100
AcDbEntity
8
0
100
AcDbBlockEnd
0
BLOCK
5
124
100
AcDbEntity
8
0
100
AcDbBlockBegin
2
DimnDraft3D5
70
0
10
0
20
0
30
0
3
DimnDraft3D5
0
MTEXT
5
11E
100
AcDbEntity
8
SK2
62
256
6
ByLayer
370
13
48
1
60
0
100
AcDbMText
10
8.211097
20
-20.468428
30
0
210
0
220
0
230
1
1
\W0.6930;103,27
40
3.5
41
0
44
1.084337
50
0
71
7
72
5
7
iso_b_vert
0
LINE
5
11F
100
AcDbEntity
8
SK2
62
256
6
ByLayer
370
13
48
1
60
0
100
AcDbLine
10
-36
20
-4.5875
30
0
11
-36
21
-23.343428
31
0
39
0
210
0
220
0
230
1
0
LINE
5
120
100
AcDbEntity
8
SK2
62
256
6
ByLayer
370
13
48
1
60
0
100
AcDbLine
10
67.2695
20
-4.0875
30
0
11
67.2695
21
-23.343428
31
0
39
0
210
0
220
0
230
1
0
LINE
5
121
100
AcDbEntity
8
SK2
62
256
6
ByLayer
370
13
48
1
60
0
100
AcDbLine
10
-36
20
-21.343428
30
0
11
67.2695
21
-21.343428
31
0
39
0
210
0
220
0
230
1
0
SOLID
5
122
100
AcDbEntity
8
SK2
62
256
6
ByLayer
370
13
48
1
60
0
100
AcDbTrace
10
-36
20
-21.343428
30
0
11
-32.500002
21
-20.882645
31
0
12
-32.499998
22
-21.804212
32
0
13
-36
23
-21.343428
33
0
39
0
210
0
220
0
230
1
0
SOLID
5
123
100
AcDbEntity
8
SK2
62
256
6
ByLayer
370
13
48
1
60
0
100
AcDbTrace
10
67.2695
20
-21.343428
30
0
11
63.769502
21
-21.804212
31
0
12
63.769498
22
-20.882645
32
0
13
67.2695
23
-21.343428
33
0
39
0
210
0
220
0
230
1
0
ENDBLK
5
125
100
AcDbEntity
8
0
100
AcDbBlockEnd
0
BLOCK
5
12F
100
AcDbEntity
8
0
100
AcDbBlockBegin
2
DimnDraft3D6
70
0
10
0
20
0
30
0
3
DimnDraft3D6
0
MTEXT
5
128
100
AcDbEntity
8
SK2
62
256
6
ByLayer
370
13
48
1
60
0
100
AcDbMText
10
-46.375163
20
22.34918
30
0
210
0
220
0
230
1
1
\W0.7317;6,000
40
3.5
41
0
44
1.084337
50
90
71
7
72
5
7
iso_b_vert
0
MTEXT
5
129
100
AcDbEntity
8
SK2
62
256
6
ByLayer
370
13
48
1
60
0
100
AcDbMText
10
-46.375163
20
17.126524
30
0
210
0
220
0
230
1
1
%%c
40
3.5
41
0
44
1.084337
50
90
71
7
72
5
7
iso_b_vert
0
LINE
5
12A
100
AcDbEntity
8
SK2
62
256
6
ByLayer
370
13
48
1
60
0
100
AcDbLine
10
-37.5875
20
-3
30
0
11
-46.625163
21
-3
31
0
39
0
210
0
220
0
230
1
0
LINE
5
12B
100
AcDbEntity
8
SK2
62
256
6
ByLayer
370
13
48
1
60
0
100
AcDbLine
10
-37.5875
20
3
30
0
11
-46.625163
21
3
31
0
39
0
210
0
220
0
230
1
0
LINE
5
12C
100
AcDbEntity
8
SK2
62
256
6
ByLayer
370
13
48
1
60
0
100
AcDbLine
10
-44.625163
20
32.121549
30
0
11
-44.625163
21
-11.75
31
0
39
0
210
0
220
0
230
1
0
SOLID
5
12D
100
AcDbEntity
8
SK2
62
256
6
ByLayer
370
13
48
1
60
0
100
AcDbTrace
10
-44.625163
20
-3
30
0
11
-44.164379
21
-6.499998
31
0
12
-45.085946
22
-6.500002
32
0
13
-44.625163
23
-3
33
0
39
0
210
0
220
0
230
1
0
SOLID
5
12E
100
AcDbEntity
8
SK2
62
256
6
ByLayer
370
13
48
1
60
0
100
AcDbTrace
10
-44.625163
20
3
30
0
11
-45.085946
21
6.499998
31
0
12
-44.164379
22
6.500002
32
0
13
-44.625163
23
3
33
0
39
0
210
0
220
0
230
1
0
ENDBLK
5
130
100
AcDbEntity
8
0
100
AcDbBlockEnd
0
BLOCK
5
13A
100
AcDbEntity
8
0
100
AcDbBlockBegin
2
DimnDraft3D7
70
0
10
0
20
0
30
0
3
DimnDraft3D7
0
MTEXT
5
133
100
AcDbEntity
8
2
62
256
6
ByLayer
370
13
48
1
60
0
100
AcDbMText
10
78.333343
20
20.442266
30
0
210
0
220
0
230
1
1
\W0.7317;5,000
40
3.5
41
0
44
1.084337
50
90
71
7
72
5
7
iso_b_vert
0
MTEXT
5
134
100
AcDbEntity
8
2
62
256
6
ByLayer
370
13
48
1
60
0
100
AcDbMText
10
78.333343
20
15.21961
30
0
210
0
220
0
230
1
1
%%c
40
3.5
41
0
44
1.084337
50
90
71
7
72
5
7
iso_b_vert
0
LINE
5
135
100
AcDbEntity
8
2
62
256
6
ByLayer
370
13
48
1
60
0
100
AcDbLine
10
68.857
20
-2.5
30
0
11
82.083343
21
-2.5
31
0
39
0
210
0
220
0
230
1
0
LINE
5
136
100
AcDbEntity
8
2
62
256
6
ByLayer
370
13
48
1
60
0
100
AcDbLine
10
68.857
20
2.5
30
0
11
82.083343
21
2.5
31
0
39
0
210
0
220
0
230
1
0
LINE
5
137
100
AcDbEntity
8
2
62
256
6
ByLayer
370
13
48
1
60
0
100
AcDbLine
10
80.083343
20
30.214635
30
0
11
80.083343
21
-11.25
31
0
39
0
210
0
220
0
230
1
0
SOLID
5
138
100
AcDbEntity
8
2
62
256
6
ByLayer
370
13
48
1
60
0
100
AcDbTrace
10
80.083343
20
-2.5
30
0
11
80.544126
21
-5.999998
31
0
12
79.622559
22
-6.000002
32
0
13
80.083343
23
-2.5
33
0
39
0
210
0
220
0
230
1
0
SOLID
5
139
100
AcDbEntity
8
2
62
256
6
ByLayer
370
13
48
1
60
0
100
AcDbTrace
10
80.083343
20
2.5
30
0
11
79.622559
21
5.999998
31
0
12
80.544126
22
6.000002
32
0
13
80.083343
23
2.5
33
0
39
0
210
0
220
0
230
1
0
ENDBLK
5
13B
100
AcDbEntity
8
0
100
AcDbBlockEnd
0
ENDSEC
0
SECTION
2
ENTITIES
0
ELLIPSE
5
9B
100
AcDbEntity
8
1
62
256
6
ByLayer
370
18
48
1
60
0
100
AcDbEllipse
10
7.464725
20
2.588331
30
0
11
0.25
21
0
31
0
210
0
220
0
230
1
40
1
41
-2.59254848089715
42
-1.56449273228528
0
ELLIPSE
5
9C
100
AcDbEntity
8
1
62
256
6
ByLayer
370
18
48
1
60
0
100
AcDbEllipse
10
7.464725
20
-2.588331
30
0
11
0.25
21
0
31
0
210
0
220
0
230
1
40
1
41
1.57119798569454
42
2.59125641580389
0
POINT
5
6C
100
AcDbEntity
8
81
62
256
6
ByLayer
370
18
48
1
60
0
100
AcDbPoint
10
68
20
0
30
0
39
0
210
0
220
0
230
1
50
360
0
POINT
5
6E
100
AcDbEntity
8
80
62
256
6
ByLayer
370
18
48
1
60
0
100
AcDbPoint
10
0
20
0
30
0
39
0
210
0
220
0
230
1
50
360
0
POINT
5
70
100
AcDbEntity
8
SK2
62
256
6
ByLayer
370
18
48
1
60
1
100
AcDbPoint
10
-36
20
-3
30
0
39
0
210
0
220
0
230
1
50
360
0
POINT
5
72
100
AcDbEntity
8
SK2
62
256
6
ByLayer
370
18
48
1
60
1
100
AcDbPoint
10
-36
20
3
30
0
39
0
210
0
220
0
230
1
50
360
0
POINT
5
73
100
AcDbEntity
8
2
62
256
6
ByLayer
370
18
48
1
60
1
100
AcDbPoint
10
67.2695
20
-2.5
30
0
39
0
210
0
220
0
230
1
50
360
0
POINT
5
75
100
AcDbEntity
8
2
62
256
6
ByLayer
370
18
48
1
60
1
100
AcDbPoint
10
67.2695
20
2.5
30
0
39
0
210
0
220
0
230
1
50
360
0
SPLINE
5
9D
100
AcDbEntity
8
1
62
256
6
ByLayer
370
18
48
1
60
0
100
AcDbSpline
70
4
71
1
72
4
73
2
40
0
40
0
40
1
40
1
41
1
10
7.27688707182668
20
0.988103575592106
30
0
41
1
10
7.28207917782206
20
0.980685504498467
30
0
0
SPLINE
5
9E
100
AcDbEntity
8
1
62
256
6
ByLayer
370
18
48
1
60
0
100
AcDbSpline
70
4
71
3
72
24
73
20
40
0
40
0
40
0
40
0
40
0.0861891806758929
40
0.146085942880343
40
0.182469584548412
40
0.217550098362812
40
0.256239468832664
40
0.297761982503211
40
0.340600459238881
40
0.4590561524807
40
0.555944707287726
40
0.636261064478201
40
0.740811424415942
40
0.823023649268512
40
0.855234738427782
40
0.88497124361752
40
0.915812000195497
40
0.954018098631746
40
1
40
1
40
1
40
1
41
1
10
34.08194132209
20
-2.35402761991134
30
0
41
1
10
34.2462155744723
20
-2.35415481717405
30
0
41
1
10
34.5245518659466
20
-2.354358712361
30
0
41
1
10
34.872368046218
20
-2.35487427673735
30
0
41
1
10
35.1222356201877
20
-2.35490312729993
30
0
41
1
10
35.3322144191755
20
-2.35485269020833
30
0
41
1
10
35.5518851080336
20
-2.35478136095989
30
0
41
1
10
35.7861129166076
20
-2.35466251082718
30
0
41
1
10
36.1725178090596
20
-2.35466451348617
30
0
41
1
10
36.6646063298537
20
-2.35551148194492
30
0
41
1
10
37.2279786253078
20
-2.35653633831785
30
0
41
1
10
37.764936236922
20
-2.35726445952406
30
0
41
1
10
38.273906043459
20
-2.35575390434951
30
0
41
1
10
38.6912057983346
20
-2.3550405612219
30
0
41
1
10
38.9659325416234
20
-2.35608647144056
30
0
41
1
10
39.1426996205107
20
-2.35680497906057
30
0
41
1
10
39.3307729557464
20
-2.35718622355256
30
0
41
1
10
39.5500321539792
20
-2.35715969300836
30
0
41
1
10
39.7104528280947
20
-2.35754056136076
30
0
41
1
10
39.7980821724077
20
-2.35779162464311
30
0
0
SPLINE
5
9F
100
AcDbEntity
8
1
62
256
6
ByLayer
370
18
48
1
60
0
100
AcDbSpline
70
4
71
3
72
21
73
17
40
0
40
0
40
0
40
0
40
0.011760530484684
40
0.0674349032949905
40
0.12849221363632
40
0.203167999566462
40
0.281729351262939
40
0.378694743238224
40
0.463139900705544
40
0.560819918675825
40
0.693976673420805
40
0.804928708510671
40
0.899376024010437
40
0.943354911664636
40
0.986695406358928
40
1
40
1
40
1
40
1
41
1
10
23.5010534958797
20
2.34792005676491
30
0
41
1
10
23.4841231205596
20
2.34793963767819
30
0
41
1
10
23.3870461642927
20
2.3480514810708
30
0
41
1
10
23.2021177171636
20
2.34830946059509
30
0
41
1
10
22.9266164853775
20
2.34852660188773
30
0
41
1
10
22.618141778646
20
2.3480006242072
30
0
41
1
10
22.2579607207839
20
2.34704831658527
30
0
41
1
10
21.8837213008367
20
2.34702037741539
30
0
41
1
10
21.4819774263675
20
2.34594295654776
30
0
41
1
10
21.028099032952
20
2.34634634786258
30
0
41
1
10
20.536069282629
20
2.34691384586319
30
0
41
1
10
20.0486915493734
20
2.34625805274328
30
0
41
1
10
19.6896944074061
20
2.34478590107281
30
0
41
1
10
19.428026637492
20
2.34482144203369
30
0
41
1
10
19.2831711780943
20
2.34481945637683
30
0
41
1
10
19.2016261276108
20
2.34483093297399
30
0
41
1
10
19.1824731655358
20
2.34483404080504
30
0
0
SPLINE
5
A0
100
AcDbEntity
8
1
62
256
6
ByLayer
370
18
48
1
60
0
100
AcDbSpline
70
4
71
1
72
4
73
2
40
0
40
0
40
1
40
1
41
1
10
66.7980516896393
20
-2.37482004398979
30
0
41
1
10
67.1248284682145
20
-2.37493062255007
30
0
0
SPLINE
5
A1
100
AcDbEntity
8
1
62
256
6
ByLayer
370
18
48
1
60
0
100
AcDbSpline
70
4
71
3
72
21
73
17
40
0
40
0
40
0
40
0
40
0.0066302676766626
40
0.0633699771286076
40
0.123791835381949
40
0.195198148588966
40
0.26901346283013
40
0.357787360408004
40
0.433567588655326
40
0.520793620132927
40
0.627331304149025
40
0.72760246826751
40
0.805367791183234
40
0.874358381939582
40
0.940083156333433
40
1
40
1
40
1
40
1
41
1
10
39.8572730653891
20
2.35789048558476
30
0
41
1
10
39.8475556598201
20
2.35787437602355
30
0
41
1
10
39.7546814399613
20
2.35772188519456
30
0
41
1
10
39.5733459804065
20
2.35715771884901
30
0
41
1
10
39.2970155070972
20
2.35730054135158
30
0
41
1
10
38.99561956985
20
2.35622756631395
30
0
41
1
10
38.6526789286039
20
2.35492056605918
30
0
41
1
10
38.303323336344
20
2.355818855818
30
0
41
1
10
37.9343148345029
20
2.35667364506278
30
0
41
1
10
37.5392721769569
20
2.35732135805881
30
0
41
1
10
37.108338080188
20
2.355968205588
30
0
41
1
10
36.691264793666
20
2.35567559969752
30
0
41
1
10
36.3292226347263
20
2.35499192578783
30
0
41
1
10
36.0178099892024
20
2.35462929009105
30
0
41
1
10
35.7325577964171
20
2.35468607626541
30
0
41
1
10
35.5484144283654
20
2.35481433452264
30
0
41
1
10
35.4606021195929
20
2.35486067443318
30
0
0
SPLINE
5
A2
100
AcDbEntity
8
1
62
256
6
ByLayer
370
18
48
1
60
0
100
AcDbSpline
70
4
71
2
72
6
73
3
40
0
40
0
40
0
40
1
40
1
40
1
41
1
10
7.46545150428869
20
-2.33826161770335
30
0
41
1
10
7.58854469665536
20
-2.33873795454102
30
0
41
1
10
7.71162903544379
20
-2.33893145396402
30
0
0
SPLINE
5
A3
100
AcDbEntity
8
1
62
256
6
ByLayer
370
18
48
1
60
0
100
AcDbSpline
70
4
71
3
72
21
73
17
40
0
40
0
40
0
40
0
40
0.0047457911750604
40
0.0626480733066899
40
0.123358783867854
40
0.193278140277833
40
0.264182885460537
40
0.350507573999508
40
0.42897772987833
40
0.52228918728023
40
0.630325832952425
40
0.726289160787505
40
0.796897402862104
40
0.86261478403466
40
0.929453067346713
40
1
40
1
40
1
40
1
41
1
10
56.2076474461402
20
2.36705062093273
30
0
41
1
10
56.2006929945204
20
2.36703731435384
30
0
41
1
10
56.1088905182805
20
2.36686536355126
30
0
41
1
10
55.9282388060371
20
2.36655041783513
30
0
41
1
10
55.6520376167358
20
2.36657544231451
30
0
41
1
10
55.3567211001249
20
2.36575160002579
30
0
41
1
10
55.0238584114801
20
2.36524416614711
30
0
41
1
10
54.6784701610537
20
2.36557839317768
30
0
41
1
10
54.300256985437
20
2.36596188555356
30
0
41
1
10
53.8902116611084
20
2.36653360982515
30
0
41
1
10
53.4545394696418
20
2.36476955064498
30
0
41
1
10
53.0521292296911
20
2.36506487129162
30
0
41
1
10
52.7117390512697
20
2.36527956630494
30
0
41
1
10
52.414023134004
20
2.36532812279546
30
0
41
1
10
52.1163992215908
20
2.36532368493545
30
0
41
1
10
51.9150797563997
20
2.36494823653877
30
0
41
1
10
51.8117059896471
20
2.36479228125572
30
0
0
SPLINE
5
A4
100
AcDbEntity
8
1
62
256
6
ByLayer
370
18
48
1
60
0
100
AcDbSpline
70
4
71
3
72
24
73
20
40
0
40
0
40
0
40
0
40
0.0926562665346983
40
0.152766358984551
40
0.192593688870357
40
0.23791243865178
40
0.288436785567611
40
0.339047232842589
40
0.451886624489106
40
0.542261528019247
40
0.596112802946039
40
0.668609413915024
40
0.753401724279523
40
0.816727368584799
40
0.849557162040656
40
0.879678894799021
40
0.910664191026495
40
0.949514700654308
40
1
40
1
40
1
40
1
41
1
10
17.7263711051679
20
-2.34395346425853
30
0
41
1
10
17.9028058338786
20
-2.34415449476214
30
0
41
1
10
18.1936973774477
20
-2.34443401770162
30
0
41
1
10
18.5604386915197
20
-2.34484301288293
30
0
41
1
10
18.8370091819306
20
-2.34489192267478
30
0
41
1
10
19.0953422224153
20
-2.34484903413357
30
0
41
1
10
19.3742161429055
20
-2.34481007823464
30
0
41
1
10
19.7816647456374
20
-2.34476707707458
30
0
41
1
10
20.2649764716823
20
-2.34701678076891
30
0
41
1
10
20.7544819266432
20
-2.34667467723051
30
0
41
1
10
21.1671582583149
20
-2.34618354816803
30
0
41
1
10
21.5692084930979
20
-2.34605446324724
30
0
41
1
10
21.9892997238684
20
-2.34712437272319
30
0
41
1
10
22.3338519641391
20
-2.34723344040475
30
0
41
1
10
22.5743137804503
20
-2.34785291471448
30
0
41
1
10
22.7530767702274
20
-2.34826754119402
30
0
41
1
10
22.9430454465821
20
-2.34838510596296
30
0
41
1
10
23.1722628075285
20
-2.34824844293541
30
0
41
1
10
23.342336556751
20
-2.34807114150945
30
0
41
1
10
23.438473075429
20
-2.3479284940492
30
0
0
SPLINE
5
A5
100
AcDbEntity
8
1
62
256
6
ByLayer
370
18
48
1
60
0
100
AcDbSpline
70
4
71
2
72
6
73
3
40
0
40
0
40
0
40
1
40
1
40
1
41
1
10
7.71162903544951
20
2.33893145396414
30
0
41
1
10
7.58854469669066
20
2.33873795454119
30
0
41
1
10
7.46545150435361
20
2.33826161770361
30
0
0
SPLINE
5
A6
100
AcDbEntity
8
1
62
256
6
ByLayer
370
18
48
1
60
0
100
AcDbSpline
70
4
71
3
72
24
73
20
40
0
40
0
40
0
40
0
40
0.075630202669477
40
0.133156736940122
40
0.198652727813209
40
0.25273487755701
40
0.312938650401591
40
0.382003369507609
40
0.454791029444697
40
0.515078717192866
40
0.568594891280646
40
0.647358066726269
40
0.74834145623432
40
0.832673031894013
40
0.866938114929128
40
0.897800880305362
40
0.928656413112339
40
0.96645596120108
40
1
40
1
40
1
40
1
41
1
10
50.4301902134313
20
-2.36449539334427
30
0
41
1
10
50.5729785468577
20
-2.36456328519097
30
0
41
1
10
50.8244023134073
20
-2.36462127838797
30
0
41
1
10
51.1996307529533
20
-2.36452411707117
30
0
41
1
10
51.5340873512768
20
-2.36434637387868
30
0
41
1
10
51.873637700548
20
-2.36494618809471
30
0
41
1
10
52.2199398740386
20
-2.36536669236253
30
0
41
1
10
52.6015699391232
20
-2.36530446429038
30
0
41
1
10
52.9833547831623
20
-2.36516556952017
30
0
41
1
10
53.3357843319421
20
-2.36471599611423
30
0
41
1
10
53.6994354403127
20
-2.36592589335061
30
0
41
1
10
54.1399417628968
20
-2.36629445660577
30
0
41
1
10
54.6386618605717
20
-2.36556282685129
30
0
41
1
10
55.0533722282535
20
-2.36524155505785
30
0
41
1
10
55.3356910755404
20
-2.36574637070277
30
0
41
1
10
55.5166483472592
20
-2.36619905348019
30
0
41
1
10
55.7032426233121
20
-2.36627170955384
30
0
41
1
10
55.8966124602164
20
-2.36623514078312
30
0
41
1
10
56.0312659176675
20
-2.36649698044116
30
0
41
1
10
56.0946254265712
20
-2.36665544188688
30
0
0
SPLINE
5
A7
100
AcDbEntity
8
1
62
256
6
ByLayer
370
18
48
1
60
0
100
AcDbSpline
70
4
71
3
72
8
73
4
40
0
40
0
40
0
40
0
40
1
40
1
40
1
40
1
41
1
10
7.46550821868934
20
-2.32709698766215
30
0
41
1
10
7.70685082413539
20
-2.35233184978045
30
0
41
1
10
7.95830501178307
20
-2.33672106440676
30
0
41
1
10
8.22130159294514
20
-2.28872316218292
30
0
0
SPLINE
5
A8
100
AcDbEntity
8
1
62
256
6
ByLayer
370
18
48
1
60
0
100
AcDbSpline
70
4
71
3
72
36
73
32
40
0
40
0
40
0
40
0
40
0.0552302982420285
40
0.0552302982420285
40
0.0828454473630428
40
0.0828454473630428
40
0.110460596484057
40
0.110460596484057
40
0.22092119296811
40
0.22092119296811
40
0.331381789452163
40
0.331381789452163
40
0.441842385936216
40
0.441842385936216
40
0.552302982420269
40
0.552302982420269
40
0.607533280662297
40
0.607533280662297
40
0.662763578904324
40
0.662763578904324
40
0.773224175388378
40
0.773224175388378
40
0.800839324509391
40
0.800839324509391
40
0.828454473630405
40
0.828454473630405
40
0.883684771872431
40
0.883684771872431
40
0.994145368356481
40
0.994145368356481
40
1
40
1
40
1
40
1
41
1
10
67.1185528453813
20
-2.48650840927468
30
0
41
1
10
66.8057867462122
20
-2.50191826166142
30
0
41
1
10
66.4933896413617
20
-2.50370789703266
30
0
41
1
10
66.0240781580048
20
-2.4861408231682
30
0
41
1
10
65.8675201855569
20
-2.47690954077439
30
0
41
1
10
65.5539551244099
20
-2.45171688238244
30
0
41
1
10
65.3969876309154
20
-2.43574450059569
30
0
41
1
10
64.6155369691551
20
-2.33989559448347
30
0
41
1
10
63.9971227291098
20
-2.21167882752792
30
0
41
1
10
62.7590466901823
20
-1.86819054393402
30
0
41
1
10
62.1395123447319
20
-1.65271889070169
30
0
41
1
10
60.88422550507
20
-1.15456967929214
30
0
41
1
10
60.2640353942649
20
-0.878109749262308
30
0
41
1
10
59.0261460743374
20
-0.300778816806854
30
0
41
1
10
58.4077753690101
20
-0.000535796658454
30
0
41
1
10
57.4708116921248
20
0.445435263604708
30
0
41
1
10
57.156135461577
20
0.593436566387197
30
0
41
1
10
56.5321672687601
20
0.87876324908612
30
0
41
1
10
56.2217195700201
20
1.01684654502065
30
0
41
1
10
55.2920885737639
20
1.41190400179246
30
0
41
1
10
54.674714498472
20
1.64977682047115
30
0
41
1
10
53.8965414323077
20
1.89890415706128
30
0
41
1
10
53.7406027568236
20
1.94635559146408
30
0
41
1
10
53.4279382992837
20
2.036188930664
30
0
41
1
10
53.2708545131235
20
2.07861834170077
30
0
41
1
10
52.8007791667728
20
2.1968830192271
30
0
41
1
10
52.489242601172
20
2.26365142276958
30
0
41
1
10
51.5573454697178
20
2.42618210148805
30
0
41
1
10
50.9401825055862
20
2.48429337731542
30
0
41
1
10
50.2863792137221
20
2.48931694787561
30
0
41
1
10
50.2534624730937
20
2.48942049550229
30
0
41
1
10
50.2205362867942
20
2.48937451826214
30
0
0
SPLINE
5
A9
100
AcDbEntity
8
1
62
256
6
ByLayer
370
18
48
1
60
0
100
AcDbSpline
70
4
71
3
72
42
73
38
40
0
40
0
40
0
40
0
40
0.0051511125084354
40
0.0051511125084354
40
0.10921499051873
40
0.10921499051873
40
0.161246929523876
40
0.161246929523876
40
0.213278868529022
40
0.213278868529022
40
0.317342746539314
40
0.317342746539314
40
0.369374685544461
40
0.369374685544461
40
0.395390655047034
40
0.395390655047034
40
0.421406624549607
40
0.421406624549607
40
0.525470502559899
40
0.525470502559899
40
0.577502441565046
40
0.577502441565046
40
0.60351841106762
40
0.60351841106762
40
0.629534380570192
40
0.629534380570192
40
0.733598258580481
40
0.733598258580481
40
0.837662136590771
40
0.837662136590771
40
0.863678106093343
40
0.863678106093343
40
0.889694075595915
40
0.889694075595915
40
0.94172601460106
40
0.94172601460106
40
1
40
1
40
1
40
1
41
1
10
35.4685737196045
20
-2.36533649070304
30
0
41
1
10
35.4378388589545
20
-2.36972418559606
30
0
41
1
10
35.4071113335002
20
-2.37398675377233
30
0
41
1
10
34.7557553532341
20
-2.46169943381335
30
0
41
1
10
34.1377517209823
20
-2.49397410424808
30
0
41
1
10
33.2041379438911
20
-2.46235963660342
30
0
41
1
10
32.8915940883424
20
-2.43848615170023
30
0
41
1
10
32.2632363843823
20
-2.36405443509622
30
0
41
1
10
31.9510950747316
20
-2.31390959063245
30
0
41
1
10
31.0177008654641
20
-2.12802468473498
30
0
41
1
10
30.3994738896267
20
-1.95690459267453
30
0
41
1
10
29.4682423638041
20
-1.64201887840662
30
0
41
1
10
29.1570171517814
20
-1.52761309230669
30
0
41
1
10
28.6876705180217
20
-1.34375506054144
30
0
41
1
10
28.5305456887164
20
-1.28029337202625
30
0
41
1
10
28.2165690757072
20
-1.1500583123385
30
0
41
1
10
28.0600899196675
20
-1.08343465892472
30
0
41
1
10
27.2795129756484
20
-0.744303918851415
30
0
41
1
10
26.6606320827403
20
-0.454254267612157
30
0
41
1
10
25.7305406508183
20
-0.0127018872161386
30
0
41
1
10
25.4201148917067
20
0.135344511098026
30
0
41
1
10
24.9525868767626
20
0.35590344381265
30
0
41
1
10
24.7964291042361
20
0.429170536224916
30
0
41
1
10
24.4833042310968
20
0.57481479155453
30
0
41
1
10
24.3260054558672
20
0.647351666777126
30
0
41
1
10
23.5415441205741
20
1.0040253293314
30
0
41
1
10
22.9213090216606
20
1.26976364025813
30
0
41
1
10
21.681357838157
20
1.7368764538457
30
0
41
1
10
21.0615734145113
20
1.93811084321177
30
0
41
1
10
20.2781018962837
20
2.13474687109428
30
0
41
1
10
20.1206599377877
20
2.17139163441936
30
0
41
1
10
19.8070277663756
20
2.23838156228499
30
0
41
1
10
19.6506848894622
20
2.26879021734445
30
0
41
1
10
19.1826436358186
20
2.35050426104448
30
0
41
1
10
18.8719082620759
20
2.3922802991427
30
0
41
1
10
18.2139984539911
20
2.45336840544664
30
0
41
1
10
17.8670722932585
20
2.46938104458113
30
0
41
1
10
17.519472971462
20
2.46889260805594
30
0
0
SPLINE
5
AA
100
AcDbEntity
8
1
62
256
6
ByLayer
370
18
48
1
60
0
100
AcDbSpline
70
4
71
3
72
8
73
4
40
0
40
0
40
0
40
0
40
1
40
1
40
1
40
1
41
1
10
67.0934590912753
20
-2.36640591447255
30
0
41
1
10
67.1020601860575
20
-2.37236602817273
30
0
41
1
10
67.1117419474031
20
-2.37518882219223
30
0
41
1
10
67.1225451138978
20
-2.37492293954287
30
0
0
SPLINE
5
AB
100
AcDbEntity
8
1
62
256
6
ByLayer
370
13
48
1
60
0
100
AcDbSpline
70
4
71
3
72
8
73
4
40
0
40
0
40
0
40
0
40
1
40
1
40
1
40
1
41
1
10
7.46507421835418
20
0.928005004405179
30
0
41
1
10
7.42806858526905
20
0.93713836332347
30
0
41
1
10
7.39196629179798
20
0.949056944987348
30
0
41
1
10
7.35822221672117
20
0.963614584779265
30
0
0
SPLINE
5
AC
100
AcDbEntity
8
1
62
256
6
ByLayer
370
18
48
1
60
0
100
AcDbSpline
70
4
71
3
72
10
73
6
40
0
40
0
40
0
40
0
40
0.5
40
0.5
40
1
40
1
40
1
40
1
41
1
10
7.32213911961296
20
0.940394710171944
30
0
41
1
10
7.30108449111185
20
0.9539016049944
30
0
41
1
10
7.28306169445483
20
0.970863662629512
30
0
41
1
10
7.25665709438982
20
1.01067849504113
30
0
41
1
10
7.24842249342959
20
1.03338612420407
30
0
41
1
10
7.24842702340675
20
1.05664844829903
30
0
0
SPLINE
5
AD
100
AcDbEntity
8
1
62
256
6
ByLayer
370
18
48
1
60
0
100
AcDbSpline
70
4
71
3
72
8
73
4
40
0
40
0
40
0
40
0
40
1
40
1
40
1
40
1
41
1
10
67.2151846584921
20
2.403708445516
30
0
41
1
10
67.4410529323891
20
1.84017054430322
30
0
41
1
10
67.667153925973
20
1.27634101571425
30
0
41
1
10
67.8904901552867
20
0.710819189199896
30
0
0
SPLINE
5
AE
100
AcDbEntity
8
1
62
256
6
ByLayer
370
18
48
1
60
0
100
AcDbSpline
70
4
71
3
72
36
73
32
40
0
40
0
40
0
40
0
40
0.108742905667479
40
0.108742905667479
40
0.163114358501218
40
0.163114358501218
40
0.217485811334958
40
0.217485811334958
40
0.326228717002437
40
0.326228717002437
40
0.380600169836176
40
0.380600169836176
40
0.434971622669916
40
0.434971622669916
40
0.543714528337394
40
0.543714528337394
40
0.598085981171133
40
0.598085981171133
40
0.652457434004871
40
0.652457434004871
40
0.70682888683861
40
0.70682888683861
40
0.761200339672348
40
0.761200339672348
40
0.869943245339825
40
0.869943245339825
40
0.924314698173564
40
0.924314698173564
40
0.978686151007302
40
0.978686151007302
40
1
40
1
40
1
40
1
41
1
10
8.22130159294471
20
0.146933145776671
30
0
41
1
10
8.52858143199103
20
-0.0010303300757073
30
0
41
1
10
8.83659861660254
20
-0.145622581130823
30
0
41
1
10
9.2981633474206
20
-0.360994109964935
30
0
41
1
10
9.45194931055474
20
-0.432509227244139
30
0
41
1
10
9.75910605279756
20
-0.575543085186894
30
0
41
1
10
9.912351115185
20
-0.647313933665686
30
0
41
1
10
10.3741674138645
20
-0.857007697529724
30
0
41
1
10
10.6831611496717
20
-0.991114517438774
30
0
41
1
10
11.1442523471744
20
-1.18551519747152
30
0
41
1
10
11.2974628522318
20
-1.24961726577564
30
0
41
1
10
11.604214604629
20
-1.37392667759428
30
0
41
1
10
11.7579855899919
20
-1.43374394569977
30
0
41
1
10
12.2201267540359
20
-1.60698962776317
30
0
41
1
10
12.5292789860735
20
-1.71469479503747
30
0
41
1
10
12.9894076113342
20
-1.86432643029829
30
0
41
1
10
13.1427409672139
20
-1.91164545918943
30
0
41
1
10
13.4501534831778
20
-2.00023108673429
30
0
41
1
10
13.6040651175791
20
-2.04174478898352
30
0
41
1
10
13.9118883787549
20
-2.11974027616654
30
0
41
1
10
14.0658696536071
20
-2.15613694748708
30
0
41
1
10
14.3737973520019
20
-2.2237490775087
30
0
41
1
10
14.5272757301519
20
-2.25505213280539
30
0
41
1
10
14.9883832957517
20
-2.33847425935042
30
0
41
1
10
15.2962723995148
20
-2.38132273065654
30
0
41
1
10
15.7573506306389
20
-2.42764161152203
30
0
41
1
10
15.9107452666724
20
-2.440088077947
30
0
41
1
10
16.2179476543873
20
-2.45840869420667
30
0
41
1
10
16.372209030112
20
-2.46423025716831
30
0
41
1
10
16.5867127224973
20
-2.46786256447751
30
0
41
1
10
16.6471029616169
20
-2.4683999412446
30
0
41
1
10
16.7074709844328
20
-2.46844745234787
30
0
0
SPLINE
5
AF
100
AcDbEntity
8
1
62
256
6
ByLayer
370
18
48
1
60
0
100
AcDbSpline
70
4
71
3
72
78
73
74
40
0
40
0
40
0
40
0
40
0.0162286169775563
40
0.0162286169775563
40
0.0596219539834711
40
0.0596219539834711
40
0.103015290989386
40
0.103015290989386
40
0.146408627995301
40
0.146408627995301
40
0.168105296498258
40
0.168105296498258
40
0.189801965001214
40
0.189801965001214
40
0.211498633504171
40
0.211498633504171
40
0.233195302007128
40
0.233195302007128
40
0.276588639013041
40
0.276588639013041
40
0.298285307515997
40
0.298285307515997
40
0.319981976018953
40
0.319981976018953
40
0.363375313024866
40
0.363375313024866
40
0.385071981527823
40
0.385071981527823
40
0.406768650030779
40
0.406768650030779
40
0.428465318533736
40
0.428465318533736
40
0.450161987036692
40
0.450161987036692
40
0.493555324042604
40
0.493555324042604
40
0.51525199254556
40
0.51525199254556
40
0.536948661048516
40
0.536948661048516
40
0.580341998054427
40
0.580341998054427
40
0.602038666557383
40
0.602038666557383
40
0.623735335060339
40
0.623735335060339
40
0.645432003563294
40
0.645432003563294
40
0.66712867206625
40
0.66712867206625
40
0.710522009072162
40
0.710522009072162
40
0.732218677575118
40
0.732218677575118
40
0.753915346078073
40
0.753915346078073
40
0.797308683083987
40
0.797308683083987
40
0.819005351586943
40
0.819005351586943
40
0.8407020200899
40
0.8407020200899
40
0.862398688592857
40
0.862398688592857
40
0.884095357095813
40
0.884095357095813
40
0.927488694101727
40
0.927488694101727
40
0.949185362604684
40
0.949185362604684
40
0.97088203110764
40
0.97088203110764
40
1
40
1
40
1
40
1
41
1
10
28.1742411496921
20
1.46174844221662
30
0
41
1
10
28.2889171837542
20
1.50615251417597
30
0
41
1
10
28.403403383714
20
1.54974149034621
30
0
41
1
10
28.8247705960355
20
1.70439849708364
30
0
41
1
10
29.1329656173273
20
1.80678943050282
30
0
41
1
10
29.7492601429162
20
1.99446991124131
30
0
41
1
10
30.0551235612541
20
2.07965574753868
30
0
41
1
10
30.6696797572375
20
2.22408285847013
30
0
41
1
10
30.9773785015623
20
2.28484638044577
30
0
41
1
10
31.4384707422496
20
2.35914140463066
30
0
41
1
10
31.5919995969161
20
2.38101289341202
30
0
41
1
10
31.8994153612971
20
2.41774630932699
30
0
41
1
10
32.0532460488694
20
2.43282441445177
30
0
41
1
10
32.3606696788615
20
2.45676126109302
30
0
41
1
10
32.5142851075563
20
2.46559806942216
30
0
41
1
10
32.8212936564912
20
2.47689565665743
30
0
41
1
10
32.9743755067781
20
2.47935216651257
30
0
41
1
10
33.4349268559249
20
2.47674500009856
30
0
41
1
10
33.7439187585648
20
2.46207705253468
30
0
41
1
10
34.204862891969
20
2.42108858264848
30
0
41
1
10
34.3583079582434
20
2.40424451079463
30
0
41
1
10
34.6644749583798
20
2.36377869020475
30
0
41
1
10
34.8178200134978
20
2.34050182126703
30
0
41
1
10
35.2790485477538
20
2.26220406909513
30
0
41
1
10
35.5880558472566
20
2.19832138896868
30
0
41
1
10
36.0484153050885
20
2.08439012888439
30
0
41
1
10
36.2013382423405
20
2.04316199981392
30
0
41
1
10
36.5081561245572
20
1.95665633591148
30
0
41
1
10
36.6618471337381
20
1.91118616600392
30
0
41
1
10
36.9693203701753
20
1.81529249507272
30
0
41
1
10
37.1231028829181
20
1.76485777692224
30
0
41
1
10
37.4307665004446
20
1.65890551169198
30
0
41
1
10
37.5843879177372
20
1.60288802352974
30
0
41
1
10
38.0447437588473
20
1.42978855168136
30
0
41
1
10
38.3523440072098
20
1.3088754366361
30
0
41
1
10
38.8130511078801
20
1.11653380932009
30
0
41
1
10
38.9665838715051
20
1.05071658963854
30
0
41
1
10
39.2731938775118
20
0.9147954635134
30
0
41
1
10
39.4269319983538
20
0.845587595699271
30
0
41
1
10
39.888725221449
20
0.637192358146706
30
0
41
1
10
40.1963437839407
20
0.495825869925483
30
0
41
1
10
40.6562690080467
20
0.27774213805003
30
0
41
1
10
40.8091368685413
20
0.203628181494707
30
0
41
1
10
41.1160879257793
20
0.05697489721274
30
0
41
1
10
41.2699967096713
20
-0.0159220645204528
30
0
41
1
10
41.5782351156489
20
-0.1617891149061
30
0
41
1
10
41.7322179271918
20
-0.234655401742202
30
0
41
1
10
42.0394793039102
20
-0.379990518714408
30
0
41
1
10
42.1925763231442
20
-0.453017992584051
30
0
41
1
10
42.6519354106259
20
-0.669640871471728
30
0
41
1
10
42.959511448052
20
-0.808290898000934
30
0
41
1
10
43.4211026222427
20
-1.01134388081542
30
0
41
1
10
43.5751844925025
20
-1.07806501623571
30
0
41
1
10
43.8819379476916
20
-1.2096350278286
30
0
41
1
10
44.0351095497313
20
-1.27384670596072
30
0
41
1
10
44.4956449229312
20
-1.4589860624871
30
0
41
1
10
44.8030594367707
20
-1.57431823728655
30
0
41
1
10
45.263597539404
20
-1.73692847305856
30
0
41
1
10
45.4168803721787
20
-1.78973439705518
30
0
41
1
10
45.7243883903161
20
-1.88912611403387
30
0
41
1
10
45.8783705441139
20
-1.93591651678329
30
0
41
1
10
46.1863819471811
20
-2.02439385159991
30
0
41
1
10
46.3403929084771
20
-2.06612934495897
30
0
41
1
10
46.6483009323144
20
-2.1444491026416
30
0
41
1
10
46.8016957609557
20
-2.18115007637621
30
0
41
1
10
47.2612659856828
20
-2.28250998843833
30
0
41
1
10
47.5686422907331
20
-2.33697697998636
30
0
41
1
10
48.0294208231739
20
-2.40116690292024
30
0
41
1
10
48.1830508938046
20
-2.41955264488132
30
0
41
1
10
48.4900112865386
20
-2.45024383124567
30
0
41
1
10
48.6435376787782
20
-2.46238822170181
30
0
41
1
10
49.0034077244134
20
-2.4828658624136
30
0
41
1
10
49.2096627992452
20
-2.48879079255229
30
0
41
1
10
49.4157119933651
20
-2.48890505178642
30
0
0
SPLINE
5
B0
100
AcDbEntity
8
1
62
256
6
ByLayer
370
18
48
1
60
0
100
AcDbSpline
70
4
71
3
72
30
73
26
40
0
40
0
40
0
40
0
40
0.057152238719752
40
0.057152238719752
40
0.129678989587462
40
0.129678989587462
40
0.202205740455173
40
0.202205740455173
40
0.274732491322883
40
0.274732491322883
40
0.4197859930583
40
0.4197859930583
40
0.49231274392601
40
0.49231274392601
40
0.564839494793721
40
0.564839494793721
40
0.709892996529146
40
0.709892996529146
40
0.78241974739686
40
0.78241974739686
40
0.854946498264574
40
0.854946498264574
40
0.927473249132288
40
0.927473249132288
40
1
40
1
40
1
40
1
41
1
10
60.8682217797624
20
1.46984975107546
30
0
41
1
10
60.9889371353642
20
1.51716930155877
30
0
41
1
10
61.1096844782177
20
1.56302462883059
30
0
41
1
10
61.3840102229478
20
1.66340349173672
30
0
41
1
10
61.5375518952452
20
1.7171678073563
30
0
41
1
10
61.8444901357899
20
1.82055407894899
30
0
41
1
10
61.9979608279658
20
1.87006332626979
30
0
41
1
10
62.3046893232676
20
1.96488408153243
30
0
41
1
10
62.4579362571511
20
2.01040888456399
30
0
41
1
10
62.9187813531409
20
2.1368481299512
30
0
41
1
10
63.2261695881735
20
2.20910885227127
30
0
41
1
10
63.6860572947914
20
2.30122157770776
30
0
41
1
10
63.8389463386624
20
2.32931574660992
30
0
41
1
10
64.1451529040903
20
2.37912481776121
30
0
41
1
10
64.298728813068
20
2.40069901268512
30
0
41
1
10
64.7605285846125
20
2.45595075075886
30
0
41
1
10
65.0680895688481
20
2.48022426676261
30
0
41
1
10
65.5271101723037
20
2.49739444752197
30
0
41
1
10
65.6801251085365
20
2.49978682919303
30
0
41
1
10
65.9871477706067
20
2.49806167406089
30
0
41
1
10
66.1409732074128
20
2.4939823794754
30
0
41
1
10
66.448826566449
20
2.47935406439933
30
0
41
1
10
66.6025748229601
20
2.46882538290552
30
0
41
1
10
66.909256917069
20
2.44119107475365
30
0
41
1
10
67.0619922695986
20
2.42391750553736
30
0
41
1
10
67.2151846584956
20
2.40370844550725
30
0
0
SPLINE
5
B1
100
AcDbEntity
8
1
62
256
6
ByLayer
370
18
48
1
60
0
100
AcDbSpline
70
4
71
3
72
26
73
22
40
0
40
0
40
0
40
0
40
0.0440031317141129
40
0.0440031317141129
40
0.102674865227027
40
0.102674865227027
40
0.161346598739941
40
0.161346598739941
40
0.278690065765769
40
0.278690065765769
40
0.513376999817427
40
0.513376999817427
40
0.57204873333034
40
0.57204873333034
40
0.630720466843256
40
0.630720466843256
40
0.748063933869083
40
0.748063933869083
40
0.982750867920736
40
0.982750867920736
40
1
40
1
40
1
40
1
41
1
10
22.0084644581848
20
1.59377341891741
30
0
41
1
10
22.1257369551828
20
1.55204955648281
30
0
41
1
10
22.2430607725532
20
1.50908629247297
30
0
41
1
10
22.5170547174677
20
1.40611456754257
30
0
41
1
10
22.6740635898666
20
1.34511938584242
30
0
41
1
10
22.9870466718034
20
1.219974087309
30
0
41
1
10
23.1430718559701
20
1.15582045325147
30
0
41
1
10
23.6101464294587
20
0.959450864750011
30
0
41
1
10
23.9201804892392
20
0.823302653512457
30
0
41
1
10
24.8486641279773
20
0.404275170207626
30
0
41
1
10
25.4658803133031
20
0.111579701763276
30
0
41
1
10
26.2433408968363
20
-0.25332503879298
30
0
41
1
10
26.399138592741
20
-0.326241690447063
30
0
41
1
10
26.7116442277201
20
-0.471282325007024
30
0
41
1
10
26.8686685055965
20
-0.54356396439195
30
0
41
1
10
27.3380612419511
20
-0.757246702681499
30
0
41
1
10
27.6491537259271
20
-0.895659964973675
30
0
41
1
10
28.5794936732118
20
-1.29358812349631
30
0
41
1
10
29.1963933662782
20
-1.53478156757902
30
0
41
1
10
29.8617768236774
20
-1.75573323368155
30
0
41
1
10
29.9073540868066
20
-1.77066204019459
30
0
41
1
10
29.9529545285209
20
-1.78538820600423
30
0
0
SPLINE
5
B2
100
AcDbEntity
8
1
62
256
6
ByLayer
370
13
48
1
60
0
100
AcDbSpline
70
4
71
3
72
20
73
16
40
0
40
0
40
0
40
0
40
0.148969360492214
40
0.148969360492214
40
0.236289892877307
40
0.236289892877307
40
0.323610425262398
40
0.323610425262398
40
0.672892554802768
40
0.672892554802768
40
0.847533619572956
40
0.847533619572956
40
0.93485415195805
40
0.93485415195805
40
1
40
1
40
1
40
1
41
1
10
29.9529545281464
20
-1.78538820588329
30
0
41
1
10
30.2175676036233
20
-1.87084211550947
30
0
41
1
10
30.4829611764338
20
-1.9494724624424
30
0
41
1
10
30.9058585820744
20
-2.06222225335068
30
0
41
1
10
31.0628615961698
20
-2.1013674164218
30
0
41
1
10
31.3756570950393
20
-2.1735968784032
30
0
41
1
10
31.5316059796327
20
-2.20673286031914
30
0
41
1
10
32.3096712107152
20
-2.35702076873764
30
0
41
1
10
32.9267731508013
20
-2.42788519285898
30
0
41
1
10
33.8550378232871
20
-2.45649645280133
30
0
41
1
10
34.164903418847
20
-2.45318396743409
30
0
41
1
10
34.6316286962033
20
-2.42826447878377
30
0
41
1
10
34.7875560926192
20
-2.41666629148281
30
0
41
1
10
35.0605918322808
20
-2.39064326606069
30
0
41
1
10
35.1775683551684
20
-2.3776687646849
30
0
41
1
10
35.2944473066123
20
-2.36292074774215
30
0
0
SPLINE
5
B3
100
AcDbEntity
8
1
62
256
6
ByLayer
370
18
48
1
60
0
100
AcDbSpline
70
4
71
3
72
22
73
18
40
0
40
0
40
0
40
0
40
0.158434801571265
40
0.158434801571265
40
0.272498876761065
40
0.272498876761065
40
0.329530914355963
40
0.329530914355963
40
0.386562951950861
40
0.386562951950861
40
0.614691102330456
40
0.614691102330456
40
0.842819252710051
40
0.842819252710051
40
0.956883327899848
40
0.956883327899848
40
1
40
1
40
1
40
1
41
1
10
54.6522243381829
20
1.62741050729411
30
0
41
1
10
55.0820425222821
20
1.47461878178831
30
0
41
1
10
55.510329513266
20
1.30556006751317
30
0
41
1
10
56.2485785654253
20
0.994335686235502
30
0
41
1
10
56.5580674987222
20
0.85787438530491
30
0
41
1
10
57.0243874134185
20
0.64659378134283
30
0
41
1
10
57.1801614945863
20
0.575040591273734
30
0
41
1
10
57.4925876315016
20
0.430085289940933
30
0
41
1
10
57.6493518828053
20
0.356629380209199
30
0
41
1
10
58.4294207578713
20
-0.0108889617950467
30
0
41
1
10
59.046852239233
20
-0.307397253070121
30
0
41
1
10
60.2819204293967
20
-0.876779242956104
30
0
41
1
10
60.8999070062977
20
-1.14890007617893
30
0
41
1
10
61.8379664285616
20
-1.51658199523556
30
0
41
1
10
62.1507206159898
20
-1.63169063218925
30
0
41
1
10
62.5804742559904
20
-1.77690996746011
30
0
41
1
10
62.6983087279367
20
-1.81541020232066
30
0
41
1
10
62.8161486261897
20
-1.85249679896
30
0
0
SPLINE
5
B4
100
AcDbEntity
8
1
62
256
6
ByLayer
370
13
48
1
60
0
100
AcDbSpline
70
4
71
3
72
14
73
10
40
0
40
0
40
0
40
0
40
0.134573036206446
40
0.134573036206446
40
0.350929777154834
40
0.350929777154834
40
0.567286518103222
40
0.567286518103222
40
1
40
1
40
1
40
1
41
1
10
62.8161486258431
20
-1.85249679885095
30
0
41
1
10
63.0100512245169
20
-1.91352186397304
30
0
41
1
10
63.2039685153919
20
-1.97071937955772
30
0
41
1
10
63.7103620817491
20
-2.10898320696006
30
0
41
1
10
64.0239652718534
20
-2.18356164747274
30
0
41
1
10
64.6470627756127
20
-2.30760932400287
30
0
41
1
10
64.957322411033
20
-2.35721190252991
30
0
41
1
10
65.8870962443435
20
-2.46782051080322
30
0
41
1
10
66.5055125419533
20
-2.49078601759373
30
0
41
1
10
67.1290877924703
20
-2.45953686025348
30
0
0
SPLINE
5
B5
100
AcDbEntity
8
1
62
256
6
ByLayer
370
18
48
1
60
0
100
AcDbSpline
70
4
71
3
72
8
73
4
40
0
40
0
40
0
40
0
40
1
40
1
40
1
40
1
41
1
10
67.8798618682324
20
-0.205782042184467
30
0
41
1
10
67.6177276092463
20
-0.925989999613876
30
0
41
1
10
67.3555933502602
20
-1.64619795704348
30
0
41
1
10
67.0934590912746
20
-2.3664059144721
30
0
0
SPLINE
5
B6
100
AcDbEntity
8
1
62
256
6
ByLayer
370
18
48
1
60
0
100
AcDbSpline
70
4
71
3
72
82
73
78
40
0
40
0
40
0
40
0
40
0.0054626653262264
40
0.0054626653262264
40
0.0478122443748396
40
0.0478122443748396
40
0.0689870338991462
40
0.0689870338991462
40
0.0901618234234528
40
0.0901618234234528
40
0.132511402472066
40
0.132511402472066
40
0.153686191996373
40
0.153686191996373
40
0.174860981520679
40
0.174860981520679
40
0.217210560569292
40
0.217210560569292
40
0.259560139617906
40
0.259560139617906
40
0.301909718666519
40
0.301909718666519
40
0.344259297715132
40
0.344259297715132
40
0.365434087239437
40
0.365434087239437
40
0.386608876763743
40
0.386608876763743
40
0.407783666288049
40
0.407783666288049
40
0.428958455812355
40
0.428958455812355
40
0.450133245336661
40
0.450133245336661
40
0.471308034860966
40
0.471308034860966
40
0.492482824385272
40
0.492482824385272
40
0.513657613909578
40
0.513657613909578
40
0.534832403433884
40
0.534832403433884
40
0.556007192958189
40
0.556007192958189
40
0.598356772006801
40
0.598356772006801
40
0.619531561531106
40
0.619531561531106
40
0.640706351055411
40
0.640706351055411
40
0.661881140579715
40
0.661881140579715
40
0.683055930104021
40
0.683055930104021
40
0.72540550915263
40
0.72540550915263
40
0.746580298676935
40
0.746580298676935
40
0.767755088201239
40
0.767755088201239
40
0.810104667249845
40
0.810104667249845
40
0.831279456774148
40
0.831279456774148
40
0.85245424629845
40
0.85245424629845
40
0.894803825347055
40
0.894803825347055
40
0.915978614871357
40
0.915978614871357
40
0.93715340439566
40
0.93715340439566
40
0.958328193919962
40
0.958328193919962
40
0.979502983444265
40
0.979502983444265
40
1
40
1
40
1
40
1
41
1
10
60.8646254214088
20
-1.46965790034858
30
0
41
1
10
60.8264070800111
20
-1.48332611050142
30
0
41
1
10
60.7882082078149
20
-1.49687999934622
30
0
41
1
10
60.4540703527158
20
-1.61449422618017
30
0
41
1
10
60.1580624734989
20
-1.71100982306154
30
0
41
1
10
59.7131088881833
20
-1.84163998634116
30
0
41
1
10
59.5645995036668
20
-1.88311338344207
30
0
41
1
10
59.2673467881255
20
-1.96194564920381
30
0
41
1
10
59.1191045603808
20
-1.99935161799399
30
0
41
1
10
58.6745324514203
20
-2.10371152259492
30
0
41
1
10
58.3783212577328
20
-2.16289543775417
30
0
41
1
10
57.9338085045954
20
-2.2338784308113
30
0
41
1
10
57.7854931622972
20
-2.2547718018505
30
0
41
1
10
57.4890602461857
20
-2.29217544955381
30
0
41
1
10
57.3404834746233
20
-2.3083569065366
30
0
41
1
10
56.8950536405772
20
-2.34836929508774
30
0
41
1
10
56.5986213967231
20
-2.36404022363214
30
0
41
1
10
56.006319184612
20
-2.36923153180658
30
0
41
1
10
55.7105296386389
20
-2.36101479892415
30
0
41
1
10
55.116467277016
20
-2.32011678835389
30
0
41
1
10
54.8191044908256
20
-2.28932448055818
30
0
41
1
10
54.2269928009876
20
-2.20556439322124
30
0
41
1
10
53.9307654819297
20
-2.15343959447068
30
0
41
1
10
53.485695315874
20
-2.05687799156857
30
0
41
1
10
53.3371055027135
20
-2.02227151285692
30
0
41
1
10
53.0398499089994
20
-1.94919101327815
30
0
41
1
10
52.8916442266426
20
-1.91006724060964
30
0
41
1
10
52.5952128289794
20
-1.82753701945131
30
0
41
1
10
52.447017973688
20
-1.78413259837691
30
0
41
1
10
52.1506432213635
20
-1.69317332056693
30
0
41
1
10
52.0024633590998
20
-1.64573433101691
30
0
41
1
10
51.706066114278
20
-1.54525747416346
30
0
41
1
10
51.5577599240528
20
-1.4931855361022
30
0
41
1
10
51.2612019443573
20
-1.38560207088341
30
0
41
1
10
51.1125404526362
20
-1.33032846399939
30
0
41
1
10
50.81557689924
20
-1.2171713190238
30
0
41
1
10
50.6672175004172
20
-1.15923228164914
30
0
41
1
10
50.3706902348237
20
-1.04066054902773
30
0
41
1
10
50.2224868633889
20
-0.980236021942318
30
0
41
1
10
49.9263315346358
20
-0.855657980914032
30
0
41
1
10
49.7784993486279
20
-0.7913496720887
30
0
41
1
10
49.4821463447762
20
-0.662788046705401
30
0
41
1
10
49.3337432575312
20
-0.598030196721368
30
0
41
1
10
48.887948356475
20
-0.401662604495215
30
0
41
1
10
48.5909193708966
20
-0.268839307233776
30
0
41
1
10
48.1471492018425
20
-0.0663961809151203
30
0
41
1
10
47.9992064679
20
0.0010858724745617
30
0
41
1
10
47.7030212173916
20
0.135450281428064
30
0
41
1
10
47.5548284645458
20
0.202446027250772
30
0
41
1
10
47.2581649182411
20
0.335899387682815
30
0
41
1
10
47.1095660430273
20
0.40234720085445
30
0
41
1
10
46.8125234720363
20
0.534324121597336
30
0
41
1
10
46.6643990770512
20
0.600193079070095
30
0
41
1
10
46.2198026863721
20
0.794129180303543
30
0
41
1
10
45.9235296627214
20
0.919592520429575
30
0
41
1
10
45.4789501400305
20
1.10007015616648
30
0
41
1
10
45.3307482514245
20
1.15894854274157
30
0
41
1
10
45.0341801651044
20
1.27441731489779
30
0
41
1
10
44.8855305829471
20
1.33065697611559
30
0
41
1
10
44.4401595598872
20
1.4939508185945
30
0
41
1
10
44.1436621057521
20
1.59597466019565
30
0
41
1
10
43.6992689518518
20
1.73633914064618
30
0
41
1
10
43.5513761166587
20
1.78119587262682
30
0
41
1
10
43.2549127334954
20
1.86607055551656
30
0
41
1
10
43.1064575818276
20
1.90635481082006
30
0
41
1
10
42.6604833160943
20
2.02073901337096
30
0
41
1
10
42.3636583697493
20
2.08809475222037
30
0
41
1
10
41.9197401972486
20
2.17185245641153
30
0
41
1
10
41.7717506803862
20
2.19633802390948
30
0
41
1
10
41.4754216772391
20
2.24094473051889
30
0
41
1
10
41.3271370582156
20
2.2609050026087
30
0
41
1
10
41.0302891216816
20
2.29535356710125
30
0
41
1
10
40.8815714067545
20
2.3100462182737
30
0
41
1
10
40.5845915573943
20
2.33400311389778
30
0
41
1
10
40.4365370422247
20
2.34321265088266
30
0
41
1
10
40.144999272491
20
2.35506877381471
30
0
41
1
10
40.0016505995452
20
2.35788074802321
30
0
41
1
10
39.8582894813643
20
2.35796048820092
30
0
0
SPLINE
5
B7
100
AcDbEntity
8
1
62
256
6
ByLayer
370
18
48
1
60
0
100
AcDbSpline
70
4
71
3
72
70
73
66
40
0
40
0
40
0
40
0
40
0.0171990810782093
40
0.0171990810782093
40
0.0618718501201075
40
0.0618718501201075
40
0.0842082346410577
40
0.0842082346410577
40
0.106544619162007
40
0.106544619162007
40
0.151217388203907
40
0.151217388203907
40
0.173553772724856
40
0.173553772724856
40
0.195890157245805
40
0.195890157245805
40
0.218226541766755
40
0.218226541766755
40
0.240562926287705
40
0.240562926287705
40
0.285235695329604
40
0.285235695329604
40
0.329908464371503
40
0.329908464371503
40
0.374581233413403
40
0.374581233413403
40
0.396917617934352
40
0.396917617934352
40
0.419254002455301
40
0.419254002455301
40
0.463926771497202
40
0.463926771497202
40
0.486263156018152
40
0.486263156018152
40
0.508599540539102
40
0.508599540539102
40
0.530935925060053
40
0.530935925060053
40
0.553272309581003
40
0.553272309581003
40
0.597945078622903
40
0.597945078622903
40
0.620281463143853
40
0.620281463143853
40
0.642617847664802
40
0.642617847664802
40
0.687290616706702
40
0.687290616706702
40
0.709627001227652
40
0.709627001227652
40
0.731963385748602
40
0.731963385748602
40
0.776636154790501
40
0.776636154790501
40
0.8213089238324
40
0.8213089238324
40
0.84364530835335
40
0.84364530835335
40
0.865981692874299
40
0.865981692874299
40
0.9106544619162
40
0.9106544619162
40
0.9553272309581
40
0.9553272309581
40
1
40
1
40
1
40
1
41
1
10
28.1692569293625
20
-1.45965527032482
30
0
41
1
10
28.0551370217154
20
-1.5000316742607
30
0
41
1
10
27.9410557703623
20
-1.53917279588961
30
0
41
1
10
27.5304195741
20
-1.67606038319795
30
0
41
1
10
27.2337878191673
20
-1.76767196114534
30
0
41
1
10
26.7884702989224
20
-1.89201531404052
30
0
41
1
10
26.6400527751791
20
-1.93149235870493
30
0
41
1
10
26.342892273742
20
-2.00447085222774
30
0
41
1
10
26.1944631489507
20
-2.03796656600849
30
0
41
1
10
25.7492083689569
20
-2.13184514851034
30
0
41
1
10
25.4523158876768
20
-2.18549835848614
30
0
41
1
10
25.007761337374
20
-2.25008714283868
30
0
41
1
10
24.8594324492088
20
-2.2687685691856
30
0
41
1
10
24.5623055574093
20
-2.29961559592317
30
0
41
1
10
24.4134247025962
20
-2.3117038377471
30
0
41
1
10
24.116088297591
20
-2.33097369429092
30
0
41
1
10
23.9675080539742
20
-2.33814638823566
30
0
41
1
10
23.6705890689045
20
-2.34707433715857
30
0
41
1
10
23.5224267360066
20
-2.34879064792392
30
0
41
1
10
23.0774941639425
20
-2.34520107243171
30
0
41
1
10
22.7805271846734
20
-2.33091412129355
30
0
41
1
10
22.1851103264728
20
-2.27831843960584
30
0
41
1
10
21.8883390365304
20
-2.24105048592486
30
0
41
1
10
21.2946222635165
20
-2.14486796255332
30
0
41
1
10
20.9975963417789
20
-2.08777188950813
30
0
41
1
10
20.5516046960554
20
-1.98601803090801
30
0
41
1
10
20.4028838034897
20
-1.94917341505018
30
0
41
1
10
20.105507989233
20
-1.87056392533029
30
0
41
1
10
19.9570089161817
20
-1.82833914202453
30
0
41
1
10
19.5115718761202
20
-1.69595438545659
30
0
41
1
10
19.2144459578554
20
-1.60212302983578
30
0
41
1
10
18.7692445799283
20
-1.44782558858938
30
0
41
1
10
18.6206637845542
20
-1.39476967905421
30
0
41
1
10
18.3230424962047
20
-1.28516275772858
30
0
41
1
10
18.1740986561957
20
-1.22813583744744
30
0
41
1
10
17.8767939449834
20
-1.11154560892047
30
0
41
1
10
17.7282074787697
20
-1.05222629589633
30
0
41
1
10
17.4313024669048
20
-0.930813284777884
30
0
41
1
10
17.2831794575329
20
-0.868195885377617
30
0
41
1
10
16.8380237396869
20
-0.678921298306875
30
0
41
1
10
16.5405209977763
20
-0.550128030878653
30
0
41
1
10
16.0937897501947
20
-0.352886660097425
30
0
41
1
10
15.9451780816528
20
-0.286496483917546
30
0
41
1
10
15.648377628866
20
-0.152822694890261
30
0
41
1
10
15.5000771089111
20
-0.085794900609983
30
0
41
1
10
15.0550693411187
20
0.114964079215525
30
0
41
1
10
14.7580160482955
20
0.247874146881884
30
0
41
1
10
14.3119530896248
20
0.446008733297163
30
0
41
1
10
14.163240123505
20
0.512256639113673
30
0
41
1
10
13.8660189258
20
0.642091023750396
30
0
41
1
10
13.7175293062002
20
0.705995342006531
30
0
41
1
10
13.2722113376706
20
0.894732694601117
30
0
41
1
10
12.9754767145896
20
1.01666061125334
30
0
41
1
10
12.3819085685605
20
1.25150405623788
30
0
41
1
10
12.0838416209903
20
1.36285020661637
30
0
41
1
10
11.6380595040359
20
1.51838415604053
30
0
41
1
10
11.4895376655198
20
1.56840368661182
30
0
41
1
10
11.1927636208579
20
1.66504969159178
30
0
41
1
10
11.0445857579303
20
1.71173753415022
30
0
41
1
10
10.5992570384838
20
1.84443092219283
30
0
41
1
10
10.3013544755075
20
1.92402882080262
30
0
41
1
10
9.7065619976417
20
2.06271579566743
30
0
41
1
10
9.41019030761035
20
2.12298855563617
30
0
41
1
10
8.8164951365238
20
2.22224318863633
30
0
41
1
10
8.51918895869193
20
2.26115573866693
30
0
41
1
10
8.22130159294468
20
2.28872316218315
30
0
0
SPLINE
5
B8
100
AcDbEntity
8
1
62
256
6
ByLayer
370
18
48
1
60
0
100
AcDbSpline
70
4
71
3
72
14
73
10
40
0
40
0
40
0
40
0
40
0.25
40
0.25
40
0.5
40
0.5
40
0.75
40
0.75
40
1
40
1
40
1
40
1
41
1
10
67.1462555675737
20
-2.3700738821303
30
0
41
1
10
67.1486569416154
20
-2.36920670516204
30
0
41
1
10
67.1503731340697
20
-2.3701454461638
30
0
41
1
10
67.1519923544449
20
-2.37674844622231
30
0
41
1
10
67.1518133501558
20
-2.38242912295971
30
0
41
1
10
67.1489736648473
20
-2.39872416206427
30
0
41
1
10
67.1462470608946
20
-2.40949150492341
30
0
41
1
10
67.1387953738484
20
-2.43349920069591
30
0
41
1
10
67.1341002477372
20
-2.44669562620609
30
0
41
1
10
67.129087792477
20
-2.45953686025314
30
0
0
SPLINE
5
B9
100
AcDbEntity
8
1
62
256
6
ByLayer
370
18
48
1
60
0
100
AcDbSpline
70
4
71
3
72
8
73
4
40
0
40
0
40
0
40
0
40
1
40
1
40
1
40
1
41
1
10
67.129087792476
20
-2.45953686025584
30
0
41
1
10
67.1255775949626
20
-2.46852951265473
30
0
41
1
10
67.1220659176259
20
-2.47752005829605
30
0
41
1
10
67.1185528453813
20
-2.48650840927468
30
0
0
SPLINE
5
BA
100
AcDbEntity
8
1
62
256
6
ByLayer
370
18
48
1
60
0
100
AcDbSpline
70
4
71
3
72
34
73
30
40
0
40
0
40
0
40
0
40
0.0625000000000007
40
0.0625000000000007
40
0.125000000000001
40
0.125000000000001
40
0.187500000000002
40
0.187500000000002
40
0.250000000000003
40
0.250000000000003
40
0.312500000000003
40
0.312500000000003
40
0.375000000000004
40
0.375000000000004
40
0.437500000000005
40
0.437500000000005
40
0.500000000000006
40
0.500000000000006
40
0.562500000000006
40
0.562500000000006
40
0.625000000000007
40
0.625000000000007
40
0.687500000000008
40
0.687500000000008
40
0.750000000000008
40
0.750000000000008
40
0.875000000000004
40
0.875000000000004
40
1
40
1
40
1
40
1
41
1
10
67.0939800102148
20
-1.2724529689537
30
0
41
1
10
67.0904182084356
20
-1.30300422449432
30
0
41
1
10
67.0897064631672
20
-1.33129599907946
30
0
41
1
10
67.0935571626455
20
-1.37996922456742
30
0
41
1
10
67.098121882208
20
-1.40084019462824
30
0
41
1
10
67.1113326814524
20
-1.43441057000311
30
0
41
1
10
67.120043371471
20
-1.44739664908971
30
0
41
1
10
67.1405307568724
20
-1.4658622731894
30
0
41
1
10
67.1522126023254
20
-1.47137234060915
30
0
41
1
10
67.1781715712011
20
-1.47567444281356
30
0
41
1
10
67.1922024243887
20
-1.47439087588512
30
0
41
1
10
67.2218269632527
20
-1.46560816705934
30
0
41
1
10
67.2376390697124
20
-1.45799115821657
30
0
41
1
10
67.2700377111979
20
-1.43697111379325
30
0
41
1
10
67.2866204201783
20
-1.42363776479789
30
0
41
1
10
67.3205708580467
20
-1.39119006595101
30
0
41
1
10
67.3380286383034
20
-1.37193335274225
30
0
41
1
10
67.3727189359001
20
-1.32813136780797
30
0
41
1
10
67.389905444434
20
-1.30366829719932
30
0
41
1
10
67.4231534486711
20
-1.25027455225512
30
0
41
1
10
67.4395506033976
20
-1.22073969589553
30
0
41
1
10
67.4698386882838
20
-1.1585593297564
30
0
41
1
10
67.4839515070029
20
-1.12548787896151
30
0
41
1
10
67.5084210349499
20
-1.05784081982532
30
0
41
1
10
67.5185332372354
20
-1.02410478999411
30
0
41
1
10
67.5417727134198
20
-0.923189270120531
30
0
41
1
10
67.5457691291803
20
-0.862811045634118
30
0
41
1
10
67.5325796942008
20
-0.772806097000938
30
0
41
1
10
67.5160698914555
20
-0.743870910820988
30
0
41
1
10
67.4940208387139
20
-0.729480870886903
30
0
0
SPLINE
5
BB
100
AcDbEntity
8
1
62
256
6
ByLayer
370
18
48
1
60
0
100
AcDbSpline
70
4
71
3
72
12
73
8
40
0
40
0
40
0
40
0
40
0.512818031518453
40
0.512818031518453
40
0.769227047277679
40
0.769227047277679
40
1
40
1
40
1
40
1
41
1
10
67.1462555675975
20
-2.37007388212959
30
0
41
1
10
66.5228706714305
20
-2.38817882390629
30
0
41
1
10
65.904357729434
20
-2.35440926916348
30
0
41
1
10
64.9746011773726
20
-2.23129221962657
30
0
41
1
10
64.6643509081718
20
-2.17810786704962
30
0
41
1
10
64.0725194732566
20
-2.05489486904682
30
0
41
1
10
63.7907128504401
20
-1.98701207580123
30
0
41
1
10
63.5097439042503
20
-1.91093501498881
30
0
0
SPLINE
5
BC
100
AcDbEntity
8
1
62
256
6
ByLayer
370
13
48
1
60
0
100
AcDbSpline
70
4
71
3
72
26
73
22
40
0
40
0
40
0
40
0
40
0.0105812442336081
40
0.0105812442336081
40
0.116412759674824
40
0.116412759674824
40
0.169328517395432
40
0.169328517395432
40
0.222244275116039
40
0.222244275116039
40
0.43390730599847
40
0.43390730599847
40
0.645570336880902
40
0.645570336880902
40
0.698486094601512
40
0.698486094601512
40
0.751401852322123
40
0.751401852322123
40
0.857233367763345
40
0.857233367763345
40
1
40
1
40
1
40
1
41
1
10
63.5097446986755
20
-1.91093523009275
30
0
41
1
10
63.4785322074279
20
-1.90248392566392
30
0
41
1
10
63.4473300536795
20
-1.89393149812361
30
0
41
1
10
63.104198540289
20
-1.79874680929498
30
0
41
1
10
62.7928672366894
20
-1.70216670874095
30
0
41
1
10
62.3253085878163
20
-1.5444506570143
30
0
41
1
10
62.1693843583206
20
-1.48970074215487
30
0
41
1
10
61.857179040702
20
-1.37620325977835
30
0
41
1
10
61.7006616252091
20
-1.31736744523141
30
0
41
1
10
60.9198029297543
20
-1.01545423080071
30
0
41
1
10
60.3019133864297
20
-0.749664730279449
30
0
41
1
10
59.0667916404549
20
-0.197977850233826
30
0
41
1
10
58.4492865109065
20
0.0873565938582885
30
0
41
1
10
57.669506989224
20
0.438054086732535
30
0
41
1
10
57.512877096185
20
0.508001362324535
30
0
41
1
10
57.2007714803604
20
0.645762080858447
30
0
41
1
10
57.0451248995348
20
0.713650472457971
30
0
41
1
10
56.5791087408252
20
0.913733249392351
30
0
41
1
10
56.2696930174265
20
1.04241813862765
30
0
41
1
10
55.5438763726248
20
1.32977113045038
30
0
41
1
10
55.12784445484
20
1.48328334552536
30
0
41
1
10
54.7104931747937
20
1.6214479363864
30
0
0
SPLINE
5
BD
100
AcDbEntity
8
1
62
256
6
ByLayer
370
18
48
1
60
0
100
AcDbSpline
70
4
71
3
72
14
73
10
40
0
40
0
40
0
40
0
40
0.159463018700063
40
0.159463018700063
40
0.732033397345325
40
0.732033397345325
40
0.875175992006644
40
0.875175992006644
40
1
40
1
40
1
40
1
41
1
10
34.0939191034823
20
-2.35402512254797
30
0
41
1
10
33.9212009544466
20
-2.35358886836443
30
0
41
1
10
33.7487503173714
20
-2.34926817046855
30
0
41
1
10
32.9576899199525
20
-2.31196757235156
30
0
41
1
10
32.3404853070352
20
-2.23311546012763
30
0
41
1
10
31.562683982626
20
-2.07647206344808
30
0
41
1
10
31.4068147610807
20
-2.04224589271863
30
0
41
1
10
31.1142415529964
20
-1.97294361216217
30
0
41
1
10
30.9775518666345
20
-1.93850606154268
30
0
41
1
10
30.8412628114568
20
-1.90223597333014
30
0
0
SPLINE
5
BE
100
AcDbEntity
8
1
62
256
6
ByLayer
370
13
48
1
60
0
100
AcDbSpline
70
4
71
3
72
28
73
24
40
0
40
0
40
0
40
0
40
0.0069748517229782
40
0.0069748517229782
40
0.115978716860391
40
0.115978716860391
40
0.33398644713522
40
0.33398644713522
40
0.442990312272635
40
0.442990312272635
40
0.497492244841345
40
0.497492244841345
40
0.551994177410056
40
0.551994177410056
40
0.7700019076849
40
0.7700019076849
40
0.879005772822322
40
0.879005772822322
40
0.933507705391033
40
0.933507705391033
40
0.988009637959743
40
0.988009637959743
40
1
40
1
40
1
40
1
41
1
10
30.841262811317
20
-1.90223597329299
30
0
41
1
10
30.8212616680795
20
-1.8969131450684
30
0
41
1
10
30.801269153285
20
-1.89155084925716
30
0
41
1
10
30.4690168222013
20
-1.80174660269438
30
0
41
1
10
30.1583130331376
20
-1.70761789380262
30
0
41
1
10
29.2287388028072
20
-1.40004793512077
30
0
41
1
10
28.6118704658396
20
-1.16222640128262
30
0
41
1
10
27.6816438766403
20
-0.773875028406906
30
0
41
1
10
27.3706835661567
20
-0.639309308319383
30
0
41
1
10
26.9016584779382
20
-0.432408677842858
30
0
41
1
10
26.7448249025333
20
-0.362574878707619
30
0
41
1
10
26.4325931062598
20
-0.222687848006387
30
0
41
1
10
26.2768883695798
20
-0.152503262953445
30
0
41
1
10
25.4997866017575
20
0.19819808921406
30
0
41
1
10
24.8826088021117
20
0.477946971031628
30
0
41
1
10
23.9541689190151
20
0.875148627214116
30
0
41
1
10
23.6442115363621
20
1.00378131758512
30
0
41
1
10
23.177366366589
20
1.18845595634283
30
0
41
1
10
23.0214365253104
20
1.24864090586641
30
0
41
1
10
22.708692645229
20
1.36571742844941
30
0
41
1
10
22.551852235751
20
1.42260018157225
30
0
41
1
10
22.3610110555444
20
1.48938473190211
30
0
41
1
10
22.3266051975899
20
1.50132701101646
30
0
41
1
10
22.2922061612512
20
1.51316688090071
30
0
0
SPLINE
5
BF
100
AcDbEntity
8
1
62
256
6
ByLayer
370
13
48
1
60
0
100
AcDbSpline
70
4
71
3
72
22
73
18
40
0
40
0
40
0
40
0
40
0.125
40
0.125
40
0.25
40
0.25
40
0.375
40
0.375
40
0.5
40
0.5
40
0.625
40
0.625
40
0.75
40
0.75
40
0.875
40
0.875
40
1
40
1
40
1
40
1
41
1
10
7.46507421835418
20
0.928005004405179
30
0
41
1
10
7.46510810051197
20
1.04158782614081
30
0
41
1
10
7.46513605637767
20
1.15022021264602
30
0
41
1
10
7.46518375609304
20
1.35777445766794
30
0
41
1
10
7.46520356060574
20
1.45719046144166
30
0
41
1
10
7.46523742342592
20
1.64072136762314
30
0
41
1
10
7.46525165109006
20
1.72549010593636
30
0
41
1
10
7.46527815084121
20
1.88112338144413
30
0
41
1
10
7.46529049875204
20
1.95238068330636
30
0
41
1
10
7.46531568959091
20
2.07755871202849
30
0
41
1
10
7.46532864358335
20
2.13191413094455
30
0
41
1
10
7.46535682048335
20
2.22167746748656
30
0
41
1
10
7.46537200822422
20
2.25716463426295
30
0
41
1
10
7.46540570422491
20
2.3097359071304
30
0
41
1
10
7.46542428356179
20
2.32684324335926
30
0
41
1
10
7.46546468841666
20
2.34155039070777
30
0
41
1
10
7.46548619217461
20
2.33904505439887
30
0
41
1
10
7.46550821836456
20
2.32709698765362
30
0
0
SPLINE
5
C0
100
AcDbEntity
8
1
62
256
6
ByLayer
370
18
48
1
60
0
100
AcDbSpline
70
4
71
3
72
8
73
4
40
0
40
0
40
0
40
0
40
1
40
1
40
1
40
1
41
1
10
8.22130159294471
20
2.2887231621832
30
0
41
1
10
8.04397154015834
20
2.32108658872426
30
0
41
1
10
7.87188908295107
20
2.33872564367016
30
0
41
1
10
7.70461561075987
20
2.33904739191141
30
0
0
SPLINE
5
C1
100
AcDbEntity
8
1
62
256
6
ByLayer
370
18
48
1
60
0
100
AcDbSpline
70
4
71
3
72
8
73
4
40
0
40
0
40
0
40
0
40
1
40
1
40
1
40
1
41
1
10
67.9831699372309
20
-0.0125615252925115
30
0
41
1
10
67.9484982908633
20
-0.0767573858528863
30
0
41
1
10
67.9140620312469
20
-0.141164012974514
30
0
41
1
10
67.8798618682231
20
-0.205782042201662
30
0
0
SPLINE
5
C2
100
AcDbEntity
8
1
62
256
6
ByLayer
370
18
48
1
60
0
100
AcDbSpline
70
4
71
3
72
8
73
4
40
0
40
0
40
0
40
0
40
1
40
1
40
1
40
1
41
1
10
67.999965872375
20
0.0260847300833404
30
0
41
1
10
68.0000113758739
20
0.0086949100245306
30
0
41
1
10
68.0000113758739
20
-0.0086949100342508
30
0
41
1
10
67.999965872375
20
-0.0260847300930607
30
0
0
SPLINE
5
C3
100
AcDbEntity
8
1
62
256
6
ByLayer
370
18
48
1
60
0
100
AcDbSpline
70
4
71
3
72
21
73
17
40
0
40
0
40
0
40
0
40
0.143409778527574
40
0.143409778527574
40
0.286819557055149
40
0.430229335582723
40
0.430229335582723
40
0.573639114110297
40
0.573639114110297
40
0.717048892637872
40
0.717048892637872
40
0.788753781901659
40
0.788753781901659
40
0.860458671165446
40
0.860458671165446
40
1
40
1
40
1
40
1
41
1
10
7.24842702340686
20
1.05664844829903
30
0
41
1
10
7.24845048484343
20
1.17712754127172
30
0
41
1
10
7.24847023354772
20
1.29262599458954
30
0
41
1
10
7.24850430880096
20
1.51250040366219
30
0
41
1
10
7.24853237549604
20
1.71712310865152
30
0
41
1
10
7.24855349385223
20
1.89243551503876
30
0
41
1
10
7.2485733199004
20
2.05251486850994
30
0
41
1
10
7.24858238355554
20
2.12312416614515
30
0
41
1
10
7.24860064164167
20
2.2450646559729
30
0
41
1
10
7.24860985485901
20
2.29660858928182
30
0
41
1
10
7.24862487418778
20
2.35933004292969
30
0
41
1
10
7.24863007161366
20
2.37773086294371
30
0
41
1
10
7.24864078508958
20
2.40898185971506
30
0
41
1
10
7.24864632326231
20
2.4219320212535
30
0
41
1
10
7.2486632608888
20
2.45233466947982
30
0
41
1
10
7.2486752672493
20
2.46250494606639
30
0
41
1
10
7.24868808921127
20
2.46252134471396
30
0
0
SPLINE
5
C4
100
AcDbEntity
8
1
62
256
6
ByLayer
370
18
48
1
60
0
100
AcDbSpline
70
4
71
3
72
8
73
4
40
0
40
0
40
0
40
0
40
1
40
1
40
1
40
1
41
1
10
67.2151846584879
20
-2.40370844552638
30
0
41
1
10
67.4409903807726
20
-1.84032660963305
30
0
41
1
10
67.6671619332394
20
-1.27632074007909
30
0
41
1
10
67.8904901552871
20
-0.710819189198901
30
0
0
SPLINE
5
C5
100
AcDbEntity
8
1
62
256
6
ByLayer
370
13
48
1
60
0
100
AcDbSpline
70
4
71
3
72
8
73
4
40
0
40
0
40
0
40
0
40
1
40
1
40
1
40
1
41
1
10
7.24842702340061
20
1.05664844828465
30
0
41
1
10
7.27271444547773
20
1.01771113307296
30
0
41
1
10
7.31017835318062
20
0.98434134223433
30
0
41
1
10
7.35822221672117
20
0.963614584779293
30
0
0
SPLINE
5
C6
100
AcDbEntity
8
1
62
256
6
ByLayer
370
18
48
1
60
0
100
AcDbSpline
70
4
71
3
72
8
73
4
40
0
40
0
40
0
40
0
40
1
40
1
40
1
40
1
41
1
10
7.35822221672117
20
0.916583506643263
30
0
41
1
10
7.37864305950148
20
0.904091220230072
30
0
41
1
10
7.40035124041839
20
0.892911625878071
30
0
41
1
10
7.42255009015093
20
0.8832384893675
30
0
0
SPLINE
5
C7
100
AcDbEntity
8
1
62
256
6
ByLayer
370
18
48
1
60
0
100
AcDbSpline
70
4
71
3
72
78
73
74
40
0
40
0
40
0
40
0
40
0.0043862112550197
40
0.0043862112550197
40
0.0478134770322449
40
0.0478134770322449
40
0.0695271099208574
40
0.0695271099208574
40
0.09124074280947
40
0.09124074280947
40
0.112954375698083
40
0.112954375698083
40
0.134668008586695
40
0.134668008586695
40
0.17809527436392
40
0.17809527436392
40
0.199808907252533
40
0.199808907252533
40
0.221522540141145
40
0.221522540141145
40
0.264949805918368
40
0.264949805918368
40
0.28666343880698
40
0.28666343880698
40
0.308377071695592
40
0.308377071695592
40
0.330090704584204
40
0.330090704584204
40
0.351804337472815
40
0.351804337472815
40
0.395231603250038
40
0.395231603250038
40
0.416945236138649
40
0.416945236138649
40
0.43865886902726
40
0.43865886902726
40
0.482086134804482
40
0.482086134804482
40
0.503799767693093
40
0.503799767693093
40
0.525513400581703
40
0.525513400581703
40
0.547227033470314
40
0.547227033470314
40
0.568940666358924
40
0.568940666358924
40
0.612367932136145
40
0.612367932136145
40
0.655795197913367
40
0.655795197913367
40
0.699222463690588
40
0.699222463690588
40
0.7209360965792
40
0.7209360965792
40
0.742649729467811
40
0.742649729467811
40
0.764363362356423
40
0.764363362356423
40
0.786076995245035
40
0.786076995245035
40
0.829504261022259
40
0.829504261022259
40
0.872931526799482
40
0.872931526799482
40
0.916358792576706
40
0.916358792576706
40
0.938072425465318
40
0.938072425465318
40
0.95978605835393
40
0.95978605835393
40
0.981499691242541
40
0.981499691242541
40
1
40
1
40
1
40
1
41
1
10
11.8187136839164
20
1.45624096422955
30
0
41
1
10
11.8498080849989
20
1.46807736874445
30
0
41
1
10
11.8809147323224
20
1.47982714443964
30
0
41
1
10
12.2201267540359
20
1.60698962776317
30
0
41
1
10
12.5292789860735
20
1.7146947950375
30
0
41
1
10
12.9894076113342
20
1.86432643029826
30
0
41
1
10
13.1427409672139
20
1.91164545918943
30
0
41
1
10
13.4501534831778
20
2.00023108673429
30
0
41
1
10
13.6040651175791
20
2.04174478898352
30
0
41
1
10
13.9118883787549
20
2.11974027616654
30
0
41
1
10
14.0658696536072
20
2.15613694748706
30
0
41
1
10
14.3737973520019
20
2.2237490775087
30
0
41
1
10
14.5272757301518
20
2.25505213280539
30
0
41
1
10
14.9883832957517
20
2.33847425935042
30
0
41
1
10
15.2962723995148
20
2.38132273065654
30
0
41
1
10
15.7573506306389
20
2.42764161152201
30
0
41
1
10
15.9107452666724
20
2.440088077947
30
0
41
1
10
16.2179476543873
20
2.45840869420667
30
0
41
1
10
16.3722090301119
20
2.46423025716831
30
0
41
1
10
16.8345000078214
20
2.47205848090954
30
0
41
1
10
17.1422655171683
20
2.46463902836476
30
0
41
1
10
17.6021245000942
20
2.43368727633771
30
0
41
1
10
17.7553980726317
20
2.42007357237077
30
0
41
1
10
18.0630689280801
20
2.38689664738857
30
0
41
1
10
18.2173583108314
20
2.36727325562549
30
0
41
1
10
18.5258337966625
20
2.32180282283753
30
0
41
1
10
18.6798022333138
20
2.29603367586543
30
0
41
1
10
18.9870530332509
20
2.23821944669362
30
0
41
1
10
19.1400730022911
20
2.20589068288228
30
0
41
1
10
19.6004372275536
20
2.10152965332256
30
0
41
1
10
19.9084368827451
20
2.02187379349476
30
0
41
1
10
20.3705317049443
20
1.88557313737655
30
0
41
1
10
20.5243903675986
20
1.83713406729316
30
0
41
1
10
20.8312914454347
20
1.73538821572575
30
0
41
1
10
20.9849325714924
20
1.68270920935888
30
0
41
1
10
21.4461920426802
20
1.51919222401125
30
0
41
1
10
21.7538656107302
20
1.40251953071567
30
0
41
1
10
22.2145097683887
20
1.21357364192042
30
0
41
1
10
22.3682006462137
20
1.14846890163435
30
0
41
1
10
22.6762984626717
20
1.01722291400932
30
0
41
1
10
22.8305134164402
20
0.950688678210554
30
0
41
1
10
23.1388058946624
20
0.814918962604537
30
0
41
1
10
23.2930347328184
20
0.745739870788356
30
0
41
1
10
23.6008906109508
20
0.604830269887231
30
0
41
1
10
23.7540964825071
20
0.532544840649194
30
0
41
1
10
24.2145876245555
20
0.316503298420969
30
0
41
1
10
24.5223370404823
20
0.172755406796313
30
0
41
1
10
25.1372101810653
20
-0.118625902519284
30
0
41
1
10
25.4443949940583
20
-0.267752706809716
30
0
41
1
10
26.0599756030233
20
-0.55466531687884
30
0
41
1
10
26.3675732382404
20
-0.694932663188922
30
0
41
1
10
26.827564511148
20
-0.902662465301688
30
0
41
1
10
26.9807231392676
20
-0.971308953811388
30
0
41
1
10
27.2883796771676
20
-1.10412421336909
30
0
41
1
10
27.4427929677565
20
-1.16880286832202
30
0
41
1
10
27.7508854074071
20
-1.29506698588691
30
0
41
1
10
27.9046988602759
20
-1.35661533133867
30
0
41
1
10
28.2117909383876
20
-1.47660942581626
30
0
41
1
10
28.3647589335719
20
-1.53555757946938
30
0
41
1
10
28.8247705960355
20
-1.70439849708362
30
0
41
1
10
29.1329656173273
20
-1.80678943050285
30
0
41
1
10
29.7492601429162
20
-1.99446991124131
30
0
41
1
10
30.0551235612541
20
-2.07965574753868
30
0
41
1
10
30.6696797572375
20
-2.22408285847013
30
0
41
1
10
30.9773785015623
20
-2.28484638044577
30
0
41
1
10
31.4384707422496
20
-2.35914140463066
30
0
41
1
10
31.5919995969161
20
-2.38101289341202
30
0
41
1
10
31.8994153612971
20
-2.41774630932699
30
0
41
1
10
32.0532460488694
20
-2.43282441445177
30
0
41
1
10
32.3606696788615
20
-2.45676126109302
30
0
41
1
10
32.5142851075563
20
-2.46559806942216
30
0
41
1
10
32.798577099022
20
-2.4760597115654
30
0
41
1
10
32.9290581668868
20
-2.47855519500203
30
0
41
1
10
33.0597630667522
20
-2.47865087874919
30
0
0
SPLINE
5
C8
100
AcDbEntity
8
1
62
256
6
ByLayer
370
18
48
1
60
0
100
AcDbSpline
70
4
71
3
72
76
73
72
40
0
40
0
40
0
40
0
40
0.0283768294349793
40
0.0283768294349793
40
0.0500387454523528
40
0.0500387454523528
40
0.0717006614697259
40
0.0717006614697259
40
0.0933625774870991
40
0.0933625774870991
40
0.115024493504472
40
0.115024493504472
40
0.158348325539217
40
0.158348325539217
40
0.18001024155659
40
0.18001024155659
40
0.201672157573962
40
0.201672157573962
40
0.244995989608708
40
0.244995989608708
40
0.266657905626082
40
0.266657905626082
40
0.288319821643456
40
0.288319821643456
40
0.331643653678203
40
0.331643653678203
40
0.374967485712949
40
0.374967485712949
40
0.396629401730323
40
0.396629401730323
40
0.418291317747697
40
0.418291317747697
40
0.461615149782446
40
0.461615149782446
40
0.483277065799821
40
0.483277065799821
40
0.504938981817196
40
0.504938981817196
40
0.548262813851946
40
0.548262813851946
40
0.591586645886695
40
0.591586645886695
40
0.61324856190407
40
0.61324856190407
40
0.634910477921445
40
0.634910477921445
40
0.678234309956194
40
0.678234309956194
40
0.699896225973569
40
0.699896225973569
40
0.721558141990944
40
0.721558141990944
40
0.764881974025693
40
0.764881974025693
40
0.786543890043069
40
0.786543890043069
40
0.808205806060445
40
0.808205806060445
40
0.82986772207782
40
0.82986772207782
40
0.851529638095196
40
0.851529638095196
40
0.894853470129949
40
0.894853470129949
40
0.916515386147325
40
0.916515386147325
40
0.938177302164701
40
0.938177302164701
40
0.981501134199454
40
0.981501134199454
40
1
40
1
40
1
40
1
41
1
10
44.5065042767409
20
1.46046607683127
30
0
41
1
10
44.7077186030625
20
1.53774243594776
30
0
41
1
10
44.9089851885498
20
1.61171929351326
30
0
41
1
10
45.263597539404
20
1.73692847305856
30
0
41
1
10
45.4168803721787
20
1.78973439705518
30
0
41
1
10
45.724388390316
20
1.88912611403387
30
0
41
1
10
45.8783705441139
20
1.93591651678329
30
0
41
1
10
46.1863819471811
20
2.02439385159994
30
0
41
1
10
46.3403929084772
20
2.06612934495897
30
0
41
1
10
46.6483009323144
20
2.1444491026416
30
0
41
1
10
46.8016957609557
20
2.18115007637621
30
0
41
1
10
47.2612659856828
20
2.28250998843831
30
0
41
1
10
47.5686422907331
20
2.33697697998639
30
0
41
1
10
48.029420823174
20
2.40116690292024
30
0
41
1
10
48.1830508938046
20
2.41955264488132
30
0
41
1
10
48.4900112865387
20
2.45024383124567
30
0
41
1
10
48.6435376787782
20
2.46238822170181
30
0
41
1
10
49.104506101531
20
2.48861865086675
30
0
41
1
10
49.4119098170072
20
2.49320402579247
30
0
41
1
10
49.8719260521733
20
2.48072258878199
30
0
41
1
10
50.0248204218433
20
2.47319618522468
30
0
41
1
10
50.3317412664998
20
2.45176126597957
30
0
41
1
10
50.4858608933849
20
2.4378874307304
30
0
41
1
10
50.9477133415665
20
2.3870294889241
30
0
41
1
10
51.2547210406352
20
2.34076913352311
30
0
41
1
10
51.8666009191254
20
2.22221729448532
30
0
41
1
10
52.1741740395316
20
2.15232368496012
30
0
41
1
10
52.636207222233
20
2.03038967470781
30
0
41
1
10
52.7899543278282
20
1.98706266099518
30
0
41
1
10
53.0964978836204
20
1.89451669704897
30
0
41
1
10
53.2493734898186
20
1.84533534225758
30
0
41
1
10
53.7094207979703
20
1.69285883027251
30
0
41
1
10
54.0168691144179
20
1.58324443521903
30
0
41
1
10
54.4778788803047
20
1.40468444764983
30
0
41
1
10
54.6312846054105
20
1.3422644340425
30
0
41
1
10
54.9380659299169
20
1.21542133800489
30
0
41
1
10
55.0916240754316
20
1.15100383037483
30
0
41
1
10
55.552327418011
20
0.954037756471791
30
0
41
1
10
55.8593222180637
20
0.81747745486399
30
0
41
1
10
56.4719463482561
20
0.531145187461078
30
0
41
1
10
56.7804864731632
20
0.3871017200062
30
0
41
1
10
57.2411665996002
20
0.168718972999244
30
0
41
1
10
57.3945808598774
20
0.09555512511659
30
0
41
1
10
57.7008359114926
20
-0.0521076644038487
30
0
41
1
10
57.8536149648917
20
-0.126737818571684
30
0
41
1
10
58.3138544652608
20
-0.346818401815767
30
0
41
1
10
58.6226350007431
20
-0.491055318280672
30
0
41
1
10
59.0830586637754
20
-0.704509072092804
30
0
41
1
10
59.2359287799064
20
-0.775714855577547
30
0
41
1
10
59.5420553388253
20
-0.914986448149278
30
0
41
1
10
59.6954378550942
20
-0.982823808829949
30
0
41
1
10
60.1561312374839
20
-1.18186831590003
30
0
41
1
10
60.4644488925871
20
-1.30927713768483
30
0
41
1
10
60.9239838246293
20
-1.49238127381761
30
0
41
1
10
61.0771609020528
20
-1.5511238879931
30
0
41
1
10
61.3840102229479
20
-1.66340349173674
30
0
41
1
10
61.5375518952452
20
-1.7171678073563
30
0
41
1
10
61.8444901357899
20
-1.82055407894899
30
0
41
1
10
61.9979608279658
20
-1.87006332626979
30
0
41
1
10
62.3046893232677
20
-1.96488408153243
30
0
41
1
10
62.4579362571512
20
-2.01040888456399
30
0
41
1
10
62.9187813531409
20
-2.1368481299512
30
0
41
1
10
63.2261695881735
20
-2.20910885227127
30
0
41
1
10
63.6860572947915
20
-2.30122157770776
30
0
41
1
10
63.8389463386624
20
-2.32931574660992
30
0
41
1
10
64.1451529040903
20
-2.37912481776121
30
0
41
1
10
64.298728813068
20
-2.40069901268512
30
0
41
1
10
64.7605285846126
20
-2.45595075075886
30
0
41
1
10
65.0680895688481
20
-2.48022426676261
30
0
41
1
10
65.5047682702281
20
-2.49655872360401
30
0
41
1
10
65.6354391201336
20
-2.49901714079479
30
0
41
1
10
65.7664199811437
20
-2.49909367069037
30
0
0
SPLINE
5
C9
100
AcDbEntity
8
1
62
256
6
ByLayer
370
18
48
1
60
0
100
AcDbSpline
70
4
71
3
72
8
73
4
40
0
40
0
40
0
40
0
40
1
40
1
40
1
40
1
41
1
10
67.9999658723829
20
0.0260847301210561
30
0
41
1
10
67.9950708122611
20
0.0122172970328052
30
0
41
1
10
67.9890763764982
20
-0.0016255302841159
30
0
41
1
10
67.9831699372309
20
-0.01256152529254
30
0
0
SPLINE
5
CA
100
AcDbEntity
8
1
62
256
6
ByLayer
370
18
48
1
60
0
100
AcDbSpline
70
4
71
3
72
8
73
4
40
0
40
0
40
0
40
0
40
1
40
1
40
1
40
1
41
1
10
67.2151846584942
20
-2.40370844550878
30
0
41
1
10
67.1782581658939
20
-2.44362980873083
30
0
41
1
10
67.1461568021052
20
-2.47134665784651
30
0
41
1
10
67.1185528453813
20
-2.48650840927468
30
0
0
SPLINE
5
CB
100
AcDbEntity
8
1
62
256
6
ByLayer
370
18
48
1
60
0
100
AcDbSpline
70
4
71
3
72
14
73
10
40
0
40
0
40
0
40
0
40
0.25
40
0.25
40
0.5
40
0.5
40
0.75
40
0.75
40
1
40
1
40
1
40
1
41
1
10
7.24873036046006
20
-2.42858206106089
30
0
41
1
10
7.26191087424544
20
-2.4065137850435
30
0
41
1
10
7.27856737623432
20
-2.38775136861707
30
0
41
1
10
7.31440734384623
20
-2.35872740225477
30
0
41
1
10
7.33357036198086
20
-2.34824652801487
30
0
41
1
10
7.37171414940016
20
-2.33356925576032
30
0
41
1
10
7.39108949053181
20
-2.32921776278622
30
0
41
1
10
7.42875860852072
20
-2.32506215056824
30
0
41
1
10
7.44726780970902
20
-2.32518976450339
30
0
41
1
10
7.46550821836453
20
-2.32709698762818
30
0
0
SPLINE
5
CC
100
AcDbEntity
8
1
62
256
6
ByLayer
370
18
48
1
60
0
100
AcDbSpline
70
4
71
3
72
8
73
4
40
0
40
0
40
0
40
0
40
1
40
1
40
1
40
1
41
1
10
67.9811173976435
20
-0.108350657943902
30
0
41
1
10
67.9840706141734
20
-0.0855719911631638
30
0
41
1
10
67.9909872510303
20
-0.0565936346040132
30
0
41
1
10
67.9999658723791
20
-0.0260847300851594
30
0
0
SPLINE
5
CD
100
AcDbEntity
8
1
62
256
6
ByLayer
370
18
48
1
60
0
100
AcDbSpline
70
4
71
3
72
18
73
14
40
0
40
0
40
0
40
0
40
0.25
40
0.25
40
0.375
40
0.375
40
0.5
40
0.5
40
0.75
40
0.75
40
0.875
40
0.875
40
1
40
1
40
1
40
1
41
1
10
67.0934590912748
20
-2.36640591447193
30
0
41
1
10
67.0464231598401
20
-2.3557738593592
30
0
41
1
10
67.0029674371864
20
-2.33525529050019
30
0
41
1
10
66.9436097024495
20
-2.28838973334928
30
0
41
1
10
66.9247342661967
20
-2.26996674062394
30
0
41
1
10
66.8897173301144
20
-2.22819430167627
30
0
41
1
10
66.8734979090614
20
-2.20481223962102
30
0
41
1
10
66.8287146084147
20
-2.12716338170611
30
0
41
1
10
66.8039957549163
20
-2.06545187674391
30
0
41
1
10
66.7751504165664
20
-1.95694406233633
30
0
41
1
10
66.7668904346236
20
-1.91790243056403
30
0
41
1
10
66.7535088895252
20
-1.83548999402228
30
0
41
1
10
66.7483559279465
20
-1.79208221294564
30
0
41
1
10
66.7447459753779
20
-1.74646542743991
30
0
0
SPLINE
5
CE
100
AcDbEntity
8
1
62
256
6
ByLayer
370
18
48
1
60
0
100
AcDbSpline
70
4
71
3
72
52
73
48
40
0
40
0
40
0
40
0
40
0.0625000000000147
40
0.0625000000000147
40
0.125000000000029
40
0.125000000000029
40
0.187500000000044
40
0.187500000000044
40
0.250000000000059
40
0.250000000000059
40
0.312500000000074
40
0.312500000000074
40
0.375000000000088
40
0.375000000000088
40
0.406250000000095
40
0.406250000000095
40
0.437500000000103
40
0.437500000000103
40
0.500000000000117
40
0.500000000000117
40
0.531250000000125
40
0.531250000000125
40
0.562500000000132
40
0.562500000000132
40
0.59375000000014
40
0.59375000000014
40
0.625000000000147
40
0.625000000000147
40
0.687500000000164
40
0.687500000000164
40
0.718750000000173
40
0.718750000000173
40
0.722656250000173
40
0.722656250000173
40
0.726562500000173
40
0.726562500000173
40
0.730468750000172
40
0.730468750000172
40
0.734375000000172
40
0.734375000000172
40
0.750000000000165
40
0.750000000000165
40
0.812500000000123
40
0.812500000000123
40
0.875000000000082
40
0.875000000000082
40
1
40
1
40
1
40
1
41
1
10
7.24873036046009
20
-2.42858206106089
30
0
41
1
10
7.16491078324313
20
-2.41340725838174
30
0
41
1
10
7.08202814765929
20
-2.39279693815564
30
0
41
1
10
6.92045438322606
20
-2.33970653509343
30
0
41
1
10
6.84235606254617
20
-2.3074736146045
30
0
41
1
10
6.69190113550491
20
-2.23048696817278
30
0
41
1
10
6.6195358063589
20
-2.18574984801106
30
0
41
1
10
6.48140267438723
20
-2.0817654216946
30
0
41
1
10
6.41545377894198
20
-2.02218356554448
30
0
41
1
10
6.29524826087635
20
-1.88935747200989
30
0
41
1
10
6.2404989931417
20
-1.81586147806874
30
0
41
1
10
6.14411609908399
20
-1.65203476937302
30
0
41
1
10
6.10250909611381
20
-1.56113921023325
30
0
41
1
10
6.05509477172583
20
-1.41561609921626
30
0
41
1
10
6.04166617810901
20
-1.36538517487335
30
0
41
1
10
6.02004718172054
20
-1.26122399582357
30
0
41
1
10
6.01182749426505
20
-1.20694613413735
30
0
41
1
10
5.99626034367938
20
-1.04055585974598
30
0
41
1
10
5.99794407963546
20
-0.926528279852874
30
0
41
1
10
6.01941624179412
20
-0.751085149388928
30
0
41
1
10
6.02982057520325
20
-0.691552660082237
30
0
41
1
10
6.05694891468289
20
-0.572466391098004
30
0
41
1
10
6.07349680102215
20
-0.513518306087974
30
0
41
1
10
6.11218735612908
20
-0.396771785981514
30
0
41
1
10
6.13433205830978
20
-0.338973806370461
30
0
41
1
10
6.18396169589553
20
-0.224506550231013
30
0
41
1
10
6.21155437966635
20
-0.167663667042035
30
0
41
1
10
6.30078277596346
20
-0.0010807699565305
30
0
41
1
10
6.36919962971658
20
0.105505170203742
30
0
41
1
10
6.48152498020363
20
0.257548116245516
30
0
41
1
10
6.52053604639346
20
0.306872702418701
30
0
41
1
10
6.56597352601588
20
0.360926318513151
30
0
41
1
10
6.57086885421731
20
0.367134760053972
30
0
41
1
10
6.58333492874283
20
0.376588150054232
30
0
41
1
10
6.59100266584681
20
0.379270568790929
30
0
41
1
10
6.60662906220148
20
0.38212692048387
30
0
41
1
10
6.61454843635383
20
0.382371127995071
30
0
41
1
10
6.63033952132739
20
0.382931749270796
30
0
41
1
10
6.63823041751417
20
0.383302127093714
30
0
41
1
10
6.67770166469239
20
0.384828934384814
30
0
41
1
10
6.70929598522582
20
0.385678941579641
30
0
41
1
10
6.86722552965117
20
0.388099738976479
30
0
41
1
10
6.99387599420442
20
0.384162622665798
30
0
41
1
10
7.24480554851127
20
0.365299139400065
30
0
41
1
10
7.36922384406407
20
0.350414744360961
30
0
41
1
10
7.73947677939924
20
0.290021878688719
30
0
41
1
10
7.982291317852
20
0.228698423285408
30
0
41
1
10
8.22130159294503
20
0.146933145776558
30
0
0
SPLINE
5
CF
100
AcDbEntity
8
1
62
256
6
ByLayer
370
18
48
1
60
0
100
AcDbSpline
70
4
71
3
72
8
73
4
40
0
40
0
40
0
40
0
40
1
40
1
40
1
40
1
41
1
10
67.8904901552867
20
0.710819189199896
30
0
41
1
10
67.9248652973679
20
0.509968554264162
30
0
41
1
10
67.9550846595769
20
0.309145641926364
30
0
41
1
10
67.9811173976435
20
0.108350657944101
30
0
0
SPLINE
5
D0
100
AcDbEntity
8
1
62
256
6
ByLayer
370
18
48
1
60
0
100
AcDbSpline
70
4
71
3
72
8
73
4
40
0
40
0
40
0
40
0
40
1
40
1
40
1
40
1
41
1
10
67.9811173976434
20
0.108350657944072
30
0
41
1
10
67.9840706141728
20
0.0855719911668871
30
0
41
1
10
67.9909872510281
20
0.0565936346130229
30
0
41
1
10
67.9999658723748
20
0.0260847300996829
30
0
0
SPLINE
5
D1
100
AcDbEntity
8
1
62
256
6
ByLayer
370
18
48
1
60
0
100
AcDbSpline
70
4
71
3
72
18
73
14
40
0
40
0
40
0
40
0
40
0.0265548243558082
40
0.0265548243558082
40
0.303166020568855
40
0.303166020568855
40
0.441471618675378
40
0.441471618675378
40
0.579777216781902
40
0.579777216781902
40
0.856388412994949
40
0.856388412994949
40
1
40
1
40
1
40
1
41
1
10
50.4716163407338
20
-2.36451508671715
30
0
41
1
10
50.441893710375
20
-2.36452087396762
30
0
41
1
10
50.4121634639375
20
-2.36441015418299
30
0
41
1
10
50.0726490297903
20
-2.36181213991031
30
0
41
1
10
49.7620761329986
20
-2.34679052513667
30
0
41
1
10
49.293660705246
20
-2.30527248101021
30
0
41
1
10
49.1370001482405
20
-2.28826896096041
30
0
41
1
10
48.824447938264
20
-2.24824433609786
30
0
41
1
10
48.6683387968725
20
-2.2252073903783
30
0
41
1
10
48.2002065421459
20
-2.14720261161645
30
0
41
1
10
47.8884083600191
20
-2.08333442294
30
0
41
1
10
47.4137893138383
20
-1.96954793747491
30
0
41
1
10
47.2513283934329
20
-1.92763969012523
30
0
41
1
10
47.0890528698494
20
-1.8830598177079
30
0
0
SPLINE
5
D2
100
AcDbEntity
8
1
62
256
6
ByLayer
370
13
48
1
60
0
100
AcDbSpline
70
4
71
3
72
24
73
20
40
0
40
0
40
0
40
0
40
0.052745447402898
40
0.052745447402898
40
0.272144307190125
40
0.272144307190125
40
0.381843737083736
40
0.381843737083736
40
0.436693452030542
40
0.436693452030542
40
0.491543166977348
40
0.491543166977348
40
0.710942026764583
40
0.710942026764583
40
0.930340886551818
40
0.930340886551818
40
0.985190601498628
40
0.985190601498628
40
1
40
1
40
1
40
1
41
1
10
47.0890528696862
20
-1.88305981766308
30
0
41
1
10
46.9387684695004
20
-1.84177411271551
30
0
41
1
10
46.7886430791733
20
-1.79819702693356
30
0
41
1
10
46.0167023653956
20
-1.56296930055962
30
0
41
1
10
45.3996069718784
20
-1.33750463061682
30
0
41
1
10
44.4721831630824
20
-0.963660799764483
30
0
41
1
10
44.1626970648142
20
-0.833257101817736
30
0
41
1
10
43.6966942355791
20
-0.631360922735382
30
0
41
1
10
43.5410571206225
20
-0.563018646196724
30
0
41
1
10
43.2290205518516
20
-0.424631842533501
30
0
41
1
10
43.072324728056
20
-0.354434817493086
30
0
41
1
10
42.2911450175849
20
-0.0026015402141581
30
0
41
1
10
41.6728552277692
20
0.281325886852301
30
0
41
1
10
40.4368317219349
20
0.82579634796565
30
0
41
1
10
39.8189843757416
20
1.08609463021887
30
0
41
1
10
39.0386273870062
20
1.37856985854162
30
0
41
1
10
38.8819408034349
20
1.43548476956474
30
0
41
1
10
38.6832353965272
20
1.50510842657371
30
0
41
1
10
38.6410015762167
20
1.51975959805125
30
0
41
1
10
38.5987761274955
20
1.53425685951612
30
0
0
SPLINE
5
D3
100
AcDbEntity
8
1
62
256
6
ByLayer
370
18
48
1
60
0
100
AcDbSpline
70
4
71
3
72
16
73
12
40
0
40
0
40
0
40
0
40
0.310270629269743
40
0.310270629269743
40
0.460735772390503
40
0.460735772390503
40
0.61120091551126
40
0.61120091551126
40
0.912131201752783
40
0.912131201752783
40
1
40
1
40
1
40
1
41
1
10
17.7559589317193
20
-2.34386205856816
30
0
41
1
10
17.4363286196292
20
-2.3433798555499
30
0
41
1
10
17.1159523397879
20
-2.32965674143819
30
0
41
1
10
16.6377743634508
20
-2.2894689956436
30
0
41
1
10
16.4809185137641
20
-2.27318498316694
30
0
41
1
10
16.1681589627913
20
-2.23461744950831
30
0
41
1
10
16.0121895222593
20
-2.21234351596385
30
0
41
1
10
15.545198719427
20
-2.13678421871288
30
0
41
1
10
15.2352110848885
20
-2.07474845115203
30
0
41
1
10
14.8353432139658
20
-1.98112771313089
30
0
41
1
10
14.7450034893057
20
-1.95907553059581
30
0
41
1
10
14.6546764062621
20
-1.93615689209247
30
0
0
SPLINE
5
D4
100
AcDbEntity
8
1
62
256
6
ByLayer
370
13
48
1
60
0
100
AcDbSpline
70
4
71
3
72
20
73
16
40
0
40
0
40
0
40
0
40
0.221588915820171
40
0.221588915820171
40
0.28645650616849
40
0.28645650616849
40
0.351324096516809
40
0.351324096516809
40
0.481059277213447
40
0.481059277213447
40
0.740529638606724
40
0.740529638606724
40
0.870264819303361
40
0.870264819303361
40
1
40
1
40
1
40
1
41
1
10
14.6546764100331
20
-1.93615689304929
30
0
41
1
10
14.1263048070079
20
-1.80209347215333
30
0
41
1
10
13.5983657632121
20
-1.63838245663573
30
0
41
1
10
12.9117846747586
20
-1.39550752504937
30
0
41
1
10
12.7560034577049
20
-1.3384839027359
30
0
41
1
10
12.4436145816306
20
-1.22073195201162
30
0
41
1
10
12.2867034980117
20
-1.15987977313603
30
0
41
1
10
11.8174514646172
20
-0.973502703586064
30
0
41
1
10
11.5063311854963
20
-0.843924782230232
30
0
41
1
10
10.5756837344872
20
-0.444726981852739
30
0
41
1
10
9.95839823760818
20
-0.165556930516061
30
0
41
1
10
9.02824242528698
20
0.252343681677104
30
0
41
1
10
8.7174219467388
20
0.391349363311804
30
0
41
1
10
8.09247705404522
20
0.66472627999201
30
0
41
1
10
7.7784564382624
20
0.798999261758979
30
0
41
1
10
7.46507421835426
20
0.928005004405151
30
0
0
SPLINE
5
D5
100
AcDbEntity
8
1
62
256
6
ByLayer
370
18
48
1
60
0
100
AcDbSpline
70
4
71
3
72
14
73
10
40
0
40
0
40
0
40
0
40
0.25
40
0.25
40
0.5
40
0.5
40
0.75
40
0.75
40
1
40
1
40
1
40
1
41
1
10
65.199149628487
20
-0.386718695668606
30
0
41
1
10
65.3003804943768
20
-0.541215020628044
30
0
41
1
10
65.4127141661389
20
-0.6822845177104
30
0
41
1
10
65.6531492720795
20
-0.945355266027406
30
0
41
1
10
65.7823369704639
20
-1.06795388643559
30
0
41
1
10
66.0468092225046
20
-1.2918997607203
30
0
41
1
10
66.1825289608316
20
-1.39389283788799
30
0
41
1
10
66.4595625958451
20
-1.58185283541303
30
0
41
1
10
66.6008994631677
20
-1.66775394944275
30
0
41
1
10
66.7447459753778
20
-1.74646542743991
30
0
0
SPLINE
5
D6
100
AcDbEntity
8
1
62
256
6
ByLayer
370
18
48
1
60
0
100
AcDbSpline
70
4
71
3
72
26
73
22
40
0
40
0
40
0
40
0
40
0.12500000000001
40
0.12500000000001
40
0.25000000000002
40
0.25000000000002
40
0.312500000000019
40
0.312500000000019
40
0.375000000000017
40
0.375000000000017
40
0.437500000000016
40
0.437500000000016
40
0.500000000000014
40
0.500000000000014
40
0.625000000000011
40
0.625000000000011
40
0.750000000000007
40
0.750000000000007
40
0.875000000000004
40
0.875000000000004
40
1
40
1
40
1
40
1
41
1
10
67.0939800102146
20
-1.27245296895379
30
0
41
1
10
67.0464832231048
20
-1.23925306924022
30
0
41
1
10
66.9997388558307
20
-1.20240416743459
30
0
41
1
10
66.912166491938
20
-1.11885293334493
30
0
41
1
10
66.8707038094518
20
-1.07239255498968
30
0
41
1
10
66.8228406142512
20
-0.989608684766893
30
0
41
1
10
66.8096269125169
20
-0.959736960645984
30
0
41
1
10
66.7956080669446
20
-0.898837066555359
30
0
41
1
10
66.7953429136552
20
-0.867486386226375
30
0
41
1
10
66.8106240164548
20
-0.813213509521376
30
0
41
1
10
66.8254909567065
20
-0.79077806331847
30
0
41
1
10
66.8607683610744
20
-0.755612024565693
30
0
41
1
10
66.8815620669625
20
-0.742108612758955
30
0
41
1
10
66.9467266143026
20
-0.710056698040376
30
0
41
1
10
66.994729064126
20
-0.698942751889916
30
0
41
1
10
67.0919952793759
20
-0.686273043863025
30
0
41
1
10
67.1413497139689
20
-0.684987343725368
30
0
41
1
10
67.2409300445766
20
-0.688516010424394
30
0
41
1
10
67.291169892818
20
-0.693428040238501
30
0
41
1
10
67.3923329232761
20
-0.708035309898264
30
0
41
1
10
67.4433761295575
20
-0.717792586426214
30
0
41
1
10
67.4940208387138
20
-0.729480870886874
30
0
0
SPLINE
5
D7
100
AcDbEntity
8
1
62
256
6
ByLayer
370
18
48
1
60
0
100
AcDbSpline
70
4
71
3
72
25
73
21
40
0
40
0
40
0
40
0
40
0.0633442831825628
40
0.0633442831825628
40
0.340719947717498
40
0.340719947717498
40
0.479407779984966
40
0.479407779984966
40
0.5487516961187
40
0.5487516961187
40
0.566087675152133
40
0.566087675152133
40
0.57475566466885
40
0.57475566466885
40
0.583423654185567
40
0.618095612252433
40
0.618095612252433
40
0.89547127678737
40
0.89547127678737
40
1
40
1
40
1
40
1
41
1
10
8.22130159294471
20
0.146933145776671
30
0
41
1
10
8.22130159294471
20
0.128816537041729
30
0
41
1
10
8.22130159294471
20
0.109228029530613
30
0
41
1
10
8.22130159294471
20
-0.0037069346673491
30
0
41
1
10
8.22130159294471
20
-0.122415274465766
30
0
41
1
10
8.22130159294471
20
-0.337977638233895
30
0
41
1
10
8.22130159294471
20
-0.416174584072621
30
0
41
1
10
8.22130159294471
20
-0.541882325988809
30
0
41
1
10
8.22130159294471
20
-0.585254081737787
30
0
41
1
10
8.22130159294471
20
-0.641191997479723
30
0
41
1
10
8.22130159294943
20
-0.651469122559064
30
0
41
1
10
8.22130159294943
20
-0.677611504817122
30
0
41
1
10
8.22130159294471
20
-0.688378019628885
30
0
41
1
10
8.22130159294471
20
-0.709303534560433
30
0
41
1
10
8.22130159294474
20
-0.761652427916971
30
0
41
1
10
8.22130159294471
20
-0.814177305744266
30
0
41
1
10
8.22130159294471
20
-1.19338122628264
30
0
41
1
10
8.22130159294471
20
-1.53770635322792
30
0
41
1
10
8.22130159294471
20
-2.02134335156015
30
0
41
1
10
8.22130159294471
20
-2.15458239377458
30
0
41
1
10
8.22130159294471
20
-2.28872316218113
30
0
0
SPLINE
5
D8
100
AcDbEntity
8
1
62
256
6
ByLayer
370
18
48
1
60
0
100
AcDbSpline
70
4
71
3
72
12
73
8
40
0
40
0
40
0
40
0
40
0.0294388958828853
40
0.0294388958828853
40
0.514719447941443
40
0.514719447941443
40
1
40
1
40
1
40
1
41
1
10
7.24868795652918
20
-2.46252081240232
30
0
41
1
10
7.24868835604903
20
-2.46252350758118
30
0
41
1
10
7.24868875636142
20
-2.46251633666216
30
0
41
1
10
7.2486957694129
20
-2.46221832798889
30
0
41
1
10
7.24870261243552
20
-2.45920337153811
30
0
41
1
10
7.248716401953
20
-2.44784268000413
30
0
41
1
10
7.24872337412455
20
-2.4395111421519
30
0
41
1
10
7.24873036046006
20
-2.42858206106092
30
0
0
SPLINE
5
D9
100
AcDbEntity
8
1
62
256
6
ByLayer
370
18
48
1
60
0
100
AcDbSpline
70
4
71
3
72
20
73
16
40
0
40
0
40
0
40
0
40
0.15642148134052
40
0.15642148134052
40
0.31284296268104
40
0.31284296268104
40
0.62568592536208
40
0.62568592536208
40
0.7821074067026
40
0.7821074067026
40
0.86031814737286
40
0.86031814737286
40
0.93852888804312
40
0.93852888804312
40
1
40
1
40
1
40
1
41
1
10
7.42255009015093
20
0.8832384893675
30
0
41
1
10
7.73627669533346
20
0.74653229442967
30
0
41
1
10
8.05066535917663
20
0.604818453961286
30
0
41
1
10
8.67613664580276
20
0.31748285988175
30
0
41
1
10
8.9871119546784
20
0.17195688951216
30
0
41
1
10
9.91754118748696
20
-0.26407624729643
30
0
41
1
10
10.53478179693
20
-0.553366776874725
30
0
41
1
10
11.4657505864266
20
-0.964177992158994
30
0
41
1
10
11.7770244316296
20
-1.09708054232371
30
0
41
1
10
12.2467306908288
20
-1.28743051271158
30
0
41
1
10
12.4038222077415
20
-1.34944504899187
30
0
41
1
10
12.7164684710159
20
-1.46912033630827
30
0
41
1
10
12.8723498914454
20
-1.52691596672656
30
0
41
1
10
13.1501556694722
20
-1.62619443103407
30
0
41
1
10
13.2722331270807
20
-1.66848946065662
30
0
41
1
10
13.3941783777709
20
-1.70932447603428
30
0
0
SPLINE
5
DA
100
AcDbEntity
8
1
62
256
6
ByLayer
370
13
48
1
60
0
100
AcDbSpline
70
4
71
3
72
18
73
14
40
0
40
0
40
0
40
0
40
0.271546243561444
40
0.271546243561444
40
0.440521632962229
40
0.440521632962229
40
0.525009327662622
40
0.525009327662622
40
0.609497022363015
40
0.609497022363015
40
0.947447801164592
40
0.947447801164592
40
1
40
1
40
1
40
1
41
1
10
13.3941780498772
20
-1.70932436623465
30
0
41
1
10
13.892844970898
20
-1.87630973498406
30
0
41
1
10
14.3893011112543
20
-2.0188805712063
30
0
41
1
10
15.196309131084
20
-2.20339225427017
30
0
41
1
10
15.5063360127838
20
-2.26304303390938
30
0
41
1
10
15.9736435813507
20
-2.33396624240552
30
0
41
1
10
16.1297401493132
20
-2.35454813623827
30
0
41
1
10
16.4428116984021
20
-2.38941338778204
30
0
41
1
10
16.5998419917263
20
-2.40368275492017
30
0
41
1
10
17.3812292642293
20
-2.45843204139066
30
0
41
1
10
17.9996354519656
20
-2.44939770545039
30
0
41
1
10
18.7148159249542
20
-2.38007709750082
30
0
41
1
10
18.8110619380928
20
-2.36951980924954
30
0
41
1
10
18.9073365373534
20
-2.35774778155874
30
0
0
SPLINE
5
DB
100
AcDbEntity
8
1
62
256
6
ByLayer
370
18
48
1
60
0
100
AcDbSpline
70
4
71
3
72
24
73
20
40
0
40
0
40
0
40
0
40
0.0798547835423817
40
0.0798547835423817
40
0.133233643787867
40
0.133233643787867
40
0.186612504033352
40
0.186612504033352
40
0.400127945015299
40
0.400127945015299
40
0.613643385997246
40
0.613643385997246
40
0.667022246242731
40
0.667022246242731
40
0.720401106488216
40
0.720401106488216
40
0.82715882697919
40
0.82715882697919
40
1
40
1
40
1
40
1
41
1
10
37.5267826957798
20
1.87582125440761
30
0
41
1
10
37.7609968799354
20
1.80467314781583
30
0
41
1
10
37.9949333699405
20
1.72792081821297
30
0
41
1
10
38.3853618799626
20
1.59147853246935
30
0
41
1
10
38.5418208409636
20
1.5345742683092
30
0
41
1
10
38.8550368590193
20
1.41660477760993
30
0
41
1
10
39.0118422442092
20
1.35552541700636
30
0
41
1
10
39.7925851843385
20
1.04262313139148
30
0
41
1
10
40.4103883470266
20
0.766984084044623
30
0
41
1
10
41.6464632666025
20
0.194866537874191
30
0
41
1
10
42.2648237282485
20
-0.101509463622591
30
0
41
1
10
43.0468007210838
20
-0.466262452230325
30
0
41
1
10
43.2036180736415
20
-0.538897725240105
30
0
41
1
10
43.5157882888433
20
-0.681787667429717
30
0
41
1
10
43.6714656448236
20
-0.75220085493018
30
0
41
1
10
44.1375698935594
20
-0.959750189116107
30
0
41
1
10
44.4470798439715
20
-1.09321527363619
30
0
41
1
10
45.2567154808002
20
-1.42585450779322
30
0
41
1
10
45.756406842023
20
-1.61402544902882
30
0
41
1
10
46.2589710680321
20
-1.77837786672478
30
0
0
SPLINE
5
DC
100
AcDbEntity
8
1
62
256
6
ByLayer
370
13
48
1
60
0
100
AcDbSpline
70
4
71
3
72
20
73
16
40
0
40
0
40
0
40
0
40
0.0663178046787716
40
0.0663178046787716
40
0.240382096588837
40
0.240382096588837
40
0.414446388498904
40
0.414446388498904
40
0.501478534453937
40
0.501478534453937
40
0.58851068040897
40
0.58851068040897
40
0.762574972319042
40
0.762574972319042
40
1
40
1
40
1
40
1
41
1
10
46.2589710678389
20
-1.7783778666616
30
0
41
1
10
46.3772382124678
20
-1.81705449772397
30
0
41
1
10
46.4956644534653
20
-1.85441208285658
30
0
41
1
10
46.9256743949649
20
-1.98474051375206
30
0
41
1
10
47.239395211335
20
-2.06967400586873
30
0
41
1
10
47.8646594506153
20
-2.2155289916185
30
0
41
1
10
48.1766333909638
20
-2.27668488483042
30
0
41
1
10
48.645137993495
20
-2.34957137750894
30
0
41
1
10
48.8013844492872
20
-2.37074263784487
30
0
41
1
10
49.11423947973
20
-2.40671036966114
30
0
41
1
10
49.2710620454811
20
-2.42151699728689
30
0
41
1
10
49.7397127117952
20
-2.4559360624861
30
0
41
1
10
50.0502830837947
20
-2.46553593901874
30
0
41
1
10
50.7826542768817
20
-2.45721076613569
30
0
41
1
10
51.2034276014954
20
-2.42796594637855
30
0
41
1
10
51.6248274305474
20
-2.37536150646812
30
0
0
SPLINE
5
DD
100
AcDbEntity
8
1
62
256
6
ByLayer
370
18
48
1
60
0
100
AcDbSpline
70
4
71
3
72
29
73
25
40
0
40
0
40
0
40
0
40
0.125000000000006
40
0.125000000000006
40
0.250000000000012
40
0.250000000000012
40
0.500000000000025
40
0.500000000000025
40
0.625000000000031
40
0.625000000000031
40
0.750000000000037
40
0.750000000000037
40
0.81250000000004
40
0.81250000000004
40
0.820312500000041
40
0.820312500000041
40
0.828125000000041
40
0.828125000000041
40
0.843750000000039
40
0.843750000000039
40
0.859375000000036
40
0.859375000000036
40
0.875000000000033
40
1
40
1
40
1
40
1
41
1
10
65.199149628487
20
-0.386718695668606
30
0
41
1
10
65.3029129872098
20
-0.409096695236741
30
0
41
1
10
65.4065733085871
20
-0.426255109556763
30
0
41
1
10
65.6136259510757
20
-0.446995790369641
30
0
41
1
10
65.7173657227971
20
-0.450889766948848
30
0
41
1
10
66.020849938
20
-0.440730593608095
30
0
41
1
10
66.2151258119774
20
-0.405576176020702
30
0
41
1
10
66.4911904620967
20
-0.298707884739486
30
0
41
1
10
66.5807093039038
20
-0.253763614453391
30
0
41
1
10
66.7491634723585
20
-0.14639832993592
30
0
41
1
10
66.8286288457095
20
-0.0837246702126038
30
0
41
1
10
66.9390061781624
20
0.0224022214709407
30
0
41
1
10
66.9742968175042
20
0.059848653551029
30
0
41
1
10
67.0123159540032
20
0.104059082592869
30
0
41
1
10
67.0166028512934
20
0.108895611783083
30
0
41
1
10
67.0246357968079
20
0.11922358752355
30
0
41
1
10
67.0283647448907
20
0.124827182098613
30
0
41
1
10
67.034618141072
20
0.14520645643924
30
0
41
1
10
67.0331137422273
20
0.161705121939491
30
0
41
1
10
67.027876570558
20
0.193087365533415
30
0
41
1
10
67.0248040864559
20
0.208776557023356
30
0
41
1
10
67.0191069395969
20
0.240156844466782
30
0
41
1
10
66.9932515375396
20
0.381368906148367
30
0
41
1
10
66.9655597129747
20
0.52250356269704
30
0
41
1
10
66.9398239096675
20
0.647901501342432
30
0
0
SPLINE
5
DE
100
AcDbEntity
8
1
62
256
6
ByLayer
370
18
48
1
60
0
100
AcDbSpline
70
4
71
3
72
8
73
4
40
0
40
0
40
0
40
0
40
1
40
1
40
1
40
1
41
1
10
67.1185528453813
20
2.48650840927468
30
0
41
1
10
66.937628840352
20
2.495422457882
30
0
41
1
10
66.7567454400379
20
2.49978294106879
30
0
41
1
10
66.5757388373221
20
2.49960052625167
30
0
0
SPLINE
5
DF
100
AcDbEntity
8
1
62
256
6
ByLayer
370
18
48
1
60
0
100
AcDbSpline
70
4
71
3
72
38
73
34
40
0
40
0
40
0
40
0
40
0.083059851969619
40
0.083059851969619
40
0.135102567307589
40
0.135102567307589
40
0.187145282645559
40
0.187145282645559
40
0.291230713321498
40
0.291230713321498
40
0.343273428659468
40
0.343273428659468
40
0.395316143997438
40
0.395316143997438
40
0.49940157467338
40
0.49940157467338
40
0.551444290011351
40
0.551444290011351
40
0.577465647680338
40
0.577465647680338
40
0.603487005349325
40
0.603487005349325
40
0.707572436025274
40
0.707572436025274
40
0.811657866701224
40
0.811657866701224
40
0.837679224370211
40
0.837679224370211
40
0.863700582039199
40
0.863700582039199
40
0.915743297377177
40
0.915743297377177
40
1
40
1
40
1
40
1
41
1
10
51.8089427276245
20
-2.37640895430329
30
0
41
1
10
51.3147598219317
20
-2.44678089508483
30
0
41
1
10
50.8215887876177
20
-2.48492237960281
30
0
41
1
10
50.0145865187196
20
-2.49157929758383
30
0
41
1
10
49.7027666887109
20
-2.48082361013579
30
0
41
1
10
49.0749269254675
20
-2.43218272312109
30
0
41
1
10
48.762798040746
20
-2.39460865534932
30
0
41
1
10
47.8300509287
20
-2.24480286128704
30
0
41
1
10
47.212764781051
20
-2.09519742052032
30
0
41
1
10
46.2823687580858
20
-1.80882474201081
30
0
41
1
10
45.9715184004789
20
-1.70304915562252
30
0
41
1
10
45.3466193057877
20
-1.47311127294111
30
0
41
1
10
45.0319296541229
20
-1.34847696234229
30
0
41
1
10
44.0958821048887
20
-0.958244735240754
30
0
41
1
10
43.4776241452613
20
-0.674725545522335
30
0
41
1
10
42.5484422811298
20
-0.236210895625305
30
0
41
1
10
42.2383604276596
20
-0.0879549013478709
30
0
41
1
10
41.7713917892991
20
0.134758044443402
30
0
41
1
10
41.6154370248047
20
0.209070411521111
30
0
41
1
10
41.3027040962774
20
0.357361701754229
30
0
41
1
10
41.1455816321693
20
0.431457321717204
30
0
41
1
10
40.3617351999337
20
0.797636698431688
30
0
41
1
10
39.7421071382478
20
1.07565812799984
30
0
41
1
10
38.5033829244628
20
1.57489926781457
30
0
41
1
10
37.8842100042227
20
1.79598769119249
30
0
41
1
10
37.1016102820988
20
2.02126892625665
30
0
41
1
10
36.9443451376115
20
2.06384618646953
30
0
41
1
10
36.6310338960981
20
2.14292002714214
30
0
41
1
10
36.4748245814018
20
2.17946582885614
30
0
41
1
10
36.0071834223552
20
2.27991453401151
30
0
41
1
10
35.69680781123
20
2.33468519897139
30
0
41
1
10
34.8850528107878
20
2.44474577536755
30
0
41
1
10
34.3843768256868
20
2.4793441072506
30
0
41
1
10
33.8810898226493
20
2.47915811365982
30
0
0
SPLINE
5
E0
100
AcDbEntity
8
1
62
256
6
ByLayer
370
18
48
1
60
0
100
AcDbSpline
70
4
71
3
72
26
73
22
40
0
40
0
40
0
40
0
40
0.0473922593500493
40
0.0473922593500493
40
0.206160216125044
40
0.206160216125044
40
0.285544194512541
40
0.285544194512541
40
0.364928172900037
40
0.364928172900037
40
0.523696129675029
40
0.523696129675029
40
0.603080108062525
40
0.603080108062525
40
0.682464086450021
40
0.682464086450021
40
0.841232043225011
40
0.841232043225011
40
0.920616021612505
40
0.920616021612505
40
1
40
1
40
1
40
1
41
1
10
19.13227317023
20
-2.35364870315522
30
0
41
1
10
18.946834701518
20
-2.3802220905518
30
0
41
1
10
18.7616484792686
20
-2.4022609284707
30
0
41
1
10
17.9563442806862
20
-2.47811022459032
30
0
41
1
10
17.3373356669199
20
-2.48486714143877
30
0
41
1
10
16.3993267490067
20
-2.41471710128954
30
0
41
1
10
16.084099811301
20
-2.37777500595013
30
0
41
1
10
15.4587262151156
20
-2.27932458551788
30
0
41
1
10
15.1477598563165
20
-2.21759655943285
30
0
41
1
10
14.2165612404354
20
-1.99857886534946
30
0
41
1
10
13.597912950635
20
-1.80773474758109
30
0
41
1
10
12.6634671431231
20
-1.46717512977017
30
0
41
1
10
12.3502533234673
20
-1.34466274048089
30
0
41
1
10
11.7216942290554
20
-1.08564003958284
30
0
41
1
10
11.4094479525628
20
-0.95014087735629
30
0
41
1
10
10.4757983230012
20
-0.532034972471308
30
0
41
1
10
9.8572411739793
20
-0.238335319765213
30
0
41
1
10
8.92519375606764
20
0.203099700467988
30
0
41
1
10
8.61373074026807
20
0.350220405616085
30
0
41
1
10
7.98737122222101
20
0.640323980932379
30
0
41
1
10
7.67224674507557
20
0.783375679407015
30
0
41
1
10
7.35778477796831
20
0.921311508595181
30
0
0
SPLINE
5
E1
100
AcDbEntity
8
1
62
256
6
ByLayer
370
18
48
1
60
0
100
AcDbSpline
70
4
71
3
72
8
73
4
40
0
40
0
40
0
40
0
40
1
40
1
40
1
40
1
41
1
10
67.8904901552868
20
-0.710819189199498
30
0
41
1
10
67.9248641971241
20
-0.509974982882426
30
0
41
1
10
67.9550838242382
20
-0.309152085037255
30
0
41
1
10
67.9811173976435
20
-0.108350657944015
30
0
0
SPLINE
5
E2
100
AcDbEntity
8
1
62
256
6
ByLayer
370
18
48
1
60
0
100
AcDbSpline
70
4
71
3
72
8
73
4
40
0
40
0
40
0
40
0
40
1
40
1
40
1
40
1
41
1
10
67.2151846584949
20
2.40370844550796
30
0
41
1
10
67.1782581658943
20
2.44362980873044
30
0
41
1
10
67.1461568021053
20
2.4713466578464
30
0
41
1
10
67.1185528453813
20
2.48650840927468
30
0
0
SPLINE
5
E3
100
AcDbEntity
8
1
62
256
6
ByLayer
370
18
48
1
60
0
100
AcDbSpline
70
4
71
3
72
8
73
4
40
0
40
0
40
0
40
0
40
1
40
1
40
1
40
1
41
1
10
7.32213911961233
20
0.940394710158472
30
0
41
1
10
7.33337515391872
20
0.931479517121829
30
0
41
1
10
7.34537173982881
20
0.923504363063017
30
0
41
1
10
7.35822221672117
20
0.916583506643263
30
0
0
SPLINE
5
E4
100
AcDbEntity
8
1
62
256
6
ByLayer
370
13
48
1
60
0
100
AcDbSpline
70
4
71
3
72
8
73
4
40
0
40
0
40
0
40
0
40
1
40
1
40
1
40
1
41
1
10
7.46546628854395
20
-2.33831608509141
30
0
41
1
10
7.46547990489029
20
-2.33861312091656
30
0
41
1
10
7.46549395204394
20
-2.33483572732854
30
0
41
1
10
7.46550821836451
20
-2.32709698764123
30
0
0
SPLINE
5
E5
100
AcDbEntity
8
1
62
256
6
ByLayer
370
18
48
1
60
0
100
AcDbSpline
70
4
71
3
72
18
73
14
40
0
40
0
40
0
40
0
40
0.247770222241662
40
0.247770222241662
40
0.495540444483324
40
0.495540444483324
40
0.743310666724985
40
0.743310666724985
40
0.867195777845818
40
0.867195777845818
40
0.991080888966652
40
0.991080888966652
40
1
40
1
40
1
40
1
41
1
10
8.22130159294471
20
-2.28872316218298
30
0
41
1
10
8.51860671662476
20
-2.26120962115891
30
0
41
1
10
8.81528547703306
20
-2.22240009530472
30
0
41
1
10
9.40763627126108
20
-2.12346058084677
30
0
41
1
10
9.70328866417148
20
-2.06339078707529
30
0
41
1
10
10.2965370553419
20
-1.92523914413454
30
0
41
1
10
10.594100116892
20
-1.84584907146069
30
0
41
1
10
11.0386234310896
20
-1.71357164430276
30
0
41
1
10
11.1865011727888
20
-1.66705083323396
30
0
41
1
10
11.4825608232292
20
-1.57071230029513
30
0
41
1
10
11.6307041917614
20
-1.5208867226691
30
0
41
1
10
11.789543177747
20
-1.46553414889166
30
0
41
1
10
11.8002119717307
20
-1.46180680818657
30
0
41
1
10
11.8108818831902
20
-1.45806965776293
30
0
0
SPLINE
5
E6
100
AcDbEntity
8
1
62
256
6
ByLayer
370
18
48
1
60
0
100
AcDbSpline
70
4
71
3
72
78
73
74
40
0
40
0
40
0
40
0
40
0.0148761725795151
40
0.0148761725795151
40
0.0360680110655596
40
0.0360680110655596
40
0.0572598495516041
40
0.0572598495516041
40
0.0784516880376484
40
0.0784516880376484
40
0.120835365009738
40
0.120835365009738
40
0.142027203495783
40
0.142027203495783
40
0.163219041981829
40
0.163219041981829
40
0.20560271895392
40
0.20560271895392
40
0.226794557439966
40
0.226794557439966
40
0.247986395926012
40
0.247986395926012
40
0.290370072898104
40
0.290370072898104
40
0.311561911384151
40
0.311561911384151
40
0.332753749870198
40
0.332753749870198
40
0.375137426842292
40
0.375137426842292
40
0.396329265328339
40
0.396329265328339
40
0.417521103814386
40
0.417521103814386
40
0.438712942300433
40
0.438712942300433
40
0.45990478078648
40
0.45990478078648
40
0.502288457758573
40
0.502288457758573
40
0.52348029624462
40
0.52348029624462
40
0.544672134730667
40
0.544672134730667
40
0.587055811702761
40
0.587055811702761
40
0.629439488674855
40
0.629439488674855
40
0.650631327160902
40
0.650631327160902
40
0.671823165646949
40
0.671823165646949
40
0.714206842619041
40
0.714206842619041
40
0.756590519591133
40
0.756590519591133
40
0.798974196563225
40
0.798974196563225
40
0.820166035049271
40
0.820166035049271
40
0.841357873535317
40
0.841357873535317
40
0.862549712021363
40
0.862549712021363
40
0.883741550507409
40
0.883741550507409
40
0.9261252274795
40
0.9261252274795
40
0.947317065965545
40
0.947317065965545
40
0.968508904451592
40
0.968508904451592
40
1
40
1
40
1
40
1
41
1
10
23.4808764947501
20
2.34795360400167
30
0
41
1
10
23.5849468093003
20
2.3478189974775
30
0
41
1
10
23.6889458511676
20
2.34627084986082
30
0
41
1
10
23.9413342457504
20
2.33922405897073
30
0
41
1
10
24.0896467512197
20
2.33235725601409
30
0
41
1
10
24.3862598491272
20
2.31373962619068
30
0
41
1
10
24.5345554605009
20
2.30204685447885
30
0
41
1
10
24.8314263263107
20
2.27204866893476
30
0
41
1
10
24.9801238919904
20
2.2537156249048
30
0
41
1
10
25.4257518266065
20
2.19003425520714
30
0
41
1
10
25.72275948866
20
2.13686923767529
30
0
41
1
10
26.1676790993364
20
2.04385437681935
30
0
41
1
10
26.315899046008
20
2.0107095922466
30
0
41
1
10
26.6123351463837
20
1.93862374874803
30
0
41
1
10
26.760538797442
20
1.89951046627218
30
0
41
1
10
27.2064409648431
20
1.77583814816691
30
0
41
1
10
27.504311523302
20
1.68431021607634
30
0
41
1
10
27.9494438418633
20
1.53657492432251
30
0
41
1
10
28.0976223531945
20
1.48556734792805
30
0
41
1
10
28.3938301583274
20
1.37927161597517
30
0
41
1
10
28.5422244467357
20
1.32455225940538
30
0
41
1
10
28.9877445968081
20
1.15517978937572
30
0
41
1
10
29.2859279942748
20
1.03572462776904
30
0
41
1
10
29.7313774375898
20
0.849929301203616
30
0
41
1
10
29.8795571622969
20
0.78685153933219
30
0
41
1
10
30.1762558437354
20
0.659503275115043
30
0
41
1
10
30.3246393149282
20
0.594942174856413
30
0
41
1
10
30.769922958722
20
0.399259616814504
30
0
41
1
10
31.0671870722007
20
0.266039129575518
30
0
41
1
10
31.5132213819995
20
0.0636922450326836
30
0
41
1
10
31.6619699712098
20
-0.0032512006887373
30
0
41
1
10
31.9590709477942
20
-0.137342071645662
30
0
41
1
10
32.1074954003561
20
-0.204301961760791
30
0
41
1
10
32.4042821511143
20
-0.337537648200936
30
0
41
1
10
32.5526267284655
20
-0.403878210157529
30
0
41
1
10
32.8492237198436
20
-0.536029505648258
30
0
41
1
10
32.9975162948462
20
-0.601727870711784
30
0
41
1
10
33.4436643548675
20
-0.794743642371117
30
0
41
1
10
33.7418725801658
20
-0.919486791941068
30
0
41
1
10
34.1874044086792
20
-1.10035096934809
30
0
41
1
10
34.3356742250377
20
-1.15983596063597
30
0
41
1
10
34.6321461344897
20
-1.27660643727793
30
0
41
1
10
34.7806367172799
20
-1.33276620988204
30
0
41
1
10
35.2264585305173
20
-1.49521234302409
30
0
41
1
10
35.5248248837913
20
-1.59619307513617
30
0
41
1
10
36.1193753723483
20
-1.78353885569629
30
0
41
1
10
36.41625536658
20
-1.8699667327983
30
0
41
1
10
36.86193423453
20
-1.98385518013083
30
0
41
1
10
37.0105336117902
20
-2.01948959940509
30
0
41
1
10
37.3077438883284
20
-2.08662216902962
30
0
41
1
10
37.456358142339
20
-2.11786902380672
30
0
41
1
10
37.9030935914694
20
-2.20144441126655
30
0
41
1
10
38.2005579295019
20
-2.24499106659371
30
0
41
1
10
38.7948940437947
20
-2.31198412638238
30
0
41
1
10
39.0912355971459
20
-2.337295632409
30
0
41
1
10
39.6865199382607
20
-2.36037441329688
30
0
41
1
10
39.9846569461653
20
-2.36139846910868
30
0
41
1
10
40.430163419658
20
-2.34356415379818
30
0
41
1
10
40.5783835978199
20
-2.33442656189038
30
0
41
1
10
40.8753292870636
20
-2.31062392071826
30
0
41
1
10
41.0239029781999
20
-2.29602032590299
30
0
41
1
10
41.3211823950944
20
-2.2616673442825
30
0
41
1
10
41.4699275616082
20
-2.2417227330379
30
0
41
1
10
41.7676072764357
20
-2.19700920609816
30
0
41
1
10
41.9164067236953
20
-2.17244103170705
30
0
41
1
10
42.3617461067709
20
-2.0885351564603
30
0
41
1
10
42.6585739016539
20
-2.02118197907987
30
0
41
1
10
43.1039350798205
20
-1.90702489547365
30
0
41
1
10
43.2524136994015
20
-1.86676270047184
30
0
41
1
10
43.5493716914282
20
-1.7817926749812
30
0
41
1
10
43.6978419522951
20
-1.73678241414277
30
0
41
1
10
44.0676916513098
20
-1.61998145181937
30
0
41
1
10
44.2884663243682
20
-1.5455996304309
30
0
41
1
10
44.5090629977634
20
-1.46734506885315
30
0
0
SPLINE
5
E7
100
AcDbEntity
8
1
62
256
6
ByLayer
370
18
48
1
60
0
100
AcDbSpline
70
4
71
3
72
36
73
32
40
0
40
0
40
0
40
0
40
0.0108809064089736
40
0.0108809064089736
40
0.109792815768084
40
0.109792815768084
40
0.159248770447637
40
0.159248770447637
40
0.20870472512719
40
0.20870472512719
40
0.307616634486297
40
0.307616634486297
40
0.357072589165848
40
0.357072589165848
40
0.4065285438454
40
0.4065285438454
40
0.505440453204498
40
0.505440453204498
40
0.604352362563597
40
0.604352362563597
40
0.703264271922696
40
0.703264271922696
40
0.802176181281795
40
0.802176181281795
40
0.851632135961346
40
0.851632135961346
40
0.901088090640897
40
0.901088090640897
40
0.950544045320449
40
0.950544045320449
40
1
40
1
40
1
40
1
41
1
10
56.2125164169871
20
2.36707944489464
30
0
41
1
10
56.2451665178988
20
2.36704446237306
30
0
41
1
10
56.2778143561517
20
2.36687297395483
30
0
41
1
10
56.6071999476897
20
2.3637446702817
30
0
41
1
10
56.9035221354078
20
2.34780060670371
30
0
41
1
10
57.3478939978557
20
2.30759139158801
30
0
41
1
10
57.4959455224913
20
2.29137702844861
30
0
41
1
10
57.792133479717
20
2.253860276437
30
0
41
1
10
57.9405784040079
20
2.23288720399589
30
0
41
1
10
58.3861944461513
20
2.16145188267984
30
0
41
1
10
58.6824947007178
20
2.10201504456157
30
0
41
1
10
59.1263315746218
20
1.99756552051249
30
0
41
1
10
59.2741930432959
20
1.96018885355346
30
0
41
1
10
59.5704062378277
20
1.88151200113378
30
0
41
1
10
59.7185965553337
20
1.84008188440828
30
0
41
1
10
60.1634856668866
20
1.70930873905459
30
0
41
1
10
60.4603638635733
20
1.61234279856779
30
0
41
1
10
61.0519544165904
20
1.40397794731655
30
0
41
1
10
61.3481298939213
20
1.2931381676643
30
0
41
1
10
61.9407848436155
20
1.05912773012957
30
0
41
1
10
62.2374911000713
20
0.935318040641732
30
0
41
1
10
62.8300149932181
20
0.682441124957762
30
0
41
1
10
63.1258918513437
20
0.55228713376502
30
0
41
1
10
63.569870770027
20
0.353174096065373
30
0
41
1
10
63.7177623678398
20
0.285913807721215
30
0
41
1
10
64.0139817251445
20
0.151171009036375
30
0
41
1
10
64.1625154041241
20
0.0838091945832673
30
0
41
1
10
64.4591142747606
20
-0.051173109374588
30
0
41
1
10
64.6072302803478
20
-0.118690525400325
30
0
41
1
10
64.903305935038
20
-0.253120439949868
30
0
41
1
10
65.0512564169937
20
-0.320064357625796
30
0
41
1
10
65.199149628487
20
-0.386718695668606
30
0
0
SPLINE
5
E8
100
AcDbEntity
8
1
62
256
6
ByLayer
370
18
48
1
60
0
100
AcDbSpline
70
4
71
3
72
12
73
8
40
0
40
0
40
0
40
0
40
0.250000000000065
40
0.250000000000065
40
0.50000000000013
40
0.50000000000013
40
1
40
1
40
1
40
1
41
1
10
66.9398239096676
20
0.647901501342432
30
0
41
1
10
66.9377830944512
20
0.657845392280421
30
0
41
1
10
66.9377076069347
20
0.668260082940037
30
0
41
1
10
66.9433762911697
20
0.687635977980506
30
0
41
1
10
66.949348540748
20
0.696559471692979
30
0
41
1
10
66.9730521864399
20
0.716230724169918
30
0
41
1
10
66.994412239439
20
0.72032989890414
30
0
41
1
10
67.0148140468316
20
0.720043824800115
30
0
0
SPLINE
5
E9
100
AcDbEntity
8
1
62
256
6
ByLayer
370
18
48
1
60
0
100
AcDbSpline
70
4
71
3
72
8
73
4
40
0
40
0
40
0
40
0
40
1
40
1
40
1
40
1
41
1
10
7.35778477796811
20
0.921311508595267
30
0
41
1
10
7.34524530592742
20
0.926811831859851
30
0
41
1
10
7.33337269998137
20
0.93318818128202
30
0
41
1
10
7.32213911961895
20
0.940394710165833
30
0
0
SPLINE
5
EA
100
AcDbEntity
8
1
62
256
6
ByLayer
370
18
48
1
60
0
100
AcDbSpline
70
4
71
3
72
8
73
4
40
0
40
0
40
0
40
0
40
1
40
1
40
1
40
1
41
1
10
67.0148140468319
20
0.720043824797813
30
0
41
1
10
67.3068768374383
20
0.715948520911411
30
0
41
1
10
67.5990113681378
20
0.711424499601378
30
0
41
1
10
67.8904901552868
20
0.710819189199896
30
0
0
SPLINE
5
EB
100
AcDbEntity
8
SK1
62
256
6
ByLayer
370
18
48
1
60
0
100
AcDbSpline
70
4
71
3
72
8
73
4
40
0
40
0
40
0
40
0
40
1
40
1
40
1
40
1
41
1
10
-35.4
20
0.531279056494014
30
0
41
1
10
-35.6037649922731
20
0.560779505573606
30
0
41
1
10
-35.8061220492769
20
0.590347809228064
30
0
41
1
10
-35.9999999999999
20
0.62027036582441
30
0
0
SPLINE
5
EC
100
AcDbEntity
8
SK1
62
256
6
ByLayer
370
18
48
1
60
0
100
AcDbSpline
70
4
71
3
72
14
73
10
40
0
40
0
40
0
40
0
40
0.499999999999998
40
0.499999999999998
40
0.749999999999997
40
0.749999999999997
40
0.874999999999999
40
0.874999999999999
40
1
40
1
40
1
40
1
41
1
10
-35.3999999999999
20
-0.963851829739667
30
0
41
1
10
-35.3787677796885
20
-0.96692576323116
30
0
41
1
10
-35.3584290958895
20
-0.963948654875878
30
0
41
1
10
-35.3303626450498
20
-0.947301920442015
30
0
41
1
10
-35.3215171954455
20
-0.939754135227361
30
0
41
1
10
-35.3102812516991
20
-0.922889532815788
30
0
41
1
10
-35.3068890218584
20
-0.916296052978453
30
0
41
1
10
-35.3017585680987
20
-0.900531180922087
30
0
41
1
10
-35.3
20
-0.891156302872702
30
0
41
1
10
-35.3
20
-0.880579386294841
30
0
0
SPLINE
5
ED
100
AcDbEntity
8
SK1
62
256
6
ByLayer
370
18
48
1
60
0
100
AcDbSpline
70
4
71
3
72
8
73
4
40
0
40
0
40
0
40
0
40
1
40
1
40
1
40
1
41
1
10
-36
20
-0.874860520408447
30
0
41
1
10
-35.8060547428094
20
-0.9047934648884
30
0
41
1
10
-35.6037435428984
20
-0.93435448603168
30
0
41
1
10
-35.4
20
-0.963851829738871
30
0
0
SPLINE
5
EE
100
AcDbEntity
8
SK1
62
256
6
ByLayer
370
18
48
1
60
0
100
AcDbSpline
70
4
71
3
72
14
73
10
40
0
40
0
40
0
40
0
40
0.125
40
0.125
40
0.25
40
0.25
40
0.5
40
0.5
40
1
40
1
40
1
40
1
41
1
10
-35.3
20
0.415200715106977
30
0
41
1
10
-35.3
20
0.426208476023589
30
0
41
1
10
-35.3017630921622
20
0.436437670416581
30
0
41
1
10
-35.3069001258798
20
0.454320754513958
30
0
41
1
10
-35.3102891553569
20
0.462147770616781
30
0
41
1
10
-35.3214371862118
20
0.482842583070777
30
0
41
1
10
-35.3303375656042
20
0.493400357135187
30
0
41
1
10
-35.3581287596296
20
0.518839598880703
30
0
41
1
10
-35.378758598852
20
0.528203793830414
30
0
41
1
10
-35.3999999999999
20
0.531279056494299
30
0
0
SPLINE
5
EF
100
AcDbEntity
8
SK1
62
256
6
ByLayer
370
18
48
1
60
0
100
AcDbSpline
70
4
71
3
72
8
73
4
40
0
40
0
40
0
40
0
40
1
40
1
40
1
40
1
41
1
10
-35.4
20
-0.531279056493958
30
0
41
1
10
-35.6037649922731
20
-0.560779505573549
30
0
41
1
10
-35.8061220492769
20
-0.590347809228035
30
0
41
1
10
-35.9999999999999
20
-0.620270365824382
30
0
0
SPLINE
5
F0
100
AcDbEntity
8
SK1
62
256
6
ByLayer
370
18
48
1
60
0
100
AcDbSpline
70
4
71
3
72
14
73
10
40
0
40
0
40
0
40
0
40
0.125
40
0.125
40
0.25
40
0.25
40
0.499999999999999
40
0.499999999999999
40
1
40
1
40
1
40
1
41
1
10
-35.3
20
-0.415200715106948
30
0
41
1
10
-35.3
20
-0.426208476023561
30
0
41
1
10
-35.3017630921622
20
-0.436437670416524
30
0
41
1
10
-35.3069001258798
20
-0.45432075451393
30
0
41
1
10
-35.3102891553569
20
-0.462147770616724
30
0
41
1
10
-35.3214371862118
20
-0.48284258307072
30
0
41
1
10
-35.3303375656042
20
-0.493400357135158
30
0
41
1
10
-35.3581287596296
20
-0.518839598880675
30
0
41
1
10
-35.378758598852
20
-0.528203793830357
30
0
41
1
10
-35.3999999999999
20
-0.53127905649427
30
0
0
LINE
5
76
100
AcDbEntity
8
81
62
256
6
ByLayer
370
18
48
1
60
0
100
AcDbLine
10
68
20
0
30
0
11
73
21
0
31
0
39
0
210
0
220
0
230
1
0
LINE
5
77
100
AcDbEntity
8
1
62
256
6
ByLayer
370
18
48
1
60
0
100
AcDbLine
10
7.248684
20
2.462521
30
0
11
0.5
21
2.458303
31
0
39
0
210
0
220
0
230
1
0
LINE
5
79
100
AcDbEntity
8
1
62
256
6
ByLayer
370
18
48
1
60
0
100
AcDbLine
10
17.528256
20
2.468946
30
0
11
16.707267
21
2.468433
31
0
39
0
210
0
220
0
230
1
0
LINE
5
7A
100
AcDbEntity
8
1
62
256
6
ByLayer
370
18
48
1
60
0
100
AcDbLine
10
33.878799
20
2.479165
30
0
11
33.060748
21
2.478654
31
0
39
0
210
0
220
0
230
1
0
LINE
5
7B
100
AcDbEntity
8
1
62
256
6
ByLayer
370
18
48
1
60
0
100
AcDbLine
10
50.22856
20
2.489384
30
0
11
49.416428
21
2.488876
31
0
39
0
210
0
220
0
230
1
0
LINE
5
7C
100
AcDbEntity
8
1
62
256
6
ByLayer
370
18
48
1
60
0
100
AcDbLine
10
66.579362
20
2.499603
30
0
11
65.768417
21
2.499096
31
0
39
0
210
0
220
0
230
1
0
LINE
5
7D
100
AcDbEntity
8
1
62
256
6
ByLayer
370
18
48
1
60
0
100
AcDbLine
10
65.768417
20
-2.499096
30
0
11
66.579701
21
-2.499603
31
0
39
0
210
0
220
0
230
1
0
LINE
5
7E
100
AcDbEntity
8
1
62
256
6
ByLayer
370
18
48
1
60
0
100
AcDbLine
10
49.416428
20
-2.488876
30
0
11
50.229201
21
-2.489384
31
0
39
0
210
0
220
0
230
1
0
LINE
5
7F
100
AcDbEntity
8
1
62
256
6
ByLayer
370
18
48
1
60
0
100
AcDbLine
10
33.060748
20
-2.478654
30
0
11
33.878293
21
-2.479165
31
0
39
0
210
0
220
0
230
1
0
LINE
5
80
100
AcDbEntity
8
1
62
256
6
ByLayer
370
18
48
1
60
0
100
AcDbLine
10
16.707267
20
-2.468433
30
0
11
17.528085
21
-2.468946
31
0
39
0
210
0
220
0
230
1
0
LINE
5
81
100
AcDbEntity
8
1
62
256
6
ByLayer
370
18
48
1
60
0
100
AcDbLine
10
0.5
20
-2.458303
30
0
11
7.248684
21
-2.462521
31
0
39
0
210
0
220
0
230
1
0
LINE
5
82
100
AcDbEntity
8
1
62
256
6
ByLayer
370
18
48
1
60
0
100
AcDbLine
10
0
20
-3
30
0
11
0.5
21
-2.458303
31
0
39
0
210
0
220
0
230
1
0
LINE
5
83
100
AcDbEntity
8
1
62
256
6
ByLayer
370
18
48
1
60
0
100
AcDbLine
10
0.5
20
2.458303
30
0
11
0
21
3
31
0
39
0
210
0
220
0
230
1
0
LINE
5
84
100
AcDbEntity
8
SK1
62
256
6
ByLayer
370
18
48
1
60
0
100
AcDbLine
10
-35.278312
20
3
30
0
11
-36
21
1.75
31
0
39
0
210
0
220
0
230
1
0
LINE
5
86
100
AcDbEntity
8
SK1
62
256
6
ByLayer
370
18
48
1
60
0
100
AcDbLine
10
-36
20
-1.75
30
0
11
-35.278312
21
-3
31
0
39
0
210
0
220
0
230
1
0
LINE
5
87
100
AcDbEntity
8
SK1
62
256
6
ByLayer
370
18
48
1
60
0
100
AcDbLine
10
0
20
3
30
0
11
-35.278312
21
3
31
0
39
0
210
0
220
0
230
1
0
LINE
5
88
100
AcDbEntity
8
SK1
62
256
6
ByLayer
370
18
48
1
60
0
100
AcDbLine
10
-35.278312
20
-3
30
0
11
0
21
-3
31
0
39
0
210
0
220
0
230
1
0
LINE
5
89
100
AcDbEntity
8
SK4
62
256
6
ByLayer
370
18
48
0.05
60
0
100
AcDbLine
10
73
20
0
30
0
11
-41
21
0
31
0
39
0
210
0
220
0
230
1
0
LINE
5
8B
100
AcDbEntity
8
4
62
256
6
ByLayer
370
18
48
0.05
60
0
100
AcDbLine
10
68
20
0
30
0
11
0
21
0
31
0
39
0
210
0
220
0
230
1
0
LINE
5
8D
100
AcDbEntity
8
80
62
256
6
ByLayer
370
18
48
1
60
0
100
AcDbLine
10
0
20
0
30
0
11
-5
21
0
31
0
39
0
210
0
220
0
230
1
0
LINE
5
8E
100
AcDbEntity
8
1
62
256
6
ByLayer
370
13
48
1
60
0
100
AcDbLine
10
67.014814
20
0.720044
30
0
11
67.981117
21
0.108351
31
0
39
0
210
0
220
0
230
1
0
LINE
5
8F
100
AcDbEntity
8
1
62
256
6
ByLayer
370
13
48
1
60
0
100
AcDbLine
10
66.939824
20
0.647902
30
0
11
67.98317
21
-0.012562
31
0
39
0
210
0
220
0
230
1
0
LINE
5
90
100
AcDbEntity
8
1
62
256
6
ByLayer
370
18
48
1
60
0
100
AcDbLine
10
66.744746
20
-1.746465
30
0
11
67.09398
21
-1.272453
31
0
39
0
210
0
220
0
230
1
0
LINE
5
91
100
AcDbEntity
8
1
62
256
6
ByLayer
370
18
48
1
60
0
100
AcDbLine
10
67.494021
20
-0.729481
30
0
11
67.879862
21
-0.205782
31
0
39
0
210
0
220
0
230
1
0
LINE
5
92
100
AcDbEntity
8
1
62
256
6
ByLayer
370
18
48
1
60
0
100
AcDbLine
10
0
20
-3
30
0
11
0
21
3
31
0
39
0
210
0
220
0
230
1
0
LINE
5
93
100
AcDbEntity
8
1
62
256
6
ByLayer
370
18
48
1
60
0
100
AcDbLine
10
0.5
20
2.458303
30
0
11
0.5
21
-2.458303
31
0
39
0
210
0
220
0
230
1
0
LINE
5
94
100
AcDbEntity
8
SK1
62
256
6
ByLayer
370
18
48
1
60
0
100
AcDbLine
10
-36
20
-0.62027
30
0
11
-36
21
-0.874861
31
0
39
0
210
0
220
0
230
1
0
LINE
5
95
100
AcDbEntity
8
SK1
62
256
6
ByLayer
370
18
48
1
60
0
100
AcDbLine
10
-35.278312
20
3
30
0
11
-35.278312
21
-3
31
0
39
0
210
0
220
0
230
1
0
LINE
5
96
100
AcDbEntity
8
SK1
62
256
6
ByLayer
370
18
48
1
60
0
100
AcDbLine
10
-35.3
20
-0.880579
30
0
11
-35.3
21
0.415201
31
0
39
0
210
0
220
0
230
1
0
LINE
5
97
100
AcDbEntity
8
SK1
62
256
6
ByLayer
370
18
48
1
60
0
100
AcDbLine
10
-36
20
1.75
30
0
11
-36
21
0.62027
31
0
39
0
210
0
220
0
230
1
0
LINE
5
98
100
AcDbEntity
8
SK1
62
256
6
ByLayer
370
13
48
1
60
0
100
AcDbLine
10
-35.4
20
-0.531279
30
0
11
-35.4
21
-0.963852
31
0
39
0
210
0
220
0
230
1
0
LINE
5
99
100
AcDbEntity
8
SK1
62
256
6
ByLayer
370
18
48
1
60
0
100
AcDbLine
10
-36
20
-1.75
30
0
11
-36
21
-0.874861
31
0
39
0
210
0
220
0
230
1
0
LINE
5
9A
100
AcDbEntity
8
SK1
62
256
6
ByLayer
370
18
48
1
60
0
100
AcDbLine
10
0
20
-3
30
0
11
0
21
3
31
0
39
0
210
0
220
0
230
1
0
MTEXT
5
F1
100
AcDbEntity
8
SK6
62
256
6
ByLayer
370
13
48
1
60
0
100
AcDbMText
10
18.129169
20
34.882694
30
0
210
0
220
0
230
1
1
\W0.7538;460.1-0500-038A1-XM GC34
40
3.5
41
0
44
1.084337
50
0
71
8
72
5
7
iso_b_vert
0
DIMENSION
5
FE
100
AcDbEntity
8
SK2
62
256
6
ByLayer
370
13
48
1
60
0
100
AcDbDimension
2
DimnDraft3D1
10
67.2695
20
-12.713398
30
0
11
32.519559
21
-12.713398
31
0
70
32
71
5
72
1
41
1
210
0
220
0
230
1
3
Standard
100
AcDbAlignedDimension
13
0
23
-1.5875
33
0
14
67.2695
24
-4.0875
34
0
50
0
100
AcDbRotatedDimension
1001
ACAD
1000
DSTYLE
1002
{
1070
   279
1070
     0
1070
   172
1070
     1
1070
   173
1070
     1
1070
   340
1005
F2
1070
   271
1070
     2
1070
   272
1070
     2
1070
    77
1070
     1
1070
    73
1070
     0
1070
   171
1070
     3
1070
   274
1070
     4
1070
   177
1070
    35
1070
   176
1070
    35
1070
   178
1070
    35
1070
    48
1040
-0.005
1070
    41
1041
3.5
1070
   147
1041
1.75
1070
    42
1041
1.5875
1070
    44
1041
2.0
1070
   140
1041
3.5
1070
   343
1005
0
1070
   344
1005
0
1002
}
0
DIMENSION
5
108
100
AcDbEntity
8
SK2
62
256
6
ByLayer
370
13
48
1
60
0
100
AcDbDimension
2
DimnDraft3D2
10
68
20
-31.692985
30
0
11
16.6108
21
-31.692985
31
0
70
32
71
5
72
1
41
1
210
0
220
0
230
1
3
Standard
100
AcDbAlignedDimension
13
-36
23
-4.5875
33
0
14
68
24
-1.5875
34
0
50
0
100
AcDbRotatedDimension
1001
ACAD
1000
DSTYLE
1002
{
1070
   279
1070
     0
1070
   172
1070
     1
1070
   173
1070
     1
1070
   340
1005
F2
1070
   271
1070
     2
1070
   272
1070
     2
1070
    77
1070
     1
1070
    73
1070
     0
1070
   171
1070
     3
1070
   274
1070
     4
1070
   177
1070
    35
1070
   176
1070
    35
1070
   178
1070
    35
1070
    48
1040
-0.005
1070
    41
1041
3.5
1070
   147
1041
1.75
1070
    42
1041
1.5875
1070
    44
1041
2.0
1070
   140
1041
3.5
1070
   343
1005
0
1070
   344
1005
0
1002
}
0
DIMENSION
5
112
100
AcDbEntity
8
SK2
62
256
6
ByLayer
370
13
48
1
60
0
100
AcDbDimension
2
DimnDraft3D3
10
68
20
14.109119
30
0
11
47.635
21
14.109119
31
0
70
32
71
5
72
1
41
1
210
0
220
0
230
1
3
Standard
100
AcDbAlignedDimension
13
27.27
23
4.0875
33
0
14
68
24
1.5875
34
0
50
0
100
AcDbRotatedDimension
1001
ACAD
1000
DSTYLE
1002
{
1070
   279
1070
     0
1070
   172
1070
     1
1070
   173
1070
     1
1070
   340
1005
F2
1070
   271
1070
     2
1070
   272
1070
     2
1070
    77
1070
     1
1070
    73
1070
     0
1070
   171
1070
     3
1070
   274
1070
     4
1070
   177
1070
    35
1070
   176
1070
    35
1070
   178
1070
    35
1070
    48
1040
-0.005
1070
    41
1041
3.5
1070
   147
1041
1.75
1070
    42
1041
1.5875
1070
    44
1041
2.0
1070
   140
1041
3.5
1070
   343
1005
0
1070
   344
1005
0
1002
}
0
DIMENSION
5
11C
100
AcDbEntity
8
SK2
62
256
6
ByLayer
370
13
48
1
60
0
100
AcDbDimension
2
DimnDraft3D4
10
67.2695
20
-15.302503
30
0
11
77.981425
21
-15.302503
31
0
70
32
71
5
72
1
41
1
210
0
220
0
230
1
3
Standard
100
AcDbAlignedDimension
13
68
23
-1.5875
33
0
14
67.2695
24
-4.0875
34
0
50
0
100
AcDbRotatedDimension
1001
ACAD
1000
DSTYLE
1002
{
1070
   279
1070
     0
1070
   172
1070
     1
1070
   173
1070
     1
1070
   340
1005
F2
1070
   271
1070
     2
1070
   272
1070
     2
1070
    77
1070
     1
1070
    73
1070
     0
1070
   171
1070
     3
1070
   274
1070
     4
1070
   177
1070
    35
1070
   176
1070
    35
1070
   178
1070
    35
1070
    48
1040
-0.005
1070
    41
1041
3.5
1070
   147
1041
1.75
1070
    42
1041
1.5875
1070
    44
1041
2.0
1070
   140
1041
3.5
1070
   343
1005
0
1070
   344
1005
0
1002
}
0
DIMENSION
5
126
100
AcDbEntity
8
SK2
62
256
6
ByLayer
370
13
48
1
60
0
100
AcDbDimension
2
DimnDraft3D5
10
67.2695
20
-21.343428
30
0
11
13.530176
21
-21.343428
31
0
70
32
71
5
72
1
41
1
210
0
220
0
230
1
3
Standard
100
AcDbAlignedDimension
13
-36
23
-4.5875
33
0
14
67.2695
24
-4.0875
34
0
50
0
100
AcDbRotatedDimension
1001
ACAD
1000
DSTYLE
1002
{
1070
   279
1070
     0
1070
   172
1070
     1
1070
   173
1070
     1
1070
   340
1005
F2
1070
   271
1070
     2
1070
   272
1070
     2
1070
    77
1070
     1
1070
    73
1070
     0
1070
   171
1070
     3
1070
   274
1070
     4
1070
   177
1070
    35
1070
   176
1070
    35
1070
   178
1070
    35
1070
    48
1040
-0.005
1070
    41
1041
3.5
1070
   147
1041
1.75
1070
    42
1041
1.5875
1070
    44
1041
2.0
1070
   140
1041
3.5
1070
   343
1005
0
1070
   344
1005
0
1002
}
0
DIMENSION
5
131
100
AcDbEntity
8
SK2
62
256
6
ByLayer
370
13
48
1
60
0
100
AcDbDimension
2
DimnDraft3D6
10
-46.625163
20
3
30
0
11
-47.250163
21
21.47418
31
0
70
33
71
5
72
1
41
1
210
0
220
0
230
1
3
Standard
100
AcDbAlignedDimension
13
-37.5875
23
-3
33
0
14
-37.5875
24
3
34
0
1001
ACAD
1000
DSTYLE
1002
{
1070
   279
1070
     0
1070
    74
1070
     0
1070
   173
1070
     1
1070
   340
1005
F2
1070
   271
1070
     3
1070
   272
1070
     2
1070
    77
1070
     1
1070
    73
1070
     0
1070
   171
1070
     3
1070
   274
1070
     4
1070
   177
1070
    35
1070
   176
1070
    35
1070
   178
1070
    35
1070
    48
1040
-0.005
1070
    41
1041
3.5
1070
   147
1041
1.75
1070
    42
1041
1.5875
1070
    44
1041
2.0
1070
   140
1041
3.5
1070
   343
1005
0
1070
   344
1005
0
1002
}
0
DIMENSION
5
13C
100
AcDbEntity
8
2
62
256
6
ByLayer
370
13
48
1
60
0
100
AcDbDimension
2
DimnDraft3D7
10
82.083343
20
2.5
30
0
11
77.458343
21
19.567266
31
0
70
33
71
5
72
1
41
1
210
0
220
0
230
1
3
Standard
100
AcDbAlignedDimension
13
68.857
23
-2.5
33
0
14
68.857
24
2.5
34
0
1001
ACAD
1000
DSTYLE
1002
{
1070
   279
1070
     0
1070
    74
1070
     0
1070
   173
1070
     1
1070
   340
1005
F2
1070
   271
1070
     3
1070
   272
1070
     2
1070
    77
1070
     1
1070
    73
1070
     0
1070
   171
1070
     3
1070
   274
1070
     4
1070
   177
1070
    35
1070
   176
1070
    35
1070
   178
1070
    35
1070
    48
1040
-0.005
1070
    41
1041
3.5
1070
   147
1041
1.75
1070
    42
1041
1.5875
1070
    44
1041
2.0
1070
   140
1041
3.5
1070
   343
1005
0
1070
   344
1005
0
1002
}
0
ENDSEC
0
SECTION
2
OBJECTS
0
DICTIONARY
5
1a7
330
0
100
AcDbDictionary
280
0
281
1
3
ACAD_GROUP
350
1a8
3
ACAD_MLINESTYLE
350
1a9
0
DICTIONARY
5
1a8
330
0
100
AcDbDictionary
280
0
281
1
0
DICTIONARY
5
1a9
330
0
100
AcDbDictionary
280
0
281
1
3
Standard
350
18
0
MLINESTYLE
5
18
330
1a9
100
AcDbMlineStyle
2
Standard
70
0
3

62
256
51
90
52
90
71
2
49
-0.5
62
256
6
ByLayer
49
0.5
62
256
6
ByLayer
0
RASTERVARIABLES
5
195
330

100
AcDbRasterVariables
90
0
70
1
71
1
72
1
0
ENDSEC
0
EOF
