0
SECTION
2
HEADER
9
$ACADVER
1
AC1015
9
$DWGCODEPAGE
3
ANSI_1252
9
$HANDSEED
5
1b6
9
$ANGBASE
50
0
9
$ANGDIR
70
0
9
$ATTMODE
70
1
9
$AUNITS
70
0
9
$AUPREC
70
0
9
$CECOLOR
62
256
9
$CELTSCALE
40
1
9
$CELTYPE
6
ByLayer
9
$CELWEIGHT
370
18
9
$CLAYER
8
0
9
$CMLJUST
70
0
9
$CMLSCALE
40
1
9
$CMLSTYLE
2
Standard
9
$DIMSTYLE
2
Standard
9
$TEXTSIZE
40
0.2
9
$TEXTSTYLE
7
Standard
9
$LUNITS
70
2
9
$LUPREC
70
4
9
$EXTNAMES
290
1
9
$INSUNITS
70
4
9
$LTSCALE
40
1
9
$LWDISPLAY
290
1
9
$PDMODE
70
0
9
$PDSIZE
40
0
9
$PLINEGEN
70
0
0
ENDSEC
0
SECTION
2
CLASSES
0
CLASS
1
RASTERVARIABLES
2
AcDbRasterVariables
3
ISM
90
0
280
0
281
0
0
ENDSEC
0
SECTION
2
TABLES
0
TABLE
2
VPORT
5
1ac
100
AcDbSymbolTable
0
VPORT
5
1
100
AcDbSymbolTableRecord
100
AcDbViewportTableRecord
2
*Active
70
0
10
0
20
0
11
1
21
1
12
-1
22
1
13
0
23
0
14
0.5
24
0.5
15
10
25
10
16
0
26
0
36
1
17
0
27
0
37
0
0
ENDTAB
0
TABLE
2
LTYPE
5
1ad
100
AcDbSymbolTable
0
LTYPE
5
14
100
AcDbSymbolTableRecord
100
AcDbLinetypeTableRecord
70
0
2
ByBlock
3

72
65
73
0
40
0
0
LTYPE
5
15
100
AcDbSymbolTableRecord
100
AcDbLinetypeTableRecord
70
0
2
ByLayer
3

72
65
73
0
40
0
0
LTYPE
5
16
100
AcDbSymbolTableRecord
100
AcDbLinetypeTableRecord
70
0
2
CONTINUOUS
3
Solid line
72
65
73
0
40
0
0
LTYPE
5
6A
100
AcDbSymbolTableRecord
100
AcDbLinetypeTableRecord
70
0
2
CENTER
3
____ _ ____ _ ____ _ ____
72
65
73
4
40
47.5
49
22
74
0
49
-8.5
74
0
49
8.5
74
0
49
-8.5
74
0
0
LTYPE
5
6B
100
AcDbSymbolTableRecord
100
AcDbLinetypeTableRecord
70
0
2
DASHED
3
__ __ __ __ __ __ __ __ __
72
65
73
2
40
25.72
49
12.86
74
0
49
-12.86
74
0
0
ENDTAB
0
TABLE
2
LAYER
5
1ae
100
AcDbSymbolTable
0
LAYER
5
10
100
AcDbSymbolTableRecord
100
AcDbLayerTableRecord
2
0
70
0
62
7
6
CONTINUOUS
290
1
370
-3
390
0
0
LAYER
5
6D
100
AcDbSymbolTableRecord
100
AcDbLayerTableRecord
2
81
70
0
62
-3
6
CONTINUOUS
290
1
370
-3
390
0
0
LAYER
5
6F
100
AcDbSymbolTableRecord
100
AcDbLayerTableRecord
2
80
70
0
62
-6
6
CONTINUOUS
290
1
370
-3
390
0
0
LAYER
5
74
100
AcDbSymbolTableRecord
100
AcDbLayerTableRecord
2
2
70
0
62
7
6
CONTINUOUS
290
1
370
-3
390
0
0
LAYER
5
78
100
AcDbSymbolTableRecord
100
AcDbLayerTableRecord
2
1
70
0
62
4
6
CONTINUOUS
290
1
370
-3
390
0
0
LAYER
5
8E
100
AcDbSymbolTableRecord
100
AcDbLayerTableRecord
2
4
70
0
62
-2
6
CENTER
290
1
370
-3
390
0
0
LAYER
5
198
100
AcDbSymbolTableRecord
100
AcDbLayerTableRecord
2
SK2
70
0
62
7
6
CONTINUOUS
290
1
370
-3
390
0
0
LAYER
5
199
100
AcDbSymbolTableRecord
100
AcDbLayerTableRecord
2
SK1
70
0
62
4
6
CONTINUOUS
290
1
370
-3
390
0
0
LAYER
5
19a
100
AcDbSymbolTableRecord
100
AcDbLayerTableRecord
2
SK4
70
0
62
2
6
CENTER
290
1
370
-3
390
0
0
LAYER
5
19b
100
AcDbSymbolTableRecord
100
AcDbLayerTableRecord
2
SK6
70
0
62
5
6
CONTINUOUS
290
1
370
-3
390
0
0
ENDTAB
0
TABLE
2
STYLE
5
1af
100
AcDbSymbolTable
0
STYLE
5
11
100
AcDbSymbolTableRecord
100
AcDbTextStyleTableRecord
2
Standard
3
txt
70
0
71
0
40
0
41
1
42
0
50
0
0
STYLE
5
F4
100
AcDbSymbolTableRecord
100
AcDbTextStyleTableRecord
2
iso_b_vert
3
simplex.shx
70
0
71
0
40
0
41
1
42
0
50
0
0
STYLE
5
F5
100
AcDbSymbolTableRecord
100
AcDbTextStyleTableRecord
2
DWGDirectTextStyle
3
simplex
70
0
71
0
40
0
41
1
42
0
50
0
0
ENDTAB
0
TABLE
2
DIMSTYLE
5
1b0
100
AcDbSymbolTable
100
AcDbDimStyleTable
0
DIMSTYLE
105
27
100
AcDbSymbolTableRecord
100
AcDbDimStyleTableRecord
2
Standard
70
0
3
<>
41
0.18
42
0.0625
44
0.18
140
0.18
147
0.09
73
0
74
0
77
1
271
2
275
0
278
52
280
0
340
11
0
ENDTAB
0
TABLE
2
VIEW
5
1b1
100
AcDbSymbolTable
0
ENDTAB
0
TABLE
2
UCS
5
1b2
100
AcDbSymbolTable
0
ENDTAB
0
TABLE
2
APPID
5
1b3
100
AcDbSymbolTable
0
APPID
5
12
100
AcDbSymbolTableRecord
100
AcDbRegAppTableRecord
2
ACAD
70
0
0
ENDTAB
0
TABLE
2
BLOCK_RECORD
5
1b4
100
AcDbSymbolTable
0
BLOCK_RECORD
5
1F
100
AcDbSymbolTableRecord
100
AcDbBlockTableRecord
2
*Model_Space
340
0
70
0
0
BLOCK_RECORD
5
1B
100
AcDbSymbolTableRecord
100
AcDbBlockTableRecord
2
*Paper_Space
340
0
70
0
0
BLOCK_RECORD
5
23
100
AcDbSymbolTableRecord
100
AcDbBlockTableRecord
2
*Paper_Space0
340
0
70
0
0
BLOCK_RECORD
5
F7
100
AcDbSymbolTableRecord
100
AcDbBlockTableRecord
2
DimnDraft3D1
340
0
70
0
0
BLOCK_RECORD
5
101
100
AcDbSymbolTableRecord
100
AcDbBlockTableRecord
2
DimnDraft3D2
340
0
70
0
0
BLOCK_RECORD
5
10B
100
AcDbSymbolTableRecord
100
AcDbBlockTableRecord
2
DimnDraft3D3
340
0
70
0
0
BLOCK_RECORD
5
115
100
AcDbSymbolTableRecord
100
AcDbBlockTableRecord
2
DimnDraft3D4
340
0
70
0
0
BLOCK_RECORD
5
11F
100
AcDbSymbolTableRecord
100
AcDbBlockTableRecord
2
DimnDraft3D5
340
0
70
0
0
BLOCK_RECORD
5
129
100
AcDbSymbolTableRecord
100
AcDbBlockTableRecord
2
DimnDraft3D6
340
0
70
0
0
BLOCK_RECORD
5
134
100
AcDbSymbolTableRecord
100
AcDbBlockTableRecord
2
DimnDraft3D7
340
0
70
0
0
ENDTAB
0
ENDSEC
0
SECTION
2
BLOCKS
0
BLOCK
5
20
100
AcDbEntity
8
0
100
AcDbBlockBegin
2
*Model_Space
70
0
10
0
20
0
30
0
3
*Model_Space
0
ENDBLK
5
21
100
AcDbEntity
8
0
100
AcDbBlockEnd
0
BLOCK
5
1C
100
AcDbEntity
8
0
100
AcDbBlockBegin
2
*Paper_Space
70
0
10
0
20
0
30
0
3
*Paper_Space
0
ENDBLK
5
1D
100
AcDbEntity
8
0
100
AcDbBlockEnd
0
BLOCK
5
24
100
AcDbEntity
8
0
100
AcDbBlockBegin
2
*Paper_Space0
70
0
10
0
20
0
30
0
3
*Paper_Space0
0
ENDBLK
5
25
100
AcDbEntity
8
0
100
AcDbBlockEnd
0
BLOCK
5
FE
100
AcDbEntity
8
0
100
AcDbBlockBegin
2
DimnDraft3D1
70
0
10
0
20
0
30
0
3
DimnDraft3D1
0
MTEXT
5
F8
100
AcDbEntity
8
SK2
62
256
6
ByLayer
370
13
48
1
60
0
100
AcDbMText
10
21.459764
20
-11.388398
30
0
210
0
220
0
230
1
1
\W0.7494;53,41
40
3.5
41
0
44
1.084337
50
0
71
7
72
5
7
iso_b_vert
0
LINE
5
F9
100
AcDbEntity
8
SK2
62
256
6
ByLayer
370
13
48
1
60
0
100
AcDbLine
10
0
20
-1.5875
30
0
11
0
21
-14.263398
31
0
39
0
210
0
220
0
230
1
0
LINE
5
FA
100
AcDbEntity
8
SK2
62
256
6
ByLayer
370
13
48
1
60
0
100
AcDbLine
10
53.4051
20
-3.6375
30
0
11
53.4051
21
-14.263398
31
0
39
0
210
0
220
0
230
1
0
LINE
5
FB
100
AcDbEntity
8
SK2
62
256
6
ByLayer
370
13
48
1
60
0
100
AcDbLine
10
0
20
-12.263398
30
0
11
53.4051
21
-12.263398
31
0
39
0
210
0
220
0
230
1
0
SOLID
5
FC
100
AcDbEntity
8
SK2
62
256
6
ByLayer
370
13
48
1
60
0
100
AcDbTrace
10
0
20
-12.263398
30
0
11
3.499998
21
-11.802615
31
0
12
3.500002
22
-12.724182
32
0
13
0
23
-12.263398
33
0
39
0
210
0
220
0
230
1
0
SOLID
5
FD
100
AcDbEntity
8
SK2
62
256
6
ByLayer
370
13
48
1
60
0
100
AcDbTrace
10
53.4051
20
-12.263398
30
0
11
49.905102
21
-12.724182
31
0
12
49.905098
22
-11.802615
32
0
13
53.4051
23
-12.263398
33
0
39
0
210
0
220
0
230
1
0
ENDBLK
5
FF
100
AcDbEntity
8
0
100
AcDbBlockEnd
0
BLOCK
5
108
100
AcDbEntity
8
0
100
AcDbBlockBegin
2
DimnDraft3D2
70
0
10
0
20
0
30
0
3
DimnDraft3D2
0
MTEXT
5
102
100
AcDbEntity
8
SK2
62
256
6
ByLayer
370
13
48
1
60
0
100
AcDbMText
10
5.297716
20
-30.817985
30
0
210
0
220
0
230
1
1
\W0.7317;90,00
40
3.5
41
0
44
1.084337
50
0
71
7
72
5
7
iso_b_vert
0
LINE
5
103
100
AcDbEntity
8
SK2
62
256
6
ByLayer
370
13
48
1
60
0
100
AcDbLine
10
-36
20
-4.5875
30
0
11
-36
21
-33.692985
31
0
39
0
210
0
220
0
230
1
0
LINE
5
104
100
AcDbEntity
8
SK2
62
256
6
ByLayer
370
13
48
1
60
0
100
AcDbLine
10
54
20
-1.5875
30
0
11
54
21
-33.692985
31
0
39
0
210
0
220
0
230
1
0
LINE
5
105
100
AcDbEntity
8
SK2
62
256
6
ByLayer
370
13
48
1
60
0
100
AcDbLine
10
-36
20
-31.692985
30
0
11
54
21
-31.692985
31
0
39
0
210
0
220
0
230
1
0
SOLID
5
106
100
AcDbEntity
8
SK2
62
256
6
ByLayer
370
13
48
1
60
0
100
AcDbTrace
10
-36
20
-31.692985
30
0
11
-32.500002
21
-31.232202
31
0
12
-32.499998
22
-32.153769
32
0
13
-36
23
-31.692985
33
0
39
0
210
0
220
0
230
1
0
SOLID
5
107
100
AcDbEntity
8
SK2
62
256
6
ByLayer
370
13
48
1
60
0
100
AcDbTrace
10
54
20
-31.692985
30
0
11
50.500002
21
-32.153769
31
0
12
50.499998
22
-31.232202
32
0
13
54
23
-31.692985
33
0
39
0
210
0
220
0
230
1
0
ENDBLK
5
109
100
AcDbEntity
8
0
100
AcDbBlockEnd
0
BLOCK
5
112
100
AcDbEntity
8
0
100
AcDbBlockBegin
2
DimnDraft3D3
70
0
10
0
20
0
30
0
3
DimnDraft3D3
0
MTEXT
5
10C
100
AcDbEntity
8
SK2
62
256
6
ByLayer
370
13
48
1
60
0
100
AcDbMText
10
32.856316
20
14.534119
30
0
210
0
220
0
230
1
1
\W0.7402;33,39
40
3.5
41
0
44
1.084337
50
0
71
7
72
5
7
iso_b_vert
0
LINE
5
10D
100
AcDbEntity
8
SK2
62
256
6
ByLayer
370
13
48
1
60
0
100
AcDbLine
10
20.61
20
3.6375
30
0
11
20.61
21
15.659119
31
0
39
0
210
0
220
0
230
1
0
LINE
5
10E
100
AcDbEntity
8
SK2
62
256
6
ByLayer
370
13
48
1
60
0
100
AcDbLine
10
54
20
1.5875
30
0
11
54
21
15.659119
31
0
39
0
210
0
220
0
230
1
0
LINE
5
10F
100
AcDbEntity
8
SK2
62
256
6
ByLayer
370
13
48
1
60
0
100
AcDbLine
10
20.61
20
13.659119
30
0
11
54
21
13.659119
31
0
39
0
210
0
220
0
230
1
0
SOLID
5
110
100
AcDbEntity
8
SK2
62
256
6
ByLayer
370
13
48
1
60
0
100
AcDbTrace
10
20.61
20
13.659119
30
0
11
24.109998
21
14.119903
31
0
12
24.110002
22
13.198335
32
0
13
20.61
23
13.659119
33
0
39
0
210
0
220
0
230
1
0
SOLID
5
111
100
AcDbEntity
8
SK2
62
256
6
ByLayer
370
13
48
1
60
0
100
AcDbTrace
10
54
20
13.659119
30
0
11
50.500002
21
13.198335
31
0
12
50.499998
22
14.119903
32
0
13
54
23
13.659119
33
0
39
0
210
0
220
0
230
1
0
ENDBLK
5
113
100
AcDbEntity
8
0
100
AcDbBlockEnd
0
BLOCK
5
11C
100
AcDbEntity
8
0
100
AcDbBlockBegin
2
DimnDraft3D4
70
0
10
0
20
0
30
0
3
DimnDraft3D4
0
MTEXT
5
116
100
AcDbEntity
8
SK2
62
256
6
ByLayer
370
13
48
1
60
0
100
AcDbMText
10
60.840636
20
-13.977503
30
0
210
0
220
0
230
1
1
\W0.7259;0,59
40
3.5
41
0
44
1.084337
50
0
71
7
72
5
7
iso_b_vert
0
LINE
5
117
100
AcDbEntity
8
SK2
62
256
6
ByLayer
370
13
48
1
60
0
100
AcDbLine
10
54
20
-1.5875
30
0
11
54
21
-16.852503
31
0
39
0
210
0
220
0
230
1
0
LINE
5
118
100
AcDbEntity
8
SK2
62
256
6
ByLayer
370
13
48
1
60
0
100
AcDbLine
10
53.4051
20
-3.6375
30
0
11
53.4051
21
-16.852503
31
0
39
0
210
0
220
0
230
1
0
LINE
5
119
100
AcDbEntity
8
SK2
62
256
6
ByLayer
370
13
48
1
60
0
100
AcDbLine
10
44.6551
20
-14.852503
30
0
11
67.997215
21
-14.852503
31
0
39
0
210
0
220
0
230
1
0
SOLID
5
11A
100
AcDbEntity
8
SK2
62
256
6
ByLayer
370
13
48
1
60
0
100
AcDbTrace
10
54
20
-14.852503
30
0
11
57.499998
21
-14.391719
31
0
12
57.500002
22
-15.313287
32
0
13
54
23
-14.852503
33
0
39
0
210
0
220
0
230
1
0
SOLID
5
11B
100
AcDbEntity
8
SK2
62
256
6
ByLayer
370
13
48
1
60
0
100
AcDbTrace
10
53.4051
20
-14.852503
30
0
11
49.905102
21
-15.313287
31
0
12
49.905098
22
-14.391719
32
0
13
53.4051
23
-14.852503
33
0
39
0
210
0
220
0
230
1
0
ENDBLK
5
11D
100
AcDbEntity
8
0
100
AcDbBlockEnd
0
BLOCK
5
126
100
AcDbEntity
8
0
100
AcDbBlockBegin
2
DimnDraft3D5
70
0
10
0
20
0
30
0
3
DimnDraft3D5
0
MTEXT
5
120
100
AcDbEntity
8
SK2
62
256
6
ByLayer
370
13
48
1
60
0
100
AcDbMText
10
2.470382
20
-20.468428
30
0
210
0
220
0
230
1
1
\W0.7494;89,41
40
3.5
41
0
44
1.084337
50
0
71
7
72
5
7
iso_b_vert
0
LINE
5
121
100
AcDbEntity
8
SK2
62
256
6
ByLayer
370
13
48
1
60
0
100
AcDbLine
10
-36
20
-4.5875
30
0
11
-36
21
-23.343428
31
0
39
0
210
0
220
0
230
1
0
LINE
5
122
100
AcDbEntity
8
SK2
62
256
6
ByLayer
370
13
48
1
60
0
100
AcDbLine
10
53.4051
20
-3.6375
30
0
11
53.4051
21
-23.343428
31
0
39
0
210
0
220
0
230
1
0
LINE
5
123
100
AcDbEntity
8
SK2
62
256
6
ByLayer
370
13
48
1
60
0
100
AcDbLine
10
-36
20
-21.343428
30
0
11
53.4051
21
-21.343428
31
0
39
0
210
0
220
0
230
1
0
SOLID
5
124
100
AcDbEntity
8
SK2
62
256
6
ByLayer
370
13
48
1
60
0
100
AcDbTrace
10
-36
20
-21.343428
30
0
11
-32.500002
21
-20.882645
31
0
12
-32.499998
22
-21.804212
32
0
13
-36
23
-21.343428
33
0
39
0
210
0
220
0
230
1
0
SOLID
5
125
100
AcDbEntity
8
SK2
62
256
6
ByLayer
370
13
48
1
60
0
100
AcDbTrace
10
53.4051
20
-21.343428
30
0
11
49.905102
21
-21.804212
31
0
12
49.905098
22
-20.882645
32
0
13
53.4051
23
-21.343428
33
0
39
0
210
0
220
0
230
1
0
ENDBLK
5
127
100
AcDbEntity
8
0
100
AcDbBlockEnd
0
BLOCK
5
131
100
AcDbEntity
8
0
100
AcDbBlockBegin
2
DimnDraft3D6
70
0
10
0
20
0
30
0
3
DimnDraft3D6
0
MTEXT
5
12A
100
AcDbEntity
8
SK2
62
256
6
ByLayer
370
13
48
1
60
0
100
AcDbMText
10
-46.375163
20
22.34918
30
0
210
0
220
0
230
1
1
\W0.7317;6,000
40
3.5
41
0
44
1.084337
50
90
71
7
72
5
7
iso_b_vert
0
MTEXT
5
12B
100
AcDbEntity
8
SK2
62
256
6
ByLayer
370
13
48
1
60
0
100
AcDbMText
10
-46.375163
20
17.126524
30
0
210
0
220
0
230
1
1
%%c
40
3.5
41
0
44
1.084337
50
90
71
7
72
5
7
iso_b_vert
0
LINE
5
12C
100
AcDbEntity
8
SK2
62
256
6
ByLayer
370
13
48
1
60
0
100
AcDbLine
10
-37.5875
20
-3
30
0
11
-46.625163
21
-3
31
0
39
0
210
0
220
0
230
1
0
LINE
5
12D
100
AcDbEntity
8
SK2
62
256
6
ByLayer
370
13
48
1
60
0
100
AcDbLine
10
-37.5875
20
3
30
0
11
-46.625163
21
3
31
0
39
0
210
0
220
0
230
1
0
LINE
5
12E
100
AcDbEntity
8
SK2
62
256
6
ByLayer
370
13
48
1
60
0
100
AcDbLine
10
-44.625163
20
32.121549
30
0
11
-44.625163
21
-11.75
31
0
39
0
210
0
220
0
230
1
0
SOLID
5
12F
100
AcDbEntity
8
SK2
62
256
6
ByLayer
370
13
48
1
60
0
100
AcDbTrace
10
-44.625163
20
-3
30
0
11
-44.164379
21
-6.499998
31
0
12
-45.085946
22
-6.500002
32
0
13
-44.625163
23
-3
33
0
39
0
210
0
220
0
230
1
0
SOLID
5
130
100
AcDbEntity
8
SK2
62
256
6
ByLayer
370
13
48
1
60
0
100
AcDbTrace
10
-44.625163
20
3
30
0
11
-45.085946
21
6.499998
31
0
12
-44.164379
22
6.500002
32
0
13
-44.625163
23
3
33
0
39
0
210
0
220
0
230
1
0
ENDBLK
5
132
100
AcDbEntity
8
0
100
AcDbBlockEnd
0
BLOCK
5
13C
100
AcDbEntity
8
0
100
AcDbBlockBegin
2
DimnDraft3D7
70
0
10
0
20
0
30
0
3
DimnDraft3D7
0
MTEXT
5
135
100
AcDbEntity
8
2
62
256
6
ByLayer
370
13
48
1
60
0
100
AcDbMText
10
64.333343
20
19.992266
30
0
210
0
220
0
230
1
1
\W0.6977;4,100
40
3.5
41
0
44
1.084337
50
90
71
7
72
5
7
iso_b_vert
0
MTEXT
5
136
100
AcDbEntity
8
2
62
256
6
ByLayer
370
13
48
1
60
0
100
AcDbMText
10
64.333343
20
14.76961
30
0
210
0
220
0
230
1
1
%%c
40
3.5
41
0
44
1.084337
50
90
71
7
72
5
7
iso_b_vert
0
LINE
5
137
100
AcDbEntity
8
2
62
256
6
ByLayer
370
13
48
1
60
0
100
AcDbLine
10
54.9926
20
-2.05
30
0
11
68.083343
21
-2.05
31
0
39
0
210
0
220
0
230
1
0
LINE
5
138
100
AcDbEntity
8
2
62
256
6
ByLayer
370
13
48
1
60
0
100
AcDbLine
10
54.9926
20
2.05
30
0
11
68.083343
21
2.05
31
0
39
0
210
0
220
0
230
1
0
LINE
5
139
100
AcDbEntity
8
2
62
256
6
ByLayer
370
13
48
1
60
0
100
AcDbLine
10
66.083343
20
29.258056
30
0
11
66.083343
21
-10.8
31
0
39
0
210
0
220
0
230
1
0
SOLID
5
13A
100
AcDbEntity
8
2
62
256
6
ByLayer
370
13
48
1
60
0
100
AcDbTrace
10
66.083343
20
-2.05
30
0
11
66.544126
21
-5.549998
31
0
12
65.622559
22
-5.550002
32
0
13
66.083343
23
-2.05
33
0
39
0
210
0
220
0
230
1
0
SOLID
5
13B
100
AcDbEntity
8
2
62
256
6
ByLayer
370
13
48
1
60
0
100
AcDbTrace
10
66.083343
20
2.05
30
0
11
65.622559
21
5.549998
31
0
12
66.544126
22
5.550002
32
0
13
66.083343
23
2.05
33
0
39
0
210
0
220
0
230
1
0
ENDBLK
5
13D
100
AcDbEntity
8
0
100
AcDbBlockEnd
0
ENDSEC
0
SECTION
2
ENTITIES
0
ELLIPSE
5
9C
100
AcDbEntity
8
1
62
256
6
ByLayer
370
13
48
1
60
0
100
AcDbEllipse
10
7.527559
20
-2.007894
30
0
11
-0.0421788963640079
21
0.0906694033371472
31
0
210
0
220
0
230
1
40
0.498437
41
0.174549246589866
42
1.29379360385122
0
ELLIPSE
5
9D
100
AcDbEntity
8
1
62
256
6
ByLayer
370
13
48
1
60
0
100
AcDbEllipse
10
7.601781
20
-1.995299
30
0
11
0.00868146458292126
21
0.099622448136429
31
0
210
0
220
0
230
1
40
0.484661
41
0.175956914513789
42
1.70910116572186
0
POINT
5
6C
100
AcDbEntity
8
81
62
256
6
ByLayer
370
18
48
1
60
0
100
AcDbPoint
10
54
20
0
30
0
39
0
210
0
220
0
230
1
50
360
0
POINT
5
6E
100
AcDbEntity
8
80
62
256
6
ByLayer
370
18
48
1
60
0
100
AcDbPoint
10
0
20
0
30
0
39
0
210
0
220
0
230
1
50
360
0
POINT
5
70
100
AcDbEntity
8
SK2
62
256
6
ByLayer
370
18
48
1
60
1
100
AcDbPoint
10
-36
20
-3
30
0
39
0
210
0
220
0
230
1
50
360
0
POINT
5
72
100
AcDbEntity
8
SK2
62
256
6
ByLayer
370
18
48
1
60
1
100
AcDbPoint
10
-36
20
3
30
0
39
0
210
0
220
0
230
1
50
360
0
POINT
5
73
100
AcDbEntity
8
2
62
256
6
ByLayer
370
18
48
1
60
1
100
AcDbPoint
10
53.4051
20
-2.05
30
0
39
0
210
0
220
0
230
1
50
360
0
POINT
5
75
100
AcDbEntity
8
2
62
256
6
ByLayer
370
18
48
1
60
1
100
AcDbPoint
10
53.4051
20
2.05
30
0
39
0
210
0
220
0
230
1
50
360
0
SPLINE
5
9E
100
AcDbEntity
8
1
62
256
6
ByLayer
370
18
48
1
60
0
100
AcDbSpline
70
4
71
3
72
14
73
10
40
0
40
0
40
0
40
0
40
0.219449404404548
40
0.395782295125323
40
0.529135792927902
40
0.61973890701451
40
0.717336806278626
40
0.866101617444934
40
1
40
1
40
1
40
1
41
1
10
22.7113649603466
20
1.92737990114659
30
0
41
1
10
22.526605766858
20
1.92822731454331
30
0
41
1
10
22.193383801878
20
1.929144994023
30
0
41
1
10
21.7478952881903
20
1.92611790068759
30
0
41
1
10
21.4108540075792
20
1.92665196255931
30
0
41
1
10
21.1400964985456
20
1.92719814174612
30
0
41
1
10
20.856699745635
20
1.92766035512091
30
0
41
1
10
20.5366682332841
20
1.92670659006387
30
0
41
1
10
20.298654628243
20
1.9265623082909
30
0
41
1
10
20.1859117355485
20
1.92652759032205
30
0
0
SPLINE
5
9F
100
AcDbEntity
8
1
62
256
6
ByLayer
370
18
48
1
60
0
100
AcDbSpline
70
4
71
3
72
13
73
9
40
0
40
0
40
0
40
0
40
0.26172404818699
40
0.46805725426327
40
0.617513207238286
40
0.713877720110412
40
0.863115133296806
40
1
40
1
40
1
40
1
41
1
10
11.4601833814203
20
1.92082637679425
30
0
41
1
10
11.2419990259888
20
1.92032859227092
30
0
41
1
10
10.8517878101545
20
1.91976055122987
30
0
41
1
10
10.3368895732166
20
1.91989069609414
30
0
41
1
10
9.95990349587478
20
1.92025830061007
30
0
41
1
10
9.63048337575188
20
1.92014712961921
30
0
41
1
10
9.31167572145674
20
1.91966328952085
30
0
41
1
10
9.07309175827319
20
1.91958779275592
30
0
41
1
10
8.95895751145153
20
1.91956730533573
30
0
0
SPLINE
5
A0
100
AcDbEntity
8
1
62
256
6
ByLayer
370
18
48
1
60
0
100
AcDbSpline
70
4
71
1
72
4
73
2
40
0
40
0
40
1
40
1
41
1
10
52.9876591287692
20
-1.94578796385934
30
0
41
1
10
53.2683306876945
20
-1.94625614745271
30
0
0
SPLINE
5
A1
100
AcDbEntity
8
1
62
256
6
ByLayer
370
18
48
1
60
0
100
AcDbSpline
70
4
71
3
72
13
73
9
40
0
40
0
40
0
40
0
40
0.240613937415466
40
0.419800990718752
40
0.563835208440724
40
0.67291827033649
40
0.804810493741758
40
1
40
1
40
1
40
1
41
1
10
45.163002652227
20
1.94146819877454
30
0
41
1
10
44.9628002528907
20
1.94141990095469
30
0
41
1
10
44.6134241175249
20
1.94140858087087
30
0
41
1
10
44.1435777869332
20
1.94166006498898
30
0
41
1
10
43.7837881856498
20
1.94182136094165
30
0
41
1
10
43.4630182292219
20
1.94061862624398
30
0
41
1
10
43.0997431424699
20
1.94070072095869
30
0
41
1
10
42.8272805346167
20
1.9409073475951
30
0
41
1
10
42.6646998789687
20
1.94093944262855
30
0
0
SPLINE
5
A2
100
AcDbEntity
8
1
62
256
6
ByLayer
370
18
48
1
60
0
100
AcDbSpline
70
4
71
3
72
8
73
4
40
0
40
0
40
0
40
0
40
1
40
1
40
1
40
1
41
1
10
38.6008490048867
20
0.503910369181028
30
0
41
1
10
38.6123368407141
20
0.497797512902451
30
0
41
1
10
38.6218716000698
20
0.491564761761339
30
0
41
1
10
38.6291967867287
20
0.485185072920387
30
0
0
SPLINE
5
A3
100
AcDbEntity
8
1
62
256
6
ByLayer
370
18
48
1
60
0
100
AcDbSpline
70
4
71
3
72
14
73
10
40
0
40
0
40
0
40
0
40
0.19235916900232
40
0.337748197573445
40
0.436557313234776
40
0.508298532113067
40
0.636172827802184
40
0.804303391575023
40
1
40
1
40
1
40
1
41
1
10
19.3830713497781
20
-1.92637309350511
30
0
41
1
10
19.5935608640751
20
-1.92637696841371
30
0
41
1
10
19.9631849809382
20
-1.92656548582485
30
0
41
1
10
20.4411591124245
20
-1.9264624466106
30
0
41
1
10
20.7869769905237
20
-1.92752639635529
30
0
41
1
10
21.1136893545695
20
-1.92736226954653
30
0
41
1
10
21.5162744645881
20
-1.9260172129155
30
0
41
1
10
22.0545696700406
20
-1.92840529035252
30
0
41
1
10
22.4528436765897
20
-1.92783214202561
30
0
41
1
10
22.6670637913996
20
-1.92740895734696
30
0
0
SPLINE
5
A4
100
AcDbEntity
8
1
62
256
6
ByLayer
370
18
48
1
60
0
100
AcDbSpline
70
4
71
3
72
14
73
10
40
0
40
0
40
0
40
0
40
0.225386681501468
40
0.386887899042482
40
0.487484533232364
40
0.570694914409634
40
0.680528093206348
40
0.817006632592312
40
1
40
1
40
1
40
1
41
1
10
41.8840772006368
20
-1.94040835254
30
0
41
1
10
42.1302652051222
20
-1.94075489943378
30
0
41
1
10
42.5528893120813
20
-1.94112200515724
30
0
41
1
10
43.0855451339804
20
-1.94070456215766
30
0
41
1
10
43.4627903087588
20
-1.94061779817312
30
0
41
1
10
43.7836907518661
20
-1.94182128230679
30
0
41
1
10
44.1434138088284
20
-1.94165823225035
30
0
41
1
10
44.6126637359508
20
-1.94140629459116
30
0
41
1
10
44.9614075742577
20
-1.94141806466004
30
0
41
1
10
45.161120399751
20
-1.94146686706975
30
0
0
SPLINE
5
A5
100
AcDbEntity
8
1
62
256
6
ByLayer
370
18
48
1
60
0
100
AcDbSpline
70
4
71
1
72
4
73
2
40
0
40
0
40
1
40
1
41
1
10
47.5211304557258
20
-0.437225587855977
30
0
41
1
10
47.4862065441102
20
-0.421472438475092
30
0
0
SPLINE
5
A6
100
AcDbEntity
8
1
62
256
6
ByLayer
370
18
48
1
60
0
100
AcDbSpline
70
4
71
3
72
14
73
10
40
0
40
0
40
0
40
0
40
0.172091041698555
40
0.305946159798019
40
0.40374316756174
40
0.470314495368915
40
0.590111080163909
40
0.767327027243209
40
1
40
1
40
1
40
1
41
1
10
8.13962200157241
20
-1.91943309442024
30
0
41
1
10
8.33009267855738
20
-1.91944129176696
30
0
41
1
10
8.66877085147041
20
-1.91950350940391
30
0
41
1
10
9.11605664414756
20
-1.91962223658311
30
0
41
1
10
9.44624144175828
20
-1.91986852337516
30
0
41
1
10
9.76099123680856
20
-1.92026740675485
30
0
41
1
10
10.1636739734074
20
-1.92015106191079
30
0
41
1
10
10.7503844490968
20
-1.91945139051648
30
0
41
1
10
11.204319567182
20
-1.92018073936813
30
0
41
1
10
11.4619835782628
20
-1.92082556212333
30
0
0
SPLINE
5
A7
100
AcDbEntity
8
1
62
256
6
ByLayer
370
18
48
1
60
0
100
AcDbSpline
70
4
71
3
72
8
73
4
40
0
40
0
40
0
40
0
40
1
40
1
40
1
40
1
41
1
10
25.0618541326586
20
-0.460475642785894
30
0
41
1
10
25.0477806812581
20
-0.452862412788875
30
0
41
1
10
25.0337565415317
20
-0.445034404739289
30
0
41
1
10
25.0197822596305
20
-0.436993194024609
30
0
0
SPLINE
5
A8
100
AcDbEntity
8
1
62
256
6
ByLayer
370
18
48
1
60
0
100
AcDbSpline
70
4
71
3
72
12
73
8
40
0
40
0
40
0
40
0
40
0.295485439383189
40
0.510097401911789
40
0.661610841462779
40
0.812915546940495
40
1
40
1
40
1
40
1
41
1
10
33.9110842371962
20
1.93577258937688
30
0
41
1
10
33.6658549914914
20
1.93493675753624
30
0
41
1
10
33.2425204191725
20
1.93384612683545
30
0
41
1
10
32.6934036548664
20
1.93472208063437
30
0
41
1
10
32.2640285341133
20
1.93384620508556
30
0
41
1
10
31.857694697954
20
1.93388767127126
30
0
41
1
10
31.5768163749398
20
1.93376942992771
30
0
41
1
10
31.4215574949535
20
1.93369541388574
30
0
0
SPLINE
5
A9
100
AcDbEntity
8
1
62
256
6
ByLayer
370
18
48
1
60
0
100
AcDbSpline
70
4
71
3
72
14
73
10
40
0
40
0
40
0
40
0
40
0.224999339625011
40
0.382660024282605
40
0.497576252658883
40
0.583292458866706
40
0.68473567107133
40
0.828458673573501
40
1
40
1
40
1
40
1
41
1
10
30.6332432952427
20
-1.9332477126184
30
0
41
1
10
30.8789565797972
20
-1.93342018987303
30
0
41
1
10
31.2968854541109
20
-1.93363356797118
30
0
41
1
10
31.840698305997
20
-1.9339105459124
30
0
41
1
10
32.231973682746
20
-1.93379976277507
30
0
41
1
10
32.5619892716193
20
-1.93457791849258
30
0
41
1
10
32.9235608876159
20
-1.93425614404748
30
0
41
1
10
33.3789069923445
20
-1.93407332980342
30
0
41
1
10
33.723400272758
20
-1.93500495195079
30
0
41
1
10
33.9108439468596
20
-1.93574950583746
30
0
0
SPLINE
5
AA
100
AcDbEntity
8
1
62
256
6
ByLayer
370
18
48
1
60
0
100
AcDbSpline
70
4
71
3
72
8
73
4
40
0
40
0
40
0
40
0
40
1
40
1
40
1
40
1
41
1
10
16.0779392959101
20
0.513554712870274
30
0
41
1
10
16.0925069933011
20
0.506567245368387
30
0
41
1
10
16.1044367560648
20
0.499399297391733
30
0
41
1
10
16.1133063316448
20
0.492012933347468
30
0
0
SPLINE
5
AB
100
AcDbEntity
8
1
62
256
6
ByLayer
370
18
48
1
60
0
100
AcDbSpline
70
4
71
3
72
52
73
48
40
0
40
0
40
0
40
0
40
0.125000000000005
40
0.125000000000005
40
0.187500000000008
40
0.187500000000008
40
0.250000000000011
40
0.250000000000011
40
0.312500000000014
40
0.312500000000014
40
0.375000000000017
40
0.375000000000017
40
0.406250000000018
40
0.406250000000018
40
0.437500000000019
40
0.437500000000019
40
0.500000000000022
40
0.500000000000022
40
0.531250000000023
40
0.531250000000023
40
0.562500000000025
40
0.562500000000025
40
0.625000000000027
40
0.625000000000027
40
0.656250000000028
40
0.656250000000028
40
0.68750000000003
40
0.68750000000003
40
0.750000000000034
40
0.750000000000034
40
0.812500000000037
40
0.812500000000037
40
0.828125000000037
40
0.828125000000037
40
0.832031250000036
40
0.832031250000036
40
0.835937500000035
40
0.835937500000035
40
0.839843750000034
40
0.839843750000034
40
0.843750000000033
40
0.843750000000033
40
0.875000000000027
40
0.875000000000027
40
0.937500000000013
40
0.937500000000013
40
1
40
1
40
1
40
1
41
1
10
7.39951823234514
20
-0.82949700466213
30
0
41
1
10
7.23469788924243
20
-0.679163365051551
30
0
41
1
10
7.07744064669268
20
-0.51656202280796
30
0
41
1
10
6.85229204747128
20
-0.252519092850491
30
0
41
1
10
6.77854934338094
20
-0.160435186210663
30
0
41
1
10
6.63771424336656
20
0.0274795336729312
30
0
41
1
10
6.57066024194057
20
0.123146420792835
30
0
41
1
10
6.44362988652495
20
0.317989751711309
30
0
41
1
10
6.38338540976599
20
0.417618230491456
30
0
41
1
10
6.27218520183305
20
0.618866638902858
30
0
41
1
10
6.22210851734167
20
0.718806037949662
30
0
41
1
10
6.1562979662919
20
0.867530254472626
30
0
41
1
10
6.13592259200419
20
0.91690767289262
30
0
41
1
10
6.09864657159176
20
1.01524221745623
30
0
41
1
10
6.08179422283689
20
1.06414181082124
30
0
41
1
10
6.0381248711837
20
1.20669707980181
30
0
41
1
10
6.01764179077142
20
1.29738970389167
30
0
41
1
10
6.00222445197079
20
1.42631825389026
30
0
41
1
10
5.999743923886
20
1.46768101229907
30
0
41
1
10
6.00030077020258
20
1.54572291130145
30
0
41
1
10
6.00330601766967
20
1.58264631218154
30
0
41
1
10
6.02070536203428
20
1.68723535692021
30
0
41
1
10
6.04404515657566
20
1.74920626319135
30
0
41
1
10
6.0944008046871
20
1.82582382745554
30
0
41
1
10
6.11372656694582
20
1.84886221029137
30
0
41
1
10
6.15728450932249
20
1.89031996259192
30
0
41
1
10
6.18168163878906
20
1.90882440744659
30
0
41
1
10
6.26068198997268
20
1.95703082207137
30
0
41
1
10
6.32089670777674
20
1.97965952595627
30
0
41
1
10
6.45403830932747
20
2.01033203161677
30
0
41
1
10
6.52738147061763
20
2.01831483357688
30
0
41
1
10
6.62454505969174
20
2.02080038246251
30
0
41
1
10
6.64426033135445
20
2.02092536640197
30
0
41
1
10
6.6692402914735
20
2.0206444700674
30
0
41
1
10
6.67427335516373
20
2.02056681870101
30
0
41
1
10
6.68428444350837
20
2.02036693203695
30
0
41
1
10
6.68894135633204
20
2.02022972571072
30
0
41
1
10
6.70112648912095
20
2.02002131200405
30
0
41
1
10
6.70844539077103
20
2.01995654508943
30
0
41
1
10
6.72318670431531
20
2.01994571048854
30
0
41
1
10
6.73050190794672
20
2.01997379290276
30
0
41
1
10
6.79648603997958
20
2.02013570297856
30
0
41
1
10
6.85499458915322
20
2.02032803708698
30
0
41
1
10
7.02980933503102
20
2.0209080896002
30
0
41
1
10
7.14511232988699
20
2.0213213262694
30
0
41
1
10
7.37139640286179
20
2.02079602783345
30
0
41
1
10
7.4826761171573
20
2.01985941372143
30
0
41
1
10
7.59213208398637
20
2.01715296668846
30
0
0
SPLINE
5
AC
100
AcDbEntity
8
1
62
256
6
ByLayer
370
18
48
1
60
0
100
AcDbSpline
70
4
71
3
72
8
73
4
40
0
40
0
40
0
40
0
40
1
40
1
40
1
40
1
41
1
10
53.1944459783618
20
0.606396367924077
30
0
41
1
10
53.4310063680797
20
0.607365166608076
30
0
41
1
10
53.6673526857493
20
0.610389789432872
30
0
41
1
10
53.9015396675692
20
0.623113862898265
30
0
0
SPLINE
5
AD
100
AcDbEntity
8
1
62
256
6
ByLayer
370
18
48
1
60
0
100
AcDbSpline
70
4
71
3
72
8
73
4
40
0
40
0
40
0
40
0
40
1
40
1
40
1
40
1
41
1
10
53.2708742032498
20
-2.03733310344478
30
0
41
1
10
53.2702915271058
20
-2.03879265275395
30
0
41
1
10
53.2697088181782
20
-2.04025208778486
30
0
41
1
10
53.2691260771717
20
-2.04171140775497
30
0
0
SPLINE
5
AE
100
AcDbEntity
8
1
62
256
6
ByLayer
370
18
48
1
60
0
100
AcDbSpline
70
4
71
3
72
8
73
4
40
0
40
0
40
0
40
0
40
1
40
1
40
1
40
1
41
1
10
53.2496980455163
20
-1.93714291565615
30
0
41
1
10
53.2547962288329
20
-1.9416865769652
30
0
41
1
10
53.2604151086159
20
-1.94472374291649
30
0
41
1
10
53.2665698217248
20
-1.9462718135961
30
0
0
SPLINE
5
AF
100
AcDbEntity
8
1
62
256
6
ByLayer
370
13
48
1
60
0
100
AcDbSpline
70
4
71
3
72
34
73
30
40
0
40
0
40
0
40
0
40
0.0819067763974126
40
0.0819067763974126
40
0.163813552794825
40
0.163813552794825
40
0.327627105589654
40
0.327627105589654
40
0.368580493788359
40
0.368580493788359
40
0.409533881987065
40
0.409533881987065
40
0.491440658384475
40
0.491440658384475
40
0.655254211179301
40
0.655254211179301
40
0.69620759937801
40
0.69620759937801
40
0.737160987576719
40
0.737160987576719
40
0.819067763974137
40
0.819067763974137
40
0.900974540371555
40
0.900974540371555
40
0.941927928570264
40
0.941927928570264
40
0.982881316768973
40
0.982881316768973
40
1
40
1
40
1
40
1
41
1
10
53.2887676035726
20
-1.94601624795035
30
0
41
1
10
53.0497883098373
20
-1.95102489949775
30
0
41
1
10
52.8110412409122
20
-1.94290183605654
30
0
41
1
10
52.3320349153587
20
-1.90070284247577
30
0
41
1
10
52.0938293488637
20
-1.86677430450308
30
0
41
1
10
51.382976327684
20
-1.72988533053186
30
0
41
1
10
50.9128135462661
20
-1.59137543086294
30
0
41
1
10
50.3189609077268
20
-1.36949275695534
30
0
41
1
10
50.1998767315728
20
-1.3226825921374
30
0
41
1
10
49.9608851174107
20
-1.22441853557814
30
0
41
1
10
49.8409594130628
20
-1.17293331295579
30
0
41
1
10
49.4832887190852
20
-1.0138308078719
30
0
41
1
10
49.2463630007832
20
-0.901071819216384
30
0
41
1
10
48.5368855684114
20
-0.548434760902325
30
0
41
1
10
48.0659430141857
20
-0.293716129512688
30
0
41
1
10
47.4692764946444
20
0.0301481384798876
30
0
41
1
10
47.3492615255047
20
0.09535461325288
30
0
41
1
10
47.1103616583718
20
0.224553968160222
30
0
41
1
10
46.9912996216261
20
0.288619726042441
30
0
41
1
10
46.6350475421487
20
0.478973337739262
30
0
41
1
10
46.3985655667389
20
0.60296049709595
30
0
41
1
10
45.9254677211506
20
0.841119837069783
30
0
41
1
10
45.6888532495952
20
0.955265718445759
30
0
41
1
10
45.3325426679668
20
1.11700093344479
30
0
41
1
10
45.2135172118877
20
1.16927874554048
30
0
41
1
10
44.9746520330773
20
1.27005556230199
30
0
41
1
10
44.8546101988887
20
1.31862528707083
30
0
41
1
10
44.6852901203185
20
1.38389443776285
30
0
41
1
10
44.6354432279197
20
1.40270605889916
30
0
41
1
10
44.5856530040874
20
1.42108106245607
30
0
0
SPLINE
5
B0
100
AcDbEntity
8
1
62
256
6
ByLayer
370
18
48
1
60
0
100
AcDbSpline
70
4
71
3
72
16
73
12
40
0
40
0
40
0
40
0
40
0.0815892631717922
40
0.0815892631717922
40
0.393021468239556
40
0.393021468239556
40
0.704453673307318
40
0.704453673307318
40
0.860169775841195
40
0.860169775841195
40
1
40
1
40
1
40
1
41
1
10
30.6566683351763
20
-1.93325903211524
30
0
41
1
10
30.5940742631686
20
-1.93328352446827
30
0
41
1
10
30.5313970991861
20
-1.93242638354641
30
0
41
1
10
30.2289891492869
20
-1.92401999738232
30
0
41
1
10
29.9898002668505
20
-1.90430443612612
30
0
41
1
10
29.5134603847012
20
-1.84006311213747
30
0
41
1
10
29.275829965019
20
-1.79550215555028
30
0
41
1
10
28.9185545210186
20
-1.71140759837434
30
0
41
1
10
28.7993104199423
20
-1.68049205086925
30
0
41
1
10
28.5724751027456
20
-1.61642588377532
30
0
41
1
10
28.4647355799691
20
-1.58373795380521
30
0
41
1
10
28.3571359693484
20
-1.54899351747312
30
0
0
SPLINE
5
B1
100
AcDbEntity
8
1
62
256
6
ByLayer
370
13
48
1
60
0
100
AcDbSpline
70
4
71
3
72
26
73
22
40
0
40
0
40
0
40
0
40
0.005799113622794
40
0.005799113622794
40
0.119486925621039
40
0.119486925621039
40
0.346862549617524
40
0.346862549617524
40
0.403706455616645
40
0.403706455616645
40
0.460550361615767
40
0.460550361615767
40
0.57423817361401
40
0.57423817361401
40
0.687925985612252
40
0.687925985612252
40
0.744769891611373
40
0.744769891611373
40
0.801613797610495
40
0.801613797610495
40
1
40
1
40
1
40
1
41
1
10
28.357135969122
20
-1.54899351740008
30
0
41
1
10
28.3449117570301
20
-1.54504626000463
30
0
41
1
10
28.3326893507639
20
-1.54107245958448
30
0
41
1
10
28.0809087697853
20
-1.45865768401086
30
0
41
1
10
27.8430524987409
20
-1.37043310076282
30
0
41
1
10
27.1312670394947
20
-1.08157398497349
30
0
41
1
10
26.6590937942318
20
-0.856793245344164
30
0
41
1
10
26.0618695323137
20
-0.550967217500073
30
0
41
1
10
25.9417491927913
20
-0.488442997522071
30
0
41
1
10
25.7023345488872
20
-0.362463969641027
30
0
41
1
10
25.5830252092326
20
-0.29900558665247
30
0
41
1
10
25.2258699770077
20
-0.108020503887161
30
0
41
1
10
24.9887956046607
20
0.0201065717834865
30
0
41
1
10
24.5150572710136
20
0.274874544038369
30
0
41
1
10
24.2782142408972
20
0.401173082846725
30
0
41
1
10
23.9213845025279
20
0.585979765938617
30
0
41
1
10
23.8021776680953
20
0.646802543096982
30
0
41
1
10
23.5630802614317
20
0.766593274553827
30
0
41
1
10
23.4428683659363
20
0.825620082947921
30
0
41
1
10
22.9055946651199
20
1.08300517371452
30
0
41
1
10
22.4926402557107
20
1.26242813928647
30
0
41
1
10
22.0790391921024
20
1.41372157933756
30
0
0
SPLINE
5
B2
100
AcDbEntity
8
1
62
256
6
ByLayer
370
18
48
1
60
0
100
AcDbSpline
70
4
71
3
72
8
73
4
40
0
40
0
40
0
40
0
40
1
40
1
40
1
40
1
41
1
10
8.16340746743916
20
-1.91943230621476
30
0
41
1
10
7.97626885263634
20
-1.91966875275995
30
0
41
1
10
7.78924682110593
20
-1.91200923686293
30
0
41
1
10
7.60187677111546
20
-1.89647820530214
30
0
0
SPLINE
5
B3
100
AcDbEntity
8
1
62
256
6
ByLayer
370
13
48
1
60
0
100
AcDbSpline
70
4
71
3
72
17
73
13
40
0
40
0
40
0
40
0
40
0.25
40
0.25
40
0.375
40
0.375
40
0.5
40
0.625
40
0.625
40
0.75
40
0.75
40
1
40
1
40
1
40
1
41
1
10
7.60187677111568
20
-1.89647820530217
30
0
41
1
10
7.60185682298862
20
-1.8739453433447
30
0
41
1
10
7.60182460286717
20
-1.83522736723475
30
0
41
1
10
7.60176779745487
20
-1.75319593077131
30
0
41
1
10
7.60174743207943
20
-1.72176881251127
30
0
41
1
10
7.60170645081567
20
-1.65230281670412
30
0
41
1
10
7.60166499742178
20
-1.57592927926112
30
0
41
1
10
7.60162570305565
20
-1.48590766249313
30
0
41
1
10
7.60158893802299
20
-1.38887769247651
30
0
41
1
10
7.60157188853515
20
-1.3369024748566
30
0
41
1
10
7.60152763044405
20
-1.17441337769594
30
0
41
1
10
7.60150687373317
20
-1.05621840649593
30
0
41
1
10
7.60149790480924
20
-0.927976463453291
30
0
0
SPLINE
5
B4
100
AcDbEntity
8
1
62
256
6
ByLayer
370
18
48
1
60
0
100
AcDbSpline
70
4
71
3
72
10
73
6
40
0
40
0
40
0
40
0
40
0.5
40
0.5
40
1
40
1
40
1
40
1
41
1
10
53.3514598075807
20
-1.97355501547912
30
0
41
1
10
53.4444423703247
20
-1.75098419043454
30
0
41
1
10
53.5373034848278
20
-1.52729002329022
30
0
41
1
10
53.7213065750798
20
-1.07687270745532
30
0
41
1
10
53.8125605698317
20
-0.850005453108764
30
0
41
1
10
53.9015396675691
20
-0.623113862898265
30
0
0
SPLINE
5
B5
100
AcDbEntity
8
1
62
256
6
ByLayer
370
18
48
1
60
0
100
AcDbSpline
70
4
71
3
72
12
73
8
40
0
40
0
40
0
40
0
40
0.249999999999938
40
0.249999999999938
40
0.499999999999876
40
0.499999999999876
40
1
40
1
40
1
40
1
41
1
10
53.1230990416922
20
0.531947811290223
30
0
41
1
10
53.1209185324147
20
0.541791807166391
30
0
41
1
10
53.1205733362967
20
0.552112408353707
30
0
41
1
10
53.1253810643304
20
0.571560505114604
30
0
41
1
10
53.1307209371921
20
0.580673764679688
30
0
41
1
10
53.1532287357996
20
0.601530821634867
30
0
41
1
10
53.1742624300929
20
0.606313709137794
30
0
41
1
10
53.1944459783616
20
0.606396367925299
30
0
0
SPLINE
5
B6
100
AcDbEntity
8
1
62
256
6
ByLayer
370
18
48
1
60
0
100
AcDbSpline
70
4
71
3
72
8
73
4
40
0
40
0
40
0
40
0
40
1
40
1
40
1
40
1
41
1
10
53.9831656362221
20
-0.0124949441564297
30
0
41
1
10
53.9484623076413
20
-0.07661739442662
30
0
41
1
10
53.9140454065012
20
-0.140996545977572
30
0
41
1
10
53.8799159893418
20
-0.205633345653638
30
0
0
SPLINE
5
B7
100
AcDbEntity
8
1
62
256
6
ByLayer
370
13
48
1
60
0
100
AcDbSpline
70
4
71
3
72
8
73
4
40
0
40
0
40
0
40
0
40
1
40
1
40
1
40
1
41
1
10
7.51726099842998
20
-2.00675381909849
30
0
41
1
10
7.52885307938556
20
-2.0047608708069
30
0
41
1
10
7.54068877128833
20
-2.00410730492794
30
0
41
1
10
7.55276236839035
20
-2.00486595788629
30
0
0
SPLINE
5
B8
100
AcDbEntity
8
1
62
256
6
ByLayer
370
18
48
1
60
0
100
AcDbSpline
70
4
71
3
72
19
73
15
40
0
40
0
40
0
40
0
40
0.125
40
0.125
40
0.25
40
0.25
40
0.5
40
0.5
40
0.625
40
0.625
40
0.75
40
0.875
40
0.875
40
1
40
1
40
1
40
1
41
1
10
7.3999759574067
20
-1.98372408805238
30
0
41
1
10
7.39996326928915
20
-1.96824310631084
30
0
41
1
10
7.39994717074427
20
-1.94810532913115
30
0
41
1
10
7.39990986357273
20
-1.89856001940524
30
0
41
1
10
7.39988850971798
20
-1.86893305184938
30
0
41
1
10
7.39982056618157
20
-1.76758014081798
30
0
41
1
10
7.3997702509082
20
-1.68376827396267
30
0
41
1
10
7.39969785392222
20
-1.533827951304
30
0
41
1
10
7.3996741263885
20
-1.4794532431992
30
0
41
1
10
7.39963043839973
20
-1.36518944612067
30
0
41
1
10
7.39959023067814
20
-1.2449251333567
30
0
41
1
10
7.3995593397056
20
-1.1128619403203
30
0
41
1
10
7.39953416228352
20
-0.974746105110569
30
0
41
1
10
7.39952449784766
20
-0.902678123687252
30
0
41
1
10
7.39951823234418
20
-0.829497004661732
30
0
0
SPLINE
5
B9
100
AcDbEntity
8
1
62
256
6
ByLayer
370
18
48
1
60
0
100
AcDbSpline
70
4
71
3
72
16
73
12
40
0
40
0
40
0
40
0
40
0.25
40
0.25
40
0.375
40
0.375
40
0.5
40
0.5
40
0.75
40
0.75
40
1
40
1
40
1
40
1
41
1
10
53.2496980455165
20
-1.93714291565559
30
0
41
1
10
53.2128265694161
20
-1.92683909482969
30
0
41
1
10
53.1788029620449
20
-1.90884429877158
30
0
41
1
10
53.1323874071326
20
-1.86937568720626
30
0
41
1
10
53.1176271196359
20
-1.85403683286697
30
0
41
1
10
53.0902120555995
20
-1.8195048984189
30
0
41
1
10
53.0775201987954
20
-1.8003100444418
30
0
41
1
10
53.0424904247683
20
-1.7369411567679
30
0
41
1
10
53.0231765433433
20
-1.68702412323805
30
0
41
1
10
52.9931081663833
20
-1.57093477514479
30
0
41
1
10
52.9824263026133
20
-1.50441401531913
30
0
41
1
10
52.9766893460789
20
-1.43157537602289
30
0
0
SPLINE
5
BA
100
AcDbEntity
8
1
62
256
6
ByLayer
370
18
48
1
60
0
100
AcDbSpline
70
4
71
3
72
88
73
84
40
0
40
0
40
0
40
0
40
0.0153459600666692
40
0.0153459600666692
40
0.0387377526805029
40
0.0387377526805029
40
0.0621295452943366
40
0.0621295452943366
40
0.108913130522004
40
0.108913130522004
40
0.132304923135837
40
0.132304923135837
40
0.155696715749669
40
0.155696715749669
40
0.179088508363502
40
0.179088508363502
40
0.202480300977335
40
0.202480300977335
40
0.225872093591167
40
0.225872093591167
40
0.249263886205
40
0.249263886205
40
0.272655678818833
40
0.272655678818833
40
0.296047471432665
40
0.296047471432665
40
0.342831056660328
40
0.342831056660328
40
0.36622284927416
40
0.36622284927416
40
0.389614641887991
40
0.389614641887991
40
0.413006434501823
40
0.413006434501823
40
0.436398227115655
40
0.436398227115655
40
0.459790019729486
40
0.459790019729486
40
0.483181812343318
40
0.483181812343318
40
0.506573604957149
40
0.506573604957149
40
0.529965397570981
40
0.529965397570981
40
0.553357190184813
40
0.553357190184813
40
0.576748982798644
40
0.576748982798644
40
0.600140775412476
40
0.600140775412476
40
0.623532568026307
40
0.623532568026307
40
0.646924360640139
40
0.646924360640139
40
0.67031615325397
40
0.67031615325397
40
0.693707945867802
40
0.693707945867802
40
0.717099738481633
40
0.717099738481633
40
0.740491531095465
40
0.740491531095465
40
0.763883323709296
40
0.763883323709296
40
0.810666908936957
40
0.810666908936957
40
0.834058701550788
40
0.834058701550788
40
0.857450494164619
40
0.857450494164619
40
0.880842286778449
40
0.880842286778449
40
0.90423407939228
40
0.90423407939228
40
0.92762587200611
40
0.92762587200611
40
0.951017664619941
40
0.951017664619941
40
0.974409457233771
40
0.974409457233771
40
0.997801249847602
40
0.997801249847602
40
1
40
1
40
1
40
1
41
1
10
48.7103103383495
20
-1.06377523010158
30
0
41
1
10
48.6350159921141
20
-1.09809719382852
30
0
41
1
10
48.5597549313168
20
-1.1316057753819
30
0
41
1
10
48.3697301609261
20
-1.21385724512137
30
0
41
1
10
48.2549222136635
20
-1.26150869841837
30
0
41
1
10
48.0250872872101
20
-1.35312558474757
30
0
41
1
10
47.9105521869698
20
-1.39768870894466
30
0
41
1
10
47.5660255363891
20
-1.52427948204536
30
0
41
1
10
47.3352620594774
20
-1.59987944424532
30
0
41
1
10
46.9859815981894
20
-1.69561733522863
30
0
41
1
10
46.8694923804699
20
-1.72502444831065
30
0
41
1
10
46.6375130766946
20
-1.77967876180895
30
0
41
1
10
46.5215230423947
20
-1.80425974519071
30
0
41
1
10
46.2893173730735
20
-1.84759483893069
30
0
41
1
10
46.1731522328056
20
-1.86637861242252
30
0
41
1
10
45.9403988522396
20
-1.89786529503806
30
0
41
1
10
45.8233360555964
20
-1.91054110481295
30
0
41
1
10
45.5912355977214
20
-1.92930458411843
30
0
41
1
10
45.4758102561317
20
-1.93537124835882
30
0
41
1
10
45.2449279229251
20
-1.94192875910335
30
0
41
1
10
45.129641245226
20
-1.94233153559145
30
0
41
1
10
44.8992751152294
20
-1.9372468599434
30
0
41
1
10
44.7841417253322
20
-1.93176757522454
30
0
41
1
10
44.5539378023122
20
-1.91503819141798
30
0
41
1
10
44.4393597963065
20
-1.90362050783048
30
0
41
1
10
44.0949880004225
20
-1.8603478710678
30
0
41
1
10
43.8647316636005
20
-1.82017111286572
30
0
41
1
10
43.5170370273437
20
-1.74120716602693
30
0
41
1
10
43.4008317548497
20
-1.71203820343962
30
0
41
1
10
43.1682028371079
20
-1.64829339513955
30
0
41
1
10
43.0521709286165
20
-1.61413580346147
30
0
41
1
10
42.820578743698
20
-1.54142005656891
30
0
41
1
10
42.7050508813475
20
-1.50280235188149
30
0
41
1
10
42.4742704266225
20
-1.42130543956867
30
0
41
1
10
42.3588212344502
20
-1.3786175542364
30
0
41
1
10
42.1292826599026
20
-1.28684783129836
30
0
41
1
10
42.0147681308782
20
-1.23873517453339
30
0
41
1
10
41.7850938176597
20
-1.14021186708612
30
0
41
1
10
41.6701374227409
20
-1.08918612590452
30
0
41
1
10
41.4398109905606
20
-0.983971346536379
30
0
41
1
10
41.3243874012624
20
-0.929933399606966
30
0
41
1
10
41.092975862368
20
-0.818774924554816
30
0
41
1
10
40.9774495441413
20
-0.760756309321607
30
0
41
1
10
40.7453229359066
20
-0.642610110722558
30
0
41
1
10
40.6286220315282
20
-0.582520523861916
30
0
41
1
10
40.3964369602388
20
-0.461534289644078
30
0
41
1
10
40.2806811351259
20
-0.400487672683681
30
0
41
1
10
40.0494776816729
20
-0.277966318898308
30
0
41
1
10
39.9341197173831
20
-0.216316906800472
30
0
41
1
10
39.7043845242121
20
-0.0913259166276816
30
0
41
1
10
39.5896079887592
20
-0.0287460136795232
30
0
41
1
10
39.359836161508
20
0.09584523252704
30
0
41
1
10
39.2448681095816
20
0.157914424785247
30
0
41
1
10
39.0145367445186
20
0.281163180542279
30
0
41
1
10
38.8989819883187
20
0.341978603161124
30
0
41
1
10
38.6683754458862
20
0.464392271346583
30
0
41
1
10
38.5531169700452
20
0.525604041016095
30
0
41
1
10
38.3213764961213
20
0.64557228253247
30
0
41
1
10
38.2047503140079
20
0.704852158005394
30
0
41
1
10
37.9720154759775
20
0.820237652689372
30
0
41
1
10
37.8560666917271
20
0.876105535067666
30
0
41
1
10
37.6243203016262
20
0.985172661558153
30
0
41
1
10
37.5091287842853
20
1.0390219079656
30
0
41
1
10
37.1637437014215
20
1.19460679825067
30
0
41
1
10
36.9338369799401
20
1.29086713291142
30
0
41
1
10
36.5884429734352
20
1.42067365108144
30
0
41
1
10
36.4732578526599
20
1.46167422469534
30
0
41
1
10
36.2431572616609
20
1.54062087511474
30
0
41
1
10
36.1278234810241
20
1.57790045359778
30
0
41
1
10
35.8963647514713
20
1.64747062456996
30
0
41
1
10
35.7802895825941
20
1.67982873686827
30
0
41
1
10
35.5471362364128
20
1.73904588142884
30
0
41
1
10
35.4302506630629
20
1.76558490737449
30
0
41
1
10
35.1987837264288
20
1.8128082717846
30
0
41
1
10
35.0836726917874
20
1.8334311716049
30
0
41
1
10
34.8531948279882
20
1.86932015607223
30
0
41
1
10
34.7380239723588
20
1.88460703316386
30
0
41
1
10
34.5077825203813
20
1.90953708855446
30
0
41
1
10
34.3926602269852
20
1.91916382045099
30
0
41
1
10
34.1624193382432
20
1.93229854423336
30
0
41
1
10
34.0477725750173
20
1.93584355870274
30
0
41
1
10
33.9221102885273
20
1.93572844833707
30
0
41
1
10
33.9113109561066
20
1.93568889626855
30
0
41
1
10
33.9005091952685
20
1.93562053890025
30
0
0
SPLINE
5
BB
100
AcDbEntity
8
1
62
256
6
ByLayer
370
18
48
1
60
0
100
AcDbSpline
70
4
71
3
72
90
73
86
40
0
40
0
40
0
40
0
40
0.0149195617168011
40
0.0149195617168011
40
0.03837832775452
40
0.03837832775452
40
0.0618370937922391
40
0.0618370937922391
40
0.085295859829958
40
0.085295859829958
40
0.108754625867677
40
0.108754625867677
40
0.132213391905396
40
0.132213391905396
40
0.155672157943115
40
0.155672157943115
40
0.179130923980834
40
0.179130923980834
40
0.202589690018553
40
0.202589690018553
40
0.226048456056272
40
0.226048456056272
40
0.249507222093991
40
0.249507222093991
40
0.27296598813171
40
0.27296598813171
40
0.296424754169429
40
0.296424754169429
40
0.319883520207148
40
0.319883520207148
40
0.343342286244867
40
0.343342286244867
40
0.366801052282586
40
0.366801052282586
40
0.390259818320305
40
0.390259818320305
40
0.413718584358024
40
0.413718584358024
40
0.460636116433462
40
0.460636116433462
40
0.484094882471181
40
0.484094882471181
40
0.5075536485089
40
0.5075536485089
40
0.531012414546619
40
0.531012414546619
40
0.554471180584338
40
0.554471180584338
40
0.577929946622057
40
0.577929946622057
40
0.601388712659776
40
0.601388712659776
40
0.624847478697495
40
0.624847478697495
40
0.648306244735214
40
0.648306244735214
40
0.671765010772933
40
0.671765010772933
40
0.695223776810652
40
0.695223776810652
40
0.718682542848371
40
0.718682542848371
40
0.74214130888609
40
0.74214130888609
40
0.765600074923808
40
0.765600074923808
40
0.789058840961528
40
0.789058840961528
40
0.812517606999246
40
0.812517606999246
40
0.835976373036966
40
0.835976373036966
40
0.859435139074685
40
0.859435139074685
40
0.882893905112404
40
0.882893905112404
40
0.906352671150122
40
0.906352671150122
40
0.929811437187842
40
0.929811437187842
40
0.95327020322556
40
0.95327020322556
40
0.97672896926328
40
0.97672896926328
40
1
40
1
40
1
40
1
41
1
10
26.1736173172446
20
-1.07482247216453
30
0
41
1
10
26.1001643052431
20
-1.10741954772456
30
0
41
1
10
26.0269005097111
20
-1.13931182762258
30
0
41
1
10
25.8388111993047
20
-1.2202476935629
30
0
41
1
10
25.723870403847
20
-1.26786660332166
30
0
41
1
10
25.4939325606551
20
-1.35891316532735
30
0
41
1
10
25.3789853569857
20
-1.40240628416507
30
0
41
1
10
25.14890980654
20
-1.48467540343182
30
0
41
1
10
25.0335764528478
20
-1.5232493410752
30
0
41
1
10
24.8035730394838
20
-1.59620229940117
30
0
41
1
10
24.688725915204
20
-1.62991389625347
30
0
41
1
10
24.4578407365858
20
-1.69256134581462
30
0
41
1
10
24.3420108005163
20
-1.72163221523118
30
0
41
1
10
24.1095011059489
20
-1.77472516225004
30
0
41
1
10
23.9926691887393
20
-1.79870824623907
30
0
41
1
10
23.760366726287
20
-1.84051666109411
30
0
41
1
10
23.645099040768
20
-1.85862717360777
30
0
41
1
10
23.4150303134717
20
-1.8876747068046
30
0
41
1
10
23.3001971720998
20
-1.89866656231601
30
0
41
1
10
23.070492328268
20
-1.91565389955798
30
0
41
1
10
22.955629623412
20
-1.92160300437507
30
0
41
1
10
22.7257540003594
20
-1.92799584385182
30
0
41
1
10
22.6108211632787
20
-1.92846850156178
30
0
41
1
10
22.3815540754909
20
-1.92327061778414
30
0
41
1
10
22.2667694518074
20
-1.91761659179247
30
0
41
1
10
22.0365837353344
20
-1.89917268341316
30
0
41
1
10
21.9212133897667
20
-1.88635458151046
30
0
41
1
10
21.6895802118486
20
-1.85577474050703
30
0
41
1
10
21.5730480919977
20
-1.83815963949075
30
0
41
1
10
21.3403723241523
20
-1.79702247409622
30
0
41
1
10
21.2245768693131
20
-1.77353768130257
30
0
41
1
10
20.9926086136899
20
-1.72136533796672
30
0
41
1
10
20.8766426207775
20
-1.6925676464198
30
0
41
1
10
20.6446277846673
20
-1.62894177089649
30
0
41
1
10
20.5285114258035
20
-1.59412701503172
30
0
41
1
10
20.2958371619162
20
-1.52036165525726
30
0
41
1
10
20.1795847242344
20
-1.48074173963929
30
0
41
1
10
19.831958265779
20
-1.35607785600064
30
0
41
1
10
19.6012944343247
20
-1.26532803304536
30
0
41
1
10
19.2560969650524
20
-1.11792991443139
30
0
41
1
10
19.1412421781907
20
-1.06668941964946
30
0
41
1
10
18.9121193831517
20
-0.960891652818049
30
0
41
1
10
18.7974885534773
20
-0.906636475273501
30
0
41
1
10
18.5678410860863
20
-0.795692378415623
30
0
41
1
10
18.4528711526052
20
-0.738925213348892
30
0
41
1
10
18.222339638027
20
-0.623484504974272
30
0
41
1
10
18.1066016779168
20
-0.565201681069993
30
0
41
1
10
17.8752772652111
20
-0.44509982603887
30
0
41
1
10
17.7594528059955
20
-0.3831665163803
30
0
41
1
10
17.5270520451851
20
-0.259423816197938
30
0
41
1
10
17.4110980358667
20
-0.19756444553667
30
0
41
1
10
17.1798076840368
20
-0.0738149427368455
30
0
41
1
10
17.064441196641
20
-0.0120181469550005
30
0
41
1
10
16.8339106105081
20
0.111011779622629
30
0
41
1
10
16.719203023189
20
0.173134391787045
30
0
41
1
10
16.4898382363065
20
0.296287894015933
30
0
41
1
10
16.3751470583862
20
0.357235843794484
30
0
41
1
10
16.1454799066114
20
0.477645970464266
30
0
41
1
10
16.0305099257635
20
0.53711926975916
30
0
41
1
10
15.8000882484888
20
0.654079409991482
30
0
41
1
10
15.684681383267
20
0.71166483021733
30
0
41
1
10
15.4540814326682
20
0.826135863174954
30
0
41
1
10
15.3384198133693
20
0.882198625210407
30
0
41
1
10
15.106057482966
20
0.99129989267081
30
0
41
1
10
14.9895530448096
20
1.04430307387091
30
0
41
1
10
14.7575819383292
20
1.14620714337019
30
0
41
1
10
14.6416585531001
20
1.19499512816495
30
0
41
1
10
14.4110712275581
20
1.2896001180776
30
0
41
1
10
14.2964494894675
20
1.33520522123263
30
0
41
1
10
14.0667517302159
20
1.42134639248528
30
0
41
1
10
13.9518851923087
20
1.46228636697316
30
0
41
1
10
13.722122103567
20
1.53906816841979
30
0
41
1
10
13.6071470774487
20
1.57493088324725
30
0
41
1
10
13.3768816804114
20
1.64183788538125
30
0
41
1
10
13.2620229776494
20
1.67328844359491
30
0
41
1
10
13.0317083141652
20
1.73090656715968
30
0
41
1
10
12.9161868488127
20
1.75703122789332
30
0
41
1
10
12.6843231266396
20
1.80372775364407
30
0
41
1
10
12.5676781948843
20
1.82432426137345
30
0
41
1
10
12.3349070830101
20
1.85936092370554
30
0
41
1
10
12.2188928171936
20
1.87390014744213
30
0
41
1
10
11.9882075719449
20
1.89745011693589
30
0
41
1
10
11.8730691084091
20
1.90624449971264
30
0
41
1
10
11.6438138609528
20
1.91794447897161
30
0
41
1
10
11.5297546705617
20
1.92088725449526
30
0
41
1
10
11.4156840359138
20
1.92084092426919
30
0
0
SPLINE
5
BC
100
AcDbEntity
8
1
62
256
6
ByLayer
370
18
48
1
60
0
100
AcDbSpline
70
4
71
3
72
34
73
30
40
0
40
0
40
0
40
0
40
0.125000000000001
40
0.125000000000001
40
0.187500000000002
40
0.187500000000002
40
0.250000000000002
40
0.250000000000002
40
0.375000000000003
40
0.375000000000003
40
0.500000000000004
40
0.500000000000004
40
0.625000000000005
40
0.625000000000005
40
0.750000000000006
40
0.750000000000006
40
0.781250000000006
40
0.781250000000006
40
0.796875000000006
40
0.796875000000006
40
0.812500000000007
40
0.812500000000007
40
0.828125000000007
40
0.828125000000007
40
0.843750000000007
40
0.843750000000007
40
0.875000000000003
40
0.875000000000003
40
1
40
1
40
1
40
1
41
1
10
51.9387278494114
20
-0.617407888878006
30
0
41
1
10
52.020812487181
20
-0.63029745625937
30
0
41
1
10
52.1025209839893
20
-0.637917805427321
30
0
41
1
10
52.224373267134
20
-0.639395731474877
30
0
41
1
10
52.2648720941299
20
-0.63822694032396
30
0
41
1
10
52.3455996817362
20
-0.632106098912573
30
0
41
1
10
52.3858968437572
20
-0.627125552655542
30
0
41
1
10
52.5039498839485
20
-0.606114753911896
30
0
41
1
10
52.5797306694635
20
-0.584308590884547
30
0
41
1
10
52.7234584862358
20
-0.519782153145457
30
0
41
1
10
52.7917112867039
20
-0.476299656388903
30
0
41
1
10
52.9151693536705
20
-0.374446996053251
30
0
41
1
10
52.9710202479123
20
-0.315429853704131
30
0
41
1
10
53.0721473369563
20
-0.182840298447928
30
0
41
1
10
53.1171305004539
20
-0.109490900455142
30
0
41
1
10
53.1666432544832
20
-0.0122962644598772
30
0
41
1
10
53.1762155233888
20
0.0074177003253908
30
0
41
1
10
53.1901105860587
20
0.0373744879156277
30
0
41
1
10
53.1946655174282
20
0.0474255481134094
30
0
41
1
10
53.2036223247084
20
0.0676437951870525
30
0
41
1
10
53.208777409566
20
0.0772330889232364
30
0
41
1
10
53.2153848833777
20
0.0992561053879228
30
0
41
1
10
53.2160034267299
20
0.111341310358426
30
0
41
1
10
53.2141890660008
20
0.13638283921486
30
0
41
1
10
53.2114669177836
20
0.148766926105537
30
0
41
1
10
53.2026521355166
20
0.18582677644568
30
0
41
1
10
53.1967061029458
20
0.210527205006599
30
0
41
1
10
53.1675356485936
20
0.334078774145922
30
0
41
1
10
53.1450188029048
20
0.432990177303879
30
0
41
1
10
53.1230990416921
20
0.531947811290223
30
0
0
SPLINE
5
BD
100
AcDbEntity
8
1
62
256
6
ByLayer
370
18
48
1
60
0
100
AcDbSpline
70
4
71
3
72
14
73
10
40
0
40
0
40
0
40
0
40
0.249999999999999
40
0.249999999999999
40
0.5
40
0.5
40
0.75
40
0.75
40
1
40
1
40
1
40
1
41
1
10
53.2887676035696
20
-1.94601624795041
30
0
41
1
10
53.2910784493066
20
-1.94548272300668
30
0
41
1
10
53.2927398318367
20
-1.9466238845782
30
0
41
1
10
53.2943541826368
20
-1.95326362880124
30
0
41
1
10
53.2942589626849
20
-1.95885912349132
30
0
41
1
10
53.2914278231423
20
-1.9754275545485
30
0
41
1
10
53.2886624481209
20
-1.98633358594344
30
0
41
1
10
53.2809453149873
20
-2.01087888329045
30
0
41
1
10
53.2760439258797
20
-2.02438343119596
30
0
41
1
10
53.2708742032503
20
-2.03733310344393
30
0
0
SPLINE
5
BE
100
AcDbEntity
8
1
62
256
6
ByLayer
370
18
48
1
60
0
100
AcDbSpline
70
4
71
3
72
8
73
4
40
0
40
0
40
0
40
0
40
1
40
1
40
1
40
1
41
1
10
53.8799159893501
20
-0.205633345638489
30
0
41
1
10
53.6698433414056
20
-0.782803202310674
30
0
41
1
10
53.4597706934612
20
-1.3599730589828
30
0
41
1
10
53.2496980455166
20
-1.93714291565533
30
0
0
SPLINE
5
BF
100
AcDbEntity
8
1
62
256
6
ByLayer
370
18
48
1
60
0
100
AcDbSpline
70
4
71
3
72
30
73
26
40
0
40
0
40
0
40
0
40
0.0434724670753233
40
0.0434724670753233
40
0.102379200936836
40
0.102379200936836
40
0.161285934798348
40
0.161285934798348
40
0.279099402521375
40
0.279099402521375
40
0.514726337967429
40
0.514726337967429
40
0.573633071828942
40
0.573633071828942
40
0.632539805690455
40
0.632539805690455
40
0.750353273413483
40
0.750353273413483
40
0.868166741136512
40
0.868166741136512
40
0.927073474998026
40
0.927073474998026
40
0.98598020885954
40
0.98598020885954
40
1
40
1
40
1
40
1
41
1
10
10.1551244655722
20
1.64745676875469
30
0
41
1
10
10.2427718862729
20
1.61893587377457
30
0
41
1
10
10.330487520363
20
1.58889836216039
30
0
41
1
10
10.5373444040187
20
1.51469565785351
30
0
41
1
10
10.6565965498499
20
1.46931981440918
30
0
41
1
10
10.8959494152553
20
1.37360335228175
30
0
41
1
10
11.0163726896414
20
1.32310312087861
30
0
41
1
10
11.3765442586626
20
1.16550269785745
30
0
41
1
10
11.6148091330058
20
1.05258337482152
30
0
41
1
10
12.3274559004603
20
0.696051187351202
30
0
41
1
10
12.8001320843368
20
0.435405186367348
30
0
41
1
10
13.3985591093662
20
0.0986636395311962
30
0
41
1
10
13.5189639229965
20
0.0306055354871262
30
0
41
1
10
13.7588444196779
20
-0.10484189386375
30
0
41
1
10
13.878342780056
20
-0.172250281667743
30
0
41
1
10
14.2359399630422
20
-0.372794426513337
30
0
41
1
10
14.4732158306755
20
-0.504141114172256
30
0
41
1
10
14.9476027383802
20
-0.758501294245548
30
0
41
1
10
15.1846486488362
20
-0.881642881901797
30
0
41
1
10
15.5418608193036
20
-1.05711175578674
30
0
41
1
10
15.6612078918202
20
-1.11406010836683
30
0
41
1
10
15.900691803268
20
-1.22446010446802
30
0
41
1
10
16.021142563245
20
-1.27803776762883
30
0
41
1
10
16.16954202249
20
-1.3412916125373
30
0
41
1
10
16.198046816915
20
-1.35331481324772
30
0
41
1
10
16.2265291957776
20
-1.36519909422807
30
0
0
SPLINE
5
C0
100
AcDbEntity
8
1
62
256
6
ByLayer
370
13
48
1
60
0
100
AcDbSpline
70
4
71
3
72
16
73
12
40
0
40
0
40
0
40
0
40
0.342496437119583
40
0.342496437119583
40
0.524578531425442
40
0.524578531425442
40
0.615619578578371
40
0.615619578578371
40
0.706660625731301
40
0.706660625731301
40
1
40
1
40
1
40
1
41
1
10
16.2265291960608
20
-1.36519909434631
30
0
41
1
10
16.676742653463
20
-1.55305079220989
30
0
41
1
10
17.1213555171657
20
-1.70619299007271
30
0
41
1
10
17.8053012066724
20
-1.87635029061911
30
0
41
1
10
18.0431700685994
20
-1.92361189686548
30
0
41
1
10
18.4024826092682
20
-1.97517282985862
30
0
41
1
10
18.5229461469633
20
-1.98914546167686
30
0
41
1
10
18.7625454437913
20
-2.01022010136501
30
0
41
1
10
18.8819026278688
20
-2.01737454364215
30
0
41
1
10
19.3846514326873
20
-2.03338574025801
30
0
41
1
10
19.7655933904418
20
-2.01057471848441
30
0
41
1
10
20.1481864985004
20
-1.95406962751085
30
0
0
SPLINE
5
C1
100
AcDbEntity
8
1
62
256
6
ByLayer
370
18
48
1
60
0
100
AcDbSpline
70
4
71
3
72
24
73
20
40
0
40
0
40
0
40
0
40
0.0798111583874333
40
0.0798111583874333
40
0.315243876578211
40
0.315243876578211
40
0.374102056125903
40
0.374102056125903
40
0.432960235673595
40
0.432960235673595
40
0.550676594768979
40
0.550676594768979
40
0.668392953864363
40
0.668392953864363
40
0.727251133412055
40
0.727251133412055
40
0.786109312959746
40
0.786109312959746
40
1
40
1
40
1
40
1
41
1
10
32.8131738414746
20
1.6054024901313
30
0
41
1
10
32.9751962386305
20
1.54905607839944
30
0
41
1
10
33.1364927001184
20
1.4880137477102
30
0
41
1
10
33.7721703756518
20
1.23041010307173
30
0
41
1
10
34.2439165201407
20
1.00168795961235
30
0
41
1
10
34.8409173031113
20
0.686611811001626
30
0
41
1
10
34.960944207904
20
0.621989612663327
30
0
41
1
10
35.2007628906575
20
0.49090985097456
30
0
41
1
10
35.3202187689963
20
0.424717260394601
30
0
41
1
10
35.6776415179679
20
0.224929899550773
30
0
41
1
10
35.9146339928095
20
0.0900660633359109
30
0
41
1
10
36.3882391333973
20
-0.17907563112459
30
0
41
1
10
36.6248146864011
20
-0.313415783198451
30
0
41
1
10
36.9812933063158
20
-0.511064032115172
30
0
41
1
10
37.1003708459363
20
-0.576336105306552
30
0
41
1
10
37.3392775390392
20
-0.705215311886775
30
0
41
1
10
37.4594256037587
20
-0.768985752930519
30
0
41
1
10
38.0146526734594
20
-1.05737191108693
30
0
41
1
10
38.4440586213798
20
-1.26184812055215
30
0
41
1
10
38.874295879786
20
-1.4356081071958
30
0
0
SPLINE
5
C2
100
AcDbEntity
8
1
62
256
6
ByLayer
370
13
48
1
60
0
100
AcDbSpline
70
4
71
3
72
22
73
18
40
0
40
0
40
0
40
0
40
0.0341483022098691
40
0.0341483022098691
40
0.220750256484232
40
0.220750256484232
40
0.314051233621413
40
0.314051233621413
40
0.407352210758594
40
0.407352210758594
40
0.780556119307342
40
0.780556119307342
40
0.87385709644453
40
0.87385709644453
40
0.967158073581717
40
0.967158073581717
40
1
40
1
40
1
40
1
41
1
10
38.8742949518714
20
-1.4356077324388
30
0
41
1
10
38.9176266680981
20
-1.45310812372369
30
0
41
1
10
38.9609668168266
20
-1.47029693939015
30
0
41
1
10
39.2412370385327
20
-1.57933944881836
30
0
41
1
10
39.478584609029
20
-1.66200082559519
30
0
41
1
10
39.8370071449334
20
-1.76930191856712
30
0
41
1
10
39.9572135040836
20
-1.802367493319
30
0
41
1
10
40.1966606888351
20
-1.86209338895685
30
0
41
1
10
40.3159373284092
20
-1.88878281923257
30
0
41
1
10
40.9108276538249
20
-2.00606879594361
30
0
41
1
10
41.3820533228147
20
-2.04835099848478
30
0
41
1
10
41.9761813373394
20
-2.03361516509614
30
0
41
1
10
42.0952776729854
20
-2.02730308998849
30
0
41
1
10
42.3343321197577
20
-2.00789509977795
30
0
41
1
10
42.4546116268521
20
-1.99477396345998
30
0
41
1
10
42.61638769565
20
-1.97259463204185
30
0
41
1
10
42.6584511990922
20
-1.96641522453294
30
0
41
1
10
42.7004651818973
20
-1.9598365963555
30
0
0
SPLINE
5
C3
100
AcDbEntity
8
1
62
256
6
ByLayer
370
18
48
1
60
0
100
AcDbSpline
70
4
71
3
72
8
73
4
40
0
40
0
40
0
40
0
40
1
40
1
40
1
40
1
41
1
10
7.51726099841304
20
-2.00675381910432
30
0
41
1
10
7.50210219149946
20
-2.00571943179193
30
0
41
1
10
7.4870167592608
20
-2.00462088868105
30
0
41
1
10
7.47255356074439
20
-2.00332020973479
30
0
0
SPLINE
5
C4
100
AcDbEntity
8
1
62
256
6
ByLayer
370
18
48
1
60
0
100
AcDbSpline
70
4
71
3
72
8
73
4
40
0
40
0
40
0
40
0
40
1
40
1
40
1
40
1
41
1
10
53.3514598075861
20
1.97355501546309
30
0
41
1
10
53.3197342576711
20
2.00748994023493
30
0
41
1
10
53.29238501256
20
2.03035017318095
30
0
41
1
10
53.2691260771717
20
2.04171140775497
30
0
0
SPLINE
5
C5
100
AcDbEntity
8
1
62
256
6
ByLayer
370
18
48
1
60
0
100
AcDbSpline
70
4
71
3
72
30
73
26
40
0
40
0
40
0
40
0
40
0.062499999999996
40
0.062499999999996
40
0.124999999999992
40
0.124999999999992
40
0.249999999999983
40
0.249999999999983
40
0.374999999999975
40
0.374999999999975
40
0.499999999999966
40
0.499999999999966
40
0.562499999999971
40
0.562499999999971
40
0.624999999999975
40
0.624999999999975
40
0.687499999999979
40
0.687499999999979
40
0.749999999999983
40
0.749999999999983
40
0.812499999999988
40
0.812499999999988
40
0.874999999999992
40
0.874999999999992
40
1
40
1
40
1
40
1
41
1
10
53.3705405525923
20
-0.897004400532353
30
0
41
1
10
53.3659857834382
20
-0.919379606210128
30
0
41
1
10
53.3635127040237
20
-0.940409583008574
30
0
41
1
10
53.362733128835
20
-0.978047113409701
30
0
41
1
10
53.3643998570831
20
-0.994159823147527
30
0
41
1
10
53.3745727050807
20
-1.03457226852336
30
0
41
1
10
53.3878328443087
20
-1.04963118699325
30
0
41
1
10
53.4213702719732
20
-1.05984314988822
30
0
41
1
10
53.4416423594342
20
-1.05497166802849
30
0
41
1
10
53.4852649666566
20
-1.02820487399262
30
0
41
1
10
53.5086393771583
20
-1.00638963786159
30
0
41
1
10
53.5438943595859
20
-0.961463292338806
30
0
41
1
10
53.5555021797245
20
-0.944647157739496
30
0
41
1
10
53.577883820411
20
-0.907650706748598
30
0
41
1
10
53.5888499645673
20
-0.887083332165673
30
0
41
1
10
53.608649151452
20
-0.844017913798922
30
0
41
1
10
53.6177587112875
20
-0.820864662429699
30
0
41
1
10
53.6324813969975
20
-0.77508478029327
30
0
41
1
10
53.6383119744782
20
-0.751747579513648
30
0
41
1
10
53.6456364624748
20
-0.708436622404321
30
0
41
1
10
53.6472048153617
20
-0.688082312123072
30
0
41
1
10
53.6462338194935
20
-0.652989428671987
30
0
41
1
10
53.6437141026963
20
-0.637906595809426
30
0
41
1
10
53.6314727961245
20
-0.601753866381102
30
0
41
1
10
53.6170291235717
20
-0.58902496707978
30
0
41
1
10
53.599551798911
20
-0.58616933561882
30
0
0
SPLINE
5
C6
100
AcDbEntity
8
1
62
256
6
ByLayer
370
18
48
1
60
0
100
AcDbSpline
70
4
71
3
72
38
73
34
40
0
40
0
40
0
40
0
40
0.123403503289623
40
0.123403503289623
40
0.154254379112029
40
0.154254379112029
40
0.185105254934434
40
0.185105254934434
40
0.246807006579246
40
0.246807006579246
40
0.308508758224057
40
0.308508758224057
40
0.339359634046463
40
0.339359634046463
40
0.370210509868869
40
0.370210509868869
40
0.493614013158489
40
0.493614013158489
40
0.555315764803301
40
0.555315764803301
40
0.617017516448112
40
0.617017516448112
40
0.740421019737738
40
0.740421019737738
40
0.802122771382551
40
0.802122771382551
40
0.863824523027363
40
0.863824523027363
40
0.925526274672176
40
0.925526274672176
40
0.987228026316989
40
0.987228026316989
40
1
40
1
40
1
40
1
41
1
10
53.2691260771717
20
-2.04171140775497
30
0
41
1
10
52.7922045393638
20
-2.06594414893698
30
0
41
1
10
52.3182662259979
20
-2.03543378704029
30
0
41
1
10
51.7193464848302
20
-1.93059992634625
30
0
41
1
10
51.5992016139576
20
-1.90628870225996
30
0
41
1
10
51.3603364708138
20
-1.85165231669444
30
0
41
1
10
51.2413250873
20
-1.82127031390289
30
0
41
1
10
50.8850199151247
20
-1.72148768908539
30
0
41
1
10
50.6484219304043
20
-1.6434870549104
30
0
41
1
10
50.1748558103601
20
-1.46714200975021
30
0
41
1
10
49.9379219587917
20
-1.36876772894018
30
0
41
1
10
49.5807578985689
20
-1.20756221496003
30
0
41
1
10
49.4613694925141
20
-1.15160707598309
30
0
41
1
10
49.2216145787638
20
-1.03563225210348
30
0
41
1
10
49.1016036436602
20
-0.975771616414079
30
0
41
1
10
48.5046979187043
20
-0.670625561802467
30
0
41
1
10
48.0332855133986
20
-0.405154372024555
30
0
41
1
10
47.3213816292679
20
0.0007192499398627
30
0
41
1
10
47.0832652392464
20
0.137248714355508
30
0
41
1
10
46.6034097482498
20
0.409341016152325
30
0
41
1
10
46.3648690473844
20
0.542542643776471
30
0
41
1
10
45.652417549376
20
0.926530845303574
30
0
41
1
10
45.1810572769026
20
1.16317809965275
30
0
41
1
10
44.46533558721
20
1.46689622366219
30
0
41
1
10
44.2244026058985
20
1.55985129703453
30
0
41
1
10
43.7474247989322
20
1.72193016190792
30
0
41
1
10
43.5103366365077
20
1.79161022502689
30
0
41
1
10
43.0367431033094
20
1.90661316549409
30
0
41
1
10
42.8000635312698
20
1.95180362796916
30
0
41
1
10
42.3247534045133
20
2.01623503339141
30
0
41
1
10
42.0858076493219
20
2.03555693708154
30
0
41
1
10
41.7962295203586
20
2.04220607644368
30
0
41
1
10
41.7466468181265
20
2.04275497755495
30
0
41
1
10
41.6971331243321
20
2.04271762894314
30
0
0
SPLINE
5
C7
100
AcDbEntity
8
1
62
256
6
ByLayer
370
18
48
1
60
0
100
AcDbSpline
70
4
71
3
72
42
73
38
40
0
40
0
40
0
40
0
40
0.0822897094212987
40
0.0822897094212987
40
0.140817149616252
40
0.140817149616252
40
0.17008086971373
40
0.17008086971373
40
0.199344589811208
40
0.199344589811208
40
0.316399470201129
40
0.316399470201129
40
0.345663190298611
40
0.345663190298611
40
0.374926910396093
40
0.374926910396093
40
0.433454350591057
40
0.433454350591057
40
0.550509230980983
40
0.550509230980983
40
0.579772951078465
40
0.579772951078465
40
0.609036671175947
40
0.609036671175947
40
0.66756411137091
40
0.66756411137091
40
0.726091551565874
40
0.726091551565874
40
0.784618991760837
40
0.784618991760837
40
0.843146431955801
40
0.843146431955801
40
0.872410152053283
40
0.872410152053283
40
0.901673872150765
40
0.901673872150765
40
1
40
1
40
1
40
1
41
1
10
31.420881583403
20
-1.96160635591767
30
0
41
1
10
31.0863985874159
20
-2.01243512599021
30
0
41
1
10
30.753833028752
20
-2.03729124269742
30
0
41
1
10
30.1827733451513
20
-2.03440778001365
30
0
41
1
10
29.9447062775188
20
-2.01979698343348
30
0
41
1
10
29.5850590564668
20
-1.97747167489916
30
0
41
1
10
29.4646599512068
20
-1.95993138687623
30
0
41
1
10
29.2253492963629
20
-1.91854371035666
30
0
41
1
10
29.1061011015159
20
-1.89466779517255
30
0
41
1
10
28.511056268372
20
-1.76018009010158
30
0
41
1
10
28.0391396538084
20
-1.60402400249833
30
0
41
1
10
27.4430536765395
20
-1.35949731933306
30
0
41
1
10
27.3235221895873
20
-1.30813330346379
30
0
41
1
10
27.0835414716049
20
-1.20078595058564
30
0
41
1
10
26.9632030447878
20
-1.14483966211674
30
0
41
1
10
26.6043130015782
20
-0.972577634106017
30
0
41
1
10
26.3665399928153
20
-0.851353856056761
30
0
41
1
10
25.6550232591348
20
-0.4731080981216
30
0
41
1
10
25.1816957842131
20
-0.203889715924447
30
0
41
1
10
24.5815032984013
20
0.137115720642527
30
0
41
1
10
24.4613075817443
20
0.205230429884239
30
0
41
1
10
24.2221659374646
20
0.339694860435003
30
0
41
1
10
24.1029491171535
20
0.406210384664149
30
0
41
1
10
23.7459350936551
20
0.602913055287303
30
0
41
1
10
23.508873004906
20
0.730436622862356
30
0
41
1
10
23.034659396702
20
0.97490761318906
30
0
41
1
10
22.7972636071312
20
1.09145111070427
30
0
41
1
10
22.3196808740258
20
1.30955990860952
30
0
41
1
10
22.0786897831905
20
1.41154616299747
30
0
41
1
10
21.5989208288629
20
1.59441516240969
30
0
41
1
10
21.3594165511048
20
1.67541312586692
30
0
41
1
10
20.9990092827446
20
1.77948947187258
30
0
41
1
10
20.8784975166579
20
1.81130976022314
30
0
41
1
10
20.6387407539626
20
1.86848690202277
30
0
41
1
10
20.5193173808109
20
1.89391409293012
30
0
41
1
10
19.9998618152901
20
1.99067150266106
30
0
41
1
10
19.602395794366
20
2.0286128602705
30
0
41
1
10
19.2027803602253
20
2.0286612491233
30
0
0
SPLINE
5
C8
100
AcDbEntity
8
1
62
256
6
ByLayer
370
18
48
1
60
0
100
AcDbSpline
70
4
71
3
72
10
73
6
40
0
40
0
40
0
40
0
40
0.4989978762448
40
0.4989978762448
40
1
40
1
40
1
40
1
41
1
10
8.95532723147701
20
-1.94279326728173
30
0
41
1
10
8.71724223528349
20
-1.97998021482295
30
0
41
1
10
8.47701103663104
20
-2.00445838236036
30
0
41
1
10
7.99766365453161
20
-2.02600831032373
30
0
41
1
10
7.75782152496592
20
-2.02316888117915
30
0
41
1
10
7.51726099843054
20
-2.00675381910205
30
0
0
SPLINE
5
C9
100
AcDbEntity
8
1
62
256
6
ByLayer
370
18
48
1
60
0
100
AcDbSpline
70
4
71
3
72
10
73
6
40
0
40
0
40
0
40
0
40
0.5
40
0.5
40
1
40
1
40
1
40
1
41
1
10
7.47255356074419
20
-2.00332020973443
30
0
41
1
10
7.45219934999278
20
-2.00148975063081
30
0
41
1
10
7.43459767085093
20
-1.99905970331531
30
0
41
1
10
7.40840842486963
20
-1.99254300565866
30
0
41
1
10
7.39997983368673
20
-1.9884536049216
30
0
41
1
10
7.3999759574057
20
-1.98372408805073
30
0
0
SPLINE
5
CA
100
AcDbEntity
8
1
62
256
6
ByLayer
370
18
48
1
60
0
100
AcDbSpline
70
4
71
3
72
25
73
21
40
0
40
0
40
0
40
0
40
0.108409131913988
40
0.108409131913988
40
0.287597953207952
40
0.287597953207952
40
0.466786774501917
40
0.466786774501917
40
0.511583979825407
40
0.52278328115628
40
0.52278328115628
40
0.533982582487153
40
0.533982582487153
40
0.545181883818027
40
0.545181883818027
40
0.556381185148899
40
0.556381185148899
40
0.645975595795882
40
0.645975595795882
40
1
40
1
40
1
40
1
41
1
10
7.59213208398609
20
2.01715296668846
30
0
41
1
10
7.59213208398609
20
1.89409494069955
30
0
41
1
10
7.59213208398609
20
1.77113200580507
30
0
41
1
10
7.59213208398609
20
1.44587061967854
30
0
41
1
10
7.59213208398606
20
1.24470475073809
30
0
41
1
10
7.59213208398606
20
0.845147102545496
30
0
41
1
10
7.59213208398609
20
0.646662584862298
30
0
41
1
10
7.59213208398609
20
0.400506940297163
30
0
41
1
10
7.59213208398609
20
0.339104077888209
30
0
41
1
10
7.59213208398609
20
0.277870344051593
30
0
41
1
10
7.59213208398609
20
0.253390370922062
30
0
41
1
10
7.59213208398609
20
0.241062484416119
30
0
41
1
10
7.59213208398609
20
0.217870693142828
30
0
41
1
10
7.59213208398609
20
0.206833894111327
30
0
41
1
10
7.59213208398609
20
0.186444248107222
30
0
41
1
10
7.59213208398617
20
0.177263419058249
30
0
41
1
10
7.59213208398617
20
0.0917438555815693
30
0
41
1
10
7.59213208398609
20
0.0162091714569783
30
0
41
1
10
7.59213208398609
20
-0.355352556395587
30
0
41
1
10
7.59213208398609
20
-0.644022445830302
30
0
41
1
10
7.59213208398609
20
-0.923795271602671
30
0
0
SPLINE
5
CB
100
AcDbEntity
8
1
62
256
6
ByLayer
370
18
48
1
60
0
100
AcDbSpline
70
4
71
3
72
8
73
4
40
0
40
0
40
0
40
0
40
1
40
1
40
1
40
1
41
1
10
7.59213208398609
20
-0.923795271408977
30
0
41
1
10
7.59525903782253
20
-0.925150453278434
30
0
41
1
10
7.59838187317649
20
-0.926544638758713
30
0
41
1
10
7.60149790480921
20
-0.927976463410545
30
0
0
SPLINE
5
CC
100
AcDbEntity
8
1
62
256
6
ByLayer
370
18
48
1
60
0
100
AcDbSpline
70
4
71
3
72
78
73
74
40
0
40
0
40
0
40
0
40
0.0109873541655614
40
0.0109873541655614
40
0.0349692166311026
40
0.0349692166311026
40
0.0589510790966438
40
0.0589510790966438
40
0.0829329415621849
40
0.0829329415621849
40
0.130896666493268
40
0.130896666493268
40
0.15487852895881
40
0.15487852895881
40
0.178860391424353
40
0.178860391424353
40
0.202842253889895
40
0.202842253889895
40
0.226824116355437
40
0.226824116355437
40
0.274787841286523
40
0.274787841286523
40
0.298769703752066
40
0.298769703752066
40
0.322751566217609
40
0.322751566217609
40
0.346733428683152
40
0.346733428683152
40
0.370715291148695
40
0.370715291148695
40
0.394697153614239
40
0.394697153614239
40
0.418679016079782
40
0.418679016079782
40
0.442660878545325
40
0.442660878545325
40
0.466642741010868
40
0.466642741010868
40
0.514606465941955
40
0.514606465941955
40
0.562570190873041
40
0.562570190873041
40
0.586552053338585
40
0.586552053338585
40
0.610533915804128
40
0.610533915804128
40
0.658497640735213
40
0.658497640735213
40
0.682479503200756
40
0.682479503200756
40
0.706461365666299
40
0.706461365666299
40
0.730443228131841
40
0.730443228131841
40
0.754425090597384
40
0.754425090597384
40
0.80238881552847
40
0.80238881552847
40
0.826370677994012
40
0.826370677994012
40
0.850352540459555
40
0.850352540459555
40
0.898316265390643
40
0.898316265390643
40
0.922298127856187
40
0.922298127856187
40
0.946279990321732
40
0.946279990321732
40
0.970261852787277
40
0.970261852787277
40
0.994243715252822
40
0.994243715252822
40
1
40
1
40
1
40
1
41
1
10
14.9391577825383
20
1.05207762890339
30
0
41
1
10
14.994308413632
20
1.07857070470951
30
0
41
1
10
15.0495034186588
20
1.10463987217813
30
0
41
1
10
15.2247857495626
20
1.18622329528301
30
0
41
1
10
15.3445279918063
20
1.24015653007567
30
0
41
1
10
15.5830677062505
20
1.34401191409484
30
0
41
1
10
15.70142906329
20
1.39450372103892
30
0
41
1
10
15.9383473003488
20
1.48980943350873
30
0
41
1
10
16.057109160781
20
1.53442069595769
30
0
41
1
10
16.4136876389737
20
1.66025878096491
30
0
41
1
10
16.651549320057
20
1.73388964763774
30
0
41
1
10
17.0073286831802
20
1.82895745767598
30
0
41
1
10
17.126662198748
20
1.85727312742185
30
0
41
1
10
17.3666313916831
20
1.90751716443077
30
0
41
1
10
17.487383125798
20
1.92955037391619
30
0
41
1
10
17.7279445564217
20
1.96716078477473
30
0
41
1
10
17.8480107056717
20
1.98273094975428
30
0
41
1
10
18.086989601022
20
2.00743078770199
30
0
41
1
10
18.2063074410456
20
2.01635835948611
30
0
41
1
10
18.5663953809906
20
2.03262403642557
30
0
41
1
10
18.8082430009051
20
2.0300170374812
30
0
41
1
10
19.1674796290481
20
2.00548154212402
30
0
41
1
10
19.2865332523699
20
1.99368819120875
30
0
41
1
10
19.5261621513672
20
1.96382352072465
30
0
41
1
10
19.646428724818
20
1.94573638985238
30
0
41
1
10
19.8871679481014
20
1.90303839264331
30
0
41
1
10
20.0077125509861
20
1.87843230871965
30
0
41
1
10
20.2476896910506
20
1.82277275388898
30
0
41
1
10
20.3668198690668
20
1.79127840341647
30
0
41
1
10
20.606074683307
20
1.72308493177522
30
0
41
1
10
20.72615690148
20
1.68643298701002
30
0
41
1
10
20.966656332825
20
1.60766744378901
30
0
41
1
10
21.0872568913597
20
1.5653887873745
30
0
41
1
10
21.3274096293634
20
1.47561081154015
30
0
41
1
10
21.4465336994948
20
1.42769446394101
30
0
41
1
10
21.6842156343103
20
1.32748188554007
30
0
41
1
10
21.8032087421819
20
1.27580194372314
30
0
41
1
10
22.1601969609893
20
1.11573843239393
30
0
41
1
10
22.3980510215215
20
1.00222972189408
30
0
41
1
10
22.87059689294
20
0.756364561097456
30
0
41
1
10
23.109184488799
20
0.630330599960729
30
0
41
1
10
23.4688677480847
20
0.434085577609636
30
0
41
1
10
23.5894553401134
20
0.367386840436552
30
0
41
1
10
23.8286690497797
20
0.231968783780445
30
0
41
1
10
23.9474348404097
20
0.16327147088586
30
0
41
1
10
24.3048812211948
20
-0.0390655569330534
30
0
41
1
10
24.5430558371893
20
-0.172070664746116
30
0
41
1
10
24.8984117694907
20
-0.371880256565788
30
0
41
1
10
25.0161720176328
20
-0.439176107839529
30
0
41
1
10
25.2531394324621
20
-0.570151986527208
30
0
41
1
10
25.3721833169984
20
-0.634133769154943
30
0
41
1
10
25.6107774733595
20
-0.760174757584593
30
0
41
1
10
25.7303077385821
20
-0.822265531370419
30
0
41
1
10
25.9698630820325
20
-0.944502450055268
30
0
41
1
10
26.0897748437845
20
-1.00546218122167
30
0
41
1
10
26.4481515958069
20
-1.18097669082025
30
0
41
1
10
26.6871135605874
20
-1.28727299212124
30
0
41
1
10
27.0434931340456
20
-1.43477670209299
30
0
41
1
10
27.1619871318031
20
-1.48185193118562
30
0
41
1
10
27.3979423970734
20
-1.57210675643549
30
0
41
1
10
27.5163745942349
20
-1.6141285335174
30
0
41
1
10
27.872873347228
20
-1.73146170014772
30
0
41
1
10
28.1117173246366
20
-1.79866185032665
30
0
41
1
10
28.4701027733879
20
-1.88335537112522
30
0
41
1
10
28.5899313371617
20
-1.90869274359457
30
0
41
1
10
28.8294391542685
20
-1.95175321917421
30
0
41
1
10
28.949076533944
20
-1.96984224776085
30
0
41
1
10
29.1875639870815
20
-1.99962077287822
30
0
41
1
10
29.3065188550968
20
-2.01125940957098
30
0
41
1
10
29.5435343066821
20
-2.02801204408431
30
0
41
1
10
29.6612709107768
20
-2.03310202808163
30
0
41
1
10
29.8080959561373
20
-2.03511960763259
30
0
41
1
10
29.8365362688059
20
-2.03531991434249
30
0
41
1
10
29.8649944198024
20
-2.03532957161903
30
0
0
SPLINE
5
CD
100
AcDbEntity
8
1
62
256
6
ByLayer
370
18
48
1
60
0
100
AcDbSpline
70
4
71
3
72
78
73
74
40
0
40
0
40
0
40
0
40
0.0125463958915898
40
0.0125463958915898
40
0.0364894111887228
40
0.0364894111887228
40
0.0604324264858562
40
0.0604324264858562
40
0.0843754417829896
40
0.0843754417829896
40
0.108318457080123
40
0.108318457080123
40
0.156204487674392
40
0.156204487674392
40
0.180147502971526
40
0.180147502971526
40
0.20409051826866
40
0.20409051826866
40
0.228033533565795
40
0.228033533565795
40
0.251976548862929
40
0.251976548862929
40
0.2998625794572
40
0.2998625794572
40
0.323805594754336
40
0.323805594754336
40
0.347748610051471
40
0.347748610051471
40
0.371691625348606
40
0.371691625348606
40
0.395634640645742
40
0.395634640645742
40
0.419577655942877
40
0.419577655942877
40
0.443520671240012
40
0.443520671240012
40
0.467463686537148
40
0.467463686537148
40
0.491406701834283
40
0.491406701834283
40
0.539292732428554
40
0.539292732428554
40
0.563235747725689
40
0.563235747725689
40
0.587178763022823
40
0.587178763022823
40
0.635064793617092
40
0.635064793617092
40
0.682950824211361
40
0.682950824211361
40
0.706893839508495
40
0.706893839508495
40
0.730836854805629
40
0.730836854805629
40
0.7787228853999
40
0.7787228853999
40
0.802665900697036
40
0.802665900697036
40
0.826608915994171
40
0.826608915994171
40
0.850551931291306
40
0.850551931291306
40
0.874494946588442
40
0.874494946588442
40
0.898437961885577
40
0.898437961885577
40
0.922380977182713
40
0.922380977182713
40
0.946323992479849
40
0.946323992479849
40
0.970267007776984
40
0.970267007776984
40
1
40
1
40
1
40
1
41
1
10
37.4601944104581
20
1.06513831736876
30
0
41
1
10
37.5229456009235
20
1.09565542288337
30
0
41
1
10
37.5855756577814
20
1.1258032330469
30
0
41
1
10
37.7671788819712
20
1.21266268367557
30
0
41
1
10
37.8865897639039
20
1.2672437280288
30
0
41
1
10
38.1264402987823
20
1.37103893255647
30
0
41
1
10
38.2468242450439
20
1.42057669608008
30
0
41
1
10
38.487227860964
20
1.51513976113628
30
0
41
1
10
38.606927842242
20
1.55984973571424
30
0
41
1
10
38.8448129838272
20
1.64464694684301
30
0
41
1
10
38.9629952669247
20
1.68465277960757
30
0
41
1
10
39.3190270925384
20
1.79384519022855
30
0
41
1
10
39.556698782056
20
1.85430795596707
30
0
41
1
10
39.9119410792307
20
1.92788169930964
30
0
41
1
10
40.0297607620483
20
1.94967218190942
30
0
41
1
10
40.2670205744088
20
1.98608293705294
30
0
41
1
10
40.3863238166994
20
2.00086290592691
30
0
41
1
10
40.6256812180716
20
2.02393277351447
30
0
41
1
10
40.7460056279124
20
2.03222495127798
30
0
41
1
10
40.9858719525378
20
2.04199538617371
30
0
41
1
10
41.1047838313584
20
2.04348315350333
30
0
41
1
10
41.4609579010897
20
2.03751290213091
30
0
41
1
10
41.6989295391299
20
2.0201810613591
30
0
41
1
10
42.054467991862
20
1.97475041105275
30
0
41
1
10
42.1728366889026
20
1.95635737448149
30
0
41
1
10
42.4086294622006
20
1.91237855759471
30
0
41
1
10
42.5270547063166
20
1.88735085321861
30
0
41
1
10
42.7649909198338
20
1.83155145784576
30
0
41
1
10
42.8843800227966
20
1.80069994387043
30
0
41
1
10
43.1236472589504
20
1.732702217325
30
0
41
1
10
43.243973663164
20
1.69555243849663
30
0
41
1
10
43.4829566166131
20
1.61487481581622
30
0
41
1
10
43.6016596649104
20
1.57147165626159
30
0
41
1
10
43.8397669672425
20
1.48137171385034
30
0
41
1
10
43.9588269830659
20
1.43430869740149
30
0
41
1
10
44.1963707260987
20
1.33551429779263
30
0
41
1
10
44.3149522164042
20
1.28390612573014
30
0
41
1
10
44.5514656843595
20
1.17581284169376
30
0
41
1
10
44.6690274136217
20
1.11874423577504
30
0
41
1
10
45.0239505217627
20
0.944833271778975
30
0
41
1
10
45.2624351474784
20
0.823929854047037
30
0
41
1
10
45.6210542587558
20
0.631858265361302
30
0
41
1
10
45.7407322346245
20
0.565192995220855
30
0
41
1
10
45.979463474863
20
0.431558039576146
30
0
41
1
10
46.0988396948352
20
0.364961555780894
30
0
41
1
10
46.4564389372991
20
0.164783720383724
30
0
41
1
10
46.6939061310402
20
0.0303978376143732
30
0
41
1
10
47.1651613363144
20
-0.243419803684844
30
0
41
1
10
47.4028143743631
20
-0.375971304048733
30
0
41
1
10
47.7600111020336
20
-0.572422296201808
30
0
41
1
10
47.8793158744775
20
-0.637296343354876
30
0
41
1
10
48.1178153053681
20
-0.766835402828605
30
0
41
1
10
48.2375003591718
20
-0.831138314296908
30
0
41
1
10
48.5963484215607
20
-1.01529899086785
30
0
41
1
10
48.834845851312
20
-1.12992577137737
30
0
41
1
10
49.1898320665105
20
-1.29235932813509
30
0
41
1
10
49.3073904312312
20
-1.34526433533406
30
0
41
1
10
49.5438608720566
20
-1.44466583665954
30
0
41
1
10
49.6625249934453
20
-1.49155653649882
30
0
41
1
10
49.9000523619897
20
-1.58064783969556
30
0
41
1
10
50.0189352939395
20
-1.62281310815626
30
0
41
1
10
50.2569100318508
20
-1.70228196904085
30
0
41
1
10
50.3755581557492
20
-1.74001087742451
30
0
41
1
10
50.6143924813104
20
-1.80902522784561
30
0
41
1
10
50.7346821231802
20
-1.84021337287808
30
0
41
1
10
50.9739855848763
20
-1.89598164148768
30
0
41
1
10
51.0932457590303
20
-1.92071549266194
30
0
41
1
10
51.3309794788536
20
-1.96391443182495
30
0
41
1
10
51.4492966209173
20
-1.98246135752788
30
0
41
1
10
51.6850849597246
20
-2.01306045386977
30
0
41
1
10
51.8033383887663
20
-2.02481667444246
30
0
41
1
10
52.0690302461273
20
-2.04371904107558
30
0
41
1
10
52.216483682342
20
-2.04917608353611
30
0
41
1
10
52.3639259194755
20
-2.04942546420764
30
0
0
SPLINE
5
CE
100
AcDbEntity
8
1
62
256
6
ByLayer
370
13
48
1
60
0
100
AcDbSpline
70
4
71
3
72
10
73
6
40
0
40
0
40
0
40
0
40
0.5
40
0.5
40
1
40
1
40
1
40
1
41
1
10
7.47817220422468
20
-1.92225318517748
30
0
41
1
10
7.49720363275918
20
-1.91263693690195
30
0
41
1
10
7.51761723798745
20
-1.90559544786174
30
0
41
1
10
7.55911051598008
20
-1.89702945955114
30
0
41
1
10
7.58028694946128
20
-1.89539657466486
30
0
41
1
10
7.60187677111568
20
-1.89647820530217
30
0
0
SPLINE
5
CF
100
AcDbEntity
8
1
62
256
6
ByLayer
370
13
48
1
60
0
100
AcDbSpline
70
4
71
3
72
10
73
6
40
0
40
0
40
0
40
0
40
0.52082752901226
40
0.52082752901226
40
1
40
1
40
1
40
1
41
1
10
7.55276236839038
20
-2.00486595788629
30
0
41
1
10
7.79308798608966
20
-2.01996698695808
30
0
41
1
10
8.0327469029005
20
-2.0214211379174
30
0
41
1
10
8.49365709415358
20
-1.9981161013263
30
0
41
1
10
8.71519681568148
20
-1.97535497617923
30
0
41
1
10
8.93507378905124
20
-1.94178688817087
30
0
0
SPLINE
5
D0
100
AcDbEntity
8
1
62
256
6
ByLayer
370
18
48
1
60
0
100
AcDbSpline
70
4
71
3
72
24
73
20
40
0
40
0
40
0
40
0
40
0.0742440822071706
40
0.0742440822071706
40
0.316082075651883
40
0.316082075651883
40
0.376541574013061
40
0.376541574013061
40
0.43700107237424
40
0.43700107237424
40
0.5579200690966
40
0.5579200690966
40
0.67883906581896
40
0.67883906581896
40
0.739298564180139
40
0.739298564180139
40
0.799758062541318
40
0.799758062541318
40
1
40
1
40
1
40
1
41
1
10
21.4206925420715
20
1.64813207402116
30
0
41
1
10
21.5670581805255
20
1.60008700808169
30
0
41
1
10
21.7129387604292
20
1.54803746317148
30
0
41
1
10
22.3330342244584
20
1.31071181596152
30
0
41
1
10
22.805750227941
20
1.0909683152683
30
0
41
1
10
23.4047225041893
20
0.782336840130085
30
0
41
1
10
23.5250833973268
20
0.718956409019398
30
0
41
1
10
23.7643860938838
20
0.590817247647465
30
0
41
1
10
23.8836874750917
20
0.525962357005
30
0
41
1
10
24.2407399603258
20
0.329401688036597
30
0
41
1
10
24.4776475204587
20
0.195716071045894
30
0
41
1
10
24.9514495265591
20
-0.0729299081999386
30
0
41
1
10
25.1886877247205
20
-0.207267642016433
30
0
41
1
10
25.5461995712677
20
-0.406724427070259
30
0
41
1
10
25.6656501218256
20
-0.472860768262024
30
0
41
1
10
25.9054042569055
20
-0.603908664109071
30
0
41
1
10
26.0256464683385
20
-0.668790980101477
30
0
41
1
10
26.5409716256317
20
-0.941681304063763
30
0
41
1
10
26.9328196943121
20
-1.13500765447321
30
0
41
1
10
27.3254202851283
20
-1.305418811556
30
0
0
SPLINE
5
D1
100
AcDbEntity
8
1
62
256
6
ByLayer
370
13
48
1
60
0
100
AcDbSpline
70
4
71
3
72
22
73
18
40
0
40
0
40
0
40
0
40
0.0585132572301799
40
0.0585132572301799
40
0.228610257790358
40
0.228610257790358
40
0.313658758070446
40
0.313658758070446
40
0.398707258350535
40
0.398707258350535
40
0.568804258910705
40
0.568804258910705
40
0.653852759190786
40
0.653852759190786
40
0.738901259470867
40
0.738901259470867
40
1
40
1
40
1
40
1
41
1
10
27.3254202850981
20
-1.30541881154286
30
0
41
1
10
27.4069748104138
20
-1.34081814957139
30
0
41
1
10
27.488561808064
20
-1.37522866642837
30
0
41
1
10
27.8076129334189
20
-1.50557418592382
30
0
41
1
10
28.0456591260744
20
-1.59363866884328
30
0
41
1
10
28.4054976335355
20
-1.70968970182005
30
0
41
1
10
28.5256564202403
20
-1.74556550813239
30
0
41
1
10
28.7649145025982
20
-1.81103343097419
30
0
41
1
10
28.8842592714605
20
-1.84072294660427
30
0
41
1
10
29.2417999468655
20
-1.9205155765234
30
0
41
1
10
29.4795532074602
20
-1.96133349109624
30
0
41
1
10
29.8370920374462
20
-2.00263488470145
30
0
41
1
10
29.9564328931656
20
-2.01309396367606
30
0
41
1
10
30.1956898235541
20
-2.02727711256193
30
0
41
1
10
30.3158557703189
20
-2.03099700685624
30
0
41
1
10
30.8039715610784
20
-2.03216323506294
30
0
41
1
10
31.1684360446834
20
-2.00098348033867
30
0
41
1
10
31.5331650343283
20
-1.93948521227719
30
0
0
SPLINE
5
D2
100
AcDbEntity
8
1
62
256
6
ByLayer
370
18
48
1
60
0
100
AcDbSpline
70
4
71
3
72
28
73
24
40
0
40
0
40
0
40
0
40
0.118635762384814
40
0.118635762384814
40
0.177307327475287
40
0.177307327475287
40
0.235978892565761
40
0.235978892565761
40
0.353322022746708
40
0.353322022746708
40
0.470665152927655
40
0.470665152927655
40
0.529336718018125
40
0.529336718018125
40
0.588008283108596
40
0.588008283108596
40
0.822694543470486
40
0.822694543470486
40
0.940037673651432
40
0.940037673651432
40
0.998709238741908
40
0.998709238741908
40
1
40
1
40
1
40
1
41
1
10
43.9902502398844
20
1.63600484989419
30
0
41
1
10
44.2297810035028
20
1.55465224520233
30
0
41
1
10
44.4698978362065
20
1.4621512626988
30
0
41
1
10
44.8313198565189
20
1.30879462428584
30
0
41
1
10
44.9515337441861
20
1.25548730127758
30
0
41
1
10
45.1905261327983
20
1.14542942691932
30
0
41
1
10
45.3095922091006
20
1.08856169596788
30
0
41
1
10
45.6659712829153
20
0.91321595049493
30
0
41
1
10
45.9026039745014
20
0.790250882507678
30
0
41
1
10
46.3758741482158
20
0.535356386905647
30
0
41
1
10
46.6124778826321
20
0.403397501519521
30
0
41
1
10
46.9690461430416
20
0.2015879369836
30
0
41
1
10
47.0882441591045
20
0.133788649754763
30
0
41
1
10
47.3275320689491
20
-0.0025689577229002
30
0
41
1
10
47.4476819022244
20
-0.0711521120817622
30
0
41
1
10
48.0446415868037
20
-0.410740818076022
30
0
41
1
10
48.5154487133764
20
-0.674982638064023
30
0
41
1
10
49.2253068313171
20
-1.03682775898838
30
0
41
1
10
49.4624310944766
20
-1.1518623758171
30
0
41
1
10
49.8206208702615
20
-1.31312674792397
30
0
41
1
10
49.9407661200171
20
-1.3651052362483
30
0
41
1
10
50.0629551294124
20
-1.41548164880805
30
0
41
1
10
50.0655851857368
20
-1.41656481378013
30
0
41
1
10
50.0682150339694
20
-1.41764672995979
30
0
0
SPLINE
5
D3
100
AcDbEntity
8
1
62
256
6
ByLayer
370
13
48
1
60
0
100
AcDbSpline
70
4
71
3
72
14
73
10
40
0
40
0
40
0
40
0
40
0.10893296912299
40
0.10893296912299
40
0.554466484561501
40
0.554466484561501
40
0.777233242280751
40
0.777233242280751
40
1
40
1
40
1
40
1
41
1
10
50.0682150352937
20
-1.41764673050457
30
0
41
1
10
50.1851249626871
20
-1.46574332421645
30
0
41
1
10
50.3016236489761
20
-1.51137199461013
30
0
41
1
10
50.8929998172839
20
-1.73068349207964
30
0
41
1
10
51.3630643986405
20
-1.86425459590379
30
0
41
1
10
52.0744722204585
20
-1.98867507619585
30
0
41
1
10
52.3132367703635
20
-2.01759081482913
30
0
41
1
10
52.7927418733083
20
-2.0480643718052
30
0
41
1
10
53.0316747617487
20
-2.04959193013184
30
0
41
1
10
53.2708742032476
20
-2.03733310344404
30
0
0
SPLINE
5
D4
100
AcDbEntity
8
1
62
256
6
ByLayer
370
18
48
1
60
0
100
AcDbSpline
70
4
71
3
72
8
73
4
40
0
40
0
40
0
40
0
40
1
40
1
40
1
40
1
41
1
10
53.2691260771717
20
2.04171140775497
30
0
41
1
10
53.1618791960903
20
2.04716070225271
30
0
41
1
10
53.054765115915
20
2.04984262213191
30
0
41
1
10
52.9476905584019
20
2.04977016651401
30
0
0
SPLINE
5
D5
100
AcDbEntity
8
1
62
256
6
ByLayer
370
18
48
1
60
0
100
AcDbSpline
70
4
71
3
72
44
73
40
40
0
40
0
40
0
40
0
40
0.0079012582222002
40
0.0079012582222002
40
0.0371649811795818
40
0.0371649811795818
40
0.0664287041369635
40
0.0664287041369635
40
0.183483595966493
40
0.183483595966493
40
0.242011041881257
40
0.242011041881257
40
0.271274764838637
40
0.271274764838637
40
0.300538487796017
40
0.300538487796017
40
0.417593379625537
40
0.417593379625537
40
0.446857102582915
40
0.446857102582915
40
0.476120825540294
40
0.476120825540294
40
0.534648271455048
40
0.534648271455048
40
0.651703163284554
40
0.651703163284554
40
0.68096688624193
40
0.68096688624193
40
0.710230609199306
40
0.710230609199306
40
0.768758055114058
40
0.768758055114058
40
0.827285501028809
40
0.827285501028809
40
0.856549223986185
40
0.856549223986185
40
0.885812946943561
40
0.885812946943561
40
1
40
1
40
1
40
1
41
1
10
42.6588558509711
20
-1.97022695654846
30
0
41
1
10
42.6267880876343
20
-1.97505117632832
30
0
41
1
10
42.5947036070667
20
-1.97964056000501
30
0
41
1
10
42.4436972208255
20
-2.0001149341675
30
0
41
1
10
42.3245545557477
20
-2.01300456997018
30
0
41
1
10
42.0855723318924
20
-2.03211522423265
30
0
41
1
10
41.9653766840312
20
-2.0383284542466
30
0
41
1
10
41.3663130861002
20
-2.05205256588741
30
0
41
1
10
40.8940545774511
20
-2.00796036213055
30
0
41
1
10
40.1828149081342
20
-1.86581953562435
30
0
41
1
10
39.9452490824353
20
-1.80576976104803
30
0
41
1
10
39.5864405197713
20
-1.69756392458498
30
0
41
1
10
39.4661096305932
20
-1.6583536419478
30
0
41
1
10
39.2265649448512
20
-1.57486610430266
30
0
41
1
10
39.1072277222775
20
-1.53056846915697
30
0
41
1
10
38.5119801008434
20
-1.29738482651871
30
0
41
1
10
38.0404012256668
20
-1.07338190930634
30
0
41
1
10
37.4453798294938
20
-0.763176261499694
30
0
41
1
10
37.3260873349379
20
-0.699643800005532
30
0
41
1
10
37.0866352092946
20
-0.570032710715537
30
0
41
1
10
36.9662307810858
20
-0.503816689456642
30
0
41
1
10
36.6070724434545
20
-0.304054322000241
30
0
41
1
10
36.3694179940842
20
-0.168738348437643
30
0
41
1
10
35.657832328967
20
0.236509581981721
30
0
41
1
10
35.1855355079168
20
0.506209021224606
30
0
41
1
10
34.5864570522147
20
0.822540659064543
30
0
41
1
10
34.4660781695498
20
0.884799295142244
30
0
41
1
10
34.2267547605952
20
1.00535076011553
30
0
41
1
10
34.1074879355574
20
1.06381424161466
30
0
41
1
10
33.7504819217222
20
1.23327619062815
30
0
41
1
10
33.5136627069779
20
1.33851528026318
30
0
41
1
10
33.0396848181601
20
1.52992294542952
30
0
41
1
10
32.8025886338064
20
1.61618889648912
30
0
41
1
10
32.4450689007433
20
1.72926181184422
30
0
41
1
10
32.325592475054
20
1.76424182851972
30
0
41
1
10
32.0857450031233
20
1.82840846598435
30
0
41
1
10
31.9654341948183
20
1.85755746263516
30
0
41
1
10
31.3791940490536
20
1.98408981399157
30
0
41
1
10
30.9183813802666
20
2.03544098757629
30
0
41
1
10
30.4552339785623
20
2.03568559961675
30
0
0
SPLINE
5
D6
100
AcDbEntity
8
1
62
256
6
ByLayer
370
18
48
1
60
0
100
AcDbSpline
70
4
71
3
72
36
73
32
40
0
40
0
40
0
40
0
40
0.0404945799966767
40
0.0404945799966767
40
0.0990045988531083
40
0.0990045988531083
40
0.15751461770954
40
0.15751461770954
40
0.216024636565972
40
0.216024636565972
40
0.333044674278835
40
0.333044674278835
40
0.391554693135267
40
0.391554693135267
40
0.450064711991699
40
0.450064711991699
40
0.50857473084813
40
0.50857473084813
40
0.567084749704562
40
0.567084749704562
40
0.684104787417427
40
0.684104787417427
40
0.742614806273859
40
0.742614806273859
40
0.80112482513029
40
0.80112482513029
40
0.918144862843152
40
0.918144862843152
40
0.976654881699584
40
0.976654881699584
40
1
40
1
40
1
40
1
41
1
10
20.193126178144
20
-1.95142989240455
30
0
41
1
10
20.0279219202176
20
-1.97701706400932
30
0
41
1
10
19.8620894405753
20
-1.99645622311775
30
0
41
1
10
19.4550639886825
20
-2.0281291409697
30
0
41
1
10
19.215398768644
20
-2.0331928005416
30
0
41
1
10
18.735764773874
20
-2.01602076189428
30
0
41
1
10
18.4946656509297
20
-1.99359629722238
30
0
41
1
10
18.0159246211039
20
-1.92275381183347
30
0
41
1
10
17.7780876887564
20
-1.87443746664053
30
0
41
1
10
17.0655769161149
20
-1.69405359023477
30
0
41
1
10
16.5922484630557
20
-1.52625047079982
30
0
41
1
10
15.8709567044513
20
-1.2159121439326
30
0
41
1
10
15.6315474906144
20
-1.10411054222422
30
0
41
1
10
15.1554883863969
20
-0.868675268736695
30
0
41
1
10
14.9183964018302
20
-0.744805541321625
30
0
41
1
10
14.4435864800455
20
-0.488998054572619
30
0
41
1
10
14.2059593441509
20
-0.356911475597002
30
0
41
1
10
13.7280838810516
20
-0.0880421094474571
30
0
41
1
10
13.4866963269282
20
0.0492837524020615
30
0
41
1
10
12.7693972662734
20
0.453463188000711
30
0
41
1
10
12.296614323567
20
0.714171406308822
30
0
41
1
10
11.5827501974569
20
1.07034626066238
30
0
41
1
10
11.3438174355245
20
1.18309614194533
30
0
41
1
10
10.8622122774867
20
1.39264766917287
30
0
41
1
10
10.6234559794225
20
1.48792516088801
30
0
41
1
10
9.90965901398195
20
1.74157391520382
30
0
41
1
10
9.43665978853784
20
1.86740427738729
30
0
41
1
10
8.71891315764427
20
1.97982267767026
30
0
41
1
10
8.4776313604853
20
2.0044387948227
30
0
41
1
10
8.14182637140459
20
2.01952389776079
30
0
41
1
10
8.046096665542
20
2.02165790120162
30
0
41
1
10
7.95034361221451
20
2.02162643992133
30
0
0
SPLINE
5
D7
100
AcDbEntity
8
1
62
256
6
ByLayer
370
18
48
1
60
0
100
AcDbSpline
70
4
71
3
72
8
73
4
40
0
40
0
40
0
40
0
40
1
40
1
40
1
40
1
41
1
10
53.9999584429998
20
0.0260180138673434
30
0
41
1
10
54.000013852333
20
0.0086726712849554
30
0
41
1
10
54.000013852333
20
-0.0086726712974894
30
0
41
1
10
53.9999584429998
20
-0.0260180138798773
30
0
0
SPLINE
5
D8
100
AcDbEntity
8
1
62
256
6
ByLayer
370
18
48
1
60
0
100
AcDbSpline
70
4
71
3
72
8
73
4
40
0
40
0
40
0
40
0
40
1
40
1
40
1
40
1
41
1
10
53.9015396675692
20
0.623113862898236
30
0
41
1
10
53.9316842155542
20
0.451579453444566
30
0
41
1
10
53.9581358170063
20
0.280066111027907
30
0
41
1
10
53.9808654565726
20
0.108574001171178
30
0
0
SPLINE
5
D9
100
AcDbEntity
8
1
62
256
6
ByLayer
370
18
48
1
60
0
100
AcDbSpline
70
4
71
3
72
12
73
8
40
0
40
0
40
0
40
0
40
0.250000000000005
40
0.250000000000005
40
0.500000000000011
40
0.500000000000011
40
1
40
1
40
1
40
1
41
1
10
51.9387278494115
20
-0.617407888878006
30
0
41
1
10
52.0141133330112
20
-0.704083978632042
30
0
41
1
10
52.0934225740171
20
-0.785311210627327
30
0
41
1
10
52.2586406368328
20
-0.938600944655576
30
0
41
1
10
52.3450007601808
20
-1.0109718163302
30
0
41
1
10
52.6087968738442
20
-1.21358351540053
30
0
41
1
10
52.7904690567131
20
-1.32991708520362
30
0
41
1
10
52.9766893460788
20
-1.43157537602289
30
0
0
SPLINE
5
DA
100
AcDbEntity
8
1
62
256
6
ByLayer
370
18
48
1
60
0
100
AcDbSpline
70
4
71
3
72
42
73
38
40
0
40
0
40
0
40
0
40
0.0945894593057778
40
0.0945894593057778
40
0.141884188958666
40
0.141884188958666
40
0.189178918611553
40
0.189178918611553
40
0.283768377917329
40
0.283768377917329
40
0.331063107570217
40
0.331063107570217
40
0.378357837223105
40
0.378357837223105
40
0.425652566875993
40
0.425652566875993
40
0.47294729652888
40
0.47294729652888
40
0.567536755834654
40
0.567536755834654
40
0.614831485487542
40
0.614831485487542
40
0.662126215140429
40
0.662126215140429
40
0.756715674446207
40
0.756715674446207
40
0.804010404099096
40
0.804010404099096
40
0.851305133751985
40
0.851305133751985
40
0.898599863404874
40
0.898599863404874
40
0.945894593057763
40
0.945894593057763
40
0.993189322710652
40
0.993189322710652
40
1
40
1
40
1
40
1
41
1
10
7.60149790482831
20
-0.927976463419299
30
0
41
1
10
7.83587165925431
20
-1.03567181407004
30
0
41
1
10
8.06792994611462
20
-1.13822309925189
30
0
41
1
10
8.41350383004959
20
-1.28156159453823
30
0
41
1
10
8.52845875950601
20
-1.32735335975076
30
0
41
1
10
8.75833830199198
20
-1.41440920767425
30
0
41
1
10
8.87357161850255
20
-1.45525089350915
30
0
41
1
10
9.21928607028372
20
-1.57080847061241
30
0
41
1
10
9.44964370603935
20
-1.63935615184488
30
0
41
1
10
9.79612364835637
20
-1.72707544866037
30
0
41
1
10
9.91186681647156
20
-1.75358849946764
30
0
41
1
10
10.1449458707127
20
-1.80044026645837
30
0
41
1
10
10.2620482003328
20
-1.82113991361939
30
0
41
1
10
10.4947898288856
20
-1.8566729944977
30
0
41
1
10
10.610740886339
20
-1.87153206191411
30
0
41
1
10
10.8419094663887
20
-1.89581710954602
30
0
41
1
10
10.9568605524004
20
-1.90532758249287
30
0
41
1
10
11.3027933011733
20
-1.92404395060126
30
0
41
1
10
11.5332813596651
20
-1.92377339225882
30
0
41
1
10
11.8787381666896
20
-1.90585774974002
30
0
41
1
10
11.9938637481691
20
-1.89696514072591
30
0
41
1
10
12.2243797749946
20
-1.87324297437604
30
0
41
1
10
12.3402604061492
20
-1.85864024686387
30
0
41
1
10
12.6887192876706
20
-1.80592921743943
30
0
41
1
10
12.9229524173229
20
-1.75835414906101
30
0
41
1
10
13.2702817894378
20
-1.67109629770061
30
0
41
1
10
13.3857116139237
20
-1.63939884068989
30
0
41
1
10
13.6168964360849
20
-1.57196084119303
30
0
41
1
10
13.7322463427175
20
-1.53583075318531
30
0
41
1
10
13.9625998053626
20
-1.4585460678804
30
0
41
1
10
14.0776761841502
20
-1.41738658152042
30
0
41
1
10
14.3076369314296
20
-1.33085880144515
30
0
41
1
10
14.422271815916
20
-1.28500385506405
30
0
41
1
10
14.6529574958672
20
-1.19036089065125
30
0
41
1
10
14.7687222888979
20
-1.14142357473315
30
0
41
1
10
14.9011990017871
20
-1.08309452306864
30
0
41
1
10
14.9178778482015
20
-1.07571360569295
30
0
41
1
10
14.9345604059392
20
-1.06829405322407
30
0
0
SPLINE
5
DB
100
AcDbEntity
8
1
62
256
6
ByLayer
370
18
48
1
60
0
100
AcDbSpline
70
4
71
3
72
88
73
84
40
0
40
0
40
0
40
0
40
0.0130695854469587
40
0.0130695854469587
40
0.0364865275862129
40
0.0364865275862129
40
0.0599034697254673
40
0.0599034697254673
40
0.0833204118647215
40
0.0833204118647215
40
0.106737354003976
40
0.106737354003976
40
0.13015429614323
40
0.13015429614323
40
0.153571238282485
40
0.153571238282485
40
0.200405122560993
40
0.200405122560993
40
0.223822064700248
40
0.223822064700248
40
0.247239006839503
40
0.247239006839503
40
0.294072891118012
40
0.294072891118012
40
0.317489833257267
40
0.317489833257267
40
0.340906775396522
40
0.340906775396522
40
0.364323717535777
40
0.364323717535777
40
0.387740659675032
40
0.387740659675032
40
0.411157601814286
40
0.411157601814286
40
0.434574543953541
40
0.434574543953541
40
0.457991486092796
40
0.457991486092796
40
0.481408428232051
40
0.481408428232051
40
0.528242312510559
40
0.528242312510559
40
0.551659254649811
40
0.551659254649811
40
0.575076196789064
40
0.575076196789064
40
0.598493138928316
40
0.598493138928316
40
0.621910081067569
40
0.621910081067569
40
0.645327023206821
40
0.645327023206821
40
0.668743965346074
40
0.668743965346074
40
0.692160907485327
40
0.692160907485327
40
0.715577849624579
40
0.715577849624579
40
0.738994791763832
40
0.738994791763832
40
0.762411733903085
40
0.762411733903085
40
0.785828676042337
40
0.785828676042337
40
0.80924561818159
40
0.80924561818159
40
0.832662560320843
40
0.832662560320843
40
0.856079502460095
40
0.856079502460095
40
0.879496444599348
40
0.879496444599348
40
0.9029133867386
40
0.9029133867386
40
0.926330328877853
40
0.926330328877853
40
0.949747271017106
40
0.949747271017106
40
0.973164213156358
40
0.973164213156358
40
0.996581155295611
40
0.996581155295611
40
1
40
1
40
1
40
1
41
1
10
22.6677124472701
20
1.92751121655161
30
0
41
1
10
22.732330711768
20
1.92730021493867
30
0
41
1
10
22.7971045129481
20
1.92617125691834
30
0
41
1
10
22.9781367870779
20
1.92060352996143
30
0
41
1
10
23.0947743976849
20
1.91419995172535
30
0
41
1
10
23.3275146491366
20
1.89621926526547
30
0
41
1
10
23.4433858506986
20
1.88459751664857
30
0
41
1
10
23.6742407611248
20
1.8543022528597
30
0
41
1
10
23.7893598449663
20
1.83571086446216
30
0
41
1
10
24.0200117350036
20
1.79326014950544
30
0
41
1
10
24.1351526746597
20
1.76919434367963
30
0
41
1
10
24.3651141015174
20
1.71595238652003
30
0
41
1
10
24.4799852909642
20
1.68681889952606
30
0
41
1
10
24.7094764852479
20
1.62396245346565
30
0
41
1
10
24.8238174625948
20
1.58990541253058
30
0
41
1
10
25.1693216931767
20
1.47991023608557
30
0
41
1
10
25.4010089076232
20
1.39627541696052
30
0
41
1
10
25.7501148106989
20
1.2571427206426
30
0
41
1
10
25.8665257396802
20
1.20857758344914
30
0
41
1
10
26.0980187541352
20
1.10838152597427
30
0
41
1
10
26.2138346439341
20
1.05752260586698
30
0
41
1
10
26.5603794813868
20
0.899040714646048
30
0
41
1
10
26.7902820211478
20
0.787051923916437
30
0
41
1
10
27.1346012393705
20
0.61177126502767
30
0
41
1
10
27.2493870733113
20
0.552196523352762
30
0
41
1
10
27.480006088059
20
0.432820428359321
30
0
41
1
10
27.5954033263546
20
0.372277873059915
30
0
41
1
10
27.8264516735194
20
0.249567365890414
30
0
41
1
10
27.9421886681406
20
0.187504438601025
30
0
41
1
10
28.1740967269144
20
0.0621187786473456
30
0
41
1
10
28.2901161633537
20
-0.0019570026655344
30
0
41
1
10
28.522694341293
20
-0.127224701656132
30
0
41
1
10
28.639081737868
20
-0.189029671493159
30
0
41
1
10
28.8713659806714
20
-0.31260305915518
30
0
41
1
10
28.9873903037076
20
-0.374092911216309
30
0
41
1
10
29.2194520993815
20
-0.496041591961472
30
0
41
1
10
29.3354502432808
20
-0.556552932164522
30
0
41
1
10
29.5675351236381
20
-0.676518125496699
30
0
41
1
10
29.6840526718255
20
-0.735101351125451
30
0
41
1
10
30.0316362675186
20
-0.906017822736686
30
0
41
1
10
30.2617275303913
20
-1.013703615167
30
0
41
1
10
30.6056875355133
20
-1.16615785108311
30
0
41
1
10
30.7202308156846
20
-1.2151953676447
30
0
41
1
10
30.950030041218
20
-1.30867692084047
30
0
41
1
10
31.0648513250675
20
-1.35390244174715
30
0
41
1
10
31.2946139186935
20
-1.43996517020926
30
0
41
1
10
31.4096399761049
20
-1.48061936144697
30
0
41
1
10
31.6399584679343
20
-1.55784475133942
30
0
41
1
10
31.7550215121579
20
-1.59454539318554
30
0
41
1
10
31.9869814861194
20
-1.66162398842329
30
0
41
1
10
32.1037780095838
20
-1.69252660537075
30
0
41
1
10
32.33579725942
20
-1.74989406304977
30
0
41
1
10
32.4513402005501
20
-1.77609565923868
30
0
41
1
10
32.6817907190114
20
-1.82204760428053
30
0
41
1
10
32.7966532744492
20
-1.84198717222904
30
0
41
1
10
33.0259695861187
20
-1.87632182007258
30
0
41
1
10
33.1409277872265
20
-1.89043720010392
30
0
41
1
10
33.3706629828278
20
-1.91302437991283
30
0
41
1
10
33.4854203609802
20
-1.92146896376391
30
0
41
1
10
33.7149946675721
20
-1.932552103886
30
0
41
1
10
33.8297047373429
20
-1.93587447650066
30
0
41
1
10
34.0594045029755
20
-1.93559892031337
30
0
41
1
10
34.1745062147589
20
-1.93182589923634
30
0
41
1
10
34.4062786212227
20
-1.91814454748359
30
0
41
1
10
34.5227301029668
20
-1.9081667118455
30
0
41
1
10
34.7553214456148
20
-1.88244899601722
30
0
41
1
10
34.8711652046443
20
-1.8667795423714
30
0
41
1
10
35.1020366941103
20
-1.83026992794342
30
0
41
1
10
35.2168101080999
20
-1.80931354942334
30
0
41
1
10
35.4468703824613
20
-1.7619812303185
30
0
41
1
10
35.5620319972838
20
-1.7354659216208
30
0
41
1
10
35.7918371109939
20
-1.67666768506075
30
0
41
1
10
35.9066184465072
20
-1.64451954739607
30
0
41
1
10
36.1361829057282
20
-1.5752458710366
30
0
41
1
10
36.2509161522237
20
-1.53805216540323
30
0
41
1
10
36.480465355457
20
-1.45910172446617
30
0
41
1
10
36.5956955430161
20
-1.41805092611372
30
0
41
1
10
36.8267737559374
20
-1.33099379840056
30
0
41
1
10
36.9425931904411
20
-1.28483418936258
30
0
41
1
10
37.175086535446
20
-1.18784920165262
30
0
41
1
10
37.2915523600913
20
-1.13716895362413
30
0
41
1
10
37.4241534165703
20
-1.07727126660126
30
0
41
1
10
37.4410377127404
20
-1.06960502947976
30
0
41
1
10
37.4579149373113
20
-1.06190699223404
30
0
0
SPLINE
5
DC
100
AcDbEntity
8
1
62
256
6
ByLayer
370
18
48
1
60
0
100
AcDbSpline
70
4
71
3
72
42
73
38
40
0
40
0
40
0
40
0
40
0.0301179964977924
40
0.0301179964977924
40
0.0811644177347522
40
0.0811644177347522
40
0.132210838971712
40
0.132210838971712
40
0.183257260208671
40
0.183257260208671
40
0.234303681445631
40
0.234303681445631
40
0.285350102682591
40
0.285350102682591
40
0.387442945156506
40
0.387442945156506
40
0.438489366393463
40
0.438489366393463
40
0.489535787630421
40
0.489535787630421
40
0.540582208867378
40
0.540582208867378
40
0.591628630104336
40
0.591628630104336
40
0.642675051341294
40
0.642675051341294
40
0.69372147257825
40
0.69372147257825
40
0.744767893815208
40
0.744767893815208
40
0.795814315052166
40
0.795814315052166
40
0.89790715752608
40
0.89790715752608
40
0.94895357876304
40
0.94895357876304
40
1
40
1
40
1
40
1
41
1
10
45.1637660171747
20
1.94144081016253
30
0
41
1
10
45.2314278855361
20
1.9414474186575
30
0
41
1
10
45.2990985665842
20
1.94044975794418
30
0
41
1
10
45.4815129738215
20
1.93510036000561
30
0
41
1
10
45.5961105564214
20
1.92897941948254
30
0
41
1
10
45.8264115189393
20
1.91022111527684
30
0
41
1
10
45.9424556900488
20
1.89761963891021
30
0
41
1
10
46.1748384626375
20
1.86611738022879
30
0
41
1
10
46.2911545449662
20
1.84727503488219
30
0
41
1
10
46.5224750931849
20
1.80405873433543
30
0
41
1
10
46.6377001305035
20
1.77962092913708
30
0
41
1
10
46.8675257076634
20
1.72550145298553
30
0
41
1
10
46.9825316169157
20
1.69647592542466
30
0
41
1
10
47.3272089967977
20
1.60225533929835
30
0
41
1
10
47.5564491395766
20
1.52751558755963
30
0
41
1
10
47.900556838479
20
1.40149372591327
30
0
41
1
10
48.0152436507855
20
1.35694238129378
30
0
41
1
10
48.2460482176979
20
1.26514478557755
30
0
41
1
10
48.3616387270439
20
1.21727410720121
30
0
41
1
10
48.5933540207556
20
1.11714302570428
30
0
41
1
10
48.7098571223515
20
1.06470631393185
30
0
41
1
10
48.9414928083087
20
0.956872898597851
30
0
41
1
10
49.0567098044542
20
0.901179089009332
30
0
41
1
10
49.2869219487447
20
0.787988628900337
30
0
41
1
10
49.4023345344883
20
0.731233137256993
30
0
41
1
10
49.6322046326438
20
0.614750550915687
30
0
41
1
10
49.7468789617272
20
0.555416824775534
30
0
41
1
10
49.9760615432772
20
0.434982514679945
30
0
41
1
10
50.0905499653546
20
0.373809059793018
30
0
41
1
10
50.3195669448809
20
0.25008061561195
30
0
41
1
10
50.4344557418087
20
0.188221919713641
30
0
41
1
10
50.7799768896516
20
0.0022506369458029
30
0
41
1
10
51.0109049596581
20
-0.123493739564992
30
0
41
1
10
51.3591341158794
20
-0.312463635421722
30
0
41
1
10
51.4747727203605
20
-0.375262992178875
30
0
41
1
10
51.7069155389972
20
-0.497382076951681
30
0
41
1
10
51.8228758158561
20
-0.557746989639725
30
0
41
1
10
51.9387278494115
20
-0.617407888878091
30
0
0
SPLINE
5
DD
100
AcDbEntity
8
1
62
256
6
ByLayer
370
18
48
1
60
0
100
AcDbSpline
70
4
71
3
72
10
73
6
40
0
40
0
40
0
40
0
40
0.5
40
0.5
40
1
40
1
40
1
40
1
41
1
10
7.39951823233724
20
-0.829497004661732
30
0
41
1
10
7.42533866198275
20
-0.82778098015865
30
0
41
1
10
7.4580861745452
20
-0.839016637831463
30
0
41
1
10
7.5242861962488
20
-0.873481172916371
30
0
41
1
10
7.55837932038125
20
-0.896796292988228
30
0
41
1
10
7.59213208398637
20
-0.923795271409176
30
0
0
SPLINE
5
DE
100
AcDbEntity
8
1
62
256
6
ByLayer
370
13
48
1
60
0
100
AcDbSpline
70
4
71
3
72
8
73
4
40
0
40
0
40
0
40
0
40
1
40
1
40
1
40
1
41
1
10
7.39997595740655
20
-1.98372408805264
30
0
41
1
10
7.4201996759551
20
-1.95954154560832
30
0
41
1
10
7.44642750901536
20
-1.93829322494702
30
0
41
1
10
7.47817220422468
20
-1.92225318517748
30
0
0
SPLINE
5
DF
100
AcDbEntity
8
1
62
256
6
ByLayer
370
18
48
1
60
0
100
AcDbSpline
70
4
71
3
72
8
73
4
40
0
40
0
40
0
40
0
40
1
40
1
40
1
40
1
41
1
10
53.3514598075866
20
-1.97355501546264
30
0
41
1
10
53.3197342576714
20
-2.00748994023468
30
0
41
1
10
53.2923850125602
20
-2.03035017318089
30
0
41
1
10
53.2691260771717
20
-2.04171140775497
30
0
0
SPLINE
5
E0
100
AcDbEntity
8
1
62
256
6
ByLayer
370
18
48
1
60
0
100
AcDbSpline
70
4
71
3
72
58
73
54
40
0
40
0
40
0
40
0
40
0.0649603716355236
40
0.0649603716355236
40
0.0974405574532862
40
0.0974405574532862
40
0.129920743271049
40
0.129920743271049
40
0.194881114906572
40
0.194881114906572
40
0.227361300724335
40
0.227361300724335
40
0.259841486542097
40
0.259841486542097
40
0.29232167235986
40
0.29232167235986
40
0.324801858177622
40
0.324801858177622
40
0.389762229813149
40
0.389762229813149
40
0.422242415630912
40
0.422242415630912
40
0.454722601448675
40
0.454722601448675
40
0.519682973084202
40
0.519682973084202
40
0.552163158901965
40
0.552163158901965
40
0.584643344719728
40
0.584643344719728
40
0.617123530537491
40
0.617123530537491
40
0.649603716355255
40
0.649603716355255
40
0.682083902173018
40
0.682083902173018
40
0.714564087990781
40
0.714564087990781
40
0.747044273808544
40
0.747044273808544
40
0.779524459626307
40
0.779524459626307
40
0.844484831261834
40
0.844484831261834
40
0.876965017079598
40
0.876965017079598
40
0.909445202897362
40
0.909445202897362
40
0.941925388715126
40
0.941925388715126
40
0.97440557453289
40
0.97440557453289
40
1
40
1
40
1
40
1
41
1
10
7.59213208398609
20
2.01715296668846
30
0
41
1
10
7.83126358577096
20
2.0082954443194
30
0
41
1
10
8.07083960773153
20
1.98585699272397
30
0
41
1
10
8.42880591096554
20
1.93368789891676
30
0
41
1
10
8.54784080604293
20
1.91312947259107
30
0
41
1
10
8.7848655512758
20
1.86517624870498
30
0
41
1
10
8.90286950554992
20
1.83770882270412
30
0
41
1
10
9.25909704912934
20
1.7477073403501
30
0
41
1
10
9.49800824180366
20
1.67682952209961
30
0
41
1
10
9.8568186449028
20
1.55208861117089
30
0
41
1
10
9.97634221642983
20
1.50676102858006
30
0
41
1
10
10.2163960054502
20
1.41235127562013
30
0
41
1
10
10.3363875945193
20
1.36342829900912
30
0
41
1
10
10.5757645894748
20
1.26160049538711
30
0
41
1
10
10.6951065900106
20
1.20862515286726
30
0
41
1
10
10.9331230073857
20
1.09858030603812
30
0
41
1
10
11.0514297053845
20
1.04094136462322
30
0
41
1
10
11.4064103643897
20
0.863353478442065
30
0
41
1
10
11.6447486176898
20
0.74147591080677
30
0
41
1
10
12.0024958998562
20
0.549924075192564
30
0
41
1
10
12.1219061005503
20
0.484808296859768
30
0
41
1
10
12.3603023407765
20
0.350479114596823
30
0
41
1
10
12.4805989555752
20
0.282876577112262
30
0
41
1
10
12.8412426563258
20
0.081411901349469
30
0
41
1
10
13.0805781050003
20
-0.0521051857274983
30
0
41
1
10
13.4362374645444
20
-0.254311177257193
30
0
41
1
10
13.5542721145257
20
-0.321937903980199
30
0
41
1
10
13.7916362223491
20
-0.453508805604514
30
0
41
1
10
13.9106170252526
20
-0.518088566381266
30
0
41
1
10
14.1485628235727
20
-0.645929960764704
30
0
41
1
10
14.2676233782176
20
-0.709023727222302
30
0
41
1
10
14.5056782761037
20
-0.833922854381512
30
0
41
1
10
14.6242997968553
20
-0.89634103268429
30
0
41
1
10
14.863583037816
20
-1.01629853478076
30
0
41
1
10
14.9843687681518
20
-1.07432359486882
30
0
41
1
10
15.2247857495626
20
-1.18622329528301
30
0
41
1
10
15.3445279918063
20
-1.24015653007564
30
0
41
1
10
15.5830677062505
20
-1.34401191409484
30
0
41
1
10
15.70142906329
20
-1.39450372103892
30
0
41
1
10
15.9383473003488
20
-1.48980943350873
30
0
41
1
10
16.057109160781
20
-1.53442069595769
30
0
41
1
10
16.4136876389737
20
-1.66025878096491
30
0
41
1
10
16.651549320057
20
-1.73388964763771
30
0
41
1
10
17.0073286831802
20
-1.82895745767598
30
0
41
1
10
17.126662198748
20
-1.85727312742188
30
0
41
1
10
17.3666313916831
20
-1.90751716443077
30
0
41
1
10
17.487383125798
20
-1.92955037391619
30
0
41
1
10
17.7279445564217
20
-1.96716078477473
30
0
41
1
10
17.8480107056718
20
-1.98273094975428
30
0
41
1
10
18.086989601022
20
-2.00743078770202
30
0
41
1
10
18.2063074410455
20
-2.01635835948611
30
0
41
1
10
18.4209199975336
20
-2.02605270945938
30
0
41
1
10
18.5157809577156
20
-2.02823711491075
30
0
41
1
10
18.6106660808972
20
-2.02831516722469
30
0
0
SPLINE
5
E1
100
AcDbEntity
8
1
62
256
6
ByLayer
370
18
48
1
60
0
100
AcDbSpline
70
4
71
3
72
78
73
74
40
0
40
0
40
0
40
0
40
0.0001916758468454
40
0.0001916758468454
40
0.0481048212886596
40
0.0481048212886596
40
0.0720613940095656
40
0.0720613940095656
40
0.0960179667304715
40
0.0960179667304715
40
0.143931112172281
40
0.143931112172281
40
0.167887684893187
40
0.167887684893187
40
0.191844257614092
40
0.191844257614092
40
0.215800830334997
40
0.215800830334997
40
0.239757403055902
40
0.239757403055902
40
0.287670548497714
40
0.287670548497714
40
0.31162712121862
40
0.31162712121862
40
0.335583693939526
40
0.335583693939526
40
0.383496839381336
40
0.383496839381336
40
0.431409984823146
40
0.431409984823146
40
0.455366557544052
40
0.455366557544052
40
0.479323130264958
40
0.479323130264958
40
0.503279702985864
40
0.503279702985864
40
0.52723627570677
40
0.52723627570677
40
0.551192848427676
40
0.551192848427676
40
0.575149421148582
40
0.575149421148582
40
0.599105993869488
40
0.599105993869488
40
0.623062566590394
40
0.623062566590394
40
0.670975712032206
40
0.670975712032206
40
0.694932284753113
40
0.694932284753113
40
0.71888885747402
40
0.71888885747402
40
0.742845430194928
40
0.742845430194928
40
0.766802002915835
40
0.766802002915835
40
0.790758575636742
40
0.790758575636742
40
0.814715148357649
40
0.814715148357649
40
0.838671721078556
40
0.838671721078556
40
0.862628293799463
40
0.862628293799463
40
0.910541439241279
40
0.910541439241279
40
0.934498011962186
40
0.934498011962186
40
0.958454584683093
40
0.958454584683093
40
0.982411157404
40
0.982411157404
40
1
40
1
40
1
40
1
41
1
10
26.2063663124101
20
1.0625622609513
30
0
41
1
10
26.2073221574372
20
1.0630306695864
30
0
41
1
10
26.2082779737758
20
1.06349892224617
30
0
41
1
10
26.4481515958068
20
1.18097669082025
30
0
41
1
10
26.6871135605874
20
1.28727299212127
30
0
41
1
10
27.0434931340456
20
1.43477670209299
30
0
41
1
10
27.1619871318031
20
1.48185193118559
30
0
41
1
10
27.3979423970733
20
1.57210675643549
30
0
41
1
10
27.5163745942348
20
1.61412853351743
30
0
41
1
10
27.872873347228
20
1.73146170014769
30
0
41
1
10
28.1117173246366
20
1.7986618503266
30
0
41
1
10
28.4701027733878
20
1.88335537112525
30
0
41
1
10
28.5899313371617
20
1.90869274359457
30
0
41
1
10
28.8294391542685
20
1.95175321917421
30
0
41
1
10
28.9490765339439
20
1.96984224776085
30
0
41
1
10
29.1875639870815
20
1.99962077287822
30
0
41
1
10
29.3065188550967
20
2.01125940957098
30
0
41
1
10
29.5435343066821
20
2.02801204408431
30
0
41
1
10
29.6612709107768
20
2.03310202808163
30
0
41
1
10
30.0164851767309
20
2.03798316424914
30
0
41
1
10
30.2546848394217
20
2.02802994235216
30
0
41
1
10
30.6121740994803
20
1.99292295884487
30
0
41
1
10
30.7310006459441
20
1.97760826499098
30
0
41
1
10
30.970181209848
20
1.94034436577289
30
0
41
1
10
31.090635634484
20
1.91853657029677
30
0
41
1
10
31.4501024385309
20
1.84437548878546
30
0
41
1
10
31.6882264515605
20
1.78294453907353
30
0
41
1
10
32.1605428727502
20
1.634597135836
30
0
41
1
10
32.3982610822747
20
1.55124015381358
30
0
41
1
10
32.7548563613765
20
1.41060780761293
30
0
41
1
10
32.8738570752495
20
1.36126031130215
30
0
41
1
10
33.1114352812017
20
1.25637928508607
30
0
41
1
10
33.2304584188765
20
1.20141478089832
30
0
41
1
10
33.4705647309331
20
1.0889128997604
30
0
41
1
10
33.5910276410425
20
1.03108017763279
30
0
41
1
10
33.8303710856232
20
0.912405223020642
30
0
41
1
10
33.9496426788263
20
0.851616126514813
30
0
41
1
10
34.1869954689662
20
0.726464132560579
30
0
41
1
10
34.3048507649632
20
0.661700022420433
30
0
41
1
10
34.5417371344469
20
0.532605341112031
30
0
41
1
10
34.6604793434032
20
0.467802391995036
30
0
41
1
10
34.897893055683
20
0.33656200153689
30
0
41
1
10
35.0166115863914
20
0.270203393950652
30
0
41
1
10
35.2539861255265
20
0.13581629735765
30
0
41
1
10
35.3721876228134
20
0.0669514151872761
30
0
41
1
10
35.7290503020435
20
-0.137968999859425
30
0
41
1
10
35.9707915460368
20
-0.2728763658763
30
0
41
1
10
36.3304991370162
20
-0.472845745065399
30
0
41
1
10
36.4498459903763
20
-0.539510120338605
30
0
41
1
10
36.6883581634071
20
-0.671186265452576
30
0
41
1
10
36.8081205200065
20
-0.73520128392741
30
0
41
1
10
37.0483694668228
20
-0.860154395664978
30
0
41
1
10
37.1688771301586
20
-0.921342851097705
30
0
41
1
10
37.4090092702081
20
-1.04065244116359
30
0
41
1
10
37.5288561119875
20
-1.09867470265019
30
0
41
1
10
37.7671788819711
20
-1.21266268367555
30
0
41
1
10
37.8865897639038
20
-1.26724372802877
30
0
41
1
10
38.1264402987822
20
-1.37103893255644
30
0
41
1
10
38.2468242450438
20
-1.42057669608005
30
0
41
1
10
38.487227860964
20
-1.51513976113623
30
0
41
1
10
38.606927842242
20
-1.55984973571424
30
0
41
1
10
38.8448129838273
20
-1.64464694684298
30
0
41
1
10
38.9629952669247
20
-1.68465277960757
30
0
41
1
10
39.3190270925382
20
-1.79384519022852
30
0
41
1
10
39.556698782056
20
-1.85430795596707
30
0
41
1
10
39.9119410792306
20
-1.92788169930964
30
0
41
1
10
40.0297607620483
20
-1.94967218190939
30
0
41
1
10
40.2670205744088
20
-1.98608293705291
30
0
41
1
10
40.3863238166993
20
-2.00086290592688
30
0
41
1
10
40.6256812180715
20
-2.02393277351447
30
0
41
1
10
40.7460056279124
20
-2.03222495127798
30
0
41
1
10
40.9539933520579
20
-2.04069688047039
30
0
41
1
10
41.0414973959679
20
-2.04245221317353
30
0
41
1
10
41.1287810276567
20
-2.04234434690753
30
0
0
SPLINE
5
E2
100
AcDbEntity
8
1
62
256
6
ByLayer
370
18
48
1
60
0
100
AcDbSpline
70
4
71
3
72
30
73
26
40
0
40
0
40
0
40
0
40
0.0755024716300401
40
0.0755024716300401
40
0.152543932327537
40
0.152543932327537
40
0.229585393025033
40
0.229585393025033
40
0.306626853722529
40
0.306626853722529
40
0.383668314420026
40
0.383668314420026
40
0.460709775117522
40
0.460709775117522
40
0.537751235815019
40
0.537751235815019
40
0.614792696512515
40
0.614792696512515
40
0.691834157210012
40
0.691834157210012
40
0.845917078605006
40
0.845917078605006
40
0.922958539302503
40
0.922958539302503
40
1
40
1
40
1
40
1
41
1
10
48.7224130273888
20
1.074247871935
30
0
41
1
10
48.8391315540112
20
1.13056719944333
30
0
41
1
10
48.9555383381802
20
1.18515188742526
30
0
41
1
10
49.1898320665104
20
1.29235932813506
30
0
41
1
10
49.3073904312311
20
1.34526433533406
30
0
41
1
10
49.5438608720565
20
1.44466583665951
30
0
41
1
10
49.6625249934453
20
1.49155653649879
30
0
41
1
10
49.9000523619897
20
1.58064783969556
30
0
41
1
10
50.0189352939394
20
1.62281310815624
30
0
41
1
10
50.2569100318507
20
1.70228196904083
30
0
41
1
10
50.3755581557492
20
1.74001087742445
30
0
41
1
10
50.6143924813103
20
1.80902522784561
30
0
41
1
10
50.7346821231801
20
1.84021337287805
30
0
41
1
10
50.9739855848762
20
1.89598164148765
30
0
41
1
10
51.0932457590302
20
1.92071549266194
30
0
41
1
10
51.3309794788536
20
1.96391443182492
30
0
41
1
10
51.4492966209173
20
1.98246135752785
30
0
41
1
10
51.6850849597245
20
2.01306045386974
30
0
41
1
10
51.8033383887663
20
2.02481667444246
30
0
41
1
10
52.1588863048104
20
2.05011175548657
30
0
41
1
10
52.3966381668415
20
2.05397066959719
30
0
41
1
10
52.7525364816591
20
2.03903649848726
30
0
41
1
10
52.8713845659845
20
2.03053355626966
30
0
41
1
10
53.1111616127488
20
2.00697941246631
30
0
41
1
10
53.2315308613341
20
1.99190784471008
30
0
41
1
10
53.3514598075885
20
1.97355501546059
30
0
0
SPLINE
5
E3
100
AcDbEntity
8
1
62
256
6
ByLayer
370
18
48
1
60
0
100
AcDbSpline
70
4
71
3
72
8
73
4
40
0
40
0
40
0
40
0
40
1
40
1
40
1
40
1
41
1
10
53.9999584430093
20
0.0260180139118233
30
0
41
1
10
53.9950703117371
20
0.0122307680151721
30
0
41
1
10
53.9890793859981
20
-0.0015679195329596
30
0
41
1
10
53.9831656362221
20
-0.0124949441564297
30
0
0
SPLINE
5
E4
100
AcDbEntity
8
1
62
256
6
ByLayer
370
18
48
1
60
0
100
AcDbSpline
70
4
71
3
72
24
73
20
40
0
40
0
40
0
40
0
40
0.124999999999982
40
0.124999999999982
40
0.249999999999964
40
0.249999999999964
40
0.312499999999955
40
0.312499999999955
40
0.374999999999947
40
0.374999999999947
40
0.437499999999938
40
0.437499999999938
40
0.499999999999929
40
0.499999999999929
40
0.624999999999947
40
0.624999999999947
40
0.749999999999964
40
0.749999999999964
40
1
40
1
40
1
40
1
41
1
10
53.3705405525923
20
-0.897004400532353
30
0
41
1
10
53.3470877614621
20
-0.877904855265655
30
0
41
1
10
53.3243636193721
20
-0.857195321835547
30
0
41
1
10
53.2817088998083
20
-0.809603727848412
30
0
41
1
10
53.2616333747501
20
-0.782705200843907
30
0
41
1
10
53.2417526177403
20
-0.737389862873613
30
0
41
1
10
53.2369148034128
20
-0.721187310286922
30
0
41
1
10
53.2340803284183
20
-0.68924027142026
30
0
41
1
10
53.2362848657301
20
-0.67374829865949
30
0
41
1
10
53.2468822111571
20
-0.647364477476032
30
0
41
1
10
53.2550336787067
20
-0.636407350170657
30
0
41
1
10
53.2736622737609
20
-0.618547398429172
30
0
41
1
10
53.2843625284271
20
-0.611365505747813
30
0
41
1
10
53.3178026252513
20
-0.593750917126584
30
0
41
1
10
53.3422055239559
20
-0.586765396733995
30
0
41
1
10
53.3922428444848
20
-0.577461461543606
30
0
41
1
10
53.417651205238
20
-0.575309113256679
30
0
41
1
10
53.4945761107041
20
-0.573340878776207
30
0
41
1
10
53.5467861220237
20
-0.577973030420395
30
0
41
1
10
53.599551798911
20
-0.58616933561882
30
0
0
SPLINE
5
E5
100
AcDbEntity
8
1
62
256
6
ByLayer
370
18
48
1
60
0
100
AcDbSpline
70
4
71
3
72
8
73
4
40
0
40
0
40
0
40
0
40
1
40
1
40
1
40
1
41
1
10
53.9015396675692
20
-0.623113862898293
30
0
41
1
10
53.9316829910467
20
-0.451586421376732
30
0
41
1
10
53.9581348912141
20
-0.28007309600676
30
0
41
1
10
53.9808654565726
20
-0.108574001171149
30
0
0
SPLINE
5
E6
100
AcDbEntity
8
1
62
256
6
ByLayer
370
18
48
1
60
0
100
AcDbSpline
70
4
71
3
72
8
73
4
40
0
40
0
40
0
40
0
40
1
40
1
40
1
40
1
41
1
10
53.9808654565727
20
-0.108574001171064
30
0
41
1
10
53.9838959839375
20
-0.0857090749476583
30
0
41
1
10
53.9908954911181
20
-0.0566301943547955
30
0
41
1
10
53.9999584430035
20
-0.0260180138726867
30
0
0
SPLINE
5
E7
100
AcDbEntity
8
1
62
256
6
ByLayer
370
18
48
1
60
0
100
AcDbSpline
70
4
71
3
72
10
73
6
40
0
40
0
40
0
40
0
40
0.5
40
0.5
40
1
40
1
40
1
40
1
41
1
10
53.3514598075789
20
1.97355501548353
30
0
41
1
10
53.4444292541739
20
1.75101558634816
30
0
41
1
10
53.5372653491048
20
1.52738142741737
30
0
41
1
10
53.7211944335405
20
1.07714916230458
30
0
41
1
10
53.8124280248912
20
0.850343435096477
30
0
41
1
10
53.9015396675692
20
0.623113862898265
30
0
0
SPLINE
5
E8
100
AcDbEntity
8
1
62
256
6
ByLayer
370
18
48
1
60
0
100
AcDbSpline
70
4
71
3
72
8
73
4
40
0
40
0
40
0
40
0
40
1
40
1
40
1
40
1
41
1
10
53.9808654565726
20
0.108574001171178
30
0
41
1
10
53.983895983937
20
0.0857090749510405
30
0
41
1
10
53.9908954911162
20
0.0566301943629526
30
0
41
1
10
53.9999584429996
20
0.0260180138858175
30
0
0
SPLINE
5
E9
100
AcDbEntity
8
1
62
256
6
ByLayer
370
18
48
1
60
0
100
AcDbSpline
70
4
71
3
72
20
73
16
40
0
40
0
40
0
40
0
40
0.061270938307444
40
0.061270938307444
40
0.106057645099247
40
0.106057645099247
40
0.15084435189105
40
0.15084435189105
40
0.195631058682853
40
0.195631058682853
40
0.240417765474656
40
0.240417765474656
40
0.598711419808995
40
0.598711419808995
40
1
40
1
40
1
40
1
41
1
10
6.64383468299144
20
-2.02080760394864
30
0
41
1
10
6.65060608827812
20
-2.02081345657595
30
0
41
1
10
6.65740947856233
20
-2.02077750598761
30
0
41
1
10
6.6692402914739
20
-2.0206444700674
30
0
41
1
10
6.67427335516416
20
-2.02056681870101
30
0
41
1
10
6.68428444350877
20
-2.02036693203695
30
0
41
1
10
6.68894135633249
20
-2.02022972571072
30
0
41
1
10
6.70112648912155
20
-2.02002131200405
30
0
41
1
10
6.70844539077166
20
-2.01995654508943
30
0
41
1
10
6.72318670431596
20
-2.01994571048854
30
0
41
1
10
6.73050190794737
20
-2.01997379290276
30
0
41
1
10
6.79648603998021
20
-2.02013570297859
30
0
41
1
10
6.85499458915382
20
-2.02032803708698
30
0
41
1
10
6.97853029205697
20
-2.02073794069429
30
0
41
1
10
7.04340549658889
20
-2.02096281482488
30
0
41
1
10
7.10773007975206
20
-2.02107265425946
30
0
0
SPLINE
5
EA
100
AcDbEntity
8
1
62
256
6
ByLayer
370
18
48
1
60
0
100
AcDbSpline
70
4
71
3
72
14
73
10
40
0
40
0
40
0
40
0
40
0.00975769262919
40
0.00975769262919
40
0.682702140378665
40
0.682702140378665
40
0.850938252316034
40
0.850938252316034
40
1
40
1
40
1
40
1
41
1
10
41.9035556447338
20
-1.9404135270519
30
0
41
1
10
41.8966677810405
20
-1.94041352277907
30
0
41
1
10
41.8897807889943
20
-1.94040280580734
30
0
41
1
10
41.4079877818026
20
-1.93890395625095
30
0
41
1
10
40.9367035076837
20
-1.88609250573893
30
0
41
1
10
40.3420205895293
20
-1.75974396043924
30
0
41
1
10
40.2227956871418
20
-1.73145894973729
30
0
41
1
10
39.9971403613657
20
-1.67255304798505
30
0
41
1
10
39.8908738645978
20
-1.64256879713119
30
0
41
1
10
39.7850375958031
20
-1.61059622511644
30
0
0
SPLINE
5
EB
100
AcDbEntity
8
1
62
256
6
ByLayer
370
13
48
1
60
0
100
AcDbSpline
70
4
71
3
72
24
73
20
40
0
40
0
40
0
40
0
40
0.0064457115953559
40
0.0064457115953559
40
0.119555220186833
40
0.119555220186833
40
0.345774237369792
40
0.345774237369792
40
0.402328991665529
40
0.402328991665529
40
0.458883745961267
40
0.458883745961267
40
0.571993254552742
40
0.571993254552742
40
0.685102763144216
40
0.685102763144216
40
0.798212271735691
40
0.798212271735691
40
1
40
1
40
1
40
1
41
1
10
39.7850375957406
20
-1.61059622509762
30
0
41
1
10
39.7714234848268
20
-1.60648347484118
30
0
41
1
10
39.7578164927355
20
-1.60233782457232
30
0
41
1
10
39.5055928345198
20
-1.52484671396221
30
0
41
1
10
39.2683885563817
20
-1.44132843242781
30
0
41
1
10
38.5579796854756
20
-1.16481671923313
30
0
41
1
10
38.0858723252173
20
-0.945691746813139
30
0
41
1
10
37.4872506947876
20
-0.643667905739591
30
0
41
1
10
37.3673576160053
20
-0.582017872823627
30
0
41
1
10
37.1287831072551
20
-0.457656492992754
30
0
41
1
10
37.0098389906783
20
-0.394812450392465
30
0
41
1
10
36.6536653886759
20
-0.20498850117022
30
0
41
1
10
36.4171170898518
20
-0.0766745287413357
30
0
41
1
10
35.9436589727792
20
0.179400920359825
30
0
41
1
10
35.7067510939771
20
0.307166102685756
30
0
41
1
10
35.2304220955193
20
0.558088319281381
30
0
41
1
10
34.9899314804851
20
0.681819688668838
30
0
41
1
10
34.3259385001785
20
1.00867281141069
30
0
41
1
10
33.9046584857014
20
1.1988017111349
30
0
41
1
10
33.4817927756569
20
1.36109972211753
30
0
0
SPLINE
5
EC
100
AcDbEntity
8
1
62
256
6
ByLayer
370
18
48
1
60
0
100
AcDbSpline
70
4
71
3
72
16
73
12
40
0
40
0
40
0
40
0
40
0.165712229305395
40
0.165712229305395
40
0.327208543969106
40
0.327208543969106
40
0.488704858632819
40
0.488704858632819
40
0.811697487960251
40
0.811697487960251
40
1
40
1
40
1
40
1
41
1
10
19.4074800347153
20
-1.92633293907304
30
0
41
1
10
19.2857453119028
20
-1.92638373565035
30
0
41
1
10
19.1638793167905
20
-1.92308611539593
30
0
41
1
10
18.9227232249871
20
-1.90989110786214
30
0
41
1
10
18.8034432339737
20
-1.90020832882462
30
0
41
1
10
18.5640619886234
20
-1.87444967003785
30
0
41
1
10
18.4437812627934
20
-1.85832290777387
30
0
41
1
10
18.0849015329932
20
-1.800931937857
30
0
41
1
10
17.8471803613808
20
-1.75059983271143
30
0
41
1
10
17.4715341983645
20
-1.65357753222517
30
0
41
1
10
17.3333576859506
20
-1.61409340251819
30
0
41
1
10
17.1951422124395
20
-1.57108582202076
30
0
0
SPLINE
5
ED
100
AcDbEntity
8
1
62
256
6
ByLayer
370
13
48
1
60
0
100
AcDbSpline
70
4
71
3
72
28
73
24
40
0
40
0
40
0
40
0
40
0.15614401605293
40
0.15614401605293
40
0.211240388918697
40
0.211240388918697
40
0.266336761784464
40
0.266336761784464
40
0.376529507515997
40
0.376529507515997
40
0.48672225324753
40
0.48672225324753
40
0.541818626113297
40
0.541818626113297
40
0.596914998979063
40
0.596914998979063
40
0.817300490442133
40
0.817300490442133
40
0.927493236173666
40
0.927493236173666
40
0.982589609039433
40
0.982589609039433
40
1
40
1
40
1
40
1
41
1
10
17.1951431671495
20
-1.57108611909135
30
0
41
1
10
16.8592002384087
20
-1.46655305378874
30
0
41
1
10
16.5230271424165
20
-1.34120453136552
30
0
41
1
10
16.0638924644789
20
-1.1479100517613
30
0
41
1
10
15.9436321931262
20
-1.09525764257546
30
0
41
1
10
15.7044204000748
20
-0.987106893821135
30
0
41
1
10
15.5851748600328
20
-0.931485498374542
30
0
41
1
10
15.2282066210059
20
-0.76056856923006
30
0
41
1
10
14.9912205081209
20
-0.641262751950677
30
0
41
1
10
14.516986609721
20
-0.395992306787491
30
0
41
1
10
14.2797705800344
20
-0.269961034614312
30
0
41
1
10
13.9223970100512
20
-0.0784394636989987
30
0
41
1
10
13.8029938681981
20
-0.0142176307897159
30
0
41
1
10
13.5633568678089
20
0.114481069639538
30
0
41
1
10
13.4431311638817
20
0.178971902500024
30
0
41
1
10
12.8453342671357
20
0.497533758710375
30
0
41
1
10
12.3726896922559
20
0.74204544793426
30
0
41
1
10
11.6603310308517
20
1.07301914368807
30
0
41
1
10
11.4222276358521
20
1.17722523205916
30
0
41
1
10
11.0624721309901
20
1.32149831594197
30
0
41
1
10
10.9422243365183
20
1.36750729375939
30
0
41
1
10
10.7848788172874
20
1.42467634423835
30
0
41
1
10
10.7471361130527
20
1.43816194672229
30
0
41
1
10
10.7094271541164
20
1.4513996831231
30
0
0
SPLINE
5
EE
100
AcDbEntity
8
SK1
62
256
6
ByLayer
370
18
48
1
60
0
100
AcDbSpline
70
4
71
3
72
8
73
4
40
0
40
0
40
0
40
0
40
1
40
1
40
1
40
1
41
1
10
-35.4
20
-2.38453706363262
30
0
41
1
10
-35.6037705039597
20
-2.03168878509746
30
0
41
1
10
-35.8060988287571
20
-1.67809088686104
30
0
41
1
10
-36
20
-1.32016069151157
30
0
0
SPLINE
5
EF
100
AcDbEntity
8
SK1
62
256
6
ByLayer
370
18
48
1
60
0
100
AcDbSpline
70
4
71
3
72
14
73
10
40
0
40
0
40
0
40
0
40
0.125
40
0.125
40
0.25
40
0.25
40
0.5
40
0.5
40
1
40
1
40
1
40
1
41
1
10
-35.3
20
-2.60770324334345
30
0
41
1
10
-35.3
20
-2.60246903569822
30
0
41
1
10
-35.3017593723636
20
-2.59457559771411
30
0
41
1
10
-35.3069353411979
20
-2.5772650528119
30
0
41
1
10
-35.3102739075534
20
-2.56796382722419
30
0
41
1
10
-35.3215583577555
20
-2.53896818343287
30
0
41
1
10
-35.3303095934911
20
-2.51929752096817
30
0
41
1
10
-35.358391202053
20
-2.45983604702749
30
0
41
1
10
-35.378655954467
20
-2.42149633681967
30
0
41
1
10
-35.4
20
-2.38453706363262
30
0
0
SPLINE
5
F0
100
AcDbEntity
8
SK1
62
256
6
ByLayer
370
18
48
1
60
0
100
AcDbSpline
70
4
71
3
72
8
73
4
40
0
40
0
40
0
40
0
40
1
40
1
40
1
40
1
41
1
10
-36
20
1.72485288512533
30
0
41
1
10
-35.8060560363144
20
2.08286207281557
30
0
41
1
10
-35.6037443830634
20
2.43642620956214
30
0
41
1
10
-35.4
20
2.78922925724638
30
0
0
SPLINE
5
F1
100
AcDbEntity
8
SK1
62
256
6
ByLayer
370
18
48
1
60
0
100
AcDbSpline
70
4
71
3
72
14
73
10
40
0
40
0
40
0
40
0
40
0.499999999999999
40
0.499999999999999
40
0.749999999999999
40
0.749999999999999
40
0.875
40
0.875
40
1
40
1
40
1
40
1
41
1
10
-35.3999999999999
20
-2.78922925724663
30
0
41
1
10
-35.3787677796885
20
-2.82599489427852
30
0
41
1
10
-35.3584290958895
20
-2.86117846220245
30
0
41
1
10
-35.3303626450498
20
-2.90915274316845
30
0
41
1
10
-35.3215171954455
20
-2.9241675559976
30
0
41
1
10
-35.3102812516991
20
-2.94283662633407
30
0
41
1
10
-35.3068890218584
20
-2.94838945504588
30
0
41
1
10
-35.3017585680987
20
-2.95646564837114
30
0
41
1
10
-35.3
20
-2.95901187928331
30
0
41
1
10
-35.3
20
-2.9584364778087
30
0
0
SPLINE
5
F2
100
AcDbEntity
8
SK1
62
256
6
ByLayer
370
18
48
1
60
0
100
AcDbSpline
70
4
71
3
72
8
73
4
40
0
40
0
40
0
40
0
40
1
40
1
40
1
40
1
41
1
10
-36
20
-1.72485288512533
30
0
41
1
10
-35.8060560363144
20
-2.08286207281557
30
0
41
1
10
-35.6037443830634
20
-2.43642620956214
30
0
41
1
10
-35.4
20
-2.78922925724635
30
0
0
LINE
5
76
100
AcDbEntity
8
81
62
256
6
ByLayer
370
18
48
1
60
0
100
AcDbLine
10
54
20
0
30
0
11
59
21
0
31
0
39
0
210
0
220
0
230
1
0
LINE
5
77
100
AcDbEntity
8
1
62
256
6
ByLayer
370
18
48
1
60
0
100
AcDbLine
10
0
20
-3
30
0
11
0.95
21
-2.017249
31
0
39
0
210
0
220
0
230
1
0
LINE
5
79
100
AcDbEntity
8
1
62
256
6
ByLayer
370
18
48
1
60
0
100
AcDbLine
10
0.95
20
2.017249
30
0
11
0
21
3
31
0
39
0
210
0
220
0
230
1
0
LINE
5
7A
100
AcDbEntity
8
1
62
256
6
ByLayer
370
18
48
1
60
0
100
AcDbLine
10
6.64522
20
2.020808
30
0
11
0.95
21
2.017249
31
0
39
0
210
0
220
0
230
1
0
LINE
5
7B
100
AcDbEntity
8
1
62
256
6
ByLayer
370
18
48
1
60
0
100
AcDbLine
10
7.947465
20
2.021622
30
0
11
7.104186
21
2.021095
31
0
39
0
210
0
220
0
230
1
0
LINE
5
7C
100
AcDbEntity
8
1
62
256
6
ByLayer
370
18
48
1
60
0
100
AcDbLine
10
19.198424
20
2.028654
30
0
11
18.612623
21
2.028288
31
0
39
0
210
0
220
0
230
1
0
LINE
5
7D
100
AcDbEntity
8
1
62
256
6
ByLayer
370
18
48
1
60
0
100
AcDbLine
10
30.448554
20
2.035686
30
0
11
29.861326
21
2.035319
31
0
39
0
210
0
220
0
230
1
0
LINE
5
7E
100
AcDbEntity
8
1
62
256
6
ByLayer
370
18
48
1
60
0
100
AcDbLine
10
41.698937
20
2.042717
30
0
11
41.117381
21
2.042354
31
0
39
0
210
0
220
0
230
1
0
LINE
5
7F
100
AcDbEntity
8
1
62
256
6
ByLayer
370
18
48
1
60
0
100
AcDbLine
10
52.948274
20
2.049748
30
0
11
52.366962
21
2.049385
31
0
39
0
210
0
220
0
230
1
0
LINE
5
80
100
AcDbEntity
8
1
62
256
6
ByLayer
370
18
48
1
60
0
100
AcDbLine
10
52.366962
20
-2.049385
30
0
11
52.94828
21
-2.049748
31
0
39
0
210
0
220
0
230
1
0
LINE
5
81
100
AcDbEntity
8
1
62
256
6
ByLayer
370
18
48
1
60
0
100
AcDbLine
10
41.117381
20
-2.042354
30
0
11
41.698935
21
-2.042717
31
0
39
0
210
0
220
0
230
1
0
LINE
5
82
100
AcDbEntity
8
1
62
256
6
ByLayer
370
18
48
1
60
0
100
AcDbLine
10
29.861326
20
-2.035319
30
0
11
30.448729
21
-2.035686
31
0
39
0
210
0
220
0
230
1
0
LINE
5
83
100
AcDbEntity
8
1
62
256
6
ByLayer
370
18
48
1
60
0
100
AcDbLine
10
18.612623
20
-2.028288
30
0
11
19.198293
21
-2.028654
31
0
39
0
210
0
220
0
230
1
0
LINE
5
84
100
AcDbEntity
8
1
62
256
6
ByLayer
370
18
48
1
60
0
100
AcDbLine
10
7.104186
20
-2.021095
30
0
11
7.947639
21
-2.021623
31
0
39
0
210
0
220
0
230
1
0
LINE
5
85
100
AcDbEntity
8
1
62
256
6
ByLayer
370
18
48
1
60
0
100
AcDbLine
10
0.95
20
-2.017249
30
0
11
6.64522
21
-2.020808
31
0
39
0
210
0
220
0
230
1
0
LINE
5
86
100
AcDbEntity
8
SK1
62
256
6
ByLayer
370
18
48
1
60
0
100
AcDbLine
10
0
20
3
30
0
11
-35.278312
21
3
31
0
39
0
210
0
220
0
230
1
0
LINE
5
88
100
AcDbEntity
8
SK1
62
256
6
ByLayer
370
18
48
1
60
0
100
AcDbLine
10
-35.278312
20
-3
30
0
11
0
21
-3
31
0
39
0
210
0
220
0
230
1
0
LINE
5
89
100
AcDbEntity
8
SK1
62
256
6
ByLayer
370
18
48
1
60
0
100
AcDbLine
10
-35.278312
20
3
30
0
11
-35.405351
21
2.779963
31
0
39
0
210
0
220
0
230
1
0
LINE
5
8A
100
AcDbEntity
8
SK1
62
256
6
ByLayer
370
18
48
1
60
0
100
AcDbLine
10
-35.405351
20
-2.779963
30
0
11
-35.278312
21
-3
31
0
39
0
210
0
220
0
230
1
0
LINE
5
8B
100
AcDbEntity
8
SK4
62
256
6
ByLayer
370
18
48
0.05
60
0
100
AcDbLine
10
59
20
0
30
0
11
-41
21
0
31
0
39
0
210
0
220
0
230
1
0
LINE
5
8D
100
AcDbEntity
8
4
62
256
6
ByLayer
370
18
48
0.05
60
0
100
AcDbLine
10
54
20
0
30
0
11
0
21
0
31
0
39
0
210
0
220
0
230
1
0
LINE
5
8F
100
AcDbEntity
8
80
62
256
6
ByLayer
370
18
48
1
60
0
100
AcDbLine
10
0
20
0
30
0
11
-5
21
0
31
0
39
0
210
0
220
0
230
1
0
LINE
5
90
100
AcDbEntity
8
1
62
256
6
ByLayer
370
18
48
1
60
0
100
AcDbLine
10
0
20
-3
30
0
11
0
21
3
31
0
39
0
210
0
220
0
230
1
0
LINE
5
91
100
AcDbEntity
8
1
62
256
6
ByLayer
370
13
48
1
60
0
100
AcDbLine
10
53.194446
20
0.606396
30
0
11
53.980865
21
0.108574
31
0
39
0
210
0
220
0
230
1
0
LINE
5
92
100
AcDbEntity
8
1
62
256
6
ByLayer
370
13
48
1
60
0
100
AcDbLine
10
53.123099
20
0.531948
30
0
11
53.983166
21
-0.012495
31
0
39
0
210
0
220
0
230
1
0
LINE
5
93
100
AcDbEntity
8
1
62
256
6
ByLayer
370
18
48
1
60
0
100
AcDbLine
10
0.95
20
2.017249
30
0
11
0.95
21
-2.017249
31
0
39
0
210
0
220
0
230
1
0
LINE
5
94
100
AcDbEntity
8
1
62
256
6
ByLayer
370
18
48
1
60
0
100
AcDbLine
10
53.599552
20
-0.586169
30
0
11
53.879916
21
-0.205633
31
0
39
0
210
0
220
0
230
1
0
LINE
5
95
100
AcDbEntity
8
1
62
256
6
ByLayer
370
18
48
1
60
0
100
AcDbLine
10
52.976689
20
-1.431575
30
0
11
53.370541
21
-0.897004
31
0
39
0
210
0
220
0
230
1
0
LINE
5
96
100
AcDbEntity
8
SK1
62
256
6
ByLayer
370
13
48
1
60
0
100
AcDbLine
10
-35.4
20
-2.384463
30
0
11
-35.4
21
-2.789229
31
0
39
0
210
0
220
0
230
1
0
LINE
5
97
100
AcDbEntity
8
SK1
62
256
6
ByLayer
370
18
48
1
60
0
100
AcDbLine
10
-35.3
20
-2.958436
30
0
11
-35.3
21
-2.607703
31
0
39
0
210
0
220
0
230
1
0
LINE
5
98
100
AcDbEntity
8
SK1
62
256
6
ByLayer
370
18
48
1
60
0
100
AcDbLine
10
0
20
-3
30
0
11
0
21
3
31
0
39
0
210
0
220
0
230
1
0
LINE
5
99
100
AcDbEntity
8
SK1
62
256
6
ByLayer
370
18
48
1
60
0
100
AcDbLine
10
-36
20
-1.320152
30
0
11
-36
21
-1.724853
31
0
39
0
210
0
220
0
230
1
0
LINE
5
9A
100
AcDbEntity
8
SK1
62
256
6
ByLayer
370
18
48
1
60
0
100
AcDbLine
10
-35.278312
20
3
30
0
11
-35.278312
21
-3
31
0
39
0
210
0
220
0
230
1
0
LINE
5
9B
100
AcDbEntity
8
SK1
62
256
6
ByLayer
370
18
48
1
60
0
100
AcDbLine
10
-36
20
1.724853
30
0
11
-36
21
-1.320161
31
0
39
0
210
0
220
0
230
1
0
MTEXT
5
F3
100
AcDbEntity
8
SK6
62
256
6
ByLayer
370
13
48
1
60
0
100
AcDbMText
10
11.129169
20
34.432694
30
0
210
0
220
0
230
1
1
\W0.7371;460.1-0410-031A1-XM GC34
40
3.5
41
0
44
1.084337
50
0
71
8
72
5
7
iso_b_vert
0
DIMENSION
5
100
100
AcDbEntity
8
SK2
62
256
6
ByLayer
370
13
48
1
60
0
100
AcDbDimension
2
DimnDraft3D1
10
53.4051
20
-12.263398
30
0
11
25.655159
21
-12.263398
31
0
70
32
71
5
72
1
41
1
210
0
220
0
230
1
3
Standard
100
AcDbAlignedDimension
13
0
23
-1.5875
33
0
14
53.4051
24
-3.6375
34
0
50
0
100
AcDbRotatedDimension
1001
ACAD
1000
DSTYLE
1002
{
1070
   279
1070
     0
1070
   172
1070
     1
1070
   173
1070
     1
1070
   340
1005
F4
1070
   271
1070
     2
1070
   272
1070
     2
1070
    77
1070
     1
1070
    73
1070
     0
1070
   171
1070
     3
1070
   274
1070
     4
1070
   177
1070
    35
1070
   176
1070
    35
1070
   178
1070
    35
1070
    48
1040
-0.005
1070
    41
1041
3.5
1070
   147
1041
1.75
1070
    42
1041
1.5875
1070
    44
1041
2.0
1070
   140
1041
3.5
1070
   343
1005
0
1070
   344
1005
0
1002
}
0
DIMENSION
5
10A
100
AcDbEntity
8
SK2
62
256
6
ByLayer
370
13
48
1
60
0
100
AcDbDimension
2
DimnDraft3D2
10
54
20
-31.692985
30
0
11
9.7464
21
-31.692985
31
0
70
32
71
5
72
1
41
1
210
0
220
0
230
1
3
Standard
100
AcDbAlignedDimension
13
-36
23
-4.5875
33
0
14
54
24
-1.5875
34
0
50
0
100
AcDbRotatedDimension
1001
ACAD
1000
DSTYLE
1002
{
1070
   279
1070
     0
1070
   172
1070
     1
1070
   173
1070
     1
1070
   340
1005
F4
1070
   271
1070
     2
1070
   272
1070
     2
1070
    77
1070
     1
1070
    73
1070
     0
1070
   171
1070
     3
1070
   274
1070
     4
1070
   177
1070
    35
1070
   176
1070
    35
1070
   178
1070
    35
1070
    48
1040
-0.005
1070
    41
1041
3.5
1070
   147
1041
1.75
1070
    42
1041
1.5875
1070
    44
1041
2.0
1070
   140
1041
3.5
1070
   343
1005
0
1070
   344
1005
0
1002
}
0
DIMENSION
5
114
100
AcDbEntity
8
SK2
62
256
6
ByLayer
370
13
48
1
60
0
100
AcDbDimension
2
DimnDraft3D3
10
54
20
13.659119
30
0
11
37.305
21
13.659119
31
0
70
32
71
5
72
1
41
1
210
0
220
0
230
1
3
Standard
100
AcDbAlignedDimension
13
20.61
23
3.6375
33
0
14
54
24
1.5875
34
0
50
0
100
AcDbRotatedDimension
1001
ACAD
1000
DSTYLE
1002
{
1070
   279
1070
     0
1070
   172
1070
     1
1070
   173
1070
     1
1070
   340
1005
F4
1070
   271
1070
     2
1070
   272
1070
     2
1070
    77
1070
     1
1070
    73
1070
     0
1070
   171
1070
     3
1070
   274
1070
     4
1070
   177
1070
    35
1070
   176
1070
    35
1070
   178
1070
    35
1070
    48
1040
-0.005
1070
    41
1041
3.5
1070
   147
1041
1.75
1070
    42
1041
1.5875
1070
    44
1041
2.0
1070
   140
1041
3.5
1070
   343
1005
0
1070
   344
1005
0
1002
}
0
DIMENSION
5
11E
100
AcDbEntity
8
SK2
62
256
6
ByLayer
370
13
48
1
60
0
100
AcDbDimension
2
DimnDraft3D4
10
53.4051
20
-14.852503
30
0
11
63.981425
21
-14.852503
31
0
70
32
71
5
72
1
41
1
210
0
220
0
230
1
3
Standard
100
AcDbAlignedDimension
13
54
23
-1.5875
33
0
14
53.4051
24
-3.6375
34
0
50
0
100
AcDbRotatedDimension
1001
ACAD
1000
DSTYLE
1002
{
1070
   279
1070
     0
1070
   172
1070
     1
1070
   173
1070
     1
1070
   340
1005
F4
1070
   271
1070
     2
1070
   272
1070
     2
1070
    77
1070
     1
1070
    73
1070
     0
1070
   171
1070
     3
1070
   274
1070
     4
1070
   177
1070
    35
1070
   176
1070
    35
1070
   178
1070
    35
1070
    48
1040
-0.005
1070
    41
1041
3.5
1070
   147
1041
1.75
1070
    42
1041
1.5875
1070
    44
1041
2.0
1070
   140
1041
3.5
1070
   343
1005
0
1070
   344
1005
0
1002
}
0
DIMENSION
5
128
100
AcDbEntity
8
SK2
62
256
6
ByLayer
370
13
48
1
60
0
100
AcDbDimension
2
DimnDraft3D5
10
53.4051
20
-21.343428
30
0
11
6.665776
21
-21.343428
31
0
70
32
71
5
72
1
41
1
210
0
220
0
230
1
3
Standard
100
AcDbAlignedDimension
13
-36
23
-4.5875
33
0
14
53.4051
24
-3.6375
34
0
50
0
100
AcDbRotatedDimension
1001
ACAD
1000
DSTYLE
1002
{
1070
   279
1070
     0
1070
   172
1070
     1
1070
   173
1070
     1
1070
   340
1005
F4
1070
   271
1070
     2
1070
   272
1070
     2
1070
    77
1070
     1
1070
    73
1070
     0
1070
   171
1070
     3
1070
   274
1070
     4
1070
   177
1070
    35
1070
   176
1070
    35
1070
   178
1070
    35
1070
    48
1040
-0.005
1070
    41
1041
3.5
1070
   147
1041
1.75
1070
    42
1041
1.5875
1070
    44
1041
2.0
1070
   140
1041
3.5
1070
   343
1005
0
1070
   344
1005
0
1002
}
0
DIMENSION
5
133
100
AcDbEntity
8
SK2
62
256
6
ByLayer
370
13
48
1
60
0
100
AcDbDimension
2
DimnDraft3D6
10
-46.625163
20
3
30
0
11
-47.250163
21
21.47418
31
0
70
33
71
5
72
1
41
1
210
0
220
0
230
1
3
Standard
100
AcDbAlignedDimension
13
-37.5875
23
-3
33
0
14
-37.5875
24
3
34
0
1001
ACAD
1000
DSTYLE
1002
{
1070
   279
1070
     0
1070
    74
1070
     0
1070
   173
1070
     1
1070
   340
1005
F4
1070
   271
1070
     3
1070
   272
1070
     2
1070
    77
1070
     1
1070
    73
1070
     0
1070
   171
1070
     3
1070
   274
1070
     4
1070
   177
1070
    35
1070
   176
1070
    35
1070
   178
1070
    35
1070
    48
1040
-0.005
1070
    41
1041
3.5
1070
   147
1041
1.75
1070
    42
1041
1.5875
1070
    44
1041
2.0
1070
   140
1041
3.5
1070
   343
1005
0
1070
   344
1005
0
1002
}
0
DIMENSION
5
13E
100
AcDbEntity
8
2
62
256
6
ByLayer
370
13
48
1
60
0
100
AcDbDimension
2
DimnDraft3D7
10
68.083343
20
2.05
30
0
11
63.458343
21
19.117266
31
0
70
33
71
5
72
1
41
1
210
0
220
0
230
1
3
Standard
100
AcDbAlignedDimension
13
54.9926
23
-2.05
33
0
14
54.9926
24
2.05
34
0
1001
ACAD
1000
DSTYLE
1002
{
1070
   279
1070
     0
1070
    74
1070
     0
1070
   173
1070
     1
1070
   340
1005
F4
1070
   271
1070
     3
1070
   272
1070
     2
1070
    77
1070
     1
1070
    73
1070
     0
1070
   171
1070
     3
1070
   274
1070
     4
1070
   177
1070
    35
1070
   176
1070
    35
1070
   178
1070
    35
1070
    48
1040
-0.005
1070
    41
1041
3.5
1070
   147
1041
1.75
1070
    42
1041
1.5875
1070
    44
1041
2.0
1070
   140
1041
3.5
1070
   343
1005
0
1070
   344
1005
0
1002
}
0
ENDSEC
0
SECTION
2
OBJECTS
0
DICTIONARY
5
1a9
330
0
100
AcDbDictionary
280
0
281
1
3
ACAD_GROUP
350
1aa
3
ACAD_MLINESTYLE
350
1ab
0
DICTIONARY
5
1aa
330
0
100
AcDbDictionary
280
0
281
1
0
DICTIONARY
5
1ab
330
0
100
AcDbDictionary
280
0
281
1
3
Standard
350
18
0
MLINESTYLE
5
18
330
1ab
100
AcDbMlineStyle
2
Standard
70
0
3

62
256
51
90
52
90
71
2
49
-0.5
62
256
6
ByLayer
49
0.5
62
256
6
ByLayer
0
RASTERVARIABLES
5
197
330

100
AcDbRasterVariables
90
0
70
1
71
1
72
1
0
ENDSEC
0
EOF
