0
SECTION
2
HEADER
9
$ACADVER
1
AC1015
9
$DWGCODEPAGE
3
ANSI_1252
9
$HANDSEED
5
1b1
9
$ANGBASE
50
0
9
$ANGDIR
70
0
9
$ATTMODE
70
1
9
$AUNITS
70
0
9
$AUPREC
70
0
9
$CECOLOR
62
256
9
$CELTSCALE
40
1
9
$CELTYPE
6
ByLayer
9
$CELWEIGHT
370
18
9
$CLAYER
8
0
9
$CMLJUST
70
0
9
$CMLSCALE
40
1
9
$CMLSTYLE
2
Standard
9
$DIMSTYLE
2
Standard
9
$TEXTSIZE
40
0.2
9
$TEXTSTYLE
7
Standard
9
$LUNITS
70
2
9
$LUPREC
70
4
9
$EXTNAMES
290
1
9
$INSUNITS
70
4
9
$LTSCALE
40
1
9
$LWDISPLAY
290
1
9
$PDMODE
70
0
9
$PDSIZE
40
0
9
$PLINEGEN
70
0
0
ENDSEC
0
SECTION
2
CLASSES
0
CLASS
1
RASTERVARIABLES
2
AcDbRasterVariables
3
ISM
90
0
280
0
281
0
0
ENDSEC
0
SECTION
2
TABLES
0
TABLE
2
VPORT
5
1a7
100
AcDbSymbolTable
0
VPORT
5
1
100
AcDbSymbolTableRecord
100
AcDbViewportTableRecord
2
*Active
70
0
10
0
20
0
11
1
21
1
12
-1
22
1
13
0
23
0
14
0.5
24
0.5
15
10
25
10
16
0
26
0
36
1
17
0
27
0
37
0
0
ENDTAB
0
TABLE
2
LTYPE
5
1a8
100
AcDbSymbolTable
0
LTYPE
5
14
100
AcDbSymbolTableRecord
100
AcDbLinetypeTableRecord
70
0
2
ByBlock
3

72
65
73
0
40
0
0
LTYPE
5
15
100
AcDbSymbolTableRecord
100
AcDbLinetypeTableRecord
70
0
2
ByLayer
3

72
65
73
0
40
0
0
LTYPE
5
16
100
AcDbSymbolTableRecord
100
AcDbLinetypeTableRecord
70
0
2
CONTINUOUS
3
Solid line
72
65
73
0
40
0
0
LTYPE
5
6A
100
AcDbSymbolTableRecord
100
AcDbLinetypeTableRecord
70
0
2
CENTER
3
____ _ ____ _ ____ _ ____
72
65
73
4
40
47.5
49
22
74
0
49
-8.5
74
0
49
8.5
74
0
49
-8.5
74
0
0
LTYPE
5
6B
100
AcDbSymbolTableRecord
100
AcDbLinetypeTableRecord
70
0
2
DASHED
3
__ __ __ __ __ __ __ __ __
72
65
73
2
40
25.72
49
12.86
74
0
49
-12.86
74
0
0
ENDTAB
0
TABLE
2
LAYER
5
1a9
100
AcDbSymbolTable
0
LAYER
5
10
100
AcDbSymbolTableRecord
100
AcDbLayerTableRecord
2
0
70
0
62
7
6
CONTINUOUS
290
1
370
-3
390
0
0
LAYER
5
6D
100
AcDbSymbolTableRecord
100
AcDbLayerTableRecord
2
81
70
0
62
-3
6
CONTINUOUS
290
1
370
-3
390
0
0
LAYER
5
6F
100
AcDbSymbolTableRecord
100
AcDbLayerTableRecord
2
80
70
0
62
-6
6
CONTINUOUS
290
1
370
-3
390
0
0
LAYER
5
74
100
AcDbSymbolTableRecord
100
AcDbLayerTableRecord
2
2
70
0
62
7
6
CONTINUOUS
290
1
370
-3
390
0
0
LAYER
5
78
100
AcDbSymbolTableRecord
100
AcDbLayerTableRecord
2
1
70
0
62
4
6
CONTINUOUS
290
1
370
-3
390
0
0
LAYER
5
8E
100
AcDbSymbolTableRecord
100
AcDbLayerTableRecord
2
4
70
0
62
-2
6
CENTER
290
1
370
-3
390
0
0
LAYER
5
193
100
AcDbSymbolTableRecord
100
AcDbLayerTableRecord
2
SK2
70
0
62
7
6
CONTINUOUS
290
1
370
-3
390
0
0
LAYER
5
194
100
AcDbSymbolTableRecord
100
AcDbLayerTableRecord
2
SK1
70
0
62
4
6
CONTINUOUS
290
1
370
-3
390
0
0
LAYER
5
195
100
AcDbSymbolTableRecord
100
AcDbLayerTableRecord
2
SK4
70
0
62
2
6
CENTER
290
1
370
-3
390
0
0
LAYER
5
196
100
AcDbSymbolTableRecord
100
AcDbLayerTableRecord
2
SK6
70
0
62
5
6
CONTINUOUS
290
1
370
-3
390
0
0
ENDTAB
0
TABLE
2
STYLE
5
1aa
100
AcDbSymbolTable
0
STYLE
5
11
100
AcDbSymbolTableRecord
100
AcDbTextStyleTableRecord
2
Standard
3
txt
70
0
71
0
40
0
41
1
42
0
50
0
0
STYLE
5
EF
100
AcDbSymbolTableRecord
100
AcDbTextStyleTableRecord
2
iso_b_vert
3
simplex.shx
70
0
71
0
40
0
41
1
42
0
50
0
0
STYLE
5
F0
100
AcDbSymbolTableRecord
100
AcDbTextStyleTableRecord
2
DWGDirectTextStyle
3
simplex
70
0
71
0
40
0
41
1
42
0
50
0
0
ENDTAB
0
TABLE
2
DIMSTYLE
5
1ab
100
AcDbSymbolTable
100
AcDbDimStyleTable
0
DIMSTYLE
105
27
100
AcDbSymbolTableRecord
100
AcDbDimStyleTableRecord
2
Standard
70
0
3
<>
41
0.18
42
0.0625
44
0.18
140
0.18
147
0.09
73
0
74
0
77
1
271
2
275
0
278
52
280
0
340
11
0
ENDTAB
0
TABLE
2
VIEW
5
1ac
100
AcDbSymbolTable
0
ENDTAB
0
TABLE
2
UCS
5
1ad
100
AcDbSymbolTable
0
ENDTAB
0
TABLE
2
APPID
5
1ae
100
AcDbSymbolTable
0
APPID
5
12
100
AcDbSymbolTableRecord
100
AcDbRegAppTableRecord
2
ACAD
70
0
0
ENDTAB
0
TABLE
2
BLOCK_RECORD
5
1af
100
AcDbSymbolTable
0
BLOCK_RECORD
5
1F
100
AcDbSymbolTableRecord
100
AcDbBlockTableRecord
2
*Model_Space
340
0
70
0
0
BLOCK_RECORD
5
1B
100
AcDbSymbolTableRecord
100
AcDbBlockTableRecord
2
*Paper_Space
340
0
70
0
0
BLOCK_RECORD
5
23
100
AcDbSymbolTableRecord
100
AcDbBlockTableRecord
2
*Paper_Space0
340
0
70
0
0
BLOCK_RECORD
5
F2
100
AcDbSymbolTableRecord
100
AcDbBlockTableRecord
2
DimnDraft3D1
340
0
70
0
0
BLOCK_RECORD
5
FC
100
AcDbSymbolTableRecord
100
AcDbBlockTableRecord
2
DimnDraft3D2
340
0
70
0
0
BLOCK_RECORD
5
106
100
AcDbSymbolTableRecord
100
AcDbBlockTableRecord
2
DimnDraft3D3
340
0
70
0
0
BLOCK_RECORD
5
110
100
AcDbSymbolTableRecord
100
AcDbBlockTableRecord
2
DimnDraft3D4
340
0
70
0
0
BLOCK_RECORD
5
11A
100
AcDbSymbolTableRecord
100
AcDbBlockTableRecord
2
DimnDraft3D5
340
0
70
0
0
BLOCK_RECORD
5
124
100
AcDbSymbolTableRecord
100
AcDbBlockTableRecord
2
DimnDraft3D6
340
0
70
0
0
BLOCK_RECORD
5
12F
100
AcDbSymbolTableRecord
100
AcDbBlockTableRecord
2
DimnDraft3D7
340
0
70
0
0
ENDTAB
0
ENDSEC
0
SECTION
2
BLOCKS
0
BLOCK
5
20
100
AcDbEntity
8
0
100
AcDbBlockBegin
2
*Model_Space
70
0
10
0
20
0
30
0
3
*Model_Space
0
ENDBLK
5
21
100
AcDbEntity
8
0
100
AcDbBlockEnd
0
BLOCK
5
1C
100
AcDbEntity
8
0
100
AcDbBlockBegin
2
*Paper_Space
70
0
10
0
20
0
30
0
3
*Paper_Space
0
ENDBLK
5
1D
100
AcDbEntity
8
0
100
AcDbBlockEnd
0
BLOCK
5
24
100
AcDbEntity
8
0
100
AcDbBlockBegin
2
*Paper_Space0
70
0
10
0
20
0
30
0
3
*Paper_Space0
0
ENDBLK
5
25
100
AcDbEntity
8
0
100
AcDbBlockEnd
0
BLOCK
5
F9
100
AcDbEntity
8
0
100
AcDbBlockBegin
2
DimnDraft3D1
70
0
10
0
20
0
30
0
3
DimnDraft3D1
0
MTEXT
5
F3
100
AcDbEntity
8
SK2
62
256
6
ByLayer
370
13
48
1
60
0
100
AcDbMText
10
21.037364
20
-11.338398
30
0
210
0
220
0
230
1
1
\W0.7581;53,42
40
3.5
41
0
44
1.084337
50
0
71
7
72
5
7
iso_b_vert
0
LINE
5
F4
100
AcDbEntity
8
SK2
62
256
6
ByLayer
370
13
48
1
60
0
100
AcDbLine
10
0
20
-1.5875
30
0
11
0
21
-14.213398
31
0
39
0
210
0
220
0
230
1
0
LINE
5
F5
100
AcDbEntity
8
SK2
62
256
6
ByLayer
370
13
48
1
60
0
100
AcDbLine
10
53.4202
20
-3.5875
30
0
11
53.4202
21
-14.213398
31
0
39
0
210
0
220
0
230
1
0
LINE
5
F6
100
AcDbEntity
8
SK2
62
256
6
ByLayer
370
13
48
1
60
0
100
AcDbLine
10
0
20
-12.213398
30
0
11
53.4202
21
-12.213398
31
0
39
0
210
0
220
0
230
1
0
SOLID
5
F7
100
AcDbEntity
8
SK2
62
256
6
ByLayer
370
13
48
1
60
0
100
AcDbTrace
10
0
20
-12.213398
30
0
11
3.499998
21
-11.752615
31
0
12
3.500002
22
-12.674182
32
0
13
0
23
-12.213398
33
0
39
0
210
0
220
0
230
1
0
SOLID
5
F8
100
AcDbEntity
8
SK2
62
256
6
ByLayer
370
13
48
1
60
0
100
AcDbTrace
10
53.4202
20
-12.213398
30
0
11
49.920202
21
-12.674182
31
0
12
49.920198
22
-11.752615
32
0
13
53.4202
23
-12.213398
33
0
39
0
210
0
220
0
230
1
0
ENDBLK
5
FA
100
AcDbEntity
8
0
100
AcDbBlockEnd
0
BLOCK
5
103
100
AcDbEntity
8
0
100
AcDbBlockBegin
2
DimnDraft3D2
70
0
10
0
20
0
30
0
3
DimnDraft3D2
0
MTEXT
5
FD
100
AcDbEntity
8
SK2
62
256
6
ByLayer
370
13
48
1
60
0
100
AcDbMText
10
5.312816
20
-30.817985
30
0
210
0
220
0
230
1
1
\W0.7317;90,00
40
3.5
41
0
44
1.084337
50
0
71
7
72
5
7
iso_b_vert
0
LINE
5
FE
100
AcDbEntity
8
SK2
62
256
6
ByLayer
370
13
48
1
60
0
100
AcDbLine
10
-36
20
-4.5875
30
0
11
-36
21
-33.692985
31
0
39
0
210
0
220
0
230
1
0
LINE
5
FF
100
AcDbEntity
8
SK2
62
256
6
ByLayer
370
13
48
1
60
0
100
AcDbLine
10
54
20
-1.5875
30
0
11
54
21
-33.692985
31
0
39
0
210
0
220
0
230
1
0
LINE
5
100
100
AcDbEntity
8
SK2
62
256
6
ByLayer
370
13
48
1
60
0
100
AcDbLine
10
-36
20
-31.692985
30
0
11
54
21
-31.692985
31
0
39
0
210
0
220
0
230
1
0
SOLID
5
101
100
AcDbEntity
8
SK2
62
256
6
ByLayer
370
13
48
1
60
0
100
AcDbTrace
10
-36
20
-31.692985
30
0
11
-32.500002
21
-31.232202
31
0
12
-32.499998
22
-32.153769
32
0
13
-36
23
-31.692985
33
0
39
0
210
0
220
0
230
1
0
SOLID
5
102
100
AcDbEntity
8
SK2
62
256
6
ByLayer
370
13
48
1
60
0
100
AcDbTrace
10
54
20
-31.692985
30
0
11
50.500002
21
-32.153769
31
0
12
50.499998
22
-31.232202
32
0
13
54
23
-31.692985
33
0
39
0
210
0
220
0
230
1
0
ENDBLK
5
104
100
AcDbEntity
8
0
100
AcDbBlockEnd
0
BLOCK
5
10D
100
AcDbEntity
8
0
100
AcDbBlockBegin
2
DimnDraft3D3
70
0
10
0
20
0
30
0
3
DimnDraft3D3
0
MTEXT
5
107
100
AcDbEntity
8
SK2
62
256
6
ByLayer
370
13
48
1
60
0
100
AcDbMText
10
33.266316
20
14.484119
30
0
210
0
220
0
230
1
1
\W0.7317;32,57
40
3.5
41
0
44
1.084337
50
0
71
7
72
5
7
iso_b_vert
0
LINE
5
108
100
AcDbEntity
8
SK2
62
256
6
ByLayer
370
13
48
1
60
0
100
AcDbLine
10
21.43
20
3.5875
30
0
11
21.43
21
15.609119
31
0
39
0
210
0
220
0
230
1
0
LINE
5
109
100
AcDbEntity
8
SK2
62
256
6
ByLayer
370
13
48
1
60
0
100
AcDbLine
10
54
20
1.5875
30
0
11
54
21
15.609119
31
0
39
0
210
0
220
0
230
1
0
LINE
5
10A
100
AcDbEntity
8
SK2
62
256
6
ByLayer
370
13
48
1
60
0
100
AcDbLine
10
21.43
20
13.609119
30
0
11
54
21
13.609119
31
0
39
0
210
0
220
0
230
1
0
SOLID
5
10B
100
AcDbEntity
8
SK2
62
256
6
ByLayer
370
13
48
1
60
0
100
AcDbTrace
10
21.43
20
13.609119
30
0
11
24.929998
21
14.069903
31
0
12
24.930002
22
13.148335
32
0
13
21.43
23
13.609119
33
0
39
0
210
0
220
0
230
1
0
SOLID
5
10C
100
AcDbEntity
8
SK2
62
256
6
ByLayer
370
13
48
1
60
0
100
AcDbTrace
10
54
20
13.609119
30
0
11
50.500002
21
13.148335
31
0
12
50.499998
22
14.069903
32
0
13
54
23
13.609119
33
0
39
0
210
0
220
0
230
1
0
ENDBLK
5
10E
100
AcDbEntity
8
0
100
AcDbBlockEnd
0
BLOCK
5
117
100
AcDbEntity
8
0
100
AcDbBlockBegin
2
DimnDraft3D4
70
0
10
0
20
0
30
0
3
DimnDraft3D4
0
MTEXT
5
111
100
AcDbEntity
8
SK2
62
256
6
ByLayer
370
13
48
1
60
0
100
AcDbMText
10
60.840636
20
-13.927503
30
0
210
0
220
0
230
1
1
\W0.7150;0,58
40
3.5
41
0
44
1.084337
50
0
71
7
72
5
7
iso_b_vert
0
LINE
5
112
100
AcDbEntity
8
SK2
62
256
6
ByLayer
370
13
48
1
60
0
100
AcDbLine
10
54
20
-1.5875
30
0
11
54
21
-16.802503
31
0
39
0
210
0
220
0
230
1
0
LINE
5
113
100
AcDbEntity
8
SK2
62
256
6
ByLayer
370
13
48
1
60
0
100
AcDbLine
10
53.4202
20
-3.5875
30
0
11
53.4202
21
-16.802503
31
0
39
0
210
0
220
0
230
1
0
LINE
5
114
100
AcDbEntity
8
SK2
62
256
6
ByLayer
370
13
48
1
60
0
100
AcDbLine
10
44.6702
20
-14.802503
30
0
11
67.997215
21
-14.802503
31
0
39
0
210
0
220
0
230
1
0
SOLID
5
115
100
AcDbEntity
8
SK2
62
256
6
ByLayer
370
13
48
1
60
0
100
AcDbTrace
10
54
20
-14.802503
30
0
11
57.499998
21
-14.341719
31
0
12
57.500002
22
-15.263287
32
0
13
54
23
-14.802503
33
0
39
0
210
0
220
0
230
1
0
SOLID
5
116
100
AcDbEntity
8
SK2
62
256
6
ByLayer
370
13
48
1
60
0
100
AcDbTrace
10
53.4202
20
-14.802503
30
0
11
49.920202
21
-15.263287
31
0
12
49.920198
22
-14.341719
32
0
13
53.4202
23
-14.802503
33
0
39
0
210
0
220
0
230
1
0
ENDBLK
5
118
100
AcDbEntity
8
0
100
AcDbBlockEnd
0
BLOCK
5
121
100
AcDbEntity
8
0
100
AcDbBlockBegin
2
DimnDraft3D5
70
0
10
0
20
0
30
0
3
DimnDraft3D5
0
MTEXT
5
11B
100
AcDbEntity
8
SK2
62
256
6
ByLayer
370
13
48
1
60
0
100
AcDbMText
10
2.047982
20
-20.468428
30
0
210
0
220
0
230
1
1
\W0.7581;89,42
40
3.5
41
0
44
1.084337
50
0
71
7
72
5
7
iso_b_vert
0
LINE
5
11C
100
AcDbEntity
8
SK2
62
256
6
ByLayer
370
13
48
1
60
0
100
AcDbLine
10
-36
20
-4.5875
30
0
11
-36
21
-23.343428
31
0
39
0
210
0
220
0
230
1
0
LINE
5
11D
100
AcDbEntity
8
SK2
62
256
6
ByLayer
370
13
48
1
60
0
100
AcDbLine
10
53.4202
20
-3.5875
30
0
11
53.4202
21
-23.343428
31
0
39
0
210
0
220
0
230
1
0
LINE
5
11E
100
AcDbEntity
8
SK2
62
256
6
ByLayer
370
13
48
1
60
0
100
AcDbLine
10
-36
20
-21.343428
30
0
11
53.4202
21
-21.343428
31
0
39
0
210
0
220
0
230
1
0
SOLID
5
11F
100
AcDbEntity
8
SK2
62
256
6
ByLayer
370
13
48
1
60
0
100
AcDbTrace
10
-36
20
-21.343428
30
0
11
-32.500002
21
-20.882645
31
0
12
-32.499998
22
-21.804212
32
0
13
-36
23
-21.343428
33
0
39
0
210
0
220
0
230
1
0
SOLID
5
120
100
AcDbEntity
8
SK2
62
256
6
ByLayer
370
13
48
1
60
0
100
AcDbTrace
10
53.4202
20
-21.343428
30
0
11
49.920202
21
-21.804212
31
0
12
49.920198
22
-20.882645
32
0
13
53.4202
23
-21.343428
33
0
39
0
210
0
220
0
230
1
0
ENDBLK
5
122
100
AcDbEntity
8
0
100
AcDbBlockEnd
0
BLOCK
5
12C
100
AcDbEntity
8
0
100
AcDbBlockBegin
2
DimnDraft3D6
70
0
10
0
20
0
30
0
3
DimnDraft3D6
0
MTEXT
5
125
100
AcDbEntity
8
SK2
62
256
6
ByLayer
370
13
48
1
60
0
100
AcDbMText
10
-46.375163
20
22.34918
30
0
210
0
220
0
230
1
1
\W0.7317;6,000
40
3.5
41
0
44
1.084337
50
90
71
7
72
5
7
iso_b_vert
0
MTEXT
5
126
100
AcDbEntity
8
SK2
62
256
6
ByLayer
370
13
48
1
60
0
100
AcDbMText
10
-46.375163
20
17.126524
30
0
210
0
220
0
230
1
1
%%c
40
3.5
41
0
44
1.084337
50
90
71
7
72
5
7
iso_b_vert
0
LINE
5
127
100
AcDbEntity
8
SK2
62
256
6
ByLayer
370
13
48
1
60
0
100
AcDbLine
10
-37.5875
20
-3
30
0
11
-46.625163
21
-3
31
0
39
0
210
0
220
0
230
1
0
LINE
5
128
100
AcDbEntity
8
SK2
62
256
6
ByLayer
370
13
48
1
60
0
100
AcDbLine
10
-37.5875
20
3
30
0
11
-46.625163
21
3
31
0
39
0
210
0
220
0
230
1
0
LINE
5
129
100
AcDbEntity
8
SK2
62
256
6
ByLayer
370
13
48
1
60
0
100
AcDbLine
10
-44.625163
20
32.121549
30
0
11
-44.625163
21
-11.75
31
0
39
0
210
0
220
0
230
1
0
SOLID
5
12A
100
AcDbEntity
8
SK2
62
256
6
ByLayer
370
13
48
1
60
0
100
AcDbTrace
10
-44.625163
20
-3
30
0
11
-44.164379
21
-6.499998
31
0
12
-45.085946
22
-6.500002
32
0
13
-44.625163
23
-3
33
0
39
0
210
0
220
0
230
1
0
SOLID
5
12B
100
AcDbEntity
8
SK2
62
256
6
ByLayer
370
13
48
1
60
0
100
AcDbTrace
10
-44.625163
20
3
30
0
11
-45.085946
21
6.499998
31
0
12
-44.164379
22
6.500002
32
0
13
-44.625163
23
3
33
0
39
0
210
0
220
0
230
1
0
ENDBLK
5
12D
100
AcDbEntity
8
0
100
AcDbBlockEnd
0
BLOCK
5
137
100
AcDbEntity
8
0
100
AcDbBlockBegin
2
DimnDraft3D7
70
0
10
0
20
0
30
0
3
DimnDraft3D7
0
MTEXT
5
130
100
AcDbEntity
8
2
62
256
6
ByLayer
370
13
48
1
60
0
100
AcDbMText
10
64.333343
20
19.942266
30
0
210
0
220
0
230
1
1
\W0.7581;4,000
40
3.5
41
0
44
1.084337
50
90
71
7
72
5
7
iso_b_vert
0
MTEXT
5
131
100
AcDbEntity
8
2
62
256
6
ByLayer
370
13
48
1
60
0
100
AcDbMText
10
64.333343
20
14.71961
30
0
210
0
220
0
230
1
1
%%c
40
3.5
41
0
44
1.084337
50
90
71
7
72
5
7
iso_b_vert
0
LINE
5
132
100
AcDbEntity
8
2
62
256
6
ByLayer
370
13
48
1
60
0
100
AcDbLine
10
55.0077
20
-2
30
0
11
68.083343
21
-2
31
0
39
0
210
0
220
0
230
1
0
LINE
5
133
100
AcDbEntity
8
2
62
256
6
ByLayer
370
13
48
1
60
0
100
AcDbLine
10
55.0077
20
2
30
0
11
68.083343
21
2
31
0
39
0
210
0
220
0
230
1
0
LINE
5
134
100
AcDbEntity
8
2
62
256
6
ByLayer
370
13
48
1
60
0
100
AcDbLine
10
66.083343
20
30.083056
30
0
11
66.083343
21
-10.75
31
0
39
0
210
0
220
0
230
1
0
SOLID
5
135
100
AcDbEntity
8
2
62
256
6
ByLayer
370
13
48
1
60
0
100
AcDbTrace
10
66.083343
20
-2
30
0
11
66.544126
21
-5.499998
31
0
12
65.622559
22
-5.500002
32
0
13
66.083343
23
-2
33
0
39
0
210
0
220
0
230
1
0
SOLID
5
136
100
AcDbEntity
8
2
62
256
6
ByLayer
370
13
48
1
60
0
100
AcDbTrace
10
66.083343
20
2
30
0
11
65.622559
21
5.499998
31
0
12
66.544126
22
5.500002
32
0
13
66.083343
23
2
33
0
39
0
210
0
220
0
230
1
0
ENDBLK
5
138
100
AcDbEntity
8
0
100
AcDbBlockEnd
0
ENDSEC
0
SECTION
2
ENTITIES
0
ELLIPSE
5
9C
100
AcDbEntity
8
1
62
256
6
ByLayer
370
13
48
1
60
0
100
AcDbEllipse
10
7.616297
20
-1.947773
30
0
11
0.00858619412590357
21
0.0996307044561681
31
0
210
0
220
0
230
1
40
0.47581
41
0.177120586217205
42
1.70895703779263
0
ELLIPSE
5
9D
100
AcDbEntity
8
1
62
256
6
ByLayer
370
13
48
1
60
0
100
AcDbEllipse
10
7.543405
20
-1.959837
30
0
11
-0.0412922934277338
21
0.0910765969032546
31
0
210
0
220
0
230
1
40
0.491187
41
0.176230800425368
42
1.28483804552602
0
POINT
5
6C
100
AcDbEntity
8
81
62
256
6
ByLayer
370
18
48
1
60
0
100
AcDbPoint
10
54
20
0
30
0
39
0
210
0
220
0
230
1
50
360
0
POINT
5
6E
100
AcDbEntity
8
80
62
256
6
ByLayer
370
18
48
1
60
0
100
AcDbPoint
10
0
20
0
30
0
39
0
210
0
220
0
230
1
50
360
0
POINT
5
70
100
AcDbEntity
8
SK2
62
256
6
ByLayer
370
18
48
1
60
1
100
AcDbPoint
10
-36
20
-3
30
0
39
0
210
0
220
0
230
1
50
360
0
POINT
5
72
100
AcDbEntity
8
SK2
62
256
6
ByLayer
370
18
48
1
60
1
100
AcDbPoint
10
-36
20
3
30
0
39
0
210
0
220
0
230
1
50
360
0
POINT
5
73
100
AcDbEntity
8
2
62
256
6
ByLayer
370
18
48
1
60
1
100
AcDbPoint
10
53.4202
20
-2
30
0
39
0
210
0
220
0
230
1
50
360
0
POINT
5
75
100
AcDbEntity
8
2
62
256
6
ByLayer
370
18
48
1
60
1
100
AcDbPoint
10
53.4202
20
2
30
0
39
0
210
0
220
0
230
1
50
360
0
SPLINE
5
9E
100
AcDbEntity
8
1
62
256
6
ByLayer
370
18
48
1
60
0
100
AcDbSpline
70
4
71
3
72
13
73
9
40
0
40
0
40
0
40
0
40
0.253687482973717
40
0.446929866565181
40
0.603891918429369
40
0.720551391596216
40
0.866783420388446
40
1
40
1
40
1
40
1
41
1
10
11.5028772369518
20
1.87346109730186
30
0
41
1
10
11.2969697084386
20
1.87298031188754
30
0
41
1
10
10.9341121534438
20
1.87244813086136
30
0
41
1
10
10.4430906161795
20
1.87219907244054
30
0
41
1
10
10.0640128015874
20
1.87285201487165
30
0
41
1
10
9.722686834309
20
1.87281381386578
30
0
41
1
10
9.40089040431306
20
1.87228083807261
30
0
41
1
10
9.17376277599658
20
1.87217058094873
30
0
41
1
10
9.06549167165954
20
1.87213748063118
30
0
0
SPLINE
5
9F
100
AcDbEntity
8
1
62
256
6
ByLayer
370
18
48
1
60
0
100
AcDbSpline
70
4
71
3
72
14
73
10
40
0
40
0
40
0
40
0
40
0.21083415991203
40
0.367650691549358
40
0.473928867509607
40
0.558713715497936
40
0.672780816267729
40
0.813880700678581
40
1
40
1
40
1
40
1
41
1
10
8.15732453917289
20
-1.87193729738556
30
0
41
1
10
8.39290239208577
20
-1.87194047784632
30
0
41
1
10
8.80377365460203
20
-1.8720710197955
30
0
41
1
10
9.33388757425624
20
-1.87213710864773
30
0
41
1
10
9.72271661508307
20
-1.87280508006245
30
0
41
1
10
10.0640234416761
20
-1.87285047028092
30
0
41
1
10
10.4438806047049
20
-1.87220638977402
30
0
41
1
10
10.9375508408012
20
-1.87247199069213
30
0
41
1
10
11.3031238526553
20
-1.87298819707576
30
0
41
1
10
11.5110018859971
20
-1.87345609051943
30
0
0
SPLINE
5
A0
100
AcDbEntity
8
1
62
256
6
ByLayer
370
18
48
1
60
0
100
AcDbSpline
70
4
71
3
72
14
73
10
40
0
40
0
40
0
40
0
40
0.237113621361144
40
0.42702283716903
40
0.569863216322235
40
0.66589703597918
40
0.768169166386258
40
0.923701172714844
40
1
40
1
40
1
40
1
41
1
10
22.7605404784892
20
1.87983367361289
30
0
41
1
10
22.5703582156428
20
1.88071535121202
30
0
41
1
10
22.2278532843822
20
1.88167932021088
30
0
41
1
10
21.7707897834163
20
1.87859895829149
30
0
41
1
10
21.426858877279
20
1.87918244698702
30
0
41
1
10
21.1532056145608
20
1.87974901846155
30
0
41
1
10
20.8696728616037
20
1.88018131270746
30
0
41
1
10
20.6017939643415
20
1.87930104279295
30
0
41
1
10
20.4158469098125
20
1.87905560569334
30
0
41
1
10
20.354646539353
20
1.87899949980422
30
0
0
SPLINE
5
A1
100
AcDbEntity
8
1
62
256
6
ByLayer
370
18
48
1
60
0
100
AcDbSpline
70
4
71
3
72
14
73
10
40
0
40
0
40
0
40
0
40
0.221793295811838
40
0.377546545117836
40
0.491409370723618
40
0.576348573110961
40
0.677780112431099
40
0.823599556596597
40
1
40
1
40
1
40
1
41
1
10
30.6543879435698
20
-1.88570901947247
30
0
41
1
10
30.8988235343903
20
-1.88588895573946
30
0
41
1
10
31.314949278744
20
-1.88611418717159
30
0
41
1
10
31.8569105462152
20
-1.88639383578172
30
0
41
1
10
32.2476600709634
20
-1.88629561213108
30
0
41
1
10
32.5786229820875
20
-1.88706434250216
30
0
41
1
10
32.9449339341342
20
-1.88673790381071
30
0
41
1
10
33.41209148028
20
-1.88663219575514
30
0
41
1
10
33.7673905995816
20
-1.8873929689891
30
0
41
1
10
33.9618973721956
20
-1.88801176448413
30
0
0
SPLINE
5
A2
100
AcDbEntity
8
1
62
256
6
ByLayer
370
18
48
1
60
0
100
AcDbSpline
70
4
71
1
72
4
73
2
40
0
40
0
40
1
40
1
41
1
10
53.0073689001864
20
-1.89828592768879
30
0
41
1
10
53.285608970572
20
-1.89872026029369
30
0
0
SPLINE
5
A3
100
AcDbEntity
8
1
62
256
6
ByLayer
370
18
48
1
60
0
100
AcDbSpline
70
4
71
3
72
13
73
9
40
0
40
0
40
0
40
0
40
0.252776626285887
40
0.436766393227049
40
0.581534815997106
40
0.690348637410522
40
0.822046706866657
40
1
40
1
40
1
40
1
41
1
10
45.213562503821
20
1.8939560393768
30
0
41
1
10
45.0052064153795
20
1.89391501393001
30
0
41
1
10
44.6451374010747
20
1.89390717775549
30
0
41
1
10
44.165310213405
20
1.89414460473452
30
0
41
1
10
43.8045755644147
20
1.89426718668884
30
0
41
1
10
43.4867153610815
20
1.89310678316775
30
0
41
1
10
43.1415705620469
20
1.89313150769939
30
0
41
1
10
42.8861408399
20
1.89332241504908
30
0
41
1
10
42.7393566935025
20
1.89336969209788
30
0
0
SPLINE
5
A4
100
AcDbEntity
8
1
62
256
6
ByLayer
370
18
48
1
60
0
100
AcDbSpline
70
4
71
3
72
14
73
10
40
0
40
0
40
0
40
0
40
0.189997046411222
40
0.333583019700395
40
0.431127675127129
40
0.501929721740248
40
0.628135209878186
40
0.794076913851804
40
1
40
1
40
1
40
1
41
1
10
19.4037351635975
20
-1.87879856203889
30
0
41
1
10
19.6157329801404
20
-1.87874415915121
30
0
41
1
10
19.9879854918052
20
-1.87888746099776
30
0
41
1
10
20.4693034096892
20
-1.87889891373706
30
0
41
1
10
20.8174572165123
20
-1.88006018812672
30
0
41
1
10
21.146275865577
20
-1.87987211441941
30
0
41
1
10
21.5514295291864
20
-1.87847057456534
30
0
41
1
10
22.1074266085143
20
-1.88107600447708
30
0
41
1
10
22.5225120948745
20
-1.88038737282648
30
0
41
1
10
22.7523639496127
20
-1.87985479117805
30
0
0
SPLINE
5
A5
100
AcDbEntity
8
1
62
256
6
ByLayer
370
18
48
1
60
0
100
AcDbSpline
70
4
71
3
72
15
73
11
40
0
40
0
40
0
40
0
40
0.221877754765064
40
0.380081563437622
40
0.450547318206581
40
0.504515403934153
40
0.558236247806508
40
0.66532915201406
40
0.800717015971263
40
1
40
1
40
1
40
1
41
1
10
41.9053531469117
20
-1.89285207679833
30
0
41
1
10
42.152951911994
20
-1.89319851126095
30
0
41
1
10
42.5771183636733
20
-1.89355655933156
30
0
41
1
10
43.0800623129031
20
-1.8931927136054
30
0
41
1
10
43.3955069722953
20
-1.89306538535919
30
0
41
1
10
43.5943807900857
20
-1.89352736415239
30
0
41
1
10
43.8341441715574
20
-1.89425056277079
30
0
41
1
10
44.1645617975404
20
-1.89413944181976
30
0
41
1
10
44.6578168176785
20
-1.89389238022014
30
0
41
1
10
45.0311461199692
20
-1.89390139265532
30
0
41
1
10
45.2534094106232
20
-1.89394759963744
30
0
0
SPLINE
5
A6
100
AcDbEntity
8
1
62
256
6
ByLayer
370
18
48
1
60
0
100
AcDbSpline
70
4
71
3
72
12
73
8
40
0
40
0
40
0
40
0
40
0.325801198648467
40
0.545954928357324
40
0.699231656032431
40
0.852236813017863
40
1
40
1
40
1
40
1
41
1
10
34.0008342768441
20
1.88808727450217
30
0
41
1
10
33.7334842116995
20
1.88734073399948
30
0
41
1
10
33.2854868594913
20
1.88638511247038
30
0
41
1
10
32.7116412449962
20
1.88719735077018
30
0
41
1
10
32.2797348341449
20
1.88634462995381
30
0
41
1
10
31.9073470997879
20
1.88636846574204
30
0
41
1
10
31.6605209792865
20
1.88627720454585
30
0
41
1
10
31.5392639941283
20
1.88622213925055
30
0
0
SPLINE
5
A7
100
AcDbEntity
8
1
62
256
6
ByLayer
370
18
48
1
60
0
100
AcDbSpline
70
4
71
3
72
8
73
4
40
0
40
0
40
0
40
0
40
1
40
1
40
1
40
1
41
1
10
13.7897367372739
20
-0.432067632411901
30
0
41
1
10
13.7764934481176
20
-0.424569565376601
30
0
41
1
10
13.7636394783811
20
-0.416846236877149
30
0
41
1
10
13.7511927522185
20
-0.408890737660329
30
0
0
SPLINE
5
A8
100
AcDbEntity
8
1
62
256
6
ByLayer
370
18
48
1
60
0
100
AcDbSpline
70
4
71
1
72
4
73
2
40
0
40
0
40
1
40
1
41
1
10
49.8984427715906
20
0.485788295093983
30
0
41
1
10
49.9349590691089
20
0.471174522896376
30
0
0
SPLINE
5
A9
100
AcDbEntity
8
1
62
256
6
ByLayer
370
18
48
1
60
0
100
AcDbSpline
70
4
71
3
72
33
73
29
40
0
40
0
40
0
40
0
40
0.124999999999987
40
0.124999999999987
40
0.249999999999973
40
0.249999999999973
40
0.37499999999996
40
0.37499999999996
40
0.437499999999959
40
0.437499999999959
40
0.499999999999959
40
0.499999999999959
40
0.624999999999958
40
0.624999999999958
40
0.749999999999957
40
0.749999999999957
40
0.781249999999957
40
0.79687499999996
40
0.79687499999996
40
0.812499999999963
40
0.812499999999963
40
0.828124999999966
40
0.828124999999966
40
0.843749999999969
40
0.843749999999969
40
0.874999999999975
40
0.874999999999975
40
1
40
1
40
1
40
1
41
1
10
51.9908267278325
20
-0.60308538096001
30
0
41
1
10
52.0702924878361
20
-0.614174549306142
30
0
41
1
10
52.1492728363905
20
-0.620134630713665
30
0
41
1
10
52.3060527577408
20
-0.619578158437236
30
0
41
1
10
52.384300967526
20
-0.613056598703338
30
0
41
1
10
52.5373054050852
20
-0.583875176671881
30
0
41
1
10
52.6103632199342
20
-0.561110752105151
30
0
41
1
10
52.7141004439058
20
-0.513083012893446
30
0
41
1
10
52.7477756115303
20
-0.494928757567607
30
0
41
1
10
52.8132468795613
20
-0.454161142382446
30
0
41
1
10
52.8451500932679
20
-0.431433705167024
30
0
41
1
10
52.9360708270542
20
-0.357961111999231
30
0
41
1
10
52.9909196452382
20
-0.301623102643077
30
0
41
1
10
53.0903518555565
20
-0.175848159834146
30
0
41
1
10
53.1351031820191
20
-0.106012609721915
30
0
41
1
10
53.1846124038088
20
-0.0133557354310767
30
0
41
1
10
53.1990005249025
20
0.0148554246140407
30
0
41
1
10
53.2127332168292
20
0.0436507112269737
30
0
41
1
10
53.2217470304258
20
0.062973510067053
30
0
41
1
10
53.2265105398765
20
0.0724747308029805
30
0
41
1
10
53.2344816901689
20
0.0925563685044324
30
0
41
1
10
53.2362474989591
20
0.104088820274654
30
0
41
1
10
53.2356930226964
20
0.127940850058195
30
0
41
1
10
53.2336133081674
20
0.140169783400523
30
0
41
1
10
53.2251981545163
20
0.176640836848151
30
0
41
1
10
53.2191268407693
20
0.20090627291259
30
0
41
1
10
53.1905100272
20
0.322416777767216
30
0
41
1
10
53.1683441736534
20
0.419697992346386
30
0
41
1
10
53.1466991206655
20
0.517017215300172
30
0
0
SPLINE
5
AA
100
AcDbEntity
8
1
62
256
6
ByLayer
370
18
48
1
60
0
100
AcDbSpline
70
4
71
3
72
8
73
4
40
0
40
0
40
0
40
0
40
1
40
1
40
1
40
1
41
1
10
53.2865485696764
20
1.99192936106741
30
0
41
1
10
53.1792300284008
20
1.99724251950843
30
0
41
1
10
53.0720547983842
20
1.99985052950083
30
0
41
1
10
52.9649329423699
20
1.99976902672003
30
0
0
SPLINE
5
AB
100
AcDbEntity
8
1
62
256
6
ByLayer
370
18
48
1
60
0
100
AcDbSpline
70
4
71
3
72
44
73
40
40
0
40
0
40
0
40
0
40
0.0704793477526338
40
0.0704793477526338
40
0.0996033183496586
40
0.0996033183496586
40
0.128727288946683
40
0.128727288946683
40
0.186975230140733
40
0.186975230140733
40
0.245223171334783
40
0.245223171334783
40
0.274347141931807
40
0.274347141931807
40
0.30347111252883
40
0.30347111252883
40
0.419966994916927
40
0.419966994916927
40
0.478214936110975
40
0.478214936110975
40
0.507338906708
40
0.507338906708
40
0.536462877305024
40
0.536462877305024
40
0.652958759693118
40
0.652958759693118
40
0.682082730290142
40
0.682082730290142
40
0.711206700887165
40
0.711206700887165
40
0.769454642081215
40
0.769454642081215
40
0.885950524469314
40
0.885950524469314
40
0.915074495066337
40
0.915074495066337
40
0.94419846566336
40
0.94419846566336
40
1
40
1
40
1
40
1
41
1
10
42.7286859094239
20
-1.91420691267268
30
0
41
1
10
42.4419048379453
20
-1.95855979215824
30
0
41
1
10
42.154497367519
20
-1.98455066351943
30
0
41
1
10
41.7449698200693
20
-1.99378664320554
30
0
41
1
10
41.6246970397471
20
-1.99312526833137
30
0
41
1
10
41.385561534307
20
-1.9851457213727
30
0
41
1
10
41.2663779495871
20
-1.97784417082374
30
0
41
1
10
40.9096080401303
20
-1.94625038256021
30
0
41
1
10
40.6727991767431
20
-1.912262868645
30
0
41
1
10
40.1990517020271
20
-1.81977882527033
30
0
41
1
10
39.9621132532406
20
-1.76128363171537
30
0
41
1
10
39.6049695030672
20
-1.6562242310832
30
0
41
1
10
39.4856339791323
20
-1.61831670910917
30
0
41
1
10
39.2460965440261
20
-1.53692622489601
30
0
41
1
10
39.1257619185442
20
-1.49337833814837
30
0
41
1
10
38.5276412290245
20
-1.26481727730425
30
0
41
1
10
38.0555391920753
20
-1.04578924859913
30
0
41
1
10
37.3438388171739
20
-0.683797681194591
30
0
41
1
10
37.1059702343393
20
-0.557642244004313
30
0
41
1
10
36.7466410371638
20
-0.362708768561163
30
0
41
1
10
36.6262804284678
20
-0.296646928530862
30
0
41
1
10
36.3869836193628
20
-0.164476843245183
30
0
41
1
10
36.2677317896533
20
-0.0982593333094997
30
0
41
1
10
35.6727750583598
20
0.232261078944134
30
0
41
1
10
35.2009965213903
20
0.494897797336648
30
0
41
1
10
34.6058504769543
20
0.801693441003948
30
0
41
1
10
34.4865226381919
20
0.861929689431179
30
0
41
1
10
34.2469963693928
20
0.979667617083749
30
0
41
1
10
34.1265722276272
20
1.03726623592155
30
0
41
1
10
33.7672990086174
20
1.20354626007708
30
0
41
1
10
33.5295405851828
20
1.30645655820342
30
0
41
1
10
32.8177925903658
20
1.58665690516813
30
0
41
1
10
32.345360523845
20
1.73550934351496
30
0
41
1
10
31.7466769290978
20
1.86179040958993
30
0
41
1
10
31.6262542538561
20
1.88407713809716
30
0
41
1
10
31.3866762190377
20
1.9220014611156
30
0
41
1
10
31.2673020615083
20
1.93770140278298
30
0
41
1
10
30.9200262932108
20
1.97396979137102
30
0
41
1
10
30.6928823796801
20
1.98582424662763
30
0
41
1
10
30.4658226152751
20
1.98568728145963
30
0
0
SPLINE
5
AC
100
AcDbEntity
8
1
62
256
6
ByLayer
370
18
48
1
60
0
100
AcDbSpline
70
4
71
3
72
34
73
30
40
0
40
0
40
0
40
0
40
0.0524827642190183
40
0.0524827642190183
40
0.0813511265710561
40
0.0813511265710561
40
0.110219488923094
40
0.110219488923094
40
0.225692938331248
40
0.225692938331248
40
0.283429663035326
40
0.283429663035326
40
0.341166387739404
40
0.341166387739404
40
0.456639837147559
40
0.456639837147559
40
0.514376561851637
40
0.514376561851637
40
0.572113286555715
40
0.572113286555715
40
0.687586735963871
40
0.687586735963871
40
0.745323460667949
40
0.745323460667949
40
0.803060185372027
40
0.803060185372027
40
0.918533634780184
40
0.918533634780184
40
1
40
1
40
1
40
1
41
1
10
20.3639764247886
20
-1.87848782587633
30
0
41
1
10
20.1483737449316
20
-1.91594562167131
30
0
41
1
10
19.9327613430918
20
-1.94314333179997
30
0
41
1
10
19.5973109705116
20
-1.96875591093615
30
0
41
1
10
19.4780358806535
20
-1.97461656255274
30
0
41
1
10
19.2387429444618
20
-1.97973349250191
30
0
41
1
10
19.1184386573203
20
-1.9789760560129
30
0
41
1
10
18.5178720484594
20
-1.95846530165255
30
0
41
1
10
18.0447969233421
20
-1.88884331261917
30
0
41
1
10
17.3324383628256
20
-1.7140958005503
30
0
41
1
10
17.0946003686745
20
-1.64411995633583
30
0
41
1
10
16.6162121470234
20
-1.48197671378773
30
0
41
1
10
16.3749109439648
20
-1.3896281129266
30
0
41
1
10
15.6583179016424
20
-1.08983200815578
30
0
41
1
10
15.1858359652802
20
-0.857653114126379
30
0
41
1
10
14.4718159494215
20
-0.482448829842525
30
0
41
1
10
14.2325673310681
20
-0.352710332819868
30
0
41
1
10
13.7514802451922
20
-0.0889554892640092
30
0
41
1
10
13.5128529064476
20
0.0433989709218849
30
0
41
1
10
12.7992860498836
20
0.435645540080031
30
0
41
1
10
12.3264242883218
20
0.690298140763758
30
0
41
1
10
11.6091032021448
20
1.03986949987515
30
0
41
1
10
11.3676238519173
20
1.15109813300103
30
0
41
1
10
10.8893916974611
20
1.35440819209515
30
0
41
1
10
10.6516920266098
20
1.44718291310173
30
0
41
1
10
9.93948227143318
20
1.69495493911813
30
0
41
1
10
9.46542308968631
20
1.81897736066037
30
0
41
1
10
8.64427765559319
20
1.94537634908224
30
0
41
1
10
8.30691413070178
20
1.9716472278306
30
0
41
1
10
7.96885160920749
20
1.97160304364246
30
0
0
SPLINE
5
AD
100
AcDbEntity
8
1
62
256
6
ByLayer
370
18
48
1
60
0
100
AcDbSpline
70
4
71
3
72
14
73
10
40
0
40
0
40
0
40
0
40
0.0115106589114244
40
0.0115106589114244
40
0.360325967179947
40
0.360325967179947
40
0.709141275448469
40
0.709141275448469
40
1
40
1
40
1
40
1
41
1
10
41.9385860207992
20
-1.89284412408867
30
0
41
1
10
41.9307232835686
20
-1.89285972488705
30
0
41
1
10
41.9228592522379
20
-1.89286168559295
30
0
41
1
10
41.6766446111842
20
-1.89249565189928
30
0
41
1
10
41.4362089232254
20
-1.87937590559633
30
0
41
1
10
40.9598228666677
20
-1.82856350930615
30
0
41
1
10
40.7228435378493
20
-1.79096576546635
30
0
41
1
10
40.2886778481183
20
-1.70119646255969
30
0
41
1
10
40.0913544253415
20
-1.65242885664705
30
0
41
1
10
39.8936065674628
20
-1.5962642565394
30
0
0
SPLINE
5
AE
100
AcDbEntity
8
1
62
256
6
ByLayer
370
13
48
1
60
0
100
AcDbSpline
70
4
71
3
72
22
73
18
40
0
40
0
40
0
40
0
40
0.126684780826886
40
0.126684780826886
40
0.343954418878019
40
0.343954418878019
40
0.452589237903585
40
0.452589237903585
40
0.561224056929152
40
0.561224056929152
40
0.77849369498029
40
0.77849369498029
40
0.887128514005862
40
0.887128514005862
40
0.995763333031433
40
0.995763333031433
40
1
40
1
40
1
40
1
41
1
10
39.8936065675853
20
-1.59626425657422
30
0
41
1
10
39.6170521323652
20
-1.51771691134411
30
0
41
1
10
39.3396675616685
20
-1.42470208386373
30
0
41
1
10
38.5804752749057
20
-1.13698747263604
30
0
41
1
10
38.1078783080271
20
-0.922628536602957
30
0
41
1
10
37.3974226023781
20
-0.573193697383005
30
0
41
1
10
37.1603271032405
20
-0.452162436106875
30
0
41
1
10
36.6835460749741
20
-0.204412034504969
30
0
41
1
10
36.4429988163744
20
-0.0771556117170462
30
0
41
1
10
35.7278649103533
20
0.300137602919136
30
0
41
1
10
35.2560205895817
20
0.547262374908655
30
0
41
1
10
34.5440071194728
20
0.889786645449334
30
0
41
1
10
34.305899211136
20
0.999175775948032
30
0
41
1
10
33.825971040319
20
1.20428053115606
30
0
41
1
10
33.5876431925434
20
1.29866949575956
30
0
41
1
10
33.3409468532244
20
1.3870357184455
30
0
41
1
10
33.3316881632416
20
1.39033816039131
30
0
41
1
10
33.3224305507021
20
1.3936261285024
30
0
0
SPLINE
5
AF
100
AcDbEntity
8
1
62
256
6
ByLayer
370
18
48
1
60
0
100
AcDbSpline
70
4
71
3
72
14
73
10
40
0
40
0
40
0
40
0
40
0.156951100925289
40
0.156951100925289
40
0.458788640266721
40
0.458788640266721
40
0.76062617960815
40
0.76062617960815
40
1
40
1
40
1
40
1
41
1
10
19.429492897969
20
-1.87879729073072
30
0
41
1
10
19.3061747340026
20
-1.8788735168572
30
0
41
1
10
19.1827857543244
20
-1.87560148113101
30
0
41
1
10
18.8214869066344
20
-1.85616621180409
30
0
41
1
10
18.5829085074607
20
-1.83089642450165
30
0
41
1
10
18.1025648033244
20
-1.75559417909628
30
0
41
1
10
17.8641123226255
20
-1.70627521718842
30
0
41
1
10
17.4378085744343
20
-1.59874094107056
30
0
41
1
10
17.2497558964987
20
-1.54436468529286
30
0
41
1
10
17.0616839610472
20
-1.48383526423606
30
0
0
SPLINE
5
B0
100
AcDbEntity
8
1
62
256
6
ByLayer
370
13
48
1
60
0
100
AcDbSpline
70
4
71
3
72
22
73
18
40
0
40
0
40
0
40
0
40
0.133334968453652
40
0.133334968453652
40
0.243808216902989
40
0.243808216902989
40
0.354281465352325
40
0.354281465352325
40
0.575227962251001
40
0.575227962251001
40
0.685701210700338
40
0.685701210700338
40
0.796174459149675
40
0.796174459149675
40
0.906647707599012
40
0.906647707599012
40
1
40
1
40
1
40
1
41
1
10
17.0616830087956
20
-1.48383495776162
30
0
41
1
10
16.7754580295378
20
-1.39171574718529
30
0
41
1
10
16.4891884449208
20
-1.28534487247168
30
0
41
1
10
15.9623155144037
20
-1.06904530519736
30
0
41
1
10
15.7213504518522
20
-0.96221253584585
30
0
41
1
10
15.2436725007673
20
-0.73892214292502
30
0
41
1
10
15.0060977136698
20
-0.622274604483295
30
0
41
1
10
14.2943320636813
20
-0.26275427186269
30
0
41
1
10
13.8209065462103
20
-0.0105971208682831
30
0
41
1
10
13.1006076167277
20
0.363697439765389
30
0
41
1
10
12.8615075291167
20
0.486228389270053
30
0
41
1
10
12.3856610600146
20
0.721804070517521
30
0
41
1
10
12.1485600638477
20
0.835123496003462
30
0
41
1
10
11.6741412926922
20
1.04981762017673
30
0
41
1
10
11.4367300247651
20
1.15098454400262
30
0
41
1
10
10.9964453277167
20
1.32294804271285
30
0
41
1
10
10.7931410480681
20
1.3962868583514
30
0
41
1
10
10.5907093667782
20
1.46243222742717
30
0
0
SPLINE
5
B1
100
AcDbEntity
8
1
62
256
6
ByLayer
370
18
48
1
60
0
100
AcDbSpline
70
4
71
3
72
48
73
44
40
0
40
0
40
0
40
0
40
0.0625000000000036
40
0.0625000000000036
40
0.125000000000007
40
0.125000000000007
40
0.250000000000017
40
0.250000000000017
40
0.312500000000022
40
0.312500000000022
40
0.375000000000028
40
0.375000000000028
40
0.437500000000034
40
0.437500000000034
40
0.50000000000004
40
0.50000000000004
40
0.562500000000046
40
0.562500000000046
40
0.625000000000052
40
0.625000000000052
40
0.656250000000055
40
0.656250000000055
40
0.687500000000057
40
0.687500000000057
40
0.750000000000065
40
0.750000000000065
40
0.812500000000073
40
0.812500000000073
40
0.828125000000075
40
0.828125000000075
40
0.832031250000076
40
0.832031250000076
40
0.835937500000077
40
0.835937500000077
40
0.839843750000079
40
0.839843750000079
40
0.84375000000008
40
0.84375000000008
40
0.875000000000064
40
0.875000000000064
40
0.937500000000032
40
0.937500000000032
40
1
40
1
40
1
40
1
41
1
10
7.41596593553939
20
-0.802833250502005
30
0
41
1
10
7.33353662711198
20
-0.729099841649258
30
0
41
1
10
7.25275453504253
20
-0.652179563428319
30
0
41
1
10
7.094338595327
20
-0.491696446908236
30
0
41
1
10
7.01635129634133
20
-0.407719346959794
30
0
41
1
10
6.79023657159905
20
-0.14871339116516
30
0
41
1
10
6.64954962943997
20
0.0332107755387483
30
0
41
1
10
6.45588638398212
20
0.320963924858802
30
0
41
1
10
6.39559465625257
20
0.417444960803351
30
0
41
1
10
6.28424043071709
20
0.611464894902639
30
0
41
1
10
6.23293369675258
20
0.709471057491214
30
0
41
1
10
6.14241921273887
20
0.904684989487691
30
0
41
1
10
6.10409083642077
20
0.99988200015909
30
0
41
1
10
6.04340591102189
20
1.1849791274783
30
0
41
1
10
6.02112888511076
20
1.27558611110885
30
0
41
1
10
5.99801473536371
20
1.44099265699975
30
0
41
1
10
5.99662300849556
20
1.51702600046073
30
0
41
1
10
6.0171896236152
20
1.65505914523732
30
0
41
1
10
6.03875496986953
20
1.71387922911734
30
0
41
1
10
6.08711651710712
20
1.78816171896068
30
0
41
1
10
6.10606863376083
20
1.81073270329813
30
0
41
1
10
6.14862777864906
20
1.85076820976482
30
0
41
1
10
6.17216275624364
20
1.86824499438382
30
0
41
1
10
6.24902089665528
20
1.91394044334734
30
0
41
1
10
6.30900760235269
20
1.93552543612793
30
0
41
1
10
6.44140952419181
20
1.9635320162069
30
0
41
1
10
6.51386027065695
20
1.97004997730306
30
0
41
1
10
6.6099366120346
20
1.97088286757625
30
0
41
1
10
6.62942614308963
20
1.97068288357573
30
0
41
1
10
6.65410716015717
20
1.97000400947019
30
0
41
1
10
6.65908087507563
20
1.96984756427102
30
0
41
1
10
6.66893942851468
20
1.96948821645677
30
0
41
1
10
6.67432202892408
20
1.96928705977055
30
0
41
1
10
6.68762955383912
20
1.96906306444882
30
0
41
1
10
6.69507527443193
20
1.96903280383378
30
0
41
1
10
6.70966409822691
20
1.96907121249248
30
0
41
1
10
6.71694243013957
20
1.96910063726594
30
0
41
1
10
6.78251931678795
20
1.96931752327711
30
0
41
1
10
6.84065646649475
20
1.96957945904185
30
0
41
1
10
7.014314825421
20
1.97042837602828
30
0
41
1
10
7.12914141012098
20
1.97110034205082
30
0
41
1
10
7.35436239683224
20
1.97124415699605
30
0
41
1
10
7.46508710219246
20
1.97071732982622
30
0
41
1
10
7.57399290942993
20
1.96850292543132
30
0
0
SPLINE
5
B2
100
AcDbEntity
8
1
62
256
6
ByLayer
370
13
48
1
60
0
100
AcDbSpline
70
4
71
3
72
10
73
6
40
0
40
0
40
0
40
0
40
0.5
40
0.5
40
1
40
1
40
1
40
1
41
1
10
7.49490875607211
20
-1.87372691197714
30
0
41
1
10
7.51366487486138
20
-1.86448245982649
30
0
41
1
10
7.53372143779029
20
-1.85772065246329
30
0
41
1
10
7.57444608462839
20
-1.84949786732264
30
0
41
1
10
7.59522166542797
20
-1.84793310291729
30
0
41
1
10
7.6163963497396
20
-1.84898135116794
30
0
0
SPLINE
5
B3
100
AcDbEntity
8
1
62
256
6
ByLayer
370
18
48
1
60
0
100
AcDbSpline
70
4
71
3
72
22
73
18
40
0
40
0
40
0
40
0
40
0.319153030326006
40
0.319153030326006
40
0.501545446181864
40
0.512944972172856
40
0.512944972172856
40
0.524344498163847
40
0.524344498163847
40
0.535744024154839
40
0.535744024154839
40
0.54714355014583
40
0.54714355014583
40
0.592741654109795
40
0.683937862037724
40
0.683937862037724
40
1
40
1
40
1
40
1
41
1
10
7.57399290942971
20
1.96850292543141
30
0
41
1
10
7.57399290942971
20
1.6097760106376
30
0
41
1
10
7.57399290942971
20
1.25600014674768
30
0
41
1
10
7.57399290942971
20
0.707354193825921
30
0
41
1
10
7.57399290942979
20
0.496941423247648
30
0
41
1
10
7.57399290942973
20
0.288165548783837
30
0
41
1
10
7.57399290942973
20
0.263615076113581
30
0
41
1
10
7.57399290942971
20
0.251250836361351
30
0
41
1
10
7.57399290942971
20
0.227141534653526
30
0
41
1
10
7.57399290942971
20
0.215333248475332
30
0
41
1
10
7.57399290942971
20
0.194395771740318
30
0
41
1
10
7.57399290942973
20
0.185566523492184
30
0
41
1
10
7.57399290942973
20
0.140003236717291
30
0
41
1
10
7.57399290942973
20
0.0310235033030608
30
0
41
1
10
7.57399290942971
20
-0.0768289914331888
30
0
41
1
10
7.57399290942971
20
-0.395639059349946
30
0
41
1
10
7.57399290942971
20
-0.636933561652739
30
0
41
1
10
7.57399290942971
20
-0.871555771161383
30
0
0
SPLINE
5
B4
100
AcDbEntity
8
1
62
256
6
ByLayer
370
18
48
1
60
0
100
AcDbSpline
70
4
71
3
72
8
73
4
40
0
40
0
40
0
40
0
40
1
40
1
40
1
40
1
41
1
10
53.287306650469
20
-1.99002748355863
30
0
41
1
10
53.2870539633383
20
-1.99066146371814
30
0
41
1
10
53.2868012697213
20
-1.9912954229091
30
0
41
1
10
53.2865485696764
20
-1.99192936106738
30
0
0
SPLINE
5
B5
100
AcDbEntity
8
1
62
256
6
ByLayer
370
18
48
1
60
0
100
AcDbSpline
70
4
71
3
72
10
73
6
40
0
40
0
40
0
40
0
40
0.5
40
0.5
40
1
40
1
40
1
40
1
41
1
10
53.3659341502033
20
1.92646986933909
30
0
41
1
10
53.4568196851279
20
1.70852578934475
30
0
41
1
10
53.5475906315378
20
1.48958037908176
30
0
41
1
10
53.7275818766014
20
1.04903597204978
30
0
41
1
10
53.816943270239
20
0.827263042284216
30
0
41
1
10
53.9042200733795
20
0.605013129946229
30
0
0
SPLINE
5
B6
100
AcDbEntity
8
1
62
256
6
ByLayer
370
18
48
1
60
0
100
AcDbSpline
70
4
71
3
72
12
73
8
40
0
40
0
40
0
40
0
40
0.25
40
0.25
40
0.5
40
0.5
40
1
40
1
40
1
40
1
41
1
10
51.9908267278325
20
-0.603085380959982
30
0
41
1
10
52.0643337023395
20
-0.687541493404552
30
0
41
1
10
52.1416586122787
20
-0.766662063029457
30
0
41
1
10
52.302708876154
20
-0.915958618585734
30
0
41
1
10
52.3868485321105
20
-0.98644946463196
30
0
41
1
10
52.6439842000461
20
-1.18394946523
30
0
41
1
10
52.8210497286212
20
-1.29736998908623
30
0
41
1
10
53.0025411828602
20
-1.39647650147589
30
0
0
SPLINE
5
B7
100
AcDbEntity
8
1
62
256
6
ByLayer
370
18
48
1
60
0
100
AcDbSpline
70
4
71
3
72
8
73
4
40
0
40
0
40
0
40
0
40
1
40
1
40
1
40
1
41
1
10
53.3659341502117
20
1.92646986931518
30
0
41
1
10
53.3353825713497
20
1.95901027396383
30
0
41
1
10
53.3090098078388
20
1.98096724830344
30
0
41
1
10
53.2865485696764
20
1.99192936106741
30
0
0
SPLINE
5
B8
100
AcDbEntity
8
1
62
256
6
ByLayer
370
18
48
1
60
0
100
AcDbSpline
70
4
71
3
72
19
73
15
40
0
40
0
40
0
40
0
40
0.125
40
0.125
40
0.25
40
0.25
40
0.5
40
0.5
40
0.625
40
0.625
40
0.75
40
0.875
40
0.875
40
1
40
1
40
1
40
1
41
1
10
7.41634790967407
20
-1.93402805458123
30
0
41
1
10
7.41633890825543
20
-1.91877608658854
30
0
41
1
10
7.4163265671032
20
-1.89897209636013
30
0
41
1
10
7.41629685814323
20
-1.85031467546077
30
0
41
1
10
7.41627936972796
20
-1.8212515277992
30
0
41
1
10
7.41622273018208
20
-1.72169710426317
30
0
41
1
10
7.41617972610666
20
-1.63947250681684
30
0
41
1
10
7.41611762235937
20
-1.49259914606091
30
0
41
1
10
7.41609720441056
20
-1.43932066091685
30
0
41
1
10
7.41605965162262
20
-1.32729967082989
30
0
41
1
10
7.41602517466225
20
-1.20945686513633
30
0
41
1
10
7.41599914101013
20
-1.08018962162041
30
0
41
1
10
7.41597832950873
20
-0.94507331614119
30
0
41
1
10
7.41597058128437
20
-0.874481242203586
30
0
41
1
10
7.41596593554581
20
-0.802833250504506
30
0
0
SPLINE
5
B9
100
AcDbEntity
8
1
62
256
6
ByLayer
370
18
48
1
60
0
100
AcDbSpline
70
4
71
3
72
40
73
36
40
0
40
0
40
0
40
0
40
0.0943574329992617
40
0.0943574329992617
40
0.141536149498893
40
0.141536149498893
40
0.188714865998523
40
0.188714865998523
40
0.283072298997783
40
0.283072298997783
40
0.330251015497414
40
0.330251015497414
40
0.377429731997044
40
0.377429731997044
40
0.424608448496675
40
0.424608448496675
40
0.471787164996306
40
0.471787164996306
40
0.566144597995568
40
0.566144597995568
40
0.613323314495199
40
0.613323314495199
40
0.660502030994829
40
0.660502030994829
40
0.754859463994091
40
0.754859463994091
40
0.849216896993353
40
0.849216896993353
40
0.896395613492984
40
0.896395613492984
40
0.943574329992616
40
0.943574329992616
40
0.990753046492248
40
0.990753046492248
40
1
40
1
40
1
40
1
41
1
10
7.61609375767785
20
-0.888155912654895
30
0
41
1
10
7.85051653538838
20
-0.994157571962404
30
0
41
1
10
8.0827166057372
20
-1.09516636518279
30
0
41
1
10
8.42885227544829
20
-1.23623673637201
30
0
41
1
10
8.54404536768169
20
-1.28129430112
30
0
41
1
10
8.77433625065524
20
-1.36715147262231
30
0
41
1
10
8.88983274892351
20
-1.40738476503651
30
0
41
1
10
9.23606194929303
20
-1.5216775162703
30
0
41
1
10
9.46678412393595
20
-1.58968976570142
30
0
41
1
10
9.81384660263714
20
-1.67691744718698
30
0
41
1
10
9.92991449474619
20
-1.70321509058928
30
0
41
1
10
10.1633029638835
20
-1.75001583443364
30
0
41
1
10
10.2805530654997
20
-1.77076408424495
30
0
41
1
10
10.5136832158567
20
-1.80650151355621
30
0
41
1
10
10.6298473206563
20
-1.82152460392987
30
0
41
1
10
10.8614275983092
20
-1.84634969938435
30
0
41
1
10
10.9766427382034
20
-1.8562027455576
30
0
41
1
10
11.3234842712894
20
-1.87604017943579
30
0
41
1
10
11.5541115889013
20
-1.8767796668669
30
0
41
1
10
11.9000894720193
20
-1.86071366162392
30
0
41
1
10
12.0153742712905
20
-1.85249426337478
30
0
41
1
10
12.2462285099231
20
-1.83029992722481
30
0
41
1
10
12.3623630289315
20
-1.81660317174354
30
0
41
1
10
12.7110684567342
20
-1.76654528685393
30
0
41
1
10
12.9456387548407
20
-1.7209337592831
30
0
41
1
10
13.4098836563921
20
-1.60876857297143
30
0
41
1
10
13.6415154228185
20
-1.54352176513618
30
0
41
1
10
13.9876742615062
20
-1.43113014288235
30
0
41
1
10
14.1029398124646
20
-1.39127801215457
30
0
41
1
10
14.3332548802676
20
-1.3071960026065
30
0
41
1
10
14.4481270224326
20
-1.2627746070919
30
0
41
1
10
14.6792009859622
20
-1.17142407818412
30
0
41
1
10
14.7949313994134
20
-1.12367979483531
30
0
41
1
10
14.933453975376
20
-1.06443825083463
30
0
41
1
10
14.956160466418
20
-1.05466003658586
30
0
41
1
10
14.9788742513386
20
-1.04481154838666
30
0
0
SPLINE
5
BA
100
AcDbEntity
8
1
62
256
6
ByLayer
370
18
48
1
60
0
100
AcDbSpline
70
4
71
3
72
78
73
74
40
0
40
0
40
0
40
0
40
0.0096803776844531
40
0.0096803776844531
40
0.0331855499739101
40
0.0331855499739101
40
0.0566907222633671
40
0.0566907222633671
40
0.103701066842282
40
0.103701066842282
40
0.127206239131739
40
0.127206239131739
40
0.150711411421197
40
0.150711411421197
40
0.197721756000112
40
0.197721756000112
40
0.22122692828957
40
0.22122692828957
40
0.244732100579028
40
0.244732100579028
40
0.291742445157944
40
0.291742445157944
40
0.315247617447401
40
0.315247617447401
40
0.338752789736858
40
0.338752789736858
40
0.362257962026315
40
0.362257962026315
40
0.385763134315772
40
0.385763134315772
40
0.432773478894686
40
0.432773478894686
40
0.456278651184144
40
0.456278651184144
40
0.479783823473602
40
0.479783823473602
40
0.52679416805252
40
0.52679416805252
40
0.550299340341981
40
0.550299340341981
40
0.573804512631441
40
0.573804512631441
40
0.597309684920901
40
0.597309684920901
40
0.620814857210362
40
0.620814857210362
40
0.644320029499822
40
0.644320029499822
40
0.667825201789282
40
0.667825201789282
40
0.691330374078742
40
0.691330374078742
40
0.714835546368203
40
0.714835546368203
40
0.738340718657663
40
0.738340718657663
40
0.761845890947123
40
0.761845890947123
40
0.808856235526044
40
0.808856235526044
40
0.832361407815503
40
0.832361407815503
40
0.855866580104963
40
0.855866580104963
40
0.902876924683881
40
0.902876924683881
40
0.92638209697334
40
0.92638209697334
40
0.949887269262799
40
0.949887269262799
40
0.99689761384172
40
0.99689761384172
40
1
40
1
40
1
40
1
41
1
10
22.7592240072061
20
1.87971387355432
30
0
41
1
10
22.8069508586206
20
1.87929642290595
30
0
41
1
10
22.8547227094459
20
1.87840254732882
30
0
41
1
10
23.0184623349989
20
1.87377287361397
30
0
41
1
10
23.1346007633829
20
1.8677776857208
30
0
41
1
10
23.3673142638108
20
1.85070058329109
30
0
41
1
10
23.4840507058609
20
1.83940282670852
30
0
41
1
10
23.8330376313284
20
1.79492296821363
30
0
41
1
10
24.0662329185065
20
1.75253153871961
30
0
41
1
10
24.4155411800901
20
1.67375802737305
30
0
41
1
10
24.5319934967622
20
1.64497929285599
30
0
41
1
10
24.7648160118432
20
1.58273318007662
30
0
41
1
10
24.8810237227216
20
1.54896688404659
30
0
41
1
10
25.2292908350152
20
1.44079174851657
30
0
41
1
10
25.4600617298156
20
1.35876719369119
30
0
41
1
10
25.8051796611083
20
1.22426536664844
30
0
41
1
10
25.9198682757874
20
1.17725194183416
30
0
41
1
10
26.1496298430536
20
1.0808391657763
30
0
41
1
10
26.2648530458368
20
1.0316656001861
30
0
41
1
10
26.6105255327753
20
0.877100398913569
30
0
41
1
10
26.8412440157367
20
0.767411178194351
30
0
41
1
10
27.1889827419259
20
0.59451196708045
30
0
41
1
10
27.3058858901114
20
0.536082183768343
30
0
41
1
10
27.5386909184334
20
0.418346507191984
30
0
41
1
10
27.6546589086665
20
0.358789563904367
30
0
41
1
10
27.885954764635
20
0.238762482429792
30
0
41
1
10
28.0013037999407
20
0.178341351527678
30
0
41
1
10
28.2314215877589
20
0.0566735467232036
30
0
41
1
10
28.3461543986366
20
-0.0046661052482193
30
0
41
1
10
28.6916981161511
20
-0.185363709968755
30
0
41
1
10
28.9219638719869
20
-0.30527880896372
30
0
41
1
10
29.2679987466983
20
-0.48295436375804
30
0
41
1
10
29.3833092560424
20
-0.542068691706305
30
0
41
1
10
29.6148516777934
20
-0.658245430094695
30
0
41
1
10
29.731257747137
20
-0.715165366547609
30
0
41
1
10
30.0810002318314
20
-0.883107605515619
30
0
41
1
10
30.3121327444588
20
-0.988846527881066
30
0
41
1
10
30.6571397564193
20
-1.13813437728129
30
0
41
1
10
30.7722801020562
20
-1.18555554396747
30
0
41
1
10
31.0023248419779
20
-1.27704595230807
30
0
41
1
10
31.1171423315312
20
-1.32129840195904
30
0
41
1
10
31.3467665724822
20
-1.4051537142746
30
0
41
1
10
31.4615973397721
20
-1.44475838845716
30
0
41
1
10
31.691263797885
20
-1.51999682634386
30
0
41
1
10
31.8061396758438
20
-1.55539467070909
30
0
41
1
10
32.037239545168
20
-1.62033005263649
30
0
41
1
10
32.1530172716074
20
-1.65052451684599
30
0
41
1
10
32.3849513350976
20
-1.70670803690737
30
0
41
1
10
32.5015235695568
20
-1.73247893247489
30
0
41
1
10
32.7336728327613
20
-1.77759142602682
30
0
41
1
10
32.84908102672
20
-1.79724286912085
30
0
41
1
10
33.0799461919788
20
-1.8306553440429
30
0
41
1
10
33.1954658951113
20
-1.84439241631279
30
0
41
1
10
33.4257161693536
20
-1.8664116843147
30
0
41
1
10
33.5406096454194
20
-1.87457573266414
30
0
41
1
10
33.7701837487468
20
-1.88525200825526
30
0
41
1
10
33.8847569858124
20
-1.88830793441341
30
0
41
1
10
34.2285233268481
20
-1.88732100005345
30
0
41
1
10
34.4592663292393
20
-1.87321390346563
30
0
41
1
10
34.8060588943811
20
-1.83596511163177
30
0
41
1
10
34.9218706874728
20
-1.82084431902334
30
0
41
1
10
35.1539200033946
20
-1.78515094256883
30
0
41
1
10
35.2700074407322
20
-1.76458105813865
30
0
41
1
10
35.6185663070816
20
-1.69467769221552
30
0
41
1
10
35.8504045813957
20
-1.63587205637071
30
0
41
1
10
36.1983281123045
20
-1.5328657931727
30
0
41
1
10
36.3141898235873
20
-1.49572758890235
30
0
41
1
10
36.5466260376303
20
-1.4180717300718
30
0
41
1
10
36.6627393859328
20
-1.37777570095895
30
0
41
1
10
37.0094607750014
20
-1.24931358389659
30
0
41
1
10
37.2391871919852
20
-1.15463742497175
30
0
41
1
10
37.4834439822521
20
-1.04666512073894
30
0
41
1
10
37.4985703773687
20
-1.0399632166085
30
0
41
1
10
37.5137009690849
20
-1.03324318996118
30
0
0
SPLINE
5
BB
100
AcDbEntity
8
1
62
256
6
ByLayer
370
18
48
1
60
0
100
AcDbSpline
70
4
71
3
72
38
73
34
40
0
40
0
40
0
40
0
40
0.0293245553736058
40
0.0293245553736058
40
0.0804127366697333
40
0.0804127366697333
40
0.182589099261983
40
0.182589099261983
40
0.233677280558109
40
0.233677280558109
40
0.284765461854234
40
0.284765461854234
40
0.386941824446489
40
0.386941824446489
40
0.438030005742615
40
0.438030005742615
40
0.48911818703874
40
0.48911818703874
40
0.540206368334866
40
0.540206368334866
40
0.59129454963099
40
0.59129454963099
40
0.69347091222324
40
0.69347091222324
40
0.744559093519367
40
0.744559093519367
40
0.795647274815495
40
0.795647274815495
40
0.846735456111622
40
0.846735456111622
40
0.89782363740775
40
0.89782363740775
40
1
40
1
40
1
40
1
41
1
10
45.2188694068155
20
1.89391930462338
30
0
41
1
10
45.2847018318324
20
1.89389636396493
30
0
41
1
10
45.3504748221455
20
1.89294904040733
30
0
41
1
10
45.5306764790732
20
1.88787063028283
30
0
41
1
10
45.6449348151438
20
1.88197632495107
30
0
41
1
10
45.9893714633519
20
1.85484574084128
30
0
41
1
10
46.2193873640588
20
1.82410887449098
30
0
41
1
10
46.5658217310463
20
1.76120596544587
30
0
41
1
10
46.6814268872768
20
1.73727865830304
30
0
41
1
10
46.9136869257783
20
1.6842798605189
30
0
41
1
10
47.0301578449767
20
1.65614475174874
30
0
41
1
10
47.3782097302668
20
1.56305500310154
30
0
41
1
10
47.6097151864313
20
1.48918413993042
30
0
41
1
10
47.9572506413344
20
1.36458776877137
30
0
41
1
10
48.0737392421689
20
1.32109043437484
30
0
41
1
10
48.3061590021839
20
1.23068867321226
30
0
41
1
10
48.4219027574994
20
1.18368858546179
30
0
41
1
10
48.6526754089182
20
1.08601443808564
30
0
41
1
10
48.7677343000711
20
1.03531910459088
30
0
41
1
10
48.9973006414587
20
0.930654577175574
30
0
41
1
10
49.1117894617697
20
0.87664135121662
30
0
41
1
10
49.4563582680058
20
0.713186299363315
30
0
41
1
10
49.6856401827765
20
0.599299073935157
30
0
41
1
10
50.0300745343802
20
0.422322118067797
30
0
41
1
10
50.1449178216909
20
0.362072485834147
30
0
41
1
10
50.3754949598251
20
0.240867398181166
30
0
41
1
10
50.491576111252
20
0.180650356329522
30
0
41
1
10
50.7239617783323
20
0.0583231744963371
30
0
41
1
10
50.8403117833067
20
-0.0033026255010782
30
0
41
1
10
51.0716816198404
20
-0.125960930776017
30
0
41
1
10
51.1869231130177
20
-0.187235609246187
30
0
41
1
10
51.5316586777879
20
-0.370017928320777
30
0
41
1
10
51.7615637954289
20
-0.48771689813131
30
0
41
1
10
51.9908267278325
20
-0.603085380959982
30
0
0
SPLINE
5
BC
100
AcDbEntity
8
1
62
256
6
ByLayer
370
18
48
1
60
0
100
AcDbSpline
70
4
71
3
72
8
73
4
40
0
40
0
40
0
40
0
40
1
40
1
40
1
40
1
41
1
10
7.57399290942971
20
-0.871555771187815
30
0
41
1
10
7.58806429866902
20
-0.87628864554938
30
0
41
1
10
7.60210305177785
20
-0.881829573317191
30
0
41
1
10
7.61609375767185
20
-0.888155912652167
30
0
0
SPLINE
5
BD
100
AcDbEntity
8
1
62
256
6
ByLayer
370
18
48
1
60
0
100
AcDbSpline
70
4
71
3
72
32
73
28
40
0
40
0
40
0
40
0
40
0.0349812019833209
40
0.0349812019833209
40
0.0704597951975483
40
0.0704597951975483
40
0.105938388411776
40
0.105938388411776
40
0.17689557484023
40
0.17689557484023
40
0.247852761268685
40
0.247852761268685
40
0.31880994769714
40
0.31880994769714
40
0.460724320554049
40
0.460724320554049
40
0.531681506982503
40
0.531681506982503
40
0.602638693410957
40
0.602638693410957
40
0.744553066267865
40
0.744553066267865
40
0.815510252696319
40
0.815510252696319
40
0.886467439124773
40
0.886467439124773
40
1
40
1
40
1
40
1
41
1
10
10.0803520645057
20
1.63747313990811
30
0
41
1
10
10.1977722637522
20
1.60155413153748
30
0
41
1
10
10.3154097064877
20
1.56290842790125
30
0
41
1
10
10.5530379103704
20
1.47975743344668
30
0
41
1
10
10.6733269442495
20
1.43508994701438
30
0
41
1
10
10.9136473401822
20
1.34127210901852
30
0
41
1
10
11.0333779862005
20
1.29223438319403
30
0
41
1
10
11.3915861389029
20
1.13922757880633
30
0
41
1
10
11.6290917108431
20
1.02940530217748
30
0
41
1
10
12.1036377521482
20
0.797718944768462
30
0
41
1
10
12.3407804462185
20
0.676052207620614
30
0
41
1
10
12.816899703173
20
0.424441198650641
30
0
41
1
10
13.0562815028239
20
0.294145687850289
30
0
41
1
10
13.7774187055486
20
-0.102085448450481
30
0
41
1
10
14.2508400420128
20
-0.366283663324253
30
0
41
1
10
14.9628221113599
20
-0.739487413343682
30
0
41
1
10
15.2004944819572
20
-0.859989347809318
30
0
41
1
10
15.6786209433405
20
-1.08941227933792
30
0
41
1
10
15.9199395264939
20
-1.19857662250831
30
0
41
1
10
16.636686749417
20
-1.49650571994314
30
0
41
1
10
17.1089184445066
20
-1.65870542862336
30
0
41
1
10
17.8226269637938
20
-1.83195671808249
30
0
41
1
10
18.061332660546
20
-1.87829714007319
30
0
41
1
10
18.5422843533712
20
-1.94582426465303
30
0
41
1
10
18.7809499355068
20
-1.96630593487887
30
0
41
1
10
19.3991661815692
20
-1.98540243529661
30
0
41
1
10
19.7775486044365
20
-1.96362549115636
30
0
41
1
10
20.1581661942615
20
-1.9091971643085
30
0
0
SPLINE
5
BE
100
AcDbEntity
8
1
62
256
6
ByLayer
370
18
48
1
60
0
100
AcDbSpline
70
4
71
3
72
28
73
24
40
0
40
0
40
0
40
0
40
0.0354683251201617
40
0.0354683251201617
40
0.10785340554634
40
0.10785340554634
40
0.180238485972517
40
0.180238485972517
40
0.32500864682487
40
0.32500864682487
40
0.397393727251046
40
0.397393727251046
40
0.469778807677222
40
0.469778807677222
40
0.614548968529575
40
0.614548968529575
40
0.759319129381927
40
0.759319129381927
40
0.831704209808103
40
0.831704209808103
40
0.904089290234279
40
0.904089290234279
40
1
40
1
40
1
40
1
41
1
10
32.9710494461288
20
1.51901034625561
30
0
41
1
10
33.0871920030726
20
1.47760654361852
30
0
41
1
10
33.2034110680399
20
1.43377131364306
30
0
41
1
10
33.5574265630015
20
1.29349639601492
30
0
41
1
10
33.796175273029
20
1.1896901011327
30
0
41
1
10
34.276580337213
20
0.966289259563098
30
0
41
1
10
34.5148479357149
20
0.84812922876074
30
0
41
1
10
35.2271161055183
20
0.480178708839617
30
0
41
1
10
35.6989798265796
20
0.217470561528359
30
0
41
1
10
36.4149865668624
20
-0.179879141814212
30
0
41
1
10
36.6558638904392
20
-0.313399231864679
30
0
41
1
10
37.1329398909896
20
-0.571487859236413
30
0
41
1
10
37.3701413339831
20
-0.696848064698457
30
0
41
1
10
38.0808430848928
20
-1.05691023032764
30
0
41
1
10
38.553738309743
20
-1.27507830701606
30
0
41
1
10
39.5144607892813
20
-1.63882260063761
30
0
41
1
10
39.9870809802135
20
-1.77844763949244
30
0
41
1
10
40.6976587208017
20
-1.91443512693294
30
0
41
1
10
40.9347798916445
20
-1.94757807009259
30
0
41
1
10
41.4117680453305
20
-1.98789515484984
30
0
41
1
10
41.6526188637059
20
-1.99494264670079
30
0
41
1
10
42.207055812157
20
-1.98015049898703
30
0
41
1
10
42.5207879113152
20
-1.94864822813548
30
0
41
1
10
42.8345463246517
20
-1.89523227704294
30
0
0
SPLINE
5
BF
100
AcDbEntity
8
1
62
256
6
ByLayer
370
18
48
1
60
0
100
AcDbSpline
70
4
71
3
72
8
73
4
40
0
40
0
40
0
40
0
40
1
40
1
40
1
40
1
41
1
10
53.8799234638499
20
-0.205612809617804
30
0
41
1
10
53.6756432876568
20
-0.766867980948348
30
0
41
1
10
53.4713631114637
20
-1.328123152279
30
0
41
1
10
53.2670829352708
20
-1.88937832360926
30
0
0
SPLINE
5
C0
100
AcDbEntity
8
1
62
256
6
ByLayer
370
18
48
1
60
0
100
AcDbSpline
70
4
71
3
72
8
73
4
40
0
40
0
40
0
40
0
40
1
40
1
40
1
40
1
41
1
10
7.54490761699961
20
-1.95776942518466
30
0
41
1
10
7.52590963337792
20
-1.95653343323846
30
0
41
1
10
7.50690579468969
20
-1.95522536268669
30
0
41
1
10
7.4888379377602
20
-1.9536049902901
30
0
0
SPLINE
5
C1
100
AcDbEntity
8
1
62
256
6
ByLayer
370
18
48
1
60
0
100
AcDbSpline
70
4
71
3
72
24
73
20
40
0
40
0
40
0
40
0
40
0.125
40
0.125
40
0.250000000000001
40
0.250000000000001
40
0.312500000000001
40
0.312500000000001
40
0.375000000000001
40
0.375000000000001
40
0.437500000000001
40
0.437500000000001
40
0.500000000000001
40
0.500000000000001
40
0.625000000000001
40
0.625000000000001
40
0.75
40
0.75
40
1
40
1
40
1
40
1
41
1
10
53.3705434756853
20
-0.896990042110389
30
0
41
1
10
53.3470969530183
20
-0.877894100283982
30
0
41
1
10
53.3243808241075
20
-0.857189885491778
30
0
41
1
10
53.2817461969308
20
-0.809621280391468
30
0
41
1
10
53.2616610922825
20
-0.782711683328102
30
0
41
1
10
53.2417810757943
20
-0.737401900598712
30
0
41
1
10
53.2369424847981
20
-0.721197701035749
30
0
41
1
10
53.2341059135995
20
-0.689259933892004
30
0
41
1
10
53.2363076376232
20
-0.673764536676202
30
0
41
1
10
53.246903275186
20
-0.647376151819827
30
0
41
1
10
53.2550536215084
20
-0.63641893535916
30
0
41
1
10
53.2736799523322
20
-0.618558074718379
30
0
41
1
10
53.2843779443652
20
-0.611376355670018
30
0
41
1
10
53.3178190702596
20
-0.59375839375528
30
0
41
1
10
53.3422118340034
20
-0.586774569494878
30
0
41
1
10
53.3922557967355
20
-0.577467025522168
30
0
41
1
10
53.4176650986458
20
-0.575314219139187
30
0
41
1
10
53.4945881406903
20
-0.573344361300968
30
0
41
1
10
53.5467907388318
20
-0.577975331534134
30
0
41
1
10
53.5995449654965
20
-0.586168219623517
30
0
0
SPLINE
5
C2
100
AcDbEntity
8
1
62
256
6
ByLayer
370
18
48
1
60
0
100
AcDbSpline
70
4
71
3
72
20
73
16
40
0
40
0
40
0
40
0
40
0.122529497960173
40
0.122529497960173
40
0.157025350066667
40
0.157025350066667
40
0.191521202173162
40
0.191521202173162
40
0.226017054279657
40
0.226017054279657
40
0.260512906386152
40
0.260512906386152
40
0.536479723237977
40
0.536479723237977
40
1
40
1
40
1
40
1
41
1
10
6.59718787136049
20
-1.97075849779949
30
0
41
1
10
6.61430540382528
20
-1.97083376792119
30
0
41
1
10
6.6316375291232
20
-1.97062205736617
30
0
41
1
10
6.65410716015637
20
-1.97000400947022
30
0
41
1
10
6.65908087507486
20
-1.96984756427105
30
0
41
1
10
6.66893942851391
20
-1.9694882164568
30
0
41
1
10
6.67432202892314
20
-1.96928705977058
30
0
41
1
10
6.68762955383806
20
-1.96906306444882
30
0
41
1
10
6.69507527443085
20
-1.96903280383378
30
0
41
1
10
6.70966409822586
20
-1.96907121249248
30
0
41
1
10
6.71694243013852
20
-1.96910063726594
30
0
41
1
10
6.78251931678699
20
-1.96931752327708
30
0
41
1
10
6.84065646649384
20
-1.96957945904182
30
0
41
1
10
6.99576945747981
20
-1.97033771826807
30
0
41
1
10
7.09232937420131
20
-1.9708877802901
30
0
41
1
10
7.18746984985145
20
-1.97109440254837
30
0
0
SPLINE
5
C3
100
AcDbEntity
8
1
62
256
6
ByLayer
370
18
48
1
60
0
100
AcDbSpline
70
4
71
3
72
56
73
52
40
0
40
0
40
0
40
0
40
0.0647667799652147
40
0.0647667799652147
40
0.0971501699478221
40
0.0971501699478221
40
0.129533559930429
40
0.129533559930429
40
0.194300339895645
40
0.194300339895645
40
0.226683729878254
40
0.226683729878254
40
0.259067119860863
40
0.259067119860863
40
0.291450509843472
40
0.291450509843472
40
0.323833899826081
40
0.323833899826081
40
0.3886006797913
40
0.3886006797913
40
0.420984069773909
40
0.420984069773909
40
0.453367459756519
40
0.453367459756519
40
0.518134239721738
40
0.518134239721738
40
0.550517629704347
40
0.550517629704347
40
0.582901019686957
40
0.582901019686957
40
0.615284409669567
40
0.615284409669567
40
0.647667799652176
40
0.647667799652176
40
0.712434579617395
40
0.712434579617395
40
0.744817969600005
40
0.744817969600005
40
0.777201359582614
40
0.777201359582614
40
0.809584749565224
40
0.809584749565224
40
0.841968139547833
40
0.841968139547833
40
0.906734919513054
40
0.906734919513054
40
0.939118309495665
40
0.939118309495665
40
0.971501699478276
40
0.971501699478276
40
1
40
1
40
1
40
1
41
1
10
7.57399290942971
20
1.96850292543132
30
0
41
1
10
7.81362223217798
20
1.96132272266672
30
0
41
1
10
8.05359681818811
20
1.94079654219774
30
0
41
1
10
8.41210313993864
20
1.89180348242297
30
0
41
1
10
8.53131911131049
20
1.87236114726633
30
0
41
1
10
8.76873165858439
20
1.82677281068038
30
0
41
1
10
8.88697075002221
20
1.80057543611443
30
0
41
1
10
9.24377768046588
20
1.71449200932673
30
0
41
1
10
9.48295873912494
20
1.64639106511902
30
0
41
1
10
9.84207518931274
20
1.52611711791764
30
0
41
1
10
9.96154095980037
20
1.48243188435586
30
0
41
1
10
10.2022676909118
20
1.3911188375256
30
0
41
1
10
10.3225626280071
20
1.34375285805387
30
0
41
1
10
10.5624824843519
20
1.24503429509778
30
0
41
1
10
10.6820760277635
20
1.19362705179685
30
0
41
1
10
10.9205519140047
20
1.08673899268865
30
0
41
1
10
11.0390535823428
20
1.03065372161294
30
0
41
1
10
11.3947828729218
20
0.858173740017804
30
0
41
1
10
11.6334079593278
20
0.739664752358209
30
0
41
1
10
11.9913685886963
20
0.553187347146178
30
0
41
1
10
12.1107594322239
20
0.489670969043857
30
0
41
1
10
12.3492370914655
20
0.358898566919862
30
0
41
1
10
12.469344778257
20
0.293325002795712
30
0
41
1
10
12.8313119235712
20
0.0964435829594095
30
0
41
1
10
13.0713307299925
20
-0.0341773611632448
30
0
41
1
10
13.4277468646932
20
-0.232313040910839
30
0
41
1
10
13.5461407998977
20
-0.298342716163489
30
0
41
1
10
13.7839885178585
20
-0.426958237176763
30
0
41
1
10
13.9031243715498
20
-0.490140773054804
30
0
41
1
10
14.1412684200224
20
-0.615267333492369
30
0
41
1
10
14.2603791683306
20
-0.677027011749175
30
0
41
1
10
14.4983877747594
20
-0.799396107859195
30
0
41
1
10
14.6170040185267
20
-0.860473020980834
30
0
41
1
10
14.9757799084024
20
-1.03633188452756
30
0
41
1
10
15.2185580574759
20
-1.14647950288929
30
0
41
1
10
15.5776349690304
20
-1.30008422286141
30
0
41
1
10
15.696347729667
20
-1.34992958712647
30
0
41
1
10
15.9340917902032
20
-1.44367090618226
30
0
41
1
10
16.0531826819987
20
-1.48755910833486
30
0
41
1
10
16.2913398665338
20
-1.57020714407122
30
0
41
1
10
16.4103293557319
20
-1.6090446910078
30
0
41
1
10
16.6481454936618
20
-1.68166274514144
30
0
41
1
10
16.7667563039909
20
-1.71565042066158
30
0
41
1
10
17.1226400447834
20
-1.80933366906942
30
0
41
1
10
17.3625522563384
20
-1.8587758258835
30
0
41
1
10
17.7241858473536
20
-1.91528789416114
30
0
41
1
10
17.8445655499289
20
-1.93096411618242
30
0
41
1
10
18.0831088089474
20
-1.95597872137594
30
0
41
1
10
18.2021688102383
20
-1.96503438097312
30
0
41
1
10
18.4263745473978
20
-1.97578291670592
30
0
41
1
10
18.5312920730026
20
-1.97832068635267
30
0
41
1
10
18.6360874266092
20
-1.97833974299957
30
0
0
SPLINE
5
C4
100
AcDbEntity
8
1
62
256
6
ByLayer
370
18
48
1
60
0
100
AcDbSpline
70
4
71
3
72
78
73
74
40
0
40
0
40
0
40
0
40
0.0452232578137276
40
0.0452232578137276
40
0.069227086358661
40
0.069227086358661
40
0.0932309149035944
40
0.0932309149035944
40
0.117234743448528
40
0.117234743448528
40
0.141238571993461
40
0.141238571993461
40
0.165242400538395
40
0.165242400538395
40
0.189246229083328
40
0.189246229083328
40
0.213250057628261
40
0.213250057628261
40
0.237253886173194
40
0.237253886173194
40
0.261257714718127
40
0.261257714718127
40
0.285261543263061
40
0.285261543263061
40
0.309265371807994
40
0.309265371807994
40
0.333269200352928
40
0.333269200352928
40
0.357273028897861
40
0.357273028897861
40
0.381276857442794
40
0.381276857442794
40
0.429284514532658
40
0.429284514532658
40
0.453288343077591
40
0.453288343077591
40
0.477292171622523
40
0.477292171622523
40
0.525299828712388
40
0.525299828712388
40
0.549303657257321
40
0.549303657257321
40
0.573307485802254
40
0.573307485802254
40
0.597311314347188
40
0.597311314347188
40
0.621315142892121
40
0.621315142892121
40
0.669322799981985
40
0.669322799981985
40
0.693326628526919
40
0.693326628526919
40
0.717330457071852
40
0.717330457071852
40
0.765338114161716
40
0.765338114161716
40
0.789341942706649
40
0.789341942706649
40
0.813345771251581
40
0.813345771251581
40
0.837349599796513
40
0.837349599796513
40
0.861353428341446
40
0.861353428341446
40
0.90936108543131
40
0.90936108543131
40
0.933364913976242
40
0.933364913976242
40
0.957368742521175
40
0.957368742521175
40
0.981372571066107
40
0.981372571066107
40
1
40
1
40
1
40
1
41
1
10
26.2362105084751
20
1.04104460789617
30
0
41
1
10
26.4596655423634
20
1.14709001553527
30
0
41
1
10
26.6840992092319
20
1.24490663935845
30
0
41
1
10
27.0273835327563
20
1.3849400535031
30
0
41
1
10
27.1462676192597
20
1.43179600526432
30
0
41
1
10
27.3841622767153
20
1.52132506100475
30
0
41
1
10
27.5038644915544
20
1.56313547812445
30
0
41
1
10
27.7445487215062
20
1.64127148425408
30
0
41
1
10
27.8653252249767
20
1.6776680769579
30
0
41
1
10
28.1051844207992
20
1.74466053056705
30
0
41
1
10
28.2246929631423
20
1.77527280989435
30
0
41
1
10
28.4621022263544
20
1.83117403262574
30
0
41
1
10
28.58062849052
20
1.85591891161081
30
0
41
1
10
28.8183982037767
20
1.89861191306878
30
0
41
1
10
28.9374007571863
20
1.91674930107308
30
0
41
1
10
29.1751729670794
20
1.94690466712785
30
0
41
1
10
29.2940544625904
20
1.9588736788505
30
0
41
1
10
29.5314136785826
20
1.97648809784303
30
0
41
1
10
29.6497503994201
20
1.98207667036456
30
0
41
1
10
29.8883347579893
20
1.9864267115135
30
0
41
1
10
30.008281722597
20
1.98530655804933
30
0
41
1
10
30.2488467356891
20
1.97647977566277
30
0
41
1
10
30.3695758830491
20
1.96873935079876
30
0
41
1
10
30.6091188337483
20
1.94663149689032
30
0
41
1
10
30.7278373051738
20
1.93204371078059
30
0
41
1
10
30.9657450480928
20
1.89688278632823
30
0
41
1
10
31.0848626208984
20
1.87636421393793
30
0
41
1
10
31.322894393235
20
1.82941825754622
30
0
41
1
10
31.4417602528205
20
1.80294223784907
30
0
41
1
10
31.6792231290251
20
1.74393516299062
30
0
41
1
10
31.7974885300506
20
1.7110946967878
30
0
41
1
10
32.1528241858334
20
1.60395562703218
30
0
41
1
10
32.3920966532817
20
1.52309129583449
30
0
41
1
10
32.7523852123758
20
1.38532208805412
30
0
41
1
10
32.872999121648
20
1.33666681944536
30
0
41
1
10
33.1116741795244
20
1.2338652472871
30
0
41
1
10
33.2309580483088
20
1.18095991783727
30
0
41
1
10
33.5889161771024
20
1.01843699987091
30
0
41
1
10
33.8271406153963
20
0.904250005135253
30
0
41
1
10
34.1822372710944
20
0.721411966958357
30
0
41
1
10
34.3002666332156
20
0.658552477327106
30
0
41
1
10
34.5378914355945
20
0.532927791120841
30
0
41
1
10
34.6571553820541
20
0.469612657621951
30
0
41
1
10
34.895989019518
20
0.340915250248258
30
0
41
1
10
35.0156498894527
20
0.27569640412807
30
0
41
1
10
35.2552539614314
20
0.143012115249945
30
0
41
1
10
35.3750944391018
20
0.0747342285290529
30
0
41
1
10
35.7343478756313
20
-0.12561422328298
30
0
41
1
10
35.9735163159492
20
-0.255851776058961
30
0
41
1
10
36.3299702877104
20
-0.449802943939346
30
0
41
1
10
36.4480599680532
20
-0.514808138920472
30
0
41
1
10
36.6847487265047
20
-0.641975205252464
30
0
41
1
10
36.8035349718802
20
-0.703829282259875
30
0
41
1
10
37.160605240768
20
-0.885383553086712
30
0
41
1
10
37.3992989207062
20
-1.0016289116993
30
0
41
1
10
37.7574892773608
20
-1.16963522500893
30
0
41
1
10
37.877983422455
20
-1.22329791196086
30
0
41
1
10
38.1180660921987
20
-1.32515148857968
30
0
41
1
10
38.2378179824453
20
-1.37363010603181
30
0
41
1
10
38.4764932393976
20
-1.46612137791118
30
0
41
1
10
38.5955257230821
20
-1.51000101420382
30
0
41
1
10
38.832313708257
20
-1.59365504497279
30
0
41
1
10
38.9504787064927
20
-1.63289953076429
30
0
41
1
10
39.306631645005
20
-1.74070096501148
30
0
41
1
10
39.5448990976214
20
-1.80105262613151
30
0
41
1
10
39.9019784976867
20
-1.87506240771725
30
0
41
1
10
40.0207238756039
20
-1.89701525323554
30
0
41
1
10
40.2603500189334
20
-1.93377762918578
30
0
41
1
10
40.3811616765969
20
-1.94882904586527
30
0
41
1
10
40.621259826156
20
-1.97236741757206
30
0
41
1
10
40.7408677717202
20
-1.98087421670428
30
0
41
1
10
40.952432084264
20
-1.99018339529377
30
0
41
1
10
41.0443202078284
20
-1.99227541758884
30
0
41
1
10
41.1362189814408
20
-1.99235022814042
30
0
0
SPLINE
5
C5
100
AcDbEntity
8
1
62
256
6
ByLayer
370
18
48
1
60
0
100
AcDbSpline
70
4
71
3
72
28
73
24
40
0
40
0
40
0
40
0
40
0.0745060183667888
40
0.0745060183667888
40
0.151630516836221
40
0.151630516836221
40
0.228755015305654
40
0.228755015305654
40
0.305879513775086
40
0.305879513775086
40
0.383004012244518
40
0.383004012244518
40
0.537253009183388
40
0.537253009183388
40
0.614377507652824
40
0.614377507652824
40
0.691502006122259
40
0.691502006122259
40
0.845751003061129
40
0.845751003061129
40
0.922875501530564
40
0.922875501530564
40
1
40
1
40
1
40
1
41
1
10
48.7324968422059
20
1.04252507683728
30
0
41
1
10
48.8473385087083
20
1.0967760396932
30
0
41
1
10
48.9619214046545
20
1.14955065977105
30
0
41
1
10
49.1943381533964
20
1.25429743701315
30
0
41
1
10
49.3122453637105
20
1.30595499254534
30
0
41
1
10
49.5495614945182
20
1.40315803999656
30
0
41
1
10
49.66863943153
20
1.44920013669409
30
0
41
1
10
49.9070537059716
20
1.53693832469185
30
0
41
1
10
50.0264855184606
20
1.57851081581296
30
0
41
1
10
50.2655672483619
20
1.65715419417899
30
0
41
1
10
50.3852266279034
20
1.69460377411428
30
0
41
1
10
50.7445234245937
20
1.79577349139686
30
0
41
1
10
50.9836006234917
20
1.85009881588996
30
0
41
1
10
51.3397617519659
20
1.91407283653021
30
0
41
1
10
51.4577159703929
20
1.93256540965757
30
0
41
1
10
51.6941695506382
20
1.96270390206769
30
0
41
1
10
51.8128207417436
20
1.97436196399764
30
0
41
1
10
52.1694124336054
20
1.99970943725464
30
0
41
1
10
52.4076735555215
20
2.00396107010684
30
0
41
1
10
52.765197310001
20
1.98968184722463
30
0
41
1
10
52.8854609917463
20
1.98152603862948
30
0
41
1
10
53.1258857534141
20
1.95883475650342
30
0
41
1
10
53.246015473737
20
1.94427830743339
30
0
41
1
10
53.3659341502144
20
1.92646986931234
30
0
0
SPLINE
5
C6
100
AcDbEntity
8
1
62
256
6
ByLayer
370
18
48
1
60
0
100
AcDbSpline
70
4
71
3
72
8
73
4
40
0
40
0
40
0
40
0
40
1
40
1
40
1
40
1
41
1
10
53.9999574129276
20
0.0260087696047435
30
0
41
1
10
53.9950684706297
20
0.0122276011790916
30
0
41
1
10
53.9890776738266
20
-0.0015639110582697
30
0
41
1
10
53.9831650436979
20
-0.0124857497833375
30
0
0
SPLINE
5
C7
100
AcDbEntity
8
1
62
256
6
ByLayer
370
13
48
1
60
0
100
AcDbSpline
70
4
71
3
72
17
73
13
40
0
40
0
40
0
40
0
40
0.25
40
0.25
40
0.375
40
0.375
40
0.5
40
0.625
40
0.625
40
0.75
40
0.75
40
1
40
1
40
1
40
1
41
1
10
7.61639634973955
20
-1.84898135116794
30
0
41
1
10
7.61638325119989
20
-1.82656313195443
30
0
41
1
10
7.61635836609122
20
-1.78819668574306
30
0
41
1
10
7.61631299123493
20
-1.70749673256984
30
0
41
1
10
7.61629641579285
20
-1.67651236782052
30
0
41
1
10
7.61626249127539
20
-1.60730221564299
30
0
41
1
10
7.61622805387321
20
-1.53139912324909
30
0
41
1
10
7.61619555672973
20
-1.44251772465435
30
0
41
1
10
7.61616537058262
20
-1.34709156630521
30
0
41
1
10
7.61615137791901
20
-1.2958509537892
30
0
41
1
10
7.61611519659658
20
-1.13382185140458
30
0
41
1
10
7.6160989825066
20
-1.01443373606608
30
0
41
1
10
7.61609375767188
20
-0.888155912665837
30
0
0
SPLINE
5
C8
100
AcDbEntity
8
1
62
256
6
ByLayer
370
18
48
1
60
0
100
AcDbSpline
70
4
71
3
72
72
73
68
40
0
40
0
40
0
40
0
40
0.0142509563371706
40
0.0142509563371706
40
0.0376899213658289
40
0.0376899213658289
40
0.0611288863944873
40
0.0611288863944873
40
0.108006816451804
40
0.108006816451804
40
0.131445781480462
40
0.131445781480462
40
0.154884746509121
40
0.154884746509121
40
0.201762676566439
40
0.201762676566439
40
0.2252016415951
40
0.2252016415951
40
0.24864060662376
40
0.24864060662376
40
0.295518536681081
40
0.295518536681081
40
0.342396466738402
40
0.342396466738402
40
0.365835431767063
40
0.365835431767063
40
0.389274396795723
40
0.389274396795723
40
0.436152326853046
40
0.436152326853046
40
0.459591291881708
40
0.459591291881708
40
0.48303025691037
40
0.48303025691037
40
0.529908186967693
40
0.529908186967693
40
0.576786117025016
40
0.576786117025016
40
0.600225082053678
40
0.600225082053678
40
0.623664047082339
40
0.623664047082339
40
0.67054197713966
40
0.67054197713966
40
0.693980942168321
40
0.693980942168321
40
0.717419907196981
40
0.717419907196981
40
0.740858872225642
40
0.740858872225642
40
0.764297837254302
40
0.764297837254302
40
0.811175767311624
40
0.811175767311624
40
0.834614732340283
40
0.834614732340283
40
0.858053697368942
40
0.858053697368942
40
0.904931627426261
40
0.904931627426261
40
0.92837059245492
40
0.92837059245492
40
0.95180955748358
40
0.95180955748358
40
0.998687487540896
40
0.998687487540896
40
1
40
1
40
1
40
1
41
1
10
48.7517658169768
20
-1.04182472158288
30
0
41
1
10
48.6820877568857
20
-1.07276091774125
30
0
41
1
10
48.6124400451118
20
-1.10300412560159
30
0
41
1
10
48.4283140671669
20
-1.18103654698277
30
0
41
1
10
48.31383831894
20
-1.22759442447915
30
0
41
1
10
48.0845888637692
20
-1.3169693501427
30
0
41
1
10
47.969898941911
20
-1.35985782794742
30
0
41
1
10
47.6264081334688
20
-1.48355637267835
30
0
41
1
10
47.3965040790852
20
-1.5574703191098
30
0
41
1
10
47.0488890225894
20
-1.65144069377541
30
0
41
1
10
46.9322892887992
20
-1.67985919738291
30
0
41
1
10
46.7002738327565
20
-1.73312625093035
30
0
41
1
10
46.5847142961679
20
-1.75744773101556
30
0
41
1
10
46.2372732689036
20
-1.82144405277228
30
0
41
1
10
46.0054421906609
20
-1.8530753458767
30
0
41
1
10
45.6563108219901
20
-1.88131204102504
30
0
41
1
10
45.5406921338202
20
-1.88743455155534
30
0
41
1
10
45.3098807739578
20
-1.89423521111007
30
0
41
1
10
45.1946330330811
20
-1.89483505248509
30
0
41
1
10
44.8493584575093
20
-1.88807743616661
30
0
41
1
10
44.6193283493418
20
-1.87240334825791
30
0
41
1
10
44.1612724258412
20
-1.81730127075525
30
0
41
1
10
43.9318271370514
20
-1.77872120480703
30
0
41
1
10
43.5858280700627
20
-1.70285713784335
30
0
41
1
10
43.47000566818
20
-1.67482077550986
30
0
41
1
10
43.2382872961461
20
-1.61374036796607
30
0
41
1
10
43.1221342585684
20
-1.58034735238468
30
0
41
1
10
42.7744750158582
20
-1.47438123760315
30
0
41
1
10
42.5438193948389
20
-1.3955927204133
30
0
41
1
10
42.1990813394899
20
-1.26337732268596
30
0
41
1
10
42.0847158201473
20
-1.21664289549864
30
0
41
1
10
41.8557125422025
20
-1.12084753722317
30
0
41
1
10
41.7411203037333
20
-1.07142927508863
30
0
41
1
10
41.3970187720755
20
-0.918385099113578
30
0
41
1
10
41.1666778378221
20
-0.811222060957505
30
0
41
1
10
40.7056714260098
20
-0.58250776275915
30
0
41
1
10
40.4724952085001
20
-0.463587560241081
30
0
41
1
10
40.1253441103797
20
-0.283864301368993
30
0
41
1
10
40.0097250105463
20
-0.22405220607186
30
0
41
1
10
39.7795375730411
20
-0.102949213545543
30
0
41
1
10
39.6650645093772
20
-0.0415021066881707
30
0
41
1
10
39.3211275530057
20
0.140885813727664
30
0
41
1
10
39.0917799677446
20
0.261295790170749
30
0
41
1
10
38.7469138262598
20
0.438516615356264
30
0
41
1
10
38.6321922059812
20
0.497742487592234
30
0
41
1
10
38.4021765985156
20
0.614524098192646
30
0
41
1
10
38.2868256220509
20
0.671976715028563
30
0
41
1
10
38.0553114409148
20
0.784663443089045
30
0
41
1
10
37.9388709482866
20
0.839853383316921
30
0
41
1
10
37.7062418765854
20
0.947214137508126
30
0
41
1
10
37.5901620088883
20
0.999426140541658
30
0
41
1
10
37.2438774781216
20
1.15268863008538
30
0
41
1
10
37.0137770419856
20
1.24755930392055
30
0
41
1
10
36.6688864230933
20
1.37557296347762
30
0
41
1
10
36.5538189343739
20
1.41564282357078
30
0
41
1
10
36.3239149001807
20
1.49250258929845
30
0
41
1
10
36.2092841612123
20
1.52944249115123
30
0
41
1
10
35.863919050104
20
1.63220397063031
30
0
41
1
10
35.6326881323401
20
1.69135767716392
30
0
41
1
10
35.283076564784
20
1.76218354247604
30
0
41
1
10
35.1668202276051
20
1.78295786407747
30
0
41
1
10
34.9346229419751
20
1.81906974507868
30
0
41
1
10
34.8184627792465
20
1.83444049075072
30
0
41
1
10
34.4697890866761
20
1.87244048779547
30
0
41
1
10
34.2363174383672
20
1.88711629275545
30
0
41
1
10
33.9973118511102
20
1.8879881132608
30
0
41
1
10
33.9908036881872
20
1.88800089326571
30
0
41
1
10
33.9842968408987
20
1.88800291860417
30
0
0
SPLINE
5
C9
100
AcDbEntity
8
1
62
256
6
ByLayer
370
18
48
1
60
0
100
AcDbSpline
70
4
71
3
72
82
73
78
40
0
40
0
40
0
40
0
40
0.0160686848071262
40
0.0160686848071262
40
0.039558285349283
40
0.039558285349283
40
0.0865374864335961
40
0.0865374864335961
40
0.110027086975753
40
0.110027086975753
40
0.13351668751791
40
0.13351668751791
40
0.180495888602223
40
0.180495888602223
40
0.20398548914438
40
0.20398548914438
40
0.227475089686537
40
0.227475089686537
40
0.250964690228694
40
0.250964690228694
40
0.274454290770851
40
0.274454290770851
40
0.297943891313008
40
0.297943891313008
40
0.321433491855165
40
0.321433491855165
40
0.344923092397322
40
0.344923092397322
40
0.368412692939479
40
0.368412692939479
40
0.391902293481637
40
0.391902293481637
40
0.415391894023794
40
0.415391894023794
40
0.438881494565951
40
0.438881494565951
40
0.462371095108108
40
0.462371095108108
40
0.485860695650265
40
0.485860695650265
40
0.509350296192422
40
0.509350296192422
40
0.532839896734579
40
0.532839896734579
40
0.556329497276736
40
0.556329497276736
40
0.579819097818893
40
0.579819097818893
40
0.60330869836105
40
0.60330869836105
40
0.626798298903207
40
0.626798298903207
40
0.650287899445364
40
0.650287899445364
40
0.697267100529678
40
0.697267100529678
40
0.720756701071835
40
0.720756701071835
40
0.744246301613992
40
0.744246301613992
40
0.767735902156149
40
0.767735902156149
40
0.791225502698306
40
0.791225502698306
40
0.814715103240463
40
0.814715103240463
40
0.83820470378262
40
0.83820470378262
40
0.885183904866933
40
0.885183904866933
40
0.932163105951246
40
0.932163105951246
40
0.955652706493403
40
0.955652706493403
40
0.97914230703556
40
0.97914230703556
40
1
40
1
40
1
40
1
41
1
10
26.2745214712139
20
-1.0267207736095
30
0
41
1
10
26.1948138192843
20
-1.06146716774231
30
0
41
1
10
26.1149231285706
20
-1.09540361707167
30
0
41
1
10
25.9188958504453
20
-1.17765885028638
30
0
41
1
10
25.8028245011149
20
-1.22522552797258
30
0
41
1
10
25.4539456805494
20
-1.36106420158831
30
0
41
1
10
25.2212093533447
20
-1.44357527417429
30
0
41
1
10
24.8709437657476
20
-1.5519527208609
30
0
41
1
10
24.7547015205505
20
-1.58556057556629
30
0
41
1
10
24.5228769553863
20
-1.64728273953418
30
0
41
1
10
24.4070501193866
20
-1.67578065943854
30
0
41
1
10
24.0600291274152
20
-1.75370382719774
30
0
41
1
10
23.8289023201952
20
-1.79550417499368
30
0
41
1
10
23.4840254445566
20
-1.8393787272613
30
0
41
1
10
23.3690122939588
20
-1.85053407525359
30
0
41
1
10
23.1384631406829
20
-1.86753515913401
30
0
41
1
10
23.0229727580716
20
-1.87357074619041
30
0
41
1
10
22.7913828491348
20
-1.88026509120516
30
0
41
1
10
22.6750788570137
20
-1.88094530343182
30
0
41
1
10
22.4428160418866
20
-1.87626810584521
30
0
41
1
10
22.326130441551
20
-1.87087625667624
30
0
41
1
10
22.0935070495399
20
-1.85319130442289
30
0
41
1
10
21.9776683210174
20
-1.84074108003634
30
0
41
1
10
21.7462728899697
20
-1.81088657022724
30
0
41
1
10
21.630653527645
20
-1.79366711712103
30
0
41
1
10
21.3996783683945
20
-1.75433826827816
30
0
41
1
10
21.2847874473625
20
-1.73185732251554
30
0
41
1
10
21.0548097925419
20
-1.68170241748263
30
0
41
1
10
20.9397770158772
20
-1.65405314051227
30
0
41
1
10
20.7095928286489
20
-1.59295062488476
30
0
41
1
10
20.5944171832368
20
-1.55932078353192
30
0
41
1
10
20.3635059284286
20
-1.48797103423777
30
0
41
1
10
20.2479170362767
20
-1.45017739804331
30
0
41
1
10
20.0166758418259
20
-1.36959792884397
30
0
41
1
10
19.9006798309357
20
-1.32719937778259
30
0
41
1
10
19.6677229026329
20
-1.23820140480237
30
0
41
1
10
19.5509131151525
20
-1.19159153292625
30
0
41
1
10
19.3185123500101
20
-1.09526485541545
30
0
41
1
10
19.2024395401195
20
-1.04573744103467
30
0
41
1
10
18.9718370153367
20
-0.942018190689652
30
0
41
1
10
18.8567845088691
20
-0.888761397462531
30
0
41
1
10
18.6266544986359
20
-0.780103806658076
30
0
41
1
10
18.5117178589762
20
-0.724277684109239
30
0
41
1
10
18.2815863657771
20
-0.611465855428435
30
0
41
1
10
18.1663784882913
20
-0.554477401079509
30
0
41
1
10
17.9357815760369
20
-0.438844497713632
30
0
41
1
10
17.8208420189103
20
-0.37936282807712
30
0
41
1
10
17.590189954612
20
-0.259778643037464
30
0
41
1
10
17.4745427714311
20
-0.199592356335074
30
0
41
1
10
17.2425116710527
20
-0.0783335850925653
30
0
41
1
10
17.1259619103287
20
-0.0170922851525575
30
0
41
1
10
16.8922913723718
20
0.104870530324803
30
0
41
1
10
16.7755859124712
20
0.165729241729565
30
0
41
1
10
16.4265815275245
20
0.348585331138679
30
0
41
1
10
16.1938658887226
20
0.468166550703245
30
0
41
1
10
15.8435318563753
20
0.641878101887158
30
0
41
1
10
15.7262138776315
20
0.698434706020493
30
0
41
1
10
15.4936903177782
20
0.81076861051767
30
0
41
1
10
15.3776677286113
20
0.865652501163879
30
0
41
1
10
15.1459888762118
20
0.971714931246368
30
0
41
1
10
15.0303975940597
20
1.02293629638456
30
0
41
1
10
14.7993148835625
20
1.12184600608907
30
0
41
1
10
14.6837704679644
20
1.16956537427526
30
0
41
1
10
14.4528346366916
20
1.26096373710348
30
0
41
1
10
14.3379145981539
20
1.30543518515327
30
0
41
1
10
14.1073411240857
20
1.38972858363684
30
0
41
1
10
13.9918447392479
20
1.42972131859193
30
0
41
1
10
13.6446631759075
20
1.5426065607366
30
0
41
1
10
13.4116346671641
20
1.60832949821321
30
0
41
1
10
12.9449133320699
20
1.72112500882855
30
0
41
1
10
12.7128939083811
20
1.76618585292189
30
0
41
1
10
12.3657916194859
20
1.81615876978225
30
0
41
1
10
12.2500586438166
20
1.82986256029588
30
0
41
1
10
12.0198208233604
20
1.85213346766372
30
0
41
1
10
11.9047343414104
20
1.86041802040498
30
0
41
1
10
11.6871658861727
20
1.87066904548905
30
0
41
1
10
11.5847547889049
20
1.87324318769782
30
0
41
1
10
11.482201365451
20
1.87346596872939
30
0
0
SPLINE
5
CA
100
AcDbEntity
8
1
62
256
6
ByLayer
370
18
48
1
60
0
100
AcDbSpline
70
4
71
3
72
12
73
8
40
0
40
0
40
0
40
0
40
0.25
40
0.25
40
0.499999999999999
40
0.499999999999999
40
1
40
1
40
1
40
1
41
1
10
53.1466991206656
20
0.5170172153002
30
0
41
1
10
53.1445065937765
20
0.526875126632888
30
0
41
1
10
53.1441597909168
20
0.537213838331979
30
0
41
1
10
53.1490160960637
20
0.556679220604025
30
0
41
1
10
53.1544176616834
20
0.565793449169547
30
0
41
1
10
53.1770576394799
20
0.586537845432872
30
0
41
1
10
53.1981560013542
20
0.591229989769261
30
0
41
1
10
53.2183774228163
20
0.591256009648646
30
0
0
SPLINE
5
CB
100
AcDbEntity
8
1
62
256
6
ByLayer
370
13
48
1
60
0
100
AcDbSpline
70
4
71
3
72
8
73
4
40
0
40
0
40
0
40
0
40
1
40
1
40
1
40
1
41
1
10
7.54490761699964
20
-1.95776942518447
30
0
41
1
10
7.55255575483488
20
-1.95708100354383
30
0
41
1
10
7.56030673343827
20
-1.95696317804513
30
0
41
1
10
7.56816104981323
20
-1.95744800720706
30
0
0
SPLINE
5
CC
100
AcDbEntity
8
1
62
256
6
ByLayer
370
18
48
1
60
0
100
AcDbSpline
70
4
71
3
72
8
73
4
40
0
40
0
40
0
40
0
40
1
40
1
40
1
40
1
41
1
10
53.9808303649198
20
-0.108605034318885
30
0
41
1
10
53.9838716802666
20
-0.0857281232579226
30
0
41
1
10
53.99088272574
20
-0.0566352885293497
30
0
41
1
10
53.9999574129217
20
-0.0260087695652373
30
0
0
SPLINE
5
CD
100
AcDbEntity
8
1
62
256
6
ByLayer
370
13
48
1
60
0
100
AcDbSpline
70
4
71
3
72
8
73
4
40
0
40
0
40
0
40
0
40
1
40
1
40
1
40
1
41
1
10
7.41634790967612
20
-1.93402805457879
30
0
41
1
10
7.43678433844428
20
-1.91024503832824
30
0
41
1
10
7.46316392382039
20
-1.88937319712164
30
0
41
1
10
7.49490875607211
20
-1.87372691197714
30
0
0
SPLINE
5
CE
100
AcDbEntity
8
1
62
256
6
ByLayer
370
18
48
1
60
0
100
AcDbSpline
70
4
71
3
72
8
73
4
40
0
40
0
40
0
40
0
40
1
40
1
40
1
40
1
41
1
10
53.9042200733795
20
0.605013129946201
30
0
41
1
10
53.9332892659932
20
0.439523464758935
30
0
41
1
10
53.9588351479736
20
0.274054047150258
30
0
41
1
10
53.9808303649197
20
0.108605034318998
30
0
0
SPLINE
5
CF
100
AcDbEntity
8
1
62
256
6
ByLayer
370
18
48
1
60
0
100
AcDbSpline
70
4
71
3
72
40
73
36
40
0
40
0
40
0
40
0
40
0.123372713452034
40
0.123372713452034
40
0.154215891815042
40
0.154215891815042
40
0.185059070178051
40
0.185059070178051
40
0.24674542690407
40
0.24674542690407
40
0.30843178363009
40
0.30843178363009
40
0.3392749619931
40
0.3392749619931
40
0.37011814035611
40
0.37011814035611
40
0.493490853808155
40
0.493490853808155
40
0.555177210534178
40
0.555177210534178
40
0.58602038889719
40
0.58602038889719
40
0.616863567260202
40
0.616863567260202
40
0.740236280712258
40
0.740236280712258
40
0.771079459075271
40
0.771079459075271
40
0.801922637438285
40
0.801922637438285
40
0.863608994164311
40
0.863608994164311
40
0.986981707616364
40
0.986981707616364
40
1
40
1
40
1
40
1
41
1
10
53.2865485696765
20
-1.99192936106741
30
0
41
1
10
52.8095090593162
20
-2.01554677583135
30
0
41
1
10
52.3353888119217
20
-1.98570978600031
30
0
41
1
10
51.7365198975841
20
-1.8833846634939
30
0
41
1
10
51.6163570434598
20
-1.85965218289195
30
0
41
1
10
51.377432473999
20
-1.80631140239657
30
0
41
1
10
51.2583879398749
20
-1.77665006206595
30
0
41
1
10
50.9019924720605
20
-1.67924103386835
30
0
41
1
10
50.6653495251619
20
-1.60310208926885
30
0
41
1
10
50.1918072691716
20
-1.4310213939836
30
0
41
1
10
49.9549434278728
20
-1.33504642864276
30
0
41
1
10
49.5980228629943
20
-1.17786243841965
30
0
41
1
10
49.4787405155389
20
-1.12331746343477
30
0
41
1
10
49.239262704538
20
-1.01030092116107
30
0
41
1
10
49.1190482251327
20
-0.951803841174041
30
0
41
1
10
48.5214978902655
20
-0.653768743035272
30
0
41
1
10
48.0498423579545
20
-0.394599334338494
30
0
41
1
10
47.338471648518
20
0.0010645262263438
30
0
41
1
10
47.1006888196821
20
0.134075437280416
30
0
41
1
10
46.7415916159312
20
0.33271217240565
30
0
41
1
10
46.6213830262979
20
0.398720744088337
30
0
41
1
10
46.3823615198706
20
0.528296056622594
30
0
41
1
10
46.2632285364723
20
0.59205184174948
30
0
41
1
10
45.6687644692045
20
0.90459194750693
30
0
41
1
10
45.1974416385754
20
1.13531454913317
30
0
41
1
10
44.6023176130561
20
1.38165592923704
30
0
41
1
10
44.4829967517218
20
1.42882825181741
30
0
41
1
10
44.2434914373682
20
1.51855482878466
30
0
41
1
10
44.1232037522911
20
1.56112764049286
30
0
41
1
10
43.7644912339382
20
1.68003366998755
30
0
41
1
10
43.5269759657952
20
1.74808702571195
30
0
41
1
10
42.8160662674622
20
1.91635097930868
30
0
41
1
10
42.3436190090245
20
1.98028094718097
30
0
41
1
10
41.8142483508306
20
1.99222469510053
30
0
41
1
10
41.7636166907904
20
1.99276618605796
30
0
41
1
10
41.71297714027
20
1.99271127702579
30
0
0
SPLINE
5
D0
100
AcDbEntity
8
1
62
256
6
ByLayer
370
18
48
1
60
0
100
AcDbSpline
70
4
71
3
72
48
73
44
40
0
40
0
40
0
40
0
40
0.0035354075754726
40
0.0035354075754726
40
0.0325177155549324
40
0.0325177155549324
40
0.0904823315138523
40
0.0904823315138523
40
0.148446947472772
40
0.148446947472772
40
0.177429255452231
40
0.177429255452231
40
0.20641156343169
40
0.20641156343169
40
0.322340795349524
40
0.322340795349524
40
0.38030541130844
40
0.38030541130844
40
0.409287719287897
40
0.409287719287897
40
0.438270027267353
40
0.438270027267353
40
0.55419925918518
40
0.55419925918518
40
0.583181567164636
40
0.583181567164636
40
0.612163875144092
40
0.612163875144092
40
0.670128491103004
40
0.670128491103004
40
0.786057723020828
40
0.786057723020828
40
0.815040031000284
40
0.815040031000284
40
0.84402233897974
40
0.84402233897974
40
0.901986954938652
40
0.901986954938652
40
0.959951570897563
40
0.959951570897563
40
0.988933878877018
40
0.988933878877018
40
1
40
1
40
1
40
1
41
1
10
31.5504087981275
20
-1.89593901666768
30
0
41
1
10
31.5357770088973
20
-1.89835105096481
30
0
41
1
10
31.5211516417135
20
-1.9007143435978
30
0
41
1
10
31.3867122620188
20
-1.92199699831267
30
0
41
1
10
31.2673100890448
20
-1.93770082566579
30
0
41
1
10
30.9099631988865
20
-1.97502022672583
30
0
41
1
10
30.6728859296739
20
-1.98684327251763
30
0
41
1
10
30.1988668148055
20
-1.98435610161798
30
0
41
1
10
29.9617962039667
20
-1.97006875432757
30
0
41
1
10
29.604729973956
20
-1.92913175562973
30
0
41
1
10
29.4854438783412
20
-1.9122389067993
30
0
41
1
10
29.2460885385843
20
-1.87196495685683
30
0
41
1
10
29.1256959607698
20
-1.84850778088588
30
0
41
1
10
28.5263163429982
20
-1.71644323412715
30
0
41
1
10
28.0536637612312
20
-1.56336147514446
30
0
41
1
10
27.341780359651
20
-1.27843314814771
30
0
41
1
10
27.1040035278039
20
-1.17424667202315
30
0
41
1
10
26.7449534256411
20
-1.00623725687134
30
0
41
1
10
26.6245432026961
20
-0.948121682282334
30
0
41
1
10
26.3846408573285
20
-0.82933363190736
30
0
41
1
10
26.265137398416
20
-0.768651431095435
30
0
41
1
10
25.6693672233087
20
-0.459692962878592
30
0
41
1
10
25.196846926499
20
-0.197444940480693
30
0
41
1
10
24.6019974828829
20
0.132206665516009
30
0
41
1
10
24.482761223917
20
0.198125862850674
30
0
41
1
10
24.2434583657042
20
0.329392252711273
30
0
41
1
10
24.1230766813997
20
0.394921141747716
30
0
41
1
10
23.762957418981
20
0.588475654672749
30
0
41
1
10
23.5246662143115
20
0.713465885343254
30
0
41
1
10
22.8122332782903
20
1.07158343989474
30
0
41
1
10
22.3395026116138
20
1.28616679726764
30
0
41
1
10
21.7414791155794
20
1.50879762116452
30
0
41
1
10
21.6211758091546
20
1.55107686824201
30
0
41
1
10
21.3810131207754
20
1.6300385442216
30
0
41
1
10
21.2613691041422
20
1.66666656688949
30
0
41
1
10
20.9033314232031
20
1.76776106862508
30
0
41
1
10
20.6658616801088
20
1.82348034291272
30
0
41
1
10
20.1914650405085
20
1.91040378976635
30
0
41
1
10
19.9543725121898
20
1.94149379663938
30
0
41
1
10
19.5973154967932
20
1.96875529613447
30
0
41
1
10
19.4780653229917
20
1.97461482433474
30
0
41
1
10
19.3127774139725
20
1.97815079641848
30
0
41
1
10
19.2670148743833
20
1.97864494727443
30
0
41
1
10
19.2212011906597
20
1.97865422387858
30
0
0
SPLINE
5
D1
100
AcDbEntity
8
1
62
256
6
ByLayer
370
18
48
1
60
0
100
AcDbSpline
70
4
71
3
72
10
73
6
40
0
40
0
40
0
40
0
40
0.0566023964590338
40
0.0566023964590338
40
1
40
1
40
1
40
1
41
1
10
9.07066825595118
20
-1.87919116597217
30
0
41
1
10
9.0418413057414
20
-1.88399433515124
30
0
41
1
10
9.01298977983075
20
-1.88861978238927
30
0
41
1
10
8.5028018053693
20
-1.96716499318677
30
0
41
1
10
8.02567155345315
20
-1.98904750002205
30
0
41
1
10
7.54490761699958
20
-1.95776942518466
30
0
0
SPLINE
5
D2
100
AcDbEntity
8
1
62
256
6
ByLayer
370
13
48
1
60
0
100
AcDbSpline
70
4
71
3
72
28
73
24
40
0
40
0
40
0
40
0
40
0.0812222656741816
40
0.0812222656741816
40
0.162444531348363
40
0.162444531348363
40
0.324889062696726
40
0.324889062696726
40
0.406111328370908
40
0.406111328370908
40
0.446722461207999
40
0.446722461207999
40
0.48733359404509
40
0.48733359404509
40
0.649778125393453
40
0.649778125393453
40
0.731000391067636
40
0.731000391067636
40
0.81222265674182
40
0.81222265674182
40
0.974667188090186
40
0.974667188090186
40
1
40
1
40
1
40
1
41
1
10
53.305335457683
20
-1.89864739058783
30
0
41
1
10
53.0662028432637
20
-1.90335782682593
30
0
41
1
10
52.827290022193
20
-1.89523993347873
30
0
41
1
10
52.3479968385655
20
-1.85366828253211
30
0
41
1
10
52.1099527218744
20
-1.82039225351326
30
0
41
1
10
51.4000707177875
20
-1.68653579107689
30
0
41
1
10
50.9314248468062
20
-1.55151762255664
30
0
41
1
10
50.2230828943587
20
-1.29331824741632
30
0
41
1
10
49.9861093222186
20
-1.197919736708
30
0
41
1
10
49.627968291322
20
-1.04262619325434
30
0
41
1
10
49.5078914870045
20
-0.988737833157813
30
0
41
1
10
49.2692301000081
20
-0.878556575243039
30
0
41
1
10
49.1503475676622
20
-0.822141095936729
30
0
41
1
10
48.5575145965541
20
-0.534688913266507
30
0
41
1
10
48.0885135272509
20
-0.28716294461924
30
0
41
1
10
47.3809629250426
20
0.0874868056546347
30
0
41
1
10
47.1443802099208
20
0.212841756712578
30
0
41
1
10
46.6680783704274
20
0.461243167759591
30
0
41
1
10
46.4277135115866
20
0.584300974919358
30
0
41
1
10
45.7136504469142
20
0.935232319061356
30
0
41
1
10
45.2423999918051
20
1.14801097453352
30
0
41
1
10
44.6937429676753
20
1.35495937591679
30
0
41
1
10
44.6196061451235
20
1.3820713159794
30
0
41
1
10
44.5453558126378
20
1.408314873591
30
0
0
SPLINE
5
D3
100
AcDbEntity
8
1
62
256
6
ByLayer
370
18
48
1
60
0
100
AcDbSpline
70
4
71
3
72
30
73
26
40
0
40
0
40
0
40
0
40
0.0219094602760706
40
0.0219094602760706
40
0.103362706656015
40
0.103362706656015
40
0.184815953035959
40
0.184815953035959
40
0.266269199415903
40
0.266269199415903
40
0.347722445795848
40
0.347722445795848
40
0.510628938555741
40
0.510628938555741
40
0.592082184935686
40
0.592082184935686
40
0.673535431315633
40
0.673535431315633
40
0.754988677695579
40
0.754988677695579
40
0.836441924075525
40
0.836441924075525
40
0.999348416835416
40
0.999348416835416
40
1
40
1
40
1
40
1
41
1
10
30.68339859122
20
-1.8857242803453
30
0
41
1
10
30.6189630027303
20
-1.88579281400803
30
0
41
1
10
30.55449946198
20
-1.88495138097051
30
0
41
1
10
30.2501559410763
20
-1.87669072099607
30
0
41
1
10
30.0109409953003
20
-1.8574447847046
30
0
41
1
10
29.5343312107217
20
-1.79470725084593
30
0
41
1
10
29.2965563935711
20
-1.75118852900917
30
0
41
1
10
28.8199781072738
20
-1.64171014625359
30
0
41
1
10
28.5805729528868
20
-1.57547348663158
30
0
41
1
10
28.1011788402779
20
-1.4223475084909
30
0
41
1
10
27.8631702058678
20
-1.33620501003099
30
0
41
1
10
27.1510101925314
20
-1.05420256584935
30
0
41
1
10
26.6786943256866
20
-0.834807223663631
30
0
41
1
10
25.9624293468429
20
-0.47700702850301
30
0
41
1
10
25.7218141979551
20
-0.352857188396484
30
0
41
1
10
25.2450522779846
20
-0.10417038093837
30
0
41
1
10
25.0077728970994
20
0.0209070052573566
30
0
41
1
10
24.5338314793074
20
0.269481061244619
30
0
41
1
10
24.2969993047331
20
0.392644352715166
30
0
41
1
10
23.8215548078726
20
0.632770960073117
30
0
41
1
10
23.5825825768639
20
0.750024917070277
30
0
41
1
10
22.8629640709253
20
1.08614284547178
30
0
41
1
10
22.389835259059
20
1.28341726762434
30
0
41
1
10
21.91369735362
20
1.44354717119558
30
0
41
1
10
21.9118004931671
20
1.44418449441028
30
0
41
1
10
21.9099036113881
20
1.44482121418207
30
0
0
SPLINE
5
D4
100
AcDbEntity
8
1
62
256
6
ByLayer
370
18
48
1
60
0
100
AcDbSpline
70
4
71
3
72
8
73
4
40
0
40
0
40
0
40
0
40
1
40
1
40
1
40
1
41
1
10
8.18271240562251
20
-1.87193394738372
30
0
41
1
10
7.9940275906757
20
-1.87209699750176
30
0
41
1
10
7.80513979307673
20
-1.86443403191754
30
0
41
1
10
7.61639634973898
20
-1.84898135116788
30
0
0
SPLINE
5
D5
100
AcDbEntity
8
1
62
256
6
ByLayer
370
18
48
1
60
0
100
AcDbSpline
70
4
71
3
72
8
73
4
40
0
40
0
40
0
40
0
40
1
40
1
40
1
40
1
41
1
10
53.2670829352716
20
-1.88937832361413
30
0
41
1
10
53.277514843332
20
-1.89898940646012
30
0
41
1
10
53.2902189763863
20
-1.90202599944556
30
0
41
1
10
53.3053354576807
20
-1.89864739058783
30
0
0
SPLINE
5
D6
100
AcDbEntity
8
1
62
256
6
ByLayer
370
18
48
1
60
0
100
AcDbSpline
70
4
71
3
72
10
73
6
40
0
40
0
40
0
40
0
40
0.5
40
0.5
40
1
40
1
40
1
40
1
41
1
10
53.3659341502054
20
-1.92646986933403
30
0
41
1
10
53.4568321626939
20
-1.70849586806352
30
0
41
1
10
53.5476262039854
20
-1.48949495954255
30
0
41
1
10
53.7276846113725
20
-1.04878287123799
30
0
41
1
10
53.8170633770536
20
-0.826957190923309
30
0
41
1
10
53.9042200733795
20
-0.605013129946258
30
0
0
SPLINE
5
D7
100
AcDbEntity
8
1
62
256
6
ByLayer
370
18
48
1
60
0
100
AcDbSpline
70
4
71
3
72
78
73
74
40
0
40
0
40
0
40
0
40
0.0319424500191157
40
0.0319424500191157
40
0.0559541952347212
40
0.0559541952347212
40
0.0799659404503268
40
0.0799659404503268
40
0.103977685665932
40
0.103977685665932
40
0.127989430881538
40
0.127989430881538
40
0.176012921312749
40
0.176012921312749
40
0.200024666528355
40
0.200024666528355
40
0.224036411743961
40
0.224036411743961
40
0.272059902175174
40
0.272059902175174
40
0.296071647390781
40
0.296071647390781
40
0.320083392606387
40
0.320083392606387
40
0.344095137821994
40
0.344095137821994
40
0.368106883037601
40
0.368106883037601
40
0.416130373468814
40
0.416130373468814
40
0.44014211868442
40
0.44014211868442
40
0.464153863900026
40
0.464153863900026
40
0.512177354331238
40
0.512177354331238
40
0.536189099546844
40
0.536189099546844
40
0.560200844762449
40
0.560200844762449
40
0.584212589978055
40
0.584212589978055
40
0.60822433519366
40
0.60822433519366
40
0.65624782562487
40
0.65624782562487
40
0.680259570840475
40
0.680259570840475
40
0.704271316056079
40
0.704271316056079
40
0.728283061271684
40
0.728283061271684
40
0.752294806487288
40
0.752294806487288
40
0.800318296918496
40
0.800318296918496
40
0.8243300421341
40
0.8243300421341
40
0.848341787349704
40
0.848341787349704
40
0.872353532565308
40
0.872353532565308
40
0.896365277780912
40
0.896365277780912
40
0.920377022996516
40
0.920377022996516
40
0.94438876821212
40
0.94438876821212
40
0.968400513427725
40
0.968400513427725
40
0.992412258643328
40
0.992412258643328
40
1
40
1
40
1
40
1
41
1
10
14.9778204776071
20
1.03445800807398
30
0
41
1
10
15.1379917058268
20
1.10923107745907
30
0
41
1
10
15.2987178608542
20
1.18076999541256
30
0
41
1
10
15.5776349690304
20
1.30008422286139
30
0
41
1
10
15.696347729667
20
1.34992958712647
30
0
41
1
10
15.9340917902032
20
1.44367090618226
30
0
41
1
10
16.0531826819987
20
1.48755910833483
30
0
41
1
10
16.2913398665338
20
1.57020714407122
30
0
41
1
10
16.4103293557319
20
1.60904469100777
30
0
41
1
10
16.6481454936618
20
1.68166274514144
30
0
41
1
10
16.7667563039909
20
1.71565042066158
30
0
41
1
10
17.1226400447834
20
1.80933366906942
30
0
41
1
10
17.3625522563384
20
1.85877582588347
30
0
41
1
10
17.7241858473535
20
1.91528789416114
30
0
41
1
10
17.8445655499289
20
1.93096411618242
30
0
41
1
10
18.0831088089474
20
1.95597872137594
30
0
41
1
10
18.2021688102383
20
1.96503438097312
30
0
41
1
10
18.5599385319376
20
1.9821860412585
30
0
41
1
10
18.7982882726184
20
1.98074142430488
30
0
41
1
10
19.1539737130306
20
1.95881279158482
30
0
41
1
10
19.272117228442
20
1.94805180327066
30
0
41
1
10
19.5100971181417
20
1.92045631822137
30
0
41
1
10
19.6296190275293
20
1.90359640616762
30
0
41
1
10
19.8690901505662
20
1.86349634191598
30
0
41
1
10
19.9891124864848
20
1.84028476340251
30
0
41
1
10
20.2295997558915
20
1.78715111529925
30
0
41
1
10
20.3493308306898
20
1.75689591262778
30
0
41
1
10
20.7081342098371
20
1.65914166006871
30
0
41
1
10
20.9472423377554
20
1.58424724562156
30
0
41
1
10
21.3038939302812
20
1.45590249044977
30
0
41
1
10
21.4221510651051
20
1.41002163759939
30
0
41
1
10
21.6589688299476
20
1.31389000766313
30
0
41
1
10
21.7778615646468
20
1.26412574267798
30
0
41
1
10
22.1354683489988
20
1.10930763640502
30
0
41
1
10
22.3748924357849
20
0.998553204257234
30
0
41
1
10
22.7340342386984
20
0.81728148079489
30
0
41
1
10
22.854423426363
20
0.755905278542429
30
0
41
1
10
23.0943514166931
20
0.632482013522207
30
0
41
1
10
23.2140876148446
20
0.570074516979787
30
0
41
1
10
23.4527905755672
20
0.443310790015005
30
0
41
1
10
23.5718678368015
20
0.379155217716999
30
0
41
1
10
23.8089044829801
20
0.248242788745529
30
0
41
1
10
23.9270668919002
20
0.181850013542089
30
0
41
1
10
24.2835032601109
20
-0.0145775889626236
30
0
41
1
10
24.5221671836671
20
-0.144693395788266
30
0
41
1
10
24.8801258763025
20
-0.341631328948807
30
0
41
1
10
24.9991523935646
20
-0.408121293135821
30
0
41
1
10
25.2393382503682
20
-0.537683419535966
30
0
41
1
10
25.3601040978628
20
-0.601082392552115
30
0
41
1
10
25.600148199628
20
-0.725208635075262
30
0
41
1
10
25.7197566071842
20
-0.786054394700585
30
0
41
1
10
25.9581027314166
20
-0.905370517786736
30
0
41
1
10
26.0764071875796
20
-0.964533953171099
30
0
41
1
10
26.4320280659982
20
-1.13502083395616
30
0
41
1
10
26.670291887962
20
-1.23927432175719
30
0
41
1
10
27.0273835327562
20
-1.38494005350307
30
0
41
1
10
27.1462676192597
20
-1.43179600526429
30
0
41
1
10
27.3841622767152
20
-1.52132506100472
30
0
41
1
10
27.5038644915544
20
-1.56313547812442
30
0
41
1
10
27.744548721506
20
-1.64127148425402
30
0
41
1
10
27.8653252249766
20
-1.67766807695787
30
0
41
1
10
28.1051844207991
20
-1.74466053056702
30
0
41
1
10
28.2246929631423
20
-1.77527280989432
30
0
41
1
10
28.4621022263543
20
-1.83117403262571
30
0
41
1
10
28.5806284905199
20
-1.85591891161081
30
0
41
1
10
28.8183982037767
20
-1.89861191306878
30
0
41
1
10
28.9374007571863
20
-1.91674930107308
30
0
41
1
10
29.1751729670794
20
-1.94690466712782
30
0
41
1
10
29.2940544625903
20
-1.95887367885047
30
0
41
1
10
29.5314136785826
20
-1.97648809784303
30
0
41
1
10
29.64975039942
20
-1.98207667036456
30
0
41
1
10
29.8067390557478
20
-1.98493900014611
30
0
41
1
10
29.8445009175489
20
-1.98529726386389
30
0
41
1
10
29.8823180904249
20
-1.98532654319232
30
0
0
SPLINE
5
D8
100
AcDbEntity
8
1
62
256
6
ByLayer
370
18
48
1
60
0
100
AcDbSpline
70
4
71
3
72
80
73
76
40
0
40
0
40
0
40
0
40
0.0097425833200614
40
0.0097425833200614
40
0.0337405999667772
40
0.0337405999667772
40
0.0577386166134929
40
0.0577386166134929
40
0.0817366332602087
40
0.0817366332602087
40
0.105734649906924
40
0.105734649906924
40
0.153730683200356
40
0.153730683200356
40
0.177728699847073
40
0.177728699847073
40
0.20172671649379
40
0.20172671649379
40
0.225724733140507
40
0.225724733140507
40
0.249722749787225
40
0.249722749787225
40
0.297718783080656
40
0.297718783080656
40
0.321716799727371
40
0.321716799727371
40
0.345714816374086
40
0.345714816374086
40
0.3697128330208
40
0.3697128330208
40
0.393710849667515
40
0.393710849667515
40
0.41770886631423
40
0.41770886631423
40
0.441706882960945
40
0.441706882960945
40
0.465704899607659
40
0.465704899607659
40
0.489702916254374
40
0.489702916254374
40
0.513700932901089
40
0.513700932901089
40
0.537698949547803
40
0.537698949547803
40
0.561696966194518
40
0.561696966194518
40
0.585694982841233
40
0.585694982841233
40
0.609692999487948
40
0.609692999487948
40
0.633691016134662
40
0.633691016134662
40
0.681687049428089
40
0.681687049428089
40
0.705685066074803
40
0.705685066074803
40
0.729683082721517
40
0.729683082721517
40
0.777679116014946
40
0.777679116014946
40
0.80167713266166
40
0.80167713266166
40
0.825675149308373
40
0.825675149308373
40
0.849673165955087
40
0.849673165955087
40
0.873671182601801
40
0.873671182601801
40
0.921667215895228
40
0.921667215895228
40
0.945665232541943
40
0.945665232541943
40
0.969663249188658
40
0.969663249188658
40
1
40
1
40
1
40
1
41
1
10
37.4926932554799
20
1.04489798576279
30
0
41
1
10
37.5411525019919
20
1.06798751388831
30
0
41
1
10
37.5896204389514
20
1.0908976930325
30
0
41
1
10
37.7574892773607
20
1.1696352250089
30
0
41
1
10
37.8779834224549
20
1.22329791196083
30
0
41
1
10
38.1180660921986
20
1.32515148857965
30
0
41
1
10
38.2378179824451
20
1.37363010603175
30
0
41
1
10
38.4764932393975
20
1.46612137791112
30
0
41
1
10
38.595525723082
20
1.51000101420382
30
0
41
1
10
38.8323137082569
20
1.59365504497273
30
0
41
1
10
38.9504787064926
20
1.63289953076426
30
0
41
1
10
39.3066316450049
20
1.74070096501146
30
0
41
1
10
39.5448990976213
20
1.80105262613151
30
0
41
1
10
39.9019784976867
20
1.87506240771725
30
0
41
1
10
40.0207238756038
20
1.89701525323554
30
0
41
1
10
40.2603500189334
20
1.93377762918578
30
0
41
1
10
40.3811616765968
20
1.94882904586527
30
0
41
1
10
40.6212598261559
20
1.97236741757206
30
0
41
1
10
40.74086777172
20
1.98087421670428
30
0
41
1
10
40.9791133119578
20
1.99135741330559
30
0
41
1
10
41.0973170955219
20
1.99331847427021
30
0
41
1
10
41.4527925507041
20
1.98909264715203
30
0
41
1
10
41.6907672955714
20
1.97334833451327
30
0
41
1
10
42.0471989357446
20
1.93039307408682
30
0
41
1
10
42.1657491337967
20
1.91269286808617
30
0
41
1
10
42.40317814768
20
1.87059172745046
30
0
41
1
10
42.5226208420136
20
1.84655737417768
30
0
41
1
10
42.7626930447943
20
1.7925811671021
30
0
41
1
10
42.8834620511151
20
1.76247518148253
30
0
41
1
10
43.1233939486805
20
1.69656872093932
30
0
41
1
10
43.2429039699567
20
1.66083809617706
30
0
41
1
10
43.4801851204638
20
1.58280880846274
30
0
41
1
10
43.5987648090117
20
1.54136107444916
30
0
41
1
10
43.8364204031958
20
1.45459538737006
30
0
41
1
10
43.9553115200778
20
1.40907320351198
30
0
41
1
10
44.192794270999
20
1.31324156878293
30
0
41
1
10
44.3114989154045
20
1.26308425639402
30
0
41
1
10
44.5483947983824
20
1.1574978815411
30
0
41
1
10
44.6665256950028
20
1.10191803591417
30
0
41
1
10
44.9046520703907
20
0.989039713346017
30
0
41
1
10
45.0243282476481
20
0.931299562004511
30
0
41
1
10
45.264279289703
20
0.812191126226708
30
0
41
1
10
45.3849274477211
20
0.750783805260141
30
0
41
1
10
45.6245197164144
20
0.625354792014008
30
0
41
1
10
45.7432377724849
20
0.56053169509994
30
0
41
1
10
45.9811634449044
20
0.431456411770711
30
0
41
1
10
46.1002546140792
20
0.366997800955801
30
0
41
1
10
46.338137896287
20
0.237242375215857
30
0
41
1
10
46.4568964603076
20
0.171883587021938
30
0
41
1
10
46.6940725960462
20
0.0402461592603061
30
0
41
1
10
46.8121223830441
20
-0.0267075466086339
30
0
41
1
10
47.1669692207377
20
-0.226749841049355
30
0
41
1
10
47.4057902633816
20
-0.356560058344797
30
0
41
1
10
47.7652261891648
20
-0.54996212082591
30
0
41
1
10
47.8856509737681
20
-0.614234269569977
30
0
41
1
10
48.124383074486
20
-0.741781491194843
30
0
41
1
10
48.2437106297391
20
-0.803418361129673
30
0
41
1
10
48.6016280721057
20
-0.98231218374201
30
0
41
1
10
48.8396926857828
20
-1.09446399128643
30
0
41
1
10
49.1943381533963
20
-1.25429743701309
30
0
41
1
10
49.3122453637103
20
-1.30595499254531
30
0
41
1
10
49.5495614945181
20
-1.4031580399965
30
0
41
1
10
49.6686394315299
20
-1.44920013669406
30
0
41
1
10
49.9070537059715
20
-1.53693832469182
30
0
41
1
10
50.0264855184605
20
-1.57851081581293
30
0
41
1
10
50.2655672483619
20
-1.65715419417893
30
0
41
1
10
50.3852266279033
20
-1.69460377411428
30
0
41
1
10
50.7445234245936
20
-1.79577349139683
30
0
41
1
10
50.9836006234916
20
-1.85009881588994
30
0
41
1
10
51.3397617519657
20
-1.91407283653021
30
0
41
1
10
51.4577159703928
20
-1.93256540965754
30
0
41
1
10
51.6941695506381
20
-1.96270390206769
30
0
41
1
10
51.8128207417435
20
-1.97436196399764
30
0
41
1
10
52.0819447411699
20
-1.99349200413587
30
0
41
1
10
52.2324179128082
20
-1.99912041286919
30
0
41
1
10
52.3829917131378
20
-1.99941240937494
30
0
0
SPLINE
5
D9
100
AcDbEntity
8
1
62
256
6
ByLayer
370
18
48
1
60
0
100
AcDbSpline
70
4
71
3
72
8
73
4
40
0
40
0
40
0
40
0
40
1
40
1
40
1
40
1
41
1
10
53.3659341502122
20
-1.92646986931464
30
0
41
1
10
53.33538257135
20
-1.95901027396357
30
0
41
1
10
53.3090098078389
20
-1.98096724830339
30
0
41
1
10
53.2865485696764
20
-1.99192936106741
30
0
0
SPLINE
5
DA
100
AcDbEntity
8
1
62
256
6
ByLayer
370
18
48
1
60
0
100
AcDbSpline
70
4
71
3
72
14
73
10
40
0
40
0
40
0
40
0
40
0.249999999999999
40
0.249999999999999
40
0.499999999999998
40
0.499999999999998
40
0.749999999999998
40
0.749999999999998
40
1
40
1
40
1
40
1
41
1
10
53.3053354576805
20
-1.89864739058788
30
0
41
1
10
53.3076303121281
20
-1.8981344791892
30
0
41
1
10
53.3092678648165
20
-1.89931265989455
30
0
41
1
10
53.3108240335976
20
-1.90604263597132
30
0
41
1
10
53.3106936319589
20
-1.91169240099859
30
0
41
1
10
53.3078035372197
20
-1.92833486861315
30
0
41
1
10
53.3050226940702
20
-1.9392327678359
30
0
41
1
10
53.2973208898231
20
-1.9636936038944
30
0
41
1
10
53.2924506819169
20
-1.97712134991869
30
0
41
1
10
53.2873066504691
20
-1.99002748355812
30
0
0
SPLINE
5
DB
100
AcDbEntity
8
1
62
256
6
ByLayer
370
18
48
1
60
0
100
AcDbSpline
70
4
71
3
72
10
73
6
40
0
40
0
40
0
40
0
40
0.5
40
0.5
40
1
40
1
40
1
40
1
41
1
10
7.41596593553766
20
-0.80283325050803
30
0
41
1
10
7.43751883417858
20
-0.802087092529973
30
0
41
1
10
7.46356833556587
20
-0.809762857473885
30
0
41
1
10
7.51799625038424
20
-0.834735652726266
30
0
41
1
10
7.54579281530815
20
-0.851599513954966
30
0
41
1
10
7.57399290942993
20
-0.871555771187957
30
0
0
SPLINE
5
DC
100
AcDbEntity
8
1
62
256
6
ByLayer
370
18
48
1
60
0
100
AcDbSpline
70
4
71
3
72
30
73
26
40
0
40
0
40
0
40
0
40
0.0625
40
0.0625
40
0.125
40
0.125
40
0.25
40
0.25
40
0.375
40
0.375
40
0.5
40
0.5
40
0.5625
40
0.5625
40
0.625
40
0.625
40
0.6875
40
0.6875
40
0.75
40
0.75
40
0.8125
40
0.8125
40
0.875
40
0.875
40
1
40
1
40
1
40
1
41
1
10
53.3705434756853
20
-0.896990042110389
30
0
41
1
10
53.3659877554433
20
-0.919366149293865
30
0
41
1
10
53.3635136904743
20
-0.940397913955934
30
0
41
1
10
53.3627325736975
20
-0.978037978723904
30
0
41
1
10
53.3643986858072
20
-0.9941522080602
30
0
41
1
10
53.3745703303262
20
-1.03456875676497
30
0
41
1
10
53.3878303207954
20
-1.04962935896853
30
0
41
1
10
53.4213680031827
20
-1.05984351853127
30
0
41
1
10
53.4416405791098
20
-1.05497248737009
30
0
41
1
10
53.4852643949971
20
-1.02820549781143
30
0
41
1
10
53.5086395032238
20
-1.00638966721817
30
0
41
1
10
53.5438955326777
20
-0.961461702429602
30
0
41
1
10
53.5555036651267
20
-0.944644955100841
30
0
41
1
10
53.5778858960092
20
-0.907647023077033
30
0
41
1
10
53.5888522827744
20
-0.887078822082742
30
0
41
1
10
53.6086517450477
20
-0.844011740036336
30
0
41
1
10
53.6177613415223
20
-0.820857608469908
30
0
41
1
10
53.6324837290978
20
-0.775076403597041
30
0
41
1
10
53.6383140203253
20
-0.751738528903104
30
0
41
1
10
53.6456375369077
20
-0.708427220963443
30
0
41
1
10
53.6472052618631
20
-0.688072901646848
30
0
41
1
10
53.646232872558
20
-0.652980766063422
30
0
41
1
10
53.6437123910128
20
-0.637898538360787
30
0
41
1
10
53.6314688251776
20
-0.601748146083622
30
0
41
1
10
53.6170235856354
20
-0.589021398740499
30
0
41
1
10
53.5995449654965
20
-0.586168219623517
30
0
0
SPLINE
5
DD
100
AcDbEntity
8
1
62
256
6
ByLayer
370
18
48
1
60
0
100
AcDbSpline
70
4
71
3
72
10
73
6
40
0
40
0
40
0
40
0
40
0.5
40
0.5
40
1
40
1
40
1
40
1
41
1
10
7.48883793775985
20
-1.95360499028951
30
0
41
1
10
7.46855108215726
20
-1.95178561232117
30
0
41
1
10
7.45082735736926
20
-1.9493354224843
30
0
41
1
10
7.42480691860939
20
-1.94285257592264
30
0
41
1
10
7.41635071049373
20
-1.93877375945479
30
0
41
1
10
7.41634790967203
20
-1.9340280545791
30
0
0
SPLINE
5
DE
100
AcDbEntity
8
1
62
256
6
ByLayer
370
18
48
1
60
0
100
AcDbSpline
70
4
71
3
72
8
73
4
40
0
40
0
40
0
40
0
40
1
40
1
40
1
40
1
41
1
10
53.9831650436978
20
-0.0124857497834228
30
0
41
1
10
53.9484573148492
20
-0.0765980329370564
30
0
41
1
10
53.9140430848293
20
-0.14097338791646
30
0
41
1
10
53.8799234638268
20
-0.20561280966794
30
0
0
SPLINE
5
DF
100
AcDbEntity
8
1
62
256
6
ByLayer
370
18
48
1
60
0
100
AcDbSpline
70
4
71
3
72
8
73
4
40
0
40
0
40
0
40
0
40
1
40
1
40
1
40
1
41
1
10
53.9808303649197
20
0.108605034318998
30
0
41
1
10
53.9838716802661
20
0.0857281232612479
30
0
41
1
10
53.9908827257381
20
0.0566352885374499
30
0
41
1
10
53.9999574129178
20
0.0260087695782829
30
0
0
SPLINE
5
E0
100
AcDbEntity
8
1
62
256
6
ByLayer
370
18
48
1
60
0
100
AcDbSpline
70
4
71
3
72
16
73
12
40
0
40
0
40
0
40
0
40
0.250000000000007
40
0.250000000000007
40
0.375000000000006
40
0.375000000000006
40
0.500000000000004
40
0.500000000000004
40
0.750000000000002
40
0.750000000000002
40
1
40
1
40
1
40
1
41
1
10
53.2670829352711
20
-1.88937832360918
30
0
41
1
10
53.2313445472182
20
-1.8791094593897
30
0
41
1
10
53.1983731938669
20
-1.86139149745159
30
0
41
1
10
53.1534020046318
20
-1.82273828156119
30
0
41
1
10
53.1391018439146
20
-1.80774039598774
30
0
41
1
10
53.1125363946519
20
-1.77400842398123
30
0
41
1
10
53.1002388957161
20
-1.75527650638551
30
0
41
1
10
53.0662998510921
20
-1.69348717260468
30
0
41
1
10
53.047590885012
20
-1.644875706259
30
0
41
1
10
53.0184636658757
20
-1.53195088575185
30
0
41
1
10
53.0081088353853
20
-1.46727225638742
30
0
41
1
10
53.0025411828603
20
-1.39647650147589
30
0
0
SPLINE
5
E1
100
AcDbEntity
8
1
62
256
6
ByLayer
370
18
48
1
60
0
100
AcDbSpline
70
4
71
3
72
12
73
8
40
0
40
0
40
0
40
0
40
0.50000000000003
40
0.50000000000003
40
0.750000000000015
40
0.750000000000015
40
1
40
1
40
1
40
1
41
1
10
53.2183774228166
20
0.59125600964714
30
0
41
1
10
53.3331390839471
20
0.5914036790181
30
0
41
1
10
53.4478198038414
20
0.592167860550575
30
0
41
1
10
53.6194105391419
20
0.595057135165263
30
0
41
1
10
53.6765444459556
20
0.596295862889292
30
0
41
1
10
53.7905265176186
20
0.600023391886253
30
0
41
1
10
53.8473851282656
20
0.602466494531399
30
0
41
1
10
53.9042200733795
20
0.605013129946258
30
0
0
SPLINE
5
E2
100
AcDbEntity
8
1
62
256
6
ByLayer
370
18
48
1
60
0
100
AcDbSpline
70
4
71
3
72
10
73
6
40
0
40
0
40
0
40
0
40
0.526593103744362
40
0.526593103744362
40
1
40
1
40
1
40
1
41
1
10
7.56816104981323
20
-1.95744800720706
30
0
41
1
10
7.80873729460728
20
-1.97229823395861
30
0
41
1
10
8.04951641284691
20
-1.97377575189503
30
0
41
1
10
8.50570181128307
20
-1.95131559516409
30
0
41
1
10
8.72022180983157
20
-1.93008721083299
30
0
41
1
10
8.93411101869916
20
-1.89878361340092
30
0
0
SPLINE
5
E3
100
AcDbEntity
8
1
62
256
6
ByLayer
370
18
48
1
60
0
100
AcDbSpline
70
4
71
3
72
20
73
16
40
0
40
0
40
0
40
0
40
0.0797056081545671
40
0.0797056081545671
40
0.320872855521031
40
0.320872855521031
40
0.441456479204264
40
0.441456479204264
40
0.562040102887498
40
0.562040102887498
40
0.682623726570731
40
0.682623726570731
40
0.803207350253964
40
0.803207350253964
40
1
40
1
40
1
40
1
41
1
10
21.4057288626994
20
1.61975530716353
30
0
41
1
10
21.5631309799476
20
1.569956651193
30
0
41
1
10
21.7200557956896
20
1.51558632369495
30
0
41
1
10
22.351099330925
20
1.27973949044903
30
0
41
1
10
22.8244611418992
20
1.06487702857899
30
0
41
1
10
23.5450467177175
20
0.70222824445429
30
0
41
1
10
23.7841352364774
20
0.576667731484918
30
0
41
1
10
24.2598445346006
20
0.320906856450762
30
0
41
1
10
24.4967321738716
20
0.190362517195012
30
0
41
1
10
24.970743874721
20
-0.0720833787441961
30
0
41
1
10
25.2081946089941
20
-0.203377058768922
30
0
41
1
10
25.6854626563714
20
-0.46337592645861
30
0
41
1
10
25.9264834439769
20
-0.592676886896299
30
0
41
1
10
26.5552029516219
20
-0.917704866033716
30
0
41
1
10
26.9414720216832
20
-1.10395032151777
30
0
41
1
10
27.3285208764874
20
-1.26856842976801
30
0
0
SPLINE
5
E4
100
AcDbEntity
8
1
62
256
6
ByLayer
370
13
48
1
60
0
100
AcDbSpline
70
4
71
3
72
20
73
16
40
0
40
0
40
0
40
0
40
0.0621074003720822
40
0.0621074003720822
40
0.23087817908816
40
0.23087817908816
40
0.399648957804238
40
0.399648957804238
40
0.568419736520316
40
0.568419736520316
40
0.737190515236394
40
0.737190515236394
40
0.905961293952471
40
0.905961293952471
40
1
40
1
40
1
40
1
41
1
10
27.3285208765294
20
-1.26856842978586
30
0
41
1
10
27.4157961747216
20
-1.30568801897186
30
0
41
1
10
27.50311112133
20
-1.34170795845279
30
0
41
1
10
27.8280288924117
20
-1.47125068995842
30
0
41
1
10
28.0662280310595
20
-1.55723134441177
30
0
41
1
10
28.5462969949119
20
-1.70825186530266
30
0
41
1
10
28.7858997279762
20
-1.77235237380202
30
0
41
1
10
29.2628372880607
20
-1.87609175212609
30
0
41
1
10
29.500737021827
20
-1.9158636273437
30
0
41
1
10
29.9777319769494
20
-1.96942339329232
30
0
41
1
10
30.2173691841583
20
-1.98326476103651
30
0
41
1
10
30.6976068662016
20
-1.98410145796896
30
0
41
1
10
30.9370276106796
20
-1.97124814653324
30
0
41
1
10
31.3104664055233
20
-1.93069432131821
30
0
41
1
10
31.4443634251258
20
-1.91204866038063
30
0
41
1
10
31.5779992230579
20
-1.88951128397969
30
0
0
SPLINE
5
E5
100
AcDbEntity
8
1
62
256
6
ByLayer
370
18
48
1
60
0
100
AcDbSpline
70
4
71
3
72
22
73
18
40
0
40
0
40
0
40
0
40
0.0735118574274462
40
0.0735118574274462
40
0.308036160007678
40
0.308036160007678
40
0.425298311297791
40
0.425298311297791
40
0.542560462587903
40
0.542560462587903
40
0.777084765168125
40
0.777084765168125
40
0.835715840813178
40
0.835715840813178
40
0.894346916458232
40
0.894346916458232
40
1
40
1
40
1
40
1
41
1
10
44.2978661598694
20
1.496604983168
30
0
41
1
10
44.4476485599801
20
1.44166620516293
30
0
41
1
10
44.5968763580663
20
1.38300001616514
30
0
41
1
10
45.2204884302983
20
1.12352703701475
30
0
41
1
10
45.6917139973526
20
0.89235932279675
30
0
41
1
10
46.4067096323218
20
0.515834154353627
30
0
41
1
10
46.6475264557543
20
0.384500514826328
30
0
41
1
10
47.1238842269513
20
0.121028957303309
30
0
41
1
10
47.3604032325071
20
-0.0111742224367504
30
0
41
1
10
48.0678123840529
20
-0.40412771991717
30
0
41
1
10
48.5366237363248
20
-0.661134528292735
30
0
41
1
10
49.1300397827856
20
-0.956382758915851
30
0
41
1
10
49.2490744624523
20
-1.01416507342978
30
0
41
1
10
49.48812924948
20
-1.12668623942162
30
0
41
1
10
49.6083758428627
20
-1.18151674776283
30
0
41
1
10
49.9429584299814
20
-1.32836617159023
30
0
41
1
10
50.1566172942133
20
-1.41533373561387
30
0
41
1
10
50.3694739149789
20
-1.49408752133763
30
0
0
SPLINE
5
E6
100
AcDbEntity
8
1
62
256
6
ByLayer
370
13
48
1
60
0
100
AcDbSpline
70
4
71
3
72
14
73
10
40
0
40
0
40
0
40
0
40
0.0241524650674122
40
0.0241524650674122
40
0.512076232533713
40
0.512076232533713
40
0.756038116266857
40
0.756038116266857
40
1
40
1
40
1
40
1
41
1
10
50.3694739155613
20
-1.49408752155307
30
0
41
1
10
50.3928624133484
20
-1.50274091807967
30
0
41
1
10
50.4162412253128
20
-1.51129514620604
30
0
41
1
10
50.9117292981415
20
-1.69053697142462
30
0
41
1
10
51.3801388644429
20
-1.82066582919302
30
0
41
1
10
52.0904726835253
20
-1.942160920623
30
0
41
1
10
52.329069612315
20
-1.97047024324254
30
0
41
1
10
52.8088623605602
20
-2.00039477666897
30
0
41
1
10
53.0479592876615
20
-2.00195558778461
30
0
41
1
10
53.2873066504681
20
-1.99002748355818
30
0
0
SPLINE
5
E7
100
AcDbEntity
8
1
62
256
6
ByLayer
370
18
48
1
60
0
100
AcDbSpline
70
4
71
3
72
8
73
4
40
0
40
0
40
0
40
0
40
1
40
1
40
1
40
1
41
1
10
53.999957412918
20
0.0260087695594393
30
0
41
1
10
54.0000141956931
20
0.0086695898488358
30
0
41
1
10
54.0000141956931
20
-0.0086695898617677
30
0
41
1
10
53.999957412918
20
-0.0260087695723712
30
0
0
SPLINE
5
E8
100
AcDbEntity
8
1
62
256
6
ByLayer
370
18
48
1
60
0
100
AcDbSpline
70
4
71
3
72
8
73
4
40
0
40
0
40
0
40
0
40
1
40
1
40
1
40
1
41
1
10
53.9042200733795
20
-0.605013129946258
30
0
41
1
10
53.9332880691902
20
-0.439530278106815
30
0
41
1
10
53.9588342399998
20
-0.274060876970282
30
0
41
1
10
53.9808303649197
20
-0.108605034318998
30
0
0
SPLINE
5
E9
100
AcDbEntity
8
SK1
62
256
6
ByLayer
370
18
48
1
60
0
100
AcDbSpline
70
4
71
3
72
8
73
4
40
0
40
0
40
0
40
0
40
1
40
1
40
1
40
1
41
1
10
-36
20
-1.72485288512533
30
0
41
1
10
-35.8060560363144
20
-2.08286207281557
30
0
41
1
10
-35.6037443830634
20
-2.43642620956214
30
0
41
1
10
-35.4
20
-2.78922925724635
30
0
0
SPLINE
5
EA
100
AcDbEntity
8
SK1
62
256
6
ByLayer
370
18
48
1
60
0
100
AcDbSpline
70
4
71
3
72
8
73
4
40
0
40
0
40
0
40
0
40
1
40
1
40
1
40
1
41
1
10
-36
20
1.72485288512533
30
0
41
1
10
-35.8060560363144
20
2.08286207281557
30
0
41
1
10
-35.6037443830634
20
2.43642620956214
30
0
41
1
10
-35.4
20
2.78922925724638
30
0
0
SPLINE
5
EB
100
AcDbEntity
8
SK1
62
256
6
ByLayer
370
18
48
1
60
0
100
AcDbSpline
70
4
71
3
72
14
73
10
40
0
40
0
40
0
40
0
40
0.125000000000001
40
0.125000000000001
40
0.250000000000002
40
0.250000000000002
40
0.500000000000002
40
0.500000000000002
40
1
40
1
40
1
40
1
41
1
10
-35.3
20
-2.60770324334345
30
0
41
1
10
-35.3
20
-2.60246903569819
30
0
41
1
10
-35.3017593723636
20
-2.59457559771408
30
0
41
1
10
-35.3069353411979
20
-2.57726505281187
30
0
41
1
10
-35.3102739075534
20
-2.56796382722416
30
0
41
1
10
-35.3215583577555
20
-2.53896818343284
30
0
41
1
10
-35.3303095934911
20
-2.51929752096814
30
0
41
1
10
-35.358391202053
20
-2.45983604702749
30
0
41
1
10
-35.378655954467
20
-2.42149633681967
30
0
41
1
10
-35.4
20
-2.38453706363259
30
0
0
SPLINE
5
EC
100
AcDbEntity
8
SK1
62
256
6
ByLayer
370
18
48
1
60
0
100
AcDbSpline
70
4
71
3
72
8
73
4
40
0
40
0
40
0
40
0
40
1
40
1
40
1
40
1
41
1
10
-35.4
20
-2.38453706363259
30
0
41
1
10
-35.6037705039597
20
-2.03168878509746
30
0
41
1
10
-35.8060988287571
20
-1.67809088686101
30
0
41
1
10
-36
20
-1.32016069151155
30
0
0
SPLINE
5
ED
100
AcDbEntity
8
SK1
62
256
6
ByLayer
370
18
48
1
60
0
100
AcDbSpline
70
4
71
3
72
14
73
10
40
0
40
0
40
0
40
0
40
0.5
40
0.5
40
0.75
40
0.75
40
0.875
40
0.875
40
1
40
1
40
1
40
1
41
1
10
-35.3999999999999
20
-2.78922925724663
30
0
41
1
10
-35.3787677796885
20
-2.82599489427852
30
0
41
1
10
-35.3584290958895
20
-2.86117846220245
30
0
41
1
10
-35.3303626450498
20
-2.90915274316845
30
0
41
1
10
-35.3215171954455
20
-2.9241675559976
30
0
41
1
10
-35.3102812516991
20
-2.94283662633404
30
0
41
1
10
-35.3068890218584
20
-2.94838945504588
30
0
41
1
10
-35.3017585680987
20
-2.95646564837114
30
0
41
1
10
-35.3
20
-2.95901187928331
30
0
41
1
10
-35.3
20
-2.9584364778087
30
0
0
LINE
5
76
100
AcDbEntity
8
81
62
256
6
ByLayer
370
18
48
1
60
0
100
AcDbLine
10
54
20
0
30
0
11
59
21
0
31
0
39
0
210
0
220
0
230
1
0
LINE
5
77
100
AcDbEntity
8
1
62
256
6
ByLayer
370
18
48
1
60
0
100
AcDbLine
10
0
20
-3
30
0
11
1
21
-1.967271
31
0
39
0
210
0
220
0
230
1
0
LINE
5
79
100
AcDbEntity
8
1
62
256
6
ByLayer
370
18
48
1
60
0
100
AcDbLine
10
1
20
1.967271
30
0
11
0
21
3
31
0
39
0
210
0
220
0
230
1
0
LINE
5
7A
100
AcDbEntity
8
1
62
256
6
ByLayer
370
18
48
1
60
0
100
AcDbLine
10
6.603271
20
1.970773
30
0
11
1
21
1.967271
31
0
39
0
210
0
220
0
230
1
0
LINE
5
7B
100
AcDbEntity
8
1
62
256
6
ByLayer
370
18
48
1
60
0
100
AcDbLine
10
7.966072
20
1.971625
30
0
11
7.186719
21
1.971138
31
0
39
0
210
0
220
0
230
1
0
LINE
5
7C
100
AcDbEntity
8
1
62
256
6
ByLayer
370
18
48
1
60
0
100
AcDbLine
10
19.214605
20
1.978655
30
0
11
18.635248
21
1.978293
31
0
39
0
210
0
220
0
230
1
0
LINE
5
7D
100
AcDbEntity
8
1
62
256
6
ByLayer
370
18
48
1
60
0
100
AcDbLine
10
30.465431
20
1.985687
30
0
11
29.886889
21
1.985325
31
0
39
0
210
0
220
0
230
1
0
LINE
5
7E
100
AcDbEntity
8
1
62
256
6
ByLayer
370
18
48
1
60
0
100
AcDbLine
10
41.7158
20
1.992719
30
0
11
41.137258
21
1.992357
31
0
39
0
210
0
220
0
230
1
0
LINE
5
7F
100
AcDbEntity
8
1
62
256
6
ByLayer
370
18
48
1
60
0
100
AcDbLine
10
52.966008
20
1.99975
30
0
11
52.388887
21
1.999389
31
0
39
0
210
0
220
0
230
1
0
LINE
5
80
100
AcDbEntity
8
1
62
256
6
ByLayer
370
18
48
1
60
0
100
AcDbLine
10
52.388887
20
-1.999389
30
0
11
52.96601
21
-1.99975
31
0
39
0
210
0
220
0
230
1
0
LINE
5
81
100
AcDbEntity
8
1
62
256
6
ByLayer
370
18
48
1
60
0
100
AcDbLine
10
41.137258
20
-1.992357
30
0
11
41.715925
21
-1.992719
31
0
39
0
210
0
220
0
230
1
0
LINE
5
82
100
AcDbEntity
8
1
62
256
6
ByLayer
370
18
48
1
60
0
100
AcDbLine
10
29.886889
20
-1.985325
30
0
11
30.465314
21
-1.985687
31
0
39
0
210
0
220
0
230
1
0
LINE
5
83
100
AcDbEntity
8
1
62
256
6
ByLayer
370
18
48
1
60
0
100
AcDbLine
10
18.635248
20
-1.978293
30
0
11
19.21467
21
-1.978655
31
0
39
0
210
0
220
0
230
1
0
LINE
5
84
100
AcDbEntity
8
1
62
256
6
ByLayer
370
18
48
1
60
0
100
AcDbLine
10
7.186719
20
-1.971138
30
0
11
7.966083
21
-1.971625
31
0
39
0
210
0
220
0
230
1
0
LINE
5
85
100
AcDbEntity
8
1
62
256
6
ByLayer
370
18
48
1
60
0
100
AcDbLine
10
1
20
-1.967271
30
0
11
6.603271
21
-1.970773
31
0
39
0
210
0
220
0
230
1
0
LINE
5
86
100
AcDbEntity
8
SK1
62
256
6
ByLayer
370
18
48
1
60
0
100
AcDbLine
10
-35.278312
20
3
30
0
11
-35.405351
21
2.779963
31
0
39
0
210
0
220
0
230
1
0
LINE
5
88
100
AcDbEntity
8
SK1
62
256
6
ByLayer
370
18
48
1
60
0
100
AcDbLine
10
-35.405351
20
-2.779963
30
0
11
-35.278312
21
-3
31
0
39
0
210
0
220
0
230
1
0
LINE
5
89
100
AcDbEntity
8
SK1
62
256
6
ByLayer
370
18
48
1
60
0
100
AcDbLine
10
0
20
3
30
0
11
-35.278312
21
3
31
0
39
0
210
0
220
0
230
1
0
LINE
5
8A
100
AcDbEntity
8
SK1
62
256
6
ByLayer
370
18
48
1
60
0
100
AcDbLine
10
-35.278312
20
-3
30
0
11
0
21
-3
31
0
39
0
210
0
220
0
230
1
0
LINE
5
8B
100
AcDbEntity
8
SK4
62
256
6
ByLayer
370
18
48
0.05
60
0
100
AcDbLine
10
59
20
0
30
0
11
-41
21
0
31
0
39
0
210
0
220
0
230
1
0
LINE
5
8D
100
AcDbEntity
8
4
62
256
6
ByLayer
370
18
48
0.05
60
0
100
AcDbLine
10
54
20
0
30
0
11
0
21
0
31
0
39
0
210
0
220
0
230
1
0
LINE
5
8F
100
AcDbEntity
8
80
62
256
6
ByLayer
370
18
48
1
60
0
100
AcDbLine
10
0
20
0
30
0
11
-5
21
0
31
0
39
0
210
0
220
0
230
1
0
LINE
5
90
100
AcDbEntity
8
1
62
256
6
ByLayer
370
18
48
1
60
0
100
AcDbLine
10
53.002541
20
-1.396477
30
0
11
53.370543
21
-0.89699
31
0
39
0
210
0
220
0
230
1
0
LINE
5
91
100
AcDbEntity
8
1
62
256
6
ByLayer
370
18
48
1
60
0
100
AcDbLine
10
53.599545
20
-0.586168
30
0
11
53.879923
21
-0.205613
31
0
39
0
210
0
220
0
230
1
0
LINE
5
92
100
AcDbEntity
8
1
62
256
6
ByLayer
370
13
48
1
60
0
100
AcDbLine
10
53.218377
20
0.591256
30
0
11
53.98083
21
0.108605
31
0
39
0
210
0
220
0
230
1
0
LINE
5
93
100
AcDbEntity
8
1
62
256
6
ByLayer
370
18
48
1
60
0
100
AcDbLine
10
0
20
-3
30
0
11
0
21
3
31
0
39
0
210
0
220
0
230
1
0
LINE
5
94
100
AcDbEntity
8
1
62
256
6
ByLayer
370
13
48
1
60
0
100
AcDbLine
10
53.146699
20
0.517017
30
0
11
53.983165
21
-0.012486
31
0
39
0
210
0
220
0
230
1
0
LINE
5
95
100
AcDbEntity
8
1
62
256
6
ByLayer
370
18
48
1
60
0
100
AcDbLine
10
1
20
1.967271
30
0
11
1
21
-1.967271
31
0
39
0
210
0
220
0
230
1
0
LINE
5
96
100
AcDbEntity
8
SK1
62
256
6
ByLayer
370
18
48
1
60
0
100
AcDbLine
10
0
20
-3
30
0
11
0
21
3
31
0
39
0
210
0
220
0
230
1
0
LINE
5
97
100
AcDbEntity
8
SK1
62
256
6
ByLayer
370
18
48
1
60
0
100
AcDbLine
10
-35.278312
20
3
30
0
11
-35.278312
21
-3
31
0
39
0
210
0
220
0
230
1
0
LINE
5
98
100
AcDbEntity
8
SK1
62
256
6
ByLayer
370
13
48
1
60
0
100
AcDbLine
10
-35.4
20
-2.384463
30
0
11
-35.4
21
-2.789229
31
0
39
0
210
0
220
0
230
1
0
LINE
5
99
100
AcDbEntity
8
SK1
62
256
6
ByLayer
370
18
48
1
60
0
100
AcDbLine
10
-35.3
20
-2.958436
30
0
11
-35.3
21
-2.607703
31
0
39
0
210
0
220
0
230
1
0
LINE
5
9A
100
AcDbEntity
8
SK1
62
256
6
ByLayer
370
18
48
1
60
0
100
AcDbLine
10
-36
20
-1.320152
30
0
11
-36
21
-1.724853
31
0
39
0
210
0
220
0
230
1
0
LINE
5
9B
100
AcDbEntity
8
SK1
62
256
6
ByLayer
370
18
48
1
60
0
100
AcDbLine
10
-36
20
1.724853
30
0
11
-36
21
-1.320161
31
0
39
0
210
0
220
0
230
1
0
MTEXT
5
EE
100
AcDbEntity
8
SK6
62
256
6
ByLayer
370
13
48
1
60
0
100
AcDbMText
10
11.129169
20
34.382694
30
0
210
0
220
0
230
1
1
\W0.7585;460.1-0400-030A1-XM GC34
40
3.5
41
0
44
1.084337
50
0
71
8
72
5
7
iso_b_vert
0
DIMENSION
5
FB
100
AcDbEntity
8
SK2
62
256
6
ByLayer
370
13
48
1
60
0
100
AcDbDimension
2
DimnDraft3D1
10
53.4202
20
-12.213398
30
0
11
25.670259
21
-12.213398
31
0
70
32
71
5
72
1
41
1
210
0
220
0
230
1
3
Standard
100
AcDbAlignedDimension
13
0
23
-1.5875
33
0
14
53.4202
24
-3.5875
34
0
50
0
100
AcDbRotatedDimension
1001
ACAD
1000
DSTYLE
1002
{
1070
   279
1070
     0
1070
   172
1070
     1
1070
   173
1070
     1
1070
   340
1005
EF
1070
   271
1070
     2
1070
   272
1070
     2
1070
    77
1070
     1
1070
    73
1070
     0
1070
   171
1070
     3
1070
   274
1070
     4
1070
   177
1070
    35
1070
   176
1070
    35
1070
   178
1070
    35
1070
    48
1040
-0.005
1070
    41
1041
3.5
1070
   147
1041
1.75
1070
    42
1041
1.5875
1070
    44
1041
2.0
1070
   140
1041
3.5
1070
   343
1005
0
1070
   344
1005
0
1002
}
0
DIMENSION
5
105
100
AcDbEntity
8
SK2
62
256
6
ByLayer
370
13
48
1
60
0
100
AcDbDimension
2
DimnDraft3D2
10
54
20
-31.692985
30
0
11
9.7615
21
-31.692985
31
0
70
32
71
5
72
1
41
1
210
0
220
0
230
1
3
Standard
100
AcDbAlignedDimension
13
-36
23
-4.5875
33
0
14
54
24
-1.5875
34
0
50
0
100
AcDbRotatedDimension
1001
ACAD
1000
DSTYLE
1002
{
1070
   279
1070
     0
1070
   172
1070
     1
1070
   173
1070
     1
1070
   340
1005
EF
1070
   271
1070
     2
1070
   272
1070
     2
1070
    77
1070
     1
1070
    73
1070
     0
1070
   171
1070
     3
1070
   274
1070
     4
1070
   177
1070
    35
1070
   176
1070
    35
1070
   178
1070
    35
1070
    48
1040
-0.005
1070
    41
1041
3.5
1070
   147
1041
1.75
1070
    42
1041
1.5875
1070
    44
1041
2.0
1070
   140
1041
3.5
1070
   343
1005
0
1070
   344
1005
0
1002
}
0
DIMENSION
5
10F
100
AcDbEntity
8
SK2
62
256
6
ByLayer
370
13
48
1
60
0
100
AcDbDimension
2
DimnDraft3D3
10
54
20
13.609119
30
0
11
37.715
21
13.609119
31
0
70
32
71
5
72
1
41
1
210
0
220
0
230
1
3
Standard
100
AcDbAlignedDimension
13
21.43
23
3.5875
33
0
14
54
24
1.5875
34
0
50
0
100
AcDbRotatedDimension
1001
ACAD
1000
DSTYLE
1002
{
1070
   279
1070
     0
1070
   172
1070
     1
1070
   173
1070
     1
1070
   340
1005
EF
1070
   271
1070
     2
1070
   272
1070
     2
1070
    77
1070
     1
1070
    73
1070
     0
1070
   171
1070
     3
1070
   274
1070
     4
1070
   177
1070
    35
1070
   176
1070
    35
1070
   178
1070
    35
1070
    48
1040
-0.005
1070
    41
1041
3.5
1070
   147
1041
1.75
1070
    42
1041
1.5875
1070
    44
1041
2.0
1070
   140
1041
3.5
1070
   343
1005
0
1070
   344
1005
0
1002
}
0
DIMENSION
5
119
100
AcDbEntity
8
SK2
62
256
6
ByLayer
370
13
48
1
60
0
100
AcDbDimension
2
DimnDraft3D4
10
53.4202
20
-14.802503
30
0
11
63.981425
21
-14.802503
31
0
70
32
71
5
72
1
41
1
210
0
220
0
230
1
3
Standard
100
AcDbAlignedDimension
13
54
23
-1.5875
33
0
14
53.4202
24
-3.5875
34
0
50
0
100
AcDbRotatedDimension
1001
ACAD
1000
DSTYLE
1002
{
1070
   279
1070
     0
1070
   172
1070
     1
1070
   173
1070
     1
1070
   340
1005
EF
1070
   271
1070
     2
1070
   272
1070
     2
1070
    77
1070
     1
1070
    73
1070
     0
1070
   171
1070
     3
1070
   274
1070
     4
1070
   177
1070
    35
1070
   176
1070
    35
1070
   178
1070
    35
1070
    48
1040
-0.005
1070
    41
1041
3.5
1070
   147
1041
1.75
1070
    42
1041
1.5875
1070
    44
1041
2.0
1070
   140
1041
3.5
1070
   343
1005
0
1070
   344
1005
0
1002
}
0
DIMENSION
5
123
100
AcDbEntity
8
SK2
62
256
6
ByLayer
370
13
48
1
60
0
100
AcDbDimension
2
DimnDraft3D5
10
53.4202
20
-21.343428
30
0
11
6.680876
21
-21.343428
31
0
70
32
71
5
72
1
41
1
210
0
220
0
230
1
3
Standard
100
AcDbAlignedDimension
13
-36
23
-4.5875
33
0
14
53.4202
24
-3.5875
34
0
50
0
100
AcDbRotatedDimension
1001
ACAD
1000
DSTYLE
1002
{
1070
   279
1070
     0
1070
   172
1070
     1
1070
   173
1070
     1
1070
   340
1005
EF
1070
   271
1070
     2
1070
   272
1070
     2
1070
    77
1070
     1
1070
    73
1070
     0
1070
   171
1070
     3
1070
   274
1070
     4
1070
   177
1070
    35
1070
   176
1070
    35
1070
   178
1070
    35
1070
    48
1040
-0.005
1070
    41
1041
3.5
1070
   147
1041
1.75
1070
    42
1041
1.5875
1070
    44
1041
2.0
1070
   140
1041
3.5
1070
   343
1005
0
1070
   344
1005
0
1002
}
0
DIMENSION
5
12E
100
AcDbEntity
8
SK2
62
256
6
ByLayer
370
13
48
1
60
0
100
AcDbDimension
2
DimnDraft3D6
10
-46.625163
20
3
30
0
11
-47.250163
21
21.47418
31
0
70
33
71
5
72
1
41
1
210
0
220
0
230
1
3
Standard
100
AcDbAlignedDimension
13
-37.5875
23
-3
33
0
14
-37.5875
24
3
34
0
1001
ACAD
1000
DSTYLE
1002
{
1070
   279
1070
     0
1070
    74
1070
     0
1070
   173
1070
     1
1070
   340
1005
EF
1070
   271
1070
     3
1070
   272
1070
     2
1070
    77
1070
     1
1070
    73
1070
     0
1070
   171
1070
     3
1070
   274
1070
     4
1070
   177
1070
    35
1070
   176
1070
    35
1070
   178
1070
    35
1070
    48
1040
-0.005
1070
    41
1041
3.5
1070
   147
1041
1.75
1070
    42
1041
1.5875
1070
    44
1041
2.0
1070
   140
1041
3.5
1070
   343
1005
0
1070
   344
1005
0
1002
}
0
DIMENSION
5
139
100
AcDbEntity
8
2
62
256
6
ByLayer
370
13
48
1
60
0
100
AcDbDimension
2
DimnDraft3D7
10
68.083343
20
2
30
0
11
63.458343
21
19.067266
31
0
70
33
71
5
72
1
41
1
210
0
220
0
230
1
3
Standard
100
AcDbAlignedDimension
13
55.0077
23
-2
33
0
14
55.0077
24
2
34
0
1001
ACAD
1000
DSTYLE
1002
{
1070
   279
1070
     0
1070
    74
1070
     0
1070
   173
1070
     1
1070
   340
1005
EF
1070
   271
1070
     3
1070
   272
1070
     2
1070
    77
1070
     1
1070
    73
1070
     0
1070
   171
1070
     3
1070
   274
1070
     4
1070
   177
1070
    35
1070
   176
1070
    35
1070
   178
1070
    35
1070
    48
1040
-0.005
1070
    41
1041
3.5
1070
   147
1041
1.75
1070
    42
1041
1.5875
1070
    44
1041
2.0
1070
   140
1041
3.5
1070
   343
1005
0
1070
   344
1005
0
1002
}
0
ENDSEC
0
SECTION
2
OBJECTS
0
DICTIONARY
5
1a4
330
0
100
AcDbDictionary
280
0
281
1
3
ACAD_GROUP
350
1a5
3
ACAD_MLINESTYLE
350
1a6
0
DICTIONARY
5
1a5
330
0
100
AcDbDictionary
280
0
281
1
0
DICTIONARY
5
1a6
330
0
100
AcDbDictionary
280
0
281
1
3
Standard
350
18
0
MLINESTYLE
5
18
330
1a6
100
AcDbMlineStyle
2
Standard
70
0
3

62
256
51
90
52
90
71
2
49
-0.5
62
256
6
ByLayer
49
0.5
62
256
6
ByLayer
0
RASTERVARIABLES
5
192
330

100
AcDbRasterVariables
90
0
70
1
71
1
72
1
0
ENDSEC
0
EOF
