  0
SECTION
  2
HEADER
  9
$ACADVER
  1
AC1015
  9
$ACADMAINTVER
 70
     6
  9
$DWGCODEPAGE
  3
ANSI_1252
  9
$INSBASE
 10
0.0
 20
0.0
 30
0.0
  9
$EXTMIN
 10
0.0
 20
0.0
 30
0.0
  9
$EXTMAX
 10
210.0
 20
297.0
 30
0.0
  9
$LIMMIN
 10
0.0
 20
0.0
  9
$LIMMAX
 10
210.0
 20
297.0
  9
$ORTHOMODE
 70
     0
  9
$REGENMODE
 70
     1
  9
$FILLMODE
 70
     1
  9
$QTEXTMODE
 70
     0
  9
$MIRRTEXT
 70
     1
  9
$LTSCALE
 40
1.0
  9
$ATTMODE
 70
     1
  9
$TEXTSIZE
 40
2.5
  9
$TRACEWID
 40
1.0
  9
$TEXTSTYLE
  7
Standard
  9
$CLAYER
  8
0
  9
$CELTYPE
  6
ByLayer
  9
$CECOLOR
 62
   256
  9
$CELTSCALE
 40
1.0
  9
$DISPSILH
 70
     0
  9
$DIMSCALE
 40
1.0
  9
$DIMASZ
 40
2.5
  9
$DIMEXO
 40
0.625
  9
$DIMDLI
 40
3.75
  9
$DIMRND
 40
0.0
  9
$DIMDLE
 40
0.0
  9
$DIMEXE
 40
1.25
  9
$DIMTP
 40
0.0
  9
$DIMTM
 40
0.0
  9
$DIMTXT
 40
2.5
  9
$DIMCEN
 40
2.5
  9
$DIMTSZ
 40
0.0
  9
$DIMTOL
 70
     0
  9
$DIMLIM
 70
     0
  9
$DIMTIH
 70
     0
  9
$DIMTOH
 70
     0
  9
$DIMSE1
 70
     0
  9
$DIMSE2
 70
     0
  9
$DIMTAD
 70
     1
  9
$DIMZIN
 70
     8
  9
$DIMBLK
  1

  9
$DIMASO
 70
     1
  9
$DIMSHO
 70
     1
  9
$DIMPOST
  1

  9
$DIMAPOST
  1

  9
$DIMALT
 70
     0
  9
$DIMALTD
 70
     3
  9
$DIMALTF
 40
0.0393700787
  9
$DIMLFAC
 40
1.0
  9
$DIMTOFL
 70
     1
  9
$DIMTVP
 40
0.0
  9
$DIMTIX
 70
     0
  9
$DIMSOXD
 70
     0
  9
$DIMSAH
 70
     0
  9
$DIMBLK1
  1

  9
$DIMBLK2
  1

  9
$DIMSTYLE
  2
ISO-25
  9
$DIMCLRD
 70
     0
  9
$DIMCLRE
 70
     0
  9
$DIMCLRT
 70
     0
  9
$DIMTFAC
 40
1.0
  9
$DIMGAP
 40
0.625
  9
$DIMJUST
 70
     0
  9
$DIMSD1
 70
     0
  9
$DIMSD2
 70
     0
  9
$DIMTOLJ
 70
     0
  9
$DIMTZIN
 70
     8
  9
$DIMALTZ
 70
     0
  9
$DIMALTTZ
 70
     0
  9
$DIMUPT
 70
     0
  9
$DIMDEC
 70
     2
  9
$DIMTDEC
 70
     2
  9
$DIMALTU
 70
     2
  9
$DIMALTTD
 70
     3
  9
$DIMTXSTY
  7
Standard
  9
$DIMAUNIT
 70
     0
  9
$DIMADEC
 70
     0
  9
$DIMALTRND
 40
0.0
  9
$DIMAZIN
 70
     0
  9
$DIMDSEP
 70
    44
  9
$DIMATFIT
 70
     3
  9
$DIMFRAC
 70
     0
  9
$DIMLDRBLK
  1

  9
$DIMLUNIT
 70
     2
  9
$DIMLWD
 70
    -2
  9
$DIMLWE
 70
    -2
  9
$DIMTMOVE
 70
     0
  9
$LUNITS
 70
     2
  9
$LUPREC
 70
     4
  9
$SKETCHINC
 40
1.0
  9
$FILLETRAD
 40
10.0
  9
$AUNITS
 70
     0
  9
$AUPREC
 70
     0
  9
$MENU
  1
.
  9
$ELEVATION
 40
0.0
  9
$PELEVATION
 40
0.0
  9
$THICKNESS
 40
0.0
  9
$LIMCHECK
 70
     0
  9
$CHAMFERA
 40
10.0
  9
$CHAMFERB
 40
10.0
  9
$CHAMFERC
 40
20.0
  9
$CHAMFERD
 40
0.0
  9
$SKPOLY
 70
     0
  9
$TDCREATE
 40
2457567.55139434
  9
$TDUCREATE
 40
2457567.468061007
  9
$TDUPDATE
 40
2457567.551396678
  9
$TDUUPDATE
 40
2457567.468063345
  9
$TDINDWG
 40
0.0000000116
  9
$TDUSRTIMER
 40
0.0000000116
  9
$USRTIMER
 70
     1
  9
$ANGBASE
 50
0.0
  9
$ANGDIR
 70
     0
  9
$PDMODE
 70
     0
  9
$PDSIZE
 40
0.0
  9
$PLINEWID
 40
0.0
  9
$SPLFRAME
 70
     0
  9
$SPLINETYPE
 70
     6
  9
$SPLINESEGS
 70
     8
  9
$HANDSEED
  5
1AE
  9
$SURFTAB1
 70
     6
  9
$SURFTAB2
 70
     6
  9
$SURFTYPE
 70
     6
  9
$SURFU
 70
     6
  9
$SURFV
 70
     6
  9
$UCSBASE
  2

  9
$UCSNAME
  2

  9
$UCSORG
 10
0.0
 20
0.0
 30
0.0
  9
$UCSXDIR
 10
1.0
 20
0.0
 30
0.0
  9
$UCSYDIR
 10
0.0
 20
1.0
 30
0.0
  9
$UCSORTHOREF
  2

  9
$UCSORTHOVIEW
 70
     0
  9
$UCSORGTOP
 10
0.0
 20
0.0
 30
0.0
  9
$UCSORGBOTTOM
 10
0.0
 20
0.0
 30
0.0
  9
$UCSORGLEFT
 10
0.0
 20
0.0
 30
0.0
  9
$UCSORGRIGHT
 10
0.0
 20
0.0
 30
0.0
  9
$UCSORGFRONT
 10
0.0
 20
0.0
 30
0.0
  9
$UCSORGBACK
 10
0.0
 20
0.0
 30
0.0
  9
$PUCSBASE
  2

  9
$PUCSNAME
  2

  9
$PUCSORG
 10
0.0
 20
0.0
 30
0.0
  9
$PUCSXDIR
 10
1.0
 20
0.0
 30
0.0
  9
$PUCSYDIR
 10
0.0
 20
1.0
 30
0.0
  9
$PUCSORTHOREF
  2

  9
$PUCSORTHOVIEW
 70
     0
  9
$PUCSORGTOP
 10
0.0
 20
0.0
 30
0.0
  9
$PUCSORGBOTTOM
 10
0.0
 20
0.0
 30
0.0
  9
$PUCSORGLEFT
 10
0.0
 20
0.0
 30
0.0
  9
$PUCSORGRIGHT
 10
0.0
 20
0.0
 30
0.0
  9
$PUCSORGFRONT
 10
0.0
 20
0.0
 30
0.0
  9
$PUCSORGBACK
 10
0.0
 20
0.0
 30
0.0
  9
$USERI1
 70
     0
  9
$USERI2
 70
     0
  9
$USERI3
 70
     0
  9
$USERI4
 70
     0
  9
$USERI5
 70
     0
  9
$USERR1
 40
0.0
  9
$USERR2
 40
0.0
  9
$USERR3
 40
0.0
  9
$USERR4
 40
0.0
  9
$USERR5
 40
0.0
  9
$WORLDVIEW
 70
     1
  9
$SHADEDGE
 70
     3
  9
$SHADEDIF
 70
    70
  9
$TILEMODE
 70
     1
  9
$MAXACTVP
 70
    64
  9
$PINSBASE
 10
0.0
 20
0.0
 30
0.0
  9
$PLIMCHECK
 70
     0
  9
$PEXTMIN
 10
0.0
 20
0.0
 30
0.0
  9
$PEXTMAX
 10
210.0
 20
297.0
 30
0.0
  9
$PLIMMIN
 10
0.0
 20
0.0
  9
$PLIMMAX
 10
210.0
 20
297.0
  9
$UNITMODE
 70
     0
  9
$VISRETAIN
 70
     1
  9
$PLINEGEN
 70
     0
  9
$PSLTSCALE
 70
     1
  9
$TREEDEPTH
 70
  3020
  9
$CMLSTYLE
  2
Standard
  9
$CMLJUST
 70
     0
  9
$CMLSCALE
 40
20.0
  9
$PROXYGRAPHICS
 70
     1
  9
$MEASUREMENT
 70
     1
  9
$CELWEIGHT
370
    -1
  9
$ENDCAPS
280
     0
  9
$JOINSTYLE
280
     0
  9
$LWDISPLAY
290
     0
  9
$INSUNITS
 70
     4
  9
$HYPERLINKBASE
  1

  9
$STYLESHEET
  1

  9
$XEDIT
290
     1
  9
$CEPSNTYPE
380
     0
  9
$PSTYLEMODE
290
     1
  9
$FINGERPRINTGUID
  2
{9DA78AD4-437E-47F9-9B64-2F2AB3A333F1}
  9
$VERSIONGUID
  2
{FAEB1C32-E019-11D5-929B-00C0DF256EC4}
  9
$EXTNAMES
290
     1
  9
$PSVPSCALE
 40
0.0
  9
$OLESTARTUP
290
     0
  0
ENDSEC
  0
SECTION
  2
CLASSES
  0
CLASS
  1
ACDBDICTIONARYWDFLT
  2
AcDbDictionaryWithDefault
  3
ObjectDBX Classes
 90
        0
280
     0
281
     0
  0
CLASS
  1
VISUALSTYLE
  2
AcDbVisualStyle
  3
ObjectDBX Classes
 90
     4095
280
     0
281
     0
  0
CLASS
  1
MATERIAL
  2
AcDbMaterial
  3
ObjectDBX Classes
 90
     1153
280
     0
281
     0
  0
CLASS
  1
DICTIONARYVAR
  2
AcDbDictionaryVar
  3
ObjectDBX Classes
 90
        0
280
     0
281
     0
  0
CLASS
  1
ACDBPLACEHOLDER
  2
AcDbPlaceHolder
  3
ObjectDBX Classes
 90
        0
280
     0
281
     0
  0
CLASS
  1
LAYOUT
  2
AcDbLayout
  3
ObjectDBX Classes
 90
        0
280
     0
281
     0
  0
ENDSEC
  0
SECTION
  2
TABLES
  0
TABLE
  2
VPORT
  5
8
330
0
100
AcDbSymbolTable
 70
     1
  0
VPORT
  5
29
330
8
100
AcDbSymbolTableRecord
100
AcDbViewportTableRecord
  2
*Active
 70
     0
 10
0.0
 20
0.0
 11
1.0
 21
1.0
 12
344.1869158879
 22
148.5
 13
0.0
 23
0.0
 14
10.0
 24
10.0
 15
10.0
 25
10.0
 16
0.0
 26
0.0
 36
1.0
 17
0.0
 27
0.0
 37
0.0
 40
297.0
 41
1.9729729729
 42
50.0
 43
0.0
 44
0.0
 50
0.0
 51
0.0
 71
     0
 72
   100
 73
     1
 74
     3
 75
     0
 76
     0
 77
     0
 78
     0
281
     0
 65
     1
110
0.0
120
0.0
130
0.0
111
1.0
121
0.0
131
0.0
112
0.0
122
1.0
132
0.0
 79
     0
146
0.0
  0
ENDTAB
  0
TABLE
  2
LTYPE
  5
5
330
0
100
AcDbSymbolTable
 70
     2
  0
LTYPE
  5
14
330
5
100
AcDbSymbolTableRecord
100
AcDbLinetypeTableRecord
  2
ByBlock
 70
     0
  3

 72
    65
 73
     0
 40
0.0
  0
LTYPE
  5
15
330
5
100
AcDbSymbolTableRecord
100
AcDbLinetypeTableRecord
  2
ByLayer
 70
     0
  3

 72
    65
 73
     0
 40
0.0
  0
LTYPE
  5
16
330
5
100
AcDbSymbolTableRecord
100
AcDbLinetypeTableRecord
  2
Continuous
 70
     0
  3
Solid line
 72
    65
 73
     0
 40
0.0
  0
LTYPE
  5
43
330
5
100
AcDbSymbolTableRecord
100
AcDbLinetypeTableRecord
  2
HIDDEN2
 70
     0
  3
Hidden (.5x) _ _ _ _ _ _ _ _ _ _ _ _ _ _ _ _ _ 
 72
    65
 73
     2
 40
4.7625
 49
3.175
 74
     4
 75
     0
340
0
 46
0.0
 50
0.0
 44
0.0
 45
0.0
 49
-1.5875
 74
     4
 75
     0
340
0
 46
0.0
 50
0.0
 44
0.0
 45
0.0
  0
ENDTAB
  0
TABLE
  2
LAYER
  5
2
330
0
100
AcDbSymbolTable
 70
     5
  0
LAYER
  5
10
330
2
100
AcDbSymbolTableRecord
100
AcDbLayerTableRecord
  2
0
 70
     0
 62
     7
  6
Continuous
370
    -3
390
F
  0
LAYER
  5
3F
330
2
100
AcDbSymbolTableRecord
100
AcDbLayerTableRecord
  2
SK1
 70
     0
 62
     4
  6
Continuous
370
    18
390
F
  0
LAYER
  5
42
330
2
100
AcDbSymbolTableRecord
100
AcDbLayerTableRecord
  2
SK3
 70
     0
 62
     1
  6
HIDDEN2
370
    15
390
F
  0
LAYER
  5
12A
330
2
100
AcDbSymbolTableRecord
100
AcDbLayerTableRecord
  2
SK4
 70
     0
 62
     2
  6
Continuous
370
    13
390
F
  0
LAYER
  5
12C
330
2
100
AcDbSymbolTableRecord
100
AcDbLayerTableRecord
  2
SK2
 70
     0
 62
     7
  6
Continuous
370
    15
390
F
  0
ENDTAB
  0
TABLE
  2
STYLE
  5
3
330
0
100
AcDbSymbolTable
 70
     2
  0
STYLE
  5
11
330
3
100
AcDbSymbolTableRecord
100
AcDbTextStyleTableRecord
  2
Standard
 70
     0
 40
0.0
 41
1.0
 50
0.0
 71
     0
 42
2.5
  3
txt
  4

  0
STYLE
  5
13F
330
3
100
AcDbSymbolTableRecord
100
AcDbTextStyleTableRecord
  2
SEACAD_Solid_Edge_ISO
 70
     0
 40
0.0
 41
1.0
 50
0.0
 71
     0
 42
0.2
  3
seiso.ttf
  4

1001
ACAD
1000
Solid Edge ISO
1071
        0
  0
ENDTAB
  0
TABLE
  2
VIEW
  5
6
330
0
100
AcDbSymbolTable
 70
     0
  0
ENDTAB
  0
TABLE
  2
UCS
  5
7
330
0
100
AcDbSymbolTable
 70
     0
  0
ENDTAB
  0
TABLE
  2
APPID
  5
9
330
0
100
AcDbSymbolTable
 70
     1
  0
APPID
  5
12
330
9
100
AcDbSymbolTableRecord
100
AcDbRegAppTableRecord
  2
ACAD
 70
     0
  0
ENDTAB
  0
TABLE
  2
DIMSTYLE
  5
A
330
0
100
AcDbSymbolTable
 70
     3
100
AcDbDimStyleTable
  0
DIMSTYLE
105
27
330
A
100
AcDbSymbolTableRecord
100
AcDbDimStyleTableRecord
  2
ISO-25
 70
     0
 41
2.5
 42
0.625
 43
3.75
 44
1.25
 73
     0
 74
     0
 77
     1
 78
     8
140
2.5
141
2.5
143
0.0393700787
147
0.625
171
     3
172
     1
178
     0
271
     2
272
     2
274
     3
278
    44
283
     0
284
     8
340
11
  0
DIMSTYLE
105
12D
330
A
100
AcDbSymbolTableRecord
100
AcDbDimStyleTableRecord
  2
Standard
 70
     0
178
     0
340
11
  0
DIMSTYLE
105
140
102
{ACAD_REACTORS
330
141
330
161
330
16C
330
176
102
}
330
A
100
AcDbSymbolTableRecord
100
AcDbDimStyleTableRecord
  2
DIN
 70
     0
 41
3.5
 42
0.0
 44
1.75
 73
     0
 74
     0
 77
     1
 78
     8
140
3.5
141
1.75
147
1.75
172
     1
173
     1
178
     0
179
     3
271
     2
272
     2
278
    44
284
     8
340
13F
343
13A
344
13A
  0
ENDTAB
  0
TABLE
  2
BLOCK_RECORD
  5
1
330
0
100
AcDbSymbolTable
 70
    10
  0
BLOCK_RECORD
  5
1F
330
1
100
AcDbSymbolTableRecord
100
AcDbBlockTableRecord
  2
*Model_Space
340
22
  0
BLOCK_RECORD
  5
1B
330
1
100
AcDbSymbolTableRecord
100
AcDbBlockTableRecord
  2
*Paper_Space
340
1E
  0
BLOCK_RECORD
  5
12E
330
1
100
AcDbSymbolTableRecord
100
AcDbBlockTableRecord
  2
_OBLIQUE
340
0
  0
BLOCK_RECORD
  5
132
330
1
100
AcDbSymbolTableRecord
100
AcDbBlockTableRecord
  2
_DOT
340
0
  0
BLOCK_RECORD
  5
13A
330
1
100
AcDbSymbolTableRecord
100
AcDbBlockTableRecord
  2
_SE_FILLED
340
0
  0
BLOCK_RECORD
  5
142
330
1
100
AcDbSymbolTableRecord
100
AcDbBlockTableRecord
  2
DMBLK133
340
0
  0
BLOCK_RECORD
  5
14B
330
1
100
AcDbSymbolTableRecord
100
AcDbBlockTableRecord
  2
Nullpunkt
340
0
102
{BLKREFS
331
155
102
}
  0
BLOCK_RECORD
  5
156
330
1
100
AcDbSymbolTableRecord
100
AcDbBlockTableRecord
  2
Einfügepunkt
340
0
102
{BLKREFS
331
160
102
}
  0
BLOCK_RECORD
  5
162
330
1
100
AcDbSymbolTableRecord
100
AcDbBlockTableRecord
  2
DMBLK134
340
0
  0
BLOCK_RECORD
  5
16D
330
1
100
AcDbSymbolTableRecord
100
AcDbBlockTableRecord
  2
DMBLK135
340
0
  0
BLOCK_RECORD
  5
177
330
1
100
AcDbSymbolTableRecord
100
AcDbBlockTableRecord
  2
DMBLK136
340
0
  0
ENDTAB
  0
ENDSEC
  0
SECTION
  2
BLOCKS
  0
BLOCK
  5
20
330
1F
100
AcDbEntity
  8
0
100
AcDbBlockBegin
  2
*Model_Space
 70
     0
 10
0.0
 20
0.0
 30
0.0
  3
*Model_Space
  1

  0
ENDBLK
  5
21
330
1F
100
AcDbEntity
  8
0
100
AcDbBlockEnd
  0
BLOCK
  5
1C
330
1B
100
AcDbEntity
 67
     1
  8
0
100
AcDbBlockBegin
  2
*Paper_Space
 70
     0
 10
0.0
 20
0.0
 30
0.0
  3
*Paper_Space
  1

  0
ENDBLK
  5
1D
330
1B
100
AcDbEntity
 67
     1
  8
0
100
AcDbBlockEnd
  0
BLOCK
  5
12F
330
12E
100
AcDbEntity
  8
0
100
AcDbBlockBegin
  2
_OBLIQUE
 70
     0
 10
0.0
 20
0.0
 30
0.0
  3
_OBLIQUE
  1

  0
LINE
  5
131
330
12E
100
AcDbEntity
  8
0
  6
ByBlock
 62
     0
370
    -2
100
AcDbLine
 10
-0.5
 20
-0.5
 30
0.0
 11
0.5
 21
0.5
 31
0.0
  0
ENDBLK
  5
130
330
12E
100
AcDbEntity
  8
0
100
AcDbBlockEnd
  0
BLOCK
  5
133
330
132
100
AcDbEntity
  8
0
100
AcDbBlockBegin
  2
_DOT
 70
     0
 10
0.0
 20
0.0
 30
0.0
  3
_DOT
  1

  0
POLYLINE
  5
135
330
132
100
AcDbEntity
  8
0
  6
ByBlock
 62
     0
100
AcDb2dPolyline
 66
     1
 10
0.0
 20
0.0
 30
0.0
 70
     1
 40
0.5
 41
0.5
  0
VERTEX
  5
137
330
135
100
AcDbEntity
  8
0
  6
ByBlock
 62
     0
100
AcDbVertex
100
AcDb2dVertex
 10
-0.25
 20
0.0
 30
0.0
 42
1.0
  0
VERTEX
  5
138
330
135
100
AcDbEntity
  8
0
  6
ByBlock
 62
     0
100
AcDbVertex
100
AcDb2dVertex
 10
0.25
 20
0.0
 30
0.0
 42
1.0
  0
SEQEND
  5
139
330
135
100
AcDbEntity
  8
0
  6
ByBlock
 62
     0
  0
LINE
  5
136
330
132
100
AcDbEntity
  8
0
  6
ByBlock
 62
     0
370
    -2
100
AcDbLine
 10
-0.5
 20
0.0
 30
0.0
 11
-1.0
 21
0.0
 31
0.0
  0
ENDBLK
  5
134
330
132
100
AcDbEntity
  8
0
100
AcDbBlockEnd
  0
BLOCK
  5
13D
330
13A
100
AcDbEntity
  8
0
100
AcDbBlockBegin
  2
_SE_FILLED
 70
     0
 10
0.0
 20
0.0
 30
0.0
  3
_SE_FILLED
  1

  0
SOLID
  5
13B
330
13A
100
AcDbEntity
  8
0
 62
     0
100
AcDbTrace
 10
0.0
 20
0.0
 30
0.0
 11
-1.0
 21
-0.1665
 31
0.0
 12
-1.0
 22
0.1665
 32
0.0
 13
0.0
 23
0.0
 33
0.0
  0
LINE
  5
13C
330
13A
100
AcDbEntity
  8
0
 62
     0
100
AcDbLine
 10
0.0
 20
0.0
 30
0.0
 11
-1.0
 21
0.0
 31
0.0
  0
ENDBLK
  5
13E
330
13A
100
AcDbEntity
  8
0
100
AcDbBlockEnd
  0
BLOCK
  5
149
330
142
100
AcDbEntity
  8
0
100
AcDbBlockBegin
  2
DMBLK133
 70
     0
 10
0.0
 20
0.0
 30
0.0
  3
DMBLK133
  1

  0
HATCH
  5
143
330
142
100
AcDbEntity
  8
SK2
  6
Continuous
 62
   136
100
AcDbHatch
 10
0.0
 20
0.0
 30
0.0
210
0.0
220
0.0
230
1.0
  2
SOLID
 70
     1
 71
     0
 91
        1
 92
        1
 93
        3
 72
     1
 10
-27.83999989196657
 20
30.58333326375456
 11
-31.33999999999999
 21
29.99999991241566
 72
     1
 10
-31.33999999999999
 20
29.99999991241566
 11
-27.83999989196657
 21
29.41666656107676
 72
     1
 10
-27.83999989196657
 20
29.41666656107676
 11
-27.83999989196657
 21
30.58333326375456
 97
        0
 75
     0
 76
     1
 98
        0
  0
HATCH
  5
144
330
142
100
AcDbEntity
  8
SK2
  6
Continuous
 62
   136
100
AcDbHatch
 10
0.0
 20
0.0
 30
0.0
210
0.0
220
0.0
230
1.0
  2
SOLID
 70
     1
 71
     0
 91
        1
 92
        1
 93
        3
 72
     1
 10
11.15999998137356
 20
30.58333326375456
 11
11.15999998137356
 21
29.41666656107676
 72
     1
 10
11.15999998137356
 20
29.41666656107676
 11
14.66000008940698
 21
29.99999991241566
 72
     1
 10
14.66000008940698
 20
29.99999991241566
 11
11.15999998137356
 21
30.58333326375456
 97
        0
 75
     0
 76
     1
 98
        0
  0
LINE
  5
145
330
142
100
AcDbEntity
  8
SK2
  6
Continuous
 62
   136
100
AcDbLine
 10
-31.34
 20
15.1522342357
 30
0.0
 11
-31.34
 21
31.7499999664
 31
0.0
  0
LINE
  5
146
330
142
100
AcDbEntity
  8
SK2
  6
Continuous
 62
   136
100
AcDbLine
 10
14.66
 20
15.0588048368
 30
0.0
 11
14.66
 21
31.7499999664
 31
0.0
  0
LINE
  5
147
330
142
100
AcDbEntity
  8
SK2
  6
Continuous
 62
   136
100
AcDbLine
 10
-31.34
 20
29.9999999124
 30
0.0
 11
14.6600000894
 21
29.9999999124
 31
0.0
  0
TEXT
  5
148
330
142
100
AcDbEntity
  8
SK2
  6
Continuous
 62
   136
100
AcDbText
 10
-10.4479545008
 20
30.8749999124
 30
0.0
 40
3.5
  1
46
  7
SEACAD_Solid_Edge_ISO
 11
-10.4479545008
 21
34.3749999124
 31
0.0
100
AcDbText
 73
     3
  0
ENDBLK
  5
14A
330
142
100
AcDbEntity
  8
0
100
AcDbBlockEnd
  0
BLOCK
  5
153
330
14B
100
AcDbEntity
  8
0
100
AcDbBlockBegin
  2
Nullpunkt
 70
     0
 10
0.0
 20
0.0
 30
0.0
  3
Nullpunkt
  1

  0
HATCH
  5
14C
330
14B
100
AcDbEntity
  8
SK2
  6
Continuous
 62
     7
100
AcDbHatch
 10
0.0
 20
0.0
 30
0.0
210
0.0
220
0.0
230
1.0
  2
SOLID
 70
     1
 71
     0
 91
        1
 92
        1
 93
        3
 72
     1
 10
-1.0
 20
0.0
 11
0.0000000000000009
 21
0.0
 72
     1
 10
0.0
 20
0.0
 11
0.0
 21
1.000000000000001
 72
     2
 10
0.0
 20
0.0
 40
1.0
 50
90.0
 51
180.0
 73
     1
 97
        0
 75
     0
 76
     1
 98
        0
  0
HATCH
  5
14D
330
14B
100
AcDbEntity
  8
SK2
  6
Continuous
 62
     7
100
AcDbHatch
 10
0.0
 20
0.0
 30
0.0
210
0.0
220
0.0
230
1.0
  2
SOLID
 70
     1
 71
     0
 91
        1
 92
        1
 93
        3
 72
     2
 10
0.0
 20
0.0
 40
1.0
 50
270.0
 51
360.0
 73
     1
 72
     1
 10
1.0
 20
0.0
 11
-0.0000000000000009
 21
0.0
 72
     1
 10
0.0
 20
0.0
 11
0.0
 21
-1.000000000000001
 97
        0
 75
     0
 76
     1
 98
        0
  0
CIRCLE
  5
14E
330
14B
100
AcDbEntity
  8
SK2
  6
Continuous
 62
     7
100
AcDbCircle
 10
0.0
 20
0.0
 30
0.0
 40
1.0
  0
LINE
  5
14F
330
14B
100
AcDbEntity
  8
SK1
  6
Continuous
100
AcDbLine
 10
-1.0
 20
0.0
 30
0.0
 11
1.0
 21
0.0
 31
0.0
  0
LINE
  5
150
330
14B
100
AcDbEntity
  8
SK1
  6
Continuous
100
AcDbLine
 10
0.0
 20
1.0
 30
0.0
 11
0.0
 21
-1.0
 31
0.0
  0
POINT
  5
151
330
14B
100
AcDbEntity
  8
SK1
  6
Continuous
100
AcDbPoint
 10
0.0
 20
0.0
 30
0.0
  0
POINT
  5
152
330
14B
100
AcDbEntity
  8
SK1
  6
Continuous
100
AcDbPoint
 10
0.0
 20
0.0
 30
0.0
  0
ENDBLK
  5
154
330
14B
100
AcDbEntity
  8
0
100
AcDbBlockEnd
  0
BLOCK
  5
15E
330
156
100
AcDbEntity
  8
0
100
AcDbBlockBegin
  2
Einfügepunkt
 70
     0
 10
0.0
 20
0.0
 30
0.0
  3
Einfügepunkt
  1

  0
HATCH
  5
157
330
156
100
AcDbEntity
  8
SK2
  6
Continuous
 62
     7
100
AcDbHatch
 10
0.0
 20
0.0
 30
0.0
210
0.0
220
0.0
230
1.0
  2
SOLID
 70
     1
 71
     0
 91
        1
 92
        1
 93
        3
 72
     1
 10
-0.4502381196756744
 20
-0.0000000000000018
 11
0.0000000000000033
 21
-0.0000000000000018
 72
     1
 10
0.0
 20
-0.0000000000000018
 11
0.0
 21
0.4502381196756812
 72
     2
 10
0.0
 20
-0.0000000000000018
 40
0.4502381196756812
 50
90.0
 51
180.0
 73
     1
 97
        0
 75
     0
 76
     1
 98
        0
  0
HATCH
  5
158
330
156
100
AcDbEntity
  8
SK2
  6
Continuous
 62
     7
100
AcDbHatch
 10
0.0
 20
0.0
 30
0.0
210
0.0
220
0.0
230
1.0
  2
SOLID
 70
     1
 71
     0
 91
        1
 92
        1
 93
        3
 72
     2
 10
0.0
 20
-0.0000000000000018
 40
0.4502381196756812
 50
270.0
 51
360.0
 73
     1
 72
     1
 10
0.4502381196756815
 20
-0.0000000000000018
 11
0.0000000000000038
 21
-0.0000000000000018
 72
     1
 10
0.0
 20
-0.0000000000000018
 11
0.0
 21
-0.4502381196756812
 97
        0
 75
     0
 76
     1
 98
        0
  0
CIRCLE
  5
159
330
156
100
AcDbEntity
  8
SK2
  6
Continuous
 62
     7
100
AcDbCircle
 10
0.0
 20
0.0
 30
0.0
 40
0.4502381196756812
  0
LINE
  5
15A
330
156
100
AcDbEntity
  8
SK1
  6
Continuous
100
AcDbLine
 10
-0.4502381197
 20
0.0
 30
0.0
 11
0.4502381197
 21
0.0
 31
0.0
  0
LINE
  5
15B
330
156
100
AcDbEntity
  8
SK1
  6
Continuous
100
AcDbLine
 10
0.0
 20
0.4502381197
 30
0.0
 11
0.0
 21
-0.4502381197
 31
0.0
  0
POINT
  5
15C
330
156
100
AcDbEntity
  8
SK2
  6
Continuous
 62
     7
100
AcDbPoint
 10
0.0
 20
0.0
 30
0.0
  0
POINT
  5
15D
330
156
100
AcDbEntity
  8
SK2
  6
Continuous
 62
     7
100
AcDbPoint
 10
0.0
 20
0.0
 30
0.0
  0
ENDBLK
  5
15F
330
156
100
AcDbEntity
  8
0
100
AcDbBlockEnd
  0
BLOCK
  5
16A
330
162
100
AcDbEntity
  8
0
100
AcDbBlockBegin
  2
DMBLK134
 70
     0
 10
0.0
 20
0.0
 30
0.0
  3
DMBLK134
  1

  0
HATCH
  5
163
330
162
100
AcDbEntity
  8
SK2
  6
Continuous
 62
   136
100
AcDbHatch
 10
0.0
 20
0.0
 30
0.0
210
0.0
220
0.0
230
1.0
  2
SOLID
 70
     1
 71
     0
 91
        1
 92
        1
 93
        3
 72
     1
 10
26.99027566882472
 20
-10.50000000826273
 11
26.40694231748581
 21
-6.99999990022931
 72
     1
 10
26.40694231748581
 20
-6.999999900229311
 11
25.82360896614691
 21
-10.50000000826273
 72
     1
 10
25.82360896614691
 20
-10.50000000826273
 11
26.99027566882472
 21
-10.50000000826273
 97
        0
 75
     0
 76
     1
 98
        0
  0
HATCH
  5
164
330
162
100
AcDbEntity
  8
SK2
  6
Continuous
 62
   136
100
AcDbHatch
 10
0.0
 20
0.0
 30
0.0
210
0.0
220
0.0
230
1.0
  2
SOLID
 70
     1
 71
     0
 91
        1
 92
        1
 93
        3
 72
     1
 10
26.99027566882472
 20
10.50000020780413
 11
25.82360896614691
 21
10.50000020780413
 72
     1
 10
25.82360896614691
 20
10.50000020780413
 11
26.40694231748581
 21
7.000000099770708
 72
     1
 10
26.40694231748581
 20
7.000000099770707
 11
26.99027566882472
 21
10.50000020780413
 97
        0
 75
     0
 76
     1
 98
        0
  0
LINE
  5
165
330
162
100
AcDbEntity
  8
SK2
  6
Continuous
 62
   136
100
AcDbLine
 10
14.26
 20
-6.9999999002
 30
0.0
 11
28.1569423715
 21
-6.9999999002
 31
0.0
  0
LINE
  5
166
330
162
100
AcDbEntity
  8
SK2
  6
Continuous
 62
   136
100
AcDbLine
 10
14.26
 20
7.0000000998
 30
0.0
 11
28.1569423715
 21
7.0000000998
 31
0.0
  0
LINE
  5
167
330
162
100
AcDbEntity
  8
SK2
  6
Continuous
 62
   136
100
AcDbLine
 10
26.4069423175
 20
-14.0000001163
 30
0.0
 11
26.4069423175
 21
13.9999998166
 31
0.0
  0
TEXT
  5
168
330
162
100
AcDbEntity
  8
SK2
  6
Continuous
 62
   136
100
AcDbText
 10
25.5319423175
 20
0.2863639522
 30
0.0
 40
3.5
  1
14
 50
90.0
  7
SEACAD_Solid_Edge_ISO
 11
22.0319423175
 21
0.2863639522
 31
0.0
100
AcDbText
 73
     3
  0
TEXT
  5
169
330
162
100
AcDbEntity
  8
SK2
  6
Continuous
 62
   136
100
AcDbText
 10
25.5319423175
 20
-3.7863633205
 30
0.0
 40
3.5
  1
ø
 50
90.0
  7
SEACAD_Solid_Edge_ISO
 11
22.0319423175
 21
-3.7863633205
 31
0.0
100
AcDbText
 73
     3
  0
ENDBLK
  5
16B
330
162
100
AcDbEntity
  8
0
100
AcDbBlockEnd
  0
BLOCK
  5
174
330
16D
100
AcDbEntity
  8
0
100
AcDbBlockBegin
  2
DMBLK135
 70
     0
 10
0.0
 20
0.0
 30
0.0
  3
DMBLK135
  1

  0
HATCH
  5
16E
330
16D
100
AcDbEntity
  8
SK2
  6
Continuous
 62
   136
100
AcDbHatch
 10
0.0
 20
0.0
 30
0.0
210
0.0
220
0.0
230
1.0
  2
SOLID
 70
     1
 71
     0
 91
        1
 92
        1
 93
        3
 72
     1
 10
3.500000108033422
 20
-28.77247652458707
 11
3.500000108033422
 21
-27.60580982190926
 72
     1
 10
3.500000108033422
 20
-27.60580982190926
 11
0.0000000000000036
 21
-28.18914317324817
 72
     1
 10
0.0000000000000035
 20
-28.18914317324817
 11
3.500000108033422
 21
-28.77247652458707
 97
        0
 75
     0
 76
     1
 98
        0
  0
HATCH
  5
16F
330
16D
100
AcDbEntity
  8
SK2
  6
Continuous
 62
   136
100
AcDbHatch
 10
0.0
 20
0.0
 30
0.0
210
0.0
220
0.0
230
1.0
  2
SOLID
 70
     1
 71
     0
 91
        1
 92
        1
 93
        3
 72
     1
 10
11.15999976173044
 20
-28.77247652458707
 11
14.65999986976385
 21
-28.18914317324817
 72
     1
 10
14.65999986976385
 20
-28.18914317324817
 11
11.15999976173044
 21
-27.60580982190926
 72
     1
 10
11.15999976173044
 20
-27.60580982190926
 11
11.15999976173044
 21
-28.77247652458707
 97
        0
 75
     0
 76
     1
 98
        0
  0
LINE
  5
170
330
16D
100
AcDbEntity
  8
SK2
  6
Continuous
 62
   136
100
AcDbLine
 10
0.0
 20
-19.9996745287
 30
0.0
 11
0.0
 21
-29.9391432273
 31
0.0
  0
LINE
  5
171
330
16D
100
AcDbEntity
  8
SK2
  6
Continuous
 62
   136
100
AcDbLine
 10
14.66
 20
-15.9778492591
 30
0.0
 11
14.66
 21
-29.9391432273
 31
0.0
  0
LINE
  5
172
330
16D
100
AcDbEntity
  8
SK2
  6
Continuous
 62
   136
100
AcDbLine
 10
0.0
 20
-28.1891431732
 30
0.0
 11
14.6599998698
 21
-28.1891431732
 31
0.0
  0
TEXT
  5
173
330
16D
100
AcDbEntity
  8
SK2
  6
Continuous
 62
   136
100
AcDbText
 10
3.114090844
 20
-27.3141431732
 30
0.0
 40
3.5
  1
14,66
  7
SEACAD_Solid_Edge_ISO
 11
3.114090844
 21
-23.8141431732
 31
0.0
100
AcDbText
 73
     3
  0
ENDBLK
  5
175
330
16D
100
AcDbEntity
  8
0
100
AcDbBlockEnd
  0
BLOCK
  5
17F
330
177
100
AcDbEntity
  8
0
100
AcDbBlockBegin
  2
DMBLK136
 70
     0
 10
0.0
 20
0.0
 30
0.0
  3
DMBLK136
  1

  0
HATCH
  5
178
330
177
100
AcDbEntity
  8
SK2
  6
Continuous
 62
   136
100
AcDbHatch
 10
0.0
 20
0.0
 30
0.0
210
0.0
220
0.0
230
1.0
  2
SOLID
 70
     1
 71
     0
 91
        1
 92
        1
 93
        3
 72
     1
 10
-40.61506075474123
 20
16.49967462019676
 11
-39.44839405206343
 21
16.49967462019676
 72
     1
 10
-39.44839405206343
 20
16.49967462019676
 11
-40.03172740340233
 21
19.99967472823018
 72
     1
 10
-40.03172740340233
 20
19.99967472823018
 11
-40.61506075474123
 21
16.49967462019676
 97
        0
 75
     0
 76
     1
 98
        0
  0
HATCH
  5
179
330
177
100
AcDbEntity
  8
SK2
  6
Continuous
 62
   136
100
AcDbHatch
 10
0.0
 20
0.0
 30
0.0
210
0.0
220
0.0
230
1.0
  2
SOLID
 70
     1
 71
     0
 91
        1
 92
        1
 93
        3
 72
     1
 10
-40.61506075474123
 20
-16.4996760691548
 11
-40.03172740340233
 21
-19.99967617718822
 72
     1
 10
-40.03172740340233
 20
-19.99967617718822
 11
-39.44839405206343
 21
-16.4996760691548
 72
     1
 10
-39.44839405206343
 20
-16.4996760691548
 11
-40.61506075474123
 21
-16.4996760691548
 97
        0
 75
     0
 76
     1
 98
        0
  0
LINE
  5
17A
330
177
100
AcDbEntity
  8
SK2
  6
Continuous
 62
   136
100
AcDbLine
 10
0.0
 20
19.9996747282
 30
0.0
 11
-41.7817274574
 21
19.9996747282
 31
0.0
  0
LINE
  5
17B
330
177
100
AcDbEntity
  8
SK2
  6
Continuous
 62
   136
100
AcDbLine
 10
0.0
 20
-19.9996745287
 30
0.0
 11
-41.7817274574
 21
-19.9996745287
 31
0.0
  0
LINE
  5
17C
330
177
100
AcDbEntity
  8
SK2
  6
Continuous
 62
   136
100
AcDbLine
 10
-40.0317274034
 20
19.9996747282
 30
0.0
 11
-40.0317274034
 21
-19.9996761772
 31
0.0
  0
TEXT
  5
17D
330
177
100
AcDbEntity
  8
SK2
  6
Continuous
 62
   136
100
AcDbText
 10
-40.9067274034
 20
-0.0318189063
 30
0.0
 40
3.5
  1
40
 50
90.0
  7
SEACAD_Solid_Edge_ISO
 11
-44.4067274034
 21
-0.0318189063
 31
0.0
100
AcDbText
 73
     3
  0
TEXT
  5
17E
330
177
100
AcDbEntity
  8
SK2
  6
Continuous
 62
   136
100
AcDbText
 10
-40.9067274034
 20
-4.104546179
 30
0.0
 40
3.5
  1
ø
 50
90.0
  7
SEACAD_Solid_Edge_ISO
 11
-44.4067274034
 21
-4.104546179
 31
0.0
100
AcDbText
 73
     3
  0
ENDBLK
  5
180
330
177
100
AcDbEntity
  8
0
100
AcDbBlockEnd
  0
ENDSEC
  0
SECTION
  2
ENTITIES
  0
LINE
  5
40
330
1F
100
AcDbEntity
  8
SK1
  6
Continuous
100
AcDbLine
 10
-30.9095865505
 20
-10.7109911853
 30
0.0
 11
-30.9095865505
 21
-0.4999999002
 31
0.0
  0
LINE
  5
41
330
1F
100
AcDbEntity
  8
SK1
  6
Continuous
100
AcDbLine
 10
-31.34
 20
-10.3606940173
 30
0.0
 11
-31.34
 21
-0.4999999002
 31
0.0
  0
SPLINE
  5
44
330
1F
100
AcDbEntity
  8
SK3
100
AcDbSpline
210
0.0
220
0.0
230
1.0
 70
     8
 71
     3
 72
    10
 73
     6
 74
     0
 42
0.0000000180350851
 43
0.0000000001
 12
1.0
 22
0.0
 32
0.0
 13
1.0
 23
0.0
 33
0.0
 40
0.0
 40
0.0
 40
0.0
 40
0.0
 40
0.5
 40
0.5
 40
1.0
 40
1.0
 40
1.0
 40
1.0
 10
-31.34000000000432
 20
-5.574185436453639
 30
0.0
 10
-31.33999999999982
 20
-5.500339295248531
 30
0.0
 10
-31.29767694589057
 20
-5.426859517047568
 30
0.0
 10
-31.14856112292014
 20
-5.320950728335364
 30
0.0
 10
-31.0457786303573
 20
-5.290657705355182
 30
0.0
 10
-30.94
 20
-5.290657705355454
 30
0.0
  0
SPLINE
  5
45
330
1F
100
AcDbEntity
  8
SK3
100
AcDbSpline
210
0.0
220
0.0
230
1.0
 70
     8
 71
     3
 72
    10
 73
     6
 74
     0
 42
0.0000000180350851
 43
0.0000000001
 12
1.0
 22
0.0
 32
0.0
 13
1.0
 23
0.0
 33
0.0
 40
0.0
 40
0.0
 40
0.0
 40
0.0
 40
0.5
 40
0.5
 40
1.0
 40
1.0
 40
1.0
 40
1.0
 10
-31.34000000000432
 20
-4.867078655267091
 30
0.0
 10
-31.33999999999982
 20
-4.793232514061984
 30
0.0
 10
-31.29767694589056
 20
-4.719752735861022
 30
0.0
 10
-31.14856112292012
 20
-4.61384394714882
 30
0.0
 10
-31.04577863035731
 20
-4.583550924168636
 30
0.0
 10
-30.94
 20
-4.583550924168908
 30
0.0
  0
SPLINE
  5
46
330
1F
100
AcDbEntity
  8
SK1
  6
Continuous
100
AcDbSpline
210
0.0
220
0.0
230
1.0
 70
     8
 71
     3
 72
    10
 73
     6
 74
     0
 42
0.0000000161503712
 43
0.0000000001
 12
1.0
 22
0.0
 32
0.0
 13
1.0
 23
0.0
 33
0.0
 40
0.0
 40
0.0
 40
0.0
 40
0.0
 40
0.5
 40
0.5
 40
1.0
 40
1.0
 40
1.0
 40
1.0
 10
-31.33999999999999
 20
-10.3606940173051
 30
0.0
 10
-31.34
 20
-10.44491262337391
 30
0.0
 10
-31.29542015981369
 20
-10.52915098276765
 30
0.0
 10
-31.13972113835961
 20
-10.65603640050034
 30
0.0
 10
-31.02878034044548
 20
-10.69913997341217
 30
0.0
 10
-30.90958655048002
 20
-10.71099118529607
 30
0.0
  0
SPLINE
  5
47
330
1F
100
AcDbEntity
  8
SK1
  6
Continuous
100
AcDbSpline
210
0.0
220
0.0
230
1.0
 70
     8
 71
     3
 72
    11
 73
     7
 74
     0
 42
0.0000000003544773
 43
0.0000000001
 12
1.0
 22
0.0
 32
0.0
 13
1.0
 23
0.0
 33
0.0
 40
0.0
 40
0.0
 40
0.0
 40
0.0
 40
0.9695717939571193
 40
0.9695717939571193
 40
0.9695717939571193
 40
1.0
 40
1.0
 40
1.0
 40
1.0
 10
-30.90958655048002
 20
-10.71099118529607
 30
0.0
 10
-21.83694658167206
 20
-11.61306652545768
 30
0.0
 10
-12.76428551794339
 20
-12.5150357854576
 30
0.0
 10
-3.691613755690052
 20
-13.41695122957583
 30
0.0
 10
-3.40688483981318
 20
-13.44525616701275
 30
0.0
 10
-3.122155912728141
 20
-13.47356104807637
 30
0.0
 10
-2.837426974639814
 20
-13.50186587379681
 30
0.0
  0
SPLINE
  5
48
330
1F
100
AcDbEntity
  8
SK1
  6
Continuous
100
AcDbSpline
210
0.0
220
0.0
230
1.0
 70
     8
 71
     3
 72
    10
 73
     6
 74
     0
 42
0.0000000161503712
 43
0.0000000001
 12
1.0
 22
0.0
 32
0.0
 13
1.0
 23
0.0
 33
0.0
 40
0.0
 40
0.0
 40
0.0
 40
0.0
 40
0.5
 40
0.5
 40
1.0
 40
1.0
 40
1.0
 40
1.0
 10
-31.33999999999999
 20
-11.06780079849164
 30
0.0
 10
-31.34000000000001
 20
-11.15201940456046
 30
0.0
 10
-31.29542015981369
 20
-11.2362577639542
 30
0.0
 10
-31.13972113835963
 20
-11.36314318168689
 30
0.0
 10
-31.0287803404455
 20
-11.40624675459872
 30
0.0
 10
-30.90958655048002
 20
-11.41809796648261
 30
0.0
  0
SPLINE
  5
49
330
1F
100
AcDbEntity
  8
SK1
  6
Continuous
100
AcDbSpline
210
0.0
220
0.0
230
1.0
 70
     8
 71
     3
 72
    11
 73
     7
 74
     0
 42
0.0000000003544773
 43
0.0000000001
 12
1.0
 22
0.0
 32
0.0
 13
1.0
 23
0.0
 33
0.0
 40
0.0
 40
0.0
 40
0.0
 40
0.0
 40
0.9695717939571273
 40
0.9695717939571273
 40
0.9695717939571273
 40
1.0
 40
1.0
 40
1.0
 40
1.0
 10
-30.90958655048002
 20
-11.41809796648261
 30
0.0
 10
-21.83694658167206
 20
-12.32017330664423
 30
0.0
 10
-12.76428551794339
 20
-13.22214256664415
 30
0.0
 10
-3.691613755690052
 20
-14.12405801076237
 30
0.0
 10
-3.40688483981326
 20
-14.1523629481993
 30
0.0
 10
-3.122155912728297
 20
-14.1806678292629
 30
0.0
 10
-2.837426974640046
 20
-14.20897265498333
 30
0.0
  0
LINE
  5
4A
330
1F
100
AcDbEntity
  8
SK1
  6
Continuous
100
AcDbLine
 10
-31.34
 20
-10.3606940173
 30
0.0
 11
-31.34
 21
-11.0678007985
 31
0.0
  0
SPLINE
  5
4B
330
1F
100
AcDbEntity
  8
SK3
100
AcDbSpline
210
0.0
220
0.0
230
1.0
 70
     8
 71
     3
 72
    11
 73
     7
 74
     0
 42
0.0000002539986538
 43
0.0000000001
 12
1.0
 22
0.0
 32
0.0
 13
1.0
 23
0.0
 33
0.0
 40
0.0
 40
0.0
 40
0.0
 40
0.0
 40
0.8031991452644448
 40
0.8031991452644448
 40
0.8031991452644448
 40
1.0
 40
1.0
 40
1.0
 40
1.0
 10
-26.258221361609
 20
6.487894083454644
 30
0.0
 10
-26.26430880693019
 20
6.479214504834741
 30
0.0
 10
-26.27008406311969
 20
6.470376866499971
 30
0.0
 10
-26.27552176486478
 20
6.461404149217771
 30
0.0
 10
-26.27685541240385
 20
6.459203505842487
 30
0.0
 10
-26.27817057022107
 20
6.456991641075399
 30
0.0
 10
-26.27946701306795
 20
6.454769039374121
 30
0.0
  0
LINE
  5
4C
330
1F
100
AcDbEntity
  8
SK3
100
AcDbLine
 10
-0.5423407826
 20
-5.2906577054
 30
0.0
 11
-30.94
 21
-5.2906577054
 31
0.0
  0
ELLIPSE
  5
4D
330
1F
100
AcDbEntity
  8
SK1
  6
Continuous
100
AcDbEllipse
 10
-74.7144379611
 20
-0.3535532909
 30
0.0
 11
74.49999999908002
 21
2.359146039598141E-10
 31
0.0
210
0.0
220
0.0
230
1.0
 40
0.7071067812
 41
-0.2661445757440362
 42
-0.2536239316879865
  0
SPLINE
  5
4E
330
1F
100
AcDbEntity
  8
SK3
100
AcDbSpline
210
0.0
220
0.0
230
1.0
 70
     8
 71
     3
 72
    35
 73
    31
 74
     0
 42
0.0000000073650769
 43
0.0000000001
 12
1.0
 22
0.0
 32
0.0
 13
1.0
 23
0.0
 33
0.0
 40
0.0
 40
0.0
 40
0.0
 40
0.0
 40
0.1075668705826615
 40
0.1075668705826615
 40
0.1075668705826615
 40
0.2151564556517871
 40
0.2151564556517871
 40
0.2151564556517871
 40
0.322444103712265
 40
0.322444103712265
 40
0.322444103712265
 40
0.4296724017396106
 40
0.4296724017396106
 40
0.4296724017396106
 40
0.5000033384442565
 40
0.5000033384442565
 40
0.5000033384442565
 40
0.607313301491969
 40
0.607313301491969
 40
0.607313301491969
 40
0.7146252763141998
 40
0.7146252763141998
 40
0.7146252763141998
 40
0.8219019922209216
 40
0.8219019922209216
 40
0.8219019922209216
 40
0.9291192722851752
 40
0.9291192722851752
 40
0.9291192722851752
 40
1.0
 40
1.0
 40
1.0
 40
1.0
 10
-0.5423407826002438
 20
-5.290657705355454
 30
0.0
 10
-0.4862668922131982
 20
-5.290657705355456
 30
0.0
 10
-0.4294169575770335
 20
-5.284357301360034
 30
0.0
 10
-0.3764965795805802
 20
-5.272161420777551
 30
0.0
 10
-0.32356916478621
 20
-5.259963918514527
 30
0.0
 10
-0.2731146277651277
 20
-5.241522868044807
 30
0.0
 10
-0.2293397010117854
 20
-5.218156397421522
 30
0.0
 10
-0.1856844717156615
 20
-5.194853819700528
 30
0.0
 10
-0.1474658547831343
 20
-5.165999607652199
 30
0.0
 10
-0.1178390396389152
 20
-5.133752257777036
 30
0.0
 10
-0.0882278025944767
 20
-5.101521863907154
 30
0.0
 10
-0.0663804893038279
 20
-5.065004124304522
 30
0.0
 10
-0.0540870290886113
 20
-5.02705737799919
 30
0.0
 10
-0.0459582962118732
 20
-5.001966072633794
 30
0.0
 10
-0.041819151687366
 20
-4.975883094958807
 30
0.0
 10
-0.041819151687366
 20
-4.949747368535141
 30
0.0
 10
-0.041819151687366
 20
-4.910191659658476
 30
0.0
 10
-0.0514497568868035
 20
-4.869590268818724
 30
0.0
 10
-0.0699226521278535
 20
-4.831381561903387
 30
0.0
 10
-0.0883957378870186
 20
-4.79317246092687
 30
0.0
 10
-0.1162227350056579
 20
-4.756308921655171
 30
0.0
 10
-0.1511159502216742
 20
-4.724042704444505
 30
0.0
 10
-0.1859976690309437
 20
-4.691787118113079
 30
0.0
 10
-0.2289052397991525
 20
-4.663247576005056
 30
0.0
 10
-0.2762889438562791
 20
-4.641013560787533
 30
0.0
 10
-0.3236483231966927
 20
-4.618790959538847
 30
0.0
 10
-0.3767814555876089
 20
-4.602265529949491
 30
0.0
 10
-0.4312907129078881
 20
-4.592935916879574
 30
0.0
 10
-0.4676158748661754
 20
-4.586718629717106
 30
0.0
 10
-0.5050930512855989
 20
-4.583550924168907
 30
0.0
 10
-0.5423407826002438
 20
-4.583550924168907
 30
0.0
  0
SPLINE
  5
4F
330
1F
100
AcDbEntity
  8
SK1
  6
Continuous
100
AcDbSpline
210
0.0
220
0.0
230
1.0
 70
     8
 71
     3
 72
    35
 73
    31
 74
     0
 42
0.0000000073733396
 43
0.0000000001
 12
1.0
 22
0.0
 32
0.0
 13
1.0
 23
0.0
 33
0.0
 40
0.0
 40
0.0
 40
0.0
 40
0.0
 40
0.1083835106362504
 40
0.1083835106362504
 40
0.1083835106362504
 40
0.2168004354268567
 40
0.2168004354268567
 40
0.2168004354268567
 40
0.3247144655140164
 40
0.3247144655140164
 40
0.3247144655140164
 40
0.4319468106745892
 40
0.4319468106745892
 40
0.4319468106745892
 40
0.5000278904991833
 40
0.5000278904991833
 40
0.5000278904991833
 40
0.606698716295246
 40
0.606698716295246
 40
0.606698716295246
 40
0.7133571261345989
 40
0.7133571261345989
 40
0.7133571261345989
 40
0.820214489094851
 40
0.820214489094851
 40
0.820214489094851
 40
0.9276015695245903
 40
0.9276015695245903
 40
0.9276015695245903
 40
1.0
 40
1.0
 40
1.0
 40
1.0
 10
-2.837426974639814
 20
-13.50186587379681
 30
0.0
 10
-2.78135350582796
 20
-13.50744012196744
 30
0.0
 10
-2.724540069271565
 20
-13.52014952813856
 30
0.0
 10
-2.671679481394154
 20
-13.53895145883444
 30
0.0
 10
-2.618809405157446
 20
-13.55775676443554
 30
0.0
 10
-2.568431588171348
 20
-13.58318024281558
 30
0.0
 10
-2.524772936324051
 20
-13.61306286673424
 30
0.0
 10
-2.481316214494309
 20
-13.64280727752635
 30
0.0
 10
-2.443310263976602
 20
-13.67779486341097
 30
0.0
 10
-2.413961301953559
 20
-13.71503062023158
 30
0.0
 10
-2.384794825579746
 20
-13.7520348529781
 30
0.0
 10
-2.363368357086438
 20
-13.79228292909459
 30
0.0
 10
-2.351483492708452
 20
-13.83236173401333
 30
0.0
 10
-2.343873044596524
 20
-13.85802611313634
 30
0.0
 10
-2.339999999999999
 20
-13.88399567576564
 30
0.0
 10
-2.339999999999999
 20
-13.90936238876861
 30
0.0
 10
-2.339999999999999
 20
-13.94877362834945
 30
0.0
 10
-2.349503685014235
 20
-13.98760714993605
 30
0.0
 10
-2.367717853442718
 20
-14.02267223424907
 30
0.0
 10
-2.385930848651681
 20
-14.05773505993352
 30
0.0
 10
-2.413352596450868
 20
-14.08999752671254
 30
0.0
 10
-2.447706302118137
 20
-14.1168811317981
 30
0.0
 10
-2.482125522274298
 20
-14.1438160054619
 30
0.0
 10
-2.524443596504309
 20
-14.16609483503672
 30
0.0
 10
-2.571172119378615
 20
-14.18200307256332
 30
0.0
 10
-2.618131515030222
 20
-14.19798990831545
 30
0.0
 10
-2.670826602849036
 20
-14.20798631363734
 30
0.0
 10
-2.724938837048125
 20
-14.21127406855797
 30
0.0
 10
-2.761701213132898
 20
-14.21350767958247
 30
0.0
 10
-2.7996755674599
 20
-14.21272551202733
 30
0.0
 10
-2.837426974640046
 20
-14.20897265498333
 30
0.0
  0
LINE
  5
50
330
1F
100
AcDbEntity
  8
SK3
100
AcDbLine
 10
-0.5423407826
 20
-4.5835509242
 30
0.0
 11
-30.94
 21
-4.5835509242
 31
0.0
  0
SPLINE
  5
51
330
1F
100
AcDbEntity
  8
SK3
100
AcDbSpline
210
0.0
220
0.0
230
1.0
 70
     8
 71
     3
 72
    10
 73
     6
 74
     0
 42
0.0000000155009776
 43
0.0000000001
 12
1.0
 22
0.0
 32
0.0
 13
1.0
 23
0.0
 33
0.0
 40
0.0
 40
0.0
 40
0.0
 40
0.0
 40
0.5
 40
0.5
 40
1.0
 40
1.0
 40
1.0
 40
1.0
 10
-31.34000000000432
 20
-7.383088684741702
 30
0.0
 10
-31.33999999999982
 20
-7.278654470320521
 30
0.0
 10
-31.29767694589057
 20
-7.174738371428553
 30
0.0
 10
-31.14856112292014
 20
-7.024960726057247
 30
0.0
 10
-31.0457786303573
 20
-6.982119922113394
 30
0.0
 10
-30.94
 20
-6.982119922113781
 30
0.0
  0
LINE
  5
52
330
1F
100
AcDbEntity
  8
SK1
  6
Continuous
100
AcDbLine
 10
-31.34
 20
-15.1522340362
 30
0.0
 11
-31.34
 21
-11.0678007985
 31
0.0
  0
LINE
  5
53
330
1F
100
AcDbEntity
  8
SK1
  6
Continuous
100
AcDbLine
 10
-30.9095865505
 20
-15.647629042
 30
0.0
 11
-30.9095865505
 21
-11.4180979665
 31
0.0
  0
SPLINE
  5
54
330
1F
100
AcDbEntity
  8
SK1
  6
Continuous
100
AcDbSpline
210
0.0
220
0.0
230
1.0
 70
     8
 71
     3
 72
    10
 73
     6
 74
     0
 42
0.000000013683103
 43
0.0000000001
 12
1.0
 22
0.0
 32
0.0
 13
1.0
 23
0.0
 33
0.0
 40
0.0
 40
0.0
 40
0.0
 40
0.0
 40
0.5
 40
0.5
 40
1.0
 40
1.0
 40
1.0
 40
1.0
 10
-31.33999999999999
 20
-15.15223403619703
 30
0.0
 10
-31.34000000000001
 20
-15.2713371311037
 30
0.0
 10
-31.29542015981369
 20
-15.39046816143039
 30
0.0
 10
-31.13972113835963
 20
-15.56991124005533
 30
0.0
 10
-31.0287803404455
 20
-15.63086889745399
 30
0.0
 10
-30.90958655048002
 20
-15.64762904203075
 30
0.0
  0
SPLINE
  5
55
330
1F
100
AcDbEntity
  8
SK1
  6
Continuous
100
AcDbSpline
210
0.0
220
0.0
230
1.0
 70
     8
 71
     3
 72
    11
 73
     7
 74
     0
 42
0.0000000003527553
 43
0.0000000001
 12
1.0
 22
0.0
 32
0.0
 13
1.0
 23
0.0
 33
0.0
 40
0.0
 40
0.0
 40
0.0
 40
0.0
 40
0.9695717939571193
 40
0.9695717939571193
 40
0.9695717939571193
 40
1.0
 40
1.0
 40
1.0
 40
1.0
 10
-30.90958655048002
 20
-15.64762904203075
 30
0.0
 10
-21.83694658167206
 20
-16.92335622236962
 30
0.0
 10
-12.76428551794339
 20
-18.19893338270513
 30
0.0
 10
-3.691613755690052
 20
-19.47443443589088
 30
0.0
 10
-3.40688483981318
 20
-19.51446366229631
 30
0.0
 10
-3.122155912728141
 20
-19.55449280897783
 30
0.0
 10
-2.837426974639814
 20
-19.59452187739227
 30
0.0
  0
SPLINE
  5
56
330
1F
100
AcDbEntity
  8
SK3
100
AcDbSpline
210
0.0
220
0.0
230
1.0
 70
     8
 71
     3
 72
    11
 73
     7
 74
     0
 42
0.0000003107922778
 43
0.0000000001
 12
1.0
 22
0.0
 32
0.0
 13
1.0
 23
0.0
 33
0.0
 40
0.0
 40
0.0
 40
0.0
 40
0.0
 40
0.5223788404288953
 40
0.5223788404288953
 40
0.5223788404288953
 40
1.0
 40
1.0
 40
1.0
 40
1.0
 10
-26.32509162608306
 20
15.10398269879214
 30
0.0
 10
-26.32830420064559
 20
15.09886169590529
 30
0.0
 10
-26.3310064014452
 20
15.09375365129916
 30
0.0
 10
-26.33317334679418
 20
15.08868207742878
 30
0.0
 10
-26.33517920820555
 20
15.0839875084927
 30
0.0
 10
-26.33674691087571
 20
15.07930196213999
 30
0.0
 10
-26.33787132020527
 20
15.07464509021236
 30
0.0
  0
ARC
  5
57
330
1F
100
AcDbEntity
  8
SK3
100
AcDbCircle
 10
-0.5419950676
 20
-13.9870368008
 30
0.0
 40
7.004916887233333
100
AcDbArc
 50
85.9053936756
 51
90.0028277293
  0
SPLINE
  5
58
330
1F
100
AcDbEntity
  8
SK1
  6
Continuous
100
AcDbSpline
210
0.0
220
0.0
230
1.0
 70
     8
 71
     3
 72
    23
 73
    19
 74
     0
 42
0.0000000195584633
 43
0.0000000001
 12
1.0
 22
0.0
 32
0.0
 13
1.0
 23
0.0
 33
0.0
 40
0.0
 40
0.0
 40
0.0
 40
0.0
 40
0.1946973459634746
 40
0.1946973459634746
 40
0.1946973459634746
 40
0.3894547162529055
 40
0.3894547162529055
 40
0.3894547162529055
 40
0.5833086994543466
 40
0.5833086994543466
 40
0.5833086994543466
 40
0.775938121417541
 40
0.775938121417541
 40
0.775938121417541
 40
0.8982372190788289
 40
0.8982372190788289
 40
0.8982372190788289
 40
1.0
 40
1.0
 40
1.0
 40
1.0
 10
-2.837426974639814
 20
-19.59452187739227
 30
0.0
 10
-2.78135350582796
 20
-19.60240505475522
 30
0.0
 10
-2.724540069271565
 20
-19.61064707061876
 30
0.0
 10
-2.671679481394154
 20
-19.61852798562554
 30
0.0
 10
-2.618809405157446
 20
-19.62641031523923
 30
0.0
 10
-2.568431588171348
 20
-19.63414599900697
 30
0.0
 10
-2.524772936324051
 20
-19.64098494063192
 30
0.0
 10
-2.481316214494309
 20
-19.64779225078076
 30
0.0
 10
-2.443310263976602
 20
-19.65389448218997
 30
0.0
 10
-2.413961301953559
 20
-19.65865953663371
 30
0.0
 10
-2.384794825579746
 20
-19.66339496297499
 30
0.0
 10
-2.363368357086438
 20
-19.66693614285546
 30
0.0
 10
-2.351483492708452
 20
-19.66890408660807
 30
0.0
 10
-2.343873044596524
 20
-19.67016425528481
 30
0.0
 10
-2.340000000000009
 20
-19.67080897548518
 30
0.0
 10
-2.340000000000009
 20
-19.67080897548518
 30
0.0
 10
-2.340000000000009
 20
-19.67080897548518
 30
0.0
 10
-2.342680309946344
 20
-19.67036181096073
 30
0.0
 10
-2.347922128028899
 20
-19.66949299683997
 30
0.0
  0
LINE
  5
59
330
1F
100
AcDbEntity
  8
SK3
100
AcDbLine
 10
-0.5423407826
 20
-6.9821199221
 30
0.0
 11
-30.94
 21
-6.9821199221
 31
0.0
  0
LINE
  5
5A
330
1F
100
AcDbEntity
  8
SK1
  6
Continuous
100
AcDbLine
 10
7.66
 20
19.1252379826
 30
0.0
 11
7.66
 21
20.5000000998
 31
0.0
  0
LINE
  5
5B
330
1F
100
AcDbEntity
  8
SK1
  6
Continuous
100
AcDbLine
 10
8.0064101615
 20
19.1252379826
 30
0.0
 11
8.0064101615
 21
20.5000000998
 31
0.0
  0
LINE
  5
5C
330
1F
100
AcDbEntity
  8
SK1
  6
Continuous
100
AcDbLine
 10
7.66
 20
19.1252379826
 30
0.0
 11
8.0064101615
 21
19.1252379826
 31
0.0
  0
LINE
  5
5D
330
1F
100
AcDbEntity
  8
SK1
  6
Continuous
100
AcDbLine
 10
7.66
 20
18.7425545502
 30
0.0
 11
8.0064101615
 21
18.7425545502
 31
0.0
  0
LINE
  5
5E
330
1F
100
AcDbEntity
  8
SK1
  6
Continuous
100
AcDbLine
 10
3.0473721046
 20
19.0586570642
 30
0.0
 11
3.0473721046
 21
20.4279549475
 31
0.0
  0
LINE
  5
5F
330
1F
100
AcDbEntity
  8
SK1
  6
Continuous
100
AcDbLine
 10
3.56
 20
18.6468311538
 30
0.0
 11
3.56
 21
19.9823343165
 31
0.0
  0
LINE
  5
60
330
1F
100
AcDbEntity
  8
SK1
  6
Continuous
100
AcDbLine
 10
14.66
 20
15.4414882692
 30
0.0
 11
14.66
 21
16.5142106481
 31
0.0
  0
LINE
  5
61
330
1F
100
AcDbEntity
  8
SK1
  6
Continuous
100
AcDbLine
 10
14.535
 20
15.6416046118
 30
0.0
 11
14.535
 21
16.7307169991
 31
0.0
  0
LINE
  5
62
330
1F
100
AcDbEntity
  8
SK1
  6
Continuous
100
AcDbLine
 10
3.76
 20
16.9071797532
 30
0.0
 11
3.76
 21
18.1000000998
 31
0.0
  0
LINE
  5
63
330
1F
100
AcDbEntity
  8
SK1
  6
Continuous
100
AcDbLine
 10
7.46
 20
18.1000000998
 30
0.0
 11
7.46
 21
16.9071797532
 31
0.0
  0
ARC
  5
64
330
1F
100
AcDbEntity
  8
SK1
  6
Continuous
100
AcDbCircle
 10
3.1211460862
 20
18.242840688
 30
0.0
 40
0.4393708540059048
100
AcDbArc
 50
2.7796156218
 51
99.6662212348
  0
SPLINE
  5
65
330
1F
100
AcDbEntity
  8
SK1
  6
Continuous
100
AcDbSpline
210
0.0
220
0.0
230
1.0
 70
     8
 71
     3
 72
    11
 73
     7
 74
     0
 42
0.0000000003436124
 43
0.0000000001
 12
1.0
 22
0.0
 32
0.0
 13
1.0
 23
0.0
 33
0.0
 40
0.0
 40
0.0
 40
0.0
 40
0.0
 40
0.9513679857892094
 40
0.9513679857892094
 40
0.9513679857892094
 40
1.0
 40
1.0
 40
1.0
 40
1.0
 10
3.047372104567979
 20
18.67597363181592
 30
0.0
 10
-6.104837087369919
 20
17.48726903572106
 30
0.0
 10
-15.25703678338567
 20
16.29850202891892
 30
0.0
 10
-24.40921832114451
 20
15.10961570994558
 30
0.0
 10
-24.87705939766276
 20
15.0488422371914
 30
0.0
 10
-25.34490042498192
 20
14.98806844116132
 30
0.0
 10
-25.81274140129954
 20
14.92729431001737
 30
0.0
  0
ARC
  5
66
330
1F
100
AcDbEntity
  8
SK1
  6
Continuous
100
AcDbCircle
 10
7.4673017035
 20
16.7172172004
 30
0.0
 40
0.1928591514236474
100
AcDbArc
 50
267.8302465761
 51
357.6597358478
  0
LINE
  5
67
330
1F
100
AcDbEntity
  8
SK1
  6
Continuous
100
AcDbLine
 10
7.46
 20
16.5244963208
 30
0.0
 11
3.76
 21
16.5244963208
 31
0.0
  0
ARC
  5
68
330
1F
100
AcDbEntity
  8
SK1
  6
Continuous
100
AcDbCircle
 10
3.7526993084
 20
16.7172182953
 30
0.0
 40
0.1928602072114079
100
AcDbArc
 50
182.3405768779
 51
272.1694406987
  0
SPLINE
  5
69
330
1F
100
AcDbEntity
  8
SK1
  6
Continuous
100
AcDbSpline
210
0.0
220
0.0
230
1.0
 70
     8
 71
     3
 72
     8
 73
     4
 74
     0
 42
0.0000000013513737
 43
0.0000000001
 12
1.0
 22
0.0
 32
0.0
 13
1.0
 23
0.0
 33
0.0
 40
0.0
 40
0.0
 40
0.0
 40
0.0
 40
1.0
 40
1.0
 40
1.0
 40
1.0
 10
8.006410161513774
 20
19.1252379825951
 30
0.0
 10
10.18264327889132
 20
17.96408524770271
 30
0.0
 10
12.35884813568555
 20
16.80288727865878
 30
0.0
 10
14.535
 20
15.64160461175698
 30
0.0
  0
ARC
  5
6A
330
1F
100
AcDbEntity
  8
SK1
  6
Continuous
100
AcDbCircle
 10
14.4315472016
 20
15.4378862419
 30
0.0
 40
0.2284811933219803
100
AcDbArc
 50
0.9033107129
 51
63.0775089603
  0
LINE
  5
6B
330
1F
100
AcDbEntity
  8
SK1
  6
Continuous
100
AcDbLine
 10
14.66
 20
15.4414882692
 30
0.0
 11
14.66
 21
15.0588048368
 31
0.0
  0
ARC
  5
6C
330
1F
100
AcDbEntity
  8
SK3
100
AcDbCircle
 10
14.27422601
 20
7.0277975109
 30
0.0
 40
0.3860800972641125
100
AcDbArc
 50
267.8883270782
 51
357.7182691874
  0
SPLINE
  5
6D
330
1F
100
AcDbEntity
  8
SK1
  6
Continuous
100
AcDbSpline
210
0.0
220
0.0
230
1.0
 70
     8
 71
     3
 72
     8
 73
     4
 74
     0
 42
0.0000000013513737
 43
0.0000000001
 12
1.0
 22
0.0
 32
0.0
 13
1.0
 23
0.0
 33
0.0
 40
0.0
 40
0.0
 40
0.0
 40
0.0
 40
1.0
 40
1.0
 40
1.0
 40
1.0
 10
8.006410161513767
 20
18.74255455023
 30
0.0
 10
10.18264327889132
 20
17.58140181533762
 30
0.0
 10
12.35884813568555
 20
16.4202038462937
 30
0.0
 10
14.535
 20
15.25892117939189
 30
0.0
  0
ARC
  5
6E
330
1F
100
AcDbEntity
  8
SK1
  6
Continuous
100
AcDbCircle
 10
14.4315472016
 20
15.0552028096
 30
0.0
 40
0.2284811933219664
100
AcDbArc
 50
0.9033107129
 51
63.0775089603
  0
ARC
  5
6F
330
1F
100
AcDbEntity
  8
SK3
100
AcDbCircle
 10
14.27422601
 20
6.6451140785
 30
0.0
 40
0.3860800972641121
100
AcDbArc
 50
267.8883270782
 51
357.7182691874
  0
ARC
  5
70
330
1F
100
AcDbEntity
  8
SK1
  6
Continuous
100
AcDbCircle
 10
3.1211460862
 20
18.6255241204
 30
0.0
 40
0.4393708540059025
100
AcDbArc
 50
2.7796156218
 51
99.6662212348
  0
SPLINE
  5
71
330
1F
100
AcDbEntity
  8
SK1
  6
Continuous
100
AcDbSpline
210
0.0
220
0.0
230
1.0
 70
     8
 71
     3
 72
    11
 73
     7
 74
     0
 42
0.0000000003436124
 43
0.0000000001
 12
1.0
 22
0.0
 32
0.0
 13
1.0
 23
0.0
 33
0.0
 40
0.0
 40
0.0
 40
0.0
 40
0.0
 40
0.9513679857892094
 40
0.9513679857892094
 40
0.9513679857892094
 40
1.0
 40
1.0
 40
1.0
 40
1.0
 10
3.047372104567979
 20
19.05865706418101
 30
0.0
 10
-6.104837087369919
 20
17.86995246808615
 30
0.0
 10
-15.25703678338567
 20
16.68118546128401
 30
0.0
 10
-24.40921832114451
 20
15.49229914231067
 30
0.0
 10
-24.87705939766276
 20
15.43152566955649
 30
0.0
 10
-25.34490042498192
 20
15.37075187352641
 30
0.0
 10
-25.81274140129954
 20
15.30997774238247
 30
0.0
  0
LINE
  5
72
330
1F
100
AcDbEntity
  8
SK1
  6
Continuous
100
AcDbLine
 10
7.66
 20
19.1252379826
 30
0.0
 11
7.66
 21
18.7425545502
 31
0.0
  0
ARC
  5
73
330
1F
100
AcDbEntity
  8
SK1
  6
Continuous
100
AcDbCircle
 10
7.4673017035
 20
17.0999006328
 30
0.0
 40
0.1928591514236475
100
AcDbArc
 50
267.8302465761
 51
357.6597358478
  0
LINE
  5
74
330
1F
100
AcDbEntity
  8
SK1
  6
Continuous
100
AcDbLine
 10
7.46
 20
16.9071797532
 30
0.0
 11
3.76
 21
16.9071797532
 31
0.0
  0
ARC
  5
75
330
1F
100
AcDbEntity
  8
SK1
  6
Continuous
100
AcDbCircle
 10
3.7526993084
 20
17.0999017276
 30
0.0
 40
0.1928602072114046
100
AcDbArc
 50
182.3405768779
 51
272.1694406987
  0
LINE
  5
76
330
1F
100
AcDbEntity
  8
SK1
  6
Continuous
100
AcDbLine
 10
3.56
 20
18.2641477214
 30
0.0
 11
3.56
 21
18.6468311538
 31
0.0
  0
LINE
  5
77
330
1F
100
AcDbEntity
  8
SK3
100
AcDbLine
 10
-27.3043054596
 20
6.2592961653
 30
0.0
 11
14.26
 21
6.2592961653
 31
0.0
  0
SPLINE
  5
78
330
1F
100
AcDbEntity
  8
SK3
100
AcDbSpline
210
0.0
220
0.0
230
1.0
 70
     8
 71
     3
 72
    35
 73
    31
 74
     0
 42
0.0000000087187545
 43
0.0000000001
 12
1.0
 22
0.0
 32
0.0
 13
1.0
 23
0.0
 33
0.0
 40
0.0
 40
0.0
 40
0.0
 40
0.0
 40
0.1075668705826533
 40
0.1075668705826533
 40
0.1075668705826533
 40
0.2151564556517758
 40
0.2151564556517758
 40
0.2151564556517758
 40
0.3224441037122476
 40
0.3224441037122476
 40
0.3224441037122476
 40
0.4296724017395827
 40
0.4296724017395827
 40
0.4296724017395827
 40
0.5000033384442593
 40
0.5000033384442593
 40
0.5000033384442593
 40
0.607313301491971
 40
0.607313301491971
 40
0.607313301491971
 40
0.714625276314206
 40
0.714625276314206
 40
0.714625276314206
 40
0.8219019922209301
 40
0.8219019922209301
 40
0.8219019922209301
 40
0.9291192722851668
 40
0.9291192722851668
 40
0.9291192722851668
 40
1.0
 40
1.0
 40
1.0
 40
1.0
 10
-27.30430545956159
 20
6.64197959770957
 30
0.0
 10
-27.36037934994864
 20
6.64197959770957
 30
0.0
 10
-27.4172292845848
 20
6.638952266098449
 30
0.0
 10
-27.47014966258125
 20
6.633028286126477
 30
0.0
 10
-27.52307707737562
 20
6.627103518445658
 30
0.0
 10
-27.5735316143967
 20
6.618107253957937
 30
0.0
 10
-27.61730654115004
 20
6.606519732287137
 30
0.0
 10
-27.66096177044616
 20
6.594963895349638
 30
0.0
 10
-27.69918038737869
 20
6.580498130984605
 30
0.0
 10
-27.72880720252291
 20
6.564018785532133
 30
0.0
 10
-27.75841843956735
 20
6.547548105097706
 30
0.0
 10
-27.780265752858
 20
6.528599255663248
 30
0.0
 10
-27.79255921307322
 20
6.508527220355141
 30
0.0
 10
-27.80068794594996
 20
6.495255105714043
 30
0.0
 10
-27.80482709047448
 20
6.481301380564694
 30
0.0
 10
-27.80482709047448
 20
6.467156827349712
 30
0.0
 10
-27.80482709047448
 20
6.445749431967143
 30
0.0
 10
-27.79519648527506
 20
6.423393302817006
 30
0.0
 10
-27.776723590034
 20
6.402039522676649
 30
0.0
 10
-27.75825050427483
 20
6.380685522306494
 30
0.0
 10
-27.73042350715618
 20
6.359753795242978
 30
0.0
 10
-27.69553029194016
 20
6.341235955646514
 30
0.0
 10
-27.66064857313089
 20
6.3227242171965
 30
0.0
 10
-27.61774100236268
 20
6.306128728705122
 30
0.0
 10
-27.57035729830555
 20
6.2931226809253
 30
0.0
 10
-27.52299791896514
 20
6.280123309880318
 30
0.0
 10
-27.46986478657423
 20
6.270364924281613
 30
0.0
 10
-27.41535552925396
 20
6.26484971043041
 30
0.0
 10
-27.37903036729567
 20
6.261174352404479
 30
0.0
 10
-27.34155319087624
 20
6.259296165344479
 30
0.0
 10
-27.30430545956159
 20
6.259296165344479
 30
0.0
  0
SPLINE
  5
79
330
1F
100
AcDbEntity
  8
SK1
  6
Continuous
100
AcDbSpline
210
0.0
220
0.0
230
1.0
 70
     8
 71
     3
 72
    35
 73
    31
 74
     0
 42
0.0000000083171521
 43
0.0000000001
 12
1.0
 22
0.0
 32
0.0
 13
1.0
 23
0.0
 33
0.0
 40
0.0
 40
0.0
 40
0.0
 40
0.0
 40
0.1164887905971204
 40
0.1164887905971204
 40
0.1164887905971204
 40
0.2332526504150891
 40
0.2332526504150891
 40
0.2332526504150891
 40
0.3454710350269932
 40
0.3454710350269932
 40
0.3454710350269932
 40
0.4508768133906574
 40
0.4508768133906574
 40
0.4508768133906574
 40
0.500311089716375
 40
0.500311089716375
 40
0.500311089716375
 40
0.6001097649478875
 40
0.6001097649478875
 40
0.6001097649478875
 40
0.6997704681629959
 40
0.6997704681629959
 40
0.6997704681629959
 40
0.8015590486597682
 40
0.8015590486597682
 40
0.8015590486597682
 40
0.9086472129647586
 40
0.9086472129647586
 40
0.9086472129647586
 40
1.0
 40
1.0
 40
1.0
 40
1.0
 10
-25.81274140129954
 20
14.92729431001737
 30
0.0
 10
-25.874704665765
 20
14.91924507159801
 30
0.0
 10
-25.93758349267899
 20
14.91541516571527
 30
0.0
 10
-25.99619050698249
 20
14.91620873444551
 30
0.0
 10
-26.05487585395339
 20
14.91700336383984
 30
0.0
 10
-26.11095949093108
 20
14.92248082278337
 30
0.0
 10
-26.15907542479721
 20
14.93227450032752
 30
0.0
 10
-26.2053154271502
 20
14.94168634451921
 30
0.0
 10
-26.24554710917586
 20
14.95538188263408
 30
0.0
 10
-26.27552176486478
 20
14.9721391410225
 30
0.0
 10
-26.30370407255977
 20
14.98789439162248
 30
0.0
 10
-26.32362977833177
 20
15.00682044760608
 30
0.0
 10
-26.33317334679433
 20
15.02718631570369
 30
0.0
 10
-26.33770471692932
 20
15.03685620876654
 30
0.0
 10
-26.34000000000004
 20
15.04694409704404
 30
0.0
 10
-26.34000000000004
 20
15.05723077641062
 30
0.0
 10
-26.34000000000004
 20
15.0777710074884
 30
0.0
 10
-26.33063565675617
 20
15.099551549949
 30
0.0
 10
-26.31283927784441
 20
15.12077040294358
 30
0.0
 10
-26.29505661800273
 20
15.14197289851329
 30
0.0
 10
-26.26840930163867
 20
15.16318844182848
 30
0.0
 10
-26.23533638667474
 20
15.18285962884381
 30
0.0
 10
-26.20154570662197
 20
15.20295772988566
 30
0.0
 10
-26.1602076935489
 20
15.22197326132722
 30
0.0
 10
-26.11474564606763
 20
15.23868683590101
 30
0.0
 10
-26.06693286140899
 20
15.25626463070451
 30
0.0
 10
-26.0133553252096
 20
15.27175747614572
 30
0.0
 10
-25.95817983860028
 20
15.28423780331006
 30
0.0
 10
-25.91093138061138
 20
15.2949250894574
 30
0.0
 10
-25.86161120142702
 20
15.30362938943292
 30
0.0
 10
-25.81274140129954
 20
15.30997774238247
 30
0.0
  0
LINE
  5
7A
330
1F
100
AcDbEntity
  8
SK3
100
AcDbLine
 10
-27.3043054596
 20
6.6419795977
 30
0.0
 11
14.26
 21
6.6419795977
 31
0.0
  0
ELLIPSE
  5
7B
330
1F
100
AcDbEntity
  8
SK1
  6
Continuous
100
AcDbEllipse
 10
46.8677917145
 20
0.1913418168
 30
0.0
 11
-74.4999999945645
 21
-5.454936841201827E-9
 31
0.0
210
0.0
220
0.0
230
1.0
 40
0.9238795325
 41
-0.2214607662552011
 42
-0.2157122812832357
  0
LINE
  5
7C
330
1F
100
AcDbEntity
  8
SK1
  6
Continuous
100
AcDbLine
 10
7.66
 20
8.3046164468
 30
0.0
 11
7.66
 21
18.7425545502
 31
0.0
  0
LINE
  5
7D
330
1F
100
AcDbEntity
  8
SK1
  6
Continuous
100
AcDbLine
 10
8.0064101615
 20
8.3046164468
 30
0.0
 11
8.0064101615
 21
18.7425545502
 31
0.0
  0
LINE
  5
7E
330
1F
100
AcDbEntity
  8
SK1
  6
Continuous
100
AcDbLine
 10
7.66
 20
8.3046164468
 30
0.0
 11
8.0064101615
 21
8.3046164468
 31
0.0
  0
LINE
  5
7F
330
1F
100
AcDbEntity
  8
SK1
  6
Continuous
100
AcDbLine
 10
7.66
 20
7.3807369143
 30
0.0
 11
8.0064101615
 21
7.3807369143
 31
0.0
  0
LINE
  5
80
330
1F
100
AcDbEntity
  8
SK1
  6
Continuous
100
AcDbLine
 10
3.0473721046
 20
8.2770377274
 30
0.0
 11
3.0473721046
 21
18.6759736318
 31
0.0
  0
LINE
  5
81
330
1F
100
AcDbEntity
  8
SK1
  6
Continuous
100
AcDbLine
 10
3.56
 20
8.10645385
 30
0.0
 11
3.56
 21
18.2641477214
 31
0.0
  0
LINE
  5
82
330
1F
100
AcDbEntity
  8
SK1
  6
Continuous
100
AcDbLine
 10
14.66
 20
6.7787573551
 30
0.0
 11
14.66
 21
15.0588048368
 31
0.0
  0
LINE
  5
83
330
1F
100
AcDbEntity
  8
SK1
  6
Continuous
100
AcDbLine
 10
14.535
 20
6.8616482583
 30
0.0
 11
14.535
 21
15.2589211794
 31
0.0
  0
LINE
  5
84
330
1F
100
AcDbEntity
  8
SK1
  6
Continuous
100
AcDbLine
 10
3.76
 20
7.3858666461
 30
0.0
 11
3.76
 21
16.5244963208
 31
0.0
  0
LINE
  5
85
330
1F
100
AcDbEntity
  8
SK1
  6
Continuous
100
AcDbLine
 10
7.46
 20
7.3858666461
 30
0.0
 11
7.46
 21
16.5244963208
 31
0.0
  0
SPLINE
  5
86
330
1F
100
AcDbEntity
  8
SK1
  6
Continuous
100
AcDbSpline
210
0.0
220
0.0
230
1.0
 70
     8
 71
     3
 72
    10
 73
     6
 74
     0
 42
0.000000016919822
 43
0.0000000001
 12
1.0
 22
0.0
 32
0.0
 13
1.0
 23
0.0
 33
0.0
 40
0.0
 40
0.0
 40
0.0
 40
0.0
 40
0.5
 40
0.5
 40
1.0
 40
1.0
 40
1.0
 40
1.0
 10
3.56
 20
7.182574317478057
 30
0.0
 10
3.560000000000009
 20
7.231945744774185
 30
0.0
 10
3.501773789589537
 20
7.28041717403983
 30
0.0
 10
3.309062237878732
 20
7.344617390451636
 30
0.0
 10
3.175621612071943
 20
7.360057860208785
 30
0.0
 10
3.047372104567979
 20
7.353158194899696
 30
0.0
  0
LINE
  5
87
330
1F
100
AcDbEntity
  8
SK1
  6
Continuous
100
AcDbLine
 10
3.0473721046
 20
7.3531581949
 30
0.0
 11
-25.8127414013
 21
5.8004043788
 31
0.0
  0
SPLINE
  5
88
330
1F
100
AcDbEntity
  8
SK1
  6
Continuous
100
AcDbSpline
210
0.0
220
0.0
230
1.0
 70
     8
 71
     3
 72
    10
 73
     6
 74
     0
 42
0.0000000427823838
 43
0.0000000001
 12
1.0
 22
0.0
 32
0.0
 13
1.0
 23
0.0
 33
0.0
 40
0.0
 40
0.0
 40
0.0
 40
0.0
 40
0.5
 40
0.5
 40
1.0
 40
1.0
 40
1.0
 40
1.0
 10
7.66
 20
6.538552699903787
 30
0.0
 10
7.660000000000007
 20
6.518591907801321
 30
0.0
 10
7.638792955294782
 20
6.498733299953471
 30
0.0
 10
7.56418483839082
 20
6.470143878811419
 30
0.0
 10
7.512831584001744
 20
6.461987113556974
 30
0.0
 10
7.460000000000002
 20
6.461987113557281
 30
0.0
  0
LINE
  5
89
330
1F
100
AcDbEntity
  8
SK1
  6
Continuous
100
AcDbLine
 10
7.46
 20
6.4619871136
 30
0.0
 11
3.76
 21
6.4619871136
 31
0.0
  0
SPLINE
  5
8A
330
1F
100
AcDbEntity
  8
SK1
  6
Continuous
100
AcDbSpline
210
0.0
220
0.0
230
1.0
 70
     8
 71
     3
 72
    10
 73
     6
 74
     0
 42
0.0000000427888254
 43
0.0000000001
 12
1.0
 22
0.0
 32
0.0
 13
1.0
 23
0.0
 33
0.0
 40
0.0
 40
0.0
 40
0.0
 40
0.0
 40
0.5
 40
0.5
 40
1.0
 40
1.0
 40
1.0
 40
1.0
 10
3.760000000000006
 20
6.461987113557281
 30
0.0
 10
3.707128639963461
 20
6.461987113557284
 30
0.0
 10
3.655412587740155
 20
6.47029911812976
 30
0.0
 10
3.58161936845218
 20
6.49857432466423
 30
0.0
 10
3.559999999999891
 20
6.518574551887397
 30
0.0
 10
3.559999999997621
 20
6.538552699903891
 30
0.0
  0
LINE
  5
8B
330
1F
100
AcDbEntity
  8
SK1
  6
Continuous
100
AcDbLine
 10
8.0064101615
 20
8.3046164468
 30
0.0
 11
14.535
 21
6.8616482583
 31
0.0
  0
SPLINE
  5
8C
330
1F
100
AcDbEntity
  8
SK1
  6
Continuous
100
AcDbSpline
210
0.0
220
0.0
230
1.0
 70
     8
 71
     3
 72
     8
 73
     4
 74
     0
 42
0.0000000587477699
 43
0.0000000001
 12
1.0
 22
0.0
 32
0.0
 13
1.0
 23
0.0
 33
0.0
 40
0.0
 40
0.0
 40
0.0
 40
0.0
 40
1.0
 40
1.0
 40
1.0
 40
1.0
 10
14.535
 20
6.861648258276703
 30
0.0
 10
14.61128728370612
 20
6.84478563217034
 30
0.0
 10
14.66
 20
6.812292450296159
 30
0.0
 10
14.66
 20
6.778757355135451
 30
0.0
  0
LINE
  5
8D
330
1F
100
AcDbEntity
  8
SK1
  6
Continuous
100
AcDbLine
 10
14.66
 20
6.7787573551
 30
0.0
 11
14.66
 21
5.8548778226
 31
0.0
  0
SPLINE
  5
8E
330
1F
100
AcDbEntity
  8
SK3
100
AcDbSpline
210
0.0
220
0.0
230
1.0
 70
     8
 71
     3
 72
    10
 73
     6
 74
     0
 42
0.0000000213833959
 43
0.0000000001
 12
1.0
 22
0.0
 32
0.0
 13
1.0
 23
0.0
 33
0.0
 40
0.0
 40
0.0
 40
0.0
 40
0.0
 40
0.5
 40
0.5
 40
1.0
 40
1.0
 40
1.0
 40
1.0
 10
14.66
 20
3.287325623539934
 30
0.0
 10
14.66000000000001
 20
3.247360379908931
 30
0.0
 10
14.61767694589082
 20
3.207593410506881
 30
0.0
 10
14.46856112292039
 20
3.150275987084521
 30
0.0
 10
14.36577863035743
 20
3.133881521185959
 30
0.0
 10
14.26
 20
3.133881521186108
 30
0.0
  0
LINE
  5
8F
330
1F
100
AcDbEntity
  8
SK1
  6
Continuous
100
AcDbLine
 10
8.0064101615
 20
7.3807369143
 30
0.0
 11
14.535
 21
5.9377687258
 31
0.0
  0
SPLINE
  5
90
330
1F
100
AcDbEntity
  8
SK1
  6
Continuous
100
AcDbSpline
210
0.0
220
0.0
230
1.0
 70
     8
 71
     3
 72
     8
 73
     4
 74
     0
 42
0.0000000587477699
 43
0.0000000001
 12
1.0
 22
0.0
 32
0.0
 13
1.0
 23
0.0
 33
0.0
 40
0.0
 40
0.0
 40
0.0
 40
0.0
 40
1.0
 40
1.0
 40
1.0
 40
1.0
 10
14.535
 20
5.937768725765417
 30
0.0
 10
14.61128728370612
 20
5.920906099659053
 30
0.0
 10
14.66
 20
5.888412917784872
 30
0.0
 10
14.66
 20
5.854877822624166
 30
0.0
  0
SPLINE
  5
91
330
1F
100
AcDbEntity
  8
SK3
100
AcDbSpline
210
0.0
220
0.0
230
1.0
 70
     8
 71
     3
 72
    10
 73
     6
 74
     0
 42
0.0000000213833959
 43
0.0000000001
 12
1.0
 22
0.0
 32
0.0
 13
1.0
 23
0.0
 33
0.0
 40
0.0
 40
0.0
 40
0.0
 40
0.0
 40
0.5
 40
0.5
 40
1.0
 40
1.0
 40
1.0
 40
1.0
 10
14.66
 20
2.363446091028647
 30
0.0
 10
14.66000000000001
 20
2.323480847397644
 30
0.0
 10
14.61767694589082
 20
2.283713877995595
 30
0.0
 10
14.46856112292039
 20
2.226396454573232
 30
0.0
 10
14.36577863035743
 20
2.210001988674672
 30
0.0
 10
14.26
 20
2.21000198867482
 30
0.0
  0
SPLINE
  5
92
330
1F
100
AcDbEntity
  8
SK1
  6
Continuous
100
AcDbSpline
210
0.0
220
0.0
230
1.0
 70
     8
 71
     3
 72
    10
 73
     6
 74
     0
 42
0.000000016919822
 43
0.0000000001
 12
1.0
 22
0.0
 32
0.0
 13
1.0
 23
0.0
 33
0.0
 40
0.0
 40
0.0
 40
0.0
 40
0.0
 40
0.5
 40
0.5
 40
1.0
 40
1.0
 40
1.0
 40
1.0
 10
3.56
 20
8.106453849989341
 30
0.0
 10
3.560000000000008
 20
8.155825277285471
 30
0.0
 10
3.501773789589531
 20
8.20429670655112
 30
0.0
 10
3.30906223787873
 20
8.26849692296292
 30
0.0
 10
3.175621612071942
 20
8.283937392720071
 30
0.0
 10
3.047372104567979
 20
8.27703772741098
 30
0.0
  0
LINE
  5
93
330
1F
100
AcDbEntity
  8
SK1
  6
Continuous
100
AcDbLine
 10
3.0473721046
 20
8.2770377274
 30
0.0
 11
-25.8127414013
 21
6.7242839113
 31
0.0
  0
LINE
  5
94
330
1F
100
AcDbEntity
  8
SK1
  6
Continuous
100
AcDbLine
 10
7.66
 20
8.3046164468
 30
0.0
 11
7.66
 21
7.4624322324
 31
0.0
  0
SPLINE
  5
95
330
1F
100
AcDbEntity
  8
SK1
  6
Continuous
100
AcDbSpline
210
0.0
220
0.0
230
1.0
 70
     8
 71
     3
 72
    10
 73
     6
 74
     0
 42
0.0000000427823838
 43
0.0000000001
 12
1.0
 22
0.0
 32
0.0
 13
1.0
 23
0.0
 33
0.0
 40
0.0
 40
0.0
 40
0.0
 40
0.0
 40
0.5
 40
0.5
 40
1.0
 40
1.0
 40
1.0
 40
1.0
 10
7.66
 20
7.462432232415073
 30
0.0
 10
7.660000000000007
 20
7.442471440312603
 30
0.0
 10
7.638792955294782
 20
7.422612832464759
 30
0.0
 10
7.56418483839082
 20
7.394023411322703
 30
0.0
 10
7.512831584001744
 20
7.385866646068262
 30
0.0
 10
7.460000000000002
 20
7.385866646068568
 30
0.0
  0
LINE
  5
96
330
1F
100
AcDbEntity
  8
SK1
  6
Continuous
100
AcDbLine
 10
7.46
 20
7.3858666461
 30
0.0
 11
3.76
 21
7.3858666461
 31
0.0
  0
SPLINE
  5
97
330
1F
100
AcDbEntity
  8
SK1
  6
Continuous
100
AcDbSpline
210
0.0
220
0.0
230
1.0
 70
     8
 71
     3
 72
    10
 73
     6
 74
     0
 42
0.0000000427888254
 43
0.0000000001
 12
1.0
 22
0.0
 32
0.0
 13
1.0
 23
0.0
 33
0.0
 40
0.0
 40
0.0
 40
0.0
 40
0.0
 40
0.5
 40
0.5
 40
1.0
 40
1.0
 40
1.0
 40
1.0
 10
3.760000000000006
 20
7.385866646068567
 30
0.0
 10
3.707128639963461
 20
7.385866646068569
 30
0.0
 10
3.655412587740149
 20
7.394178650641046
 30
0.0
 10
3.581619368452178
 20
7.422453857175517
 30
0.0
 10
3.559999999999891
 20
7.442454084398684
 30
0.0
 10
3.559999999997621
 20
7.462432232415176
 30
0.0
  0
LINE
  5
98
330
1F
100
AcDbEntity
  8
SK1
  6
Continuous
100
AcDbLine
 10
3.56
 20
7.4624322324
 30
0.0
 11
3.56
 21
8.10645385
 31
0.0
  0
LINE
  5
99
330
1F
100
AcDbEntity
  8
SK3
100
AcDbLine
 10
-27.3043054596
 20
2.2100019887
 30
0.0
 11
14.26
 21
2.2100019887
 31
0.0
  0
SPLINE
  5
9A
330
1F
100
AcDbEntity
  8
SK3
100
AcDbSpline
210
0.0
220
0.0
230
1.0
 70
     8
 71
     3
 72
    35
 73
    31
 74
     0
 42
0.0000000065817704
 43
0.0000000001
 12
1.0
 22
0.0
 32
0.0
 13
1.0
 23
0.0
 33
0.0
 40
0.0
 40
0.0
 40
0.0
 40
0.0
 40
0.107566870582663
 40
0.107566870582663
 40
0.107566870582663
 40
0.2151564556517979
 40
0.2151564556517979
 40
0.2151564556517979
 40
0.3224441037122603
 40
0.3224441037122603
 40
0.3224441037122603
 40
0.4296724017396017
 40
0.4296724017396017
 40
0.4296724017396017
 40
0.5000033384442593
 40
0.5000033384442593
 40
0.5000033384442593
 40
0.6073133014919708
 40
0.6073133014919708
 40
0.6073133014919708
 40
0.7146252763142048
 40
0.7146252763142048
 40
0.7146252763142048
 40
0.8219019922209267
 40
0.8219019922209267
 40
0.8219019922209267
 40
0.9291192722851707
 40
0.9291192722851707
 40
0.9291192722851707
 40
1.0
 40
1.0
 40
1.0
 40
1.0
 10
-27.30430545956159
 20
3.133881521186108
 30
0.0
 10
-27.36037934994864
 20
3.133881521186108
 30
0.0
 10
-27.41722928458481
 20
3.125267224201391
 30
0.0
 10
-27.47014966258126
 20
3.108656155271147
 30
0.0
 10
-27.52307707737563
 20
3.092042877574835
 30
0.0
 10
-27.57353161439671
 20
3.066964523888574
 30
0.0
 10
-27.61730654115006
 20
3.035376437647613
 30
0.0
 10
-27.66096177044617
 20
3.003874725362754
 30
0.0
 10
-27.6991803873787
 20
2.965024857851414
 30
0.0
 10
-27.72880720252291
 20
2.921918870249108
 30
0.0
 10
-27.75841843956735
 20
2.878835548241216
 30
0.0
 10
-27.780265752858
 20
2.830308413290785
 30
0.0
 10
-27.79255921307322
 20
2.78026400412511
 30
0.0
 10
-27.80068794594996
 20
2.747173431824034
 30
0.0
 10
-27.80482709047448
 20
2.712932098531636
 30
0.0
 10
-27.80482709047448
 20
2.678784126326328
 30
0.0
 10
-27.80482709047448
 20
2.627102102058646
 30
0.0
 10
-27.79519648527506
 20
2.574436643232101
 30
0.0
 10
-27.776723590034
 20
2.52518993880685
 30
0.0
 10
-27.75825050427483
 20
2.47594272648128
 30
0.0
 10
-27.73042350715618
 20
2.428759514686703
 30
0.0
 10
-27.69553029194016
 20
2.38765715893817
 30
0.0
 10
-27.66064857313089
 20
2.346568345346673
 30
0.0
 10
-27.61774100236269
 20
2.31042963619635
 30
0.0
 10
-27.57035729830556
 20
2.282352580806147
 30
0.0
 10
-27.52299791896515
 20
2.254289938945493
 30
0.0
 10
-27.46986478657423
 20
2.233513312217084
 30
0.0
 10
-27.41535552925395
 20
2.221789648945192
 30
0.0
 10
-27.37903036729567
 20
2.213976958256826
 30
0.0
 10
-27.34155319087624
 20
2.210001988674821
 30
0.0
 10
-27.30430545956159
 20
2.21000198867482
 30
0.0
  0
SPLINE
  5
9B
330
1F
100
AcDbEntity
  8
SK1
  6
Continuous
100
AcDbSpline
210
0.0
220
0.0
230
1.0
 70
     8
 71
     3
 72
    35
 73
    31
 74
     0
 42
0.0000000063954328
 43
0.0000000001
 12
1.0
 22
0.0
 32
0.0
 13
1.0
 23
0.0
 33
0.0
 40
0.0
 40
0.0
 40
0.0
 40
0.0
 40
0.1164887905964489
 40
0.1164887905964489
 40
0.1164887905964489
 40
0.2332526504136868
 40
0.2332526504136868
 40
0.2332526504136868
 40
0.3454710350257188
 40
0.3454710350257188
 40
0.3454710350257188
 40
0.4508768133895231
 40
0.4508768133895231
 40
0.4508768133895231
 40
0.5003110897158469
 40
0.5003110897158469
 40
0.5003110897158469
 40
0.6001097649474653
 40
0.6001097649474653
 40
0.6001097649474653
 40
0.699770468162676
 40
0.699770468162676
 40
0.699770468162676
 40
0.801559048659551
 40
0.801559048659551
 40
0.801559048659551
 40
0.9086472129646559
 40
0.9086472129646559
 40
0.9086472129646559
 40
1.0
 40
1.0
 40
1.0
 40
1.0
 10
-25.81274140130113
 20
5.800404378823076
 30
0.0
 10
-25.87470466576561
 20
5.797070275101397
 30
0.0
 10
-25.93758349267973
 20
5.803547901698606
 30
0.0
 10
-25.99619050698284
 20
5.819600016791044
 30
0.0
 10
-26.05487585395332
 20
5.835673586738452
 30
0.0
 10
-26.1109594909306
 20
5.861870510550432
 30
0.0
 10
-26.15907542479647
 20
5.896316285342601
 30
0.0
 10
-26.20531542714954
 20
5.929419097227824
 30
0.0
 10
-26.24554710917529
 20
5.971175152949239
 30
0.0
 10
-26.27552176486432
 20
6.017998525356729
 30
0.0
 10
-26.30370407255941
 20
6.062022073189957
 30
0.0
 10
-26.32362977833152
 20
6.111830976366178
 30
0.0
 10
-26.33317334679418
 20
6.162968672990623
 30
0.0
 10
-26.33770471692928
 20
6.187249300532467
 30
0.0
 10
-26.34000000000005
 20
6.212075016976299
 30
0.0
 10
-26.34000000000005
 20
6.23690925781516
 30
0.0
 10
-26.34000000000005
 20
6.286497762257395
 30
0.0
 10
-26.33063565675616
 20
6.337166096133768
 30
0.0
 10
-26.3128392778444
 20
6.384681397014592
 30
0.0
 10
-26.29505661800272
 20
6.432160068772966
 30
0.0
 10
-26.26840930163867
 20
6.47777547635426
 30
0.0
 10
-26.23533638667474
 20
6.518102027958007
 30
0.0
 10
-26.20154570662196
 20
6.559303766733083
 30
0.0
 10
-26.16020769354891
 20
6.596071466575337
 30
0.0
 10
-26.11474564606764
 20
6.626008081533717
 30
0.0
 10
-26.06693286140899
 20
6.657492649513276
 30
0.0
 10
-26.0133553252096
 20
6.682250914101821
 30
0.0
 10
-25.95817983860028
 20
6.69885879688853
 30
0.0
 10
-25.91093138061137
 20
6.713080635251075
 30
0.0
 10
-25.86161120142701
 20
6.721654337444015
 30
0.0
 10
-25.81274140129934
 20
6.724283911334457
 30
0.0
  0
LINE
  5
9C
330
1F
100
AcDbEntity
  8
SK3
100
AcDbLine
 10
-30.9099764046
 20
0.5000000998
 30
0.0
 11
-30.94
 21
0.5000000998
 31
0.0
  0
LINE
  5
9D
330
1F
100
AcDbEntity
  8
SK3
100
AcDbLine
 10
-30.9099764046
 20
-0.4999999002
 30
0.0
 11
-30.94
 21
-0.4999999002
 31
0.0
  0
LINE
  5
9E
330
1F
100
AcDbEntity
  8
SK3
100
AcDbLine
 10
-27.3043054596
 20
3.1338815212
 30
0.0
 11
14.26
 21
3.1338815212
 31
0.0
  0
ELLIPSE
  5
9F
330
1F
100
AcDbEntity
  8
SK1
  6
Continuous
100
AcDbEllipse
 10
46.8677917169
 20
0.4619398662
 30
0.0
 11
-74.49999999695549
 21
-2.130961837061599E-10
 31
0.0
210
0.0
220
0.0
230
1.0
 40
0.3826834324
 41
-0.2214607661850971
 42
-0.1940123734289969
  0
LINE
  5
A0
330
1F
100
AcDbEntity
  8
SK1
  6
Continuous
100
AcDbLine
 10
7.66
 20
-7.3807367148
 30
0.0
 11
7.66
 21
7.3807369143
 31
0.0
  0
LINE
  5
A1
330
1F
100
AcDbEntity
  8
SK1
  6
Continuous
100
AcDbLine
 10
8.0064101615
 20
-7.3807367148
 30
0.0
 11
8.0064101615
 21
7.3807369143
 31
0.0
  0
LINE
  5
A2
330
1F
100
AcDbEntity
  8
SK1
  6
Continuous
100
AcDbLine
 10
7.66
 20
-7.3807367148
 30
0.0
 11
8.0064101615
 21
-7.3807367148
 31
0.0
  0
LINE
  5
A3
330
1F
100
AcDbEntity
  8
SK1
  6
Continuous
100
AcDbLine
 10
7.66
 20
-8.3046162473
 30
0.0
 11
8.0064101615
 21
-8.3046162473
 31
0.0
  0
LINE
  5
A4
330
1F
100
AcDbEntity
  8
SK1
  6
Continuous
100
AcDbLine
 10
3.0473721046
 20
-7.3531579954
 30
0.0
 11
3.0473721046
 21
7.3531581949
 31
0.0
  0
LINE
  5
A5
330
1F
100
AcDbEntity
  8
SK1
  6
Continuous
100
AcDbLine
 10
3.56
 20
-7.1825741179
 30
0.0
 11
3.56
 21
7.1825743175
 31
0.0
  0
LINE
  5
A6
330
1F
100
AcDbEntity
  8
SK1
  6
Continuous
100
AcDbLine
 10
14.66
 20
-5.8548776231
 30
0.0
 11
14.66
 21
5.8548778226
 31
0.0
  0
LINE
  5
A7
330
1F
100
AcDbEntity
  8
SK1
  6
Continuous
100
AcDbLine
 10
14.535
 20
-5.9377685262
 30
0.0
 11
14.535
 21
5.9377687258
 31
0.0
  0
LINE
  5
A8
330
1F
100
AcDbEntity
  8
SK1
  6
Continuous
100
AcDbLine
 10
3.76
 20
-6.461986914
 30
0.0
 11
3.76
 21
6.4619871136
 31
0.0
  0
LINE
  5
A9
330
1F
100
AcDbEntity
  8
SK1
  6
Continuous
100
AcDbLine
 10
7.46
 20
-6.461986914
 30
0.0
 11
7.46
 21
6.4619871136
 31
0.0
  0
SPLINE
  5
AA
330
1F
100
AcDbEntity
  8
SK1
  6
Continuous
100
AcDbSpline
210
0.0
220
0.0
230
1.0
 70
     8
 71
     3
 72
    10
 73
     6
 74
     0
 42
0.0000000169237583
 43
0.0000000001
 12
1.0
 22
0.0
 32
0.0
 13
1.0
 23
0.0
 33
0.0
 40
0.0
 40
0.0
 40
0.0
 40
0.0
 40
0.5
 40
0.5
 40
1.0
 40
1.0
 40
1.0
 40
1.0
 10
3.56
 20
-8.106453650447946
 30
0.0
 10
3.560000000000018
 20
-8.155310986784482
 30
0.0
 10
3.502289004086752
 20
-8.204134845094003
 30
0.0
 10
3.308443087672431
 20
-8.268693005284357
 30
0.0
 10
3.175118315310504
 20
-8.28391011643372
 30
0.0
 10
3.047372104567979
 20
-8.277037527869584
 30
0.0
  0
LINE
  5
AB
330
1F
100
AcDbEntity
  8
SK1
  6
Continuous
100
AcDbLine
 10
3.0473721046
 20
-8.2770375279
 30
0.0
 11
-25.8127414013
 21
-6.7242837118
 31
0.0
  0
LINE
  5
AC
330
1F
100
AcDbEntity
  8
SK1
  6
Continuous
100
AcDbLine
 10
7.66
 20
-8.3046162473
 30
0.0
 11
7.66
 21
-7.4624320329
 31
0.0
  0
SPLINE
  5
AD
330
1F
100
AcDbEntity
  8
SK1
  6
Continuous
100
AcDbSpline
210
0.0
220
0.0
230
1.0
 70
     8
 71
     3
 72
    10
 73
     6
 74
     0
 42
0.0000000427810229
 43
0.0000000001
 12
1.0
 22
0.0
 32
0.0
 13
1.0
 23
0.0
 33
0.0
 40
0.0
 40
0.0
 40
0.0
 40
0.0
 40
0.5
 40
0.5
 40
1.0
 40
1.0
 40
1.0
 40
1.0
 10
7.66
 20
-7.462432032873676
 30
0.0
 10
7.66
 20
-7.442295782642757
 30
0.0
 10
7.638224420328108
 20
-7.422367737799719
 30
0.0
 10
7.564482002037066
 20
-7.394164218625721
 30
0.0
 10
7.512701076458382
 20
-7.385866446527173
 30
0.0
 10
7.460000000000002
 20
-7.385866446527173
 30
0.0
  0
LINE
  5
AE
330
1F
100
AcDbEntity
  8
SK1
  6
Continuous
100
AcDbLine
 10
7.46
 20
-7.3858664465
 30
0.0
 11
3.76
 21
-7.3858664465
 31
0.0
  0
SPLINE
  5
AF
330
1F
100
AcDbEntity
  8
SK1
  6
Continuous
100
AcDbSpline
210
0.0
220
0.0
230
1.0
 70
     8
 71
     3
 72
    10
 73
     6
 74
     0
 42
0.0000000427886918
 43
0.0000000001
 12
1.0
 22
0.0
 32
0.0
 13
1.0
 23
0.0
 33
0.0
 40
0.0
 40
0.0
 40
0.0
 40
0.0
 40
0.5
 40
0.5
 40
1.0
 40
1.0
 40
1.0
 40
1.0
 10
3.760000000000006
 20
-7.385866446527173
 30
0.0
 10
3.707599211485184
 20
-7.385866446527173
 30
0.0
 10
3.655544646672343
 20
-7.394163540848603
 30
0.0
 10
3.581844433505401
 20
-7.422331902005157
 30
0.0
 10
3.56
 20
-7.442402829025461
 30
0.0
 10
3.559999999999987
 20
-7.462432032873676
 30
0.0
  0
LINE
  5
B0
330
1F
100
AcDbEntity
  8
SK1
  6
Continuous
100
AcDbLine
 10
3.56
 20
-7.4624320329
 30
0.0
 11
3.56
 21
-8.1064536504
 31
0.0
  0
SPLINE
  5
B1
330
1F
100
AcDbEntity
  8
SK1
  6
Continuous
100
AcDbSpline
210
0.0
220
0.0
230
1.0
 70
     8
 71
     3
 72
     8
 73
     4
 74
     0
 42
0.0000000014956283
 43
0.0000000001
 12
1.0
 22
0.0
 32
0.0
 13
1.0
 23
0.0
 33
0.0
 40
0.0
 40
0.0
 40
0.0
 40
0.0
 40
1.0
 40
1.0
 40
1.0
 40
1.0
 10
8.006410161513774
 20
-7.380736714760671
 30
0.0
 10
10.18264327889132
 20
-6.899771503981633
 30
0.0
 10
12.35884813568555
 20
-6.418787556603545
 30
0.0
 10
14.535
 20
-5.937768526224022
 30
0.0
  0
SPLINE
  5
B2
330
1F
100
AcDbEntity
  8
SK1
  6
Continuous
100
AcDbSpline
210
0.0
220
0.0
230
1.0
 70
     8
 71
     3
 72
    10
 73
     6
 74
     0
 42
0.0000000616222016
 43
0.0000000001
 12
1.0
 22
0.0
 32
0.0
 13
1.0
 23
0.0
 33
0.0
 40
0.0
 40
0.0
 40
0.0
 40
0.0
 40
0.4999999999999999
 40
0.4999999999999999
 40
1.0
 40
1.0
 40
1.0
 40
1.0
 10
14.535
 20
-5.937768526224022
 30
0.0
 10
14.57258157670125
 20
-5.929461452677637
 30
0.0
 10
14.60492138213643
 20
-5.917068020852098
 30
0.0
 10
14.64823926950537
 20
-5.888303457624966
 30
0.0
 10
14.66
 20
-5.871643617437047
 30
0.0
 10
14.66
 20
-5.85487762308277
 30
0.0
  0
SPLINE
  5
B3
330
1F
100
AcDbEntity
  8
SK3
100
AcDbSpline
210
0.0
220
0.0
230
1.0
 70
     8
 71
     3
 72
    10
 73
     6
 74
     0
 42
0.0000000213882611
 43
0.0000000001
 12
1.0
 22
0.0
 32
0.0
 13
1.0
 23
0.0
 33
0.0
 40
0.0
 40
0.0
 40
0.0
 40
0.0
 40
0.5
 40
0.5
 40
1.0
 40
1.0
 40
1.0
 40
1.0
 10
14.66
 20
-2.363445891487255
 30
0.0
 10
14.66000000000001
 20
-2.323462292316492
 30
0.0
 10
14.6164321636395
 20
-2.283153509663072
 30
0.0
 10
14.46898714347639
 20
-2.226642161903251
 30
0.0
 10
14.36454409040975
 20
-2.210001789133412
 30
0.0
 10
14.25999999999992
 20
-2.210001789133102
 30
0.0
  0
SPLINE
  5
B4
330
1F
100
AcDbEntity
  8
SK1
  6
Continuous
100
AcDbSpline
210
0.0
220
0.0
230
1.0
 70
     8
 71
     3
 72
     8
 73
     4
 74
     0
 42
0.0000000014956283
 43
0.0000000001
 12
1.0
 22
0.0
 32
0.0
 13
1.0
 23
0.0
 33
0.0
 40
0.0
 40
0.0
 40
0.0
 40
0.0
 40
1.0
 40
1.0
 40
1.0
 40
1.0
 10
8.006410161513767
 20
-8.304616247271957
 30
0.0
 10
10.18264327889132
 20
-7.823651036492922
 30
0.0
 10
12.35884813568555
 20
-7.342667089114832
 30
0.0
 10
14.535
 20
-6.861648058735309
 30
0.0
  0
SPLINE
  5
B5
330
1F
100
AcDbEntity
  8
SK1
  6
Continuous
100
AcDbSpline
210
0.0
220
0.0
230
1.0
 70
     8
 71
     3
 72
    10
 73
     6
 74
     0
 42
0.0000000616222016
 43
0.0000000001
 12
1.0
 22
0.0
 32
0.0
 13
1.0
 23
0.0
 33
0.0
 40
0.0
 40
0.0
 40
0.0
 40
0.0
 40
0.5000000000000001
 40
0.5000000000000001
 40
1.0
 40
1.0
 40
1.0
 40
1.0
 10
14.535
 20
-6.861648058735309
 30
0.0
 10
14.57258157670125
 20
-6.853340985188924
 30
0.0
 10
14.60492138213643
 20
-6.840947553363383
 30
0.0
 10
14.64823926950537
 20
-6.812182990136255
 30
0.0
 10
14.66
 20
-6.795523149948335
 30
0.0
 10
14.66
 20
-6.778757155594057
 30
0.0
  0
LINE
  5
B6
330
1F
100
AcDbEntity
  8
SK1
  6
Continuous
100
AcDbLine
 10
14.66
 20
-6.7787571556
 30
0.0
 11
14.66
 21
-5.8548776231
 31
0.0
  0
SPLINE
  5
B7
330
1F
100
AcDbEntity
  8
SK3
100
AcDbSpline
210
0.0
220
0.0
230
1.0
 70
     8
 71
     3
 72
    10
 73
     6
 74
     0
 42
0.0000000213882611
 43
0.0000000001
 12
1.0
 22
0.0
 32
0.0
 13
1.0
 23
0.0
 33
0.0
 40
0.0
 40
0.0
 40
0.0
 40
0.0
 40
0.5
 40
0.5
 40
1.0
 40
1.0
 40
1.0
 40
1.0
 10
14.66
 20
-3.287325423998541
 30
0.0
 10
14.66000000000001
 20
-3.247341824827779
 30
0.0
 10
14.6164321636395
 20
-3.207033042174359
 30
0.0
 10
14.46898714347639
 20
-3.150521694414538
 30
0.0
 10
14.36454409040975
 20
-3.133881321644698
 30
0.0
 10
14.25999999999992
 20
-3.133881321644389
 30
0.0
  0
SPLINE
  5
B8
330
1F
100
AcDbEntity
  8
SK1
  6
Continuous
100
AcDbSpline
210
0.0
220
0.0
230
1.0
 70
     8
 71
     3
 72
    10
 73
     6
 74
     0
 42
0.0000000169237583
 43
0.0000000001
 12
1.0
 22
0.0
 32
0.0
 13
1.0
 23
0.0
 33
0.0
 40
0.0
 40
0.0
 40
0.0
 40
0.0
 40
0.5
 40
0.5
 40
1.0
 40
1.0
 40
1.0
 40
1.0
 10
3.56
 20
-7.182574117936659
 30
0.0
 10
3.560000000000018
 20
-7.231431454273196
 30
0.0
 10
3.502289004086752
 20
-7.280255312582717
 30
0.0
 10
3.308443087672431
 20
-7.344813472773071
 30
0.0
 10
3.175118315310504
 20
-7.360030583922435
 30
0.0
 10
3.047372104567979
 20
-7.353157995358297
 30
0.0
  0
LINE
  5
B9
330
1F
100
AcDbEntity
  8
SK1
  6
Continuous
100
AcDbLine
 10
3.0473721046
 20
-7.3531579954
 30
0.0
 11
-25.8127414013
 21
-5.8004041793
 31
0.0
  0
SPLINE
  5
BA
330
1F
100
AcDbEntity
  8
SK1
  6
Continuous
100
AcDbSpline
210
0.0
220
0.0
230
1.0
 70
     8
 71
     3
 72
    10
 73
     6
 74
     0
 42
0.0000000427810229
 43
0.0000000001
 12
1.0
 22
0.0
 32
0.0
 13
1.0
 23
0.0
 33
0.0
 40
0.0
 40
0.0
 40
0.0
 40
0.0
 40
0.5
 40
0.5
 40
1.0
 40
1.0
 40
1.0
 40
1.0
 10
7.66
 20
-6.538552500362389
 30
0.0
 10
7.66
 20
-6.518416250131471
 30
0.0
 10
7.638224420328108
 20
-6.498488205288433
 30
0.0
 10
7.564482002037066
 20
-6.470284686114433
 30
0.0
 10
7.512701076458382
 20
-6.461986914015886
 30
0.0
 10
7.460000000000002
 20
-6.461986914015886
 30
0.0
  0
LINE
  5
BB
330
1F
100
AcDbEntity
  8
SK1
  6
Continuous
100
AcDbLine
 10
7.46
 20
-6.461986914
 30
0.0
 11
3.76
 21
-6.461986914
 31
0.0
  0
SPLINE
  5
BC
330
1F
100
AcDbEntity
  8
SK1
  6
Continuous
100
AcDbSpline
210
0.0
220
0.0
230
1.0
 70
     8
 71
     3
 72
    10
 73
     6
 74
     0
 42
0.0000000427886918
 43
0.0000000001
 12
1.0
 22
0.0
 32
0.0
 13
1.0
 23
0.0
 33
0.0
 40
0.0
 40
0.0
 40
0.0
 40
0.0
 40
0.5
 40
0.5
 40
1.0
 40
1.0
 40
1.0
 40
1.0
 10
3.760000000000006
 20
-6.461986914015886
 30
0.0
 10
3.707599211485184
 20
-6.461986914015885
 30
0.0
 10
3.655544646672343
 20
-6.470284008337318
 30
0.0
 10
3.581844433505401
 20
-6.49845236949387
 30
0.0
 10
3.56
 20
-6.518523296514175
 30
0.0
 10
3.559999999999987
 20
-6.53855250036239
 30
0.0
  0
LINE
  5
BD
330
1F
100
AcDbEntity
  8
SK3
100
AcDbLine
 10
-27.3043054596
 20
-3.1338813216
 30
0.0
 11
14.26
 21
-3.1338813216
 31
0.0
  0
ELLIPSE
  5
BE
330
1F
100
AcDbEntity
  8
SK1
  6
Continuous
100
AcDbEllipse
 10
46.8677917145
 20
-0.4619396668
 30
0.0
 11
-74.49999999456369
 21
3.793866042484092E-10
 31
0.0
210
0.0
220
0.0
230
1.0
 40
0.3826834324
 41
0.1939488183760686
 42
0.2214607661895153
  0
SPLINE
  5
BF
330
1F
100
AcDbEntity
  8
SK3
100
AcDbSpline
210
0.0
220
0.0
230
1.0
 70
     8
 71
     3
 72
    35
 73
    31
 74
     0
 42
0.0000000065816215
 43
0.0000000001
 12
1.0
 22
0.0
 32
0.0
 13
1.0
 23
0.0
 33
0.0
 40
0.0
 40
0.0
 40
0.0
 40
0.0
 40
0.1075668705826531
 40
0.1075668705826531
 40
0.1075668705826531
 40
0.2151564556517754
 40
0.2151564556517754
 40
0.2151564556517754
 40
0.322444103712247
 40
0.322444103712247
 40
0.322444103712247
 40
0.4296724017395821
 40
0.4296724017395821
 40
0.4296724017395821
 40
0.5000033384442585
 40
0.5000033384442585
 40
0.5000033384442585
 40
0.60731330149197
 40
0.60731330149197
 40
0.60731330149197
 40
0.7146252763142048
 40
0.7146252763142048
 40
0.7146252763142048
 40
0.8219019922209259
 40
0.8219019922209259
 40
0.8219019922209259
 40
0.9291192722851745
 40
0.9291192722851745
 40
0.9291192722851745
 40
1.0
 40
1.0
 40
1.0
 40
1.0
 10
-27.30430545956159
 20
-2.210001789133428
 30
0.0
 10
-27.36037934994864
 20
-2.210001789133428
 30
0.0
 10
-27.4172292845848
 20
-2.219156913148403
 30
0.0
 10
-27.47014966258125
 20
-2.236724532143092
 30
0.0
 10
-27.52307707737562
 20
-2.254294487095865
 30
0.0
 10
-27.5735316143967
 20
-2.280764370513217
 30
0.0
 10
-27.61730654115004
 20
-2.313849148813785
 30
0.0
 10
-27.66096177044616
 20
-2.346843460627508
 30
0.0
 10
-27.69918038737869
 20
-2.387319705793421
 30
0.0
 10
-27.72880720252291
 20
-2.431801432627623
 30
0.0
 10
-27.75841843956735
 20
-2.476259770488839
 30
0.0
 10
-27.780265752858
 20
-2.525938653444388
 30
0.0
 10
-27.79255921307322
 20
-2.576640100299324
 30
0.0
 10
-27.80068794594996
 20
-2.610165121793107
 30
0.0
 10
-27.80482709047448
 20
-2.644635954579619
 30
0.0
 10
-27.80482709047448
 20
-2.678783926784935
 30
0.0
 10
-27.80482709047448
 20
-2.730465951052617
 30
0.0
 10
-27.79519648527506
 20
-2.782590028043582
 30
0.0
 10
-27.776723590034
 20
-2.830881605203594
 30
0.0
 10
-27.75825050427483
 20
-2.879173680413329
 30
0.0
 10
-27.73042350715618
 20
-2.924969091386026
 30
0.0
 10
-27.69553029194016
 20
-2.964578760734621
 30
0.0
 10
-27.66064857313089
 20
-3.00417537972752
 30
0.0
 10
-27.61774100236269
 20
-3.038687743843185
 30
0.0
 10
-27.57035729830556
 20
-3.065388648587687
 30
0.0
 10
-27.52299791896514
 20
-3.092075846258062
 30
0.0
 10
-27.46986478657423
 20
-3.111700047959039
 30
0.0
 10
-27.41535552925395
 20
-3.122764597707639
 30
0.0
 10
-27.37903036729566
 20
-3.130138052811823
 30
0.0
 10
-27.34155319087623
 20
-3.133881321644715
 30
0.0
 10
-27.30430545956159
 20
-3.133881321644715
 30
0.0
  0
SPLINE
  5
C0
330
1F
100
AcDbEntity
  8
SK1
  6
Continuous
100
AcDbSpline
210
0.0
220
0.0
230
1.0
 70
     8
 71
     3
 72
    35
 73
    31
 74
     0
 42
0.0000000063957257
 43
0.0000000001
 12
1.0
 22
0.0
 32
0.0
 13
1.0
 23
0.0
 33
0.0
 40
0.0
 40
0.0
 40
0.0
 40
0.0
 40
0.1164887905971204
 40
0.1164887905971204
 40
0.1164887905971204
 40
0.2332526504150887
 40
0.2332526504150887
 40
0.2332526504150887
 40
0.3454710350269934
 40
0.3454710350269934
 40
0.3454710350269934
 40
0.450876813390654
 40
0.450876813390654
 40
0.450876813390654
 40
0.5003110897163748
 40
0.5003110897163748
 40
0.5003110897163748
 40
0.6001097649478874
 40
0.6001097649478874
 40
0.6001097649478874
 40
0.6997704681629958
 40
0.6997704681629958
 40
0.6997704681629958
 40
0.8015590486597682
 40
0.8015590486597682
 40
0.8015590486597682
 40
0.908647212964758
 40
0.908647212964758
 40
0.908647212964758
 40
1.0
 40
1.0
 40
1.0
 40
1.0
 10
-25.81274140129954
 20
-6.724283711793052
 30
0.0
 10
-25.874704665765
 20
-6.720949608072979
 30
0.0
 10
-25.93758349267899
 20
-6.707958954807089
 30
0.0
 10
-25.99619050698249
 20
-6.686051404668735
 30
0.0
 10
-26.05487585395339
 20
-6.664114573447578
 30
0.0
 10
-26.11095949093108
 20
-6.632543987443438
 30
0.0
 10
-26.15907542479721
 20
-6.593623983109582
 30
0.0
 10
-26.2053154271502
 20
-6.556221381780394
 30
0.0
 10
-26.24554710917586
 20
-6.510864939582724
 30
0.0
 10
-26.27552176486478
 20
-6.461403949676348
 30
0.0
 10
-26.30370407255977
 20
-6.414900501866741
 30
0.0
 10
-26.32362977833178
 20
-6.363386131451577
 30
0.0
 10
-26.33317334679434
 20
-6.311432375434363
 30
0.0
 10
-26.33770471692934
 20
-6.286764275724975
 30
0.0
 10
-26.34000000000004
 20
-6.261743299112375
 30
0.0
 10
-26.34000000000004
 20
-6.236909058273788
 30
0.0
 10
-26.34000000000004
 20
-6.187320553831556
 30
0.0
 10
-26.33063565675617
 20
-6.137445251341348
 30
0.0
 10
-26.31283927784441
 20
-6.09146732141003
 30
0.0
 10
-26.29505661800273
 20
-6.045524835455582
 30
0.0
 10
-26.26840930163867
 20
-6.002230450716136
 30
0.0
 10
-26.23533638667474
 20
-5.964871281529711
 30
0.0
 10
-26.20154570662197
 20
-5.926701324802493
 30
0.0
 10
-26.1602076935489
 20
-5.893719476469888
 30
0.0
 10
-26.11474564606763
 20
-5.868096284157991
 30
0.0
 10
-26.06693286140899
 20
-5.841148175919343
 30
0.0
 10
-26.0133553252096
 20
-5.821627547798597
 30
0.0
 10
-25.95817983860028
 20
-5.810620781883676
 30
0.0
 10
-25.91093138061138
 20
-5.801195351336825
 30
0.0
 10
-25.86161120142702
 20
-5.797774605391329
 30
0.0
 10
-25.81274140129954
 20
-5.800404179281766
 30
0.0
  0
SPLINE
  5
C1
330
1F
100
AcDbEntity
  8
SK3
100
AcDbSpline
210
0.0
220
0.0
230
1.0
 70
     8
 71
     3
 72
     8
 73
     4
 74
     0
 42
0.0000001102164132
 43
0.0000000001
 12
1.0
 22
0.0
 32
0.0
 13
1.0
 23
0.0
 33
0.0
 40
0.0
 40
0.0
 40
0.0
 40
0.0
 40
1.0
 40
1.0
 40
1.0
 40
1.0
 10
-2.339999999999999
 20
13.90936258831001
 30
0.0
 10
-2.339999999999999
 20
13.93958253350335
 30
0.0
 10
-2.345587778587703
 20
13.96946280411434
 30
0.0
 10
-2.356405730160289
 20
13.99756490192092
 30
0.0
  0
LINE
  5
C2
330
1F
100
AcDbEntity
  8
SK3
100
AcDbLine
 10
-27.3043054596
 20
-2.2100017891
 30
0.0
 11
14.26
 21
-2.2100017891
 31
0.0
  0
LINE
  5
C3
330
1F
100
AcDbEntity
  8
SK1
  6
Continuous
100
AcDbLine
 10
7.66
 20
-18.7425543507
 30
0.0
 11
7.66
 21
-8.3046162473
 31
0.0
  0
LINE
  5
C4
330
1F
100
AcDbEntity
  8
SK1
  6
Continuous
100
AcDbLine
 10
8.0064101615
 20
-18.7425543507
 30
0.0
 11
8.0064101615
 21
-8.3046162473
 31
0.0
  0
LINE
  5
C5
330
1F
100
AcDbEntity
  8
SK1
  6
Continuous
100
AcDbLine
 10
7.66
 20
-18.7425543507
 30
0.0
 11
8.0064101615
 21
-18.7425543507
 31
0.0
  0
LINE
  5
C6
330
1F
100
AcDbEntity
  8
SK1
  6
Continuous
100
AcDbLine
 10
7.66
 20
-19.1252377831
 30
0.0
 11
8.0064101615
 21
-19.1252377831
 31
0.0
  0
LINE
  5
C7
330
1F
100
AcDbEntity
  8
SK1
  6
Continuous
100
AcDbLine
 10
3.0473721046
 20
-18.6759734323
 30
0.0
 11
3.0473721046
 21
-8.2770375279
 31
0.0
  0
LINE
  5
C8
330
1F
100
AcDbEntity
  8
SK1
  6
Continuous
100
AcDbLine
 10
3.56
 20
-18.2641475219
 30
0.0
 11
3.56
 21
-8.1064536504
 31
0.0
  0
LINE
  5
C9
330
1F
100
AcDbEntity
  8
SK1
  6
Continuous
100
AcDbLine
 10
14.66
 20
-15.0588046373
 30
0.0
 11
14.66
 21
-6.7787571556
 31
0.0
  0
LINE
  5
CA
330
1F
100
AcDbEntity
  8
SK1
  6
Continuous
100
AcDbLine
 10
14.535
 20
-15.2589209799
 30
0.0
 11
14.535
 21
-6.8616480587
 31
0.0
  0
LINE
  5
CB
330
1F
100
AcDbEntity
  8
SK1
  6
Continuous
100
AcDbLine
 10
3.76
 20
-16.5244961213
 30
0.0
 11
3.76
 21
-7.3858664465
 31
0.0
  0
LINE
  5
CC
330
1F
100
AcDbEntity
  8
SK1
  6
Continuous
100
AcDbLine
 10
7.46
 20
-16.5244961213
 30
0.0
 11
7.46
 21
-7.3858664465
 31
0.0
  0
ARC
  5
CD
330
1F
100
AcDbEntity
  8
SK1
  6
Continuous
100
AcDbCircle
 10
3.121146594
 20
-18.6255245529
 30
0.0
 40
0.4393703161692289
100
AcDbArc
 50
260.3336996485
 51
357.2204634949
  0
LINE
  5
CE
330
1F
100
AcDbEntity
  8
SK1
  6
Continuous
100
AcDbLine
 10
3.0473721046
 20
-19.0586568646
 30
0.0
 11
-25.8127414013
 21
-15.3099775428
 31
0.0
  0
LINE
  5
CF
330
1F
100
AcDbEntity
  8
SK1
  6
Continuous
100
AcDbLine
 10
7.66
 20
-19.1252377831
 30
0.0
 11
7.66
 21
-18.7425543507
 31
0.0
  0
ARC
  5
D0
330
1F
100
AcDbEntity
  8
SK1
  6
Continuous
100
AcDbCircle
 10
7.4672947531
 20
-17.0999079534
 30
0.0
 40
0.1928664032215686
100
AcDbArc
 50
2.3424120384
 51
92.1676055382
  0
LINE
  5
D1
330
1F
100
AcDbEntity
  8
SK1
  6
Continuous
100
AcDbLine
 10
7.46
 20
-16.9071795537
 30
0.0
 11
3.76
 21
-16.9071795537
 31
0.0
  0
ARC
  5
D2
330
1F
100
AcDbEntity
  8
SK1
  6
Continuous
100
AcDbCircle
 10
3.7527056024
 20
-17.0999083381
 30
0.0
 40
0.1928667741999762
100
AcDbArc
 50
87.8325043334
 51
177.6574780893
  0
LINE
  5
D3
330
1F
100
AcDbEntity
  8
SK1
  6
Continuous
100
AcDbLine
 10
3.56
 20
-18.2641475219
 30
0.0
 11
3.56
 21
-18.6468309542
 31
0.0
  0
LINE
  5
D4
330
1F
100
AcDbEntity
  8
SK1
  6
Continuous
100
AcDbLine
 10
8.0064101615
 20
-18.7425543507
 30
0.0
 11
14.535
 21
-15.2589209799
 31
0.0
  0
ARC
  5
D5
330
1F
100
AcDbEntity
  8
SK1
  6
Continuous
100
AcDbCircle
 10
14.4286840492
 20
-15.0534141802
 30
0.0
 40
0.2313787503235727
100
AcDbArc
 50
297.3541274107
 51
358.6650529161
  0
ARC
  5
D6
330
1F
100
AcDbEntity
  8
SK3
100
AcDbCircle
 10
14.274232878
 20
-6.6451064631
 30
0.0
 40
0.3860729395052783
100
AcDbArc
 50
2.2806716923
 51
92.1127320421
  0
LINE
  5
D7
330
1F
100
AcDbEntity
  8
SK1
  6
Continuous
100
AcDbLine
 10
8.0064101615
 20
-19.1252377831
 30
0.0
 11
14.535
 21
-15.6416044122
 31
0.0
  0
ARC
  5
D8
330
1F
100
AcDbEntity
  8
SK1
  6
Continuous
100
AcDbCircle
 10
14.4286840492
 20
-15.4360976125
 30
0.0
 40
0.2313787503252981
100
AcDbArc
 50
297.354127411
 51
358.6650529158
  0
LINE
  5
D9
330
1F
100
AcDbEntity
  8
SK1
  6
Continuous
100
AcDbLine
 10
14.66
 20
-15.4414880697
 30
0.0
 11
14.66
 21
-15.0588046373
 31
0.0
  0
ARC
  5
DA
330
1F
100
AcDbEntity
  8
SK3
100
AcDbCircle
 10
14.274232878
 20
-7.0277898954
 30
0.0
 40
0.3860729395052798
100
AcDbArc
 50
2.2806716923
 51
92.1127320421
  0
ARC
  5
DB
330
1F
100
AcDbEntity
  8
SK1
  6
Continuous
100
AcDbCircle
 10
3.121146594
 20
-18.2428411206
 30
0.0
 40
0.4393703161692314
100
AcDbArc
 50
260.3336996485
 51
357.2204634949
  0
LINE
  5
DC
330
1F
100
AcDbEntity
  8
SK1
  6
Continuous
100
AcDbLine
 10
3.0473721046
 20
-18.6759734323
 30
0.0
 11
-25.8127414013
 21
-14.9272941105
 31
0.0
  0
ARC
  5
DD
330
1F
100
AcDbEntity
  8
SK1
  6
Continuous
100
AcDbCircle
 10
7.4672947531
 20
-16.717224521
 30
0.0
 40
0.1928664032215658
100
AcDbArc
 50
2.3424120384
 51
92.1676055382
  0
LINE
  5
DE
330
1F
100
AcDbEntity
  8
SK1
  6
Continuous
100
AcDbLine
 10
7.46
 20
-16.5244961213
 30
0.0
 11
3.76
 21
-16.5244961213
 31
0.0
  0
ARC
  5
DF
330
1F
100
AcDbEntity
  8
SK1
  6
Continuous
100
AcDbCircle
 10
3.7527056024
 20
-16.7172249057
 30
0.0
 40
0.1928667741999781
100
AcDbArc
 50
87.8325043334
 51
177.6574780893
  0
SPLINE
  5
E0
330
1F
100
AcDbEntity
  8
SK3
100
AcDbSpline
210
0.0
220
0.0
230
1.0
 70
     8
 71
     3
 72
    10
 73
     6
 74
     0
 42
0.0000000155009776
 43
0.0000000001
 12
1.0
 22
0.0
 32
0.0
 13
1.0
 23
0.0
 33
0.0
 40
0.0
 40
0.0
 40
0.0
 40
0.0
 40
0.5
 40
0.5
 40
1.0
 40
1.0
 40
1.0
 40
1.0
 10
-31.34000000000432
 20
7.383088884283101
 30
0.0
 10
-31.33999999999982
 20
7.278654669861917
 30
0.0
 10
-31.29767694589057
 20
7.174738570969951
 30
0.0
 10
-31.14856112292014
 20
7.024960925598648
 30
0.0
 10
-31.0457786303573
 20
6.982120121654792
 30
0.0
 10
-30.94
 20
6.982120121655178
 30
0.0
  0
SPLINE
  5
E1
330
1F
100
AcDbEntity
  8
SK1
  6
Continuous
100
AcDbSpline
210
0.0
220
0.0
230
1.0
 70
     8
 71
     3
 72
    10
 73
     6
 74
     0
 42
0.000000013683103
 43
0.0000000001
 12
1.0
 22
0.0
 32
0.0
 13
1.0
 23
0.0
 33
0.0
 40
0.0
 40
0.0
 40
0.0
 40
0.0
 40
0.5
 40
0.5
 40
1.0
 40
1.0
 40
1.0
 40
1.0
 10
-31.33999999999999
 20
15.15223423573843
 30
0.0
 10
-31.34
 20
15.27133733064511
 30
0.0
 10
-31.29542015981369
 20
15.39046836097179
 30
0.0
 10
-31.13972113835961
 20
15.56991143959673
 30
0.0
 10
-31.02878034044549
 20
15.63086909699539
 30
0.0
 10
-30.90958655048002
 20
15.64762924157215
 30
0.0
  0
SPLINE
  5
E2
330
1F
100
AcDbEntity
  8
SK1
  6
Continuous
100
AcDbSpline
210
0.0
220
0.0
230
1.0
 70
     8
 71
     3
 72
    11
 73
     7
 74
     0
 42
0.0000000003527553
 43
0.0000000001
 12
1.0
 22
0.0
 32
0.0
 13
1.0
 23
0.0
 33
0.0
 40
0.0
 40
0.0
 40
0.0
 40
0.0
 40
0.9695717939571271
 40
0.9695717939571271
 40
0.9695717939571271
 40
1.0
 40
1.0
 40
1.0
 40
1.0
 10
-30.90958655048002
 20
15.64762924157215
 30
0.0
 10
-21.83694658167206
 20
16.92335642191102
 30
0.0
 10
-12.76428551794339
 20
18.19893358224652
 30
0.0
 10
-3.691613755690052
 20
19.47443463543227
 30
0.0
 10
-3.406884839813256
 20
19.51446386183769
 30
0.0
 10
-3.122155912728294
 20
19.55449300851921
 30
0.0
 10
-2.83742697464004
 20
19.59452207693364
 30
0.0
  0
LINE
  5
E3
330
1F
100
AcDbEntity
  8
SK3
100
AcDbLine
 10
-27.3043054596
 20
-6.6419793982
 30
0.0
 11
14.26
 21
-6.6419793982
 31
0.0
  0
ELLIPSE
  5
E4
330
1F
100
AcDbEntity
  8
SK1
  6
Continuous
100
AcDbEllipse
 10
46.8677917197
 20
-0.1913416164
 30
0.0
 11
-74.49999999977155
 21
1.971750988971884E-10
 31
0.0
210
0.0
220
0.0
230
1.0
 40
0.9238795325
 41
0.2156883094138152
 42
0.221460766182245
  0
SPLINE
  5
E5
330
1F
100
AcDbEntity
  8
SK3
100
AcDbSpline
210
0.0
220
0.0
230
1.0
 70
     8
 71
     3
 72
    35
 73
    31
 74
     0
 42
0.0000000087179805
 43
0.0000000001
 12
1.0
 22
0.0
 32
0.0
 13
1.0
 23
0.0
 33
0.0
 40
0.0
 40
0.0
 40
0.0
 40
0.0
 40
0.107566870582663
 40
0.107566870582663
 40
0.107566870582663
 40
0.2151564556517942
 40
0.2151564556517942
 40
0.2151564556517942
 40
0.3224441037122606
 40
0.3224441037122606
 40
0.3224441037122606
 40
0.4296724017396024
 40
0.4296724017396024
 40
0.4296724017396024
 40
0.5000033384442591
 40
0.5000033384442591
 40
0.5000033384442591
 40
0.6073133014919707
 40
0.6073133014919707
 40
0.6073133014919707
 40
0.7146252763142047
 40
0.7146252763142047
 40
0.7146252763142047
 40
0.821901992220926
 40
0.821901992220926
 40
0.821901992220926
 40
0.9291192722851749
 40
0.9291192722851749
 40
0.9291192722851749
 40
1.0
 40
1.0
 40
1.0
 40
1.0
 10
-27.30430545956159
 20
-6.259295965803084
 30
0.0
 10
-27.36037934994864
 20
-6.259295965803084
 30
0.0
 10
-27.41722928458481
 20
-6.263628969365552
 30
0.0
 10
-27.47014966258126
 20
-6.271862265476206
 30
0.0
 10
-27.52307707737563
 20
-6.280096656364393
 30
0.0
 10
-27.57353161439672
 20
-6.292452370801406
 30
0.0
 10
-27.61730654115006
 20
-6.307653226741224
 30
0.0
 10
-27.66096177044619
 20
-6.3228125177045
 30
0.0
 10
-27.6991803873787
 20
-6.341204705060727
 30
0.0
 10
-27.72880720252291
 20
-6.361005378825122
 30
0.0
 10
-27.75841843956735
 20
-6.38079564118113
 30
0.0
 10
-27.78026575285801
 20
-6.402525056269983
 30
0.0
 10
-27.79255921307323
 20
-6.424183320878501
 30
0.0
 10
-27.80068794594997
 20
-6.43850428865277
 30
0.0
 10
-27.80482709047448
 20
-6.453012074593337
 30
0.0
 10
-27.80482709047448
 20
-6.467156627808315
 30
0.0
 10
-27.80482709047448
 20
-6.488564023190885
 30
0.0
 10
-27.79519648527506
 20
-6.50961314097114
 30
0.0
 10
-27.776723590034
 20
-6.528661039913966
 30
0.0
 10
-27.75825050427483
 20
-6.547709135305143
 30
0.0
 10
-27.73042350715619
 20
-6.565290414802605
 30
0.0
 10
-27.69553029194017
 20
-6.58020459064797
 30
0.0
 10
-27.6606485731309
 20
-6.595113852660352
 30
0.0
 10
-27.61774100236269
 20
-6.607782996911959
 30
0.0
 10
-27.57035729830556
 20
-6.617466723139064
 30
0.0
 10
-27.52299791896514
 20
-6.627145478165585
 30
0.0
 10
-27.46986478657423
 20
-6.634121663633443
 30
0.0
 10
-27.41535552925395
 20
-6.638045636677574
 30
0.0
 10
-27.37903036729566
 20
-6.640660586199092
 30
0.0
 10
-27.34155319087624
 20
-6.641979398168174
 30
0.0
 10
-27.30430545956159
 20
-6.641979398168174
 30
0.0
  0
SPLINE
  5
E6
330
1F
100
AcDbEntity
  8
SK1
  6
Continuous
100
AcDbSpline
210
0.0
220
0.0
230
1.0
 70
     8
 71
     3
 72
    35
 73
    31
 74
     0
 42
0.0000000083170356
 43
0.0000000001
 12
1.0
 22
0.0
 32
0.0
 13
1.0
 23
0.0
 33
0.0
 40
0.0
 40
0.0
 40
0.0
 40
0.0
 40
0.1164887905964445
 40
0.1164887905964445
 40
0.1164887905964445
 40
0.233252650413687
 40
0.233252650413687
 40
0.233252650413687
 40
0.3454710350257099
 40
0.3454710350257099
 40
0.3454710350257099
 40
0.4508768133895105
 40
0.4508768133895105
 40
0.4508768133895105
 40
0.5003110897158503
 40
0.5003110897158503
 40
0.5003110897158503
 40
0.6001097649474623
 40
0.6001097649474623
 40
0.6001097649474623
 40
0.6997704681626735
 40
0.6997704681626735
 40
0.6997704681626735
 40
0.8015590486595436
 40
0.8015590486595436
 40
0.8015590486595436
 40
0.9086472129646466
 40
0.9086472129646466
 40
0.9086472129646466
 40
1.0
 40
1.0
 40
1.0
 40
1.0
 10
-25.81274140130112
 20
-15.30997754284086
 30
0.0
 10
-25.8747046657656
 20
-15.30192830441764
 30
0.0
 10
-25.93758349267972
 20
-15.29003437298419
 30
0.0
 10
-25.99619050698283
 20
-15.27510453355275
 30
0.0
 10
-26.05487585395331
 20
-15.26015473927188
 30
0.0
 10
-26.1109594909306
 20
-15.24170411218511
 30
0.0
 10
-26.15907542479646
 20
-15.22110868900122
 30
0.0
 10
-26.20531542714953
 20
-15.20131623481877
 30
0.0
 10
-26.24554710917528
 20
-15.17892859484334
 30
0.0
 10
-26.27552176486431
 20
-15.1558035645169
 30
0.0
 10
-26.30370407255941
 20
-15.13406130576072
 30
0.0
 10
-26.3236297783315
 20
-15.11101788763871
 30
0.0
 10
-26.33317334679417
 20
-15.08868187788739
 30
0.0
 10
-26.33770471692928
 20
-15.07807654426186
 30
0.0
 10
-26.34000000000004
 20
-15.06751725623593
 30
0.0
 10
-26.34000000000004
 20
-15.05723057686923
 30
0.0
 10
-26.34000000000004
 20
-15.03669034579146
 30
0.0
 10
-26.33063565675617
 20
-15.01682435045873
 30
0.0
 10
-26.31283927784441
 20
-14.99931703926084
 30
0.0
 10
-26.29505661800273
 20
-14.9818232242933
 30
0.0
 10
-26.26840930163867
 20
-14.96621112580147
 30
0.0
 10
-26.23533638667474
 20
-14.95370383366278
 30
0.0
 10
-26.20154570662197
 20
-14.94092510195903
 30
0.0
 10
-26.16020769354892
 20
-14.93104942457717
 30
0.0
 10
-26.11474564606765
 20
-14.92474937345677
 30
0.0
 10
-26.06693286140901
 20
-14.91812356128493
 30
0.0
 10
-26.01335532520961
 20
-14.91527548883909
 30
0.0
 10
-25.95817983860029
 20
-14.91631745399105
 30
0.0
 10
-25.91093138061138
 20
-14.91720972064303
 30
0.0
 10
-25.86161120142701
 20
-14.92094575752643
 30
0.0
 10
-25.81274140129934
 20
-14.927294110476
 30
0.0
  0
LINE
  5
E7
330
1F
100
AcDbEntity
  8
SK3
100
AcDbLine
 10
-0.5423407826
 20
6.9821201217
 30
0.0
 11
-30.94
 21
6.9821201217
 31
0.0
  0
ARC
  5
E8
330
1F
100
AcDbEntity
  8
SK3
100
AcDbCircle
 10
-0.5419950676
 20
13.9870370004
 30
0.0
 40
7.004916887233802
100
AcDbArc
 50
269.9971722707
 51
274.0946063244
  0
SPLINE
  5
E9
330
1F
100
AcDbEntity
  8
SK1
  6
Continuous
100
AcDbSpline
210
0.0
220
0.0
230
1.0
 70
     8
 71
     3
 72
    20
 73
    16
 74
     0
 42
0.0000000198705735
 43
0.0000000001
 12
1.0
 22
0.0
 32
0.0
 13
1.0
 23
0.0
 33
0.0
 40
0.0
 40
0.0
 40
0.0
 40
0.0
 40
0.2133535526663004
 40
0.2133535526663004
 40
0.2133535526663004
 40
0.4266822720339624
 40
0.4266822720339624
 40
0.4266822720339624
 40
0.6404089198402529
 40
0.6404089198402529
 40
0.6404089198402529
 40
0.8551950616851703
 40
0.8551950616851703
 40
0.8551950616851703
 40
1.0
 40
1.0
 40
1.0
 40
1.0
 10
-2.340000000000002
 20
19.67080917502658
 30
0.0
 10
-2.340000000000002
 20
19.67080917502658
 30
0.0
 10
-2.349503685014239
 20
19.66922364541433
 30
0.0
 10
-2.367717853442721
 20
19.66622294118536
 30
0.0
 10
-2.385930848651685
 20
19.66322243023915
 30
0.0
 10
-2.413352596450879
 20
19.65872813619661
 30
0.0
 10
-2.447706302118148
 20
19.65321032163926
 30
0.0
 10
-2.482125522274309
 20
19.64768198429279
 30
0.0
 10
-2.524443596504326
 20
19.64098052832997
 30
0.0
 10
-2.571172119378629
 20
19.63377233543266
 30
0.0
 10
-2.61813151503024
 20
19.6265285288371
 30
0.0
 10
-2.670826602849053
 20
19.61858019122057
 30
0.0
 10
-2.724938837048142
 20
19.61066065808987
 30
0.0
 10
-2.761701213132909
 20
19.60528034327427
 30
0.0
 10
-2.79967556745991
 20
19.59982941826291
 30
0.0
 10
-2.83742697464004
 20
19.59452207693364
 30
0.0
  0
LINE
  5
EA
330
1F
100
AcDbEntity
  8
SK3
100
AcDbLine
 10
-27.3043054596
 20
-6.2592959658
 30
0.0
 11
14.26
 21
-6.2592959658
 31
0.0
  0
LINE
  5
EB
330
1F
100
AcDbEntity
  8
SK1
  6
Continuous
100
AcDbLine
 10
7.66
 20
-20.4999999002
 30
0.0
 11
7.66
 21
-19.1252377831
 31
0.0
  0
LINE
  5
EC
330
1F
100
AcDbEntity
  8
SK1
  6
Continuous
100
AcDbLine
 10
8.0064101615
 20
-20.4999999002
 30
0.0
 11
8.0064101615
 21
-19.1252377831
 31
0.0
  0
LINE
  5
ED
330
1F
100
AcDbEntity
  8
SK1
  6
Continuous
100
AcDbLine
 10
3.0473721046
 20
-20.4279547479
 30
0.0
 11
3.0473721046
 21
-19.0586568646
 31
0.0
  0
LINE
  5
EE
330
1F
100
AcDbEntity
  8
SK1
  6
Continuous
100
AcDbLine
 10
3.56
 20
-19.982334117
 30
0.0
 11
3.56
 21
-18.6468309542
 31
0.0
  0
LINE
  5
EF
330
1F
100
AcDbEntity
  8
SK1
  6
Continuous
100
AcDbLine
 10
14.66
 20
-16.5142104486
 30
0.0
 11
14.66
 21
-15.4414880697
 31
0.0
  0
LINE
  5
F0
330
1F
100
AcDbEntity
  8
SK1
  6
Continuous
100
AcDbLine
 10
14.535
 20
-16.7307167996
 30
0.0
 11
14.535
 21
-15.6416044122
 31
0.0
  0
LINE
  5
F1
330
1F
100
AcDbEntity
  8
SK1
  6
Continuous
100
AcDbLine
 10
3.76
 20
-18.0999999002
 30
0.0
 11
3.76
 21
-16.9071795537
 31
0.0
  0
LINE
  5
F2
330
1F
100
AcDbEntity
  8
SK1
  6
Continuous
100
AcDbLine
 10
7.46
 20
-18.0999999002
 30
0.0
 11
7.46
 21
-16.9071795537
 31
0.0
  0
LINE
  5
F3
330
1F
100
AcDbEntity
  8
SK1
  6
Continuous
100
AcDbLine
 10
-30.9095865505
 20
11.418098166
 30
0.0
 11
-30.9095865505
 21
15.6476292416
 31
0.0
  0
LINE
  5
F4
330
1F
100
AcDbEntity
  8
SK1
  6
Continuous
100
AcDbLine
 10
-31.34
 20
11.067800998
 30
0.0
 11
-31.34
 21
15.1522342357
 31
0.0
  0
SPLINE
  5
F5
330
1F
100
AcDbEntity
  8
SK1
  6
Continuous
100
AcDbSpline
210
0.0
220
0.0
230
1.0
 70
     8
 71
     3
 72
    10
 73
     6
 74
     0
 42
0.0000000161503712
 43
0.0000000001
 12
1.0
 22
0.0
 32
0.0
 13
1.0
 23
0.0
 33
0.0
 40
0.0
 40
0.0
 40
0.0
 40
0.0
 40
0.5
 40
0.5
 40
1.0
 40
1.0
 40
1.0
 40
1.0
 10
-31.33999999999999
 20
11.06780099803304
 30
0.0
 10
-31.34000000000001
 20
11.15201960410186
 30
0.0
 10
-31.29542015981369
 20
11.23625796349559
 30
0.0
 10
-31.13972113835963
 20
11.36314338122828
 30
0.0
 10
-31.0287803404455
 20
11.40624695414012
 30
0.0
 10
-30.90958655048002
 20
11.41809816602401
 30
0.0
  0
SPLINE
  5
F6
330
1F
100
AcDbEntity
  8
SK1
  6
Continuous
100
AcDbSpline
210
0.0
220
0.0
230
1.0
 70
     8
 71
     3
 72
    11
 73
     7
 74
     0
 42
0.0000000003544773
 43
0.0000000001
 12
1.0
 22
0.0
 32
0.0
 13
1.0
 23
0.0
 33
0.0
 40
0.0
 40
0.0
 40
0.0
 40
0.0
 40
0.969571793957103
 40
0.969571793957103
 40
0.969571793957103
 40
1.0
 40
1.0
 40
1.0
 40
1.0
 10
-30.90958655048002
 20
11.41809816602401
 30
0.0
 10
-21.83694658167206
 20
12.32017350618563
 30
0.0
 10
-12.76428551794339
 20
13.22214276618554
 30
0.0
 10
-3.691613755690052
 20
14.12405821030377
 30
0.0
 10
-3.406884839813023
 20
14.15236314774072
 30
0.0
 10
-3.122155912727829
 20
14.18066802880435
 30
0.0
 10
-2.837426974639342
 20
14.2089728545248
 30
0.0
  0
LINE
  5
F7
330
1F
100
AcDbEntity
  8
SK1
  6
Continuous
100
AcDbLine
 10
-31.34
 20
10.3606942168
 30
0.0
 11
-31.34
 21
11.067800998
 31
0.0
  0
SPLINE
  5
F8
330
1F
100
AcDbEntity
  8
SK3
100
AcDbSpline
210
0.0
220
0.0
230
1.0
 70
     8
 71
     3
 72
    10
 73
     6
 74
     0
 42
0.0000000180350851
 43
0.0000000001
 12
1.0
 22
0.0
 32
0.0
 13
1.0
 23
0.0
 33
0.0
 40
0.0
 40
0.0
 40
0.0
 40
0.0
 40
0.5
 40
0.5
 40
1.0
 40
1.0
 40
1.0
 40
1.0
 10
-31.34000000000432
 20
4.867078854808491
 30
0.0
 10
-31.33999999999982
 20
4.793232713603381
 30
0.0
 10
-31.29767694589057
 20
4.71975293540242
 30
0.0
 10
-31.14856112292014
 20
4.613844146690216
 30
0.0
 10
-31.0457786303573
 20
4.583551123710034
 30
0.0
 10
-30.94
 20
4.583551123710307
 30
0.0
  0
SPLINE
  5
F9
330
1F
100
AcDbEntity
  8
SK3
100
AcDbSpline
210
0.0
220
0.0
230
1.0
 70
     8
 71
     3
 72
    10
 73
     6
 74
     0
 42
0.0000000180350851
 43
0.0000000001
 12
1.0
 22
0.0
 32
0.0
 13
1.0
 23
0.0
 33
0.0
 40
0.0
 40
0.0
 40
0.0
 40
0.0
 40
0.5
 40
0.5
 40
1.0
 40
1.0
 40
1.0
 40
1.0
 10
-31.34000000000432
 20
5.574185635995037
 30
0.0
 10
-31.33999999999982
 20
5.50033949478993
 30
0.0
 10
-31.29767694589057
 20
5.426859716588966
 30
0.0
 10
-31.14856112292014
 20
5.320950927876764
 30
0.0
 10
-31.0457786303573
 20
5.29065790489658
 30
0.0
 10
-30.94
 20
5.290657904896854
 30
0.0
  0
SPLINE
  5
FA
330
1F
100
AcDbEntity
  8
SK1
  6
Continuous
100
AcDbSpline
210
0.0
220
0.0
230
1.0
 70
     8
 71
     3
 72
    10
 73
     6
 74
     0
 42
0.0000000161503712
 43
0.0000000001
 12
1.0
 22
0.0
 32
0.0
 13
1.0
 23
0.0
 33
0.0
 40
0.0
 40
0.0
 40
0.0
 40
0.0
 40
0.5
 40
0.5
 40
1.0
 40
1.0
 40
1.0
 40
1.0
 10
-31.33999999999999
 20
10.3606942168465
 30
0.0
 10
-31.34
 20
10.44491282291531
 30
0.0
 10
-31.29542015981369
 20
10.52915118230906
 30
0.0
 10
-31.13972113835961
 20
10.65603660004174
 30
0.0
 10
-31.02878034044549
 20
10.69914017295357
 30
0.0
 10
-30.90958655048002
 20
10.71099138483747
 30
0.0
  0
SPLINE
  5
FB
330
1F
100
AcDbEntity
  8
SK1
  6
Continuous
100
AcDbSpline
210
0.0
220
0.0
230
1.0
 70
     8
 71
     3
 72
    11
 73
     7
 74
     0
 42
0.0000000003544773
 43
0.0000000001
 12
1.0
 22
0.0
 32
0.0
 13
1.0
 23
0.0
 33
0.0
 40
0.0
 40
0.0
 40
0.0
 40
0.0
 40
0.9695717939571273
 40
0.9695717939571273
 40
0.9695717939571273
 40
1.0
 40
1.0
 40
1.0
 40
1.0
 10
-30.90958655048002
 20
10.71099138483747
 30
0.0
 10
-21.83694658167206
 20
11.61306672499907
 30
0.0
 10
-12.76428551794339
 20
12.515035984999
 30
0.0
 10
-3.691613755690052
 20
13.41695142911722
 30
0.0
 10
-3.40688483981326
 20
13.44525636655415
 30
0.0
 10
-3.122155912728297
 20
13.47356124761776
 30
0.0
 10
-2.837426974640046
 20
13.50186607333818
 30
0.0
  0
SPLINE
  5
FC
330
1F
100
AcDbEntity
  8
SK3
100
AcDbSpline
210
0.0
220
0.0
230
1.0
 70
     8
 71
     3
 72
     8
 73
     4
 74
     0
 42
0.0000005701324032
 43
0.0000000001
 12
1.0
 22
0.0
 32
0.0
 13
1.0
 23
0.0
 33
0.0
 40
0.0
 40
0.0
 40
0.0
 40
0.0
 40
1.0
 40
1.0
 40
1.0
 40
1.0
 10
-26.34000000000004
 20
-15.05723057686923
 30
0.0
 10
-26.34000000000004
 20
-15.06292327471082
 30
0.0
 10
-26.33928071179368
 20
-15.06871124259182
 30
0.0
 10
-26.33786198250739
 20
-15.07455611920356
 30
0.0
  0
LINE
  5
FD
330
1F
100
AcDbEntity
  8
SK3
100
AcDbLine
 10
-0.5423407826
 20
4.5835511237
 30
0.0
 11
-30.94
 21
4.5835511237
 31
0.0
  0
SPLINE
  5
FE
330
1F
100
AcDbEntity
  8
SK3
100
AcDbSpline
210
0.0
220
0.0
230
1.0
 70
     8
 71
     3
 72
    35
 73
    31
 74
     0
 42
0.0000000073647553
 43
0.0000000001
 12
1.0
 22
0.0
 32
0.0
 13
1.0
 23
0.0
 33
0.0
 40
0.0
 40
0.0
 40
0.0
 40
0.0
 40
0.1075668705826613
 40
0.1075668705826613
 40
0.1075668705826613
 40
0.2151564556517866
 40
0.2151564556517866
 40
0.2151564556517866
 40
0.3224441037122645
 40
0.3224441037122645
 40
0.3224441037122645
 40
0.4296724017396106
 40
0.4296724017396106
 40
0.4296724017396106
 40
0.5000033384442558
 40
0.5000033384442558
 40
0.5000033384442558
 40
0.6073133014919688
 40
0.6073133014919688
 40
0.6073133014919688
 40
0.7146252763142008
 40
0.7146252763142008
 40
0.7146252763142008
 40
0.8219019922209231
 40
0.8219019922209231
 40
0.8219019922209231
 40
0.9291192722851771
 40
0.9291192722851771
 40
0.9291192722851771
 40
1.0
 40
1.0
 40
1.0
 40
1.0
 10
-0.5423407826002438
 20
4.583551123710307
 30
0.0
 10
-0.4862668922131982
 20
4.583551123710309
 30
0.0
 10
-0.4294169575770335
 20
4.590850845753497
 30
0.0
 10
-0.3764965795805802
 20
4.604814200388715
 30
0.0
 10
-0.32356916478621
 20
4.618779411724667
 30
0.0
 10
-0.2731146277651277
 20
4.639791673869295
 30
0.0
 10
-0.2293397010117854
 20
4.665923670813278
 30
0.0
 10
-0.1856844717156615
 20
4.691984212844181
 30
0.0
 10
-0.147465854783136
 20
4.723843578946884
 30
0.0
 10
-0.1178390396389152
 20
4.758632963458882
 30
0.0
 10
-0.088227802594475
 20
4.793404055336299
 30
0.0
 10
-0.0663804893038279
 20
4.832049947756012
 30
0.0
 10
-0.0540870290886113
 20
4.871210741407741
 30
0.0
 10
-0.0459582962118732
 20
4.897104804207238
 30
0.0
 10
-0.041819151687366
 20
4.923611841652872
 30
0.0
 10
-0.041819151687366
 20
4.949747568076537
 30
0.0
 10
-0.041819151687366
 20
4.9893032769532
 30
0.0
 10
-0.0514497568868035
 20
5.028904324598622
 30
0.0
 10
-0.0699226521278535
 20
5.065348186451364
 30
0.0
 10
-0.0883957378870186
 20
5.101792424163755
 30
0.0
 10
-0.1162227350056614
 20
5.136091641886382
 30
0.0
 10
-0.1511159502216777
 20
5.165599734270326
 30
0.0
 10
-0.1859976690309472
 20
5.195098104505415
 30
0.0
 10
-0.2289052397991559
 20
5.220632552832797
 30
0.0
 10
-0.2762889438562826
 20
5.240323773219891
 30
0.0
 10
-0.3236483231966961
 20
5.260004884997553
 30
0.0
 10
-0.3767814555876124
 20
5.27440091079571
 30
0.0
 10
-0.4312907129078916
 20
5.282512640878089
 30
0.0
 10
-0.4676158748661771
 20
5.287918326508199
 30
0.0
 10
-0.5050930512856007
 20
5.290657904896855
 30
0.0
 10
-0.5423407826002438
 20
5.290657904896854
 30
0.0
  0
SPLINE
  5
FF
330
1F
100
AcDbEntity
  8
SK1
  6
Continuous
100
AcDbSpline
210
0.0
220
0.0
230
1.0
 70
     8
 71
     3
 72
    35
 73
    31
 74
     0
 42
0.0000000073735606
 43
0.0000000001
 12
1.0
 22
0.0
 32
0.0
 13
1.0
 23
0.0
 33
0.0
 40
0.0
 40
0.0
 40
0.0
 40
0.0
 40
0.1083835106360962
 40
0.1083835106360962
 40
0.1083835106360962
 40
0.2168004354265396
 40
0.2168004354265396
 40
0.2168004354265396
 40
0.3247144655137645
 40
0.3247144655137645
 40
0.3247144655137645
 40
0.4319468106744077
 40
0.4319468106744077
 40
0.4319468106744077
 40
0.5000278904991659
 40
0.5000278904991659
 40
0.5000278904991659
 40
0.6066987162952941
 40
0.6066987162952941
 40
0.6066987162952941
 40
0.7133571261347182
 40
0.7133571261347182
 40
0.7133571261347182
 40
0.8202144890950357
 40
0.8202144890950357
 40
0.8202144890950357
 40
0.9276015695248486
 40
0.9276015695248486
 40
0.9276015695248486
 40
1.0
 40
1.0
 40
1.0
 40
1.0
 10
-2.837426974639342
 20
14.2089728545248
 30
0.0
 10
-2.781353505827064
 20
14.21454710269277
 30
0.0
 10
-2.724540069271326
 20
14.21349366713976
 30
0.0
 10
-2.671679481394011
 20
14.20583703333038
 30
0.0
 10
-2.618809405157418
 20
14.19817902517206
 30
0.0
 10
-2.568431588171421
 20
14.18369545569062
 30
0.0
 10
-2.5247729363242
 20
14.1634845557703
 30
0.0
 10
-2.481316214494444
 20
14.14336713531398
 30
0.0
 10
-2.44331026397673
 20
14.117009407849
 30
0.0
 10
-2.413961301953666
 20
14.08651245564818
 30
0.0
 10
-2.384794825579833
 20
14.05620512705712
 30
0.0
 10
-2.363368357086497
 20
14.02096503555441
 30
0.0
 10
-2.35148349270849
 20
13.9836693233806
 30
0.0
 10
-2.343873044596535
 20
13.95978709189108
 30
0.0
 10
-2.340000000000005
 20
13.93472930131303
 30
0.0
 10
-2.340000000000005
 20
13.90936258831001
 30
0.0
 10
-2.340000000000005
 20
13.86995134872917
 30
0.0
 10
-2.349503685014232
 20
13.82887554966139
 30
0.0
 10
-2.367717853442714
 20
13.78956682873109
 30
0.0
 10
-2.385930848651678
 20
13.75026063977246
 30
0.0
 10
-2.413352596450882
 20
13.7116422814052
 30
0.0
 10
-2.447706302118151
 20
13.67695530813798
 30
0.0
 10
-2.482125522274312
 20
13.64220218482142
 30
0.0
 10
-2.52444359650433
 20
13.61044606533633
 30
0.0
 10
-2.571172119378632
 20
13.58434390365416
 30
0.0
 10
-2.618131515030243
 20
13.55811277837138
 30
0.0
 10
-2.670826602849056
 20
13.53687572619386
 30
0.0
 10
-2.724938837048149
 20
13.52238806011212
 30
0.0
 10
-2.76170121313277
 20
13.51254553490561
 30
0.0
 10
-2.799675567459612
 20
13.50561893038223
 30
0.0
 10
-2.837426974640046
 20
13.50186607333818
 30
0.0
  0
LINE
  5
100
330
1F
100
AcDbEntity
  8
SK3
100
AcDbLine
 10
-0.5423407826
 20
5.2906579049
 30
0.0
 11
-30.94
 21
5.2906579049
 31
0.0
  0
ELLIPSE
  5
101
330
1F
100
AcDbEntity
  8
SK1
  6
Continuous
100
AcDbEllipse
 10
-74.7144379615
 20
0.3535534904
 30
0.0
 11
74.49999999941801
 21
-1.560890290726147E-10
 31
0.0
210
0.0
220
0.0
230
1.0
 40
0.7071067812
 41
0.2536143686489288
 42
0.2661445757426636
  0
LINE
  5
102
330
1F
100
AcDbEntity
  8
SK1
  6
Continuous
100
AcDbLine
 10
-30.9095865505
 20
0.5000000998
 30
0.0
 11
-30.9095865505
 21
10.7109913848
 31
0.0
  0
LINE
  5
103
330
1F
100
AcDbEntity
  8
SK1
  6
Continuous
100
AcDbLine
 10
-31.34
 20
0.5000000998
 30
0.0
 11
-31.34
 21
10.3606942168
 31
0.0
  0
LINE
  5
104
330
1F
100
AcDbEntity
  8
SK1
  6
Continuous
100
AcDbLine
 10
-31.34
 20
0.5000000998
 30
0.0
 11
-30.9095865505
 21
0.5000000998
 31
0.0
  0
LINE
  5
105
330
1F
100
AcDbEntity
  8
SK1
  6
Continuous
100
AcDbLine
 10
-30.9095865505
 20
0.5000000998
 30
0.0
 11
-2.8374269746
 21
0.5000000998
 31
0.0
  0
LINE
  5
106
330
1F
100
AcDbEntity
  8
SK1
  6
Continuous
100
AcDbLine
 10
-31.34
 20
-0.4999999002
 30
0.0
 11
-30.9095865505
 21
-0.4999999002
 31
0.0
  0
LINE
  5
107
330
1F
100
AcDbEntity
  8
SK1
  6
Continuous
100
AcDbLine
 10
-30.9095865505
 20
-0.4999999002
 30
0.0
 11
-2.8374269746
 21
-0.4999999002
 31
0.0
  0
SPLINE
  5
108
330
1F
100
AcDbEntity
  8
SK3
100
AcDbSpline
210
0.0
220
0.0
230
1.0
 70
     8
 71
     3
 72
     8
 73
     4
 74
     0
 42
0.0000003076234457
 43
0.0000000001
 12
1.0
 22
0.0
 32
0.0
 13
1.0
 23
0.0
 33
0.0
 40
0.0
 40
0.0
 40
0.0
 40
0.0
 40
0.9999999999999999
 40
0.9999999999999999
 40
0.9999999999999999
 40
0.9999999999999999
 10
-26.2946863551139
 20
-6.426455630100653
 30
0.0
 10
-26.2898925754172
 20
-6.436124749320865
 30
0.0
 10
-26.28474022706834
 20
-6.445666905182021
 30
0.0
 10
-26.27925186281123
 20
-6.45505042295679
 30
0.0
  0
LINE
  5
109
330
1F
100
AcDbEntity
  8
SK3
100
AcDbLine
 10
-2.8374269746
 20
-0.4999999002
 30
0.0
 11
-0.5423407826
 21
-0.4999999002
 31
0.0
  0
ARC
  5
10A
330
1F
100
AcDbEntity
  8
SK3
100
AcDbCircle
 10
-0.5417475355
 20
0.0000000998
 30
0.0
 40
0.5000003519419713
100
AcDbArc
 50
269.9320189244
 51
90.0679810756
  0
ARC
  5
10B
330
1F
100
AcDbEntity
  8
SK1
  6
Continuous
100
AcDbCircle
 10
-2.8399521657
 20
0.0000000998
 30
0.0
 40
0.5000063765490347
100
AcDbArc
 50
270.2893631158
 51
89.7106368842
  0
LINE
  5
10C
330
1F
100
AcDbEntity
  8
SK3
100
AcDbLine
 10
-0.5423407826
 20
0.5000000998
 30
0.0
 11
-2.8374269746
 21
0.5000000998
 31
0.0
  0
LINE
  5
10D
330
1F
100
AcDbEntity
  8
SK1
  6
Continuous
100
AcDbLine
 10
3.0473721046
 20
20.4279549475
 30
0.0
 11
-2.34
 21
19.670809175
 31
0.0
  0
LINE
  5
10E
330
1F
100
AcDbEntity
  8
SK1
  6
Continuous
100
AcDbLine
 10
-2.34
 20
-19.6708089755
 30
0.0
 11
3.0473721046
 21
-20.4279547479
 31
0.0
  0
LINE
  5
10F
330
1F
100
AcDbEntity
  8
SK3
100
AcDbLine
 10
-0.0418191517
 20
-6.9999999002
 30
0.0
 11
14.26
 21
-6.9999999002
 31
0.0
  0
LINE
  5
110
330
1F
100
AcDbEntity
  8
SK3
100
AcDbLine
 10
14.26
 20
7.0000000998
 30
0.0
 11
-0.0418191517
 21
7.0000000998
 31
0.0
  0
ARC
  5
111
330
1F
100
AcDbEntity
  8
SK3
100
AcDbCircle
 10
-39.2249686659
 20
0.2634580237
 30
0.0
 40
39.53001471806685
100
AcDbArc
 50
338.853123656
 51
352.373860448
  0
ARC
  5
112
330
1F
100
AcDbEntity
  8
SK3
100
AcDbCircle
 10
-74.7144379621
 20
0.0000000998
 30
0.0
 40
75.00000000000001
100
AcDbArc
 50
344.7947095856
 51
354.6445620825
  0
LINE
  5
113
330
1F
100
AcDbEntity
  8
SK1
  6
Continuous
100
AcDbLine
 10
8.0064101615
 20
20.5000000998
 30
0.0
 11
7.66
 21
20.5000000998
 31
0.0
  0
ARC
  5
114
330
1F
100
AcDbEntity
  8
SK3
100
AcDbCircle
 10
14.26
 20
7.4000000998
 30
0.0
 40
0.4000000000000009
100
AcDbArc
 50
270.0
 51
360.0
  0
ARC
  5
115
330
1F
100
AcDbEntity
  8
SK1
  6
Continuous
100
AcDbCircle
 10
3.11
 20
19.9823343165
 30
0.0
 40
0.4499999999999955
100
AcDbArc
 50
0.0
 51
98.0
  0
ARC
  5
116
330
1F
100
AcDbEntity
  8
SK1
  6
Continuous
100
AcDbCircle
 10
14.41
 20
16.5142106481
 30
0.0
 40
0.2499999999999985
100
AcDbArc
 50
0.0
 51
60.0
  0
ARC
  5
117
330
1F
100
AcDbEntity
  8
SK1
  6
Continuous
100
AcDbCircle
 10
3.76
 20
18.3000000998
 30
0.0
 40
0.1999999999999991
100
AcDbArc
 50
180.0
 51
270.0
  0
LINE
  5
118
330
1F
100
AcDbEntity
  8
SK1
  6
Continuous
100
AcDbLine
 10
7.46
 20
18.1000000998
 30
0.0
 11
3.76
 21
18.1000000998
 31
0.0
  0
ARC
  5
119
330
1F
100
AcDbEntity
  8
SK1
  6
Continuous
100
AcDbCircle
 10
7.46
 20
18.3000000998
 30
0.0
 40
0.1999999999999988
100
AcDbArc
 50
270.0
 51
360.0
  0
LINE
  5
11A
330
1F
100
AcDbEntity
  8
SK1
  6
Continuous
100
AcDbLine
 10
14.535
 20
16.7307169991
 30
0.0
 11
8.0064101615
 21
20.5000000998
 31
0.0
  0
ARC
  5
11B
330
1F
100
AcDbEntity
  8
SK3
100
AcDbCircle
 10
36.1292700123
 20
-0.0073192562
 30
0.0
 40
64.26110352840725
100
AcDbArc
 50
166.4249162538
 51
174.2108727044
  0
ARC
  5
11C
330
1F
100
AcDbEntity
  8
SK3
100
AcDbCircle
 10
-14.4101087297
 20
-0.5831521114
 30
0.0
 40
13.79825736686583
100
AcDbArc
 50
149.3311446064
 51
165.8928708716
  0
ARC
  5
11D
330
1F
100
AcDbEntity
  8
SK3
100
AcDbCircle
 10
-14.4153470733
 20
0.5825261446
 30
0.0
 40
13.79310599703304
100
AcDbArc
 50
194.1101871222
 51
210.6754449893
  0
ARC
  5
11E
330
1F
100
AcDbEntity
  8
SK3
100
AcDbCircle
 10
36.0820030683
 20
0.001551792
 30
0.0
 40
64.2135553743483
100
AcDbArc
 50
185.7882866664
 51
193.5789790606
  0
ARC
  5
11F
330
1F
100
AcDbEntity
  8
SK3
100
AcDbCircle
 10
-74.7144379621
 20
0.0000000998
 30
0.0
 40
75.00000000000001
100
AcDbArc
 50
5.3554185205
 51
15.2052659998
  0
LINE
  5
120
330
1F
100
AcDbEntity
  8
SK1
  6
Continuous
100
AcDbLine
 10
7.66
 20
-20.4999999002
 30
0.0
 11
8.0064101615
 21
-20.4999999002
 31
0.0
  0
ARC
  5
121
330
1F
100
AcDbEntity
  8
SK3
100
AcDbCircle
 10
14.26
 20
-7.3999999002
 30
0.0
 40
0.4000000000000009
100
AcDbArc
 50
0.0
 51
90.0
  0
ARC
  5
122
330
1F
100
AcDbEntity
  8
SK1
  6
Continuous
100
AcDbCircle
 10
3.11
 20
-19.982334117
 30
0.0
 40
0.4499999999999972
100
AcDbArc
 50
262.0
 51
0.0
  0
ARC
  5
123
330
1F
100
AcDbEntity
  8
SK1
  6
Continuous
100
AcDbCircle
 10
14.41
 20
-16.5142104486
 30
0.0
 40
0.249999999999997
100
AcDbArc
 50
300.0
 51
0.0
  0
ARC
  5
124
330
1F
100
AcDbEntity
  8
SK1
  6
Continuous
100
AcDbCircle
 10
3.76
 20
-18.2999999002
 30
0.0
 40
0.2000000000000023
100
AcDbArc
 50
90.0
 51
180.0
  0
LINE
  5
125
330
1F
100
AcDbEntity
  8
SK1
  6
Continuous
100
AcDbLine
 10
3.76
 20
-18.0999999002
 30
0.0
 11
7.46
 21
-18.0999999002
 31
0.0
  0
ARC
  5
126
330
1F
100
AcDbEntity
  8
SK1
  6
Continuous
100
AcDbCircle
 10
7.46
 20
-18.2999999002
 30
0.0
 40
0.1999999999999991
100
AcDbArc
 50
0.0
 51
90.0
  0
LINE
  5
127
330
1F
100
AcDbEntity
  8
SK1
  6
Continuous
100
AcDbLine
 10
8.0064101615
 20
-20.4999999002
 30
0.0
 11
14.535
 21
-16.7307167996
 31
0.0
  0
ARC
  5
128
330
1F
100
AcDbEntity
  8
SK3
100
AcDbCircle
 10
-39.2229269366
 20
-0.2654441346
 30
0.0
 40
39.52846841840039
100
AcDbArc
 50
7.6294406837
 51
21.1505017883
  0
LINE
  5
129
330
1F
100
AcDbEntity
  8
SK1
  6
Continuous
100
AcDbLine
 10
0.0
 20
19.9996747282
 30
0.0
 11
0.0
 21
-19.9996745287
 31
0.0
  0
LINE
  5
12B
330
1F
100
AcDbEntity
  8
SK4
  6
Continuous
100
AcDbLine
 10
14.66
 20
0.0000000998
 30
0.0
 11
-31.34
 21
0.0000000998
 31
0.0
  0
DIMENSION
  5
141
330
1F
100
AcDbEntity
  8
SK2
  6
Continuous
 62
   136
100
AcDbDimension
  2
DMBLK133
 10
-31.34
 20
29.9999999124
 30
0.0
 11
-8.3399999553
 21
29.9999999124
 31
0.0
 70
   161
  1
\A1;<>
 71
     5
 42
-1.0
  3
DIN
100
AcDbAlignedDimension
 13
-31.34
 23
15.1522342357
 33
0.0
 14
14.66
 24
15.0588048368
 34
0.0
  0
INSERT
  5
155
330
1F
100
AcDbEntity
  8
SK2
 62
     7
100
AcDbBlockReference
  2
Nullpunkt
 10
0.0
 20
0.0000000998
 30
0.0
  0
INSERT
  5
160
330
1F
100
AcDbEntity
  8
SK2
 62
     7
100
AcDbBlockReference
  2
Einfügepunkt
 10
14.66
 20
0.0000000998
 30
0.0
  0
DIMENSION
  5
161
330
1F
100
AcDbEntity
  8
SK2
  6
Continuous
 62
   136
100
AcDbDimension
  2
DMBLK134
 10
26.4069423175
 20
-6.9999999002
 30
0.0
 11
26.4069423175
 21
0.0000003158
 31
0.0
 70
   161
  1
\A1;ø <>
 71
     5
 42
-1.0
  3
DIN
100
AcDbAlignedDimension
 13
14.26
 23
-6.9999999002
 33
0.0
 14
14.26
 24
7.0000000998
 34
0.0
  0
DIMENSION
  5
16C
330
1F
100
AcDbEntity
  8
SK2
  6
Continuous
 62
   136
100
AcDbDimension
  2
DMBLK135
 10
14.66
 20
-28.1891431732
 30
0.0
 11
7.3299999349
 21
-28.1891431732
 31
0.0
 70
   160
  1
\A1;<>
 71
     5
 42
-1.0
  3
DIN
100
AcDbAlignedDimension
 13
0.0
 23
-19.9996745287
 33
0.0
 14
14.66
 24
-15.9778492591
 34
0.0
100
AcDbRotatedDimension
  0
DIMENSION
  5
176
330
1F
100
AcDbEntity
  8
SK2
  6
Continuous
 62
   136
100
AcDbDimension
  2
DMBLK136
 10
-40.0317274034
 20
19.9996747282
 30
0.0
 11
-40.0317274034
 21
-0.0000007245
 31
0.0
 70
   161
  1
\A1;ø <>
 71
     5
 42
-1.0
  3
DIN
100
AcDbAlignedDimension
 13
0.0
 23
19.9996747282
 33
0.0
 14
0.0
 24
-19.9996745287
 34
0.0
  0
ENDSEC
  0
SECTION
  2
OBJECTS
  0
DICTIONARY
  5
C
330
0
100
AcDbDictionary
281
     1
  3
ACAD_GROUP
350
D
  3
ACAD_LAYOUT
350
1A
  3
ACAD_MATERIAL
350
3B
  3
ACAD_MLEADERSTYLE
350
183
  3
ACAD_MLINESTYLE
350
17
  3
ACAD_PLOTSETTINGS
350
19
  3
ACAD_PLOTSTYLENAME
350
E
  3
ACAD_VISUALSTYLE
350
2A
  3
AcDbVariableDictionary
350
181
  0
DICTIONARY
  5
D
102
{ACAD_REACTORS
330
C
102
}
330
C
100
AcDbDictionary
281
     1
  0
DICTIONARY
  5
1A
102
{ACAD_REACTORS
330
C
102
}
330
C
100
AcDbDictionary
281
     1
  3
Layout1
350
1E
  3
Model
350
22
  0
DICTIONARY
  5
3B
102
{ACAD_REACTORS
330
C
102
}
330
C
100
AcDbDictionary
281
     1
  3
ByBlock
350
3D
  3
ByLayer
350
3C
  3
Global
350
3E
  0
DICTIONARY
  5
183
102
{ACAD_REACTORS
330
C
102
}
330
C
100
AcDbDictionary
281
     1
  0
DICTIONARY
  5
17
102
{ACAD_REACTORS
330
C
102
}
330
C
100
AcDbDictionary
281
     1
  3
Standard
350
18
  0
DICTIONARY
  5
19
102
{ACAD_REACTORS
330
C
102
}
330
C
100
AcDbDictionary
281
     1
  0
ACDBDICTIONARYWDFLT
  5
E
102
{ACAD_REACTORS
330
C
102
}
330
C
100
AcDbDictionary
281
     1
  3
Normal
350
F
100
AcDbDictionaryWithDefault
340
F
  0
DICTIONARY
  5
2A
102
{ACAD_REACTORS
330
C
102
}
330
C
100
AcDbDictionary
281
     1
  3
2dWireframe
350
2F
  3
3D Hidden
350
31
  3
3dWireframe
350
30
  3
Basic
350
32
  3
Brighten
350
36
  3
ColorChange
350
3A
  3
Conceptual
350
34
  3
Dim
350
35
  3
Facepattern
350
39
  3
Flat
350
2B
  3
FlatWithEdges
350
2C
  3
Gouraud
350
2D
  3
GouraudWithEdges
350
2E
  3
Linepattern
350
38
  3
Realistic
350
33
  3
Thicken
350
37
  0
DICTIONARY
  5
181
102
{ACAD_REACTORS
330
C
102
}
330
C
100
AcDbDictionary
281
     1
  3
DIMASSOC
350
186
  3
HIDETEXT
350
187
  3
PSOLHEIGHT
350
185
  3
PSOLWIDTH
350
184
  0
LAYOUT
  5
1E
102
{ACAD_REACTORS
330
1A
102
}
330
1A
100
AcDbPlotSettings
  1

  2
none_device
  4

  6

 40
0.0
 41
0.0
 42
0.0
 43
0.0
 44
0.0
 45
0.0
 46
0.0
 47
0.0
 48
0.0
 49
0.0
140
0.0
141
0.0
142
1.0
143
1.0
 70
   688
 72
     0
 73
     0
 74
     5
  7

 75
    16
147
1.0
148
0.0
149
0.0
100
AcDbLayout
  1
Layout1
 70
     1
 71
     1
 10
0.0
 20
0.0
 11
210.0
 21
297.0
 12
0.0
 22
0.0
 32
0.0
 14
0.0
 24
0.0
 34
0.0
 15
210.0
 25
297.0
 35
0.0
146
0.0
 13
0.0
 23
0.0
 33
0.0
 16
1.0
 26
0.0
 36
0.0
 17
0.0
 27
1.0
 37
0.0
 76
     0
330
1B
  0
LAYOUT
  5
22
102
{ACAD_REACTORS
330
1A
102
}
330
1A
100
AcDbPlotSettings
  1

  2
none_device
  4

  6

 40
0.0
 41
0.0
 42
0.0
 43
0.0
 44
0.0
 45
0.0
 46
0.0
 47
0.0
 48
0.0
 49
0.0
140
0.0
141
0.0
142
1.0
143
1.0
 70
  1712
 72
     0
 73
     0
 74
     0
  7

 75
     0
147
1.0
148
0.0
149
0.0
100
AcDbLayout
  1
Model
 70
     1
 71
     0
 10
0.0
 20
0.0
 11
210.0
 21
297.0
 12
0.0
 22
0.0
 32
0.0
 14
0.0
 24
0.0
 34
0.0
 15
210.0
 25
297.0
 35
0.0
146
0.0
 13
0.0
 23
0.0
 33
0.0
 16
1.0
 26
0.0
 36
0.0
 17
0.0
 27
1.0
 37
0.0
 76
     0
330
1F
331
29
  0
MATERIAL
  5
3D
102
{ACAD_REACTORS
330
3B
102
}
102
{ACAD_XDICTIONARY
360
1AA
102
}
330
3B
100
AcDbMaterial
  1
ByBlock
  0
MATERIAL
  5
3C
102
{ACAD_REACTORS
330
3B
102
}
102
{ACAD_XDICTIONARY
360
1A8
102
}
330
3B
100
AcDbMaterial
  1
ByLayer
  0
MATERIAL
  5
3E
102
{ACAD_REACTORS
330
3B
102
}
102
{ACAD_XDICTIONARY
360
1AC
102
}
330
3B
100
AcDbMaterial
  1
Global
  0
MLINESTYLE
  5
18
102
{ACAD_REACTORS
330
17
102
}
330
17
100
AcDbMlineStyle
  2
Standard
 70
     0
  3

 62
   256
 51
90.0
 52
90.0
 71
     2
 49
0.5
 62
   256
  6
BYLAYER
 49
-0.5
 62
   256
  6
BYLAYER
  0
ACDBPLACEHOLDER
  5
F
102
{ACAD_REACTORS
330
E
102
}
330
E
  0
VISUALSTYLE
  5
2F
102
{ACAD_REACTORS
330
2A
102
}
102
{ACAD_XDICTIONARY
360
190
102
}
330
2A
100
AcDbVisualStyle
  2
2dWireframe
 70
     4
 71
     0
 72
     2
 73
     0
 90
        0
 40
-0.6
 41
-30.0
 62
     5
 63
     7
 74
     1
 91
        4
 64
     7
 65
   257
 75
     1
175
     1
 42
1.0
 92
        0
 66
   257
 43
1.0
 76
     1
 77
     6
 78
     2
 67
     7
 79
     5
170
     0
171
     0
290
     0
174
     0
 93
        1
 44
0.0
173
     0
291
     0
 45
0.0
1001
ACAD
1000
AcDbSavedByObjectVersion
1070
     0
  0
VISUALSTYLE
  5
31
102
{ACAD_REACTORS
330
2A
102
}
102
{ACAD_XDICTIONARY
360
194
102
}
330
2A
100
AcDbVisualStyle
  2
3D Hidden
 70
     6
 71
     1
 72
     2
 73
     2
 90
        0
 40
-0.6
 41
-30.0
 62
     5
 63
     7
 74
     2
 91
        2
 64
     7
 65
   257
 75
     2
175
     1
 42
40.0
 92
        0
 66
   257
 43
1.0
 76
     1
 77
     6
 78
     2
 67
     7
 79
     3
170
     0
171
     0
290
     0
174
     0
 93
        1
 44
0.0
173
     0
291
     0
 45
0.0
1001
ACAD
1000
AcDbSavedByObjectVersion
1070
     0
  0
VISUALSTYLE
  5
30
102
{ACAD_REACTORS
330
2A
102
}
102
{ACAD_XDICTIONARY
360
192
102
}
330
2A
100
AcDbVisualStyle
  2
3dWireframe
 70
     5
 71
     0
 72
     2
 73
     0
 90
        0
 40
-0.6
 41
-30.0
 62
     5
 63
     7
 74
     1
 91
        4
 64
     7
 65
   257
 75
     1
175
     1
 42
1.0
 92
        0
 66
   257
 43
1.0
 76
     1
 77
     6
 78
     2
 67
     7
 79
     5
170
     0
171
     0
290
     0
174
     0
 93
        1
 44
0.0
173
     0
291
     0
 45
0.0
1001
ACAD
1000
AcDbSavedByObjectVersion
1070
     0
  0
VISUALSTYLE
  5
32
102
{ACAD_REACTORS
330
2A
102
}
102
{ACAD_XDICTIONARY
360
196
102
}
330
2A
100
AcDbVisualStyle
  2
Basic
 70
     7
 71
     1
 72
     0
 73
     1
 90
        0
 40
-0.6
 41
-30.0
 62
     5
 63
     7
 74
     0
 91
        4
 64
     7
 65
   257
 75
     1
175
     1
 42
1.0
 92
        8
 66
     7
 43
1.0
 76
     1
 77
     6
 78
     2
 67
     7
 79
     5
170
     0
171
     0
290
     0
174
     0
 93
        1
 44
0.0
173
     0
291
     1
 45
0.0
1001
ACAD
1000
AcDbSavedByObjectVersion
1070
     0
  0
VISUALSTYLE
  5
36
102
{ACAD_REACTORS
330
2A
102
}
102
{ACAD_XDICTIONARY
360
19E
102
}
330
2A
100
AcDbVisualStyle
  2
Brighten
 70
    12
 71
     2
 72
     2
 73
     0
 90
        0
 40
-0.6
 41
-30.0
 62
     5
 63
     7
 74
     1
 91
        4
 64
     7
 65
   257
 75
     1
175
     1
 42
1.0
 92
        8
 66
     7
 43
1.0
 76
     1
 77
     6
 78
     2
 67
     7
 79
     5
170
     0
171
     0
290
     0
174
     0
 93
        1
 44
50.0
173
     0
291
     1
 45
0.0
1001
ACAD
1000
AcDbSavedByObjectVersion
1070
     0
  0
VISUALSTYLE
  5
3A
102
{ACAD_REACTORS
330
2A
102
}
102
{ACAD_XDICTIONARY
360
1A6
102
}
330
2A
100
AcDbVisualStyle
  2
ColorChange
 70
    16
 71
     2
 72
     2
 73
     3
 90
        0
 40
-0.6
 41
-30.0
 62
     5
 63
     8
 74
     1
 91
        4
 64
     7
 65
   257
 75
     1
175
     1
 42
1.0
 92
        8
 66
     8
 43
1.0
 76
     1
 77
     6
 78
     2
 67
     7
 79
     5
170
     0
171
     0
290
     0
174
     0
 93
        1
 44
0.0
173
     0
291
     1
 45
0.0
1001
ACAD
1000
AcDbSavedByObjectVersion
1070
     0
  0
VISUALSTYLE
  5
34
102
{ACAD_REACTORS
330
2A
102
}
102
{ACAD_XDICTIONARY
360
19A
102
}
330
2A
100
AcDbVisualStyle
  2
Conceptual
 70
     9
 71
     3
 72
     2
 73
     0
 90
        0
 40
-0.6
 41
-30.0
 62
     5
 63
     7
 74
     2
 91
        2
 64
     7
 65
   257
 75
     1
175
     1
 42
40.0
 92
        8
 66
     7
 43
1.0
 76
     1
 77
     6
 78
     2
 67
     7
 79
     3
170
     0
171
     0
290
     0
174
     0
 93
        1
 44
0.0
173
     0
291
     0
 45
0.0
1001
ACAD
1000
AcDbSavedByObjectVersion
1070
     0
  0
VISUALSTYLE
  5
35
102
{ACAD_REACTORS
330
2A
102
}
102
{ACAD_XDICTIONARY
360
19C
102
}
330
2A
100
AcDbVisualStyle
  2
Dim
 70
    11
 71
     2
 72
     2
 73
     0
 90
        0
 40
-0.6
 41
-30.0
 62
     5
 63
     7
 74
     1
 91
        4
 64
     7
 65
   257
 75
     1
175
     1
 42
1.0
 92
        8
 66
     7
 43
1.0
 76
     1
 77
     6
 78
     2
 67
     7
 79
     5
170
     0
171
     0
290
     0
174
     0
 93
        1
 44
-50.0
173
     0
291
     1
 45
0.0
1001
ACAD
1000
AcDbSavedByObjectVersion
1070
     0
  0
VISUALSTYLE
  5
39
102
{ACAD_REACTORS
330
2A
102
}
102
{ACAD_XDICTIONARY
360
1A4
102
}
330
2A
100
AcDbVisualStyle
  2
Facepattern
 70
    15
 71
     2
 72
     2
 73
     0
 90
        0
 40
-0.6
 41
-30.0
 62
     5
 63
     7
 74
     1
 91
        4
 64
     7
 65
   257
 75
     1
175
     1
 42
1.0
 92
        8
 66
     7
 43
1.0
 76
     1
 77
     6
 78
     2
 67
     7
 79
     5
170
     0
171
     0
290
     0
174
     0
 93
        1
 44
0.0
173
     0
291
     1
 45
0.0
1001
ACAD
1000
AcDbSavedByObjectVersion
1070
     0
  0
VISUALSTYLE
  5
2B
102
{ACAD_REACTORS
330
2A
102
}
102
{ACAD_XDICTIONARY
360
188
102
}
330
2A
100
AcDbVisualStyle
  2
Flat
 70
     0
 71
     2
 72
     1
 73
     1
 90
        2
 40
-0.6
 41
30.0
 62
     5
 63
     7
 74
     0
 91
        4
 64
     7
 65
   257
 75
     1
175
     1
 42
1.0
 92
        8
 66
     7
 43
1.0
 76
     1
 77
     6
 78
     2
 67
     7
 79
     5
170
     0
171
     0
290
     0
174
     0
 93
       13
 44
0.0
173
     0
291
     1
 45
0.0
1001
ACAD
1000
AcDbSavedByObjectVersion
1070
     0
  0
VISUALSTYLE
  5
2C
102
{ACAD_REACTORS
330
2A
102
}
102
{ACAD_XDICTIONARY
360
18A
102
}
330
2A
100
AcDbVisualStyle
  2
FlatWithEdges
 70
     1
 71
     2
 72
     1
 73
     1
 90
        2
 40
-0.6
 41
30.0
 62
     5
 63
     7
 74
     1
 91
        4
 64
     7
 65
   257
 75
     1
175
     1
 42
1.0
 92
        0
 66
   257
 43
1.0
 76
     1
 77
     6
 78
     2
 67
     7
 79
     5
170
     0
171
     0
290
     0
174
     0
 93
       13
 44
0.0
173
     0
291
     1
 45
0.0
1001
ACAD
1000
AcDbSavedByObjectVersion
1070
     0
  0
VISUALSTYLE
  5
2D
102
{ACAD_REACTORS
330
2A
102
}
102
{ACAD_XDICTIONARY
360
18C
102
}
330
2A
100
AcDbVisualStyle
  2
Gouraud
 70
     2
 71
     2
 72
     2
 73
     1
 90
        2
 40
-0.6
 41
30.0
 62
     5
 63
     7
 74
     0
 91
        4
 64
     7
 65
   257
 75
     1
175
     1
 42
1.0
 92
        0
 66
     7
 43
1.0
 76
     1
 77
     6
 78
     2
 67
     7
 79
     5
170
     0
171
     0
290
     0
174
     0
 93
       13
 44
0.0
173
     0
291
     1
 45
0.0
1001
ACAD
1000
AcDbSavedByObjectVersion
1070
     0
  0
VISUALSTYLE
  5
2E
102
{ACAD_REACTORS
330
2A
102
}
102
{ACAD_XDICTIONARY
360
18E
102
}
330
2A
100
AcDbVisualStyle
  2
GouraudWithEdges
 70
     3
 71
     2
 72
     2
 73
     1
 90
        2
 40
-0.6
 41
30.0
 62
     5
 63
     7
 74
     1
 91
        4
 64
     7
 65
   257
 75
     1
175
     1
 42
1.0
 92
        0
 66
   257
 43
1.0
 76
     1
 77
     6
 78
     2
 67
     7
 79
     5
170
     0
171
     0
290
     0
174
     0
 93
       13
 44
0.0
173
     0
291
     1
 45
0.0
1001
ACAD
1000
AcDbSavedByObjectVersion
1070
     0
  0
VISUALSTYLE
  5
38
102
{ACAD_REACTORS
330
2A
102
}
102
{ACAD_XDICTIONARY
360
1A2
102
}
330
2A
100
AcDbVisualStyle
  2
Linepattern
 70
    14
 71
     2
 72
     2
 73
     0
 90
        0
 40
-0.6
 41
-30.0
 62
     5
 63
     7
 74
     1
 91
        4
 64
     7
 65
   257
 75
     7
175
     7
 42
1.0
 92
        8
 66
     7
 43
1.0
 76
     1
 77
     6
 78
     2
 67
     7
 79
     5
170
     0
171
     0
290
     0
174
     0
 93
        1
 44
0.0
173
     0
291
     1
 45
0.0
1001
ACAD
1000
AcDbSavedByObjectVersion
1070
     0
  0
VISUALSTYLE
  5
33
102
{ACAD_REACTORS
330
2A
102
}
102
{ACAD_XDICTIONARY
360
198
102
}
330
2A
100
AcDbVisualStyle
  2
Realistic
 70
     8
 71
     2
 72
     2
 73
     0
 90
        0
 40
-0.6
 41
-30.0
 62
     5
 63
     7
 74
     1
 91
        0
 64
     7
 65
   257
 75
     1
175
     1
 42
1.0
 92
        8
 66
     8
 43
1.0
 76
     1
 77
     6
 78
     2
 67
     7
 79
     5
170
     0
171
     0
290
     0
174
     0
 93
       13
 44
0.0
173
     0
291
     0
 45
0.0
1001
ACAD
1000
AcDbSavedByObjectVersion
1070
     0
  0
VISUALSTYLE
  5
37
102
{ACAD_REACTORS
330
2A
102
}
102
{ACAD_XDICTIONARY
360
1A0
102
}
330
2A
100
AcDbVisualStyle
  2
Thicken
 70
    13
 71
     2
 72
     2
 73
     0
 90
        0
 40
-0.6
 41
-30.0
 62
     5
 63
     7
 74
     1
 91
        4
 64
     7
 65
   257
 75
     1
175
     1
 42
1.0
 92
       12
 66
     7
 43
1.0
 76
     1
 77
     6
 78
     2
 67
     7
 79
     5
170
     0
171
     0
290
     0
174
     0
 93
        1
 44
0.0
173
     0
291
     1
 45
0.0
1001
ACAD
1000
AcDbSavedByObjectVersion
1070
     0
  0
DICTIONARYVAR
  5
186
102
{ACAD_REACTORS
330
181
102
}
330
181
100
DictionaryVariables
280
     0
  1
2
  0
DICTIONARYVAR
  5
187
102
{ACAD_REACTORS
330
181
102
}
330
181
100
DictionaryVariables
280
     0
  1
1
  0
DICTIONARYVAR
  5
185
102
{ACAD_REACTORS
330
181
102
}
330
181
100
DictionaryVariables
280
     0
  1
80.000000
  0
DICTIONARYVAR
  5
184
102
{ACAD_REACTORS
330
181
102
}
330
181
100
DictionaryVariables
280
     0
  1
5.000000
  0
DICTIONARY
  5
1AA
330
3D
100
AcDbDictionary
280
     1
281
     1
  3
ACAD_XREC_ROUNDTRIP
360
1AB
  0
DICTIONARY
  5
1A8
330
3C
100
AcDbDictionary
280
     1
281
     1
  3
ACAD_XREC_ROUNDTRIP
360
1A9
  0
DICTIONARY
  5
1AC
330
3E
100
AcDbDictionary
280
     1
281
     1
  3
ACAD_XREC_ROUNDTRIP
360
1AD
  0
DICTIONARY
  5
190
330
2F
100
AcDbDictionary
280
     1
281
     1
  3
ACAD_XREC_ROUNDTRIP
360
191
  0
DICTIONARY
  5
194
330
31
100
AcDbDictionary
280
     1
281
     1
  3
ACAD_XREC_ROUNDTRIP
360
195
  0
DICTIONARY
  5
192
330
30
100
AcDbDictionary
280
     1
281
     1
  3
ACAD_XREC_ROUNDTRIP
360
193
  0
DICTIONARY
  5
196
330
32
100
AcDbDictionary
280
     1
281
     1
  3
ACAD_XREC_ROUNDTRIP
360
197
  0
DICTIONARY
  5
19E
330
36
100
AcDbDictionary
280
     1
281
     1
  3
ACAD_XREC_ROUNDTRIP
360
19F
  0
DICTIONARY
  5
1A6
330
3A
100
AcDbDictionary
280
     1
281
     1
  3
ACAD_XREC_ROUNDTRIP
360
1A7
  0
DICTIONARY
  5
19A
330
34
100
AcDbDictionary
280
     1
281
     1
  3
ACAD_XREC_ROUNDTRIP
360
19B
  0
DICTIONARY
  5
19C
330
35
100
AcDbDictionary
280
     1
281
     1
  3
ACAD_XREC_ROUNDTRIP
360
19D
  0
DICTIONARY
  5
1A4
330
39
100
AcDbDictionary
280
     1
281
     1
  3
ACAD_XREC_ROUNDTRIP
360
1A5
  0
DICTIONARY
  5
188
330
2B
100
AcDbDictionary
280
     1
281
     1
  3
ACAD_XREC_ROUNDTRIP
360
189
  0
DICTIONARY
  5
18A
330
2C
100
AcDbDictionary
280
     1
281
     1
  3
ACAD_XREC_ROUNDTRIP
360
18B
  0
DICTIONARY
  5
18C
330
2D
100
AcDbDictionary
280
     1
281
     1
  3
ACAD_XREC_ROUNDTRIP
360
18D
  0
DICTIONARY
  5
18E
330
2E
100
AcDbDictionary
280
     1
281
     1
  3
ACAD_XREC_ROUNDTRIP
360
18F
  0
DICTIONARY
  5
1A2
330
38
100
AcDbDictionary
280
     1
281
     1
  3
ACAD_XREC_ROUNDTRIP
360
1A3
  0
DICTIONARY
  5
198
330
33
100
AcDbDictionary
280
     1
281
     1
  3
ACAD_XREC_ROUNDTRIP
360
199
  0
DICTIONARY
  5
1A0
330
37
100
AcDbDictionary
280
     1
281
     1
  3
ACAD_XREC_ROUNDTRIP
360
1A1
  0
XRECORD
  5
1AB
102
{ACAD_REACTORS
330
1AA
102
}
330
1AA
100
AcDbXrecord
280
     1
102
MATERIAL
148
0.0
149
0.0
149
0.0
 93
        0
 94
      127
282
     0
 72
     1
 77
     1
171
     1
175
     1
179
     1
273
     0
  0
XRECORD
  5
1A9
102
{ACAD_REACTORS
330
1A8
102
}
330
1A8
100
AcDbXrecord
280
     1
102
MATERIAL
148
0.0
149
0.0
149
0.0
 93
        0
 94
      127
282
     0
 72
     1
 77
     1
171
     1
175
     1
179
     1
273
     0
  0
XRECORD
  5
1AD
102
{ACAD_REACTORS
330
1AC
102
}
330
1AC
100
AcDbXrecord
280
     1
102
MATERIAL
148
0.0
149
0.0
149
0.0
 93
        0
 94
      127
282
     0
 72
     1
 77
     1
171
     1
175
     1
179
     1
273
     0
  0
XRECORD
  5
191
102
{ACAD_REACTORS
330
190
102
}
330
190
100
AcDbXrecord
280
     1
102
RTVSPropertyOp0
 70
     1
102
RTVSPropertyOp1
 70
     1
102
RTVSPropertyOp2
 70
     1
102
RTVSPropertyOp3
 70
     1
102
RTVSPropertyOp4
 70
     1
102
RTVSPropertyOp5
 70
     1
102
RTVSPropertyOp6
 70
     1
102
RTVSPropertyOp7
 70
     1
102
RTVSPropertyOp8
 70
     1
102
RTVSPropertyOp9
 70
     1
102
RTVSPropertyOp10
 70
     1
102
RTVSPropertyOp11
 70
     1
102
RTVSPropertyOp12
 70
     1
102
RTVSPropertyOp13
 70
     1
102
RTVSPropertyOp14
 70
     1
102
RTVSPropertyOp15
 70
     1
102
RTVSPropertyOp16
 70
     1
102
RTVSPropertyOp17
 70
     1
102
RTVSPropertyOp18
 70
     1
102
RTVSPropertyOp19
 70
     1
102
RTVSPropertyOp20
 70
     1
102
RTVSPropertyOp21
 70
     1
102
RTVSPropertyOp22
 70
     1
102
RTVSPropertyOp23
 70
     1
102
RTVSPropertyOp24
 70
     1
102
RTVSPropertyOp25
 70
     1
102
RTVSPropertyOp26
 70
     1
102
RTVSPropertyOp27
 70
     1
102
RTVSPropertyOp28
 70
     1
102
RTVSPropertyOp29
 70
     1
102
RTVSPropertyOp30
 70
     1
102
RTVSPropertyOp31
 70
     1
102
RTVSPropertyOp32
 70
     1
  0
XRECORD
  5
195
102
{ACAD_REACTORS
330
194
102
}
330
194
100
AcDbXrecord
280
     1
102
RTVSPropertyOp0
 70
     1
102
RTVSPropertyOp1
 70
     1
102
RTVSPropertyOp2
 70
     1
102
RTVSPropertyOp3
 70
     1
102
RTVSPropertyOp4
 70
     1
102
RTVSPropertyOp5
 70
     1
102
RTVSPropertyOp6
 70
     1
102
RTVSPropertyOp7
 70
     1
102
RTVSPropertyOp8
 70
     1
102
RTVSPropertyOp9
 70
     1
102
RTVSPropertyOp10
 70
     1
102
RTVSPropertyOp11
 70
     1
102
RTVSPropertyOp12
 70
     1
102
RTVSPropertyOp13
 70
     1
102
RTVSPropertyOp14
 70
     1
102
RTVSPropertyOp15
 70
     1
102
RTVSPropertyOp16
 70
     1
102
RTVSPropertyOp17
 70
     1
102
RTVSPropertyOp18
 70
     1
102
RTVSPropertyOp19
 70
     1
102
RTVSPropertyOp20
 70
     1
102
RTVSPropertyOp21
 70
     1
102
RTVSPropertyOp22
 70
     1
102
RTVSPropertyOp23
 70
     1
102
RTVSPropertyOp24
 70
     1
102
RTVSPropertyOp25
 70
     1
102
RTVSPropertyOp26
 70
     1
102
RTVSPropertyOp27
 70
     1
102
RTVSPropertyOp28
 70
     1
102
RTVSPropertyOp29
 70
     1
102
RTVSPropertyOp30
 70
     1
102
RTVSPropertyOp31
 70
     1
102
RTVSPropertyOp32
 70
     1
  0
XRECORD
  5
193
102
{ACAD_REACTORS
330
192
102
}
330
192
100
AcDbXrecord
280
     1
102
RTVSPropertyOp0
 70
     1
102
RTVSPropertyOp1
 70
     1
102
RTVSPropertyOp2
 70
     1
102
RTVSPropertyOp3
 70
     1
102
RTVSPropertyOp4
 70
     1
102
RTVSPropertyOp5
 70
     1
102
RTVSPropertyOp6
 70
     1
102
RTVSPropertyOp7
 70
     1
102
RTVSPropertyOp8
 70
     1
102
RTVSPropertyOp9
 70
     1
102
RTVSPropertyOp10
 70
     1
102
RTVSPropertyOp11
 70
     1
102
RTVSPropertyOp12
 70
     1
102
RTVSPropertyOp13
 70
     1
102
RTVSPropertyOp14
 70
     1
102
RTVSPropertyOp15
 70
     1
102
RTVSPropertyOp16
 70
     1
102
RTVSPropertyOp17
 70
     1
102
RTVSPropertyOp18
 70
     1
102
RTVSPropertyOp19
 70
     1
102
RTVSPropertyOp20
 70
     1
102
RTVSPropertyOp21
 70
     1
102
RTVSPropertyOp22
 70
     1
102
RTVSPropertyOp23
 70
     1
102
RTVSPropertyOp24
 70
     1
102
RTVSPropertyOp25
 70
     1
102
RTVSPropertyOp26
 70
     1
102
RTVSPropertyOp27
 70
     1
102
RTVSPropertyOp28
 70
     1
102
RTVSPropertyOp29
 70
     1
102
RTVSPropertyOp30
 70
     1
102
RTVSPropertyOp31
 70
     1
102
RTVSPropertyOp32
 70
     1
  0
XRECORD
  5
197
102
{ACAD_REACTORS
330
196
102
}
330
196
100
AcDbXrecord
280
     1
102
RTVSPropertyOp0
 70
     1
102
RTVSPropertyOp1
 70
     1
102
RTVSPropertyOp2
 70
     1
102
RTVSPropertyOp3
 70
     1
102
RTVSPropertyOp4
 70
     1
102
RTVSPropertyOp5
 70
     1
102
RTVSPropertyOp6
 70
     1
102
RTVSPropertyOp7
 70
     1
102
RTVSPropertyOp8
 70
     1
102
RTVSPropertyOp9
 70
     1
102
RTVSPropertyOp10
 70
     1
102
RTVSPropertyOp11
 70
     1
102
RTVSPropertyOp12
 70
     1
102
RTVSPropertyOp13
 70
     1
102
RTVSPropertyOp14
 70
     1
102
RTVSPropertyOp15
 70
     1
102
RTVSPropertyOp16
 70
     1
102
RTVSPropertyOp17
 70
     1
102
RTVSPropertyOp18
 70
     1
102
RTVSPropertyOp19
 70
     1
102
RTVSPropertyOp20
 70
     1
102
RTVSPropertyOp21
 70
     1
102
RTVSPropertyOp22
 70
     1
102
RTVSPropertyOp23
 70
     1
102
RTVSPropertyOp24
 70
     1
102
RTVSPropertyOp25
 70
     1
102
RTVSPropertyOp26
 70
     1
102
RTVSPropertyOp27
 70
     1
102
RTVSPropertyOp28
 70
     1
102
RTVSPropertyOp29
 70
     1
102
RTVSPropertyOp30
 70
     1
102
RTVSPropertyOp31
 70
     1
102
RTVSPropertyOp32
 70
     1
  0
XRECORD
  5
19F
102
{ACAD_REACTORS
330
19E
102
}
330
19E
100
AcDbXrecord
280
     1
102
RTVSPropertyOp0
 70
     1
102
RTVSPropertyOp1
 70
     1
102
RTVSPropertyOp2
 70
     1
102
RTVSPropertyOp3
 70
     1
102
RTVSPropertyOp4
 70
     1
102
RTVSPropertyOp5
 70
     1
102
RTVSPropertyOp6
 70
     1
102
RTVSPropertyOp7
 70
     1
102
RTVSPropertyOp8
 70
     1
102
RTVSPropertyOp9
 70
     1
102
RTVSPropertyOp10
 70
     1
102
RTVSPropertyOp11
 70
     1
102
RTVSPropertyOp12
 70
     1
102
RTVSPropertyOp13
 70
     1
102
RTVSPropertyOp14
 70
     1
102
RTVSPropertyOp15
 70
     1
102
RTVSPropertyOp16
 70
     1
102
RTVSPropertyOp17
 70
     1
102
RTVSPropertyOp18
 70
     1
102
RTVSPropertyOp19
 70
     1
102
RTVSPropertyOp20
 70
     1
102
RTVSPropertyOp21
 70
     1
102
RTVSPropertyOp22
 70
     1
102
RTVSPropertyOp23
 70
     1
102
RTVSPropertyOp24
 70
     1
102
RTVSPropertyOp25
 70
     1
102
RTVSPropertyOp26
 70
     1
102
RTVSPropertyOp27
 70
     1
102
RTVSPropertyOp28
 70
     1
102
RTVSPropertyOp29
 70
     1
102
RTVSPropertyOp30
 70
     1
102
RTVSPropertyOp31
 70
     1
102
RTVSPropertyOp32
 70
     1
  0
XRECORD
  5
1A7
102
{ACAD_REACTORS
330
1A6
102
}
330
1A6
100
AcDbXrecord
280
     1
102
RTVSPropertyOp0
 70
     1
102
RTVSPropertyOp1
 70
     1
102
RTVSPropertyOp2
 70
     1
102
RTVSPropertyOp3
 70
     1
102
RTVSPropertyOp4
 70
     1
102
RTVSPropertyOp5
 70
     1
102
RTVSPropertyOp6
 70
     1
102
RTVSPropertyOp7
 70
     1
102
RTVSPropertyOp8
 70
     1
102
RTVSPropertyOp9
 70
     1
102
RTVSPropertyOp10
 70
     1
102
RTVSPropertyOp11
 70
     1
102
RTVSPropertyOp12
 70
     1
102
RTVSPropertyOp13
 70
     1
102
RTVSPropertyOp14
 70
     1
102
RTVSPropertyOp15
 70
     1
102
RTVSPropertyOp16
 70
     1
102
RTVSPropertyOp17
 70
     1
102
RTVSPropertyOp18
 70
     1
102
RTVSPropertyOp19
 70
     1
102
RTVSPropertyOp20
 70
     1
102
RTVSPropertyOp21
 70
     1
102
RTVSPropertyOp22
 70
     1
102
RTVSPropertyOp23
 70
     1
102
RTVSPropertyOp24
 70
     1
102
RTVSPropertyOp25
 70
     1
102
RTVSPropertyOp26
 70
     1
102
RTVSPropertyOp27
 70
     1
102
RTVSPropertyOp28
 70
     1
102
RTVSPropertyOp29
 70
     1
102
RTVSPropertyOp30
 70
     1
102
RTVSPropertyOp31
 70
     1
102
RTVSPropertyOp32
 70
     1
  0
XRECORD
  5
19B
102
{ACAD_REACTORS
330
19A
102
}
330
19A
100
AcDbXrecord
280
     1
102
RTVSPropertyOp0
 70
     1
102
RTVSPropertyOp1
 70
     1
102
RTVSPropertyOp2
 70
     1
102
RTVSPropertyOp3
 70
     1
102
RTVSPropertyOp4
 70
     1
102
RTVSPropertyOp5
 70
     1
102
RTVSPropertyOp6
 70
     1
102
RTVSPropertyOp7
 70
     1
102
RTVSPropertyOp8
 70
     1
102
RTVSPropertyOp9
 70
     1
102
RTVSPropertyOp10
 70
     1
102
RTVSPropertyOp11
 70
     1
102
RTVSPropertyOp12
 70
     1
102
RTVSPropertyOp13
 70
     1
102
RTVSPropertyOp14
 70
     1
102
RTVSPropertyOp15
 70
     1
102
RTVSPropertyOp16
 70
     1
102
RTVSPropertyOp17
 70
     1
102
RTVSPropertyOp18
 70
     1
102
RTVSPropertyOp19
 70
     1
102
RTVSPropertyOp20
 70
     1
102
RTVSPropertyOp21
 70
     1
102
RTVSPropertyOp22
 70
     1
102
RTVSPropertyOp23
 70
     1
102
RTVSPropertyOp24
 70
     1
102
RTVSPropertyOp25
 70
     1
102
RTVSPropertyOp26
 70
     1
102
RTVSPropertyOp27
 70
     1
102
RTVSPropertyOp28
 70
     1
102
RTVSPropertyOp29
 70
     1
102
RTVSPropertyOp30
 70
     1
102
RTVSPropertyOp31
 70
     1
102
RTVSPropertyOp32
 70
     1
  0
XRECORD
  5
19D
102
{ACAD_REACTORS
330
19C
102
}
330
19C
100
AcDbXrecord
280
     1
102
RTVSPropertyOp0
 70
     1
102
RTVSPropertyOp1
 70
     1
102
RTVSPropertyOp2
 70
     1
102
RTVSPropertyOp3
 70
     1
102
RTVSPropertyOp4
 70
     1
102
RTVSPropertyOp5
 70
     1
102
RTVSPropertyOp6
 70
     1
102
RTVSPropertyOp7
 70
     1
102
RTVSPropertyOp8
 70
     1
102
RTVSPropertyOp9
 70
     1
102
RTVSPropertyOp10
 70
     1
102
RTVSPropertyOp11
 70
     1
102
RTVSPropertyOp12
 70
     1
102
RTVSPropertyOp13
 70
     1
102
RTVSPropertyOp14
 70
     1
102
RTVSPropertyOp15
 70
     1
102
RTVSPropertyOp16
 70
     1
102
RTVSPropertyOp17
 70
     1
102
RTVSPropertyOp18
 70
     1
102
RTVSPropertyOp19
 70
     1
102
RTVSPropertyOp20
 70
     1
102
RTVSPropertyOp21
 70
     1
102
RTVSPropertyOp22
 70
     1
102
RTVSPropertyOp23
 70
     1
102
RTVSPropertyOp24
 70
     1
102
RTVSPropertyOp25
 70
     1
102
RTVSPropertyOp26
 70
     1
102
RTVSPropertyOp27
 70
     1
102
RTVSPropertyOp28
 70
     1
102
RTVSPropertyOp29
 70
     1
102
RTVSPropertyOp30
 70
     1
102
RTVSPropertyOp31
 70
     1
102
RTVSPropertyOp32
 70
     1
  0
XRECORD
  5
1A5
102
{ACAD_REACTORS
330
1A4
102
}
330
1A4
100
AcDbXrecord
280
     1
102
RTVSPropertyOp0
 70
     1
102
RTVSPropertyOp1
 70
     1
102
RTVSPropertyOp2
 70
     1
102
RTVSPropertyOp3
 70
     1
102
RTVSPropertyOp4
 70
     1
102
RTVSPropertyOp5
 70
     1
102
RTVSPropertyOp6
 70
     1
102
RTVSPropertyOp7
 70
     1
102
RTVSPropertyOp8
 70
     1
102
RTVSPropertyOp9
 70
     1
102
RTVSPropertyOp10
 70
     1
102
RTVSPropertyOp11
 70
     1
102
RTVSPropertyOp12
 70
     1
102
RTVSPropertyOp13
 70
     1
102
RTVSPropertyOp14
 70
     1
102
RTVSPropertyOp15
 70
     1
102
RTVSPropertyOp16
 70
     1
102
RTVSPropertyOp17
 70
     1
102
RTVSPropertyOp18
 70
     1
102
RTVSPropertyOp19
 70
     1
102
RTVSPropertyOp20
 70
     1
102
RTVSPropertyOp21
 70
     1
102
RTVSPropertyOp22
 70
     1
102
RTVSPropertyOp23
 70
     1
102
RTVSPropertyOp24
 70
     1
102
RTVSPropertyOp25
 70
     1
102
RTVSPropertyOp26
 70
     1
102
RTVSPropertyOp27
 70
     1
102
RTVSPropertyOp28
 70
     1
102
RTVSPropertyOp29
 70
     1
102
RTVSPropertyOp30
 70
     1
102
RTVSPropertyOp31
 70
     1
102
RTVSPropertyOp32
 70
     1
  0
XRECORD
  5
189
102
{ACAD_REACTORS
330
188
102
}
330
188
100
AcDbXrecord
280
     1
102
RTVSPropertyOp0
 70
     1
102
RTVSPropertyOp1
 70
     1
102
RTVSPropertyOp2
 70
     1
102
RTVSPropertyOp3
 70
     1
102
RTVSPropertyOp4
 70
     1
102
RTVSPropertyOp5
 70
     1
102
RTVSPropertyOp6
 70
     1
102
RTVSPropertyOp7
 70
     1
102
RTVSPropertyOp8
 70
     1
102
RTVSPropertyOp9
 70
     1
102
RTVSPropertyOp10
 70
     1
102
RTVSPropertyOp11
 70
     1
102
RTVSPropertyOp12
 70
     1
102
RTVSPropertyOp13
 70
     1
102
RTVSPropertyOp14
 70
     1
102
RTVSPropertyOp15
 70
     1
102
RTVSPropertyOp16
 70
     1
102
RTVSPropertyOp17
 70
     1
102
RTVSPropertyOp18
 70
     1
102
RTVSPropertyOp19
 70
     1
102
RTVSPropertyOp20
 70
     1
102
RTVSPropertyOp21
 70
     1
102
RTVSPropertyOp22
 70
     1
102
RTVSPropertyOp23
 70
     1
102
RTVSPropertyOp24
 70
     1
102
RTVSPropertyOp25
 70
     1
102
RTVSPropertyOp26
 70
     1
102
RTVSPropertyOp27
 70
     1
102
RTVSPropertyOp28
 70
     1
102
RTVSPropertyOp29
 70
     1
102
RTVSPropertyOp30
 70
     1
102
RTVSPropertyOp31
 70
     1
102
RTVSPropertyOp32
 70
     1
  0
XRECORD
  5
18B
102
{ACAD_REACTORS
330
18A
102
}
330
18A
100
AcDbXrecord
280
     1
102
RTVSPropertyOp0
 70
     1
102
RTVSPropertyOp1
 70
     1
102
RTVSPropertyOp2
 70
     1
102
RTVSPropertyOp3
 70
     1
102
RTVSPropertyOp4
 70
     1
102
RTVSPropertyOp5
 70
     1
102
RTVSPropertyOp6
 70
     1
102
RTVSPropertyOp7
 70
     1
102
RTVSPropertyOp8
 70
     1
102
RTVSPropertyOp9
 70
     1
102
RTVSPropertyOp10
 70
     1
102
RTVSPropertyOp11
 70
     1
102
RTVSPropertyOp12
 70
     1
102
RTVSPropertyOp13
 70
     1
102
RTVSPropertyOp14
 70
     1
102
RTVSPropertyOp15
 70
     1
102
RTVSPropertyOp16
 70
     1
102
RTVSPropertyOp17
 70
     1
102
RTVSPropertyOp18
 70
     1
102
RTVSPropertyOp19
 70
     1
102
RTVSPropertyOp20
 70
     1
102
RTVSPropertyOp21
 70
     1
102
RTVSPropertyOp22
 70
     1
102
RTVSPropertyOp23
 70
     1
102
RTVSPropertyOp24
 70
     1
102
RTVSPropertyOp25
 70
     1
102
RTVSPropertyOp26
 70
     1
102
RTVSPropertyOp27
 70
     1
102
RTVSPropertyOp28
 70
     1
102
RTVSPropertyOp29
 70
     1
102
RTVSPropertyOp30
 70
     1
102
RTVSPropertyOp31
 70
     1
102
RTVSPropertyOp32
 70
     1
  0
XRECORD
  5
18D
102
{ACAD_REACTORS
330
18C
102
}
330
18C
100
AcDbXrecord
280
     1
102
RTVSPropertyOp0
 70
     1
102
RTVSPropertyOp1
 70
     1
102
RTVSPropertyOp2
 70
     1
102
RTVSPropertyOp3
 70
     1
102
RTVSPropertyOp4
 70
     1
102
RTVSPropertyOp5
 70
     1
102
RTVSPropertyOp6
 70
     1
102
RTVSPropertyOp7
 70
     1
102
RTVSPropertyOp8
 70
     1
102
RTVSPropertyOp9
 70
     1
102
RTVSPropertyOp10
 70
     1
102
RTVSPropertyOp11
 70
     1
102
RTVSPropertyOp12
 70
     1
102
RTVSPropertyOp13
 70
     1
102
RTVSPropertyOp14
 70
     1
102
RTVSPropertyOp15
 70
     1
102
RTVSPropertyOp16
 70
     1
102
RTVSPropertyOp17
 70
     1
102
RTVSPropertyOp18
 70
     1
102
RTVSPropertyOp19
 70
     1
102
RTVSPropertyOp20
 70
     1
102
RTVSPropertyOp21
 70
     1
102
RTVSPropertyOp22
 70
     1
102
RTVSPropertyOp23
 70
     1
102
RTVSPropertyOp24
 70
     1
102
RTVSPropertyOp25
 70
     1
102
RTVSPropertyOp26
 70
     1
102
RTVSPropertyOp27
 70
     1
102
RTVSPropertyOp28
 70
     1
102
RTVSPropertyOp29
 70
     1
102
RTVSPropertyOp30
 70
     1
102
RTVSPropertyOp31
 70
     1
102
RTVSPropertyOp32
 70
     1
  0
XRECORD
  5
18F
102
{ACAD_REACTORS
330
18E
102
}
330
18E
100
AcDbXrecord
280
     1
102
RTVSPropertyOp0
 70
     1
102
RTVSPropertyOp1
 70
     1
102
RTVSPropertyOp2
 70
     1
102
RTVSPropertyOp3
 70
     1
102
RTVSPropertyOp4
 70
     1
102
RTVSPropertyOp5
 70
     1
102
RTVSPropertyOp6
 70
     1
102
RTVSPropertyOp7
 70
     1
102
RTVSPropertyOp8
 70
     1
102
RTVSPropertyOp9
 70
     1
102
RTVSPropertyOp10
 70
     1
102
RTVSPropertyOp11
 70
     1
102
RTVSPropertyOp12
 70
     1
102
RTVSPropertyOp13
 70
     1
102
RTVSPropertyOp14
 70
     1
102
RTVSPropertyOp15
 70
     1
102
RTVSPropertyOp16
 70
     1
102
RTVSPropertyOp17
 70
     1
102
RTVSPropertyOp18
 70
     1
102
RTVSPropertyOp19
 70
     1
102
RTVSPropertyOp20
 70
     1
102
RTVSPropertyOp21
 70
     1
102
RTVSPropertyOp22
 70
     1
102
RTVSPropertyOp23
 70
     1
102
RTVSPropertyOp24
 70
     1
102
RTVSPropertyOp25
 70
     1
102
RTVSPropertyOp26
 70
     1
102
RTVSPropertyOp27
 70
     1
102
RTVSPropertyOp28
 70
     1
102
RTVSPropertyOp29
 70
     1
102
RTVSPropertyOp30
 70
     1
102
RTVSPropertyOp31
 70
     1
102
RTVSPropertyOp32
 70
     1
  0
XRECORD
  5
1A3
102
{ACAD_REACTORS
330
1A2
102
}
330
1A2
100
AcDbXrecord
280
     1
102
RTVSPropertyOp0
 70
     1
102
RTVSPropertyOp1
 70
     1
102
RTVSPropertyOp2
 70
     1
102
RTVSPropertyOp3
 70
     1
102
RTVSPropertyOp4
 70
     1
102
RTVSPropertyOp5
 70
     1
102
RTVSPropertyOp6
 70
     1
102
RTVSPropertyOp7
 70
     1
102
RTVSPropertyOp8
 70
     1
102
RTVSPropertyOp9
 70
     1
102
RTVSPropertyOp10
 70
     1
102
RTVSPropertyOp11
 70
     1
102
RTVSPropertyOp12
 70
     1
102
RTVSPropertyOp13
 70
     1
102
RTVSPropertyOp14
 70
     1
102
RTVSPropertyOp15
 70
     1
102
RTVSPropertyOp16
 70
     1
102
RTVSPropertyOp17
 70
     1
102
RTVSPropertyOp18
 70
     1
102
RTVSPropertyOp19
 70
     1
102
RTVSPropertyOp20
 70
     1
102
RTVSPropertyOp21
 70
     1
102
RTVSPropertyOp22
 70
     1
102
RTVSPropertyOp23
 70
     1
102
RTVSPropertyOp24
 70
     1
102
RTVSPropertyOp25
 70
     1
102
RTVSPropertyOp26
 70
     1
102
RTVSPropertyOp27
 70
     1
102
RTVSPropertyOp28
 70
     1
102
RTVSPropertyOp29
 70
     1
102
RTVSPropertyOp30
 70
     1
102
RTVSPropertyOp31
 70
     1
102
RTVSPropertyOp32
 70
     1
  0
XRECORD
  5
199
102
{ACAD_REACTORS
330
198
102
}
330
198
100
AcDbXrecord
280
     1
102
RTVSPropertyOp0
 70
     1
102
RTVSPropertyOp1
 70
     1
102
RTVSPropertyOp2
 70
     1
102
RTVSPropertyOp3
 70
     1
102
RTVSPropertyOp4
 70
     1
102
RTVSPropertyOp5
 70
     1
102
RTVSPropertyOp6
 70
     1
102
RTVSPropertyOp7
 70
     1
102
RTVSPropertyOp8
 70
     1
102
RTVSPropertyOp9
 70
     1
102
RTVSPropertyOp10
 70
     1
102
RTVSPropertyOp11
 70
     1
102
RTVSPropertyOp12
 70
     1
102
RTVSPropertyOp13
 70
     1
102
RTVSPropertyOp14
 70
     1
102
RTVSPropertyOp15
 70
     1
102
RTVSPropertyOp16
 70
     1
102
RTVSPropertyOp17
 70
     1
102
RTVSPropertyOp18
 70
     1
102
RTVSPropertyOp19
 70
     1
102
RTVSPropertyOp20
 70
     1
102
RTVSPropertyOp21
 70
     1
102
RTVSPropertyOp22
 70
     1
102
RTVSPropertyOp23
 70
     1
102
RTVSPropertyOp24
 70
     1
102
RTVSPropertyOp25
 70
     1
102
RTVSPropertyOp26
 70
     1
102
RTVSPropertyOp27
 70
     1
102
RTVSPropertyOp28
 70
     1
102
RTVSPropertyOp29
 70
     1
102
RTVSPropertyOp30
 70
     1
102
RTVSPropertyOp31
 70
     1
102
RTVSPropertyOp32
 70
     1
  0
XRECORD
  5
1A1
102
{ACAD_REACTORS
330
1A0
102
}
330
1A0
100
AcDbXrecord
280
     1
102
RTVSPropertyOp0
 70
     1
102
RTVSPropertyOp1
 70
     1
102
RTVSPropertyOp2
 70
     1
102
RTVSPropertyOp3
 70
     1
102
RTVSPropertyOp4
 70
     1
102
RTVSPropertyOp5
 70
     1
102
RTVSPropertyOp6
 70
     1
102
RTVSPropertyOp7
 70
     1
102
RTVSPropertyOp8
 70
     1
102
RTVSPropertyOp9
 70
     1
102
RTVSPropertyOp10
 70
     1
102
RTVSPropertyOp11
 70
     1
102
RTVSPropertyOp12
 70
     1
102
RTVSPropertyOp13
 70
     1
102
RTVSPropertyOp14
 70
     1
102
RTVSPropertyOp15
 70
     1
102
RTVSPropertyOp16
 70
     1
102
RTVSPropertyOp17
 70
     1
102
RTVSPropertyOp18
 70
     1
102
RTVSPropertyOp19
 70
     1
102
RTVSPropertyOp20
 70
     1
102
RTVSPropertyOp21
 70
     1
102
RTVSPropertyOp22
 70
     1
102
RTVSPropertyOp23
 70
     1
102
RTVSPropertyOp24
 70
     1
102
RTVSPropertyOp25
 70
     1
102
RTVSPropertyOp26
 70
     1
102
RTVSPropertyOp27
 70
     1
102
RTVSPropertyOp28
 70
     1
102
RTVSPropertyOp29
 70
     1
102
RTVSPropertyOp30
 70
     1
102
RTVSPropertyOp31
 70
     1
102
RTVSPropertyOp32
 70
     1
  0
ENDSEC
  0
EOF
