  0
SECTION
  2
HEADER
  9
$ACADVER
  1
AC1015
  9
$ACADMAINTVER
 70
     6
  9
$DWGCODEPAGE
  3
ANSI_1252
  9
$INSBASE
 10
0.0
 20
0.0
 30
0.0
  9
$EXTMIN
 10
0.0
 20
0.0
 30
0.0
  9
$EXTMAX
 10
210.0
 20
297.0
 30
0.0
  9
$LIMMIN
 10
0.0
 20
0.0
  9
$LIMMAX
 10
210.0
 20
297.0
  9
$ORTHOMODE
 70
     0
  9
$REGENMODE
 70
     1
  9
$FILLMODE
 70
     1
  9
$QTEXTMODE
 70
     0
  9
$MIRRTEXT
 70
     1
  9
$LTSCALE
 40
1.0
  9
$ATTMODE
 70
     1
  9
$TEXTSIZE
 40
2.5
  9
$TRACEWID
 40
1.0
  9
$TEXTSTYLE
  7
Standard
  9
$CLAYER
  8
0
  9
$CELTYPE
  6
ByLayer
  9
$CECOLOR
 62
   256
  9
$CELTSCALE
 40
1.0
  9
$DISPSILH
 70
     0
  9
$DIMSCALE
 40
1.0
  9
$DIMASZ
 40
2.5
  9
$DIMEXO
 40
0.625
  9
$DIMDLI
 40
3.75
  9
$DIMRND
 40
0.0
  9
$DIMDLE
 40
0.0
  9
$DIMEXE
 40
1.25
  9
$DIMTP
 40
0.0
  9
$DIMTM
 40
0.0
  9
$DIMTXT
 40
2.5
  9
$DIMCEN
 40
2.5
  9
$DIMTSZ
 40
0.0
  9
$DIMTOL
 70
     0
  9
$DIMLIM
 70
     0
  9
$DIMTIH
 70
     0
  9
$DIMTOH
 70
     0
  9
$DIMSE1
 70
     0
  9
$DIMSE2
 70
     0
  9
$DIMTAD
 70
     1
  9
$DIMZIN
 70
     8
  9
$DIMBLK
  1

  9
$DIMASO
 70
     1
  9
$DIMSHO
 70
     1
  9
$DIMPOST
  1

  9
$DIMAPOST
  1

  9
$DIMALT
 70
     0
  9
$DIMALTD
 70
     3
  9
$DIMALTF
 40
0.0393700787
  9
$DIMLFAC
 40
1.0
  9
$DIMTOFL
 70
     1
  9
$DIMTVP
 40
0.0
  9
$DIMTIX
 70
     0
  9
$DIMSOXD
 70
     0
  9
$DIMSAH
 70
     0
  9
$DIMBLK1
  1

  9
$DIMBLK2
  1

  9
$DIMSTYLE
  2
ISO-25
  9
$DIMCLRD
 70
     0
  9
$DIMCLRE
 70
     0
  9
$DIMCLRT
 70
     0
  9
$DIMTFAC
 40
1.0
  9
$DIMGAP
 40
0.625
  9
$DIMJUST
 70
     0
  9
$DIMSD1
 70
     0
  9
$DIMSD2
 70
     0
  9
$DIMTOLJ
 70
     0
  9
$DIMTZIN
 70
     8
  9
$DIMALTZ
 70
     0
  9
$DIMALTTZ
 70
     0
  9
$DIMUPT
 70
     0
  9
$DIMDEC
 70
     2
  9
$DIMTDEC
 70
     2
  9
$DIMALTU
 70
     2
  9
$DIMALTTD
 70
     3
  9
$DIMTXSTY
  7
Standard
  9
$DIMAUNIT
 70
     0
  9
$DIMADEC
 70
     0
  9
$DIMALTRND
 40
0.0
  9
$DIMAZIN
 70
     0
  9
$DIMDSEP
 70
    44
  9
$DIMATFIT
 70
     3
  9
$DIMFRAC
 70
     0
  9
$DIMLDRBLK
  1

  9
$DIMLUNIT
 70
     2
  9
$DIMLWD
 70
    -2
  9
$DIMLWE
 70
    -2
  9
$DIMTMOVE
 70
     0
  9
$LUNITS
 70
     2
  9
$LUPREC
 70
     4
  9
$SKETCHINC
 40
1.0
  9
$FILLETRAD
 40
10.0
  9
$AUNITS
 70
     0
  9
$AUPREC
 70
     0
  9
$MENU
  1
.
  9
$ELEVATION
 40
0.0
  9
$PELEVATION
 40
0.0
  9
$THICKNESS
 40
0.0
  9
$LIMCHECK
 70
     0
  9
$CHAMFERA
 40
10.0
  9
$CHAMFERB
 40
10.0
  9
$CHAMFERC
 40
20.0
  9
$CHAMFERD
 40
0.0
  9
$SKPOLY
 70
     0
  9
$TDCREATE
 40
2457567.445061308
  9
$TDUCREATE
 40
2457567.361727974
  9
$TDUPDATE
 40
2457567.445063484
  9
$TDUUPDATE
 40
2457567.36173015
  9
$TDINDWG
 40
0.0000000116
  9
$TDUSRTIMER
 40
0.0000000116
  9
$USRTIMER
 70
     1
  9
$ANGBASE
 50
0.0
  9
$ANGDIR
 70
     0
  9
$PDMODE
 70
     0
  9
$PDSIZE
 40
0.0
  9
$PLINEWID
 40
0.0
  9
$SPLFRAME
 70
     0
  9
$SPLINETYPE
 70
     6
  9
$SPLINESEGS
 70
     8
  9
$HANDSEED
  5
1AF
  9
$SURFTAB1
 70
     6
  9
$SURFTAB2
 70
     6
  9
$SURFTYPE
 70
     6
  9
$SURFU
 70
     6
  9
$SURFV
 70
     6
  9
$UCSBASE
  2

  9
$UCSNAME
  2

  9
$UCSORG
 10
0.0
 20
0.0
 30
0.0
  9
$UCSXDIR
 10
1.0
 20
0.0
 30
0.0
  9
$UCSYDIR
 10
0.0
 20
1.0
 30
0.0
  9
$UCSORTHOREF
  2

  9
$UCSORTHOVIEW
 70
     0
  9
$UCSORGTOP
 10
0.0
 20
0.0
 30
0.0
  9
$UCSORGBOTTOM
 10
0.0
 20
0.0
 30
0.0
  9
$UCSORGLEFT
 10
0.0
 20
0.0
 30
0.0
  9
$UCSORGRIGHT
 10
0.0
 20
0.0
 30
0.0
  9
$UCSORGFRONT
 10
0.0
 20
0.0
 30
0.0
  9
$UCSORGBACK
 10
0.0
 20
0.0
 30
0.0
  9
$PUCSBASE
  2

  9
$PUCSNAME
  2

  9
$PUCSORG
 10
0.0
 20
0.0
 30
0.0
  9
$PUCSXDIR
 10
1.0
 20
0.0
 30
0.0
  9
$PUCSYDIR
 10
0.0
 20
1.0
 30
0.0
  9
$PUCSORTHOREF
  2

  9
$PUCSORTHOVIEW
 70
     0
  9
$PUCSORGTOP
 10
0.0
 20
0.0
 30
0.0
  9
$PUCSORGBOTTOM
 10
0.0
 20
0.0
 30
0.0
  9
$PUCSORGLEFT
 10
0.0
 20
0.0
 30
0.0
  9
$PUCSORGRIGHT
 10
0.0
 20
0.0
 30
0.0
  9
$PUCSORGFRONT
 10
0.0
 20
0.0
 30
0.0
  9
$PUCSORGBACK
 10
0.0
 20
0.0
 30
0.0
  9
$USERI1
 70
     0
  9
$USERI2
 70
     0
  9
$USERI3
 70
     0
  9
$USERI4
 70
     0
  9
$USERI5
 70
     0
  9
$USERR1
 40
0.0
  9
$USERR2
 40
0.0
  9
$USERR3
 40
0.0
  9
$USERR4
 40
0.0
  9
$USERR5
 40
0.0
  9
$WORLDVIEW
 70
     1
  9
$SHADEDGE
 70
     3
  9
$SHADEDIF
 70
    70
  9
$TILEMODE
 70
     1
  9
$MAXACTVP
 70
    64
  9
$PINSBASE
 10
0.0
 20
0.0
 30
0.0
  9
$PLIMCHECK
 70
     0
  9
$PEXTMIN
 10
0.0
 20
0.0
 30
0.0
  9
$PEXTMAX
 10
210.0
 20
297.0
 30
0.0
  9
$PLIMMIN
 10
0.0
 20
0.0
  9
$PLIMMAX
 10
210.0
 20
297.0
  9
$UNITMODE
 70
     0
  9
$VISRETAIN
 70
     1
  9
$PLINEGEN
 70
     0
  9
$PSLTSCALE
 70
     1
  9
$TREEDEPTH
 70
  3020
  9
$CMLSTYLE
  2
Standard
  9
$CMLJUST
 70
     0
  9
$CMLSCALE
 40
20.0
  9
$PROXYGRAPHICS
 70
     1
  9
$MEASUREMENT
 70
     1
  9
$CELWEIGHT
370
    -1
  9
$ENDCAPS
280
     0
  9
$JOINSTYLE
280
     0
  9
$LWDISPLAY
290
     0
  9
$INSUNITS
 70
     4
  9
$HYPERLINKBASE
  1

  9
$STYLESHEET
  1

  9
$XEDIT
290
     1
  9
$CEPSNTYPE
380
     0
  9
$PSTYLEMODE
290
     1
  9
$FINGERPRINTGUID
  2
{474588BF-EBCC-4D80-94FC-3CA3A26A5980}
  9
$VERSIONGUID
  2
{FAEB1C32-E019-11D5-929B-00C0DF256EC4}
  9
$EXTNAMES
290
     1
  9
$PSVPSCALE
 40
0.0
  9
$OLESTARTUP
290
     0
  0
ENDSEC
  0
SECTION
  2
CLASSES
  0
CLASS
  1
ACDBDICTIONARYWDFLT
  2
AcDbDictionaryWithDefault
  3
ObjectDBX Classes
 90
        0
280
     0
281
     0
  0
CLASS
  1
VISUALSTYLE
  2
AcDbVisualStyle
  3
ObjectDBX Classes
 90
     4095
280
     0
281
     0
  0
CLASS
  1
MATERIAL
  2
AcDbMaterial
  3
ObjectDBX Classes
 90
     1153
280
     0
281
     0
  0
CLASS
  1
DICTIONARYVAR
  2
AcDbDictionaryVar
  3
ObjectDBX Classes
 90
        0
280
     0
281
     0
  0
CLASS
  1
ACDBPLACEHOLDER
  2
AcDbPlaceHolder
  3
ObjectDBX Classes
 90
        0
280
     0
281
     0
  0
CLASS
  1
LAYOUT
  2
AcDbLayout
  3
ObjectDBX Classes
 90
        0
280
     0
281
     0
  0
ENDSEC
  0
SECTION
  2
TABLES
  0
TABLE
  2
VPORT
  5
8
330
0
100
AcDbSymbolTable
 70
     1
  0
VPORT
  5
29
330
8
100
AcDbSymbolTableRecord
100
AcDbViewportTableRecord
  2
*Active
 70
     0
 10
0.0
 20
0.0
 11
1.0
 21
1.0
 12
344.1869158879
 22
148.5
 13
0.0
 23
0.0
 14
10.0
 24
10.0
 15
10.0
 25
10.0
 16
0.0
 26
0.0
 36
1.0
 17
0.0
 27
0.0
 37
0.0
 40
297.0
 41
1.9729729729
 42
50.0
 43
0.0
 44
0.0
 50
0.0
 51
0.0
 71
     0
 72
   100
 73
     1
 74
     3
 75
     0
 76
     0
 77
     0
 78
     0
281
     0
 65
     1
110
0.0
120
0.0
130
0.0
111
1.0
121
0.0
131
0.0
112
0.0
122
1.0
132
0.0
 79
     0
146
0.0
  0
ENDTAB
  0
TABLE
  2
LTYPE
  5
5
330
0
100
AcDbSymbolTable
 70
     2
  0
LTYPE
  5
14
330
5
100
AcDbSymbolTableRecord
100
AcDbLinetypeTableRecord
  2
ByBlock
 70
     0
  3

 72
    65
 73
     0
 40
0.0
  0
LTYPE
  5
15
330
5
100
AcDbSymbolTableRecord
100
AcDbLinetypeTableRecord
  2
ByLayer
 70
     0
  3

 72
    65
 73
     0
 40
0.0
  0
LTYPE
  5
16
330
5
100
AcDbSymbolTableRecord
100
AcDbLinetypeTableRecord
  2
Continuous
 70
     0
  3
Solid line
 72
    65
 73
     0
 40
0.0
  0
LTYPE
  5
54
330
5
100
AcDbSymbolTableRecord
100
AcDbLinetypeTableRecord
  2
HIDDEN2
 70
     0
  3
Hidden (.5x) _ _ _ _ _ _ _ _ _ _ _ _ _ _ _ _ _ 
 72
    65
 73
     2
 40
4.7625
 49
3.175
 74
     4
 75
     0
340
0
 46
0.0
 50
0.0
 44
0.0
 45
0.0
 49
-1.5875
 74
     4
 75
     0
340
0
 46
0.0
 50
0.0
 44
0.0
 45
0.0
  0
ENDTAB
  0
TABLE
  2
LAYER
  5
2
330
0
100
AcDbSymbolTable
 70
     5
  0
LAYER
  5
10
330
2
100
AcDbSymbolTableRecord
100
AcDbLayerTableRecord
  2
0
 70
     0
 62
     7
  6
Continuous
370
    -3
390
F
  0
LAYER
  5
3F
330
2
100
AcDbSymbolTableRecord
100
AcDbLayerTableRecord
  2
SK1
 70
     0
 62
     4
  6
Continuous
370
    18
390
F
  0
LAYER
  5
53
330
2
100
AcDbSymbolTableRecord
100
AcDbLayerTableRecord
  2
SK3
 70
     0
 62
     1
  6
HIDDEN2
370
    15
390
F
  0
LAYER
  5
12B
330
2
100
AcDbSymbolTableRecord
100
AcDbLayerTableRecord
  2
SK4
 70
     0
 62
     2
  6
Continuous
370
    13
390
F
  0
LAYER
  5
12D
330
2
100
AcDbSymbolTableRecord
100
AcDbLayerTableRecord
  2
SK2
 70
     0
 62
     7
  6
Continuous
370
    15
390
F
  0
ENDTAB
  0
TABLE
  2
STYLE
  5
3
330
0
100
AcDbSymbolTable
 70
     2
  0
STYLE
  5
11
330
3
100
AcDbSymbolTableRecord
100
AcDbTextStyleTableRecord
  2
Standard
 70
     0
 40
0.0
 41
1.0
 50
0.0
 71
     0
 42
2.5
  3
txt
  4

  0
STYLE
  5
140
330
3
100
AcDbSymbolTableRecord
100
AcDbTextStyleTableRecord
  2
SEACAD_Solid_Edge_ISO
 70
     0
 40
0.0
 41
1.0
 50
0.0
 71
     0
 42
0.2
  3
seiso.ttf
  4

1001
ACAD
1000
Solid Edge ISO
1071
        0
  0
ENDTAB
  0
TABLE
  2
VIEW
  5
6
330
0
100
AcDbSymbolTable
 70
     0
  0
ENDTAB
  0
TABLE
  2
UCS
  5
7
330
0
100
AcDbSymbolTable
 70
     0
  0
ENDTAB
  0
TABLE
  2
APPID
  5
9
330
0
100
AcDbSymbolTable
 70
     1
  0
APPID
  5
12
330
9
100
AcDbSymbolTableRecord
100
AcDbRegAppTableRecord
  2
ACAD
 70
     0
  0
ENDTAB
  0
TABLE
  2
DIMSTYLE
  5
A
330
0
100
AcDbSymbolTable
 70
     3
100
AcDbDimStyleTable
  0
DIMSTYLE
105
27
330
A
100
AcDbSymbolTableRecord
100
AcDbDimStyleTableRecord
  2
ISO-25
 70
     0
 41
2.5
 42
0.625
 43
3.75
 44
1.25
 73
     0
 74
     0
 77
     1
 78
     8
140
2.5
141
2.5
143
0.0393700787
147
0.625
171
     3
172
     1
178
     0
271
     2
272
     2
274
     3
278
    44
283
     0
284
     8
340
11
  0
DIMSTYLE
105
12E
330
A
100
AcDbSymbolTableRecord
100
AcDbDimStyleTableRecord
  2
Standard
 70
     0
178
     0
340
11
  0
DIMSTYLE
105
141
102
{ACAD_REACTORS
330
142
330
162
330
16D
330
177
102
}
330
A
100
AcDbSymbolTableRecord
100
AcDbDimStyleTableRecord
  2
DIN
 70
     0
 41
3.5
 42
0.0
 44
1.75
 73
     0
 74
     0
 77
     1
 78
     8
140
3.5
141
1.75
147
1.75
172
     1
173
     1
178
     0
179
     3
271
     2
272
     2
278
    44
284
     8
340
140
343
13B
344
13B
  0
ENDTAB
  0
TABLE
  2
BLOCK_RECORD
  5
1
330
0
100
AcDbSymbolTable
 70
    10
  0
BLOCK_RECORD
  5
1F
330
1
100
AcDbSymbolTableRecord
100
AcDbBlockTableRecord
  2
*Model_Space
340
22
  0
BLOCK_RECORD
  5
1B
330
1
100
AcDbSymbolTableRecord
100
AcDbBlockTableRecord
  2
*Paper_Space
340
1E
  0
BLOCK_RECORD
  5
12F
330
1
100
AcDbSymbolTableRecord
100
AcDbBlockTableRecord
  2
_OBLIQUE
340
0
  0
BLOCK_RECORD
  5
133
330
1
100
AcDbSymbolTableRecord
100
AcDbBlockTableRecord
  2
_DOT
340
0
  0
BLOCK_RECORD
  5
13B
330
1
100
AcDbSymbolTableRecord
100
AcDbBlockTableRecord
  2
_SE_FILLED
340
0
  0
BLOCK_RECORD
  5
143
330
1
100
AcDbSymbolTableRecord
100
AcDbBlockTableRecord
  2
DMBLK89
340
0
  0
BLOCK_RECORD
  5
14C
330
1
100
AcDbSymbolTableRecord
100
AcDbBlockTableRecord
  2
Nullpunkt
340
0
102
{BLKREFS
331
156
102
}
  0
BLOCK_RECORD
  5
157
330
1
100
AcDbSymbolTableRecord
100
AcDbBlockTableRecord
  2
Einfügepunkt
340
0
102
{BLKREFS
331
161
102
}
  0
BLOCK_RECORD
  5
163
330
1
100
AcDbSymbolTableRecord
100
AcDbBlockTableRecord
  2
DMBLK90
340
0
  0
BLOCK_RECORD
  5
16E
330
1
100
AcDbSymbolTableRecord
100
AcDbBlockTableRecord
  2
DMBLK91
340
0
  0
BLOCK_RECORD
  5
178
330
1
100
AcDbSymbolTableRecord
100
AcDbBlockTableRecord
  2
DMBLK92
340
0
  0
ENDTAB
  0
ENDSEC
  0
SECTION
  2
BLOCKS
  0
BLOCK
  5
20
330
1F
100
AcDbEntity
  8
0
100
AcDbBlockBegin
  2
*Model_Space
 70
     0
 10
0.0
 20
0.0
 30
0.0
  3
*Model_Space
  1

  0
ENDBLK
  5
21
330
1F
100
AcDbEntity
  8
0
100
AcDbBlockEnd
  0
BLOCK
  5
1C
330
1B
100
AcDbEntity
 67
     1
  8
0
100
AcDbBlockBegin
  2
*Paper_Space
 70
     0
 10
0.0
 20
0.0
 30
0.0
  3
*Paper_Space
  1

  0
ENDBLK
  5
1D
330
1B
100
AcDbEntity
 67
     1
  8
0
100
AcDbBlockEnd
  0
BLOCK
  5
130
330
12F
100
AcDbEntity
  8
0
100
AcDbBlockBegin
  2
_OBLIQUE
 70
     0
 10
0.0
 20
0.0
 30
0.0
  3
_OBLIQUE
  1

  0
LINE
  5
132
330
12F
100
AcDbEntity
  8
0
  6
ByBlock
 62
     0
370
    -2
100
AcDbLine
 10
-0.5
 20
-0.5
 30
0.0
 11
0.5
 21
0.5
 31
0.0
  0
ENDBLK
  5
131
330
12F
100
AcDbEntity
  8
0
100
AcDbBlockEnd
  0
BLOCK
  5
134
330
133
100
AcDbEntity
  8
0
100
AcDbBlockBegin
  2
_DOT
 70
     0
 10
0.0
 20
0.0
 30
0.0
  3
_DOT
  1

  0
POLYLINE
  5
136
330
133
100
AcDbEntity
  8
0
  6
ByBlock
 62
     0
100
AcDb2dPolyline
 66
     1
 10
0.0
 20
0.0
 30
0.0
 70
     1
 40
0.5
 41
0.5
  0
VERTEX
  5
138
330
136
100
AcDbEntity
  8
0
  6
ByBlock
 62
     0
100
AcDbVertex
100
AcDb2dVertex
 10
-0.25
 20
0.0
 30
0.0
 42
1.0
  0
VERTEX
  5
139
330
136
100
AcDbEntity
  8
0
  6
ByBlock
 62
     0
100
AcDbVertex
100
AcDb2dVertex
 10
0.25
 20
0.0
 30
0.0
 42
1.0
  0
SEQEND
  5
13A
330
136
100
AcDbEntity
  8
0
  6
ByBlock
 62
     0
  0
LINE
  5
137
330
133
100
AcDbEntity
  8
0
  6
ByBlock
 62
     0
370
    -2
100
AcDbLine
 10
-0.5
 20
0.0
 30
0.0
 11
-1.0
 21
0.0
 31
0.0
  0
ENDBLK
  5
135
330
133
100
AcDbEntity
  8
0
100
AcDbBlockEnd
  0
BLOCK
  5
13E
330
13B
100
AcDbEntity
  8
0
100
AcDbBlockBegin
  2
_SE_FILLED
 70
     0
 10
0.0
 20
0.0
 30
0.0
  3
_SE_FILLED
  1

  0
SOLID
  5
13C
330
13B
100
AcDbEntity
  8
0
 62
     0
100
AcDbTrace
 10
0.0
 20
0.0
 30
0.0
 11
-1.0
 21
-0.1665
 31
0.0
 12
-1.0
 22
0.1665
 32
0.0
 13
0.0
 23
0.0
 33
0.0
  0
LINE
  5
13D
330
13B
100
AcDbEntity
  8
0
 62
     0
100
AcDbLine
 10
0.0
 20
0.0
 30
0.0
 11
-1.0
 21
0.0
 31
0.0
  0
ENDBLK
  5
13F
330
13B
100
AcDbEntity
  8
0
100
AcDbBlockEnd
  0
BLOCK
  5
14A
330
143
100
AcDbEntity
  8
0
100
AcDbBlockBegin
  2
DMBLK89
 70
     0
 10
0.0
 20
0.0
 30
0.0
  3
DMBLK89
  1

  0
HATCH
  5
144
330
143
100
AcDbEntity
  8
SK2
  6
Continuous
 62
   136
100
AcDbHatch
 10
0.0
 20
0.0
 30
0.0
210
0.0
220
0.0
230
1.0
  2
SOLID
 70
     1
 71
     0
 91
        1
 92
        1
 93
        3
 72
     1
 10
-23.83999989196667
 20
27.01908152911488
 11
-27.34000000000009
 21
26.43574817777598
 72
     1
 10
-27.34000000000009
 20
26.43574817777598
 11
-23.83999989196667
 21
25.85241482643707
 72
     1
 10
-23.83999989196667
 20
25.85241482643707
 11
-23.83999989196667
 21
27.01908152911488
 97
        0
 75
     0
 76
     1
 98
        0
  0
HATCH
  5
145
330
143
100
AcDbEntity
  8
SK2
  6
Continuous
 62
   136
100
AcDbHatch
 10
0.0
 20
0.0
 30
0.0
210
0.0
220
0.0
230
1.0
  2
SOLID
 70
     1
 71
     0
 91
        1
 92
        1
 93
        3
 72
     1
 10
9.159998997896816
 20
27.01908152911488
 11
9.159998997896816
 21
25.85241482643707
 72
     1
 10
9.159998997896816
 20
25.85241482643707
 11
12.65999910593023
 21
26.43574817777598
 72
     1
 10
12.65999910593023
 20
26.43574817777598
 11
9.159998997896816
 21
27.01908152911488
 97
        0
 75
     0
 76
     1
 98
        0
  0
LINE
  5
146
330
143
100
AcDbEntity
  8
SK2
  6
Continuous
 62
   136
100
AcDbLine
 10
-27.34
 20
11.8897757188
 30
0.0
 11
-27.34
 21
28.1857482318
 31
0.0
  0
LINE
  5
147
330
143
100
AcDbEntity
  8
SK2
  6
Continuous
 62
   136
100
AcDbLine
 10
12.66
 20
12.180020447
 30
0.0
 11
12.66
 21
28.1857482318
 31
0.0
  0
LINE
  5
148
330
143
100
AcDbEntity
  8
SK2
  6
Continuous
 62
   136
100
AcDbLine
 10
-27.34
 20
26.4357481778
 30
0.0
 11
12.6599991059
 21
26.4357481778
 31
0.0
  0
TEXT
  5
149
330
143
100
AcDbEntity
  8
SK2
  6
Continuous
 62
   136
100
AcDbText
 10
-9.4081822652
 20
27.3107481778
 30
0.0
 40
3.5
  1
40
  7
SEACAD_Solid_Edge_ISO
 11
-9.4081822652
 21
30.8107481778
 31
0.0
100
AcDbText
 73
     3
  0
ENDBLK
  5
14B
330
143
100
AcDbEntity
  8
0
100
AcDbBlockEnd
  0
BLOCK
  5
154
330
14C
100
AcDbEntity
  8
0
100
AcDbBlockBegin
  2
Nullpunkt
 70
     0
 10
0.0
 20
0.0
 30
0.0
  3
Nullpunkt
  1

  0
HATCH
  5
14D
330
14C
100
AcDbEntity
  8
SK2
  6
Continuous
 62
     7
100
AcDbHatch
 10
0.0
 20
0.0
 30
0.0
210
0.0
220
0.0
230
1.0
  2
SOLID
 70
     1
 71
     0
 91
        1
 92
        1
 93
        3
 72
     1
 10
-1.0
 20
0.0
 11
0.0000000000000009
 21
0.0
 72
     1
 10
0.0
 20
0.0
 11
0.0
 21
1.000000000000001
 72
     2
 10
0.0
 20
0.0
 40
1.0
 50
90.0
 51
180.0
 73
     1
 97
        0
 75
     0
 76
     1
 98
        0
  0
HATCH
  5
14E
330
14C
100
AcDbEntity
  8
SK2
  6
Continuous
 62
     7
100
AcDbHatch
 10
0.0
 20
0.0
 30
0.0
210
0.0
220
0.0
230
1.0
  2
SOLID
 70
     1
 71
     0
 91
        1
 92
        1
 93
        3
 72
     2
 10
0.0
 20
0.0
 40
1.0
 50
270.0
 51
360.0
 73
     1
 72
     1
 10
1.0
 20
0.0
 11
-0.0000000000000009
 21
0.0
 72
     1
 10
0.0
 20
0.0
 11
0.0
 21
-1.000000000000001
 97
        0
 75
     0
 76
     1
 98
        0
  0
CIRCLE
  5
14F
330
14C
100
AcDbEntity
  8
SK2
  6
Continuous
 62
     7
100
AcDbCircle
 10
0.0
 20
0.0
 30
0.0
 40
1.0
  0
LINE
  5
150
330
14C
100
AcDbEntity
  8
SK1
  6
Continuous
100
AcDbLine
 10
-1.0
 20
0.0
 30
0.0
 11
1.0
 21
0.0
 31
0.0
  0
LINE
  5
151
330
14C
100
AcDbEntity
  8
SK1
  6
Continuous
100
AcDbLine
 10
0.0
 20
1.0
 30
0.0
 11
0.0
 21
-1.0
 31
0.0
  0
POINT
  5
152
330
14C
100
AcDbEntity
  8
SK1
  6
Continuous
100
AcDbPoint
 10
0.0
 20
0.0
 30
0.0
  0
POINT
  5
153
330
14C
100
AcDbEntity
  8
SK1
  6
Continuous
100
AcDbPoint
 10
0.0
 20
0.0
 30
0.0
  0
ENDBLK
  5
155
330
14C
100
AcDbEntity
  8
0
100
AcDbBlockEnd
  0
BLOCK
  5
15F
330
157
100
AcDbEntity
  8
0
100
AcDbBlockBegin
  2
Einfügepunkt
 70
     0
 10
0.0
 20
0.0
 30
0.0
  3
Einfügepunkt
  1

  0
HATCH
  5
158
330
157
100
AcDbEntity
  8
SK2
  6
Continuous
 62
     7
100
AcDbHatch
 10
0.0
 20
0.0
 30
0.0
210
0.0
220
0.0
230
1.0
  2
SOLID
 70
     1
 71
     0
 91
        1
 92
        1
 93
        3
 72
     1
 10
-0.4502381196756744
 20
-0.0000000000000018
 11
0.0000000000000033
 21
-0.0000000000000018
 72
     1
 10
0.0
 20
-0.0000000000000018
 11
0.0
 21
0.4502381196756812
 72
     2
 10
0.0
 20
-0.0000000000000018
 40
0.4502381196756812
 50
90.0
 51
180.0
 73
     1
 97
        0
 75
     0
 76
     1
 98
        0
  0
HATCH
  5
159
330
157
100
AcDbEntity
  8
SK2
  6
Continuous
 62
     7
100
AcDbHatch
 10
0.0
 20
0.0
 30
0.0
210
0.0
220
0.0
230
1.0
  2
SOLID
 70
     1
 71
     0
 91
        1
 92
        1
 93
        3
 72
     2
 10
0.0
 20
-0.0000000000000018
 40
0.4502381196756812
 50
270.0
 51
360.0
 73
     1
 72
     1
 10
0.4502381196756815
 20
-0.0000000000000018
 11
0.0000000000000038
 21
-0.0000000000000018
 72
     1
 10
0.0
 20
-0.0000000000000018
 11
0.0
 21
-0.4502381196756812
 97
        0
 75
     0
 76
     1
 98
        0
  0
CIRCLE
  5
15A
330
157
100
AcDbEntity
  8
SK2
  6
Continuous
 62
     7
100
AcDbCircle
 10
0.0
 20
0.0
 30
0.0
 40
0.4502381196756812
  0
LINE
  5
15B
330
157
100
AcDbEntity
  8
SK1
  6
Continuous
100
AcDbLine
 10
-0.4502381197
 20
0.0
 30
0.0
 11
0.4502381197
 21
0.0
 31
0.0
  0
LINE
  5
15C
330
157
100
AcDbEntity
  8
SK1
  6
Continuous
100
AcDbLine
 10
0.0
 20
0.4502381197
 30
0.0
 11
0.0
 21
-0.4502381197
 31
0.0
  0
POINT
  5
15D
330
157
100
AcDbEntity
  8
SK2
  6
Continuous
 62
     7
100
AcDbPoint
 10
0.0
 20
0.0
 30
0.0
  0
POINT
  5
15E
330
157
100
AcDbEntity
  8
SK2
  6
Continuous
 62
     7
100
AcDbPoint
 10
0.0
 20
0.0
 30
0.0
  0
ENDBLK
  5
160
330
157
100
AcDbEntity
  8
0
100
AcDbBlockEnd
  0
BLOCK
  5
16B
330
163
100
AcDbEntity
  8
0
100
AcDbBlockBegin
  2
DMBLK90
 70
     0
 10
0.0
 20
0.0
 30
0.0
  3
DMBLK90
  1

  0
HATCH
  5
164
330
163
100
AcDbEntity
  8
SK2
  6
Continuous
 62
   136
100
AcDbHatch
 10
0.0
 20
0.0
 30
0.0
210
0.0
220
0.0
230
1.0
  2
SOLID
 70
     1
 71
     0
 91
        1
 92
        1
 93
        3
 72
     1
 10
23.24333337965112
 20
-5.499999792195889
 11
22.07666667697331
 21
-5.499999792195889
 72
     1
 10
22.07666667697331
 20
-5.499999792195889
 11
22.66000002831221
 21
-8.999999900229309
 72
     1
 10
22.66000002831221
 20
-8.999999900229307
 11
23.24333337965112
 21
-5.499999792195888
 97
        0
 75
     0
 76
     1
 98
        0
  0
HATCH
  5
165
330
163
100
AcDbEntity
  8
SK2
  6
Continuous
 62
   136
100
AcDbHatch
 10
0.0
 20
0.0
 30
0.0
210
0.0
220
0.0
230
1.0
  2
SOLID
 70
     1
 71
     0
 91
        1
 92
        1
 93
        3
 72
     1
 10
23.24333337965112
 20
5.499999216876891
 11
22.66000002831221
 21
8.99999932491031
 72
     1
 10
22.66000002831221
 20
8.999999324910311
 11
22.07666667697331
 21
5.499999216876892
 72
     1
 10
22.07666667697331
 20
5.499999216876891
 11
23.24333337965112
 21
5.499999216876891
 97
        0
 75
     0
 76
     1
 98
        0
  0
LINE
  5
166
330
163
100
AcDbEntity
  8
SK2
  6
Continuous
 62
   136
100
AcDbLine
 10
12.26
 20
-8.9999999002
 30
0.0
 11
24.4100000823
 21
-8.9999999002
 31
0.0
  0
LINE
  5
167
330
163
100
AcDbEntity
  8
SK2
  6
Continuous
 62
   136
100
AcDbLine
 10
12.26
 20
9.0000000998
 30
0.0
 11
24.4100000823
 21
9.0000000998
 31
0.0
  0
LINE
  5
168
330
163
100
AcDbEntity
  8
SK2
  6
Continuous
 62
   136
100
AcDbLine
 10
22.6600000283
 20
-8.9999999002
 30
0.0
 11
22.6600000283
 21
8.9999993249
 31
0.0
  0
TEXT
  5
169
330
163
100
AcDbEntity
  8
SK2
  6
Continuous
 62
   136
100
AcDbText
 10
21.7850000283
 20
0.2068178942
 30
0.0
 40
3.5
  1
18
 50
90.0
  7
SEACAD_Solid_Edge_ISO
 11
18.2850000283
 21
0.2068178942
 31
0.0
100
AcDbText
 73
     3
  0
TEXT
  5
16A
330
163
100
AcDbEntity
  8
SK2
  6
Continuous
 62
   136
100
AcDbText
 10
21.7850000283
 20
-3.8659093786
 30
0.0
 40
3.5
  1
ø
 50
90.0
  7
SEACAD_Solid_Edge_ISO
 11
18.2850000283
 21
-3.8659093786
 31
0.0
100
AcDbText
 73
     3
  0
ENDBLK
  5
16C
330
163
100
AcDbEntity
  8
0
100
AcDbBlockEnd
  0
BLOCK
  5
175
330
16E
100
AcDbEntity
  8
0
100
AcDbBlockBegin
  2
DMBLK91
 70
     0
 10
0.0
 20
0.0
 30
0.0
  3
DMBLK91
  1

  0
HATCH
  5
16F
330
16E
100
AcDbEntity
  8
SK2
  6
Continuous
 62
   136
100
AcDbHatch
 10
0.0
 20
0.0
 30
0.0
210
0.0
220
0.0
230
1.0
  2
SOLID
 70
     1
 71
     0
 91
        1
 92
        1
 93
        3
 72
     1
 10
-3.500000108033416
 20
-24.88467574911873
 11
0.0000000000000027
 21
-24.30134239777982
 72
     1
 10
0.0000000000000026
 20
-24.30134239777982
 11
-3.500000108033416
 21
-23.71800904644092
 72
     1
 10
-3.500000108033416
 20
-23.71800904644092
 11
-3.500000108033416
 21
-24.88467574911873
 97
        0
 75
     0
 76
     1
 98
        0
  0
HATCH
  5
170
330
16E
100
AcDbEntity
  8
SK2
  6
Continuous
 62
   136
100
AcDbHatch
 10
0.0
 20
0.0
 30
0.0
210
0.0
220
0.0
230
1.0
  2
SOLID
 70
     1
 71
     0
 91
        1
 92
        1
 93
        3
 72
     1
 10
16.16000010803458
 20
-24.88467574911873
 11
16.16000010803458
 21
-23.71800904644092
 72
     1
 10
16.16000010803458
 20
-23.71800904644092
 11
12.66000000000116
 21
-24.30134239777982
 72
     1
 10
12.66000000000116
 20
-24.30134239777982
 11
16.16000010803458
 21
-24.88467574911873
 97
        0
 75
     0
 76
     1
 98
        0
  0
LINE
  5
171
330
16E
100
AcDbEntity
  8
SK2
  6
Continuous
 62
   136
100
AcDbLine
 10
0.0
 20
-15.9996745287
 30
0.0
 11
0.0
 21
-26.0513424518
 31
0.0
  0
LINE
  5
172
330
16E
100
AcDbEntity
  8
SK2
  6
Continuous
 62
   136
100
AcDbLine
 10
12.66
 20
-12.1800202475
 30
0.0
 11
12.66
 21
-26.0513424518
 31
0.0
  0
LINE
  5
173
330
16E
100
AcDbEntity
  8
SK2
  6
Continuous
 62
   136
100
AcDbLine
 10
-7.0000002161
 20
-24.3013423978
 30
0.0
 11
19.659999758
 21
-24.3013423978
 31
0.0
  0
TEXT
  5
174
330
16E
100
AcDbEntity
  8
SK2
  6
Continuous
 62
   136
100
AcDbText
 10
2.0743179528
 20
-23.4263423978
 30
0.0
 40
3.5
  1
12,66
  7
SEACAD_Solid_Edge_ISO
 11
2.0743179528
 21
-19.9263423978
 31
0.0
100
AcDbText
 73
     3
  0
ENDBLK
  5
176
330
16E
100
AcDbEntity
  8
0
100
AcDbBlockEnd
  0
BLOCK
  5
180
330
178
100
AcDbEntity
  8
0
100
AcDbBlockBegin
  2
DMBLK92
 70
     0
 10
0.0
 20
0.0
 30
0.0
  3
DMBLK92
  1

  0
HATCH
  5
179
330
178
100
AcDbEntity
  8
SK2
  6
Continuous
 62
   136
100
AcDbHatch
 10
0.0
 20
0.0
 30
0.0
210
0.0
220
0.0
230
1.0
  2
SOLID
 70
     1
 71
     0
 91
        1
 92
        1
 93
        3
 72
     1
 10
-35.49975288721422
 20
12.49967462019677
 11
-34.33308618453642
 21
12.49967462019677
 72
     1
 10
-34.33308618453642
 20
12.49967462019677
 11
-34.91641953587532
 21
15.99967472823019
 72
     1
 10
-34.91641953587532
 20
15.99967472823019
 11
-35.49975288721422
 21
12.49967462019677
 97
        0
 75
     0
 76
     1
 98
        0
  0
HATCH
  5
17A
330
178
100
AcDbEntity
  8
SK2
  6
Continuous
 62
   136
100
AcDbHatch
 10
0.0
 20
0.0
 30
0.0
210
0.0
220
0.0
230
1.0
  2
SOLID
 70
     1
 71
     0
 91
        1
 92
        1
 93
        3
 72
     1
 10
-35.49975288721422
 20
-12.49967475785261
 11
-34.91641953587532
 21
-15.99967486588602
 72
     1
 10
-34.91641953587532
 20
-15.99967486588602
 11
-34.33308618453642
 21
-12.49967475785261
 72
     1
 10
-34.33308618453642
 20
-12.49967475785261
 11
-35.49975288721422
 21
-12.49967475785261
 97
        0
 75
     0
 76
     1
 98
        0
  0
LINE
  5
17B
330
178
100
AcDbEntity
  8
SK2
  6
Continuous
 62
   136
100
AcDbLine
 10
0.0
 20
15.9996747282
 30
0.0
 11
-36.6664195899
 21
15.9996747282
 31
0.0
  0
LINE
  5
17C
330
178
100
AcDbEntity
  8
SK2
  6
Continuous
 62
   136
100
AcDbLine
 10
0.0
 20
-15.9996745287
 30
0.0
 11
-36.6664195899
 21
-15.9996745287
 31
0.0
  0
LINE
  5
17D
330
178
100
AcDbEntity
  8
SK2
  6
Continuous
 62
   136
100
AcDbLine
 10
-34.9164195359
 20
15.9996747282
 30
0.0
 11
-34.9164195359
 21
-15.9996748659
 31
0.0
  0
TEXT
  5
17E
330
178
100
AcDbEntity
  8
SK2
  6
Continuous
 62
   136
100
AcDbText
 10
-35.7914195359
 20
0.0477272039
 30
0.0
 40
3.5
  1
32
 50
90.0
  7
SEACAD_Solid_Edge_ISO
 11
-39.2914195359
 21
0.0477272039
 31
0.0
100
AcDbText
 73
     3
  0
TEXT
  5
17F
330
178
100
AcDbEntity
  8
SK2
  6
Continuous
 62
   136
100
AcDbText
 10
-35.7914195359
 20
-4.0250000688
 30
0.0
 40
3.5
  1
ø
 50
90.0
  7
SEACAD_Solid_Edge_ISO
 11
-39.2914195359
 21
-4.0250000688
 31
0.0
100
AcDbText
 73
     3
  0
ENDBLK
  5
181
330
178
100
AcDbEntity
  8
0
100
AcDbBlockEnd
  0
ENDSEC
  0
SECTION
  2
ENTITIES
  0
LINE
  5
40
330
1F
100
AcDbEntity
  8
SK1
  6
Continuous
100
AcDbLine
 10
3.76
 20
13.3305045976
 30
0.0
 11
3.76
 21
5.9546327362
 31
0.0
  0
LINE
  5
41
330
1F
100
AcDbEntity
  8
SK1
  6
Continuous
100
AcDbLine
 10
6.96
 20
-14.5999999002
 30
0.0
 11
6.96
 21
-13.6366511439
 31
0.0
  0
LINE
  5
42
330
1F
100
AcDbEntity
  8
SK1
  6
Continuous
100
AcDbLine
 10
3.56
 20
15.9823343165
 30
0.0
 11
3.56
 21
14.9141997093
 31
0.0
  0
LINE
  5
43
330
1F
100
AcDbEntity
  8
SK1
  6
Continuous
100
AcDbLine
 10
3.0473721046
 20
15.32602499
 30
0.0
 11
3.0473721046
 21
16.4279549475
 31
0.0
  0
LINE
  5
44
330
1F
100
AcDbEntity
  8
SK1
  6
Continuous
100
AcDbLine
 10
12.535
 20
-13.5717422033
 30
0.0
 11
12.535
 21
-12.6862811235
 31
0.0
  0
LINE
  5
45
330
1F
100
AcDbEntity
  8
SK1
  6
Continuous
100
AcDbLine
 10
7.4631088913
 20
16.5000000998
 30
0.0
 11
7.4631088913
 21
15.3926056849
 31
0.0
  0
LINE
  5
46
330
1F
100
AcDbEntity
  8
SK1
  6
Continuous
100
AcDbLine
 10
7.16
 20
16.5000000998
 30
0.0
 11
7.16
 21
15.3926056849
 31
0.0
  0
LINE
  5
47
330
1F
100
AcDbEntity
  8
SK1
  6
Continuous
100
AcDbLine
 10
7.4631088913
 20
-16.4999999002
 30
0.0
 11
7.4631088913
 21
-15.3926054854
 31
0.0
  0
LINE
  5
48
330
1F
100
AcDbEntity
  8
SK1
  6
Continuous
100
AcDbLine
 10
7.16
 20
-16.4999999002
 30
0.0
 11
7.16
 21
-15.3926054854
 31
0.0
  0
LINE
  5
49
330
1F
100
AcDbEntity
  8
SK1
  6
Continuous
100
AcDbLine
 10
7.4631088913
 20
15.3926056849
 30
0.0
 11
7.16
 21
15.3926056849
 31
0.0
  0
LINE
  5
4A
330
1F
100
AcDbEntity
  8
SK1
  6
Continuous
100
AcDbLine
 10
7.4631088913
 20
15.086458939
 30
0.0
 11
7.16
 21
15.086458939
 31
0.0
  0
LINE
  5
4B
330
1F
100
AcDbEntity
  8
SK1
  6
Continuous
100
AcDbLine
 10
12.66
 20
12.180020447
 30
0.0
 11
12.66
 21
5.4780865977
 31
0.0
  0
LINE
  5
4C
330
1F
100
AcDbEntity
  8
SK1
  6
Continuous
100
AcDbLine
 10
12.535
 20
13.5717424029
 30
0.0
 11
12.535
 21
12.6862813231
 31
0.0
  0
LINE
  5
4D
330
1F
100
AcDbEntity
  8
SK1
  6
Continuous
100
AcDbLine
 10
3.56
 20
-15.982334117
 30
0.0
 11
3.56
 21
-14.9141995098
 31
0.0
  0
LINE
  5
4E
330
1F
100
AcDbEntity
  8
SK1
  6
Continuous
100
AcDbLine
 10
3.0473721046
 20
-15.3260247905
 30
0.0
 11
3.0473721046
 21
-16.4279547479
 31
0.0
  0
LINE
  5
4F
330
1F
100
AcDbEntity
  8
SK1
  6
Continuous
100
AcDbLine
 10
6.96
 20
14.6000000998
 30
0.0
 11
6.96
 21
13.6366513435
 31
0.0
  0
ARC
  5
50
330
1F
100
AcDbEntity
  8
SK1
  6
Continuous
100
AcDbCircle
 10
3.7527009685
 20
13.5232284246
 30
0.0
 40
0.1928619956239739
100
AcDbArc
 50
182.3414991378
 51
272.1689270375
  0
LINE
  5
51
330
1F
100
AcDbEntity
  8
SK1
  6
Continuous
100
AcDbLine
 10
3.76
 20
13.3305045976
 30
0.0
 11
6.96
 21
13.3305045976
 31
0.0
  0
ARC
  5
52
330
1F
100
AcDbEntity
  8
SK1
  6
Continuous
100
AcDbCircle
 10
6.9672932853
 20
13.5232346419
 30
0.0
 40
0.1928679911219366
100
AcDbArc
 50
267.8328486851
 51
357.6567251494
  0
LINE
  5
55
330
1F
100
AcDbEntity
  8
SK3
100
AcDbLine
 10
12.26
 20
8.1536261975
 30
0.0
 11
-22.5069494104
 21
8.1536261975
 31
0.0
  0
ARC
  5
56
330
1F
100
AcDbEntity
  8
SK3
100
AcDbCircle
 10
12.2744930533
 20
8.8453251359
 30
0.0
 40
0.385824496079526
100
AcDbArc
 50
267.8472434923
 51
357.6752399455
  0
LINE
  5
57
330
1F
100
AcDbEntity
  8
SK1
  6
Continuous
100
AcDbLine
 10
12.66
 20
12.180020447
 30
0.0
 11
12.66
 21
12.4861671929
 31
0.0
  0
ARC
  5
58
330
1F
100
AcDbEntity
  8
SK1
  6
Continuous
100
AcDbCircle
 10
12.4315505616
 20
12.4825650122
 30
0.0
 40
0.2284778361298263
100
AcDbArc
 50
0.9033624596
 51
63.0780264505
  0
LINE
  5
59
330
1F
100
AcDbEntity
  8
SK1
  6
Continuous
100
AcDbLine
 10
12.535
 20
12.6862813231
 30
0.0
 11
7.4631088913
 21
15.3926056849
 31
0.0
  0
ARC
  5
5A
330
1F
100
AcDbEntity
  8
SK1
  6
Continuous
100
AcDbCircle
 10
3.12114953
 20
14.8928963004
 30
0.0
 40
0.4393672384933544
100
AcDbArc
 50
2.779165305
 51
99.6667570996
  0
SPLINE
  5
5B
330
1F
100
AcDbEntity
  8
SK1
  6
Continuous
100
AcDbSpline
210
0.0
220
0.0
230
1.0
 70
     8
 71
     3
 72
    14
 73
    10
 74
     0
 42
0.0000000003971097
 43
0.0000000001
 12
1.0
 22
0.0
 32
0.0
 13
1.0
 23
0.0
 33
0.0
 40
0.0
 40
0.0
 40
0.0
 40
0.0
 40
0.0174031987399629
 40
0.0174031987399629
 40
0.0174031987399629
 40
0.933118748361747
 40
0.933118748361747
 40
0.933118748361747
 40
1.0
 40
1.0
 40
1.0
 40
1.0
 10
3.047372104567941
 20
15.32602498999471
 30
0.0
 10
2.902506612833673
 20
15.30720967056464
 30
0.0
 10
2.757641124195291
 20
15.288394330789
 30
0.0
 10
2.612775638687781
 20
15.26957897043799
 30
0.0
 10
-5.009706851943902
 20
14.2795587849667
 30
0.0
 10
-12.63218119349327
 20
13.28948504023617
 30
0.0
 10
-20.25463946823026
 20
12.29930572625129
 30
0.0
 10
-20.81136207736722
 20
12.2269858536687
 30
0.0
 10
-21.36808459738507
 20
12.1546653955081
 30
0.0
 10
-21.92480702332896
 20
12.08234431922829
 30
0.0
  0
ARC
  5
5C
330
1F
100
AcDbEntity
  8
SK1
  6
Continuous
100
AcDbCircle
 10
3.12114953
 20
14.5867495545
 30
0.0
 40
0.4393672384933544
100
AcDbArc
 50
2.779165305
 51
99.6667570996
  0
SPLINE
  5
5D
330
1F
100
AcDbEntity
  8
SK1
  6
Continuous
100
AcDbSpline
210
0.0
220
0.0
230
1.0
 70
     8
 71
     3
 72
    14
 73
    10
 74
     0
 42
0.0000000003971097
 43
0.0000000001
 12
1.0
 22
0.0
 32
0.0
 13
1.0
 23
0.0
 33
0.0
 40
0.0
 40
0.0
 40
0.0
 40
0.0
 40
0.0174031987399629
 40
0.0174031987399629
 40
0.0174031987399629
 40
0.933118748361747
 40
0.933118748361747
 40
0.933118748361747
 40
1.0
 40
1.0
 40
1.0
 40
1.0
 10
3.047372104567941
 20
15.01987824410263
 30
0.0
 10
2.902506612833673
 20
15.00106292467257
 30
0.0
 10
2.757641124195291
 20
14.98224758489693
 30
0.0
 10
2.612775638687781
 20
14.96343222454592
 30
0.0
 10
-5.009706851943902
 20
13.97341203907463
 30
0.0
 10
-12.63218119349327
 20
12.9833382943441
 30
0.0
 10
-20.25463946823026
 20
11.99315898035922
 30
0.0
 10
-20.81136207736722
 20
11.92083910777663
 30
0.0
 10
-21.36808459738507
 20
11.84851864961603
 30
0.0
 10
-21.92480702332896
 20
11.77619757333622
 30
0.0
  0
ARC
  5
5E
330
1F
100
AcDbEntity
  8
SK3
100
AcDbCircle
 10
12.2744930533
 20
8.53917839
 30
0.0
 40
0.3858244960795257
100
AcDbArc
 50
267.8472434923
 51
357.6752399455
  0
ARC
  5
5F
330
1F
100
AcDbEntity
  8
SK1
  6
Continuous
100
AcDbCircle
 10
12.4315505616
 20
12.1764182663
 30
0.0
 40
0.2284778361298307
100
AcDbArc
 50
0.9033624596
 51
63.0780264505
  0
LINE
  5
60
330
1F
100
AcDbEntity
  8
SK1
  6
Continuous
100
AcDbLine
 10
12.535
 20
12.3801345772
 30
0.0
 11
7.4631088913
 21
15.086458939
 31
0.0
  0
LINE
  5
61
330
1F
100
AcDbEntity
  8
SK1
  6
Continuous
100
AcDbLine
 10
3.56
 20
14.9141997093
 30
0.0
 11
3.56
 21
14.6080529634
 31
0.0
  0
ARC
  5
62
330
1F
100
AcDbEntity
  8
SK1
  6
Continuous
100
AcDbCircle
 10
3.7527009685
 20
13.8293751705
 30
0.0
 40
0.1928619956239735
100
AcDbArc
 50
182.3414991378
 51
272.1689270375
  0
LINE
  5
63
330
1F
100
AcDbEntity
  8
SK1
  6
Continuous
100
AcDbLine
 10
3.76
 20
13.6366513435
 30
0.0
 11
6.96
 21
13.6366513435
 31
0.0
  0
ARC
  5
64
330
1F
100
AcDbEntity
  8
SK1
  6
Continuous
100
AcDbCircle
 10
6.9672932853
 20
13.8293813878
 30
0.0
 40
0.1928679911219366
100
AcDbArc
 50
267.8328486851
 51
357.6567251494
  0
LINE
  5
65
330
1F
100
AcDbEntity
  8
SK1
  6
Continuous
100
AcDbLine
 10
7.16
 20
15.086458939
 30
0.0
 11
7.16
 21
15.3926056849
 31
0.0
  0
LINE
  5
66
330
1F
100
AcDbEntity
  8
SK3
100
AcDbLine
 10
12.26
 20
8.4597729434
 30
0.0
 11
-22.5069494104
 21
8.4597729434
 31
0.0
  0
LINE
  5
67
330
1F
100
AcDbEntity
  8
SK1
  6
Continuous
100
AcDbLine
 10
-27.0817519303
 20
12.1870201126
 30
0.0
 11
-27.0817519303
 21
8.9003673058
 31
0.0
  0
LINE
  5
68
330
1F
100
AcDbEntity
  8
SK1
  6
Continuous
100
AcDbLine
 10
-27.34
 20
-11.8897755192
 30
0.0
 11
-27.34
 21
-8.6901835797
 31
0.0
  0
SPLINE
  5
69
330
1F
100
AcDbEntity
  8
SK1
  6
Continuous
100
AcDbSpline
210
0.0
220
0.0
230
1.0
 70
     8
 71
     3
 72
    10
 73
     6
 74
     0
 42
0.000000022804885
 43
0.0000000001
 12
1.0
 22
0.0
 32
0.0
 13
1.0
 23
0.0
 33
0.0
 40
0.0
 40
0.0
 40
0.0
 40
0.0
 40
0.5
 40
0.5
 40
1.0
 40
1.0
 40
1.0
 40
1.0
 10
-27.34000000000013
 20
-11.88977551921636
 30
0.0
 10
-27.34
 20
-11.96123664509199
 30
0.0
 10
-27.31325218560487
 20
-12.03271861875489
 30
0.0
 10
-27.21983457328357
 20
-12.14038628228183
 30
0.0
 10
-27.1532676169232
 20
-12.17696362646717
 30
0.0
 10
-27.08175193028801
 20
-12.18701991305817
 30
0.0
  0
SPLINE
  5
6A
330
1F
100
AcDbEntity
  8
SK1
  6
Continuous
100
AcDbSpline
210
0.0
220
0.0
230
1.0
 70
     8
 71
     3
 72
    10
 73
     6
 74
     0
 42
0.0000000228012562
 43
0.0000000001
 12
1.0
 22
0.0
 32
0.0
 13
1.0
 23
0.0
 33
0.0
 40
0.0
 40
0.0
 40
0.0
 40
0.0
 40
0.5
 40
0.5
 40
1.0
 40
1.0
 40
1.0
 40
1.0
 10
-27.08175193028801
 20
12.18702011259956
 30
0.0
 10
-27.15329203371258
 20
12.17696039260168
 30
0.0
 10
-27.21937890303853
 20
12.14086400426049
 30
0.0
 10
-27.31353686662996
 20
12.03243828152373
 30
0.0
 10
-27.34
 20
11.9612655161153
 30
0.0
 10
-27.34000000000013
 20
11.88977571875777
 30
0.0
  0
LINE
  5
6B
330
1F
100
AcDbEntity
  8
SK3
100
AcDbLine
 10
-26.4141669751
 20
-8.9911066174
 30
0.0
 11
-26.4141669751
 21
-6.6405151428
 31
0.0
  0
LINE
  5
6C
330
1F
100
AcDbEntity
  8
SK3
100
AcDbLine
 10
-26.4141669751
 20
-8.9911066174
 30
0.0
 11
-2.6582609509
 21
-8.9911066174
 31
0.0
  0
LINE
  5
6D
330
1F
100
AcDbEntity
  8
SK3
100
AcDbLine
 10
-27.34
 20
9.5261357955
 30
0.0
 11
-26.4141669751
 21
8.991106817
 31
0.0
  0
SPLINE
  5
6E
330
1F
100
AcDbEntity
  8
SK1
  6
Continuous
100
AcDbSpline
210
0.0
220
0.0
230
1.0
 70
     8
 71
     3
 72
    11
 73
     7
 74
     0
 42
0.0000000004241712
 43
0.0000000001
 12
1.0
 22
0.0
 32
0.0
 13
1.0
 23
0.0
 33
0.0
 40
0.0
 40
0.0
 40
0.0
 40
0.0
 40
0.9080456425272275
 40
0.9080456425272275
 40
0.9080456425272275
 40
1.0
 40
1.0
 40
1.0
 40
1.0
 10
-27.08175193028801
 20
-12.18701991305817
 30
0.0
 10
-20.01542884374032
 20
-13.1806616365447
 30
0.0
 10
-12.94908842150804
 20
-14.1741800779889
 30
0.0
 10
-5.882739207699522
 20
-15.16763597869006
 30
0.0
 10
-5.167156673908215
 20
-15.26823951088523
 30
0.0
 10
-4.451574044249449
 20
-15.36884236118718
 30
0.0
 10
-3.735991324228685
 20
-15.46944456874255
 30
0.0
  0
LINE
  5
6F
330
1F
100
AcDbEntity
  8
SK3
100
AcDbLine
 10
-26.4141669751
 20
-8.9911066174
 30
0.0
 11
-27.34
 21
-9.526135596
 31
0.0
  0
LINE
  5
70
330
1F
100
AcDbEntity
  8
SK1
  6
Continuous
100
AcDbLine
 10
12.66
 20
12.4861671929
 30
0.0
 11
12.66
 21
13.3552360519
 31
0.0
  0
LINE
  5
71
330
1F
100
AcDbEntity
  8
SK1
  6
Continuous
100
AcDbLine
 10
3.76
 20
14.6000000998
 30
0.0
 11
3.76
 21
13.6366513435
 31
0.0
  0
LINE
  5
72
330
1F
100
AcDbEntity
  8
SK1
  6
Continuous
100
AcDbLine
 10
7.16
 20
-15.0864587395
 30
0.0
 11
7.16
 21
-6.6819726397
 31
0.0
  0
LINE
  5
73
330
1F
100
AcDbEntity
  8
SK1
  6
Continuous
100
AcDbLine
 10
7.4631088913
 20
-15.0864587395
 30
0.0
 11
7.4631088913
 21
-6.6819726397
 31
0.0
  0
LINE
  5
74
330
1F
100
AcDbEntity
  8
SK1
  6
Continuous
100
AcDbLine
 10
12.535
 20
-12.3801343776
 30
0.0
 11
12.535
 21
-5.5609763849
 31
0.0
  0
LINE
  5
75
330
1F
100
AcDbEntity
  8
SK1
  6
Continuous
100
AcDbLine
 10
12.66
 20
-12.4861669934
 30
0.0
 11
12.66
 21
-13.3552358524
 31
0.0
  0
LINE
  5
76
330
1F
100
AcDbEntity
  8
SK1
  6
Continuous
100
AcDbLine
 10
3.0473721046
 20
-15.0198780446
 30
0.0
 11
3.0473721046
 21
-6.6543940129
 31
0.0
  0
LINE
  5
77
330
1F
100
AcDbEntity
  8
SK1
  6
Continuous
100
AcDbLine
 10
3.56
 20
-14.6080527639
 30
0.0
 11
3.56
 21
-6.4838103963
 31
0.0
  0
LINE
  5
78
330
1F
100
AcDbEntity
  8
SK1
  6
Continuous
100
AcDbLine
 10
6.96
 20
-13.330504398
 30
0.0
 11
6.96
 21
-5.9546325366
 31
0.0
  0
LINE
  5
79
330
1F
100
AcDbEntity
  8
SK1
  6
Continuous
100
AcDbLine
 10
3.76
 20
-13.6366511439
 30
0.0
 11
3.76
 21
-14.5999999002
 31
0.0
  0
ARC
  5
7A
330
1F
100
AcDbEntity
  8
SK1
  6
Continuous
100
AcDbCircle
 10
6.967295287
 20
-13.5232322765
 30
0.0
 40
0.1928659025472753
100
AcDbArc
 50
2.3426562868
 51
92.1677698787
  0
LINE
  5
7B
330
1F
100
AcDbEntity
  8
SK1
  6
Continuous
100
AcDbLine
 10
6.96
 20
-13.330504398
 30
0.0
 11
3.76
 21
-13.330504398
 31
0.0
  0
ARC
  5
7C
330
1F
100
AcDbEntity
  8
SK1
  6
Continuous
100
AcDbCircle
 10
3.7527050682
 20
-13.5232326608
 30
0.0
 40
0.1928662731557809
100
AcDbArc
 50
87.8323398835
 51
177.6572339504
  0
ARC
  5
7D
330
1F
100
AcDbEntity
  8
SK1
  6
Continuous
100
AcDbCircle
 10
3.1211335529
 20
-14.5867294672
 30
0.0
 40
0.4393841614716062
100
AcDbArc
 50
260.3357322026
 51
357.2183453926
  0
LINE
  5
7E
330
1F
100
AcDbEntity
  8
SK1
  6
Continuous
100
AcDbLine
 10
7.16
 20
-15.0864587395
 30
0.0
 11
7.4631088913
 21
-15.0864587395
 31
0.0
  0
LINE
  5
7F
330
1F
100
AcDbEntity
  8
SK1
  6
Continuous
100
AcDbLine
 10
7.4631088913
 20
-15.0864587395
 30
0.0
 11
12.535
 21
-12.3801343776
 31
0.0
  0
ARC
  5
80
330
1F
100
AcDbEntity
  8
SK1
  6
Continuous
100
AcDbCircle
 10
12.4286867999
 20
-12.1746292365
 30
0.0
 40
0.2313760133481173
100
AcDbArc
 50
297.3537111502
 51
358.6648999396
  0
ARC
  5
81
330
1F
100
AcDbEntity
  8
SK3
100
AcDbCircle
 10
12.2744902945
 20
-8.5391811738
 30
0.0
 40
0.3858273736271906
100
AcDbArc
 50
2.3251860915
 51
92.1523304712
  0
ARC
  5
82
330
1F
100
AcDbEntity
  8
SK1
  6
Continuous
100
AcDbCircle
 10
3.1211335529
 20
-14.8928762131
 30
0.0
 40
0.4393841614716029
100
AcDbArc
 50
260.3357322026
 51
357.2183453926
  0
LINE
  5
83
330
1F
100
AcDbEntity
  8
SK1
  6
Continuous
100
AcDbLine
 10
7.16
 20
-15.3926054854
 30
0.0
 11
7.4631088913
 21
-15.3926054854
 31
0.0
  0
LINE
  5
84
330
1F
100
AcDbEntity
  8
SK1
  6
Continuous
100
AcDbLine
 10
7.4631088913
 20
-15.3926054854
 30
0.0
 11
12.535
 21
-12.6862811235
 31
0.0
  0
ARC
  5
85
330
1F
100
AcDbEntity
  8
SK1
  6
Continuous
100
AcDbCircle
 10
12.4286867999
 20
-12.4807759824
 30
0.0
 40
0.2313760133482017
100
AcDbArc
 50
297.3537111502
 51
358.6648999396
  0
LINE
  5
86
330
1F
100
AcDbEntity
  8
SK1
  6
Continuous
100
AcDbLine
 10
12.66
 20
-12.4861669934
 30
0.0
 11
12.66
 21
-12.1800202475
 31
0.0
  0
ARC
  5
87
330
1F
100
AcDbEntity
  8
SK3
100
AcDbCircle
 10
12.2744902945
 20
-8.8453279196
 30
0.0
 40
0.385827373627194
100
AcDbArc
 50
2.3251860915
 51
92.1523304712
  0
LINE
  5
88
330
1F
100
AcDbEntity
  8
SK1
  6
Continuous
100
AcDbLine
 10
7.16
 20
-15.3926054854
 30
0.0
 11
7.16
 21
-15.0864587395
 31
0.0
  0
ARC
  5
89
330
1F
100
AcDbEntity
  8
SK1
  6
Continuous
100
AcDbCircle
 10
6.967295287
 20
-13.8293790224
 30
0.0
 40
0.1928659025472801
100
AcDbArc
 50
2.3426562868
 51
92.1677698787
  0
LINE
  5
8A
330
1F
100
AcDbEntity
  8
SK1
  6
Continuous
100
AcDbLine
 10
6.96
 20
-13.6366511439
 30
0.0
 11
3.76
 21
-13.6366511439
 31
0.0
  0
ARC
  5
8B
330
1F
100
AcDbEntity
  8
SK1
  6
Continuous
100
AcDbCircle
 10
3.7527050682
 20
-13.8293794067
 30
0.0
 40
0.1928662731557781
100
AcDbArc
 50
87.8323398835
 51
177.6572339504
  0
LINE
  5
8C
330
1F
100
AcDbEntity
  8
SK1
  6
Continuous
100
AcDbLine
 10
3.56
 20
-14.6080527639
 30
0.0
 11
3.56
 21
-14.9141995098
 31
0.0
  0
LINE
  5
8D
330
1F
100
AcDbEntity
  8
SK1
  6
Continuous
100
AcDbLine
 10
-27.0817519303
 20
-8.9003671062
 30
0.0
 11
-27.0817519303
 21
-12.1870199131
 31
0.0
  0
LINE
  5
8E
330
1F
100
AcDbEntity
  8
SK1
  6
Continuous
100
AcDbLine
 10
-27.34
 20
-8.1244981547
 30
0.0
 11
-27.34
 21
-0.3999999002
 31
0.0
  0
LINE
  5
8F
330
1F
100
AcDbEntity
  8
SK3
100
AcDbLine
 10
-26.4141669751
 20
-6.0748297179
 30
0.0
 11
-26.4141669751
 21
-0.3999999002
 31
0.0
  0
LINE
  5
90
330
1F
100
AcDbEntity
  8
SK3
100
AcDbLine
 10
-26.4141669751
 20
-6.0748297179
 30
0.0
 11
-2.6582609509
 21
-6.0748297179
 31
0.0
  0
SPLINE
  5
91
330
1F
100
AcDbEntity
  8
SK1
  6
Continuous
100
AcDbSpline
210
0.0
220
0.0
230
1.0
 70
     8
 71
     3
 72
    10
 73
     6
 74
     0
 42
0.0000000269170392
 43
0.0000000001
 12
1.0
 22
0.0
 32
0.0
 13
1.0
 23
0.0
 33
0.0
 40
0.0
 40
0.0
 40
0.0
 40
0.0
 40
0.5
 40
0.5
 40
1.0
 40
1.0
 40
1.0
 40
1.0
 10
-27.34000000000013
 20
-8.12449815472691
 30
0.0
 10
-27.34
 20
-8.17502880142479
 30
0.0
 10
-27.31325218560487
 20
-8.225574189734427
 30
0.0
 10
-27.21983457328357
 20
-8.30170672472884
 30
0.0
 10
-27.1532676169232
 20
-8.327570812840081
 30
0.0
 10
-27.08175193028801
 20
-8.334681681282136
 30
0.0
  0
LINE
  5
92
330
1F
100
AcDbEntity
  8
SK1
  6
Continuous
100
AcDbLine
 10
-27.0817519303
 20
-8.3346816813
 30
0.0
 11
-3.7359913242
 21
-10.6557064141
 31
0.0
  0
LINE
  5
93
330
1F
100
AcDbEntity
  8
SK3
100
AcDbLine
 10
-26.4141669751
 20
-6.0748297179
 30
0.0
 11
-27.34
 21
-6.4531523367
 31
0.0
  0
SPLINE
  5
94
330
1F
100
AcDbEntity
  8
SK1
  6
Continuous
100
AcDbSpline
210
0.0
220
0.0
230
1.0
 70
     8
 71
     3
 72
    10
 73
     6
 74
     0
 42
0.0000000269170392
 43
0.0000000001
 12
1.0
 22
0.0
 32
0.0
 13
1.0
 23
0.0
 33
0.0
 40
0.0
 40
0.0
 40
0.0
 40
0.0
 40
0.5
 40
0.5
 40
1.0
 40
1.0
 40
1.0
 40
1.0
 10
-27.34
 20
-8.690183579676154
 30
0.0
 10
-27.34
 20
-8.740714226374042
 30
0.0
 10
-27.31325218560486
 20
-8.791259614683673
 30
0.0
 10
-27.21983457328356
 20
-8.867392149678079
 30
0.0
 10
-27.15326761692319
 20
-8.893256237789318
 30
0.0
 10
-27.08175193028801
 20
-8.900367106231377
 30
0.0
  0
LINE
  5
95
330
1F
100
AcDbEntity
  8
SK1
  6
Continuous
100
AcDbLine
 10
-27.0817519303
 20
-8.9003671062
 30
0.0
 11
-3.7359913242
 21
-11.221391839
 31
0.0
  0
LINE
  5
96
330
1F
100
AcDbEntity
  8
SK3
100
AcDbLine
 10
-26.4141669751
 20
-6.6405151428
 30
0.0
 11
-27.34
 21
-7.0188377617
 31
0.0
  0
LINE
  5
97
330
1F
100
AcDbEntity
  8
SK1
  6
Continuous
100
AcDbLine
 10
-27.34
 20
-8.1244981547
 30
0.0
 11
-27.34
 21
-8.6901835797
 31
0.0
  0
LINE
  5
98
330
1F
100
AcDbEntity
  8
SK3
100
AcDbLine
 10
-26.4141669751
 20
-6.6405151428
 30
0.0
 11
-2.6582609509
 21
-6.6405151428
 31
0.0
  0
LINE
  5
99
330
1F
100
AcDbEntity
  8
SK1
  6
Continuous
100
AcDbLine
 10
7.16
 20
-5.9428690137
 30
0.0
 11
7.16
 21
5.9428692133
 31
0.0
  0
LINE
  5
9A
330
1F
100
AcDbEntity
  8
SK1
  6
Continuous
100
AcDbLine
 10
7.4631088913
 20
-5.9428690137
 30
0.0
 11
7.4631088913
 21
5.9428692133
 31
0.0
  0
LINE
  5
9B
330
1F
100
AcDbEntity
  8
SK1
  6
Continuous
100
AcDbLine
 10
12.535
 20
-4.8218727589
 30
0.0
 11
12.535
 21
4.8218729584
 31
0.0
  0
LINE
  5
9C
330
1F
100
AcDbEntity
  8
SK1
  6
Continuous
100
AcDbLine
 10
12.66
 20
-5.4780863982
 30
0.0
 11
12.66
 21
-12.1800202475
 31
0.0
  0
LINE
  5
9D
330
1F
100
AcDbEntity
  8
SK1
  6
Continuous
100
AcDbLine
 10
3.0473721046
 20
-5.9152903869
 30
0.0
 11
3.0473721046
 21
5.9152905865
 31
0.0
  0
LINE
  5
9E
330
1F
100
AcDbEntity
  8
SK1
  6
Continuous
100
AcDbLine
 10
3.56
 20
-5.7447067703
 30
0.0
 11
3.56
 21
5.7447069699
 31
0.0
  0
LINE
  5
9F
330
1F
100
AcDbEntity
  8
SK1
  6
Continuous
100
AcDbLine
 10
6.96
 20
-5.2155289106
 30
0.0
 11
6.96
 21
5.2155291101
 31
0.0
  0
LINE
  5
A0
330
1F
100
AcDbEntity
  8
SK1
  6
Continuous
100
AcDbLine
 10
3.76
 20
-5.9546325366
 30
0.0
 11
3.76
 21
-13.330504398
 31
0.0
  0
SPLINE
  5
A1
330
1F
100
AcDbEntity
  8
SK1
  6
Continuous
100
AcDbSpline
210
0.0
220
0.0
230
1.0
 70
     8
 71
     3
 72
    10
 73
     6
 74
     0
 42
0.0000000427826839
 43
0.0000000001
 12
1.0
 22
0.0
 32
0.0
 13
1.0
 23
0.0
 33
0.0
 40
0.0
 40
0.0
 40
0.0
 40
0.0
 40
0.5
 40
0.5
 40
1.0
 40
1.0
 40
1.0
 40
1.0
 10
7.16000000000001
 20
-5.292093949246199
 30
0.0
 10
7.160000000000012
 20
-5.272081366280502
 30
0.0
 10
7.138635819677392
 20
-5.252199598034982
 30
0.0
 10
7.064192627192708
 20
-5.2237036837527
 30
0.0
 10
7.012249111975049
 20
-5.215528910599919
 30
0.0
 10
6.960000000000025
 20
-5.215528910599849
 30
0.0
  0
LINE
  5
A2
330
1F
100
AcDbEntity
  8
SK1
  6
Continuous
100
AcDbLine
 10
6.96
 20
-5.2155289106
 30
0.0
 11
3.76
 21
-5.2155289106
 31
0.0
  0
SPLINE
  5
A3
330
1F
100
AcDbEntity
  8
SK1
  6
Continuous
100
AcDbSpline
210
0.0
220
0.0
230
1.0
 70
     8
 71
     3
 72
    10
 73
     6
 74
     0
 42
0.0000000427930393
 43
0.0000000001
 12
1.0
 22
0.0
 32
0.0
 13
1.0
 23
0.0
 33
0.0
 40
0.0
 40
0.0
 40
0.0
 40
0.0
 40
0.5
 40
0.5
 40
1.0
 40
1.0
 40
1.0
 40
1.0
 10
3.760000000000008
 20
-5.215528910599917
 30
0.0
 10
3.707859588765454
 20
-5.215528910599916
 30
0.0
 10
3.655643858538258
 20
-5.223792044383782
 30
0.0
 10
3.581785416292862
 20
-5.252012674594297
 30
0.0
 10
3.560000000000448
 20
-5.272150050518227
 30
0.0
 10
3.559999999989989
 20
-5.292093949245683
 30
0.0
  0
SPLINE
  5
A4
330
1F
100
AcDbEntity
  8
SK1
  6
Continuous
100
AcDbSpline
210
0.0
220
0.0
230
1.0
 70
     8
 71
     3
 72
    10
 73
     6
 74
     0
 42
0.0000000169213589
 43
0.0000000001
 12
1.0
 22
0.0
 32
0.0
 13
1.0
 23
0.0
 33
0.0
 40
0.0
 40
0.0
 40
0.0
 40
0.0
 40
0.5
 40
0.5
 40
1.0
 40
1.0
 40
1.0
 40
1.0
 10
3.047372104567812
 20
-5.91529038691535
 30
0.0
 10
3.173819526776415
 20
-5.922093081062558
 30
0.0
 10
3.309218523067396
 20
-5.906702229863194
 30
0.0
 10
3.501666558321582
 20
-5.842580599249555
 30
0.0
 10
3.560000000000009
 20
-5.794032848316318
 30
0.0
 10
3.560000000000009
 20
-5.744706770316221
 30
0.0
  0
LINE
  5
A5
330
1F
100
AcDbEntity
  8
SK1
  6
Continuous
100
AcDbLine
 10
7.16
 20
-5.9428690137
 30
0.0
 11
7.4631088913
 21
-5.9428690137
 31
0.0
  0
SPLINE
  5
A6
330
1F
100
AcDbEntity
  8
SK1
  6
Continuous
100
AcDbSpline
210
0.0
220
0.0
230
1.0
 70
     8
 71
     3
 72
     8
 73
     4
 74
     0
 42
0.0000000019251887
 43
0.0000000001
 12
1.0
 22
0.0
 32
0.0
 13
1.0
 23
0.0
 33
0.0
 40
0.0
 40
0.0
 40
0.0
 40
0.0
 40
1.0
 40
1.0
 40
1.0
 40
1.0
 10
7.463108891324581
 20
-5.942869013737536
 30
0.0
 10
9.153766091781739
 20
-5.569221371969265
 30
0.0
 10
10.84440226444509
 20
-5.195559789107264
 30
0.0
 10
12.535
 20
-4.821872758885749
 30
0.0
  0
SPLINE
  5
A7
330
1F
100
AcDbEntity
  8
SK1
  6
Continuous
100
AcDbSpline
210
0.0
220
0.0
230
1.0
 70
     8
 71
     3
 72
    10
 73
     6
 74
     0
 42
0.0000000616220022
 43
0.0000000001
 12
1.0
 22
0.0
 32
0.0
 13
1.0
 23
0.0
 33
0.0
 40
0.0
 40
0.0
 40
0.0
 40
0.0
 40
0.5
 40
0.5
 40
1.0
 40
1.0
 40
1.0
 40
1.0
 10
12.535
 20
-4.821872758885749
 30
0.0
 10
12.57278451834513
 20
-4.813520929144238
 30
0.0
 10
12.60478782474132
 20
-4.801271806686358
 30
0.0
 10
12.64845197751802
 20
-4.772256384122049
 30
0.0
 10
12.66000000000005
 20
-4.755627240031737
 30
0.0
 10
12.66000000000155
 20
-4.738982772143364
 30
0.0
  0
SPLINE
  5
A8
330
1F
100
AcDbEntity
  8
SK3
100
AcDbSpline
210
0.0
220
0.0
230
1.0
 70
     8
 71
     3
 72
    10
 73
     6
 74
     0
 42
0.0000000213892856
 43
0.0000000001
 12
1.0
 22
0.0
 32
0.0
 13
1.0
 23
0.0
 33
0.0
 40
0.0
 40
0.0
 40
0.0
 40
0.0
 40
0.5
 40
0.5
 40
1.0
 40
1.0
 40
1.0
 40
1.0
 10
12.66
 20
-3.224413995476175
 30
0.0
 10
12.66000000000001
 20
-3.184179386318602
 30
0.0
 10
12.61643242469574
 20
-3.144237864324714
 30
0.0
 10
12.46900783640129
 20
-3.08781545598984
 30
0.0
 10
12.3652860091106
 20
-3.071195666522013
 30
0.0
 10
12.26000000000001
 20
-3.071195666522013
 30
0.0
  0
SPLINE
  5
A9
330
1F
100
AcDbEntity
  8
SK1
  6
Continuous
100
AcDbSpline
210
0.0
220
0.0
230
1.0
 70
     8
 71
     3
 72
    10
 73
     6
 74
     0
 42
0.0000000169213589
 43
0.0000000001
 12
1.0
 22
0.0
 32
0.0
 13
1.0
 23
0.0
 33
0.0
 40
0.0
 40
0.0
 40
0.0
 40
0.0
 40
0.5
 40
0.5
 40
1.0
 40
1.0
 40
1.0
 40
1.0
 10
3.047372104567812
 20
-6.654394012924381
 30
0.0
 10
3.173819526776414
 20
-6.661196707071588
 30
0.0
 10
3.309218523067398
 20
-6.645805855872227
 30
0.0
 10
3.501666558321586
 20
-6.581684225258585
 30
0.0
 10
3.560000000000009
 20
-6.533136474325347
 30
0.0
 10
3.560000000000009
 20
-6.483810396325251
 30
0.0
  0
LINE
  5
AA
330
1F
100
AcDbEntity
  8
SK1
  6
Continuous
100
AcDbLine
 10
7.16
 20
-6.6819726397
 30
0.0
 11
7.4631088913
 21
-6.6819726397
 31
0.0
  0
SPLINE
  5
AB
330
1F
100
AcDbEntity
  8
SK1
  6
Continuous
100
AcDbSpline
210
0.0
220
0.0
230
1.0
 70
     8
 71
     3
 72
     8
 73
     4
 74
     0
 42
0.0000000019251887
 43
0.0000000001
 12
1.0
 22
0.0
 32
0.0
 13
1.0
 23
0.0
 33
0.0
 40
0.0
 40
0.0
 40
0.0
 40
0.0
 40
1.0
 40
1.0
 40
1.0
 40
1.0
 10
7.463108891324581
 20
-6.681972639746566
 30
0.0
 10
9.153766091781739
 20
-6.308324997978294
 30
0.0
 10
10.84440226444509
 20
-5.934663415116294
 30
0.0
 10
12.535
 20
-5.560976384894778
 30
0.0
  0
SPLINE
  5
AC
330
1F
100
AcDbEntity
  8
SK1
  6
Continuous
100
AcDbSpline
210
0.0
220
0.0
230
1.0
 70
     8
 71
     3
 72
    10
 73
     6
 74
     0
 42
0.0000000616220022
 43
0.0000000001
 12
1.0
 22
0.0
 32
0.0
 13
1.0
 23
0.0
 33
0.0
 40
0.0
 40
0.0
 40
0.0
 40
0.0
 40
0.5
 40
0.5
 40
1.0
 40
1.0
 40
1.0
 40
1.0
 10
12.535
 20
-5.560976384894778
 30
0.0
 10
12.57278451834513
 20
-5.552624555153267
 30
0.0
 10
12.60478782474132
 20
-5.540375432695386
 30
0.0
 10
12.64845197751802
 20
-5.51136001013108
 30
0.0
 10
12.66000000000005
 20
-5.494730866040767
 30
0.0
 10
12.66000000000155
 20
-5.478086398152394
 30
0.0
  0
LINE
  5
AD
330
1F
100
AcDbEntity
  8
SK1
  6
Continuous
100
AcDbLine
 10
12.66
 20
-5.4780863982
 30
0.0
 11
12.66
 21
-4.7389827721
 31
0.0
  0
SPLINE
  5
AE
330
1F
100
AcDbEntity
  8
SK3
100
AcDbSpline
210
0.0
220
0.0
230
1.0
 70
     8
 71
     3
 72
    10
 73
     6
 74
     0
 42
0.0000000213892856
 43
0.0000000001
 12
1.0
 22
0.0
 32
0.0
 13
1.0
 23
0.0
 33
0.0
 40
0.0
 40
0.0
 40
0.0
 40
0.0
 40
0.5
 40
0.5
 40
1.0
 40
1.0
 40
1.0
 40
1.0
 10
12.66
 20
-3.963517621485205
 30
0.0
 10
12.66000000000001
 20
-3.923283012327631
 30
0.0
 10
12.61643242469574
 20
-3.883341490333744
 30
0.0
 10
12.46900783640128
 20
-3.826919081998869
 30
0.0
 10
12.3652860091106
 20
-3.810299292531043
 30
0.0
 10
12.26000000000001
 20
-3.810299292531043
 30
0.0
  0
LINE
  5
AF
330
1F
100
AcDbEntity
  8
SK1
  6
Continuous
100
AcDbLine
 10
7.16
 20
-6.6819726397
 30
0.0
 11
7.16
 21
-6.0311975753
 31
0.0
  0
SPLINE
  5
B0
330
1F
100
AcDbEntity
  8
SK1
  6
Continuous
100
AcDbSpline
210
0.0
220
0.0
230
1.0
 70
     8
 71
     3
 72
    10
 73
     6
 74
     0
 42
0.0000000427826839
 43
0.0000000001
 12
1.0
 22
0.0
 32
0.0
 13
1.0
 23
0.0
 33
0.0
 40
0.0
 40
0.0
 40
0.0
 40
0.0
 40
0.5
 40
0.5
 40
1.0
 40
1.0
 40
1.0
 40
1.0
 10
7.16000000000001
 20
-6.031197575255228
 30
0.0
 10
7.160000000000012
 20
-6.011184992289532
 30
0.0
 10
7.138635819677392
 20
-5.991303224044009
 30
0.0
 10
7.064192627192708
 20
-5.96280730976173
 30
0.0
 10
7.012249111975049
 20
-5.954632536608949
 30
0.0
 10
6.960000000000025
 20
-5.954632536608878
 30
0.0
  0
LINE
  5
B1
330
1F
100
AcDbEntity
  8
SK1
  6
Continuous
100
AcDbLine
 10
6.96
 20
-5.9546325366
 30
0.0
 11
3.76
 21
-5.9546325366
 31
0.0
  0
SPLINE
  5
B2
330
1F
100
AcDbEntity
  8
SK1
  6
Continuous
100
AcDbSpline
210
0.0
220
0.0
230
1.0
 70
     8
 71
     3
 72
    10
 73
     6
 74
     0
 42
0.0000000427930393
 43
0.0000000001
 12
1.0
 22
0.0
 32
0.0
 13
1.0
 23
0.0
 33
0.0
 40
0.0
 40
0.0
 40
0.0
 40
0.0
 40
0.5
 40
0.5
 40
1.0
 40
1.0
 40
1.0
 40
1.0
 10
3.760000000000008
 20
-5.954632536608946
 30
0.0
 10
3.707859588765454
 20
-5.954632536608945
 30
0.0
 10
3.655643858538258
 20
-5.962895670392811
 30
0.0
 10
3.581785416292862
 20
-5.991116300603325
 30
0.0
 10
3.560000000000448
 20
-6.011253676527256
 30
0.0
 10
3.559999999989989
 20
-6.031197575254712
 30
0.0
  0
LINE
  5
B3
330
1F
100
AcDbEntity
  8
SK1
  6
Continuous
100
AcDbLine
 10
3.56
 20
-6.0311975753
 30
0.0
 11
3.56
 21
-6.4838103963
 31
0.0
  0
LINE
  5
B4
330
1F
100
AcDbEntity
  8
SK1
  6
Continuous
100
AcDbLine
 10
-27.34
 20
0.4000000998
 30
0.0
 11
-27.34
 21
8.1244983543
 31
0.0
  0
LINE
  5
B5
330
1F
100
AcDbEntity
  8
SK1
  6
Continuous
100
AcDbLine
 10
-27.0817519303
 20
-0.3999999002
 30
0.0
 11
-27.0817519303
 21
-8.3346816813
 31
0.0
  0
LINE
  5
B6
330
1F
100
AcDbEntity
  8
SK3
100
AcDbLine
 10
-26.4141669751
 20
0.4000000998
 30
0.0
 11
-26.4141669751
 21
6.0748299174
 31
0.0
  0
LINE
  5
B7
330
1F
100
AcDbEntity
  8
SK1
  6
Continuous
100
AcDbLine
 10
-27.34
 20
0.4000000998
 30
0.0
 11
-27.0817519303
 21
0.4000000998
 31
0.0
  0
LINE
  5
B8
330
1F
100
AcDbEntity
  8
SK1
  6
Continuous
100
AcDbLine
 10
-27.0817519303
 20
0.4000000998
 30
0.0
 11
-3.7359913242
 21
0.4000000998
 31
0.0
  0
LINE
  5
B9
330
1F
100
AcDbEntity
  8
SK1
  6
Continuous
100
AcDbLine
 10
-27.34
 20
-0.3999999002
 30
0.0
 11
-27.0817519303
 21
-0.3999999002
 31
0.0
  0
LINE
  5
BA
330
1F
100
AcDbEntity
  8
SK1
  6
Continuous
100
AcDbLine
 10
-27.0817519303
 20
-0.3999999002
 30
0.0
 11
-3.7359913242
 21
-0.3999999002
 31
0.0
  0
LINE
  5
BB
330
1F
100
AcDbEntity
  8
SK1
  6
Continuous
100
AcDbLine
 10
7.16
 20
6.6819728393
 30
0.0
 11
7.16
 21
15.086458939
 31
0.0
  0
LINE
  5
BC
330
1F
100
AcDbEntity
  8
SK1
  6
Continuous
100
AcDbLine
 10
7.4631088913
 20
6.6819728393
 30
0.0
 11
7.4631088913
 21
15.086458939
 31
0.0
  0
LINE
  5
BD
330
1F
100
AcDbEntity
  8
SK1
  6
Continuous
100
AcDbLine
 10
12.535
 20
5.5609765844
 30
0.0
 11
12.535
 21
12.3801345772
 31
0.0
  0
LINE
  5
BE
330
1F
100
AcDbEntity
  8
SK1
  6
Continuous
100
AcDbLine
 10
12.66
 20
4.7389829717
 30
0.0
 11
12.66
 21
-4.7389827721
 31
0.0
  0
LINE
  5
BF
330
1F
100
AcDbEntity
  8
SK1
  6
Continuous
100
AcDbLine
 10
3.0473721046
 20
6.6543942125
 30
0.0
 11
3.0473721046
 21
15.0198782441
 31
0.0
  0
LINE
  5
C0
330
1F
100
AcDbEntity
  8
SK1
  6
Continuous
100
AcDbLine
 10
3.56
 20
6.4838105959
 30
0.0
 11
3.56
 21
14.6080529634
 31
0.0
  0
LINE
  5
C1
330
1F
100
AcDbEntity
  8
SK1
  6
Continuous
100
AcDbLine
 10
6.96
 20
5.9546327362
 30
0.0
 11
6.96
 21
13.3305045976
 31
0.0
  0
LINE
  5
C2
330
1F
100
AcDbEntity
  8
SK1
  6
Continuous
100
AcDbLine
 10
3.76
 20
5.2155291101
 30
0.0
 11
3.76
 21
-5.2155289106
 31
0.0
  0
LINE
  5
C3
330
1F
100
AcDbEntity
  8
SK1
  6
Continuous
100
AcDbLine
 10
7.16
 20
6.6819728393
 30
0.0
 11
7.16
 21
6.0311977748
 31
0.0
  0
SPLINE
  5
C4
330
1F
100
AcDbEntity
  8
SK1
  6
Continuous
100
AcDbSpline
210
0.0
220
0.0
230
1.0
 70
     8
 71
     3
 72
    10
 73
     6
 74
     0
 42
0.0000000427824414
 43
0.0000000001
 12
1.0
 22
0.0
 32
0.0
 13
1.0
 23
0.0
 33
0.0
 40
0.0
 40
0.0
 40
0.0
 40
0.0
 40
0.5
 40
0.5
 40
1.0
 40
1.0
 40
1.0
 40
1.0
 10
7.16000000000001
 20
6.031197774796637
 30
0.0
 10
7.160000000000015
 20
6.011237063787543
 30
0.0
 10
7.138792746349949
 20
5.991378542977353
 30
0.0
 10
7.064184492779328
 20
5.962789375685923
 30
0.0
 10
7.012831382487988
 20
5.954632736150048
 30
0.0
 10
6.96000000000001
 20
5.954632736150354
 30
0.0
  0
LINE
  5
C5
330
1F
100
AcDbEntity
  8
SK1
  6
Continuous
100
AcDbLine
 10
6.96
 20
5.9546327362
 30
0.0
 11
3.76
 21
5.9546327362
 31
0.0
  0
SPLINE
  5
C6
330
1F
100
AcDbEntity
  8
SK1
  6
Continuous
100
AcDbSpline
210
0.0
220
0.0
230
1.0
 70
     8
 71
     3
 72
    10
 73
     6
 74
     0
 42
0.0000000427888826
 43
0.0000000001
 12
1.0
 22
0.0
 32
0.0
 13
1.0
 23
0.0
 33
0.0
 40
0.0
 40
0.0
 40
0.0
 40
0.0
 40
0.5
 40
0.5
 40
1.0
 40
1.0
 40
1.0
 40
1.0
 10
3.760000000000008
 20
5.954632736150354
 30
0.0
 10
3.707128834288332
 20
5.954632736150351
 30
0.0
 10
3.655412931721454
 20
5.962944612910952
 30
0.0
 10
3.581619568483869
 20
5.991219573861273
 30
0.0
 10
3.559999999999898
 20
6.01121970536426
 30
0.0
 10
3.559999999997624
 20
6.031197774796742
 30
0.0
  0
LINE
  5
C7
330
1F
100
AcDbEntity
  8
SK1
  6
Continuous
100
AcDbLine
 10
3.56
 20
6.0311977748
 30
0.0
 11
3.56
 21
6.4838105959
 31
0.0
  0
SPLINE
  5
C8
330
1F
100
AcDbEntity
  8
SK1
  6
Continuous
100
AcDbSpline
210
0.0
220
0.0
230
1.0
 70
     8
 71
     3
 72
    10
 73
     6
 74
     0
 42
0.0000000169199522
 43
0.0000000001
 12
1.0
 22
0.0
 32
0.0
 13
1.0
 23
0.0
 33
0.0
 40
0.0
 40
0.0
 40
0.0
 40
0.0
 40
0.5
 40
0.5
 40
1.0
 40
1.0
 40
1.0
 40
1.0
 10
3.047372104567987
 20
6.65439421246075
 30
0.0
 10
3.175618258191284
 20
6.661293675843196
 30
0.0
 10
3.308843327162863
 20
6.645885596198308
 30
0.0
 10
3.501565786969165
 20
6.581763359029272
 30
0.0
 10
3.560000000000008
 20
6.533184113839758
 30
0.0
 10
3.560000000000009
 20
6.483810595866659
 30
0.0
  0
LINE
  5
C9
330
1F
100
AcDbEntity
  8
SK1
  6
Continuous
100
AcDbLine
 10
7.16
 20
6.6819728393
 30
0.0
 11
7.4631088913
 21
6.6819728393
 31
0.0
  0
LINE
  5
CA
330
1F
100
AcDbEntity
  8
SK1
  6
Continuous
100
AcDbLine
 10
7.4631088913
 20
6.6819728393
 30
0.0
 11
12.535
 21
5.5609765844
 31
0.0
  0
SPLINE
  5
CB
330
1F
100
AcDbEntity
  8
SK1
  6
Continuous
100
AcDbSpline
210
0.0
220
0.0
230
1.0
 70
     8
 71
     3
 72
     8
 73
     4
 74
     0
 42
0.0000000587479703
 43
0.0000000001
 12
1.0
 22
0.0
 32
0.0
 13
1.0
 23
0.0
 33
0.0
 40
0.0
 40
0.0
 40
0.0
 40
0.0
 40
1.0
 40
1.0
 40
1.0
 40
1.0
 10
12.535
 20
5.560976584436184
 30
0.0
 10
12.61128692078018
 20
5.544114244997565
 30
0.0
 10
12.66
 20
5.511621430539102
 30
0.0
 10
12.66
 20
5.478086597693865
 30
0.0
  0
LINE
  5
CC
330
1F
100
AcDbEntity
  8
SK1
  6
Continuous
100
AcDbLine
 10
12.66
 20
5.4780865977
 30
0.0
 11
12.66
 21
4.7389829717
 31
0.0
  0
SPLINE
  5
CD
330
1F
100
AcDbEntity
  8
SK3
100
AcDbSpline
210
0.0
220
0.0
230
1.0
 70
     8
 71
     3
 72
    10
 73
     6
 74
     0
 42
0.000000021389051
 43
0.0000000001
 12
1.0
 22
0.0
 32
0.0
 13
1.0
 23
0.0
 33
0.0
 40
0.0
 40
0.0
 40
0.0
 40
0.0
 40
0.5
 40
0.5
 40
1.0
 40
1.0
 40
1.0
 40
1.0
 10
12.66
 20
3.963517821026609
 30
0.0
 10
12.66000000000002
 20
3.923584799350859
 30
0.0
 10
12.61760754365383
 20
3.883851746866863
 30
0.0
 10
12.46842846057395
 20
3.826637467901849
 30
0.0
 10
12.36569752256571
 20
3.810299492072298
 30
0.0
 10
12.26000000000001
 20
3.810299492072448
 30
0.0
  0
SPLINE
  5
CE
330
1F
100
AcDbEntity
  8
SK1
  6
Continuous
100
AcDbSpline
210
0.0
220
0.0
230
1.0
 70
     8
 71
     3
 72
    10
 73
     6
 74
     0
 42
0.0000000169199522
 43
0.0000000001
 12
1.0
 22
0.0
 32
0.0
 13
1.0
 23
0.0
 33
0.0
 40
0.0
 40
0.0
 40
0.0
 40
0.0
 40
0.5
 40
0.5
 40
1.0
 40
1.0
 40
1.0
 40
1.0
 10
3.047372104567987
 20
5.915290586451722
 30
0.0
 10
3.175618258191286
 20
5.922190049834172
 30
0.0
 10
3.308843327162865
 20
5.906781970189278
 30
0.0
 10
3.501565786969165
 20
5.842659733020242
 30
0.0
 10
3.560000000000009
 20
5.794080487830726
 30
0.0
 10
3.560000000000009
 20
5.744706969857629
 30
0.0
  0
LINE
  5
CF
330
1F
100
AcDbEntity
  8
SK1
  6
Continuous
100
AcDbLine
 10
7.16
 20
5.9428692133
 30
0.0
 11
7.4631088913
 21
5.9428692133
 31
0.0
  0
LINE
  5
D0
330
1F
100
AcDbEntity
  8
SK1
  6
Continuous
100
AcDbLine
 10
7.4631088913
 20
5.9428692133
 30
0.0
 11
12.535
 21
4.8218729584
 31
0.0
  0
SPLINE
  5
D1
330
1F
100
AcDbEntity
  8
SK1
  6
Continuous
100
AcDbSpline
210
0.0
220
0.0
230
1.0
 70
     8
 71
     3
 72
     8
 73
     4
 74
     0
 42
0.0000000587479703
 43
0.0000000001
 12
1.0
 22
0.0
 32
0.0
 13
1.0
 23
0.0
 33
0.0
 40
0.0
 40
0.0
 40
0.0
 40
0.0
 40
1.0
 40
1.0
 40
1.0
 40
1.0
 10
12.535
 20
4.821872958427155
 30
0.0
 10
12.61128692078017
 20
4.805010618988538
 30
0.0
 10
12.66
 20
4.772517804530072
 30
0.0
 10
12.66
 20
4.738982971684834
 30
0.0
  0
SPLINE
  5
D2
330
1F
100
AcDbEntity
  8
SK3
100
AcDbSpline
210
0.0
220
0.0
230
1.0
 70
     8
 71
     3
 72
    10
 73
     6
 74
     0
 42
0.000000021389051
 43
0.0000000001
 12
1.0
 22
0.0
 32
0.0
 13
1.0
 23
0.0
 33
0.0
 40
0.0
 40
0.0
 40
0.0
 40
0.0
 40
0.5
 40
0.5
 40
1.0
 40
1.0
 40
1.0
 40
1.0
 10
12.66
 20
3.22441419501758
 30
0.0
 10
12.66000000000002
 20
3.18448117334183
 30
0.0
 10
12.61760754365383
 20
3.144748120857833
 30
0.0
 10
12.46842846057395
 20
3.08753384189282
 30
0.0
 10
12.36569752256571
 20
3.071195866063267
 30
0.0
 10
12.26000000000001
 20
3.071195866063419
 30
0.0
  0
SPLINE
  5
D3
330
1F
100
AcDbEntity
  8
SK1
  6
Continuous
100
AcDbSpline
210
0.0
220
0.0
230
1.0
 70
     8
 71
     3
 72
    10
 73
     6
 74
     0
 42
0.0000000427824414
 43
0.0000000001
 12
1.0
 22
0.0
 32
0.0
 13
1.0
 23
0.0
 33
0.0
 40
0.0
 40
0.0
 40
0.0
 40
0.0
 40
0.5
 40
0.5
 40
1.0
 40
1.0
 40
1.0
 40
1.0
 10
7.16000000000001
 20
5.292094148787602
 30
0.0
 10
7.160000000000013
 20
5.272133437778516
 30
0.0
 10
7.13879274634995
 20
5.252274916968322
 30
0.0
 10
7.064184492779328
 20
5.223685749676891
 30
0.0
 10
7.012831382487988
 20
5.215529110141018
 30
0.0
 10
6.96000000000001
 20
5.215529110141325
 30
0.0
  0
LINE
  5
D4
330
1F
100
AcDbEntity
  8
SK1
  6
Continuous
100
AcDbLine
 10
6.96
 20
5.2155291101
 30
0.0
 11
3.76
 21
5.2155291101
 31
0.0
  0
SPLINE
  5
D5
330
1F
100
AcDbEntity
  8
SK1
  6
Continuous
100
AcDbSpline
210
0.0
220
0.0
230
1.0
 70
     8
 71
     3
 72
    10
 73
     6
 74
     0
 42
0.0000000427888826
 43
0.0000000001
 12
1.0
 22
0.0
 32
0.0
 13
1.0
 23
0.0
 33
0.0
 40
0.0
 40
0.0
 40
0.0
 40
0.0
 40
0.5
 40
0.5
 40
1.0
 40
1.0
 40
1.0
 40
1.0
 10
3.760000000000008
 20
5.215529110141324
 30
0.0
 10
3.707128834288334
 20
5.215529110141323
 30
0.0
 10
3.655412931721454
 20
5.223840986901923
 30
0.0
 10
3.581619568483871
 20
5.252115947852246
 30
0.0
 10
3.559999999999898
 20
5.27211607935523
 30
0.0
 10
3.559999999997624
 20
5.292094148787712
 30
0.0
  0
LINE
  5
D6
330
1F
100
AcDbEntity
  8
SK1
  6
Continuous
100
AcDbLine
 10
-27.34
 20
8.6901837792
 30
0.0
 11
-27.34
 21
11.8897757188
 31
0.0
  0
LINE
  5
D7
330
1F
100
AcDbEntity
  8
SK1
  6
Continuous
100
AcDbLine
 10
-27.0817519303
 20
8.3346818808
 30
0.0
 11
-27.0817519303
 21
0.4000000998
 31
0.0
  0
LINE
  5
D8
330
1F
100
AcDbEntity
  8
SK3
100
AcDbLine
 10
-26.4141669751
 20
6.6405153423
 30
0.0
 11
-26.4141669751
 21
8.991106817
 31
0.0
  0
LINE
  5
D9
330
1F
100
AcDbEntity
  8
SK3
100
AcDbLine
 10
-26.4141669751
 20
6.6405153423
 30
0.0
 11
-2.6582609509
 21
6.6405153423
 31
0.0
  0
SPLINE
  5
DA
330
1F
100
AcDbEntity
  8
SK1
  6
Continuous
100
AcDbSpline
210
0.0
220
0.0
230
1.0
 70
     8
 71
     3
 72
    10
 73
     6
 74
     0
 42
0.0000000269170392
 43
0.0000000001
 12
1.0
 22
0.0
 32
0.0
 13
1.0
 23
0.0
 33
0.0
 40
0.0
 40
0.0
 40
0.0
 40
0.0
 40
0.5
 40
0.5
 40
1.0
 40
1.0
 40
1.0
 40
1.0
 10
-27.34000000000013
 20
8.690183779217543
 30
0.0
 10
-27.34000000000001
 20
8.740714425915428
 30
0.0
 10
-27.31325218560487
 20
8.791259814225066
 30
0.0
 10
-27.21983457328357
 20
8.867392349219479
 30
0.0
 10
-27.1532676169232
 20
8.89325643733072
 30
0.0
 10
-27.08175193028801
 20
8.900367305772777
 30
0.0
  0
LINE
  5
DB
330
1F
100
AcDbEntity
  8
SK1
  6
Continuous
100
AcDbLine
 10
-27.0817519303
 20
8.9003673058
 30
0.0
 11
-3.7359913242
 21
11.2213920385
 31
0.0
  0
LINE
  5
DC
330
1F
100
AcDbEntity
  8
SK3
100
AcDbLine
 10
-26.4141669751
 20
6.6405153423
 30
0.0
 11
-27.34
 21
7.0188379612
 31
0.0
  0
LINE
  5
DD
330
1F
100
AcDbEntity
  8
SK1
  6
Continuous
100
AcDbLine
 10
-27.34
 20
8.1244983543
 30
0.0
 11
-27.34
 21
8.6901837792
 31
0.0
  0
SPLINE
  5
DE
330
1F
100
AcDbEntity
  8
SK1
  6
Continuous
100
AcDbSpline
210
0.0
220
0.0
230
1.0
 70
     8
 71
     3
 72
    10
 73
     6
 74
     0
 42
0.0000000269170392
 43
0.0000000001
 12
1.0
 22
0.0
 32
0.0
 13
1.0
 23
0.0
 33
0.0
 40
0.0
 40
0.0
 40
0.0
 40
0.0
 40
0.5
 40
0.5
 40
1.0
 40
1.0
 40
1.0
 40
1.0
 10
-27.34
 20
8.124498354268315
 30
0.0
 10
-27.34
 20
8.175029000966203
 30
0.0
 10
-27.31325218560486
 20
8.225574389275836
 30
0.0
 10
-27.21983457328356
 20
8.30170692427024
 30
0.0
 10
-27.15326761692319
 20
8.327571012381483
 30
0.0
 10
-27.08175193028801
 20
8.334681880823537
 30
0.0
  0
LINE
  5
DF
330
1F
100
AcDbEntity
  8
SK1
  6
Continuous
100
AcDbLine
 10
-27.0817519303
 20
8.3346818808
 30
0.0
 11
-3.7359913242
 21
10.6557066136
 31
0.0
  0
LINE
  5
E0
330
1F
100
AcDbEntity
  8
SK3
100
AcDbLine
 10
-26.4141669751
 20
6.0748299174
 30
0.0
 11
-27.34
 21
6.4531525363
 31
0.0
  0
LINE
  5
E1
330
1F
100
AcDbEntity
  8
SK3
100
AcDbLine
 10
-26.4141669751
 20
6.0748299174
 30
0.0
 11
-2.6582609509
 21
6.0748299174
 31
0.0
  0
SPLINE
  5
E2
330
1F
100
AcDbEntity
  8
SK3
100
AcDbSpline
210
0.0
220
0.0
230
1.0
 70
     8
 71
     3
 72
     8
 73
     4
 74
     0
 42
0.0000009148603217
 43
0.0000000001
 12
1.0
 22
0.0
 32
0.0
 13
1.0
 23
0.0
 33
0.0
 40
0.0
 40
0.0
 40
0.0
 40
0.0
 40
0.9999999999999999
 40
0.9999999999999999
 40
0.9999999999999999
 40
0.9999999999999999
 10
-22.34000000000014
 20
-11.88108364947848
 30
0.0
 10
-22.34000000000014
 20
-11.8846588070214
 30
0.0
 10
-22.33965091138449
 20
-11.88827996290133
 30
0.0
 10
-22.33895987521105
 20
-11.89193270068508
 30
0.0
  0
SPLINE
  5
E3
330
1F
100
AcDbEntity
  8
SK3
100
AcDbSpline
210
0.0
220
0.0
230
1.0
 70
     8
 71
     3
 72
    11
 73
     7
 74
     0
 42
0.0000002669271674
 43
0.0000000001
 12
1.0
 22
0.0
 32
0.0
 13
1.0
 23
0.0
 33
0.0
 40
0.0
 40
0.0
 40
0.0
 40
0.0
 40
0.2618303311278268
 40
0.2618303311278268
 40
0.2618303311278268
 40
1.0
 40
1.0
 40
1.0
 40
1.0
 10
-22.89348364634079
 20
-8.356187831116715
 30
0.0
 10
-22.89566110936487
 20
-8.353361255216134
 30
0.0
 10
-22.89760781299084
 20
-8.350506118704056
 30
0.0
 10
-22.89931583319796
 20
-8.347628935572512
 30
0.0
 10
-22.90417172291897
 20
-8.339449123685219
 30
0.0
 10
-22.90718486092445
 20
-8.331001528300012
 30
0.0
 10
-22.90830296508273
 20
-8.322462114100503
 30
0.0
  0
SPLINE
  5
E4
330
1F
100
AcDbEntity
  8
SK3
100
AcDbSpline
210
0.0
220
0.0
230
1.0
 70
     8
 71
     3
 72
    35
 73
    31
 74
     0
 42
0.0000000108700818
 43
0.0000000001
 12
1.0
 22
0.0
 32
0.0
 13
1.0
 23
0.0
 33
0.0
 40
0.0
 40
0.0
 40
0.0
 40
0.0
 40
0.1081382012150537
 40
0.1081382012150537
 40
0.1081382012150537
 40
0.2163112666318053
 40
0.2163112666318053
 40
0.2163112666318053
 40
0.3239796062928847
 40
0.3239796062928847
 40
0.3239796062928847
 40
0.4311609476889239
 40
0.4311609476889239
 40
0.4311609476889239
 40
0.5000196012484288
 40
0.5000196012484288
 40
0.5000196012484288
 40
0.6069332885624037
 40
0.6069332885624037
 40
0.6069332885624037
 40
0.7138421892079675
 40
0.7138421892079675
 40
0.7138421892079675
 40
0.8208287696403791
 40
0.8208287696403791
 40
0.8208287696403791
 40
0.9281033439094367
 40
0.9281033439094367
 40
0.9281033439094367
 40
1.0
 40
1.0
 40
1.0
 40
1.0
 10
-22.50694941044892
 20
8.459772943358502
 30
0.0
 10
-22.55211478261298
 20
8.459772943358502
 30
0.0
 10
-22.59790509247305
 20
8.457133580477413
 30
0.0
 10
-22.64053311408486
 20
8.452005089311431
 30
0.0
 10
-22.6831693346521
 20
8.446875611745682
 30
0.0
 10
-22.72381903701954
 20
8.43910748251522
 30
0.0
 10
-22.75906505017943
 20
8.42920485210395
 30
0.0
 10
-22.79414835486954
 20
8.419347935851434
 30
0.0
 10
-22.82484994361231
 20
8.407095116701523
 30
0.0
 10
-22.84859085181021
 20
8.393311920076528
 30
0.0
 10
-22.8722264997468
 20
8.379589834124573
 30
0.0
 10
-22.88961825819002
 20
8.36396483132724
 30
0.0
 10
-22.89931583319796
 20
8.347629135113904
 30
0.0
 10
-22.90559847146646
 20
8.337045946008537
 30
0.0
 10
-22.90879640709985
 20
8.326014496589702
 30
0.0
 10
-22.90879640709985
 20
8.314915892372278
 30
0.0
 10
-22.90879640709985
 20
8.297826378828846
 30
0.0
 10
-22.901090740931
 20
8.280177245538148
 30
0.0
 10
-22.88631867513449
 20
8.2634801830488
 30
0.0
 10
-22.87154697105908
 20
8.246783529417648
 30
0.0
 10
-22.84930223603731
 20
8.230583510465525
 30
0.0
 10
-22.82143048869866
 20
8.216344063631155
 30
0.0
 10
-22.79353761563484
 20
8.202093823837277
 30
0.0
 10
-22.75924394880043
 20
8.189422604140749
 30
0.0
 10
-22.72139039696708
 20
8.1795131694296
 30
0.0
 10
-22.68343412516855
 20
8.16957684432801
 30
0.0
 10
-22.64086147700236
 20
8.162150717566496
 30
0.0
 10
-22.59717849727335
 20
8.157930897329686
 30
0.0
 10
-22.56767327287485
 20
8.155080662666649
 30
0.0
 10
-22.53721659593332
 20
8.15362619746643
 30
0.0
 10
-22.50694941044892
 20
8.153626197466432
 30
0.0
  0
SPLINE
  5
E5
330
1F
100
AcDbEntity
  8
SK1
  6
Continuous
100
AcDbSpline
210
0.0
220
0.0
230
1.0
 70
     8
 71
     3
 72
    35
 73
    31
 74
     0
 42
0.0000000105330634
 43
0.0000000001
 12
1.0
 22
0.0
 32
0.0
 13
1.0
 23
0.0
 33
0.0
 40
0.0
 40
0.0
 40
0.0
 40
0.0
 40
0.1140466951010004
 40
0.1140466951010004
 40
0.1140466951010004
 40
0.2282948207518979
 40
0.2282948207518979
 40
0.2282948207518979
 40
0.3392741566161804
 40
0.3392741566161804
 40
0.3392741566161804
 40
0.4452969336874708
 40
0.4452969336874708
 40
0.4452969336874708
 40
0.5002192508761243
 40
0.5002192508761243
 40
0.5002192508761243
 40
0.6019916732935748
 40
0.6019916732935748
 40
0.6019916732935748
 40
0.7036615082091257
 40
0.7036615082091257
 40
0.7036615082091257
 40
0.8069310276856894
 40
0.8069310276856894
 40
0.8069310276856894
 40
0.9141591791607976
 40
0.9141591791607976
 40
0.9141591791607976
 40
1.0
 40
1.0
 40
1.0
 40
1.0
 10
-21.92480702332896
 20
11.77619757333622
 30
0.0
 10
-21.97294452244875
 20
11.76994426722975
 30
0.0
 10
-22.02179045614391
 20
11.7669888206037
 30
0.0
 10
-22.0673153877753
 20
11.7676198887981
 30
0.0
 10
-22.11288603359826
 20
11.76825159068422
 30
0.0
 10
-22.1564180150216
 20
11.77250832149756
 30
0.0
 10
-22.19389651274892
 20
11.78006064560668
 30
0.0
 10
-22.23030119824841
 20
11.78739658489601
 30
0.0
 10
-22.26204048341444
 20
11.79806362337646
 30
0.0
 10
-22.28596647678707
 20
11.81109751927231
 30
0.0
 10
-22.30883959766338
 20
11.82355785359038
 30
0.0
 10
-22.32522337379231
 20
11.83854047715595
 30
0.0
 10
-22.3334800534375
 20
11.85469108451591
 30
0.0
 10
-22.33780546822939
 20
11.86315187977195
 30
0.0
 10
-22.34000000000015
 20
11.87202520467678
 30
0.0
 10
-22.34000000000016
 20
11.88108384901987
 30
0.0
 10
-22.34000000000016
 20
11.89769878921333
 30
0.0
 10
-22.33246049415373
 20
11.91530718698517
 30
0.0
 10
-22.31809824177582
 20
11.93246204204722
 30
0.0
 10
-22.30374405022954
 20
11.94960726892598
 30
0.0
 10
-22.28220523305036
 20
11.96676633984673
 30
0.0
 10
-22.25540696650819
 20
11.98266107258337
 30
0.0
 10
-22.22817994286375
 20
11.99881011205059
 30
0.0
 10
-22.19482910869285
 20
12.01408549331235
 30
0.0
 10
-22.15812035425783
 20
12.02746395401392
 30
0.0
 10
-22.12001391021601
 20
12.04135180098493
 30
0.0
 10
-22.07730851902695
 20
12.05356573513207
 30
0.0
 10
-22.03337750918217
 20
12.06332800345163
 30
0.0
 10
-21.99803558327055
 20
12.07118162131514
 30
0.0
 10
-21.96126607020195
 20
12.0776081035001
 30
0.0
 10
-21.92480702332896
 20
12.08234431922829
 30
0.0
  0
ELLIPSE
  5
E6
330
1F
100
AcDbEntity
  8
SK1
  6
Continuous
100
AcDbEllipse
 10
51.5492454591
 20
0.153073474
 30
0.0
 11
-74.59999999031753
 21
-8.550000142611692E-9
 31
0.0
210
0.0
220
0.0
230
1.0
 40
0.9238795326
 41
-0.1739612071982606
 42
-0.1694205580108434
  0
ARC
  5
E7
330
1F
100
AcDbEntity
  8
SK3
100
AcDbCircle
 10
-2.6578767521
 20
-18.0570120041
 30
0.0
 40
9.065905394824773
100
AcDbArc
 50
87.4619580407
 51
90.0024281047
  0
SPLINE
  5
E8
330
1F
100
AcDbEntity
  8
SK1
  6
Continuous
100
AcDbSpline
210
0.0
220
0.0
230
1.0
 70
     8
 71
     3
 72
    23
 73
    19
 74
     0
 42
0.0000000245443856
 43
0.0000000001
 12
1.0
 22
0.0
 32
0.0
 13
1.0
 23
0.0
 33
0.0
 40
0.0
 40
0.0
 40
0.0
 40
0.0
 40
0.1928242140513915
 40
0.1928242140513915
 40
0.1928242140513915
 40
0.3856687256861905
 40
0.3856687256861905
 40
0.3856687256861905
 40
0.5782205867148126
 40
0.5782205867148126
 40
0.5782205867148126
 40
0.770487828597302
 40
0.770487828597302
 40
0.770487828597302
 40
0.895308206940792
 40
0.895308206940792
 40
0.895308206940792
 40
1.0
 40
1.0
 40
1.0
 40
1.0
 10
-3.735991324228685
 20
-15.46944456874255
 30
0.0
 10
-3.691530379694804
 20
-15.47569523556969
 30
0.0
 10
-3.646483917844948
 20
-15.48223342709087
 30
0.0
 10
-3.604576299425224
 20
-15.48848673993707
 30
0.0
 10
-3.562666046493905
 20
-15.49474044589616
 30
0.0
 10
-3.522738413628795
 20
-15.50087898123409
 30
0.0
 10
-3.488104890182382
 20
-15.50631212984706
 30
0.0
 10
-3.453523374075161
 20
-15.51173711978673
 30
0.0
 10
-3.42326419838632
 20
-15.51660431091758
 30
0.0
 10
-3.399831878258358
 20
-15.52041642536854
 30
0.0
 10
-3.376433513497198
 20
-15.52422301575088
 30
0.0
 10
-3.359195250862035
 20
-15.52707875177539
 30
0.0
 10
-3.349538750649145
 20
-15.52868172073152
 30
0.0
 10
-3.343217909000759
 20
-15.52973097384761
 30
0.0
 10
-3.340000000000001
 20
-15.5302681407828
 30
0.0
 10
-3.340000000000001
 20
-15.5302681407828
 30
0.0
 10
-3.340000000000001
 20
-15.5302681407828
 30
0.0
 10
-3.342262534972513
 20
-15.52988962017441
 30
0.0
 10
-3.346686133304857
 20
-15.52915460658409
 30
0.0
  0
SPLINE
  5
E9
330
1F
100
AcDbEntity
  8
SK1
  6
Continuous
100
AcDbSpline
210
0.0
220
0.0
230
1.0
 70
     8
 71
     3
 72
    20
 73
    16
 74
     0
 42
0.0000000249596416
 43
0.0000000001
 12
1.0
 22
0.0
 32
0.0
 13
1.0
 23
0.0
 33
0.0
 40
0.0
 40
0.0
 40
0.0
 40
0.0
 40
0.2145786737343268
 40
0.2145786737343268
 40
0.2145786737343268
 40
0.4291541907561934
 40
0.4291541907561934
 40
0.4291541907561934
 40
0.6437810025606525
 40
0.6437810025606525
 40
0.6437810025606525
 40
0.8585972232109039
 40
0.8585972232109039
 40
0.8585972232109039
 40
1.0
 40
1.0
 40
1.0
 40
1.0
 10
-3.340000000000005
 20
15.53026834032419
 30
0.0
 10
-3.340000000000005
 20
15.53026834032419
 30
0.0
 10
-3.347618441149175
 20
15.52899378014554
 30
0.0
 10
-3.362228347635138
 20
15.52658076474043
 30
0.0
 10
-3.376838136566955
 20
15.5241677687509
 30
0.0
 10
-3.398842476522103
 20
15.52055256508602
 30
0.0
 10
-3.426428906884941
 20
15.5161129471168
 30
0.0
 10
-3.454022215765125
 20
15.51167222215444
 30
0.0
 10
-3.487960741558199
 20
15.50628872591499
 30
0.0
 10
-3.525446613183315
 20
15.50050019957225
 30
0.0
 10
-3.562965835685892
 20
15.49470652322435
 30
0.0
 10
-3.605070934506642
 20
15.48835178612611
 30
0.0
 10
-3.648290735418411
 20
15.48202679656847
 30
0.0
 10
-3.676969597923103
 20
15.47782979653515
 30
0.0
 10
-3.706564389521197
 20
15.47358183659252
 30
0.0
 10
-3.735991324228674
 20
15.46944476828395
 30
0.0
  0
ARC
  5
EA
330
1F
100
AcDbEntity
  8
SK3
100
AcDbCircle
 10
-2.6578767521
 20
18.0570122037
 30
0.0
 40
9.065905394825258
100
AcDbArc
 50
269.9975718953
 51
272.5380419593
  0
LINE
  5
EB
330
1F
100
AcDbEntity
  8
SK1
  6
Continuous
100
AcDbLine
 10
-3.7359913242
 20
15.4694447683
 30
0.0
 11
-27.0817519303
 21
12.1870201126
 31
0.0
  0
LINE
  5
EC
330
1F
100
AcDbEntity
  8
SK3
100
AcDbLine
 10
-2.6582609509
 20
8.991106817
 30
0.0
 11
-26.4141669751
 21
8.991106817
 31
0.0
  0
LINE
  5
ED
330
1F
100
AcDbEntity
  8
SK3
100
AcDbLine
 10
-22.5069494104
 20
-8.4597727438
 30
0.0
 11
12.26
 21
-8.4597727438
 31
0.0
  0
SPLINE
  5
EE
330
1F
100
AcDbEntity
  8
SK1
  6
Continuous
100
AcDbSpline
210
0.0
220
0.0
230
1.0
 70
     8
 71
     3
 72
    11
 73
     7
 74
     0
 42
0.0000000003971097
 43
0.0000000001
 12
1.0
 22
0.0
 32
0.0
 13
1.0
 23
0.0
 33
0.0
 40
0.0
 40
0.0
 40
0.0
 40
0.0
 40
0.8233273564535349
 40
0.8233273564535349
 40
0.8233273564535349
 40
1.0
 40
1.0
 40
1.0
 40
1.0
 10
-21.92480702332896
 20
-12.0823441196869
 30
0.0
 10
-15.07139456515264
 20
-12.97263727488795
 30
0.0
 10
-8.21796832333074
 20
-13.86283986438522
 30
0.0
 10
-1.364534694013493
 20
-14.75299390156436
 30
0.0
 10
0.1061005608936315
 20
-14.94400646259269
 30
0.0
 10
1.576736173439628
 20
-15.1350166733589
 30
0.0
 10
3.047372104567987
 20
-15.32602479045226
 30
0.0
  0
ELLIPSE
  5
EF
330
1F
100
AcDbEntity
  8
SK1
  6
Continuous
100
AcDbEllipse
 10
51.5492454596
 20
-0.1530732745
 30
0.0
 11
-74.59999999079749
 21
8.951542266409525E-9
 31
0.0
210
0.0
220
0.0
230
1.0
 40
0.9238795326
 41
0.1693906526878186
 42
0.1739612072026213
  0
SPLINE
  5
F0
330
1F
100
AcDbEntity
  8
SK1
  6
Continuous
100
AcDbSpline
210
0.0
220
0.0
230
1.0
 70
     8
 71
     3
 72
    35
 73
    31
 74
     0
 42
0.000000010532683
 43
0.0000000001
 12
1.0
 22
0.0
 32
0.0
 13
1.0
 23
0.0
 33
0.0
 40
0.0
 40
0.0
 40
0.0
 40
0.0
 40
0.1140466951057615
 40
0.1140466951057615
 40
0.1140466951057615
 40
0.2282948207614309
 40
0.2282948207614309
 40
0.2282948207614309
 40
0.3392741566303518
 40
0.3392741566303518
 40
0.3392741566303518
 40
0.4452969337060647
 40
0.4452969337060647
 40
0.4452969337060647
 40
0.5002192508970098
 40
0.5002192508970098
 40
0.5002192508970098
 40
0.6019916716268935
 40
0.6019916716268935
 40
0.6019916716268935
 40
0.7036615048631364
 40
0.7036615048631364
 40
0.7036615048631364
 40
0.806931024264333
 40
0.806931024264333
 40
0.806931024264333
 40
0.9141591755960853
 40
0.9141591755960853
 40
0.9141591755960853
 40
1.0
 40
1.0
 40
1.0
 40
1.0
 10
-21.92480702332896
 20
-12.0823441196869
 30
0.0
 10
-21.97294452244875
 20
-12.07609081358043
 30
0.0
 10
-22.02179045614391
 20
-12.06683992875931
 30
0.0
 10
-22.0673153877753
 20
-12.05524219669918
 30
0.0
 10
-22.11288603359826
 20
-12.04363281869197
 30
0.0
 10
-22.15641801502161
 20
-12.02932586670536
 30
0.0
 10
-22.19389651274892
 20
-12.01338114199382
 30
0.0
 10
-22.23030119824842
 20
-11.9978932563074
 30
0.0
 10
-22.26204048341444
 20
-11.98039334011962
 30
0.0
 10
-22.28596647678707
 20
-11.96229937306362
 30
0.0
 10
-22.30883959766338
 20
-11.94500163795361
 30
0.0
 10
-22.32522337379231
 20
-11.9266539175827
 30
0.0
 10
-22.3334800534375
 20
-11.90881036791736
 30
0.0
 10
-22.33780546822939
 20
-11.89946269343091
 30
0.0
 10
-22.34000000000014
 20
-11.89014229382158
 30
0.0
 10
-22.34000000000014
 20
-11.8810836494785
 30
0.0
 10
-22.34000000000015
 20
-11.86446870955336
 30
0.0
 10
-22.33246049440443
 20
-11.84838937411929
 30
0.0
 10
-22.31809824248176
 20
-11.83420936219231
 30
0.0
 10
-22.30374405138994
 20
-11.82003730881376
 30
0.0
 10
-22.28220523489145
 20
-11.80737838366701
 30
0.0
 10
-22.255406969139
 20
-11.79726203798069
 30
0.0
 10
-22.22817994587895
 20
-11.78698383632941
 30
0.0
 10
-22.19482911204853
 20
-11.77905694815093
 30
0.0
 10
-22.15812035788852
 20
-11.77407513728752
 30
0.0
 10
-22.12001391415465
 20
-11.76890364346532
 30
0.0
 10
-22.07730852321562
 20
-11.76676715178901
 30
0.0
 10
-22.03337751354688
 20
-11.76778628116677
 30
0.0
 10
-21.99803558628583
 20
-11.76860615752767
 30
0.0
 10
-21.96126607169085
 20
-11.77146115787322
 30
0.0
 10
-21.92480702332897
 20
-11.77619737379482
 30
0.0
  0
SPLINE
  5
F1
330
1F
100
AcDbEntity
  8
SK3
100
AcDbSpline
210
0.0
220
0.0
230
1.0
 70
     8
 71
     3
 72
    35
 73
    31
 74
     0
 42
0.0000000108694792
 43
0.0000000001
 12
1.0
 22
0.0
 32
0.0
 13
1.0
 23
0.0
 33
0.0
 40
0.0
 40
0.0
 40
0.0
 40
0.0
 40
0.1081382012150545
 40
0.1081382012150545
 40
0.1081382012150545
 40
0.2163112666318062
 40
0.2163112666318062
 40
0.2163112666318062
 40
0.323979606292881
 40
0.323979606292881
 40
0.323979606292881
 40
0.4311609476889224
 40
0.4311609476889224
 40
0.4311609476889224
 40
0.5000196012484296
 40
0.5000196012484296
 40
0.5000196012484296
 40
0.6069332885624044
 40
0.6069332885624044
 40
0.6069332885624044
 40
0.713842189207968
 40
0.713842189207968
 40
0.713842189207968
 40
0.820828769640379
 40
0.820828769640379
 40
0.820828769640379
 40
0.928103343909439
 40
0.928103343909439
 40
0.928103343909439
 40
1.0
 40
1.0
 40
1.0
 40
1.0
 10
-22.50694941044892
 20
-8.153625997925039
 30
0.0
 10
-22.55211478261298
 20
-8.153625997925039
 30
0.0
 10
-22.59790509247305
 20
-8.156919254072363
 30
0.0
 10
-22.64053311408486
 20
-8.1632039982059
 30
0.0
 10
-22.68316933465209
 20
-8.169489951129687
 30
0.0
 10
-22.72381903701954
 20
-8.178940448381217
 30
0.0
 10
-22.75906505017943
 20
-8.190651222569166
 30
0.0
 10
-22.79414835486954
 20
-8.202307935546292
 30
0.0
 10
-22.82484994361231
 20
-8.216520527500887
 30
0.0
 10
-22.84859085181021
 20
-8.231956578301533
 30
0.0
 10
-22.8722264997468
 20
-8.24732419015589
 30
0.0
 10
-22.88961825819001
 20
-8.264322878683602
 30
0.0
 10
-22.89931583319796
 20
-8.281434584132844
 30
0.0
 10
-22.90559847146646
 20
-8.292520515967007
 30
0.0
 10
-22.90879640709985
 20
-8.30381708861346
 30
0.0
 10
-22.90879640709985
 20
-8.314915692830883
 30
0.0
 10
-22.90879640709985
 20
-8.332005206374316
 30
0.0
 10
-22.90109074093101
 20
-8.349006445576638
 30
0.0
 10
-22.88631867513449
 20
-8.364560818772812
 30
0.0
 10
-22.87154697105908
 20
-8.380114811091632
 30
0.0
 10
-22.84930223603731
 20
-8.394655021556204
 30
0.0
 10
-22.82143048869866
 20
-8.407109071533455
 30
0.0
 10
-22.79353761563484
 20
-8.419572561207252
 30
0.0
 10
-22.75924394880043
 20
-8.430296355322612
 30
0.0
 10
-22.72139039696708
 20
-8.438555144638798
 30
0.0
 10
-22.68343412516855
 20
-8.446836345129364
 30
0.0
 10
-22.64086147700235
 20
-8.452873277239751
 30
0.0
 10
-22.59717849727335
 20
-8.456293432882438
 30
0.0
 10
-22.56767327287485
 20
-8.458603542228026
 30
0.0
 10
-22.53721659593332
 20
-8.45977274381711
 30
0.0
 10
-22.50694941044892
 20
-8.45977274381711
 30
0.0
  0
SPLINE
  5
F2
330
1F
100
AcDbEntity
  8
SK3
100
AcDbSpline
210
0.0
220
0.0
230
1.0
 70
     8
 71
     3
 72
    11
 73
     7
 74
     0
 42
0.0000003241414581
 43
0.0000000001
 12
1.0
 22
0.0
 32
0.0
 13
1.0
 23
0.0
 33
0.0
 40
0.0
 40
0.0
 40
0.0
 40
0.0
 40
0.4064352697600417
 40
0.4064352697600417
 40
0.4064352697600417
 40
1.0
 40
1.0
 40
1.0
 40
1.0
 10
-22.32711295018638
 20
11.92026736718136
 30
0.0
 10
-22.32959355691637
 20
11.91643557111327
 30
0.0
 10
-22.33172120180087
 20
11.91261163009906
 30
0.0
 10
-22.33348005343751
 20
11.90881056745874
 30
0.0
 10
-22.33607769100386
 20
11.90319680055489
 30
0.0
 10
-22.33790679790785
 20
11.89759287069005
 30
0.0
 10
-22.33895358802289
 20
11.89204956560704
 30
0.0
  0
SPLINE
  5
F3
330
1F
100
AcDbEntity
  8
SK1
  6
Continuous
100
AcDbSpline
210
0.0
220
0.0
230
1.0
 70
     8
 71
     3
 72
    11
 73
     7
 74
     0
 42
0.0000000003971097
 43
0.0000000001
 12
1.0
 22
0.0
 32
0.0
 13
1.0
 23
0.0
 33
0.0
 40
0.0
 40
0.0
 40
0.0
 40
0.0
 40
0.823327356453535
 40
0.823327356453535
 40
0.823327356453535
 40
1.0
 40
1.0
 40
1.0
 40
1.0
 10
-21.92480702332897
 20
-11.77619737379482
 30
0.0
 10
-15.07139456515264
 20
-12.66649052899588
 30
0.0
 10
-8.217968323330744
 20
-13.55669311849315
 30
0.0
 10
-1.364534694013493
 20
-14.44684715567229
 30
0.0
 10
0.1061005608936306
 20
-14.63785971670061
 30
0.0
 10
1.576736173439626
 20
-14.82886992746683
 30
0.0
 10
3.047372104567987
 20
-15.01987804456019
 30
0.0
  0
LINE
  5
F4
330
1F
100
AcDbEntity
  8
SK3
100
AcDbLine
 10
-22.5069494104
 20
-8.1536259979
 30
0.0
 11
12.26
 21
-8.1536259979
 31
0.0
  0
SPLINE
  5
F5
330
1F
100
AcDbEntity
  8
SK3
100
AcDbSpline
210
0.0
220
0.0
230
1.0
 70
     8
 71
     3
 72
    35
 73
    31
 74
     0
 42
0.0000000091868836
 43
0.0000000001
 12
1.0
 22
0.0
 32
0.0
 13
1.0
 23
0.0
 33
0.0
 40
0.0
 40
0.0
 40
0.0
 40
0.0
 40
0.1081382012150503
 40
0.1081382012150503
 40
0.1081382012150503
 40
0.2163112666318034
 40
0.2163112666318034
 40
0.2163112666318034
 40
0.3239796062928549
 40
0.3239796062928549
 40
0.3239796062928549
 40
0.431160947688905
 40
0.431160947688905
 40
0.431160947688905
 40
0.500019601248428
 40
0.500019601248428
 40
0.500019601248428
 40
0.6069332885623976
 40
0.6069332885623976
 40
0.6069332885623976
 40
0.7138421892079616
 40
0.7138421892079616
 40
0.7138421892079616
 40
0.8208287696403724
 40
0.8208287696403724
 40
0.8208287696403724
 40
0.9281033439094266
 40
0.9281033439094266
 40
0.9281033439094266
 40
1.0
 40
1.0
 40
1.0
 40
1.0
 10
-2.658260950895468
 20
-6.640515142804855
 30
0.0
 10
-2.613095578731409
 20
-6.640515142804853
 30
0.0
 10
-2.567305268871338
 20
-6.635284351629841
 30
0.0
 10
-2.524677247259531
 20
-6.625182375991187
 30
0.0
 10
-2.482041026692291
 20
-6.615078457366559
 30
0.0
 10
-2.441391324324851
 20
-6.599814335150695
 30
0.0
 10
-2.406145311164958
 20
-6.580538099680258
 30
0.0
 10
-2.37106200647486
 20
-6.561350850353092
 30
0.0
 10
-2.340360417732096
 20
-6.537649971297704
 30
0.0
 10
-2.316619509534191
 20
-6.511287426554913
 30
0.0
 10
-2.292983861597598
 20
-6.485041765645101
 30
0.0
 10
-2.275592103154378
 20
-6.455427091725212
 30
0.0
 10
-2.265894528146432
 20
-6.424822687791413
 30
0.0
 10
-2.259611889877926
 20
-6.404995421780915
 30
0.0
 10
-2.256413954244524
 20
-6.384468477460079
 30
0.0
 10
-2.256413954244524
 20
-6.363960930908231
 30
0.0
 10
-2.256413954244524
 20
-6.332383627341531
 30
0.0
 10
-2.264119620413364
 20
-6.300122919067788
 30
0.0
 10
-2.278891686209886
 20
-6.269889189482991
 30
0.0
 10
-2.293663390285286
 20
-6.239656200226507
 30
0.0
 10
-2.315908125307075
 20
-6.210620750234641
 30
0.0
 10
-2.343779872645723
 20
-6.185275933081812
 30
0.0
 10
-2.371672745709542
 20
-6.159911905520855
 30
0.0
 10
-2.405966412543952
 20
-6.137552483591551
 30
0.0
 10
-2.443819964377298
 20
-6.120135558625258
 30
0.0
 10
-2.481776236175829
 20
-6.102671370830526
 30
0.0
 10
-2.524348884342021
 20
-6.089701504516461
 30
0.0
 10
-2.568031864071024
 20
-6.082337068780897
 30
0.0
 10
-2.597537088469532
 20
-6.077362835560219
 30
0.0
 10
-2.627993765411062
 20
-6.074829717855615
 30
0.0
 10
-2.658260950895468
 20
-6.074829717855615
 30
0.0
  0
SPLINE
  5
F6
330
1F
100
AcDbEntity
  8
SK1
  6
Continuous
100
AcDbSpline
210
0.0
220
0.0
230
1.0
 70
     8
 71
     3
 72
    35
 73
    31
 74
     0
 42
0.0000000092453942
 43
0.0000000001
 12
1.0
 22
0.0
 32
0.0
 13
1.0
 23
0.0
 33
0.0
 40
0.0
 40
0.0
 40
0.0
 40
0.0
 40
0.1076873144994247
 40
0.1076873144994247
 40
0.1076873144994247
 40
0.2153859646719058
 40
0.2153859646719058
 40
0.2153859646719058
 40
0.3229211770831063
 40
0.3229211770831063
 40
0.3229211770831063
 40
0.4302974370948143
 40
0.4302974370948143
 40
0.4302974370948143
 40
0.5000063759059413
 40
0.5000063759059413
 40
0.5000063759059413
 40
0.6072943446396618
 40
0.6072943446396618
 40
0.6072943446396618
 40
0.7145807350372823
 40
0.7145807350372823
 40
0.7145807350372823
 40
0.8218927724991374
 40
0.8218927724991374
 40
0.8218927724991374
 40
0.9292995131762521
 40
0.9292995131762521
 40
0.9292995131762521
 40
1.0
 40
1.0
 40
1.0
 40
1.0
 10
-3.735991324228685
 20
-10.65570641405048
 30
0.0
 10
-3.691530379694803
 20
-10.66012630295089
 30
0.0
 10
-3.646483917844946
 20
-10.67022000480769
 30
0.0
 10
-3.604576299425221
 20
-10.68514162237904
 30
0.0
 10
-3.562666046493903
 20
-10.70006417799401
 30
0.0
 10
-3.522738413628792
 20
-10.72022656875956
 30
0.0
 10
-3.488104890182379
 20
-10.7439064775586
 30
0.0
 10
-3.453523374075156
 20
-10.76755082748501
 30
0.0
 10
-3.42326419838632
 20
-10.79535256937628
 30
0.0
 10
-3.399831878258358
 20
-10.82494092519027
 30
0.0
 10
-3.3764335134972
 20
-10.85448640503341
 30
0.0
 10
-3.359195250862039
 20
-10.88662618585534
 30
0.0
 10
-3.34953875064915
 20
-10.9186498709289
 30
0.0
 10
-3.343217909000765
 20
-10.93961156904781
 30
0.0
 10
-3.340000000000008
 20
-10.96083674184806
 30
0.0
 10
-3.340000000000008
 20
-10.98155788677075
 30
0.0
 10
-3.340000000000008
 20
-11.01318866718803
 30
0.0
 10
-3.347618441149175
 20
-11.04435440363019
 30
0.0
 10
-3.362228347635138
 20
-11.07249559395462
 30
0.0
 10
-3.376838136566954
 20
-11.10063655784957
 30
0.0
 10
-3.398842476522115
 20
-11.12653081611262
 30
0.0
 10
-3.426428906884955
 20
-11.14809233162973
 30
0.0
 10
-3.454022215765138
 20
-11.1696592233864
 30
0.0
 10
-3.4879607415582
 20
-11.18748845238462
 30
0.0
 10
-3.525446613183312
 20
-11.2001774902396
 30
0.0
 10
-3.562965835685892
 20
-11.21287781742916
 30
0.0
 10
-3.605070934506646
 20
-11.22078173802566
 30
0.0
 10
-3.648290735418418
 20
-11.22329447639528
 30
0.0
 10
-3.676969597923111
 20
-11.2249618250802
 30
0.0
 10
-3.706564389521208
 20
-11.22431718805494
 30
0.0
 10
-3.735991324228713
 20
-11.22139183899972
 30
0.0
  0
SPLINE
  5
F7
330
1F
100
AcDbEntity
  8
SK3
100
AcDbSpline
210
0.0
220
0.0
230
1.0
 70
     8
 71
     3
 72
    11
 73
     7
 74
     0
 42
0.0000002215241894
 43
0.0000000001
 12
1.0
 22
0.0
 32
0.0
 13
1.0
 23
0.0
 33
0.0
 40
0.0
 40
0.0
 40
0.0
 40
0.0
 40
0.3776170731551679
 40
0.3776170731551679
 40
0.3776170731551679
 40
1.0
 40
1.0
 40
1.0
 40
1.0
 10
-2.271721664918214
 20
6.440876380960836
 30
0.0
 10
-2.269546241944759
 20
6.435564518080467
 30
0.0
 10
-2.267601227802286
 20
6.430209030324061
 30
0.0
 10
-2.265894528146439
 20
6.424822887332808
 30
0.0
 10
-2.263057897965887
 20
6.415870816759982
 30
0.0
 10
-2.260850099783026
 20
6.406776113278354
 30
0.0
 10
-2.259281555692174
 20
6.397604961470435
 30
0.0
  0
ELLIPSE
  5
F8
330
1F
100
AcDbEntity
  8
SK1
  6
Continuous
100
AcDbEllipse
 10
-76.7144558261
 20
-0.2828426132
 30
0.0
 11
74.59999999591015
 21
9.523016805257024E-10
 31
0.0
210
0.0
220
0.0
230
1.0
 40
0.7071067812
 41
-0.2088808539042635
 42
-0.1986429548089017
  0
LINE
  5
F9
330
1F
100
AcDbEntity
  8
SK3
100
AcDbLine
 10
-22.5069494104
 20
-3.8102992925
 30
0.0
 11
12.26
 21
-3.8102992925
 31
0.0
  0
LINE
  5
FA
330
1F
100
AcDbEntity
  8
SK1
  6
Continuous
100
AcDbLine
 10
-21.9248070233
 20
-5.3108174871
 30
0.0
 11
3.0473721046
 21
-6.6543940129
 31
0.0
  0
ELLIPSE
  5
FB
330
1F
100
AcDbEntity
  8
SK1
  6
Continuous
100
AcDbEllipse
 10
51.5492454596
 20
-0.3695517138
 30
0.0
 11
-74.59999999077669
 21
6.360530427975904E-10
 31
0.0
210
0.0
220
0.0
230
1.0
 40
0.3826834324
 41
0.1505971359215443
 42
0.1739612070950032
  0
SPLINE
  5
FC
330
1F
100
AcDbEntity
  8
SK1
  6
Continuous
100
AcDbSpline
210
0.0
220
0.0
230
1.0
 70
     8
 71
     3
 72
    35
 73
    31
 74
     0
 42
0.0000000080647976
 43
0.0000000001
 12
1.0
 22
0.0
 32
0.0
 13
1.0
 23
0.0
 33
0.0
 40
0.0
 40
0.0
 40
0.0
 40
0.0
 40
0.1140466951010062
 40
0.1140466951010062
 40
0.1140466951010062
 40
0.2282948207519138
 40
0.2282948207519138
 40
0.2282948207519138
 40
0.3392741566161988
 40
0.3392741566161988
 40
0.3392741566161988
 40
0.4452969336874772
 40
0.4452969336874772
 40
0.4452969336874772
 40
0.500219250876123
 40
0.500219250876123
 40
0.500219250876123
 40
0.6019916732935728
 40
0.6019916732935728
 40
0.6019916732935728
 40
0.7036615082091224
 40
0.7036615082091224
 40
0.7036615082091224
 40
0.8069310276856875
 40
0.8069310276856875
 40
0.8069310276856875
 40
0.9141591791608003
 40
0.9141591791608003
 40
0.9141591791608003
 40
1.0
 40
1.0
 40
1.0
 40
1.0
 10
-21.92480702332896
 20
-5.310817487080873
 30
0.0
 10
-21.97294452244875
 20
-5.308227282881904
 30
0.0
 10
-22.02179045614391
 20
-5.298100002729969
 30
0.0
 10
-22.06731538777531
 20
-5.281067264563374
 30
0.0
 10
-22.11288603359827
 20
-5.264017422848733
 30
0.0
 10
-22.15641801502161
 20
-5.239527606499707
 30
0.0
 10
-22.19389651274893
 20
-5.209426036455219
 30
0.0
 10
-22.23030119824843
 20
-5.180186919175666
 30
0.0
 10
-22.26204048341445
 20
-5.14477126188206
 30
0.0
 10
-22.28596647678708
 20
-5.106148632378487
 30
0.0
 10
-22.30883959766339
 20
-5.069225606469502
 30
0.0
 10
-22.32522337379232
 20
-5.028295387916764
 30
0.0
 10
-22.33348005343751
 20
-4.986910190619214
 30
0.0
 10
-22.33780546822939
 20
-4.965229787327785
 30
0.0
 10
-22.34000000000014
 20
-4.943175426888708
 30
0.0
 10
-22.34000000000015
 20
-4.921305924858919
 30
0.0
 10
-22.34000000000015
 20
-4.881193910905845
 30
0.0
 10
-22.33246049415373
 20
-4.840845898530234
 30
0.0
 10
-22.31809824177582
 20
-4.803637478039201
 30
0.0
 10
-22.30374405022954
 20
-4.766449940819451
 30
0.0
 10
-22.28220523305036
 20
-4.731388446112803
 30
0.0
 10
-22.25540696650819
 20
-4.701187040090764
 30
0.0
 10
-22.22817994286375
 20
-4.670502428660265
 30
0.0
 10
-22.19482910869285
 20
-4.644016734872014
 30
0.0
 10
-22.15812035425782
 20
-4.623592929938186
 30
0.0
 10
-22.12001391021601
 20
-4.602391486527473
 30
0.0
 10
-22.07730851902694
 20
-4.587156097163338
 30
0.0
 10
-22.03337750918216
 20
-4.578835095722725
 30
0.0
 10
-21.99803558327054
 20
-4.572140958313554
 30
0.0
 10
-21.96126607020195
 20
-4.569752056282902
 30
0.0
 10
-21.92480702332896
 20
-4.571713861071843
 30
0.0
  0
SPLINE
  5
FD
330
1F
100
AcDbEntity
  8
SK3
100
AcDbSpline
210
0.0
220
0.0
230
1.0
 70
     8
 71
     3
 72
    35
 73
    31
 74
     0
 42
0.0000000082120378
 43
0.0000000001
 12
1.0
 22
0.0
 32
0.0
 13
1.0
 23
0.0
 33
0.0
 40
0.0
 40
0.0
 40
0.0
 40
0.0
 40
0.1081382012150544
 40
0.1081382012150544
 40
0.1081382012150544
 40
0.2163112666318068
 40
0.2163112666318068
 40
0.2163112666318068
 40
0.3239796062928785
 40
0.3239796062928785
 40
0.3239796062928785
 40
0.4311609476889225
 40
0.4311609476889225
 40
0.4311609476889225
 40
0.5000196012484293
 40
0.5000196012484293
 40
0.5000196012484293
 40
0.6069332885624037
 40
0.6069332885624037
 40
0.6069332885624037
 40
0.7138421892079677
 40
0.7138421892079677
 40
0.7138421892079677
 40
0.8208287696403764
 40
0.8208287696403764
 40
0.8208287696403764
 40
0.928103343909434
 40
0.928103343909434
 40
0.928103343909434
 40
1.0
 40
1.0
 40
1.0
 40
1.0
 10
-22.50694941044892
 20
-3.071195666522014
 30
0.0
 10
-22.55211478261298
 20
-3.071195666522014
 30
0.0
 10
-22.59790509247305
 20
-3.07849239691102
 30
0.0
 10
-22.64053311408486
 20
-3.092508858466694
 30
0.0
 10
-22.6831693346521
 20
-3.106528015909705
 30
0.0
 10
-22.72381903701954
 20
-3.127661166524445
 30
0.0
 10
-22.75906505017943
 20
-3.154125332618205
 30
0.0
 10
-22.79414835486954
 20
-3.180467330455661
 30
0.0
 10
-22.8248499436123
 20
-3.212819789904231
 30
0.0
 10
-22.84859085181021
 20
-3.24843285892098
 30
0.0
 10
-22.87222649974679
 20
-3.283888029978653
 30
0.0
 10
-22.88961825819001
 20
-3.323552808634435
 30
0.0
 10
-22.89931583319796
 20
-3.364088110769423
 30
0.0
 10
-22.90559847146646
 20
-3.39034917502621
 30
0.0
 10
-22.90879640709985
 20
-3.417356390689992
 30
0.0
 10
-22.90879640709985
 20
-3.444150791515106
 30
0.0
 10
-22.90879640709985
 20
-3.485408526886015
 30
0.0
 10
-22.901090740931
 20
-3.527101043233785
 30
0.0
 10
-22.88631867513449
 20
-3.565795311251376
 30
0.0
 10
-22.87154697105909
 20
-3.604488631768853
 30
0.0
 10
-22.84930223603731
 20
-3.641251613559736
 30
0.0
 10
-22.82143048869866
 20
-3.673103746778405
 30
0.0
 10
-22.79353761563484
 20
-3.70498002270346
 30
0.0
 10
-22.75924394880042
 20
-3.732816977478025
 30
0.0
 10
-22.72139039696708
 20
-3.754406104048902
 30
0.0
 10
-22.68343412516855
 20
-3.776053815196982
 30
0.0
 10
-22.64086147700236
 20
-3.792017453224141
 30
0.0
 10
-22.59717849727336
 20
-3.801074103956258
 30
0.0
 10
-22.56767327287485
 20
-3.807191326586394
 30
0.0
 10
-22.53721659593332
 20
-3.810299292531043
 30
0.0
 10
-22.50694941044892
 20
-3.810299292531043
 30
0.0
  0
LINE
  5
FE
330
1F
100
AcDbEntity
  8
SK1
  6
Continuous
100
AcDbLine
 10
-21.9248070233
 20
-4.5717138611
 30
0.0
 11
3.0473721046
 21
-5.9152903869
 31
0.0
  0
LINE
  5
FF
330
1F
100
AcDbEntity
  8
SK3
100
AcDbLine
 10
-22.5069494104
 20
-3.0711956665
 30
0.0
 11
12.26
 21
-3.0711956665
 31
0.0
  0
LINE
  5
100
330
1F
100
AcDbEntity
  8
SK3
100
AcDbLine
 10
-2.6582609509
 20
0.4000000998
 30
0.0
 11
-3.7359913242
 21
0.4000000998
 31
0.0
  0
ARC
  5
101
330
1F
100
AcDbEntity
  8
SK3
100
AcDbCircle
 10
-2.6563644383
 20
0.0000000998
 30
0.0
 40
0.400004495924537
100
AcDbArc
 50
269.7283466236
 51
90.2716533764
  0
ARC
  5
102
330
1F
100
AcDbEntity
  8
SK1
  6
Continuous
100
AcDbCircle
 10
-3.7399955132
 20
0.0000000998
 30
0.0
 40
0.4000200414090901
100
AcDbArc
 50
270.5735386566
 51
89.4264613434
  0
LINE
  5
103
330
1F
100
AcDbEntity
  8
SK3
100
AcDbLine
 10
-3.7359913242
 20
-0.3999999002
 30
0.0
 11
-2.6582609509
 21
-0.3999999002
 31
0.0
  0
LINE
  5
104
330
1F
100
AcDbEntity
  8
SK3
100
AcDbLine
 10
-22.5069494104
 20
3.0711958661
 30
0.0
 11
12.26
 21
3.0711958661
 31
0.0
  0
LINE
  5
105
330
1F
100
AcDbEntity
  8
SK1
  6
Continuous
100
AcDbLine
 10
-21.9248070233
 20
4.5717140606
 30
0.0
 11
3.0473721046
 21
5.9152905865
 31
0.0
  0
SPLINE
  5
106
330
1F
100
AcDbEntity
  8
SK1
  6
Continuous
100
AcDbSpline
210
0.0
220
0.0
230
1.0
 70
     8
 71
     3
 72
    35
 73
    31
 74
     0
 42
0.0000000080645082
 43
0.0000000001
 12
1.0
 22
0.0
 32
0.0
 13
1.0
 23
0.0
 33
0.0
 40
0.0
 40
0.0
 40
0.0
 40
0.0
 40
0.1140466951010024
 40
0.1140466951010024
 40
0.1140466951010024
 40
0.228294820751903
 40
0.228294820751903
 40
0.228294820751903
 40
0.3392741566161929
 40
0.3392741566161929
 40
0.3392741566161929
 40
0.4452969336874799
 40
0.4452969336874799
 40
0.4452969336874799
 40
0.5002192508761273
 40
0.5002192508761273
 40
0.5002192508761273
 40
0.6019916732935722
 40
0.6019916732935722
 40
0.6019916732935722
 40
0.7036615082091147
 40
0.7036615082091147
 40
0.7036615082091147
 40
0.8069310276856788
 40
0.8069310276856788
 40
0.8069310276856788
 40
0.9141591791607987
 40
0.9141591791607987
 40
0.9141591791607987
 40
1.0
 40
1.0
 40
1.0
 40
1.0
 10
-21.92480702332896
 20
4.57171406061325
 30
0.0
 10
-21.97294452244875
 20
4.569123856414281
 30
0.0
 10
-22.02179045614391
 20
4.574195108533972
 30
0.0
 10
-22.0673153877753
 20
4.586685305793396
 30
0.0
 10
-22.11288603359827
 20
4.59918804517534
 30
0.0
 10
-22.15641801502161
 20
4.619514923609542
 30
0.0
 10
-22.19389651274892
 20
4.646140247503637
 30
0.0
 10
-22.23030119824843
 20
4.672002718025773
 30
0.0
 10
-22.26204048341444
 20
4.704588104702977
 30
0.0
 10
-22.28596647678707
 20
4.741114784105442
 30
0.0
 10
-22.30883959766338
 20
4.776034092999772
 30
0.0
 10
-22.32522337379231
 20
4.815570442817045
 30
0.0
 10
-22.3334800534375
 20
4.856254400451394
 30
0.0
 10
-22.33780546822939
 20
4.877567446337396
 30
0.0
 10
-22.34000000000014
 20
4.899436622370483
 30
0.0
 10
-22.34000000000014
 20
4.921306124400269
 30
0.0
 10
-22.34000000000015
 20
4.961418138353342
 30
0.0
 10
-22.33246049415373
 20
5.002399508981829
 30
0.0
 10
-22.31809824177582
 20
5.040840149772922
 30
0.0
 10
-22.30374405022954
 20
5.079259215707591
 30
0.0
 10
-22.28220523305038
 20
5.116184731780125
 30
0.0
 10
-22.25540696650821
 20
5.148779624082901
 30
0.0
 10
-22.22817994286378
 20
5.181896016220402
 30
0.0
 10
-22.19482910869285
 20
5.211425555577889
 30
0.0
 10
-22.15812035425784
 20
5.235327366828152
 30
0.0
 10
-22.12001391021601
 20
5.260139242004099
 30
0.0
 10
-22.07730851902695
 20
5.27954884479791
 30
0.0
 10
-22.03337750918216
 20
5.292335647471353
 30
0.0
 10
-21.99803558327055
 20
5.302622463875711
 30
0.0
 10
-21.96126607020196
 20
5.308855881833337
 30
0.0
 10
-21.92480702332896
 20
5.310817686622278
 30
0.0
  0
SPLINE
  5
107
330
1F
100
AcDbEntity
  8
SK3
100
AcDbSpline
210
0.0
220
0.0
230
1.0
 70
     8
 71
     3
 72
    35
 73
    31
 74
     0
 42
0.0000000082121532
 43
0.0000000001
 12
1.0
 22
0.0
 32
0.0
 13
1.0
 23
0.0
 33
0.0
 40
0.0
 40
0.0
 40
0.0
 40
0.0
 40
0.1081382012150533
 40
0.1081382012150533
 40
0.1081382012150533
 40
0.2163112666318057
 40
0.2163112666318057
 40
0.2163112666318057
 40
0.3239796062928679
 40
0.3239796062928679
 40
0.3239796062928679
 40
0.4311609476889157
 40
0.4311609476889157
 40
0.4311609476889157
 40
0.5000196012484295
 40
0.5000196012484295
 40
0.5000196012484295
 40
0.6069332885624029
 40
0.6069332885624029
 40
0.6069332885624029
 40
0.7138421892079648
 40
0.7138421892079648
 40
0.7138421892079648
 40
0.8208287696403767
 40
0.8208287696403767
 40
0.8208287696403767
 40
0.9281033439094367
 40
0.9281033439094367
 40
0.9281033439094367
 40
1.0
 40
1.0
 40
1.0
 40
1.0
 10
-22.50694941044892
 20
3.810299492072448
 30
0.0
 10
-22.55211478261298
 20
3.810299492072448
 30
0.0
 10
-22.59790509247305
 20
3.803273613142661
 30
0.0
 10
-22.64053311408486
 20
3.789736087247682
 30
0.0
 10
-22.6831693346521
 20
3.776195957582524
 30
0.0
 10
-22.72381903701954
 20
3.755759666619012
 30
0.0
 10
-22.75906505017943
 20
3.730044458200273
 30
0.0
 10
-22.79414835486953
 20
3.704447960575666
 30
0.0
 10
-22.82484994361229
 20
3.672907265601969
 30
0.0
 10
-22.8485908518102
 20
3.637978831201404
 30
0.0
 10
-22.87222649974679
 20
3.603205259289743
 30
0.0
 10
-22.88961825819
 20
3.564109479893919
 30
0.0
 10
-22.89931583319795
 20
3.523895611308969
 30
0.0
 10
-22.90559847146645
 20
3.497842789908832
 30
0.0
 10
-22.90879640709985
 20
3.470945391881628
 30
0.0
 10
-22.90879640709985
 20
3.444150991056511
 30
0.0
 10
-22.90879640709985
 20
3.402893255685602
 30
0.0
 10
-22.90109074093101
 20
3.360932372819445
 30
0.0
 10
-22.88631867513449
 20
3.321764787399044
 30
0.0
 10
-22.87154697105909
 20
3.282598161068801
 30
0.0
 10
-22.84930223603732
 20
3.245147664091434
 30
0.0
 10
-22.82143048869867
 20
3.212555995280327
 30
0.0
 10
-22.79353761563484
 20
3.179939623222961
 30
0.0
 10
-22.75924394880043
 20
3.151296018360959
 30
0.0
 10
-22.72139039696708
 20
3.129023172080819
 30
0.0
 10
-22.68343412516855
 20
3.106689885871436
 30
0.0
 10
-22.64086147700236
 20
3.09015082457901
 30
0.0
 10
-22.59717849727335
 20
3.080762941926656
 30
0.0
 10
-22.56767327287485
 20
3.074421992064654
 30
0.0
 10
-22.53721659593332
 20
3.071195866063419
 30
0.0
 10
-22.50694941044892
 20
3.071195866063418
 30
0.0
  0
LINE
  5
108
330
1F
100
AcDbEntity
  8
SK1
  6
Continuous
100
AcDbLine
 10
-21.9248070233
 20
5.3108176866
 30
0.0
 11
3.0473721046
 21
6.6543942125
 31
0.0
  0
LINE
  5
109
330
1F
100
AcDbEntity
  8
SK3
100
AcDbLine
 10
-22.5069494104
 20
3.8102994921
 30
0.0
 11
12.26
 21
3.8102994921
 31
0.0
  0
ELLIPSE
  5
10A
330
1F
100
AcDbEntity
  8
SK1
  6
Continuous
100
AcDbEllipse
 10
51.5492454594
 20
0.3695519133
 30
0.0
 11
-74.59999999058105
 21
-5.905440684472485E-10
 31
0.0
210
0.0
220
0.0
230
1.0
 40
0.3826834324
 41
-0.1739612070950027
 42
-0.1503892275297591
  0
ELLIPSE
  5
10B
330
1F
100
AcDbEntity
  8
SK1
  6
Continuous
100
AcDbEllipse
 10
-76.7144558264
 20
0.2828428127
 30
0.0
 11
74.59999999617037
 21
-8.934952745189416E-10
 31
0.0
210
0.0
220
0.0
230
1.0
 40
0.7071067812
 41
0.1987141715346706
 42
0.2088808539033517
  0
SPLINE
  5
10C
330
1F
100
AcDbEntity
  8
SK3
100
AcDbSpline
210
0.0
220
0.0
230
1.0
 70
     8
 71
     3
 72
    35
 73
    31
 74
     0
 42
0.0000000091866342
 43
0.0000000001
 12
1.0
 22
0.0
 32
0.0
 13
1.0
 23
0.0
 33
0.0
 40
0.0
 40
0.0
 40
0.0
 40
0.0
 40
0.1081382012150502
 40
0.1081382012150502
 40
0.1081382012150502
 40
0.2163112666318028
 40
0.2163112666318028
 40
0.2163112666318028
 40
0.3239796062928511
 40
0.3239796062928511
 40
0.3239796062928511
 40
0.4311609476888996
 40
0.4311609476888996
 40
0.4311609476888996
 40
0.5000196012484275
 40
0.5000196012484275
 40
0.5000196012484275
 40
0.6069332885624006
 40
0.6069332885624006
 40
0.6069332885624006
 40
0.713842189207966
 40
0.713842189207966
 40
0.713842189207966
 40
0.8208287696403724
 40
0.8208287696403724
 40
0.8208287696403724
 40
0.9281033439094258
 40
0.9281033439094258
 40
0.9281033439094258
 40
1.0
 40
1.0
 40
1.0
 40
1.0
 10
-2.658260950895468
 20
6.074829917397013
 30
0.0
 10
-2.613095578731409
 20
6.074829917397014
 30
0.0
 10
-2.567305268871338
 20
6.080561176811078
 30
0.0
 10
-2.524677247259531
 20
6.091548110158341
 30
0.0
 10
-2.482041026692291
 20
6.102537156701887
 30
0.0
 10
-2.441391324324852
 20
6.119088907655362
 30
0.0
 10
-2.406145311164959
 20
6.139749036459136
 30
0.0
 10
-2.371062006474861
 20
6.160313790562569
 30
0.0
 10
-2.34036041773209
 20
6.185514614785056
 30
0.0
 10
-2.316619509534185
 20
6.213142199346119
 30
0.0
 10
-2.292983861597592
 20
6.240647291256685
 30
0.0
 10
-2.275592103154376
 20
6.271313338717157
 30
0.0
 10
-2.26589452814643
 20
6.302511674406842
 30
0.0
 10
-2.259611889877922
 20
6.322723723043447
 30
0.0
 10
-2.256413954244523
 20
6.343453583897778
 30
0.0
 10
-2.256413954244523
 20
6.363961130449626
 30
0.0
 10
-2.256413954244523
 20
6.395538434016327
 30
0.0
 10
-2.264119620413378
 20
6.427303265622968
 30
0.0
 10
-2.278891686209899
 20
6.456662418686089
 30
0.0
 10
-2.2936633902853
 20
6.486020852836505
 30
0.0
 10
-2.31590812530708
 20
6.513785940410206
 30
0.0
 10
-2.343779872645728
 20
6.5377642739682
 30
0.0
 10
-2.371672745709546
 20
6.561760782191696
 30
0.0
 10
-2.405966412543951
 20
6.582629709109646
 30
0.0
 10
-2.443819964377296
 20
6.598783284785217
 30
0.0
 10
-2.481776236175826
 20
6.614980695045672
 30
0.0
 10
-2.52434888434202
 20
6.626887317805101
 30
0.0
 10
-2.568031864071023
 20
6.633639716757423
 30
0.0
 10
-2.597537088469531
 20
6.638200555957324
 30
0.0
 10
-2.627993765411063
 20
6.640515342346252
 30
0.0
 10
-2.658260950895468
 20
6.640515342346252
 30
0.0
  0
SPLINE
  5
10D
330
1F
100
AcDbEntity
  8
SK1
  6
Continuous
100
AcDbSpline
210
0.0
220
0.0
230
1.0
 70
     8
 71
     3
 72
    35
 73
    31
 74
     0
 42
0.0000000092457244
 43
0.0000000001
 12
1.0
 22
0.0
 32
0.0
 13
1.0
 23
0.0
 33
0.0
 40
0.0
 40
0.0
 40
0.0
 40
0.0
 40
0.1076873144994245
 40
0.1076873144994245
 40
0.1076873144994245
 40
0.2153859646719072
 40
0.2153859646719072
 40
0.2153859646719072
 40
0.3229211770831074
 40
0.3229211770831074
 40
0.3229211770831074
 40
0.4302974370948164
 40
0.4302974370948164
 40
0.4302974370948164
 40
0.5000063759059428
 40
0.5000063759059428
 40
0.5000063759059428
 40
0.6072943446396721
 40
0.6072943446396721
 40
0.6072943446396721
 40
0.714580735037296
 40
0.714580735037296
 40
0.714580735037296
 40
0.8218927724991485
 40
0.8218927724991485
 40
0.8218927724991485
 40
0.9292995131762495
 40
0.9292995131762495
 40
0.9292995131762495
 40
1.0
 40
1.0
 40
1.0
 40
1.0
 10
-3.735991324228685
 20
11.22139203854112
 30
0.0
 10
-3.691530379694803
 20
11.22581192744153
 30
0.0
 10
-3.646483917844947
 20
11.22496462470737
 30
0.0
 10
-3.604576299425222
 20
11.21888652697288
 30
0.0
 10
-3.562666046493903
 20
11.21280804714034
 30
0.0
 10
-3.522738413628792
 20
11.2013268563028
 30
0.0
 10
-3.488104890182379
 20
11.18533057995861
 30
0.0
 10
-3.453523374075156
 20
11.16935832438063
 30
0.0
 10
-3.423264198386322
 20
11.14843983019727
 30
0.0
 10
-3.39983187825836
 20
11.12424261834114
 30
0.0
 10
-3.376433513497202
 20
11.10008047024309
 30
0.0
 10
-3.359195250862041
 20
11.0719793100376
 30
0.0
 10
-3.349538750649152
 20
11.04222256540185
 30
0.0
 10
-3.343217909000767
 20
11.02274473527008
 30
0.0
 10
-3.339999999999996
 20
11.00227923123484
 30
0.0
 10
-3.339999999999996
 20
10.98155808631215
 30
0.0
 10
-3.339999999999996
 20
10.94992730589487
 30
0.0
 10
-3.347618441149181
 20
10.916959069162
 30
0.0
 10
-3.362228347635146
 20
10.88540535972543
 30
0.0
 10
-3.376838136566964
 20
10.85385190417615
 30
0.0
 10
-3.39884247652212
 20
10.82284497585947
 30
0.0
 10
-3.426428906884961
 20
10.79500489239854
 30
0.0
 10
-3.454022215765145
 20
10.76715786717333
 30
0.0
 10
-3.487960741558205
 20
10.7417152247803
 30
0.0
 10
-3.525446613183317
 20
10.72083997446527
 30
0.0
 10
-3.562965835685894
 20
10.69994615160851
 30
0.0
 10
-3.605070934506645
 20
10.68305527562236
 30
0.0
 10
-3.648290735418412
 20
10.67159765123846
 30
0.0
 10
-3.676969597923107
 20
10.66399484818513
 30
0.0
 10
-3.706564389521206
 20
10.65863196264711
 30
0.0
 10
-3.735991324228713
 20
10.65570661359188
 30
0.0
  0
LINE
  5
10E
330
1F
100
AcDbEntity
  8
SK1
  6
Continuous
100
AcDbLine
 10
3.0473721046
 20
16.4279549475
 30
0.0
 11
-3.34
 21
15.5302683403
 31
0.0
  0
LINE
  5
10F
330
1F
100
AcDbEntity
  8
SK1
  6
Continuous
100
AcDbLine
 10
-3.34
 20
-15.5302681408
 30
0.0
 11
3.0473721046
 21
-16.4279547479
 31
0.0
  0
LINE
  5
110
330
1F
100
AcDbEntity
  8
SK3
100
AcDbLine
 10
-2.2564139542
 20
-8.9999999002
 30
0.0
 11
12.26
 21
-8.9999999002
 31
0.0
  0
LINE
  5
111
330
1F
100
AcDbEntity
  8
SK3
100
AcDbLine
 10
12.26
 20
9.0000000998
 30
0.0
 11
-2.2564139542
 21
9.0000000998
 31
0.0
  0
LINE
  5
112
330
1F
100
AcDbEntity
  8
SK1
  6
Continuous
100
AcDbLine
 10
7.16
 20
-16.4999999002
 30
0.0
 11
7.4631088913
 21
-16.4999999002
 31
0.0
  0
ARC
  5
113
330
1F
100
AcDbEntity
  8
SK3
100
AcDbCircle
 10
12.26
 20
-9.3999999002
 30
0.0
 40
0.4000000000000005
100
AcDbArc
 50
0.0
 51
90.0
  0
ARC
  5
114
330
1F
100
AcDbEntity
  8
SK1
  6
Continuous
100
AcDbCircle
 10
12.41
 20
-13.3552358524
 30
0.0
 40
0.2500000000000023
100
AcDbArc
 50
300.0
 51
0.0
  0
ARC
  5
115
330
1F
100
AcDbEntity
  8
SK1
  6
Continuous
100
AcDbCircle
 10
3.11
 20
-15.982334117
 30
0.0
 40
0.4500000000000018
100
AcDbArc
 50
262.0
 51
0.0
  0
ARC
  5
116
330
1F
100
AcDbEntity
  8
SK1
  6
Continuous
100
AcDbCircle
 10
6.96
 20
-14.7999999002
 30
0.0
 40
0.200000000000001
100
AcDbArc
 50
0.0
 51
90.0
  0
ARC
  5
117
330
1F
100
AcDbEntity
  8
SK1
  6
Continuous
100
AcDbCircle
 10
3.76
 20
-14.7999999002
 30
0.0
 40
0.1999999999999994
100
AcDbArc
 50
90.0
 51
180.0
  0
LINE
  5
118
330
1F
100
AcDbEntity
  8
SK1
  6
Continuous
100
AcDbLine
 10
3.76
 20
-14.5999999002
 30
0.0
 11
6.96
 21
-14.5999999002
 31
0.0
  0
LINE
  5
119
330
1F
100
AcDbEntity
  8
SK1
  6
Continuous
100
AcDbLine
 10
7.4631088913
 20
-16.4999999002
 30
0.0
 11
12.535
 21
-13.5717422033
 31
0.0
  0
LINE
  5
11A
330
1F
100
AcDbEntity
  8
SK1
  6
Continuous
100
AcDbLine
 10
7.4631088913
 20
16.5000000998
 30
0.0
 11
7.16
 21
16.5000000998
 31
0.0
  0
ARC
  5
11B
330
1F
100
AcDbEntity
  8
SK3
100
AcDbCircle
 10
12.26
 20
9.4000000998
 30
0.0
 40
0.3999999999999976
100
AcDbArc
 50
270.0
 51
0.0
  0
ARC
  5
11C
330
1F
100
AcDbEntity
  8
SK1
  6
Continuous
100
AcDbCircle
 10
12.41
 20
13.3552360519
 30
0.0
 40
0.2500000000000002
100
AcDbArc
 50
0.0
 51
60.0
  0
ARC
  5
11D
330
1F
100
AcDbEntity
  8
SK1
  6
Continuous
100
AcDbCircle
 10
3.11
 20
15.9823343165
 30
0.0
 40
0.4500000000000001
100
AcDbArc
 50
0.0
 51
98.0
  0
ARC
  5
11E
330
1F
100
AcDbEntity
  8
SK1
  6
Continuous
100
AcDbCircle
 10
6.96
 20
14.8000000998
 30
0.0
 40
0.1999999999999997
100
AcDbArc
 50
270.0
 51
360.0
  0
ARC
  5
11F
330
1F
100
AcDbEntity
  8
SK1
  6
Continuous
100
AcDbCircle
 10
3.76
 20
14.8000000998
 30
0.0
 40
0.200000000000001
100
AcDbArc
 50
180.0
 51
270.0
  0
LINE
  5
120
330
1F
100
AcDbEntity
  8
SK1
  6
Continuous
100
AcDbLine
 10
6.96
 20
14.6000000998
 30
0.0
 11
3.76
 21
14.6000000998
 31
0.0
  0
LINE
  5
121
330
1F
100
AcDbEntity
  8
SK1
  6
Continuous
100
AcDbLine
 10
12.535
 20
13.5717424029
 30
0.0
 11
7.4631088913
 21
16.5000000998
 31
0.0
  0
ARC
  5
122
330
1F
100
AcDbEntity
  8
SK3
100
AcDbCircle
 10
40.0623032951
 20
0.0978530655
 30
0.0
 40
63.50545270521391
100
AcDbArc
 50
169.2961585941
 51
172.5788811981
  0
ARC
  5
123
330
1F
100
AcDbEntity
  8
SK3
100
AcDbCircle
 10
-76.7144558302
 20
0.0000000998
 30
0.0
 40
75.00000000000003
100
AcDbArc
 50
348.0492930531
 51
353.1078672092
  0
ARC
  5
124
330
1F
100
AcDbEntity
  8
SK3
100
AcDbCircle
 10
-76.7144558302
 20
0.0000000998
 30
0.0
 40
75.00000000000003
100
AcDbArc
 50
6.8921310979
 51
11.9507057586
  0
ARC
  5
125
330
1F
100
AcDbEntity
  8
SK3
100
AcDbCircle
 10
40.6852089362
 20
-0.00450121
 30
0.0
 40
64.13519920085689
100
AcDbArc
 50
187.4319414242
 51
190.6819286211
  0
ARC
  5
126
330
1F
100
AcDbEntity
  8
SK3
100
AcDbCircle
 10
-40.7161693255
 20
0.1780479119
 30
0.0
 40
39.01462078206745
100
AcDbArc
 50
343.292579242
 51
350.2967576051
  0
ARC
  5
127
330
1F
100
AcDbEntity
  8
SK3
100
AcDbCircle
 10
-10.1519227537
 20
0.4916310731
 30
0.0
 40
13.36571005869037
100
AcDbArc
 50
197.541893788
 51
204.5640755239
  0
ARC
  5
128
330
1F
100
AcDbEntity
  8
SK3
100
AcDbCircle
 10
-10.2572097299
 20
-0.4541021898
 30
0.0
 40
13.25400861966904
100
AcDbArc
 50
155.3947746086
 51
162.4756125115
  0
ARC
  5
129
330
1F
100
AcDbEntity
  8
SK3
100
AcDbCircle
 10
-40.7010157016
 20
-0.1788178617
 30
0.0
 40
39.00001703926559
100
AcDbArc
 50
9.7083167467
 51
16.7147665056
  0
LINE
  5
12A
330
1F
100
AcDbEntity
  8
SK1
  6
Continuous
100
AcDbLine
 10
0.0
 20
15.9996747282
 30
0.0
 11
0.0
 21
-15.9996745287
 31
0.0
  0
LINE
  5
12C
330
1F
100
AcDbEntity
  8
SK4
  6
Continuous
100
AcDbLine
 10
12.66
 20
0.0000000998
 30
0.0
 11
-27.34
 21
0.0000000998
 31
0.0
  0
DIMENSION
  5
142
330
1F
100
AcDbEntity
  8
SK2
  6
Continuous
 62
   136
100
AcDbDimension
  2
DMBLK89
 10
12.66
 20
26.4357481778
 30
0.0
 11
-7.340000447
 21
26.4357481778
 31
0.0
 70
   160
  1
\A1;<>
 71
     5
 42
-1.0
  3
DIN
100
AcDbAlignedDimension
 13
-27.34
 23
11.8897757188
 33
0.0
 14
12.66
 24
12.180020447
 34
0.0
100
AcDbRotatedDimension
  0
INSERT
  5
156
330
1F
100
AcDbEntity
  8
SK2
 62
     7
100
AcDbBlockReference
  2
Nullpunkt
 10
0.0
 20
0.0000000998
 30
0.0
  0
INSERT
  5
161
330
1F
100
AcDbEntity
  8
SK2
 62
     7
100
AcDbBlockReference
  2
Einfügepunkt
 10
12.66
 20
0.0000000998
 30
0.0
  0
DIMENSION
  5
162
330
1F
100
AcDbEntity
  8
SK2
  6
Continuous
 62
   136
100
AcDbDimension
  2
DMBLK90
 10
22.6600000283
 20
-8.9999999002
 30
0.0
 11
22.6600000283
 21
-0.0000002877
 31
0.0
 70
   161
  1
\A1;ø <>
 71
     5
 42
-1.0
  3
DIN
100
AcDbAlignedDimension
 13
12.26
 23
-8.9999999002
 33
0.0
 14
12.26
 24
9.0000000998
 34
0.0
  0
DIMENSION
  5
16D
330
1F
100
AcDbEntity
  8
SK2
  6
Continuous
 62
   136
100
AcDbDimension
  2
DMBLK91
 10
12.66
 20
-24.3013423978
 30
0.0
 11
6.329999771
 21
-24.3013423978
 31
0.0
 70
   160
  1
\A1;<>
 71
     5
 42
-1.0
  3
DIN
100
AcDbAlignedDimension
 13
0.0
 23
-15.9996745287
 33
0.0
 14
12.66
 24
-12.1800202475
 34
0.0
100
AcDbRotatedDimension
  0
DIMENSION
  5
177
330
1F
100
AcDbEntity
  8
SK2
  6
Continuous
 62
   136
100
AcDbDimension
  2
DMBLK92
 10
-34.9164195359
 20
15.9996747282
 30
0.0
 11
-34.9164195359
 21
-0.0000000688
 31
0.0
 70
   161
  1
\A1;ø <>
 71
     5
 42
-1.0
  3
DIN
100
AcDbAlignedDimension
 13
0.0
 23
15.9996747282
 33
0.0
 14
0.0
 24
-15.9996745287
 34
0.0
  0
ENDSEC
  0
SECTION
  2
OBJECTS
  0
DICTIONARY
  5
C
330
0
100
AcDbDictionary
281
     1
  3
ACAD_GROUP
350
D
  3
ACAD_LAYOUT
350
1A
  3
ACAD_MATERIAL
350
3B
  3
ACAD_MLEADERSTYLE
350
184
  3
ACAD_MLINESTYLE
350
17
  3
ACAD_PLOTSETTINGS
350
19
  3
ACAD_PLOTSTYLENAME
350
E
  3
ACAD_VISUALSTYLE
350
2A
  3
AcDbVariableDictionary
350
182
  0
DICTIONARY
  5
D
102
{ACAD_REACTORS
330
C
102
}
330
C
100
AcDbDictionary
281
     1
  0
DICTIONARY
  5
1A
102
{ACAD_REACTORS
330
C
102
}
330
C
100
AcDbDictionary
281
     1
  3
Layout1
350
1E
  3
Model
350
22
  0
DICTIONARY
  5
3B
102
{ACAD_REACTORS
330
C
102
}
330
C
100
AcDbDictionary
281
     1
  3
ByBlock
350
3D
  3
ByLayer
350
3C
  3
Global
350
3E
  0
DICTIONARY
  5
184
102
{ACAD_REACTORS
330
C
102
}
330
C
100
AcDbDictionary
281
     1
  0
DICTIONARY
  5
17
102
{ACAD_REACTORS
330
C
102
}
330
C
100
AcDbDictionary
281
     1
  3
Standard
350
18
  0
DICTIONARY
  5
19
102
{ACAD_REACTORS
330
C
102
}
330
C
100
AcDbDictionary
281
     1
  0
ACDBDICTIONARYWDFLT
  5
E
102
{ACAD_REACTORS
330
C
102
}
330
C
100
AcDbDictionary
281
     1
  3
Normal
350
F
100
AcDbDictionaryWithDefault
340
F
  0
DICTIONARY
  5
2A
102
{ACAD_REACTORS
330
C
102
}
330
C
100
AcDbDictionary
281
     1
  3
2dWireframe
350
2F
  3
3D Hidden
350
31
  3
3dWireframe
350
30
  3
Basic
350
32
  3
Brighten
350
36
  3
ColorChange
350
3A
  3
Conceptual
350
34
  3
Dim
350
35
  3
Facepattern
350
39
  3
Flat
350
2B
  3
FlatWithEdges
350
2C
  3
Gouraud
350
2D
  3
GouraudWithEdges
350
2E
  3
Linepattern
350
38
  3
Realistic
350
33
  3
Thicken
350
37
  0
DICTIONARY
  5
182
102
{ACAD_REACTORS
330
C
102
}
330
C
100
AcDbDictionary
281
     1
  3
DIMASSOC
350
187
  3
HIDETEXT
350
188
  3
PSOLHEIGHT
350
186
  3
PSOLWIDTH
350
185
  0
LAYOUT
  5
1E
102
{ACAD_REACTORS
330
1A
102
}
330
1A
100
AcDbPlotSettings
  1

  2
none_device
  4

  6

 40
0.0
 41
0.0
 42
0.0
 43
0.0
 44
0.0
 45
0.0
 46
0.0
 47
0.0
 48
0.0
 49
0.0
140
0.0
141
0.0
142
1.0
143
1.0
 70
   688
 72
     0
 73
     0
 74
     5
  7

 75
    16
147
1.0
148
0.0
149
0.0
100
AcDbLayout
  1
Layout1
 70
     1
 71
     1
 10
0.0
 20
0.0
 11
210.0
 21
297.0
 12
0.0
 22
0.0
 32
0.0
 14
0.0
 24
0.0
 34
0.0
 15
210.0
 25
297.0
 35
0.0
146
0.0
 13
0.0
 23
0.0
 33
0.0
 16
1.0
 26
0.0
 36
0.0
 17
0.0
 27
1.0
 37
0.0
 76
     0
330
1B
  0
LAYOUT
  5
22
102
{ACAD_REACTORS
330
1A
102
}
330
1A
100
AcDbPlotSettings
  1

  2
none_device
  4

  6

 40
0.0
 41
0.0
 42
0.0
 43
0.0
 44
0.0
 45
0.0
 46
0.0
 47
0.0
 48
0.0
 49
0.0
140
0.0
141
0.0
142
1.0
143
1.0
 70
  1712
 72
     0
 73
     0
 74
     0
  7

 75
     0
147
1.0
148
0.0
149
0.0
100
AcDbLayout
  1
Model
 70
     1
 71
     0
 10
0.0
 20
0.0
 11
210.0
 21
297.0
 12
0.0
 22
0.0
 32
0.0
 14
0.0
 24
0.0
 34
0.0
 15
210.0
 25
297.0
 35
0.0
146
0.0
 13
0.0
 23
0.0
 33
0.0
 16
1.0
 26
0.0
 36
0.0
 17
0.0
 27
1.0
 37
0.0
 76
     0
330
1F
331
29
  0
MATERIAL
  5
3D
102
{ACAD_REACTORS
330
3B
102
}
102
{ACAD_XDICTIONARY
360
1AB
102
}
330
3B
100
AcDbMaterial
  1
ByBlock
  0
MATERIAL
  5
3C
102
{ACAD_REACTORS
330
3B
102
}
102
{ACAD_XDICTIONARY
360
1A9
102
}
330
3B
100
AcDbMaterial
  1
ByLayer
  0
MATERIAL
  5
3E
102
{ACAD_REACTORS
330
3B
102
}
102
{ACAD_XDICTIONARY
360
1AD
102
}
330
3B
100
AcDbMaterial
  1
Global
  0
MLINESTYLE
  5
18
102
{ACAD_REACTORS
330
17
102
}
330
17
100
AcDbMlineStyle
  2
Standard
 70
     0
  3

 62
   256
 51
90.0
 52
90.0
 71
     2
 49
0.5
 62
   256
  6
BYLAYER
 49
-0.5
 62
   256
  6
BYLAYER
  0
ACDBPLACEHOLDER
  5
F
102
{ACAD_REACTORS
330
E
102
}
330
E
  0
VISUALSTYLE
  5
2F
102
{ACAD_REACTORS
330
2A
102
}
102
{ACAD_XDICTIONARY
360
191
102
}
330
2A
100
AcDbVisualStyle
  2
2dWireframe
 70
     4
 71
     0
 72
     2
 73
     0
 90
        0
 40
-0.6
 41
-30.0
 62
     5
 63
     7
 74
     1
 91
        4
 64
     7
 65
   257
 75
     1
175
     1
 42
1.0
 92
        0
 66
   257
 43
1.0
 76
     1
 77
     6
 78
     2
 67
     7
 79
     5
170
     0
171
     0
290
     0
174
     0
 93
        1
 44
0.0
173
     0
291
     0
 45
0.0
1001
ACAD
1000
AcDbSavedByObjectVersion
1070
     0
  0
VISUALSTYLE
  5
31
102
{ACAD_REACTORS
330
2A
102
}
102
{ACAD_XDICTIONARY
360
195
102
}
330
2A
100
AcDbVisualStyle
  2
3D Hidden
 70
     6
 71
     1
 72
     2
 73
     2
 90
        0
 40
-0.6
 41
-30.0
 62
     5
 63
     7
 74
     2
 91
        2
 64
     7
 65
   257
 75
     2
175
     1
 42
40.0
 92
        0
 66
   257
 43
1.0
 76
     1
 77
     6
 78
     2
 67
     7
 79
     3
170
     0
171
     0
290
     0
174
     0
 93
        1
 44
0.0
173
     0
291
     0
 45
0.0
1001
ACAD
1000
AcDbSavedByObjectVersion
1070
     0
  0
VISUALSTYLE
  5
30
102
{ACAD_REACTORS
330
2A
102
}
102
{ACAD_XDICTIONARY
360
193
102
}
330
2A
100
AcDbVisualStyle
  2
3dWireframe
 70
     5
 71
     0
 72
     2
 73
     0
 90
        0
 40
-0.6
 41
-30.0
 62
     5
 63
     7
 74
     1
 91
        4
 64
     7
 65
   257
 75
     1
175
     1
 42
1.0
 92
        0
 66
   257
 43
1.0
 76
     1
 77
     6
 78
     2
 67
     7
 79
     5
170
     0
171
     0
290
     0
174
     0
 93
        1
 44
0.0
173
     0
291
     0
 45
0.0
1001
ACAD
1000
AcDbSavedByObjectVersion
1070
     0
  0
VISUALSTYLE
  5
32
102
{ACAD_REACTORS
330
2A
102
}
102
{ACAD_XDICTIONARY
360
197
102
}
330
2A
100
AcDbVisualStyle
  2
Basic
 70
     7
 71
     1
 72
     0
 73
     1
 90
        0
 40
-0.6
 41
-30.0
 62
     5
 63
     7
 74
     0
 91
        4
 64
     7
 65
   257
 75
     1
175
     1
 42
1.0
 92
        8
 66
     7
 43
1.0
 76
     1
 77
     6
 78
     2
 67
     7
 79
     5
170
     0
171
     0
290
     0
174
     0
 93
        1
 44
0.0
173
     0
291
     1
 45
0.0
1001
ACAD
1000
AcDbSavedByObjectVersion
1070
     0
  0
VISUALSTYLE
  5
36
102
{ACAD_REACTORS
330
2A
102
}
102
{ACAD_XDICTIONARY
360
19F
102
}
330
2A
100
AcDbVisualStyle
  2
Brighten
 70
    12
 71
     2
 72
     2
 73
     0
 90
        0
 40
-0.6
 41
-30.0
 62
     5
 63
     7
 74
     1
 91
        4
 64
     7
 65
   257
 75
     1
175
     1
 42
1.0
 92
        8
 66
     7
 43
1.0
 76
     1
 77
     6
 78
     2
 67
     7
 79
     5
170
     0
171
     0
290
     0
174
     0
 93
        1
 44
50.0
173
     0
291
     1
 45
0.0
1001
ACAD
1000
AcDbSavedByObjectVersion
1070
     0
  0
VISUALSTYLE
  5
3A
102
{ACAD_REACTORS
330
2A
102
}
102
{ACAD_XDICTIONARY
360
1A7
102
}
330
2A
100
AcDbVisualStyle
  2
ColorChange
 70
    16
 71
     2
 72
     2
 73
     3
 90
        0
 40
-0.6
 41
-30.0
 62
     5
 63
     8
 74
     1
 91
        4
 64
     7
 65
   257
 75
     1
175
     1
 42
1.0
 92
        8
 66
     8
 43
1.0
 76
     1
 77
     6
 78
     2
 67
     7
 79
     5
170
     0
171
     0
290
     0
174
     0
 93
        1
 44
0.0
173
     0
291
     1
 45
0.0
1001
ACAD
1000
AcDbSavedByObjectVersion
1070
     0
  0
VISUALSTYLE
  5
34
102
{ACAD_REACTORS
330
2A
102
}
102
{ACAD_XDICTIONARY
360
19B
102
}
330
2A
100
AcDbVisualStyle
  2
Conceptual
 70
     9
 71
     3
 72
     2
 73
     0
 90
        0
 40
-0.6
 41
-30.0
 62
     5
 63
     7
 74
     2
 91
        2
 64
     7
 65
   257
 75
     1
175
     1
 42
40.0
 92
        8
 66
     7
 43
1.0
 76
     1
 77
     6
 78
     2
 67
     7
 79
     3
170
     0
171
     0
290
     0
174
     0
 93
        1
 44
0.0
173
     0
291
     0
 45
0.0
1001
ACAD
1000
AcDbSavedByObjectVersion
1070
     0
  0
VISUALSTYLE
  5
35
102
{ACAD_REACTORS
330
2A
102
}
102
{ACAD_XDICTIONARY
360
19D
102
}
330
2A
100
AcDbVisualStyle
  2
Dim
 70
    11
 71
     2
 72
     2
 73
     0
 90
        0
 40
-0.6
 41
-30.0
 62
     5
 63
     7
 74
     1
 91
        4
 64
     7
 65
   257
 75
     1
175
     1
 42
1.0
 92
        8
 66
     7
 43
1.0
 76
     1
 77
     6
 78
     2
 67
     7
 79
     5
170
     0
171
     0
290
     0
174
     0
 93
        1
 44
-50.0
173
     0
291
     1
 45
0.0
1001
ACAD
1000
AcDbSavedByObjectVersion
1070
     0
  0
VISUALSTYLE
  5
39
102
{ACAD_REACTORS
330
2A
102
}
102
{ACAD_XDICTIONARY
360
1A5
102
}
330
2A
100
AcDbVisualStyle
  2
Facepattern
 70
    15
 71
     2
 72
     2
 73
     0
 90
        0
 40
-0.6
 41
-30.0
 62
     5
 63
     7
 74
     1
 91
        4
 64
     7
 65
   257
 75
     1
175
     1
 42
1.0
 92
        8
 66
     7
 43
1.0
 76
     1
 77
     6
 78
     2
 67
     7
 79
     5
170
     0
171
     0
290
     0
174
     0
 93
        1
 44
0.0
173
     0
291
     1
 45
0.0
1001
ACAD
1000
AcDbSavedByObjectVersion
1070
     0
  0
VISUALSTYLE
  5
2B
102
{ACAD_REACTORS
330
2A
102
}
102
{ACAD_XDICTIONARY
360
189
102
}
330
2A
100
AcDbVisualStyle
  2
Flat
 70
     0
 71
     2
 72
     1
 73
     1
 90
        2
 40
-0.6
 41
30.0
 62
     5
 63
     7
 74
     0
 91
        4
 64
     7
 65
   257
 75
     1
175
     1
 42
1.0
 92
        8
 66
     7
 43
1.0
 76
     1
 77
     6
 78
     2
 67
     7
 79
     5
170
     0
171
     0
290
     0
174
     0
 93
       13
 44
0.0
173
     0
291
     1
 45
0.0
1001
ACAD
1000
AcDbSavedByObjectVersion
1070
     0
  0
VISUALSTYLE
  5
2C
102
{ACAD_REACTORS
330
2A
102
}
102
{ACAD_XDICTIONARY
360
18B
102
}
330
2A
100
AcDbVisualStyle
  2
FlatWithEdges
 70
     1
 71
     2
 72
     1
 73
     1
 90
        2
 40
-0.6
 41
30.0
 62
     5
 63
     7
 74
     1
 91
        4
 64
     7
 65
   257
 75
     1
175
     1
 42
1.0
 92
        0
 66
   257
 43
1.0
 76
     1
 77
     6
 78
     2
 67
     7
 79
     5
170
     0
171
     0
290
     0
174
     0
 93
       13
 44
0.0
173
     0
291
     1
 45
0.0
1001
ACAD
1000
AcDbSavedByObjectVersion
1070
     0
  0
VISUALSTYLE
  5
2D
102
{ACAD_REACTORS
330
2A
102
}
102
{ACAD_XDICTIONARY
360
18D
102
}
330
2A
100
AcDbVisualStyle
  2
Gouraud
 70
     2
 71
     2
 72
     2
 73
     1
 90
        2
 40
-0.6
 41
30.0
 62
     5
 63
     7
 74
     0
 91
        4
 64
     7
 65
   257
 75
     1
175
     1
 42
1.0
 92
        0
 66
     7
 43
1.0
 76
     1
 77
     6
 78
     2
 67
     7
 79
     5
170
     0
171
     0
290
     0
174
     0
 93
       13
 44
0.0
173
     0
291
     1
 45
0.0
1001
ACAD
1000
AcDbSavedByObjectVersion
1070
     0
  0
VISUALSTYLE
  5
2E
102
{ACAD_REACTORS
330
2A
102
}
102
{ACAD_XDICTIONARY
360
18F
102
}
330
2A
100
AcDbVisualStyle
  2
GouraudWithEdges
 70
     3
 71
     2
 72
     2
 73
     1
 90
        2
 40
-0.6
 41
30.0
 62
     5
 63
     7
 74
     1
 91
        4
 64
     7
 65
   257
 75
     1
175
     1
 42
1.0
 92
        0
 66
   257
 43
1.0
 76
     1
 77
     6
 78
     2
 67
     7
 79
     5
170
     0
171
     0
290
     0
174
     0
 93
       13
 44
0.0
173
     0
291
     1
 45
0.0
1001
ACAD
1000
AcDbSavedByObjectVersion
1070
     0
  0
VISUALSTYLE
  5
38
102
{ACAD_REACTORS
330
2A
102
}
102
{ACAD_XDICTIONARY
360
1A3
102
}
330
2A
100
AcDbVisualStyle
  2
Linepattern
 70
    14
 71
     2
 72
     2
 73
     0
 90
        0
 40
-0.6
 41
-30.0
 62
     5
 63
     7
 74
     1
 91
        4
 64
     7
 65
   257
 75
     7
175
     7
 42
1.0
 92
        8
 66
     7
 43
1.0
 76
     1
 77
     6
 78
     2
 67
     7
 79
     5
170
     0
171
     0
290
     0
174
     0
 93
        1
 44
0.0
173
     0
291
     1
 45
0.0
1001
ACAD
1000
AcDbSavedByObjectVersion
1070
     0
  0
VISUALSTYLE
  5
33
102
{ACAD_REACTORS
330
2A
102
}
102
{ACAD_XDICTIONARY
360
199
102
}
330
2A
100
AcDbVisualStyle
  2
Realistic
 70
     8
 71
     2
 72
     2
 73
     0
 90
        0
 40
-0.6
 41
-30.0
 62
     5
 63
     7
 74
     1
 91
        0
 64
     7
 65
   257
 75
     1
175
     1
 42
1.0
 92
        8
 66
     8
 43
1.0
 76
     1
 77
     6
 78
     2
 67
     7
 79
     5
170
     0
171
     0
290
     0
174
     0
 93
       13
 44
0.0
173
     0
291
     0
 45
0.0
1001
ACAD
1000
AcDbSavedByObjectVersion
1070
     0
  0
VISUALSTYLE
  5
37
102
{ACAD_REACTORS
330
2A
102
}
102
{ACAD_XDICTIONARY
360
1A1
102
}
330
2A
100
AcDbVisualStyle
  2
Thicken
 70
    13
 71
     2
 72
     2
 73
     0
 90
        0
 40
-0.6
 41
-30.0
 62
     5
 63
     7
 74
     1
 91
        4
 64
     7
 65
   257
 75
     1
175
     1
 42
1.0
 92
       12
 66
     7
 43
1.0
 76
     1
 77
     6
 78
     2
 67
     7
 79
     5
170
     0
171
     0
290
     0
174
     0
 93
        1
 44
0.0
173
     0
291
     1
 45
0.0
1001
ACAD
1000
AcDbSavedByObjectVersion
1070
     0
  0
DICTIONARYVAR
  5
187
102
{ACAD_REACTORS
330
182
102
}
330
182
100
DictionaryVariables
280
     0
  1
2
  0
DICTIONARYVAR
  5
188
102
{ACAD_REACTORS
330
182
102
}
330
182
100
DictionaryVariables
280
     0
  1
1
  0
DICTIONARYVAR
  5
186
102
{ACAD_REACTORS
330
182
102
}
330
182
100
DictionaryVariables
280
     0
  1
80.000000
  0
DICTIONARYVAR
  5
185
102
{ACAD_REACTORS
330
182
102
}
330
182
100
DictionaryVariables
280
     0
  1
5.000000
  0
DICTIONARY
  5
1AB
330
3D
100
AcDbDictionary
280
     1
281
     1
  3
ACAD_XREC_ROUNDTRIP
360
1AC
  0
DICTIONARY
  5
1A9
330
3C
100
AcDbDictionary
280
     1
281
     1
  3
ACAD_XREC_ROUNDTRIP
360
1AA
  0
DICTIONARY
  5
1AD
330
3E
100
AcDbDictionary
280
     1
281
     1
  3
ACAD_XREC_ROUNDTRIP
360
1AE
  0
DICTIONARY
  5
191
330
2F
100
AcDbDictionary
280
     1
281
     1
  3
ACAD_XREC_ROUNDTRIP
360
192
  0
DICTIONARY
  5
195
330
31
100
AcDbDictionary
280
     1
281
     1
  3
ACAD_XREC_ROUNDTRIP
360
196
  0
DICTIONARY
  5
193
330
30
100
AcDbDictionary
280
     1
281
     1
  3
ACAD_XREC_ROUNDTRIP
360
194
  0
DICTIONARY
  5
197
330
32
100
AcDbDictionary
280
     1
281
     1
  3
ACAD_XREC_ROUNDTRIP
360
198
  0
DICTIONARY
  5
19F
330
36
100
AcDbDictionary
280
     1
281
     1
  3
ACAD_XREC_ROUNDTRIP
360
1A0
  0
DICTIONARY
  5
1A7
330
3A
100
AcDbDictionary
280
     1
281
     1
  3
ACAD_XREC_ROUNDTRIP
360
1A8
  0
DICTIONARY
  5
19B
330
34
100
AcDbDictionary
280
     1
281
     1
  3
ACAD_XREC_ROUNDTRIP
360
19C
  0
DICTIONARY
  5
19D
330
35
100
AcDbDictionary
280
     1
281
     1
  3
ACAD_XREC_ROUNDTRIP
360
19E
  0
DICTIONARY
  5
1A5
330
39
100
AcDbDictionary
280
     1
281
     1
  3
ACAD_XREC_ROUNDTRIP
360
1A6
  0
DICTIONARY
  5
189
330
2B
100
AcDbDictionary
280
     1
281
     1
  3
ACAD_XREC_ROUNDTRIP
360
18A
  0
DICTIONARY
  5
18B
330
2C
100
AcDbDictionary
280
     1
281
     1
  3
ACAD_XREC_ROUNDTRIP
360
18C
  0
DICTIONARY
  5
18D
330
2D
100
AcDbDictionary
280
     1
281
     1
  3
ACAD_XREC_ROUNDTRIP
360
18E
  0
DICTIONARY
  5
18F
330
2E
100
AcDbDictionary
280
     1
281
     1
  3
ACAD_XREC_ROUNDTRIP
360
190
  0
DICTIONARY
  5
1A3
330
38
100
AcDbDictionary
280
     1
281
     1
  3
ACAD_XREC_ROUNDTRIP
360
1A4
  0
DICTIONARY
  5
199
330
33
100
AcDbDictionary
280
     1
281
     1
  3
ACAD_XREC_ROUNDTRIP
360
19A
  0
DICTIONARY
  5
1A1
330
37
100
AcDbDictionary
280
     1
281
     1
  3
ACAD_XREC_ROUNDTRIP
360
1A2
  0
XRECORD
  5
1AC
102
{ACAD_REACTORS
330
1AB
102
}
330
1AB
100
AcDbXrecord
280
     1
102
MATERIAL
148
0.0
149
0.0
149
0.0
 93
        0
 94
      127
282
     0
 72
     1
 77
     1
171
     1
175
     1
179
     1
273
     0
  0
XRECORD
  5
1AA
102
{ACAD_REACTORS
330
1A9
102
}
330
1A9
100
AcDbXrecord
280
     1
102
MATERIAL
148
0.0
149
0.0
149
0.0
 93
        0
 94
      127
282
     0
 72
     1
 77
     1
171
     1
175
     1
179
     1
273
     0
  0
XRECORD
  5
1AE
102
{ACAD_REACTORS
330
1AD
102
}
330
1AD
100
AcDbXrecord
280
     1
102
MATERIAL
148
0.0
149
0.0
149
0.0
 93
        0
 94
      127
282
     0
 72
     1
 77
     1
171
     1
175
     1
179
     1
273
     0
  0
XRECORD
  5
192
102
{ACAD_REACTORS
330
191
102
}
330
191
100
AcDbXrecord
280
     1
102
RTVSPropertyOp0
 70
     1
102
RTVSPropertyOp1
 70
     1
102
RTVSPropertyOp2
 70
     1
102
RTVSPropertyOp3
 70
     1
102
RTVSPropertyOp4
 70
     1
102
RTVSPropertyOp5
 70
     1
102
RTVSPropertyOp6
 70
     1
102
RTVSPropertyOp7
 70
     1
102
RTVSPropertyOp8
 70
     1
102
RTVSPropertyOp9
 70
     1
102
RTVSPropertyOp10
 70
     1
102
RTVSPropertyOp11
 70
     1
102
RTVSPropertyOp12
 70
     1
102
RTVSPropertyOp13
 70
     1
102
RTVSPropertyOp14
 70
     1
102
RTVSPropertyOp15
 70
     1
102
RTVSPropertyOp16
 70
     1
102
RTVSPropertyOp17
 70
     1
102
RTVSPropertyOp18
 70
     1
102
RTVSPropertyOp19
 70
     1
102
RTVSPropertyOp20
 70
     1
102
RTVSPropertyOp21
 70
     1
102
RTVSPropertyOp22
 70
     1
102
RTVSPropertyOp23
 70
     1
102
RTVSPropertyOp24
 70
     1
102
RTVSPropertyOp25
 70
     1
102
RTVSPropertyOp26
 70
     1
102
RTVSPropertyOp27
 70
     1
102
RTVSPropertyOp28
 70
     1
102
RTVSPropertyOp29
 70
     1
102
RTVSPropertyOp30
 70
     1
102
RTVSPropertyOp31
 70
     1
102
RTVSPropertyOp32
 70
     1
  0
XRECORD
  5
196
102
{ACAD_REACTORS
330
195
102
}
330
195
100
AcDbXrecord
280
     1
102
RTVSPropertyOp0
 70
     1
102
RTVSPropertyOp1
 70
     1
102
RTVSPropertyOp2
 70
     1
102
RTVSPropertyOp3
 70
     1
102
RTVSPropertyOp4
 70
     1
102
RTVSPropertyOp5
 70
     1
102
RTVSPropertyOp6
 70
     1
102
RTVSPropertyOp7
 70
     1
102
RTVSPropertyOp8
 70
     1
102
RTVSPropertyOp9
 70
     1
102
RTVSPropertyOp10
 70
     1
102
RTVSPropertyOp11
 70
     1
102
RTVSPropertyOp12
 70
     1
102
RTVSPropertyOp13
 70
     1
102
RTVSPropertyOp14
 70
     1
102
RTVSPropertyOp15
 70
     1
102
RTVSPropertyOp16
 70
     1
102
RTVSPropertyOp17
 70
     1
102
RTVSPropertyOp18
 70
     1
102
RTVSPropertyOp19
 70
     1
102
RTVSPropertyOp20
 70
     1
102
RTVSPropertyOp21
 70
     1
102
RTVSPropertyOp22
 70
     1
102
RTVSPropertyOp23
 70
     1
102
RTVSPropertyOp24
 70
     1
102
RTVSPropertyOp25
 70
     1
102
RTVSPropertyOp26
 70
     1
102
RTVSPropertyOp27
 70
     1
102
RTVSPropertyOp28
 70
     1
102
RTVSPropertyOp29
 70
     1
102
RTVSPropertyOp30
 70
     1
102
RTVSPropertyOp31
 70
     1
102
RTVSPropertyOp32
 70
     1
  0
XRECORD
  5
194
102
{ACAD_REACTORS
330
193
102
}
330
193
100
AcDbXrecord
280
     1
102
RTVSPropertyOp0
 70
     1
102
RTVSPropertyOp1
 70
     1
102
RTVSPropertyOp2
 70
     1
102
RTVSPropertyOp3
 70
     1
102
RTVSPropertyOp4
 70
     1
102
RTVSPropertyOp5
 70
     1
102
RTVSPropertyOp6
 70
     1
102
RTVSPropertyOp7
 70
     1
102
RTVSPropertyOp8
 70
     1
102
RTVSPropertyOp9
 70
     1
102
RTVSPropertyOp10
 70
     1
102
RTVSPropertyOp11
 70
     1
102
RTVSPropertyOp12
 70
     1
102
RTVSPropertyOp13
 70
     1
102
RTVSPropertyOp14
 70
     1
102
RTVSPropertyOp15
 70
     1
102
RTVSPropertyOp16
 70
     1
102
RTVSPropertyOp17
 70
     1
102
RTVSPropertyOp18
 70
     1
102
RTVSPropertyOp19
 70
     1
102
RTVSPropertyOp20
 70
     1
102
RTVSPropertyOp21
 70
     1
102
RTVSPropertyOp22
 70
     1
102
RTVSPropertyOp23
 70
     1
102
RTVSPropertyOp24
 70
     1
102
RTVSPropertyOp25
 70
     1
102
RTVSPropertyOp26
 70
     1
102
RTVSPropertyOp27
 70
     1
102
RTVSPropertyOp28
 70
     1
102
RTVSPropertyOp29
 70
     1
102
RTVSPropertyOp30
 70
     1
102
RTVSPropertyOp31
 70
     1
102
RTVSPropertyOp32
 70
     1
  0
XRECORD
  5
198
102
{ACAD_REACTORS
330
197
102
}
330
197
100
AcDbXrecord
280
     1
102
RTVSPropertyOp0
 70
     1
102
RTVSPropertyOp1
 70
     1
102
RTVSPropertyOp2
 70
     1
102
RTVSPropertyOp3
 70
     1
102
RTVSPropertyOp4
 70
     1
102
RTVSPropertyOp5
 70
     1
102
RTVSPropertyOp6
 70
     1
102
RTVSPropertyOp7
 70
     1
102
RTVSPropertyOp8
 70
     1
102
RTVSPropertyOp9
 70
     1
102
RTVSPropertyOp10
 70
     1
102
RTVSPropertyOp11
 70
     1
102
RTVSPropertyOp12
 70
     1
102
RTVSPropertyOp13
 70
     1
102
RTVSPropertyOp14
 70
     1
102
RTVSPropertyOp15
 70
     1
102
RTVSPropertyOp16
 70
     1
102
RTVSPropertyOp17
 70
     1
102
RTVSPropertyOp18
 70
     1
102
RTVSPropertyOp19
 70
     1
102
RTVSPropertyOp20
 70
     1
102
RTVSPropertyOp21
 70
     1
102
RTVSPropertyOp22
 70
     1
102
RTVSPropertyOp23
 70
     1
102
RTVSPropertyOp24
 70
     1
102
RTVSPropertyOp25
 70
     1
102
RTVSPropertyOp26
 70
     1
102
RTVSPropertyOp27
 70
     1
102
RTVSPropertyOp28
 70
     1
102
RTVSPropertyOp29
 70
     1
102
RTVSPropertyOp30
 70
     1
102
RTVSPropertyOp31
 70
     1
102
RTVSPropertyOp32
 70
     1
  0
XRECORD
  5
1A0
102
{ACAD_REACTORS
330
19F
102
}
330
19F
100
AcDbXrecord
280
     1
102
RTVSPropertyOp0
 70
     1
102
RTVSPropertyOp1
 70
     1
102
RTVSPropertyOp2
 70
     1
102
RTVSPropertyOp3
 70
     1
102
RTVSPropertyOp4
 70
     1
102
RTVSPropertyOp5
 70
     1
102
RTVSPropertyOp6
 70
     1
102
RTVSPropertyOp7
 70
     1
102
RTVSPropertyOp8
 70
     1
102
RTVSPropertyOp9
 70
     1
102
RTVSPropertyOp10
 70
     1
102
RTVSPropertyOp11
 70
     1
102
RTVSPropertyOp12
 70
     1
102
RTVSPropertyOp13
 70
     1
102
RTVSPropertyOp14
 70
     1
102
RTVSPropertyOp15
 70
     1
102
RTVSPropertyOp16
 70
     1
102
RTVSPropertyOp17
 70
     1
102
RTVSPropertyOp18
 70
     1
102
RTVSPropertyOp19
 70
     1
102
RTVSPropertyOp20
 70
     1
102
RTVSPropertyOp21
 70
     1
102
RTVSPropertyOp22
 70
     1
102
RTVSPropertyOp23
 70
     1
102
RTVSPropertyOp24
 70
     1
102
RTVSPropertyOp25
 70
     1
102
RTVSPropertyOp26
 70
     1
102
RTVSPropertyOp27
 70
     1
102
RTVSPropertyOp28
 70
     1
102
RTVSPropertyOp29
 70
     1
102
RTVSPropertyOp30
 70
     1
102
RTVSPropertyOp31
 70
     1
102
RTVSPropertyOp32
 70
     1
  0
XRECORD
  5
1A8
102
{ACAD_REACTORS
330
1A7
102
}
330
1A7
100
AcDbXrecord
280
     1
102
RTVSPropertyOp0
 70
     1
102
RTVSPropertyOp1
 70
     1
102
RTVSPropertyOp2
 70
     1
102
RTVSPropertyOp3
 70
     1
102
RTVSPropertyOp4
 70
     1
102
RTVSPropertyOp5
 70
     1
102
RTVSPropertyOp6
 70
     1
102
RTVSPropertyOp7
 70
     1
102
RTVSPropertyOp8
 70
     1
102
RTVSPropertyOp9
 70
     1
102
RTVSPropertyOp10
 70
     1
102
RTVSPropertyOp11
 70
     1
102
RTVSPropertyOp12
 70
     1
102
RTVSPropertyOp13
 70
     1
102
RTVSPropertyOp14
 70
     1
102
RTVSPropertyOp15
 70
     1
102
RTVSPropertyOp16
 70
     1
102
RTVSPropertyOp17
 70
     1
102
RTVSPropertyOp18
 70
     1
102
RTVSPropertyOp19
 70
     1
102
RTVSPropertyOp20
 70
     1
102
RTVSPropertyOp21
 70
     1
102
RTVSPropertyOp22
 70
     1
102
RTVSPropertyOp23
 70
     1
102
RTVSPropertyOp24
 70
     1
102
RTVSPropertyOp25
 70
     1
102
RTVSPropertyOp26
 70
     1
102
RTVSPropertyOp27
 70
     1
102
RTVSPropertyOp28
 70
     1
102
RTVSPropertyOp29
 70
     1
102
RTVSPropertyOp30
 70
     1
102
RTVSPropertyOp31
 70
     1
102
RTVSPropertyOp32
 70
     1
  0
XRECORD
  5
19C
102
{ACAD_REACTORS
330
19B
102
}
330
19B
100
AcDbXrecord
280
     1
102
RTVSPropertyOp0
 70
     1
102
RTVSPropertyOp1
 70
     1
102
RTVSPropertyOp2
 70
     1
102
RTVSPropertyOp3
 70
     1
102
RTVSPropertyOp4
 70
     1
102
RTVSPropertyOp5
 70
     1
102
RTVSPropertyOp6
 70
     1
102
RTVSPropertyOp7
 70
     1
102
RTVSPropertyOp8
 70
     1
102
RTVSPropertyOp9
 70
     1
102
RTVSPropertyOp10
 70
     1
102
RTVSPropertyOp11
 70
     1
102
RTVSPropertyOp12
 70
     1
102
RTVSPropertyOp13
 70
     1
102
RTVSPropertyOp14
 70
     1
102
RTVSPropertyOp15
 70
     1
102
RTVSPropertyOp16
 70
     1
102
RTVSPropertyOp17
 70
     1
102
RTVSPropertyOp18
 70
     1
102
RTVSPropertyOp19
 70
     1
102
RTVSPropertyOp20
 70
     1
102
RTVSPropertyOp21
 70
     1
102
RTVSPropertyOp22
 70
     1
102
RTVSPropertyOp23
 70
     1
102
RTVSPropertyOp24
 70
     1
102
RTVSPropertyOp25
 70
     1
102
RTVSPropertyOp26
 70
     1
102
RTVSPropertyOp27
 70
     1
102
RTVSPropertyOp28
 70
     1
102
RTVSPropertyOp29
 70
     1
102
RTVSPropertyOp30
 70
     1
102
RTVSPropertyOp31
 70
     1
102
RTVSPropertyOp32
 70
     1
  0
XRECORD
  5
19E
102
{ACAD_REACTORS
330
19D
102
}
330
19D
100
AcDbXrecord
280
     1
102
RTVSPropertyOp0
 70
     1
102
RTVSPropertyOp1
 70
     1
102
RTVSPropertyOp2
 70
     1
102
RTVSPropertyOp3
 70
     1
102
RTVSPropertyOp4
 70
     1
102
RTVSPropertyOp5
 70
     1
102
RTVSPropertyOp6
 70
     1
102
RTVSPropertyOp7
 70
     1
102
RTVSPropertyOp8
 70
     1
102
RTVSPropertyOp9
 70
     1
102
RTVSPropertyOp10
 70
     1
102
RTVSPropertyOp11
 70
     1
102
RTVSPropertyOp12
 70
     1
102
RTVSPropertyOp13
 70
     1
102
RTVSPropertyOp14
 70
     1
102
RTVSPropertyOp15
 70
     1
102
RTVSPropertyOp16
 70
     1
102
RTVSPropertyOp17
 70
     1
102
RTVSPropertyOp18
 70
     1
102
RTVSPropertyOp19
 70
     1
102
RTVSPropertyOp20
 70
     1
102
RTVSPropertyOp21
 70
     1
102
RTVSPropertyOp22
 70
     1
102
RTVSPropertyOp23
 70
     1
102
RTVSPropertyOp24
 70
     1
102
RTVSPropertyOp25
 70
     1
102
RTVSPropertyOp26
 70
     1
102
RTVSPropertyOp27
 70
     1
102
RTVSPropertyOp28
 70
     1
102
RTVSPropertyOp29
 70
     1
102
RTVSPropertyOp30
 70
     1
102
RTVSPropertyOp31
 70
     1
102
RTVSPropertyOp32
 70
     1
  0
XRECORD
  5
1A6
102
{ACAD_REACTORS
330
1A5
102
}
330
1A5
100
AcDbXrecord
280
     1
102
RTVSPropertyOp0
 70
     1
102
RTVSPropertyOp1
 70
     1
102
RTVSPropertyOp2
 70
     1
102
RTVSPropertyOp3
 70
     1
102
RTVSPropertyOp4
 70
     1
102
RTVSPropertyOp5
 70
     1
102
RTVSPropertyOp6
 70
     1
102
RTVSPropertyOp7
 70
     1
102
RTVSPropertyOp8
 70
     1
102
RTVSPropertyOp9
 70
     1
102
RTVSPropertyOp10
 70
     1
102
RTVSPropertyOp11
 70
     1
102
RTVSPropertyOp12
 70
     1
102
RTVSPropertyOp13
 70
     1
102
RTVSPropertyOp14
 70
     1
102
RTVSPropertyOp15
 70
     1
102
RTVSPropertyOp16
 70
     1
102
RTVSPropertyOp17
 70
     1
102
RTVSPropertyOp18
 70
     1
102
RTVSPropertyOp19
 70
     1
102
RTVSPropertyOp20
 70
     1
102
RTVSPropertyOp21
 70
     1
102
RTVSPropertyOp22
 70
     1
102
RTVSPropertyOp23
 70
     1
102
RTVSPropertyOp24
 70
     1
102
RTVSPropertyOp25
 70
     1
102
RTVSPropertyOp26
 70
     1
102
RTVSPropertyOp27
 70
     1
102
RTVSPropertyOp28
 70
     1
102
RTVSPropertyOp29
 70
     1
102
RTVSPropertyOp30
 70
     1
102
RTVSPropertyOp31
 70
     1
102
RTVSPropertyOp32
 70
     1
  0
XRECORD
  5
18A
102
{ACAD_REACTORS
330
189
102
}
330
189
100
AcDbXrecord
280
     1
102
RTVSPropertyOp0
 70
     1
102
RTVSPropertyOp1
 70
     1
102
RTVSPropertyOp2
 70
     1
102
RTVSPropertyOp3
 70
     1
102
RTVSPropertyOp4
 70
     1
102
RTVSPropertyOp5
 70
     1
102
RTVSPropertyOp6
 70
     1
102
RTVSPropertyOp7
 70
     1
102
RTVSPropertyOp8
 70
     1
102
RTVSPropertyOp9
 70
     1
102
RTVSPropertyOp10
 70
     1
102
RTVSPropertyOp11
 70
     1
102
RTVSPropertyOp12
 70
     1
102
RTVSPropertyOp13
 70
     1
102
RTVSPropertyOp14
 70
     1
102
RTVSPropertyOp15
 70
     1
102
RTVSPropertyOp16
 70
     1
102
RTVSPropertyOp17
 70
     1
102
RTVSPropertyOp18
 70
     1
102
RTVSPropertyOp19
 70
     1
102
RTVSPropertyOp20
 70
     1
102
RTVSPropertyOp21
 70
     1
102
RTVSPropertyOp22
 70
     1
102
RTVSPropertyOp23
 70
     1
102
RTVSPropertyOp24
 70
     1
102
RTVSPropertyOp25
 70
     1
102
RTVSPropertyOp26
 70
     1
102
RTVSPropertyOp27
 70
     1
102
RTVSPropertyOp28
 70
     1
102
RTVSPropertyOp29
 70
     1
102
RTVSPropertyOp30
 70
     1
102
RTVSPropertyOp31
 70
     1
102
RTVSPropertyOp32
 70
     1
  0
XRECORD
  5
18C
102
{ACAD_REACTORS
330
18B
102
}
330
18B
100
AcDbXrecord
280
     1
102
RTVSPropertyOp0
 70
     1
102
RTVSPropertyOp1
 70
     1
102
RTVSPropertyOp2
 70
     1
102
RTVSPropertyOp3
 70
     1
102
RTVSPropertyOp4
 70
     1
102
RTVSPropertyOp5
 70
     1
102
RTVSPropertyOp6
 70
     1
102
RTVSPropertyOp7
 70
     1
102
RTVSPropertyOp8
 70
     1
102
RTVSPropertyOp9
 70
     1
102
RTVSPropertyOp10
 70
     1
102
RTVSPropertyOp11
 70
     1
102
RTVSPropertyOp12
 70
     1
102
RTVSPropertyOp13
 70
     1
102
RTVSPropertyOp14
 70
     1
102
RTVSPropertyOp15
 70
     1
102
RTVSPropertyOp16
 70
     1
102
RTVSPropertyOp17
 70
     1
102
RTVSPropertyOp18
 70
     1
102
RTVSPropertyOp19
 70
     1
102
RTVSPropertyOp20
 70
     1
102
RTVSPropertyOp21
 70
     1
102
RTVSPropertyOp22
 70
     1
102
RTVSPropertyOp23
 70
     1
102
RTVSPropertyOp24
 70
     1
102
RTVSPropertyOp25
 70
     1
102
RTVSPropertyOp26
 70
     1
102
RTVSPropertyOp27
 70
     1
102
RTVSPropertyOp28
 70
     1
102
RTVSPropertyOp29
 70
     1
102
RTVSPropertyOp30
 70
     1
102
RTVSPropertyOp31
 70
     1
102
RTVSPropertyOp32
 70
     1
  0
XRECORD
  5
18E
102
{ACAD_REACTORS
330
18D
102
}
330
18D
100
AcDbXrecord
280
     1
102
RTVSPropertyOp0
 70
     1
102
RTVSPropertyOp1
 70
     1
102
RTVSPropertyOp2
 70
     1
102
RTVSPropertyOp3
 70
     1
102
RTVSPropertyOp4
 70
     1
102
RTVSPropertyOp5
 70
     1
102
RTVSPropertyOp6
 70
     1
102
RTVSPropertyOp7
 70
     1
102
RTVSPropertyOp8
 70
     1
102
RTVSPropertyOp9
 70
     1
102
RTVSPropertyOp10
 70
     1
102
RTVSPropertyOp11
 70
     1
102
RTVSPropertyOp12
 70
     1
102
RTVSPropertyOp13
 70
     1
102
RTVSPropertyOp14
 70
     1
102
RTVSPropertyOp15
 70
     1
102
RTVSPropertyOp16
 70
     1
102
RTVSPropertyOp17
 70
     1
102
RTVSPropertyOp18
 70
     1
102
RTVSPropertyOp19
 70
     1
102
RTVSPropertyOp20
 70
     1
102
RTVSPropertyOp21
 70
     1
102
RTVSPropertyOp22
 70
     1
102
RTVSPropertyOp23
 70
     1
102
RTVSPropertyOp24
 70
     1
102
RTVSPropertyOp25
 70
     1
102
RTVSPropertyOp26
 70
     1
102
RTVSPropertyOp27
 70
     1
102
RTVSPropertyOp28
 70
     1
102
RTVSPropertyOp29
 70
     1
102
RTVSPropertyOp30
 70
     1
102
RTVSPropertyOp31
 70
     1
102
RTVSPropertyOp32
 70
     1
  0
XRECORD
  5
190
102
{ACAD_REACTORS
330
18F
102
}
330
18F
100
AcDbXrecord
280
     1
102
RTVSPropertyOp0
 70
     1
102
RTVSPropertyOp1
 70
     1
102
RTVSPropertyOp2
 70
     1
102
RTVSPropertyOp3
 70
     1
102
RTVSPropertyOp4
 70
     1
102
RTVSPropertyOp5
 70
     1
102
RTVSPropertyOp6
 70
     1
102
RTVSPropertyOp7
 70
     1
102
RTVSPropertyOp8
 70
     1
102
RTVSPropertyOp9
 70
     1
102
RTVSPropertyOp10
 70
     1
102
RTVSPropertyOp11
 70
     1
102
RTVSPropertyOp12
 70
     1
102
RTVSPropertyOp13
 70
     1
102
RTVSPropertyOp14
 70
     1
102
RTVSPropertyOp15
 70
     1
102
RTVSPropertyOp16
 70
     1
102
RTVSPropertyOp17
 70
     1
102
RTVSPropertyOp18
 70
     1
102
RTVSPropertyOp19
 70
     1
102
RTVSPropertyOp20
 70
     1
102
RTVSPropertyOp21
 70
     1
102
RTVSPropertyOp22
 70
     1
102
RTVSPropertyOp23
 70
     1
102
RTVSPropertyOp24
 70
     1
102
RTVSPropertyOp25
 70
     1
102
RTVSPropertyOp26
 70
     1
102
RTVSPropertyOp27
 70
     1
102
RTVSPropertyOp28
 70
     1
102
RTVSPropertyOp29
 70
     1
102
RTVSPropertyOp30
 70
     1
102
RTVSPropertyOp31
 70
     1
102
RTVSPropertyOp32
 70
     1
  0
XRECORD
  5
1A4
102
{ACAD_REACTORS
330
1A3
102
}
330
1A3
100
AcDbXrecord
280
     1
102
RTVSPropertyOp0
 70
     1
102
RTVSPropertyOp1
 70
     1
102
RTVSPropertyOp2
 70
     1
102
RTVSPropertyOp3
 70
     1
102
RTVSPropertyOp4
 70
     1
102
RTVSPropertyOp5
 70
     1
102
RTVSPropertyOp6
 70
     1
102
RTVSPropertyOp7
 70
     1
102
RTVSPropertyOp8
 70
     1
102
RTVSPropertyOp9
 70
     1
102
RTVSPropertyOp10
 70
     1
102
RTVSPropertyOp11
 70
     1
102
RTVSPropertyOp12
 70
     1
102
RTVSPropertyOp13
 70
     1
102
RTVSPropertyOp14
 70
     1
102
RTVSPropertyOp15
 70
     1
102
RTVSPropertyOp16
 70
     1
102
RTVSPropertyOp17
 70
     1
102
RTVSPropertyOp18
 70
     1
102
RTVSPropertyOp19
 70
     1
102
RTVSPropertyOp20
 70
     1
102
RTVSPropertyOp21
 70
     1
102
RTVSPropertyOp22
 70
     1
102
RTVSPropertyOp23
 70
     1
102
RTVSPropertyOp24
 70
     1
102
RTVSPropertyOp25
 70
     1
102
RTVSPropertyOp26
 70
     1
102
RTVSPropertyOp27
 70
     1
102
RTVSPropertyOp28
 70
     1
102
RTVSPropertyOp29
 70
     1
102
RTVSPropertyOp30
 70
     1
102
RTVSPropertyOp31
 70
     1
102
RTVSPropertyOp32
 70
     1
  0
XRECORD
  5
19A
102
{ACAD_REACTORS
330
199
102
}
330
199
100
AcDbXrecord
280
     1
102
RTVSPropertyOp0
 70
     1
102
RTVSPropertyOp1
 70
     1
102
RTVSPropertyOp2
 70
     1
102
RTVSPropertyOp3
 70
     1
102
RTVSPropertyOp4
 70
     1
102
RTVSPropertyOp5
 70
     1
102
RTVSPropertyOp6
 70
     1
102
RTVSPropertyOp7
 70
     1
102
RTVSPropertyOp8
 70
     1
102
RTVSPropertyOp9
 70
     1
102
RTVSPropertyOp10
 70
     1
102
RTVSPropertyOp11
 70
     1
102
RTVSPropertyOp12
 70
     1
102
RTVSPropertyOp13
 70
     1
102
RTVSPropertyOp14
 70
     1
102
RTVSPropertyOp15
 70
     1
102
RTVSPropertyOp16
 70
     1
102
RTVSPropertyOp17
 70
     1
102
RTVSPropertyOp18
 70
     1
102
RTVSPropertyOp19
 70
     1
102
RTVSPropertyOp20
 70
     1
102
RTVSPropertyOp21
 70
     1
102
RTVSPropertyOp22
 70
     1
102
RTVSPropertyOp23
 70
     1
102
RTVSPropertyOp24
 70
     1
102
RTVSPropertyOp25
 70
     1
102
RTVSPropertyOp26
 70
     1
102
RTVSPropertyOp27
 70
     1
102
RTVSPropertyOp28
 70
     1
102
RTVSPropertyOp29
 70
     1
102
RTVSPropertyOp30
 70
     1
102
RTVSPropertyOp31
 70
     1
102
RTVSPropertyOp32
 70
     1
  0
XRECORD
  5
1A2
102
{ACAD_REACTORS
330
1A1
102
}
330
1A1
100
AcDbXrecord
280
     1
102
RTVSPropertyOp0
 70
     1
102
RTVSPropertyOp1
 70
     1
102
RTVSPropertyOp2
 70
     1
102
RTVSPropertyOp3
 70
     1
102
RTVSPropertyOp4
 70
     1
102
RTVSPropertyOp5
 70
     1
102
RTVSPropertyOp6
 70
     1
102
RTVSPropertyOp7
 70
     1
102
RTVSPropertyOp8
 70
     1
102
RTVSPropertyOp9
 70
     1
102
RTVSPropertyOp10
 70
     1
102
RTVSPropertyOp11
 70
     1
102
RTVSPropertyOp12
 70
     1
102
RTVSPropertyOp13
 70
     1
102
RTVSPropertyOp14
 70
     1
102
RTVSPropertyOp15
 70
     1
102
RTVSPropertyOp16
 70
     1
102
RTVSPropertyOp17
 70
     1
102
RTVSPropertyOp18
 70
     1
102
RTVSPropertyOp19
 70
     1
102
RTVSPropertyOp20
 70
     1
102
RTVSPropertyOp21
 70
     1
102
RTVSPropertyOp22
 70
     1
102
RTVSPropertyOp23
 70
     1
102
RTVSPropertyOp24
 70
     1
102
RTVSPropertyOp25
 70
     1
102
RTVSPropertyOp26
 70
     1
102
RTVSPropertyOp27
 70
     1
102
RTVSPropertyOp28
 70
     1
102
RTVSPropertyOp29
 70
     1
102
RTVSPropertyOp30
 70
     1
102
RTVSPropertyOp31
 70
     1
102
RTVSPropertyOp32
 70
     1
  0
ENDSEC
  0
EOF
