  0
SECTION
  2
HEADER
  9
$ACADVER
  1
AC1015
  9
$ACADMAINTVER
 70
     6
  9
$DWGCODEPAGE
  3
ANSI_1252
  9
$INSBASE
 10
0.0
 20
0.0
 30
0.0
  9
$EXTMIN
 10
0.0
 20
0.0
 30
0.0
  9
$EXTMAX
 10
210.0
 20
297.0
 30
0.0
  9
$LIMMIN
 10
0.0
 20
0.0
  9
$LIMMAX
 10
210.0
 20
297.0
  9
$ORTHOMODE
 70
     0
  9
$REGENMODE
 70
     1
  9
$FILLMODE
 70
     1
  9
$QTEXTMODE
 70
     0
  9
$MIRRTEXT
 70
     1
  9
$LTSCALE
 40
1.0
  9
$ATTMODE
 70
     1
  9
$TEXTSIZE
 40
2.5
  9
$TRACEWID
 40
1.0
  9
$TEXTSTYLE
  7
Standard
  9
$CLAYER
  8
0
  9
$CELTYPE
  6
ByLayer
  9
$CECOLOR
 62
   256
  9
$CELTSCALE
 40
1.0
  9
$DISPSILH
 70
     0
  9
$DIMSCALE
 40
1.0
  9
$DIMASZ
 40
2.5
  9
$DIMEXO
 40
0.625
  9
$DIMDLI
 40
3.75
  9
$DIMRND
 40
0.0
  9
$DIMDLE
 40
0.0
  9
$DIMEXE
 40
1.25
  9
$DIMTP
 40
0.0
  9
$DIMTM
 40
0.0
  9
$DIMTXT
 40
2.5
  9
$DIMCEN
 40
2.5
  9
$DIMTSZ
 40
0.0
  9
$DIMTOL
 70
     0
  9
$DIMLIM
 70
     0
  9
$DIMTIH
 70
     0
  9
$DIMTOH
 70
     0
  9
$DIMSE1
 70
     0
  9
$DIMSE2
 70
     0
  9
$DIMTAD
 70
     1
  9
$DIMZIN
 70
     8
  9
$DIMBLK
  1

  9
$DIMASO
 70
     1
  9
$DIMSHO
 70
     1
  9
$DIMPOST
  1

  9
$DIMAPOST
  1

  9
$DIMALT
 70
     0
  9
$DIMALTD
 70
     3
  9
$DIMALTF
 40
0.0393700787
  9
$DIMLFAC
 40
1.0
  9
$DIMTOFL
 70
     1
  9
$DIMTVP
 40
0.0
  9
$DIMTIX
 70
     0
  9
$DIMSOXD
 70
     0
  9
$DIMSAH
 70
     0
  9
$DIMBLK1
  1

  9
$DIMBLK2
  1

  9
$DIMSTYLE
  2
ISO-25
  9
$DIMCLRD
 70
     0
  9
$DIMCLRE
 70
     0
  9
$DIMCLRT
 70
     0
  9
$DIMTFAC
 40
1.0
  9
$DIMGAP
 40
0.625
  9
$DIMJUST
 70
     0
  9
$DIMSD1
 70
     0
  9
$DIMSD2
 70
     0
  9
$DIMTOLJ
 70
     0
  9
$DIMTZIN
 70
     8
  9
$DIMALTZ
 70
     0
  9
$DIMALTTZ
 70
     0
  9
$DIMUPT
 70
     0
  9
$DIMDEC
 70
     2
  9
$DIMTDEC
 70
     2
  9
$DIMALTU
 70
     2
  9
$DIMALTTD
 70
     3
  9
$DIMTXSTY
  7
Standard
  9
$DIMAUNIT
 70
     0
  9
$DIMADEC
 70
     0
  9
$DIMALTRND
 40
0.0
  9
$DIMAZIN
 70
     0
  9
$DIMDSEP
 70
    44
  9
$DIMATFIT
 70
     3
  9
$DIMFRAC
 70
     0
  9
$DIMLDRBLK
  1

  9
$DIMLUNIT
 70
     2
  9
$DIMLWD
 70
    -2
  9
$DIMLWE
 70
    -2
  9
$DIMTMOVE
 70
     0
  9
$LUNITS
 70
     2
  9
$LUPREC
 70
     4
  9
$SKETCHINC
 40
1.0
  9
$FILLETRAD
 40
10.0
  9
$AUNITS
 70
     0
  9
$AUPREC
 70
     0
  9
$MENU
  1
.
  9
$ELEVATION
 40
0.0
  9
$PELEVATION
 40
0.0
  9
$THICKNESS
 40
0.0
  9
$LIMCHECK
 70
     0
  9
$CHAMFERA
 40
10.0
  9
$CHAMFERB
 40
10.0
  9
$CHAMFERC
 40
20.0
  9
$CHAMFERD
 40
0.0
  9
$SKPOLY
 70
     0
  9
$TDCREATE
 40
2457567.305853495
  9
$TDUCREATE
 40
2457567.222520162
  9
$TDUPDATE
 40
2457567.305855301
  9
$TDUUPDATE
 40
2457567.222521968
  9
$TDINDWG
 40
0.0000000116
  9
$TDUSRTIMER
 40
0.0000000116
  9
$USRTIMER
 70
     1
  9
$ANGBASE
 50
0.0
  9
$ANGDIR
 70
     0
  9
$PDMODE
 70
     0
  9
$PDSIZE
 40
0.0
  9
$PLINEWID
 40
0.0
  9
$SPLFRAME
 70
     0
  9
$SPLINETYPE
 70
     6
  9
$SPLINESEGS
 70
     8
  9
$HANDSEED
  5
1AE
  9
$SURFTAB1
 70
     6
  9
$SURFTAB2
 70
     6
  9
$SURFTYPE
 70
     6
  9
$SURFU
 70
     6
  9
$SURFV
 70
     6
  9
$UCSBASE
  2

  9
$UCSNAME
  2

  9
$UCSORG
 10
0.0
 20
0.0
 30
0.0
  9
$UCSXDIR
 10
1.0
 20
0.0
 30
0.0
  9
$UCSYDIR
 10
0.0
 20
1.0
 30
0.0
  9
$UCSORTHOREF
  2

  9
$UCSORTHOVIEW
 70
     0
  9
$UCSORGTOP
 10
0.0
 20
0.0
 30
0.0
  9
$UCSORGBOTTOM
 10
0.0
 20
0.0
 30
0.0
  9
$UCSORGLEFT
 10
0.0
 20
0.0
 30
0.0
  9
$UCSORGRIGHT
 10
0.0
 20
0.0
 30
0.0
  9
$UCSORGFRONT
 10
0.0
 20
0.0
 30
0.0
  9
$UCSORGBACK
 10
0.0
 20
0.0
 30
0.0
  9
$PUCSBASE
  2

  9
$PUCSNAME
  2

  9
$PUCSORG
 10
0.0
 20
0.0
 30
0.0
  9
$PUCSXDIR
 10
1.0
 20
0.0
 30
0.0
  9
$PUCSYDIR
 10
0.0
 20
1.0
 30
0.0
  9
$PUCSORTHOREF
  2

  9
$PUCSORTHOVIEW
 70
     0
  9
$PUCSORGTOP
 10
0.0
 20
0.0
 30
0.0
  9
$PUCSORGBOTTOM
 10
0.0
 20
0.0
 30
0.0
  9
$PUCSORGLEFT
 10
0.0
 20
0.0
 30
0.0
  9
$PUCSORGRIGHT
 10
0.0
 20
0.0
 30
0.0
  9
$PUCSORGFRONT
 10
0.0
 20
0.0
 30
0.0
  9
$PUCSORGBACK
 10
0.0
 20
0.0
 30
0.0
  9
$USERI1
 70
     0
  9
$USERI2
 70
     0
  9
$USERI3
 70
     0
  9
$USERI4
 70
     0
  9
$USERI5
 70
     0
  9
$USERR1
 40
0.0
  9
$USERR2
 40
0.0
  9
$USERR3
 40
0.0
  9
$USERR4
 40
0.0
  9
$USERR5
 40
0.0
  9
$WORLDVIEW
 70
     1
  9
$SHADEDGE
 70
     3
  9
$SHADEDIF
 70
    70
  9
$TILEMODE
 70
     1
  9
$MAXACTVP
 70
    64
  9
$PINSBASE
 10
0.0
 20
0.0
 30
0.0
  9
$PLIMCHECK
 70
     0
  9
$PEXTMIN
 10
0.0
 20
0.0
 30
0.0
  9
$PEXTMAX
 10
210.0
 20
297.0
 30
0.0
  9
$PLIMMIN
 10
0.0
 20
0.0
  9
$PLIMMAX
 10
210.0
 20
297.0
  9
$UNITMODE
 70
     0
  9
$VISRETAIN
 70
     1
  9
$PLINEGEN
 70
     0
  9
$PSLTSCALE
 70
     1
  9
$TREEDEPTH
 70
  3020
  9
$CMLSTYLE
  2
Standard
  9
$CMLJUST
 70
     0
  9
$CMLSCALE
 40
20.0
  9
$PROXYGRAPHICS
 70
     1
  9
$MEASUREMENT
 70
     1
  9
$CELWEIGHT
370
    -1
  9
$ENDCAPS
280
     0
  9
$JOINSTYLE
280
     0
  9
$LWDISPLAY
290
     0
  9
$INSUNITS
 70
     4
  9
$HYPERLINKBASE
  1

  9
$STYLESHEET
  1

  9
$XEDIT
290
     1
  9
$CEPSNTYPE
380
     0
  9
$PSTYLEMODE
290
     1
  9
$FINGERPRINTGUID
  2
{B899492C-D15A-4F3A-8DD7-89CAFE3AA936}
  9
$VERSIONGUID
  2
{FAEB1C32-E019-11D5-929B-00C0DF256EC4}
  9
$EXTNAMES
290
     1
  9
$PSVPSCALE
 40
0.0
  9
$OLESTARTUP
290
     0
  0
ENDSEC
  0
SECTION
  2
CLASSES
  0
CLASS
  1
ACDBDICTIONARYWDFLT
  2
AcDbDictionaryWithDefault
  3
ObjectDBX Classes
 90
        0
280
     0
281
     0
  0
CLASS
  1
VISUALSTYLE
  2
AcDbVisualStyle
  3
ObjectDBX Classes
 90
     4095
280
     0
281
     0
  0
CLASS
  1
MATERIAL
  2
AcDbMaterial
  3
ObjectDBX Classes
 90
     1153
280
     0
281
     0
  0
CLASS
  1
DICTIONARYVAR
  2
AcDbDictionaryVar
  3
ObjectDBX Classes
 90
        0
280
     0
281
     0
  0
CLASS
  1
ACDBPLACEHOLDER
  2
AcDbPlaceHolder
  3
ObjectDBX Classes
 90
        0
280
     0
281
     0
  0
CLASS
  1
LAYOUT
  2
AcDbLayout
  3
ObjectDBX Classes
 90
        0
280
     0
281
     0
  0
ENDSEC
  0
SECTION
  2
TABLES
  0
TABLE
  2
VPORT
  5
8
330
0
100
AcDbSymbolTable
 70
     1
  0
VPORT
  5
29
330
8
100
AcDbSymbolTableRecord
100
AcDbViewportTableRecord
  2
*Active
 70
     0
 10
0.0
 20
0.0
 11
1.0
 21
1.0
 12
344.1869158879
 22
148.5
 13
0.0
 23
0.0
 14
10.0
 24
10.0
 15
10.0
 25
10.0
 16
0.0
 26
0.0
 36
1.0
 17
0.0
 27
0.0
 37
0.0
 40
297.0
 41
1.9729729729
 42
50.0
 43
0.0
 44
0.0
 50
0.0
 51
0.0
 71
     0
 72
   100
 73
     1
 74
     3
 75
     0
 76
     0
 77
     0
 78
     0
281
     0
 65
     1
110
0.0
120
0.0
130
0.0
111
1.0
121
0.0
131
0.0
112
0.0
122
1.0
132
0.0
 79
     0
146
0.0
  0
ENDTAB
  0
TABLE
  2
LTYPE
  5
5
330
0
100
AcDbSymbolTable
 70
     2
  0
LTYPE
  5
14
330
5
100
AcDbSymbolTableRecord
100
AcDbLinetypeTableRecord
  2
ByBlock
 70
     0
  3

 72
    65
 73
     0
 40
0.0
  0
LTYPE
  5
15
330
5
100
AcDbSymbolTableRecord
100
AcDbLinetypeTableRecord
  2
ByLayer
 70
     0
  3

 72
    65
 73
     0
 40
0.0
  0
LTYPE
  5
16
330
5
100
AcDbSymbolTableRecord
100
AcDbLinetypeTableRecord
  2
Continuous
 70
     0
  3
Solid line
 72
    65
 73
     0
 40
0.0
  0
LTYPE
  5
40
330
5
100
AcDbSymbolTableRecord
100
AcDbLinetypeTableRecord
  2
HIDDEN2
 70
     0
  3
Hidden (.5x) _ _ _ _ _ _ _ _ _ _ _ _ _ _ _ _ _ 
 72
    65
 73
     2
 40
4.7625
 49
3.175
 74
     4
 75
     0
340
0
 46
0.0
 50
0.0
 44
0.0
 45
0.0
 49
-1.5875
 74
     4
 75
     0
340
0
 46
0.0
 50
0.0
 44
0.0
 45
0.0
  0
ENDTAB
  0
TABLE
  2
LAYER
  5
2
330
0
100
AcDbSymbolTable
 70
     5
  0
LAYER
  5
10
330
2
100
AcDbSymbolTableRecord
100
AcDbLayerTableRecord
  2
0
 70
     0
 62
     7
  6
Continuous
370
    -3
390
F
  0
LAYER
  5
3F
330
2
100
AcDbSymbolTableRecord
100
AcDbLayerTableRecord
  2
SK3
 70
     0
 62
     1
  6
HIDDEN2
370
    15
390
F
  0
LAYER
  5
42
330
2
100
AcDbSymbolTableRecord
100
AcDbLayerTableRecord
  2
SK1
 70
     0
 62
     4
  6
Continuous
370
    18
390
F
  0
LAYER
  5
12A
330
2
100
AcDbSymbolTableRecord
100
AcDbLayerTableRecord
  2
SK4
 70
     0
 62
     2
  6
Continuous
370
    13
390
F
  0
LAYER
  5
12C
330
2
100
AcDbSymbolTableRecord
100
AcDbLayerTableRecord
  2
SK2
 70
     0
 62
     7
  6
Continuous
370
    15
390
F
  0
ENDTAB
  0
TABLE
  2
STYLE
  5
3
330
0
100
AcDbSymbolTable
 70
     2
  0
STYLE
  5
11
330
3
100
AcDbSymbolTableRecord
100
AcDbTextStyleTableRecord
  2
Standard
 70
     0
 40
0.0
 41
1.0
 50
0.0
 71
     0
 42
2.5
  3
txt
  4

  0
STYLE
  5
13F
330
3
100
AcDbSymbolTableRecord
100
AcDbTextStyleTableRecord
  2
SEACAD_Solid_Edge_ISO
 70
     0
 40
0.0
 41
1.0
 50
0.0
 71
     0
 42
0.2
  3
seiso.ttf
  4

1001
ACAD
1000
Solid Edge ISO
1071
        0
  0
ENDTAB
  0
TABLE
  2
VIEW
  5
6
330
0
100
AcDbSymbolTable
 70
     0
  0
ENDTAB
  0
TABLE
  2
UCS
  5
7
330
0
100
AcDbSymbolTable
 70
     0
  0
ENDTAB
  0
TABLE
  2
APPID
  5
9
330
0
100
AcDbSymbolTable
 70
     1
  0
APPID
  5
12
330
9
100
AcDbSymbolTableRecord
100
AcDbRegAppTableRecord
  2
ACAD
 70
     0
  0
ENDTAB
  0
TABLE
  2
DIMSTYLE
  5
A
330
0
100
AcDbSymbolTable
 70
     3
100
AcDbDimStyleTable
  0
DIMSTYLE
105
27
330
A
100
AcDbSymbolTableRecord
100
AcDbDimStyleTableRecord
  2
ISO-25
 70
     0
 41
2.5
 42
0.625
 43
3.75
 44
1.25
 73
     0
 74
     0
 77
     1
 78
     8
140
2.5
141
2.5
143
0.0393700787
147
0.625
171
     3
172
     1
178
     0
271
     2
272
     2
274
     3
278
    44
283
     0
284
     8
340
11
  0
DIMSTYLE
105
12D
330
A
100
AcDbSymbolTableRecord
100
AcDbDimStyleTableRecord
  2
Standard
 70
     0
178
     0
340
11
  0
DIMSTYLE
105
140
102
{ACAD_REACTORS
330
141
330
14B
330
156
330
160
102
}
330
A
100
AcDbSymbolTableRecord
100
AcDbDimStyleTableRecord
  2
DIN
 70
     0
 41
3.5
 42
0.0
 44
1.75
 73
     0
 74
     0
 77
     1
 78
     8
140
3.5
141
1.75
147
1.75
172
     1
173
     1
178
     0
179
     3
271
     2
272
     2
278
    44
284
     8
340
13F
343
13A
344
13A
  0
ENDTAB
  0
TABLE
  2
BLOCK_RECORD
  5
1
330
0
100
AcDbSymbolTable
 70
    10
  0
BLOCK_RECORD
  5
1F
330
1
100
AcDbSymbolTableRecord
100
AcDbBlockTableRecord
  2
*Model_Space
340
22
  0
BLOCK_RECORD
  5
1B
330
1
100
AcDbSymbolTableRecord
100
AcDbBlockTableRecord
  2
*Paper_Space
340
1E
  0
BLOCK_RECORD
  5
12E
330
1
100
AcDbSymbolTableRecord
100
AcDbBlockTableRecord
  2
_OBLIQUE
340
0
  0
BLOCK_RECORD
  5
132
330
1
100
AcDbSymbolTableRecord
100
AcDbBlockTableRecord
  2
_DOT
340
0
  0
BLOCK_RECORD
  5
13A
330
1
100
AcDbSymbolTableRecord
100
AcDbBlockTableRecord
  2
_SE_FILLED
340
0
  0
BLOCK_RECORD
  5
142
330
1
100
AcDbSymbolTableRecord
100
AcDbBlockTableRecord
  2
DMBLK17
340
0
  0
BLOCK_RECORD
  5
14C
330
1
100
AcDbSymbolTableRecord
100
AcDbBlockTableRecord
  2
DMBLK18
340
0
  0
BLOCK_RECORD
  5
157
330
1
100
AcDbSymbolTableRecord
100
AcDbBlockTableRecord
  2
DMBLK19
340
0
  0
BLOCK_RECORD
  5
161
330
1
100
AcDbSymbolTableRecord
100
AcDbBlockTableRecord
  2
DMBLK20
340
0
  0
BLOCK_RECORD
  5
16B
330
1
100
AcDbSymbolTableRecord
100
AcDbBlockTableRecord
  2
Nullpunkt
340
0
102
{BLKREFS
331
175
102
}
  0
BLOCK_RECORD
  5
176
330
1
100
AcDbSymbolTableRecord
100
AcDbBlockTableRecord
  2
Einfügepunkt
340
0
102
{BLKREFS
331
180
102
}
  0
ENDTAB
  0
ENDSEC
  0
SECTION
  2
BLOCKS
  0
BLOCK
  5
20
330
1F
100
AcDbEntity
  8
0
100
AcDbBlockBegin
  2
*Model_Space
 70
     0
 10
0.0
 20
0.0
 30
0.0
  3
*Model_Space
  1

  0
ENDBLK
  5
21
330
1F
100
AcDbEntity
  8
0
100
AcDbBlockEnd
  0
BLOCK
  5
1C
330
1B
100
AcDbEntity
 67
     1
  8
0
100
AcDbBlockBegin
  2
*Paper_Space
 70
     0
 10
0.0
 20
0.0
 30
0.0
  3
*Paper_Space
  1

  0
ENDBLK
  5
1D
330
1B
100
AcDbEntity
 67
     1
  8
0
100
AcDbBlockEnd
  0
BLOCK
  5
12F
330
12E
100
AcDbEntity
  8
0
100
AcDbBlockBegin
  2
_OBLIQUE
 70
     0
 10
0.0
 20
0.0
 30
0.0
  3
_OBLIQUE
  1

  0
LINE
  5
131
330
12E
100
AcDbEntity
  8
0
  6
ByBlock
 62
     0
370
    -2
100
AcDbLine
 10
-0.5
 20
-0.5
 30
0.0
 11
0.5
 21
0.5
 31
0.0
  0
ENDBLK
  5
130
330
12E
100
AcDbEntity
  8
0
100
AcDbBlockEnd
  0
BLOCK
  5
133
330
132
100
AcDbEntity
  8
0
100
AcDbBlockBegin
  2
_DOT
 70
     0
 10
0.0
 20
0.0
 30
0.0
  3
_DOT
  1

  0
POLYLINE
  5
135
330
132
100
AcDbEntity
  8
0
  6
ByBlock
 62
     0
100
AcDb2dPolyline
 66
     1
 10
0.0
 20
0.0
 30
0.0
 70
     1
 40
0.5
 41
0.5
  0
VERTEX
  5
137
330
135
100
AcDbEntity
  8
0
  6
ByBlock
 62
     0
100
AcDbVertex
100
AcDb2dVertex
 10
-0.25
 20
0.0
 30
0.0
 42
1.0
  0
VERTEX
  5
138
330
135
100
AcDbEntity
  8
0
  6
ByBlock
 62
     0
100
AcDbVertex
100
AcDb2dVertex
 10
0.25
 20
0.0
 30
0.0
 42
1.0
  0
SEQEND
  5
139
330
135
100
AcDbEntity
  8
0
  6
ByBlock
 62
     0
  0
LINE
  5
136
330
132
100
AcDbEntity
  8
0
  6
ByBlock
 62
     0
370
    -2
100
AcDbLine
 10
-0.5
 20
0.0
 30
0.0
 11
-1.0
 21
0.0
 31
0.0
  0
ENDBLK
  5
134
330
132
100
AcDbEntity
  8
0
100
AcDbBlockEnd
  0
BLOCK
  5
13D
330
13A
100
AcDbEntity
  8
0
100
AcDbBlockBegin
  2
_SE_FILLED
 70
     0
 10
0.0
 20
0.0
 30
0.0
  3
_SE_FILLED
  1

  0
SOLID
  5
13B
330
13A
100
AcDbEntity
  8
0
 62
     0
100
AcDbTrace
 10
0.0
 20
0.0
 30
0.0
 11
-1.0
 21
-0.1665
 31
0.0
 12
-1.0
 22
0.1665
 32
0.0
 13
0.0
 23
0.0
 33
0.0
  0
LINE
  5
13C
330
13A
100
AcDbEntity
  8
0
 62
     0
100
AcDbLine
 10
0.0
 20
0.0
 30
0.0
 11
-1.0
 21
0.0
 31
0.0
  0
ENDBLK
  5
13E
330
13A
100
AcDbEntity
  8
0
100
AcDbBlockEnd
  0
BLOCK
  5
149
330
142
100
AcDbEntity
  8
0
100
AcDbBlockBegin
  2
DMBLK17
 70
     0
 10
0.0
 20
0.0
 30
0.0
  3
DMBLK17
  1

  0
HATCH
  5
143
330
142
100
AcDbEntity
  8
SK2
  6
Continuous
 62
   136
100
AcDbHatch
 10
0.0
 20
0.0
 30
0.0
210
0.0
220
0.0
230
1.0
  2
SOLID
 70
     1
 71
     0
 91
        1
 92
        1
 93
        3
 72
     1
 10
-18.83999989196672
 20
21.67083555470072
 11
-22.34000000000013
 21
21.08750220336182
 72
     1
 10
-22.34000000000013
 20
21.08750220336182
 11
-18.83999989196672
 21
20.50416885202291
 72
     1
 10
-18.83999989196672
 20
20.50416885202291
 11
-18.83999989196672
 21
21.67083555470072
 97
        0
 75
     0
 76
     1
 98
        0
  0
HATCH
  5
144
330
142
100
AcDbEntity
  8
SK2
  6
Continuous
 62
   136
100
AcDbHatch
 10
0.0
 20
0.0
 30
0.0
210
0.0
220
0.0
230
1.0
  2
SOLID
 70
     1
 71
     0
 91
        1
 92
        1
 93
        3
 72
     1
 10
8.160001739710435
 20
21.67083555470072
 11
8.160001739710435
 21
20.50416885202291
 72
     1
 10
8.160001739710435
 20
20.50416885202291
 11
11.66000184774385
 21
21.08750220336182
 72
     1
 10
11.66000184774385
 20
21.08750220336182
 11
8.160001739710435
 21
21.67083555470072
 97
        0
 75
     0
 76
     1
 98
        0
  0
LINE
  5
145
330
142
100
AcDbEntity
  8
SK2
  6
Continuous
 62
   136
100
AcDbLine
 10
-22.34
 20
9.0904101538
 30
0.0
 11
-22.34
 21
22.8375022574
 31
0.0
  0
LINE
  5
146
330
142
100
AcDbEntity
  8
SK2
  6
Continuous
 62
   136
100
AcDbLine
 10
11.66
 20
9.1882744343
 30
0.0
 11
11.66
 21
22.8375022574
 31
0.0
  0
LINE
  5
147
330
142
100
AcDbEntity
  8
SK2
  6
Continuous
 62
   136
100
AcDbLine
 10
-22.34
 20
21.0875022034
 30
0.0
 11
11.6600018477
 21
21.0875022034
 31
0.0
  0
TEXT
  5
148
330
142
100
AcDbEntity
  8
SK2
  6
Continuous
 62
   136
100
AcDbText
 10
-7.2888627125
 20
21.9625022034
 30
0.0
 40
3.5
  1
34
  7
SEACAD_Solid_Edge_ISO
 11
-7.2888627125
 21
25.4625022034
 31
0.0
100
AcDbText
 73
     3
  0
ENDBLK
  5
14A
330
142
100
AcDbEntity
  8
0
100
AcDbBlockEnd
  0
BLOCK
  5
154
330
14C
100
AcDbEntity
  8
0
100
AcDbBlockBegin
  2
DMBLK18
 70
     0
 10
0.0
 20
0.0
 30
0.0
  3
DMBLK18
  1

  0
HATCH
  5
14D
330
14C
100
AcDbEntity
  8
SK2
  6
Continuous
 62
   136
100
AcDbHatch
 10
0.0
 20
0.0
 30
0.0
210
0.0
220
0.0
230
1.0
  2
SOLID
 70
     1
 71
     0
 91
        1
 92
        1
 93
        3
 72
     1
 10
21.89221266182761
 20
-9.500000108033428
 11
21.3088793104887
 21
-6.000000000000009
 72
     1
 10
21.3088793104887
 20
-6.000000000000009
 11
20.7255459591498
 21
-9.500000108033428
 72
     1
 10
20.7255459591498
 20
-9.500000108033428
 11
21.89221266182761
 21
-9.500000108033428
 97
        0
 75
     0
 76
     1
 98
        0
  0
HATCH
  5
14E
330
14C
100
AcDbEntity
  8
SK2
  6
Continuous
 62
   136
100
AcDbHatch
 10
0.0
 20
0.0
 30
0.0
210
0.0
220
0.0
230
1.0
  2
SOLID
 70
     1
 71
     0
 91
        1
 92
        1
 93
        3
 72
     1
 10
21.89221266182761
 20
9.500000108033424
 11
20.7255459591498
 21
9.500000108033424
 72
     1
 10
20.7255459591498
 20
9.500000108033424
 11
21.3088793104887
 21
6.000000000000005
 72
     1
 10
21.3088793104887
 20
6.000000000000005
 11
21.89221266182761
 21
9.500000108033424
 97
        0
 75
     0
 76
     1
 98
        0
  0
LINE
  5
14F
330
14C
100
AcDbEntity
  8
SK2
  6
Continuous
 62
   136
100
AcDbLine
 10
11.26
 20
-6.0
 30
0.0
 11
23.0588793645
 21
-6.0
 31
0.0
  0
LINE
  5
150
330
14C
100
AcDbEntity
  8
SK2
  6
Continuous
 62
   136
100
AcDbLine
 10
11.26
 20
6.0
 30
0.0
 11
23.0588793645
 21
6.0
 31
0.0
  0
LINE
  5
151
330
14C
100
AcDbEntity
  8
SK2
  6
Continuous
 62
   136
100
AcDbLine
 10
21.3088793105
 20
-13.0000002161
 30
0.0
 11
21.3088793105
 21
21.7229156345
 31
0.0
  0
TEXT
  5
152
330
14C
100
AcDbEntity
  8
SK2
  6
Continuous
 62
   136
100
AcDbText
 10
20.4338793105
 20
16.9183690109
 30
0.0
 40
3.5
  1
12
 50
90.0
  7
SEACAD_Solid_Edge_ISO
 11
16.9338793105
 21
16.9183690109
 31
0.0
100
AcDbText
 73
     3
  0
TEXT
  5
153
330
14C
100
AcDbEntity
  8
SK2
  6
Continuous
 62
   136
100
AcDbText
 10
20.4338793105
 20
12.8456417382
 30
0.0
 40
3.5
  1
ø
 50
90.0
  7
SEACAD_Solid_Edge_ISO
 11
16.9338793105
 21
12.8456417382
 31
0.0
100
AcDbText
 73
     3
  0
ENDBLK
  5
155
330
14C
100
AcDbEntity
  8
0
100
AcDbBlockEnd
  0
BLOCK
  5
15E
330
157
100
AcDbEntity
  8
0
100
AcDbBlockBegin
  2
DMBLK19
 70
     0
 10
0.0
 20
0.0
 30
0.0
  3
DMBLK19
  1

  0
HATCH
  5
158
330
157
100
AcDbEntity
  8
SK2
  6
Continuous
 62
   136
100
AcDbHatch
 10
0.0
 20
0.0
 30
0.0
210
0.0
220
0.0
230
1.0
  2
SOLID
 70
     1
 71
     0
 91
        1
 92
        1
 93
        3
 72
     1
 10
-3.500000108033415
 20
-21.10169814120538
 11
0.0000000000000036
 21
-20.51836478986647
 72
     1
 10
0.0000000000000035
 20
-20.51836478986647
 11
-3.500000108033415
 21
-19.93503143852757
 72
     1
 10
-3.500000108033415
 20
-19.93503143852757
 11
-3.500000108033415
 21
-21.10169814120538
 97
        0
 75
     0
 76
     1
 98
        0
  0
HATCH
  5
159
330
157
100
AcDbEntity
  8
SK2
  6
Continuous
 62
   136
100
AcDbHatch
 10
0.0
 20
0.0
 30
0.0
210
0.0
220
0.0
230
1.0
  2
SOLID
 70
     1
 71
     0
 91
        1
 92
        1
 93
        3
 72
     1
 10
15.16000010803342
 20
-21.10169814120538
 11
15.16000010803342
 21
-19.93503143852757
 72
     1
 10
15.16000010803342
 20
-19.93503143852757
 11
11.66
 21
-20.51836478986647
 72
     1
 10
11.66
 20
-20.51836478986647
 11
15.16000010803342
 21
-21.10169814120538
 97
        0
 75
     0
 76
     1
 98
        0
  0
LINE
  5
15A
330
157
100
AcDbEntity
  8
SK2
  6
Continuous
 62
   136
100
AcDbLine
 10
0.0
 20
-12.4996746285
 30
0.0
 11
0.0
 21
-22.2683648439
 31
0.0
  0
LINE
  5
15B
330
157
100
AcDbEntity
  8
SK2
  6
Continuous
 62
   136
100
AcDbLine
 10
11.66
 20
-9.1882744343
 30
0.0
 11
11.66
 21
-22.2683648439
 31
0.0
  0
LINE
  5
15C
330
157
100
AcDbEntity
  8
SK2
  6
Continuous
 62
   136
100
AcDbLine
 10
-7.0000002161
 20
-20.5183647899
 30
0.0
 11
18.6599995941
 21
-20.5183647899
 31
0.0
  0
TEXT
  5
15D
330
157
100
AcDbEntity
  8
SK2
  6
Continuous
 62
   136
100
AcDbText
 10
1.9322728819
 20
-19.6433647899
 30
0.0
 40
3.5
  1
11,66
  7
SEACAD_Solid_Edge_ISO
 11
1.9322728819
 21
-16.1433647899
 31
0.0
100
AcDbText
 73
     3
  0
ENDBLK
  5
15F
330
157
100
AcDbEntity
  8
0
100
AcDbBlockEnd
  0
BLOCK
  5
169
330
161
100
AcDbEntity
  8
0
100
AcDbBlockBegin
  2
DMBLK20
 70
     0
 10
0.0
 20
0.0
 30
0.0
  3
DMBLK20
  1

  0
HATCH
  5
162
330
161
100
AcDbEntity
  8
SK2
  6
Continuous
 62
   136
100
AcDbHatch
 10
0.0
 20
0.0
 30
0.0
210
0.0
220
0.0
230
1.0
  2
SOLID
 70
     1
 71
     0
 91
        1
 92
        1
 93
        3
 72
     1
 10
-30.58333268078665
 20
8.99967452042606
 11
-29.41666597810884
 21
8.99967452042606
 72
     1
 10
-29.41666597810884
 20
8.99967452042606
 11
-29.99999932944775
 21
12.49967462845948
 72
     1
 10
-29.99999932944775
 20
12.49967462845948
 11
-30.58333268078665
 21
8.99967452042606
 97
        0
 75
     0
 76
     1
 98
        0
  0
HATCH
  5
163
330
161
100
AcDbEntity
  8
SK2
  6
Continuous
 62
   136
100
AcDbHatch
 10
0.0
 20
0.0
 30
0.0
210
0.0
220
0.0
230
1.0
  2
SOLID
 70
     1
 71
     0
 91
        1
 92
        1
 93
        3
 72
     1
 10
-30.58333268078665
 20
-8.999673710233902
 11
-29.99999932944775
 21
-12.49967381826732
 72
     1
 10
-29.99999932944775
 20
-12.49967381826732
 11
-29.41666597810884
 21
-8.999673710233902
 72
     1
 10
-29.41666597810884
 20
-8.999673710233902
 11
-30.58333268078665
 21
-8.999673710233902
 97
        0
 75
     0
 76
     1
 98
        0
  0
LINE
  5
164
330
161
100
AcDbEntity
  8
SK2
  6
Continuous
 62
   136
100
AcDbLine
 10
0.0
 20
12.4996746285
 30
0.0
 11
-31.7499993835
 21
12.4996746285
 31
0.0
  0
LINE
  5
165
330
161
100
AcDbEntity
  8
SK2
  6
Continuous
 62
   136
100
AcDbLine
 10
0.0
 20
-12.4996746285
 30
0.0
 11
-31.7499993835
 21
-12.4996746285
 31
0.0
  0
LINE
  5
166
330
161
100
AcDbEntity
  8
SK2
  6
Continuous
 62
   136
100
AcDbLine
 10
-29.9999993294
 20
12.4996746285
 30
0.0
 11
-29.9999993294
 21
-12.4996738183
 31
0.0
  0
TEXT
  5
167
330
161
100
AcDbEntity
  8
SK2
  6
Continuous
 62
   136
100
AcDbText
 10
-30.8749993294
 20
-0.0318177767
 30
0.0
 40
3.5
  1
25
 50
90.0
  7
SEACAD_Solid_Edge_ISO
 11
-34.3749993294
 21
-0.0318177767
 31
0.0
100
AcDbText
 73
     3
  0
TEXT
  5
168
330
161
100
AcDbEntity
  8
SK2
  6
Continuous
 62
   136
100
AcDbText
 10
-30.8749993294
 20
-4.1045450494
 30
0.0
 40
3.5
  1
ø
 50
90.0
  7
SEACAD_Solid_Edge_ISO
 11
-34.3749993294
 21
-4.1045450494
 31
0.0
100
AcDbText
 73
     3
  0
ENDBLK
  5
16A
330
161
100
AcDbEntity
  8
0
100
AcDbBlockEnd
  0
BLOCK
  5
173
330
16B
100
AcDbEntity
  8
0
100
AcDbBlockBegin
  2
Nullpunkt
 70
     0
 10
0.0
 20
0.0
 30
0.0
  3
Nullpunkt
  1

  0
HATCH
  5
16C
330
16B
100
AcDbEntity
  8
SK2
  6
Continuous
 62
     7
100
AcDbHatch
 10
0.0
 20
0.0
 30
0.0
210
0.0
220
0.0
230
1.0
  2
SOLID
 70
     1
 71
     0
 91
        1
 92
        1
 93
        3
 72
     1
 10
-1.0
 20
0.0
 11
0.0000000000000009
 21
0.0
 72
     1
 10
0.0
 20
0.0
 11
0.0
 21
1.000000000000001
 72
     2
 10
0.0
 20
0.0
 40
1.0
 50
90.0
 51
180.0
 73
     1
 97
        0
 75
     0
 76
     1
 98
        0
  0
HATCH
  5
16D
330
16B
100
AcDbEntity
  8
SK2
  6
Continuous
 62
     7
100
AcDbHatch
 10
0.0
 20
0.0
 30
0.0
210
0.0
220
0.0
230
1.0
  2
SOLID
 70
     1
 71
     0
 91
        1
 92
        1
 93
        3
 72
     2
 10
0.0
 20
0.0
 40
1.0
 50
270.0
 51
360.0
 73
     1
 72
     1
 10
1.0
 20
0.0
 11
-0.0000000000000009
 21
0.0
 72
     1
 10
0.0
 20
0.0
 11
0.0
 21
-1.000000000000001
 97
        0
 75
     0
 76
     1
 98
        0
  0
CIRCLE
  5
16E
330
16B
100
AcDbEntity
  8
SK2
  6
Continuous
 62
     7
100
AcDbCircle
 10
0.0
 20
0.0
 30
0.0
 40
1.0
  0
LINE
  5
16F
330
16B
100
AcDbEntity
  8
SK1
  6
Continuous
100
AcDbLine
 10
-1.0
 20
0.0
 30
0.0
 11
1.0
 21
0.0
 31
0.0
  0
LINE
  5
170
330
16B
100
AcDbEntity
  8
SK1
  6
Continuous
100
AcDbLine
 10
0.0
 20
1.0
 30
0.0
 11
0.0
 21
-1.0
 31
0.0
  0
POINT
  5
171
330
16B
100
AcDbEntity
  8
SK1
  6
Continuous
100
AcDbPoint
 10
0.0
 20
0.0
 30
0.0
  0
POINT
  5
172
330
16B
100
AcDbEntity
  8
SK1
  6
Continuous
100
AcDbPoint
 10
0.0
 20
0.0
 30
0.0
  0
ENDBLK
  5
174
330
16B
100
AcDbEntity
  8
0
100
AcDbBlockEnd
  0
BLOCK
  5
17E
330
176
100
AcDbEntity
  8
0
100
AcDbBlockBegin
  2
Einfügepunkt
 70
     0
 10
0.0
 20
0.0
 30
0.0
  3
Einfügepunkt
  1

  0
HATCH
  5
177
330
176
100
AcDbEntity
  8
SK2
  6
Continuous
 62
     7
100
AcDbHatch
 10
0.0
 20
0.0
 30
0.0
210
0.0
220
0.0
230
1.0
  2
SOLID
 70
     1
 71
     0
 91
        1
 92
        1
 93
        3
 72
     1
 10
-0.4502381196756744
 20
-0.0000000000000018
 11
0.0000000000000033
 21
-0.0000000000000018
 72
     1
 10
0.0
 20
-0.0000000000000018
 11
0.0
 21
0.4502381196756812
 72
     2
 10
0.0
 20
-0.0000000000000018
 40
0.4502381196756812
 50
90.0
 51
180.0
 73
     1
 97
        0
 75
     0
 76
     1
 98
        0
  0
HATCH
  5
178
330
176
100
AcDbEntity
  8
SK2
  6
Continuous
 62
     7
100
AcDbHatch
 10
0.0
 20
0.0
 30
0.0
210
0.0
220
0.0
230
1.0
  2
SOLID
 70
     1
 71
     0
 91
        1
 92
        1
 93
        3
 72
     2
 10
0.0
 20
-0.0000000000000018
 40
0.4502381196756812
 50
270.0
 51
360.0
 73
     1
 72
     1
 10
0.4502381196756815
 20
-0.0000000000000018
 11
0.0000000000000038
 21
-0.0000000000000018
 72
     1
 10
0.0
 20
-0.0000000000000018
 11
0.0
 21
-0.4502381196756812
 97
        0
 75
     0
 76
     1
 98
        0
  0
CIRCLE
  5
179
330
176
100
AcDbEntity
  8
SK2
  6
Continuous
 62
     7
100
AcDbCircle
 10
0.0
 20
0.0
 30
0.0
 40
0.4502381196756812
  0
LINE
  5
17A
330
176
100
AcDbEntity
  8
SK1
  6
Continuous
100
AcDbLine
 10
-0.4502381197
 20
0.0
 30
0.0
 11
0.4502381197
 21
0.0
 31
0.0
  0
LINE
  5
17B
330
176
100
AcDbEntity
  8
SK1
  6
Continuous
100
AcDbLine
 10
0.0
 20
0.4502381197
 30
0.0
 11
0.0
 21
-0.4502381197
 31
0.0
  0
POINT
  5
17C
330
176
100
AcDbEntity
  8
SK2
  6
Continuous
 62
     7
100
AcDbPoint
 10
0.0
 20
0.0
 30
0.0
  0
POINT
  5
17D
330
176
100
AcDbEntity
  8
SK2
  6
Continuous
 62
     7
100
AcDbPoint
 10
0.0
 20
0.0
 30
0.0
  0
ENDBLK
  5
17F
330
176
100
AcDbEntity
  8
0
100
AcDbBlockEnd
  0
ENDSEC
  0
SECTION
  2
ENTITIES
  0
LINE
  5
41
330
1F
100
AcDbEntity
  8
SK3
100
AcDbLine
 10
-21.4141669751
 20
-4.5160448102
 30
0.0
 11
-21.4141669751
 21
-5.9866518188
 31
0.0
  0
LINE
  5
43
330
1F
100
AcDbEntity
  8
SK1
  6
Continuous
100
AcDbLine
 10
6.9198076211
 20
-4.6029772751
 30
0.0
 11
6.9198076211
 21
4.6029772751
 31
0.0
  0
LINE
  5
44
330
1F
100
AcDbEntity
  8
SK1
  6
Continuous
100
AcDbLine
 10
6.66
 20
-4.6029772751
 30
0.0
 11
6.66
 21
4.6029772751
 31
0.0
  0
LINE
  5
45
330
1F
100
AcDbEntity
  8
SK1
  6
Continuous
100
AcDbLine
 10
6.66
 20
-5.3420809011
 30
0.0
 11
6.9198076211
 21
-5.3420809011
 31
0.0
  0
LINE
  5
46
330
1F
100
AcDbEntity
  8
SK1
  6
Continuous
100
AcDbLine
 10
6.66
 20
-4.6029772751
 30
0.0
 11
6.9198076211
 21
-4.6029772751
 31
0.0
  0
LINE
  5
47
330
1F
100
AcDbEntity
  8
SK1
  6
Continuous
100
AcDbLine
 10
3.2182480697
 20
-4.5845882118
 30
0.0
 11
3.2182480697
 21
4.5845882118
 31
0.0
  0
LINE
  5
48
330
1F
100
AcDbEntity
  8
SK1
  6
Continuous
100
AcDbLine
 10
3.56
 20
-4.4708449267
 30
0.0
 11
3.56
 21
4.4708449267
 31
0.0
  0
LINE
  5
49
330
1F
100
AcDbEntity
  8
SK1
  6
Continuous
100
AcDbLine
 10
11.66
 20
-3.4997611396
 30
0.0
 11
11.66
 21
3.4997611396
 31
0.0
  0
LINE
  5
4A
330
1F
100
AcDbEntity
  8
SK1
  6
Continuous
100
AcDbLine
 10
11.535
 20
-3.5826779839
 30
0.0
 11
11.535
 21
3.5826779839
 31
0.0
  0
LINE
  5
4B
330
1F
100
AcDbEntity
  8
SK1
  6
Continuous
100
AcDbLine
 10
3.76
 20
-3.8371818701
 30
0.0
 11
3.76
 21
3.8371818701
 31
0.0
  0
LINE
  5
4C
330
1F
100
AcDbEntity
  8
SK1
  6
Continuous
100
AcDbLine
 10
6.46
 20
-3.8371818701
 30
0.0
 11
6.46
 21
3.8371818701
 31
0.0
  0
SPLINE
  5
4D
330
1F
100
AcDbEntity
  8
SK1
  6
Continuous
100
AcDbSpline
210
0.0
220
0.0
230
1.0
 70
     8
 71
     3
 72
     8
 73
     4
 74
     0
 42
0.0000000021156732
 43
0.0000000001
 12
1.0
 22
0.0
 32
0.0
 13
1.0
 23
0.0
 33
0.0
 40
0.0
 40
0.0
 40
0.0
 40
0.0
 40
1.0
 40
1.0
 40
1.0
 40
1.0
 10
6.919807621135328
 20
-4.602977275118721
 30
0.0
 10
8.458252117700765
 20
-4.262908665067298
 30
0.0
 10
9.99666174783288
 20
-3.9228169342057
 30
0.0
 10
11.535
 20
-3.582677983937342
 30
0.0
  0
SPLINE
  5
4E
330
1F
100
AcDbEntity
  8
SK1
  6
Continuous
100
AcDbSpline
210
0.0
220
0.0
230
1.0
 70
     8
 71
     3
 72
    10
 73
     6
 74
     0
 42
0.0000000616132438
 43
0.0000000001
 12
1.0
 22
0.0
 32
0.0
 13
1.0
 23
0.0
 33
0.0
 40
0.0
 40
0.0
 40
0.0
 40
0.0
 40
0.5
 40
0.5
 40
1.0
 40
1.0
 40
1.0
 40
1.0
 10
11.535
 20
-3.582677983937342
 30
0.0
 10
11.57259151117949
 20
-3.574366198714829
 30
0.0
 10
11.60494850261215
 20
-3.561964136799318
 30
0.0
 10
11.64829447702993
 20
-3.533150008862117
 30
0.0
 10
11.66
 20
-3.516554190841957
 30
0.0
 10
11.66
 20
-3.499761139610463
 30
0.0
  0
SPLINE
  5
4F
330
1F
100
AcDbEntity
  8
SK3
100
AcDbSpline
210
0.0
220
0.0
230
1.0
 70
     8
 71
     3
 72
    10
 73
     6
 74
     0
 42
0.0000000213819729
 43
0.0000000001
 12
1.0
 22
0.0
 32
0.0
 13
1.0
 23
0.0
 33
0.0
 40
0.0
 40
0.0
 40
0.0
 40
0.0
 40
0.5
 40
0.5
 40
1.0
 40
1.0
 40
1.0
 40
1.0
 10
11.66
 20
-2.074833930652662
 30
0.0
 10
11.66
 20
-2.034432355254403
 30
0.0
 10
11.61682273980546
 20
-1.994789990726838
 30
0.0
 10
11.46931636355712
 20
-1.938129837122879
 30
0.0
 10
11.36573371185186
 20
-1.92144065340324
 30
0.0
 10
11.26
 20
-1.92144065340324
 30
0.0
  0
SPLINE
  5
50
330
1F
100
AcDbEntity
  8
SK1
  6
Continuous
100
AcDbSpline
210
0.0
220
0.0
230
1.0
 70
     8
 71
     3
 72
    10
 73
     6
 74
     0
 42
0.0000000253845494
 43
0.0000000001
 12
1.0
 22
0.0
 32
0.0
 13
1.0
 23
0.0
 33
0.0
 40
0.0
 40
0.0
 40
0.0
 40
0.0
 40
0.5
 40
0.5
 40
1.0
 40
1.0
 40
1.0
 40
1.0
 10
3.560000000000004
 20
-5.209948552723165
 30
0.0
 10
3.560000000000016
 20
-5.242516148093739
 30
0.0
 10
3.521600558429443
 20
-5.275053735258344
 30
0.0
 10
3.392249740846042
 20
-5.318145836471673
 30
0.0
 10
3.303521262204413
 20
-5.328280244642728
 30
0.0
 10
3.21824806971199
 20
-5.323691837772873
 30
0.0
  0
LINE
  5
51
330
1F
100
AcDbEntity
  8
SK1
  6
Continuous
100
AcDbLine
 10
3.2182480697
 20
-5.3236918378
 30
0.0
 11
-16.926410275
 21
-4.2395969187
 31
0.0
  0
LINE
  5
52
330
1F
100
AcDbEntity
  8
SK1
  6
Continuous
100
AcDbLine
 10
6.66
 20
-5.3420809011
 30
0.0
 11
6.66
 21
-4.6528719302
 31
0.0
  0
SPLINE
  5
53
330
1F
100
AcDbEntity
  8
SK1
  6
Continuous
100
AcDbSpline
210
0.0
220
0.0
230
1.0
 70
     8
 71
     3
 72
    10
 73
     6
 74
     0
 42
0.000000042790812
 43
0.0000000001
 12
1.0
 22
0.0
 32
0.0
 13
1.0
 23
0.0
 33
0.0
 40
0.0
 40
0.0
 40
0.0
 40
0.0
 40
0.5
 40
0.5
 40
1.0
 40
1.0
 40
1.0
 40
1.0
 10
6.66000000000001
 20
-4.652871930212039
 30
0.0
 10
6.660000000000013
 20
-4.632921433508733
 30
0.0
 10
6.638212026177226
 20
-4.612780417520994
 30
0.0
 10
6.564376700676177
 20
-4.58455706968555
 30
0.0
 10
6.512157774181689
 20
-4.576285496125942
 30
0.0
 10
6.45999999999965
 20
-4.576285496124833
 30
0.0
  0
LINE
  5
54
330
1F
100
AcDbEntity
  8
SK1
  6
Continuous
100
AcDbLine
 10
6.46
 20
-4.5762854961
 30
0.0
 11
3.76
 21
-4.5762854961
 31
0.0
  0
SPLINE
  5
55
330
1F
100
AcDbEntity
  8
SK1
  6
Continuous
100
AcDbSpline
210
0.0
220
0.0
230
1.0
 70
     8
 71
     3
 72
    10
 73
     6
 74
     0
 42
0.0000000427691831
 43
0.0000000001
 12
1.0
 22
0.0
 32
0.0
 13
1.0
 23
0.0
 33
0.0
 40
0.0
 40
0.0
 40
0.0
 40
0.0
 40
0.5
 40
0.5
 40
1.0
 40
1.0
 40
1.0
 40
1.0
 10
3.76000000000001
 20
-4.576285496125996
 30
0.0
 10
3.707252529531886
 20
-4.576285496125996
 30
0.0
 10
3.655686903106361
 20
-4.584501971167275
 30
0.0
 10
3.581417235304671
 20
-4.612953044945292
 30
0.0
 10
3.560000000000009
 20
-4.632657928223082
 30
0.0
 10
3.560000000000011
 20
-4.652871930212039
 30
0.0
  0
LINE
  5
56
330
1F
100
AcDbEntity
  8
SK1
  6
Continuous
100
AcDbLine
 10
3.56
 20
-4.6528719302
 30
0.0
 11
3.56
 21
-5.2099485527
 31
0.0
  0
SPLINE
  5
57
330
1F
100
AcDbEntity
  8
SK1
  6
Continuous
100
AcDbSpline
210
0.0
220
0.0
230
1.0
 70
     8
 71
     3
 72
    10
 73
     6
 74
     0
 42
0.0000000253845494
 43
0.0000000001
 12
1.0
 22
0.0
 32
0.0
 13
1.0
 23
0.0
 33
0.0
 40
0.0
 40
0.0
 40
0.0
 40
0.0
 40
0.5
 40
0.5
 40
1.0
 40
1.0
 40
1.0
 40
1.0
 10
3.560000000000004
 20
-4.470844926714138
 30
0.0
 10
3.560000000000016
 20
-4.503412522084709
 30
0.0
 10
3.521600558429443
 20
-4.535950109249313
 30
0.0
 10
3.392249740846042
 20
-4.579042210462644
 30
0.0
 10
3.303521262204413
 20
-4.589176618633696
 30
0.0
 10
3.21824806971199
 20
-4.584588211763845
 30
0.0
  0
LINE
  5
58
330
1F
100
AcDbEntity
  8
SK1
  6
Continuous
100
AcDbLine
 10
3.2182480697
 20
-4.5845882118
 30
0.0
 11
-16.926410275
 21
-3.5004932927
 31
0.0
  0
SPLINE
  5
59
330
1F
100
AcDbEntity
  8
SK1
  6
Continuous
100
AcDbSpline
210
0.0
220
0.0
230
1.0
 70
     8
 71
     3
 72
    10
 73
     6
 74
     0
 42
0.000000042790812
 43
0.0000000001
 12
1.0
 22
0.0
 32
0.0
 13
1.0
 23
0.0
 33
0.0
 40
0.0
 40
0.0
 40
0.0
 40
0.0
 40
0.5
 40
0.5
 40
1.0
 40
1.0
 40
1.0
 40
1.0
 10
6.66000000000001
 20
-3.91376830420301
 30
0.0
 10
6.660000000000013
 20
-3.893817807499704
 30
0.0
 10
6.638212026177226
 20
-3.873676791511964
 30
0.0
 10
6.564376700676177
 20
-3.845453443676521
 30
0.0
 10
6.512157774181689
 20
-3.837181870116912
 30
0.0
 10
6.45999999999965
 20
-3.837181870115804
 30
0.0
  0
LINE
  5
5A
330
1F
100
AcDbEntity
  8
SK1
  6
Continuous
100
AcDbLine
 10
6.46
 20
-3.8371818701
 30
0.0
 11
3.76
 21
-3.8371818701
 31
0.0
  0
SPLINE
  5
5B
330
1F
100
AcDbEntity
  8
SK1
  6
Continuous
100
AcDbSpline
210
0.0
220
0.0
230
1.0
 70
     8
 71
     3
 72
    10
 73
     6
 74
     0
 42
0.0000000427691831
 43
0.0000000001
 12
1.0
 22
0.0
 32
0.0
 13
1.0
 23
0.0
 33
0.0
 40
0.0
 40
0.0
 40
0.0
 40
0.0
 40
0.5
 40
0.5
 40
1.0
 40
1.0
 40
1.0
 40
1.0
 10
3.76000000000001
 20
-3.837181870116966
 30
0.0
 10
3.707252529531886
 20
-3.837181870116966
 30
0.0
 10
3.655686903106361
 20
-3.845398345158245
 30
0.0
 10
3.581417235304671
 20
-3.873849418936261
 30
0.0
 10
3.560000000000009
 20
-3.893554302214053
 30
0.0
 10
3.560000000000011
 20
-3.91376830420301
 30
0.0
  0
SPLINE
  5
5C
330
1F
100
AcDbEntity
  8
SK1
  6
Continuous
100
AcDbSpline
210
0.0
220
0.0
230
1.0
 70
     8
 71
     3
 72
     8
 73
     4
 74
     0
 42
0.0000000021156732
 43
0.0000000001
 12
1.0
 22
0.0
 32
0.0
 13
1.0
 23
0.0
 33
0.0
 40
0.0
 40
0.0
 40
0.0
 40
0.0
 40
1.0
 40
1.0
 40
1.0
 40
1.0
 10
6.919807621135328
 20
-5.342080901127749
 30
0.0
 10
8.458252117700765
 20
-5.002012291076326
 30
0.0
 10
9.99666174783288
 20
-4.661920560214731
 30
0.0
 10
11.535
 20
-4.321781609946371
 30
0.0
  0
SPLINE
  5
5D
330
1F
100
AcDbEntity
  8
SK1
  6
Continuous
100
AcDbSpline
210
0.0
220
0.0
230
1.0
 70
     8
 71
     3
 72
    10
 73
     6
 74
     0
 42
0.0000000616132438
 43
0.0000000001
 12
1.0
 22
0.0
 32
0.0
 13
1.0
 23
0.0
 33
0.0
 40
0.0
 40
0.0
 40
0.0
 40
0.0
 40
0.5
 40
0.5
 40
1.0
 40
1.0
 40
1.0
 40
1.0
 10
11.535
 20
-4.321781609946371
 30
0.0
 10
11.57259151117949
 20
-4.313469824723859
 30
0.0
 10
11.60494850261215
 20
-4.301067762808348
 30
0.0
 10
11.64829447702993
 20
-4.272253634871147
 30
0.0
 10
11.66
 20
-4.255657816850987
 30
0.0
 10
11.66
 20
-4.238864765619494
 30
0.0
  0
LINE
  5
5E
330
1F
100
AcDbEntity
  8
SK1
  6
Continuous
100
AcDbLine
 10
11.66
 20
-4.2388647656
 30
0.0
 11
11.66
 21
-3.4997611396
 31
0.0
  0
SPLINE
  5
5F
330
1F
100
AcDbEntity
  8
SK3
100
AcDbSpline
210
0.0
220
0.0
230
1.0
 70
     8
 71
     3
 72
    10
 73
     6
 74
     0
 42
0.0000000213819729
 43
0.0000000001
 12
1.0
 22
0.0
 32
0.0
 13
1.0
 23
0.0
 33
0.0
 40
0.0
 40
0.0
 40
0.0
 40
0.0
 40
0.5
 40
0.5
 40
1.0
 40
1.0
 40
1.0
 40
1.0
 10
11.66
 20
-2.813937556661692
 30
0.0
 10
11.66
 20
-2.773535981263433
 30
0.0
 10
11.61682273980546
 20
-2.733893616735869
 30
0.0
 10
11.46931636355712
 20
-2.677233463131908
 30
0.0
 10
11.36573371185186
 20
-2.660544279412269
 30
0.0
 10
11.26
 20
-2.660544279412269
 30
0.0
  0
LINE
  5
60
330
1F
100
AcDbEntity
  8
SK1
  6
Continuous
100
AcDbLine
 10
-22.34
 20
-6.1450479361
 30
0.0
 11
-22.34
 21
-0.4
 31
0.0
  0
LINE
  5
61
330
1F
100
AcDbEntity
  8
SK1
  6
Continuous
100
AcDbLine
 10
-22.0817519303
 20
-6.3553123498
 30
0.0
 11
-22.0817519303
 21
-0.4
 31
0.0
  0
SPLINE
  5
62
330
1F
100
AcDbEntity
  8
SK1
  6
Continuous
100
AcDbSpline
210
0.0
220
0.0
230
1.0
 70
     8
 71
     3
 72
    10
 73
     6
 74
     0
 42
0.0000000269084072
 43
0.0000000001
 12
1.0
 22
0.0
 32
0.0
 13
1.0
 23
0.0
 33
0.0
 40
0.0
 40
0.0
 40
0.0
 40
0.0
 40
0.5
 40
0.5
 40
1.0
 40
1.0
 40
1.0
 40
1.0
 10
-22.08175193028801
 20
-6.920997774731322
 30
0.0
 10
-22.15330684542487
 20
-6.913880382922667
 30
0.0
 10
-22.21940242541913
 20
-6.888335995334578
 30
0.0
 10
-22.31354727266464
 20
-6.811635673201019
 30
0.0
 10
-22.34
 20
-6.761293609469148
 30
0.0
 10
-22.34
 20
-6.710733361022311
 30
0.0
  0
SPLINE
  5
63
330
1F
100
AcDbEntity
  8
SK1
  6
Continuous
100
AcDbSpline
210
0.0
220
0.0
230
1.0
 70
     8
 71
     3
 72
    10
 73
     6
 74
     0
 42
0.0000000269084072
 43
0.0000000001
 12
1.0
 22
0.0
 32
0.0
 13
1.0
 23
0.0
 33
0.0
 40
0.0
 40
0.0
 40
0.0
 40
0.0
 40
0.5
 40
0.5
 40
1.0
 40
1.0
 40
1.0
 40
1.0
 10
-22.08175193028801
 20
-6.355312349782084
 30
0.0
 10
-22.15330684542467
 20
-6.348194957973447
 30
0.0
 10
-22.21940242541922
 20
-6.322650570385273
 30
0.0
 10
-22.31354727266454
 20
-6.245950248251864
 30
0.0
 10
-22.33999999999999
 20
-6.195608184519858
 30
0.0
 10
-22.34000000000013
 20
-6.145047936073079
 30
0.0
  0
LINE
  5
64
330
1F
100
AcDbEntity
  8
SK1
  6
Continuous
100
AcDbLine
 10
-22.34
 20
-6.710733361
 30
0.0
 11
-22.34
 21
-6.1450479361
 31
0.0
  0
LINE
  5
65
330
1F
100
AcDbEntity
  8
SK3
100
AcDbLine
 10
-22.34
 20
-4.8947881598
 30
0.0
 11
-21.4141669751
 21
-4.5160448102
 31
0.0
  0
LINE
  5
66
330
1F
100
AcDbEntity
  8
SK3
100
AcDbLine
 10
-21.4141669751
 20
-4.5160448102
 30
0.0
 11
-2.8604938388
 21
-4.5160448102
 31
0.0
  0
LINE
  5
67
330
1F
100
AcDbEntity
  8
SK3
100
AcDbLine
 10
-22.34
 20
-4.3291027348
 30
0.0
 11
-21.4141669751
 21
-3.9503593852
 31
0.0
  0
LINE
  5
68
330
1F
100
AcDbEntity
  8
SK3
100
AcDbLine
 10
-21.4141669751
 20
-3.9503593852
 30
0.0
 11
-2.8604938388
 21
-3.9503593852
 31
0.0
  0
LINE
  5
69
330
1F
100
AcDbEntity
  8
SK1
  6
Continuous
100
AcDbLine
 10
6.66
 20
-11.8516737909
 30
0.0
 11
6.66
 21
-5.3420809011
 31
0.0
  0
LINE
  5
6A
330
1F
100
AcDbEntity
  8
SK1
  6
Continuous
100
AcDbLine
 10
6.9198076211
 20
-11.8516737909
 30
0.0
 11
6.9198076211
 21
-5.3420809011
 31
0.0
  0
LINE
  5
6B
330
1F
100
AcDbEntity
  8
SK1
  6
Continuous
100
AcDbLine
 10
6.66
 20
-12.1578205368
 30
0.0
 11
6.9198076211
 21
-12.1578205368
 31
0.0
  0
LINE
  5
6C
330
1F
100
AcDbEntity
  8
SK1
  6
Continuous
100
AcDbLine
 10
6.66
 20
-11.8516737909
 30
0.0
 11
6.9198076211
 21
-11.8516737909
 31
0.0
  0
LINE
  5
6D
330
1F
100
AcDbEntity
  8
SK1
  6
Continuous
100
AcDbLine
 10
3.56
 20
-11.5326780833
 30
0.0
 11
3.56
 21
-5.2099485527
 31
0.0
  0
LINE
  5
6E
330
1F
100
AcDbEntity
  8
SK1
  6
Continuous
100
AcDbLine
 10
3.2182480697
 20
-11.8072786647
 30
0.0
 11
3.2182480697
 21
-5.3236918378
 31
0.0
  0
LINE
  5
6F
330
1F
100
AcDbEntity
  8
SK1
  6
Continuous
100
AcDbLine
 10
11.535
 20
-9.3884534044
 30
0.0
 11
11.535
 21
-4.3217816099
 31
0.0
  0
LINE
  5
70
330
1F
100
AcDbEntity
  8
SK1
  6
Continuous
100
AcDbLine
 10
11.66
 20
-9.1882744343
 30
0.0
 11
11.66
 21
-4.2388647656
 31
0.0
  0
LINE
  5
71
330
1F
100
AcDbEntity
  8
SK1
  6
Continuous
100
AcDbLine
 10
3.76
 20
-10.0028801381
 30
0.0
 11
3.76
 21
-4.5762854961
 31
0.0
  0
LINE
  5
72
330
1F
100
AcDbEntity
  8
SK1
  6
Continuous
100
AcDbLine
 10
6.46
 20
-10.0028801381
 30
0.0
 11
6.46
 21
-4.5762854961
 31
0.0
  0
LINE
  5
73
330
1F
100
AcDbEntity
  8
SK1
  6
Continuous
100
AcDbLine
 10
6.9198076211
 20
-11.8516737909
 30
0.0
 11
11.535
 21
-9.3884534044
 31
0.0
  0
ARC
  5
74
330
1F
100
AcDbEntity
  8
SK1
  6
Continuous
100
AcDbCircle
 10
11.4286092649
 20
-9.182901583
 30
0.0
 40
0.2314531049789568
100
AcDbArc
 50
297.3654490732
 51
358.6698413103
  0
ARC
  5
75
330
1F
100
AcDbEntity
  8
SK3
100
AcDbCircle
 10
11.2742880088
 20
-5.7636277702
 30
0.0
 40
0.3860205753584348
100
AcDbArc
 50
2.2911216305
 51
92.1212072443
  0
ARC
  5
76
330
1F
100
AcDbEntity
  8
SK1
  6
Continuous
100
AcDbCircle
 10
3.2674163507
 20
-11.824654807
 30
0.0
 40
0.2929265801809867
100
AcDbArc
 50
260.3370530069
 51
357.227293464
  0
LINE
  5
77
330
1F
100
AcDbEntity
  8
SK1
  6
Continuous
100
AcDbLine
 10
3.2182480697
 20
-12.1134254106
 30
0.0
 11
-16.926410275
 21
-9.4961887542
 31
0.0
  0
LINE
  5
78
330
1F
100
AcDbEntity
  8
SK1
  6
Continuous
100
AcDbLine
 10
6.66
 20
-12.1578205368
 30
0.0
 11
6.66
 21
-11.8516737909
 31
0.0
  0
ARC
  5
79
330
1F
100
AcDbEntity
  8
SK1
  6
Continuous
100
AcDbCircle
 10
6.4672716847
 20
-10.5017780977
 30
0.0
 40
0.192888329786198
100
AcDbArc
 50
2.3339651308
 51
92.1605018627
  0
LINE
  5
7A
330
1F
100
AcDbEntity
  8
SK1
  6
Continuous
100
AcDbLine
 10
6.46
 20
-10.309026884
 30
0.0
 11
3.76
 21
-10.309026884
 31
0.0
  0
ARC
  5
7B
330
1F
100
AcDbEntity
  8
SK1
  6
Continuous
100
AcDbCircle
 10
3.7527286759
 20
-10.5017784878
 30
0.0
 40
0.1928887059728785
100
AcDbArc
 50
87.8396095414
 51
177.6659234645
  0
LINE
  5
7C
330
1F
100
AcDbEntity
  8
SK1
  6
Continuous
100
AcDbLine
 10
3.56
 20
-11.5326780833
 30
0.0
 11
3.56
 21
-11.8388248292
 31
0.0
  0
ARC
  5
7D
330
1F
100
AcDbEntity
  8
SK1
  6
Continuous
100
AcDbCircle
 10
6.4672716847
 20
-10.1956313518
 30
0.0
 40
0.1928883297862035
100
AcDbArc
 50
2.3339651308
 51
92.1605018627
  0
LINE
  5
7E
330
1F
100
AcDbEntity
  8
SK1
  6
Continuous
100
AcDbLine
 10
6.46
 20
-10.0028801381
 30
0.0
 11
3.76
 21
-10.0028801381
 31
0.0
  0
ARC
  5
7F
330
1F
100
AcDbEntity
  8
SK1
  6
Continuous
100
AcDbCircle
 10
3.7527286759
 20
-10.1956317419
 30
0.0
 40
0.1928887059728842
100
AcDbArc
 50
87.8396095414
 51
177.6659234645
  0
ARC
  5
80
330
1F
100
AcDbEntity
  8
SK1
  6
Continuous
100
AcDbCircle
 10
3.2674163507
 20
-11.5185080611
 30
0.0
 40
0.2929265801809868
100
AcDbArc
 50
260.3370530069
 51
357.227293464
  0
LINE
  5
81
330
1F
100
AcDbEntity
  8
SK1
  6
Continuous
100
AcDbLine
 10
3.2182480697
 20
-11.8072786647
 30
0.0
 11
-16.926410275
 21
-9.1900420083
 31
0.0
  0
LINE
  5
82
330
1F
100
AcDbEntity
  8
SK1
  6
Continuous
100
AcDbLine
 10
6.9198076211
 20
-12.1578205368
 30
0.0
 11
11.535
 21
-9.6946001503
 31
0.0
  0
ARC
  5
83
330
1F
100
AcDbEntity
  8
SK1
  6
Continuous
100
AcDbCircle
 10
11.4286092649
 20
-9.4890483289
 30
0.0
 40
0.2314531049803314
100
AcDbArc
 50
297.3654490734
 51
358.6698413101
  0
LINE
  5
84
330
1F
100
AcDbEntity
  8
SK1
  6
Continuous
100
AcDbLine
 10
11.66
 20
-9.4944211802
 30
0.0
 11
11.66
 21
-9.1882744343
 31
0.0
  0
ARC
  5
85
330
1F
100
AcDbEntity
  8
SK3
100
AcDbCircle
 10
11.2742880088
 20
-6.0697745161
 30
0.0
 40
0.3860205753584348
100
AcDbArc
 50
2.2911216305
 51
92.1212072443
  0
LINE
  5
86
330
1F
100
AcDbEntity
  8
SK1
  6
Continuous
100
AcDbLine
 10
-22.34
 20
-9.0904101326
 30
0.0
 11
-22.34
 21
-6.710733361
 31
0.0
  0
LINE
  5
87
330
1F
100
AcDbEntity
  8
SK1
  6
Continuous
100
AcDbLine
 10
-22.0817519303
 20
-9.3877689182
 30
0.0
 11
-22.0817519303
 21
-6.9209977747
 31
0.0
  0
SPLINE
  5
88
330
1F
100
AcDbEntity
  8
SK1
  6
Continuous
100
AcDbSpline
210
0.0
220
0.0
230
1.0
 70
     8
 71
     3
 72
    10
 73
     6
 74
     0
 42
0.0000000227964674
 43
0.0000000001
 12
1.0
 22
0.0
 32
0.0
 13
1.0
 23
0.0
 33
0.0
 40
0.0
 40
0.0
 40
0.0
 40
0.0
 40
0.4999999999999996
 40
0.4999999999999996
 40
1.0
 40
1.0
 40
1.0
 40
1.0
 10
-22.08175193028801
 20
-9.387768918179047
 30
0.0
 10
-22.15330684542484
 20
-9.377703406154529
 30
0.0
 10
-22.21940242541913
 20
-9.341578186784925
 30
0.0
 10
-22.31354727266462
 20
-9.233107550985293
 30
0.0
 10
-22.33999999999998
 20
-9.161913121697811
 30
0.0
 10
-22.34000000000013
 20
-9.090410132627346
 30
0.0
  0
LINE
  5
89
330
1F
100
AcDbEntity
  8
SK3
100
AcDbLine
 10
-21.4141669751
 20
5.9866518188
 30
0.0
 11
-21.4141669751
 21
4.5160448102
 31
0.0
  0
SPLINE
  5
8A
330
1F
100
AcDbEntity
  8
SK1
  6
Continuous
100
AcDbSpline
210
0.0
220
0.0
230
1.0
 70
     8
 71
     3
 72
    10
 73
     6
 74
     0
 42
0.0000000228000739
 43
0.0000000001
 12
1.0
 22
0.0
 32
0.0
 13
1.0
 23
0.0
 33
0.0
 40
0.0
 40
0.0
 40
0.0
 40
0.0
 40
0.5
 40
0.5
 40
1.0
 40
1.0
 40
1.0
 40
1.0
 10
-22.34000000000013
 20
9.090410132627321
 30
0.0
 10
-22.34
 20
9.161884936856625
 30
0.0
 10
-22.31326416133239
 20
9.233386588430832
 30
0.0
 10
-22.21985596458167
 20
9.341102701992273
 30
0.0
 10
-22.15328300875938
 20
9.377706759222024
 30
0.0
 10
-22.08175193028801
 20
9.387768918179043
 30
0.0
  0
SPLINE
  5
8B
330
1F
100
AcDbEntity
  8
SK1
  6
Continuous
100
AcDbSpline
210
0.0
220
0.0
230
1.0
 70
     8
 71
     3
 72
    11
 73
     7
 74
     0
 42
0.0000000005397559
 43
0.0000000001
 12
1.0
 22
0.0
 32
0.0
 13
1.0
 23
0.0
 33
0.0
 40
0.0
 40
0.0
 40
0.0
 40
0.0
 40
0.8904043968419015
 40
0.8904043968419015
 40
0.8904043968419015
 40
1.0
 40
1.0
 40
1.0
 40
1.0
 10
-22.08175193028801
 20
9.387768918179043
 30
0.0
 10
-16.63655230217698
 20
10.15373617881873
 30
0.0
 10
-11.19133014604001
 20
10.91954329254181
 30
0.0
 10
-5.746096572313217
 20
11.68526919775262
 30
0.0
 10
-5.075868909377585
 20
11.77951872386569
 30
0.0
 10
-4.405641062509895
 20
11.87376694200826
 30
0.0
 10
-3.735413044452089
 20
11.9680139427404
 30
0.0
  0
LINE
  5
8C
330
1F
100
AcDbEntity
  8
SK3
100
AcDbLine
 10
-22.34
 20
-6.5222758005
 30
0.0
 11
-21.4141669751
 21
-5.9866518188
 31
0.0
  0
LINE
  5
8D
330
1F
100
AcDbEntity
  8
SK3
100
AcDbLine
 10
-21.4141669751
 20
-5.9866518188
 30
0.0
 11
-2.8604938388
 21
-5.9866518188
 31
0.0
  0
LINE
  5
8E
330
1F
100
AcDbEntity
  8
SK3
100
AcDbLine
 10
-21.4141669751
 20
5.9866518188
 30
0.0
 11
-22.34
 21
6.5222758005
 31
0.0
  0
LINE
  5
8F
330
1F
100
AcDbEntity
  8
SK1
  6
Continuous
100
AcDbLine
 10
6.66
 20
-12.1578205368
 30
0.0
 11
6.66
 21
-13.0
 31
0.0
  0
LINE
  5
90
330
1F
100
AcDbEntity
  8
SK1
  6
Continuous
100
AcDbLine
 10
6.9198076211
 20
-12.1578205368
 30
0.0
 11
6.9198076211
 21
-13.0
 31
0.0
  0
LINE
  5
91
330
1F
100
AcDbEntity
  8
SK1
  6
Continuous
100
AcDbLine
 10
3.56
 20
-11.8388248292
 30
0.0
 11
3.56
 21
-12.6548894778
 31
0.0
  0
LINE
  5
92
330
1F
100
AcDbEntity
  8
SK1
  6
Continuous
100
AcDbLine
 10
3.2182480697
 20
-12.1134254106
 30
0.0
 11
3.2182480697
 21
-12.9519698985
 31
0.0
  0
LINE
  5
93
330
1F
100
AcDbEntity
  8
SK1
  6
Continuous
100
AcDbLine
 10
11.535
 20
-10.3354174377
 30
0.0
 11
11.535
 21
-9.6946001503
 31
0.0
  0
LINE
  5
94
330
1F
100
AcDbEntity
  8
SK1
  6
Continuous
100
AcDbLine
 10
11.66
 20
-10.1189110868
 30
0.0
 11
11.66
 21
-9.4944211802
 31
0.0
  0
LINE
  5
95
330
1F
100
AcDbEntity
  8
SK1
  6
Continuous
100
AcDbLine
 10
3.76
 20
-10.309026884
 30
0.0
 11
3.76
 21
-11.0
 31
0.0
  0
LINE
  5
96
330
1F
100
AcDbEntity
  8
SK1
  6
Continuous
100
AcDbLine
 10
6.46
 20
-11.0
 30
0.0
 11
6.46
 21
-10.309026884
 31
0.0
  0
LINE
  5
97
330
1F
100
AcDbEntity
  8
SK1
  6
Continuous
100
AcDbLine
 10
6.9198076211
 20
12.1578205368
 30
0.0
 11
6.9198076211
 21
13.0
 31
0.0
  0
LINE
  5
98
330
1F
100
AcDbEntity
  8
SK1
  6
Continuous
100
AcDbLine
 10
6.66
 20
12.1578205368
 30
0.0
 11
6.66
 21
13.0
 31
0.0
  0
LINE
  5
99
330
1F
100
AcDbEntity
  8
SK1
  6
Continuous
100
AcDbLine
 10
3.2182480697
 20
12.1134254106
 30
0.0
 11
3.2182480697
 21
12.9519698985
 31
0.0
  0
LINE
  5
9A
330
1F
100
AcDbEntity
  8
SK1
  6
Continuous
100
AcDbLine
 10
3.56
 20
11.8388248292
 30
0.0
 11
3.56
 21
12.6548894778
 31
0.0
  0
LINE
  5
9B
330
1F
100
AcDbEntity
  8
SK1
  6
Continuous
100
AcDbLine
 10
11.66
 20
9.4944211802
 30
0.0
 11
11.66
 21
10.1189110868
 31
0.0
  0
LINE
  5
9C
330
1F
100
AcDbEntity
  8
SK1
  6
Continuous
100
AcDbLine
 10
11.535
 20
9.6946001503
 30
0.0
 11
11.535
 21
10.3354174377
 31
0.0
  0
LINE
  5
9D
330
1F
100
AcDbEntity
  8
SK1
  6
Continuous
100
AcDbLine
 10
3.76
 20
10.309026884
 30
0.0
 11
3.76
 21
11.0
 31
0.0
  0
LINE
  5
9E
330
1F
100
AcDbEntity
  8
SK1
  6
Continuous
100
AcDbLine
 10
6.46
 20
10.309026884
 30
0.0
 11
6.46
 21
11.0
 31
0.0
  0
ARC
  5
9F
330
1F
100
AcDbEntity
  8
SK3
100
AcDbCircle
 10
11.2742812547
 20
5.7636350655
 30
0.0
 40
0.386027615750519
100
AcDbArc
 50
267.8798346154
 51
357.7078365098
  0
ARC
  5
A0
330
1F
100
AcDbEntity
  8
SK1
  6
Continuous
100
AcDbCircle
 10
11.4314734589
 20
9.1846901038
 30
0.0
 40
0.2285546486553116
100
AcDbArc
 50
0.8985834844
 51
63.066126132
  0
LINE
  5
A1
330
1F
100
AcDbEntity
  8
SK1
  6
Continuous
100
AcDbLine
 10
11.535
 20
9.3884534044
 30
0.0
 11
6.9198076211
 21
11.8516737909
 31
0.0
  0
LINE
  5
A2
330
1F
100
AcDbEntity
  8
SK1
  6
Continuous
100
AcDbLine
 10
6.9198076211
 20
11.8516737909
 30
0.0
 11
6.66
 21
11.8516737909
 31
0.0
  0
ARC
  5
A3
330
1F
100
AcDbEntity
  8
SK1
  6
Continuous
100
AcDbCircle
 10
3.2674011629
 20
11.8246359052
 30
0.0
 40
0.2929426650656596
100
AcDbArc
 50
2.7762554562
 51
99.6593980728
  0
LINE
  5
A4
330
1F
100
AcDbEntity
  8
SK1
  6
Continuous
100
AcDbLine
 10
3.56
 20
11.8388248292
 30
0.0
 11
3.56
 21
11.5326780833
 31
0.0
  0
ARC
  5
A5
330
1F
100
AcDbEntity
  8
SK1
  6
Continuous
100
AcDbCircle
 10
3.7527241638
 20
10.5017736071
 30
0.0
 40
0.1928839989105181
100
AcDbArc
 50
182.332682528
 51
272.1617844654
  0
LINE
  5
A6
330
1F
100
AcDbEntity
  8
SK1
  6
Continuous
100
AcDbLine
 10
3.76
 20
10.309026884
 30
0.0
 11
6.46
 21
10.309026884
 31
0.0
  0
ARC
  5
A7
330
1F
100
AcDbEntity
  8
SK1
  6
Continuous
100
AcDbCircle
 10
6.4672770835
 20
10.5017722579
 30
0.0
 40
0.1928826977831497
100
AcDbArc
 50
267.8378301847
 51
357.6677028219
  0
LINE
  5
A8
330
1F
100
AcDbEntity
  8
SK1
  6
Continuous
100
AcDbLine
 10
6.66
 20
11.8516737909
 30
0.0
 11
6.66
 21
12.1578205368
 31
0.0
  0
LINE
  5
A9
330
1F
100
AcDbEntity
  8
SK3
100
AcDbLine
 10
11.26
 20
5.6840184566
 30
0.0
 11
-17.466141255
 21
5.6840184566
 31
0.0
  0
ARC
  5
AA
330
1F
100
AcDbEntity
  8
SK1
  6
Continuous
100
AcDbCircle
 10
3.2674011629
 20
11.5184891593
 30
0.0
 40
0.2929426650656599
100
AcDbArc
 50
2.7762554562
 51
99.6593980728
  0
ARC
  5
AB
330
1F
100
AcDbEntity
  8
SK1
  6
Continuous
100
AcDbCircle
 10
3.7527241638
 20
10.1956268612
 30
0.0
 40
0.1928839989105152
100
AcDbArc
 50
182.332682528
 51
272.1617844655
  0
LINE
  5
AC
330
1F
100
AcDbEntity
  8
SK1
  6
Continuous
100
AcDbLine
 10
3.76
 20
10.0028801381
 30
0.0
 11
6.46
 21
10.0028801381
 31
0.0
  0
ARC
  5
AD
330
1F
100
AcDbEntity
  8
SK1
  6
Continuous
100
AcDbCircle
 10
6.4672770835
 20
10.195625512
 30
0.0
 40
0.1928826977831548
100
AcDbArc
 50
267.8378301847
 51
357.6677028219
  0
LINE
  5
AE
330
1F
100
AcDbEntity
  8
SK3
100
AcDbLine
 10
11.26
 20
5.3778717108
 30
0.0
 11
-17.466141255
 21
5.3778717108
 31
0.0
  0
ARC
  5
AF
330
1F
100
AcDbEntity
  8
SK3
100
AcDbCircle
 10
11.2742812547
 20
6.0697818114
 30
0.0
 40
0.3860276157505186
100
AcDbArc
 50
267.8798346154
 51
357.7078365098
  0
LINE
  5
B0
330
1F
100
AcDbEntity
  8
SK1
  6
Continuous
100
AcDbLine
 10
11.66
 20
9.1882744343
 30
0.0
 11
11.66
 21
9.4944211802
 31
0.0
  0
ARC
  5
B1
330
1F
100
AcDbEntity
  8
SK1
  6
Continuous
100
AcDbCircle
 10
11.4314734589
 20
9.4908368497
 30
0.0
 40
0.2285546486553126
100
AcDbArc
 50
0.8985834844
 51
63.066126132
  0
LINE
  5
B2
330
1F
100
AcDbEntity
  8
SK1
  6
Continuous
100
AcDbLine
 10
11.535
 20
9.6946001503
 30
0.0
 11
6.9198076211
 21
12.1578205368
 31
0.0
  0
LINE
  5
B3
330
1F
100
AcDbEntity
  8
SK1
  6
Continuous
100
AcDbLine
 10
6.9198076211
 20
12.1578205368
 30
0.0
 11
6.66
 21
12.1578205368
 31
0.0
  0
LINE
  5
B4
330
1F
100
AcDbEntity
  8
SK1
  6
Continuous
100
AcDbLine
 10
-22.34
 20
6.710733361
 30
0.0
 11
-22.34
 21
9.0904101326
 31
0.0
  0
LINE
  5
B5
330
1F
100
AcDbEntity
  8
SK1
  6
Continuous
100
AcDbLine
 10
-22.0817519303
 20
6.9209977747
 30
0.0
 11
-22.0817519303
 21
9.3877689182
 31
0.0
  0
LINE
  5
B6
330
1F
100
AcDbEntity
  8
SK3
100
AcDbLine
 10
-21.4141669751
 20
3.9503593852
 30
0.0
 11
-21.4141669751
 21
0.4
 31
0.0
  0
SPLINE
  5
B7
330
1F
100
AcDbEntity
  8
SK1
  6
Continuous
100
AcDbSpline
210
0.0
220
0.0
230
1.0
 70
     8
 71
     3
 72
    10
 73
     6
 74
     0
 42
0.0000000269127736
 43
0.0000000001
 12
1.0
 22
0.0
 32
0.0
 13
1.0
 23
0.0
 33
0.0
 40
0.0
 40
0.0
 40
0.0
 40
0.0
 40
0.5
 40
0.5
 40
1.0
 40
1.0
 40
1.0
 40
1.0
 10
-22.34000000000013
 20
6.710733361022297
 30
0.0
 10
-22.34000000000001
 20
6.761273679776799
 30
0.0
 10
-22.31326416133238
 20
6.81183298247098
 30
0.0
 10
-22.2198559645817
 20
6.887999776813321
 30
0.0
 10
-22.15328300875939
 20
6.913882753899432
 30
0.0
 10
-22.08175193028801
 20
6.920997774731315
 30
0.0
  0
SPLINE
  5
B8
330
1F
100
AcDbEntity
  8
SK1
  6
Continuous
100
AcDbSpline
210
0.0
220
0.0
230
1.0
 70
     8
 71
     3
 72
    11
 73
     7
 74
     0
 42
0.0000000005423924
 43
0.0000000001
 12
1.0
 22
0.0
 32
0.0
 13
1.0
 23
0.0
 33
0.0
 40
0.0
 40
0.0
 40
0.0
 40
0.0
 40
0.8904043968419018
 40
0.8904043968419018
 40
0.8904043968419018
 40
1.0
 40
1.0
 40
1.0
 40
1.0
 10
-22.08175193028801
 20
6.920997774731315
 30
0.0
 10
-16.63655230217698
 20
7.462618418896524
 30
0.0
 10
-11.19133014604001
 20
8.004125822091007
 30
0.0
 10
-5.74609657231322
 20
8.545575802195783
 30
0.0
 10
-5.075868909377588
 20
8.61222028123395
 30
0.0
 10
-4.405641062509899
 20
8.678863835397307
 30
0.0
 10
-3.735413044452095
 20
8.745506528721501
 30
0.0
  0
LINE
  5
B9
330
1F
100
AcDbEntity
  8
SK3
100
AcDbLine
 10
-21.4141669751
 20
4.5160448102
 30
0.0
 11
-22.34
 21
4.8947881598
 31
0.0
  0
LINE
  5
BA
330
1F
100
AcDbEntity
  8
SK1
  6
Continuous
100
AcDbLine
 10
-22.34
 20
6.1450479361
 30
0.0
 11
-22.34
 21
6.710733361
 31
0.0
  0
SPLINE
  5
BB
330
1F
100
AcDbEntity
  8
SK1
  6
Continuous
100
AcDbSpline
210
0.0
220
0.0
230
1.0
 70
     8
 71
     3
 72
    10
 73
     6
 74
     0
 42
0.0000000269127736
 43
0.0000000001
 12
1.0
 22
0.0
 32
0.0
 13
1.0
 23
0.0
 33
0.0
 40
0.0
 40
0.0
 40
0.0
 40
0.0
 40
0.5
 40
0.5
 40
1.0
 40
1.0
 40
1.0
 40
1.0
 10
-22.34000000000013
 20
6.145047936073058
 30
0.0
 10
-22.33999999999999
 20
6.195588254827512
 30
0.0
 10
-22.31326416133237
 20
6.246147557521756
 30
0.0
 10
-22.21985596458174
 20
6.322314351864057
 30
0.0
 10
-22.15328300875938
 20
6.348197328950193
 30
0.0
 10
-22.08175193028801
 20
6.355312349782077
 30
0.0
  0
SPLINE
  5
BC
330
1F
100
AcDbEntity
  8
SK1
  6
Continuous
100
AcDbSpline
210
0.0
220
0.0
230
1.0
 70
     8
 71
     3
 72
    11
 73
     7
 74
     0
 42
0.0000000005423924
 43
0.0000000001
 12
1.0
 22
0.0
 32
0.0
 13
1.0
 23
0.0
 33
0.0
 40
0.0
 40
0.0
 40
0.0
 40
0.0
 40
0.8904043968419018
 40
0.8904043968419018
 40
0.8904043968419018
 40
1.0
 40
1.0
 40
1.0
 40
1.0
 10
-22.08175193028801
 20
6.355312349782077
 30
0.0
 10
-16.63655230217698
 20
6.896932993947287
 30
0.0
 10
-11.19133014604001
 20
7.43844039714177
 30
0.0
 10
-5.746096572313217
 20
7.979890377246544
 30
0.0
 10
-5.075868909377585
 20
8.046534856284712
 30
0.0
 10
-4.405641062509895
 20
8.11317841044807
 30
0.0
 10
-3.735413044452091
 20
8.179821103772264
 30
0.0
  0
LINE
  5
BD
330
1F
100
AcDbEntity
  8
SK3
100
AcDbLine
 10
-21.4141669751
 20
3.9503593852
 30
0.0
 11
-22.34
 21
4.3291027348
 31
0.0
  0
LINE
  5
BE
330
1F
100
AcDbEntity
  8
SK1
  6
Continuous
100
AcDbLine
 10
6.9198076211
 20
5.3420809011
 30
0.0
 11
6.9198076211
 21
11.8516737909
 31
0.0
  0
LINE
  5
BF
330
1F
100
AcDbEntity
  8
SK1
  6
Continuous
100
AcDbLine
 10
6.66
 20
5.3420809011
 30
0.0
 11
6.66
 21
11.8516737909
 31
0.0
  0
LINE
  5
C0
330
1F
100
AcDbEntity
  8
SK1
  6
Continuous
100
AcDbLine
 10
3.2182480697
 20
5.3236918378
 30
0.0
 11
3.2182480697
 21
11.8072786647
 31
0.0
  0
LINE
  5
C1
330
1F
100
AcDbEntity
  8
SK1
  6
Continuous
100
AcDbLine
 10
3.56
 20
5.2099485527
 30
0.0
 11
3.56
 21
11.5326780833
 31
0.0
  0
LINE
  5
C2
330
1F
100
AcDbEntity
  8
SK1
  6
Continuous
100
AcDbLine
 10
11.66
 20
4.2388647656
 30
0.0
 11
11.66
 21
9.1882744343
 31
0.0
  0
LINE
  5
C3
330
1F
100
AcDbEntity
  8
SK1
  6
Continuous
100
AcDbLine
 10
11.535
 20
4.3217816099
 30
0.0
 11
11.535
 21
9.3884534044
 31
0.0
  0
LINE
  5
C4
330
1F
100
AcDbEntity
  8
SK1
  6
Continuous
100
AcDbLine
 10
3.76
 20
4.5762854961
 30
0.0
 11
3.76
 21
10.0028801381
 31
0.0
  0
LINE
  5
C5
330
1F
100
AcDbEntity
  8
SK1
  6
Continuous
100
AcDbLine
 10
6.46
 20
4.5762854961
 30
0.0
 11
6.46
 21
10.0028801381
 31
0.0
  0
SPLINE
  5
C6
330
1F
100
AcDbEntity
  8
SK3
100
AcDbSpline
210
0.0
220
0.0
230
1.0
 70
     8
 71
     3
 72
    10
 73
     6
 74
     0
 42
0.0000000213879139
 43
0.0000000001
 12
1.0
 22
0.0
 32
0.0
 13
1.0
 23
0.0
 33
0.0
 40
0.0
 40
0.0
 40
0.0
 40
0.0
 40
0.5
 40
0.5
 40
1.0
 40
1.0
 40
1.0
 40
1.0
 10
11.26
 20
1.921440653403235
 30
0.0
 10
11.36584196557559
 20
1.921440653403234
 30
0.0
 10
11.46932775502482
 20
1.938131192210526
 30
0.0
 10
11.6168414834437
 20
1.994800211754082
 30
0.0
 10
11.66000000000001
 20
2.034842866942025
 30
0.0
 10
11.66
 20
2.074833930652658
 30
0.0
  0
SPLINE
  5
C7
330
1F
100
AcDbEntity
  8
SK1
  6
Continuous
100
AcDbSpline
210
0.0
220
0.0
230
1.0
 70
     8
 71
     3
 72
     8
 73
     4
 74
     0
 42
0.0000000587427727
 43
0.0000000001
 12
1.0
 22
0.0
 32
0.0
 13
1.0
 23
0.0
 33
0.0
 40
0.0
 40
0.0
 40
0.0
 40
0.0
 40
1.0
 40
1.0
 40
1.0
 40
1.0
 10
11.66
 20
3.499761139610459
 30
0.0
 10
11.66
 20
3.533298806959793
 30
0.0
 10
11.61129689683814
 20
3.56580812689349
 30
0.0
 10
11.535
 20
3.582677983937337
 30
0.0
  0
LINE
  5
C8
330
1F
100
AcDbEntity
  8
SK1
  6
Continuous
100
AcDbLine
 10
11.535
 20
3.5826779839
 30
0.0
 11
6.9198076211
 21
4.6029772751
 31
0.0
  0
LINE
  5
C9
330
1F
100
AcDbEntity
  8
SK1
  6
Continuous
100
AcDbLine
 10
6.9198076211
 20
4.6029772751
 30
0.0
 11
6.66
 21
4.6029772751
 31
0.0
  0
SPLINE
  5
CA
330
1F
100
AcDbEntity
  8
SK1
  6
Continuous
100
AcDbSpline
210
0.0
220
0.0
230
1.0
 70
     8
 71
     3
 72
    10
 73
     6
 74
     0
 42
0.0000000253792307
 43
0.0000000001
 12
1.0
 22
0.0
 32
0.0
 13
1.0
 23
0.0
 33
0.0
 40
0.0
 40
0.0
 40
0.0
 40
0.0
 40
0.5
 40
0.5
 40
1.0
 40
1.0
 40
1.0
 40
1.0
 10
3.21824806971199
 20
5.32369183777287
 30
0.0
 10
3.303749195478801
 20
5.328292509348333
 30
0.0
 10
3.3925749936822
 20
5.31801625595605
 30
0.0
 10
3.521053046577931
 20
5.275257322739528
 30
0.0
 10
3.560000000000009
 20
5.242864836499538
 30
0.0
 10
3.560000000000004
 20
5.209948552723161
 30
0.0
  0
LINE
  5
CB
330
1F
100
AcDbEntity
  8
SK1
  6
Continuous
100
AcDbLine
 10
3.56
 20
5.2099485527
 30
0.0
 11
3.56
 21
4.6528719302
 31
0.0
  0
SPLINE
  5
CC
330
1F
100
AcDbEntity
  8
SK1
  6
Continuous
100
AcDbSpline
210
0.0
220
0.0
230
1.0
 70
     8
 71
     3
 72
    10
 73
     6
 74
     0
 42
0.0000000427802756
 43
0.0000000001
 12
1.0
 22
0.0
 32
0.0
 13
1.0
 23
0.0
 33
0.0
 40
0.0
 40
0.0
 40
0.0
 40
0.0
 40
0.5
 40
0.5
 40
1.0
 40
1.0
 40
1.0
 40
1.0
 10
3.559999999997676
 20
4.652871930211931
 30
0.0
 10
3.560000000000112
 20
4.632908142912191
 30
0.0
 10
3.58120032954214
 20
4.613046364442458
 30
0.0
 10
3.655802726150728
 20
4.584447388079013
 30
0.0
 10
3.707160895659195
 20
4.576285496125683
 30
0.0
 10
3.76000000000001
 20
4.57628549612599
 30
0.0
  0
LINE
  5
CD
330
1F
100
AcDbEntity
  8
SK1
  6
Continuous
100
AcDbLine
 10
3.76
 20
4.5762854961
 30
0.0
 11
6.46
 21
4.5762854961
 31
0.0
  0
SPLINE
  5
CE
330
1F
100
AcDbEntity
  8
SK1
  6
Continuous
100
AcDbSpline
210
0.0
220
0.0
230
1.0
 70
     8
 71
     3
 72
    10
 73
     6
 74
     0
 42
0.0000000427867299
 43
0.0000000001
 12
1.0
 22
0.0
 32
0.0
 13
1.0
 23
0.0
 33
0.0
 40
0.0
 40
0.0
 40
0.0
 40
0.0
 40
0.5
 40
0.5
 40
1.0
 40
1.0
 40
1.0
 40
1.0
 10
6.460000000000011
 20
4.57628549612599
 30
0.0
 10
6.512878616413253
 20
4.576285496125992
 30
0.0
 10
6.564599852953438
 20
4.584602710151133
 30
0.0
 10
6.638387171863582
 20
4.612887239847584
 30
0.0
 10
6.660000000000013
 20
4.632890888076784
 30
0.0
 10
6.66000000000001
 20
4.652871930212034
 30
0.0
  0
LINE
  5
CF
330
1F
100
AcDbEntity
  8
SK1
  6
Continuous
100
AcDbLine
 10
6.66
 20
4.6528719302
 30
0.0
 11
6.66
 21
5.3420809011
 31
0.0
  0
LINE
  5
D0
330
1F
100
AcDbEntity
  8
SK3
100
AcDbLine
 10
11.26
 20
2.6605442794
 30
0.0
 11
-17.466141255
 21
2.6605442794
 31
0.0
  0
SPLINE
  5
D1
330
1F
100
AcDbEntity
  8
SK1
  6
Continuous
100
AcDbSpline
210
0.0
220
0.0
230
1.0
 70
     8
 71
     3
 72
    10
 73
     6
 74
     0
 42
0.0000000253792307
 43
0.0000000001
 12
1.0
 22
0.0
 32
0.0
 13
1.0
 23
0.0
 33
0.0
 40
0.0
 40
0.0
 40
0.0
 40
0.0
 40
0.5
 40
0.5
 40
1.0
 40
1.0
 40
1.0
 40
1.0
 10
3.21824806971199
 20
4.584588211763839
 30
0.0
 10
3.303749195478801
 20
4.589188883339299
 30
0.0
 10
3.3925749936822
 20
4.578912629947021
 30
0.0
 10
3.521053046577931
 20
4.536153696730499
 30
0.0
 10
3.560000000000009
 20
4.503761210490508
 30
0.0
 10
3.560000000000004
 20
4.470844926714134
 30
0.0
  0
SPLINE
  5
D2
330
1F
100
AcDbEntity
  8
SK1
  6
Continuous
100
AcDbSpline
210
0.0
220
0.0
230
1.0
 70
     8
 71
     3
 72
    10
 73
     6
 74
     0
 42
0.0000000427802756
 43
0.0000000001
 12
1.0
 22
0.0
 32
0.0
 13
1.0
 23
0.0
 33
0.0
 40
0.0
 40
0.0
 40
0.0
 40
0.0
 40
0.5
 40
0.5
 40
1.0
 40
1.0
 40
1.0
 40
1.0
 10
3.559999999997676
 20
3.9137683042029
 30
0.0
 10
3.560000000000112
 20
3.893804516903163
 30
0.0
 10
3.581200329542143
 20
3.873942738433425
 30
0.0
 10
3.655802726150729
 20
3.845343762069981
 30
0.0
 10
3.707160895659199
 20
3.837181870116658
 30
0.0
 10
3.76000000000001
 20
3.837181870116961
 30
0.0
  0
LINE
  5
D3
330
1F
100
AcDbEntity
  8
SK1
  6
Continuous
100
AcDbLine
 10
3.76
 20
3.8371818701
 30
0.0
 11
6.46
 21
3.8371818701
 31
0.0
  0
SPLINE
  5
D4
330
1F
100
AcDbEntity
  8
SK1
  6
Continuous
100
AcDbSpline
210
0.0
220
0.0
230
1.0
 70
     8
 71
     3
 72
    10
 73
     6
 74
     0
 42
0.0000000427867299
 43
0.0000000001
 12
1.0
 22
0.0
 32
0.0
 13
1.0
 23
0.0
 33
0.0
 40
0.0
 40
0.0
 40
0.0
 40
0.0
 40
0.5
 40
0.5
 40
1.0
 40
1.0
 40
1.0
 40
1.0
 10
6.460000000000011
 20
3.837181870116962
 30
0.0
 10
6.512878616413253
 20
3.837181870116962
 30
0.0
 10
6.564599852953442
 20
3.845499084142101
 30
0.0
 10
6.638387171863582
 20
3.873783613838553
 30
0.0
 10
6.660000000000013
 20
3.893787262067752
 30
0.0
 10
6.66000000000001
 20
3.913768304203005
 30
0.0
  0
LINE
  5
D5
330
1F
100
AcDbEntity
  8
SK3
100
AcDbLine
 10
11.26
 20
1.9214406534
 30
0.0
 11
-17.466141255
 21
1.9214406534
 31
0.0
  0
SPLINE
  5
D6
330
1F
100
AcDbEntity
  8
SK3
100
AcDbSpline
210
0.0
220
0.0
230
1.0
 70
     8
 71
     3
 72
    10
 73
     6
 74
     0
 42
0.0000000213879139
 43
0.0000000001
 12
1.0
 22
0.0
 32
0.0
 13
1.0
 23
0.0
 33
0.0
 40
0.0
 40
0.0
 40
0.0
 40
0.0
 40
0.5
 40
0.5
 40
1.0
 40
1.0
 40
1.0
 40
1.0
 10
11.26
 20
2.660544279412265
 30
0.0
 10
11.36584196557559
 20
2.660544279412264
 30
0.0
 10
11.46932775502482
 20
2.677234818219555
 30
0.0
 10
11.6168414834437
 20
2.73390383776311
 30
0.0
 10
11.66000000000001
 20
2.773946492951055
 30
0.0
 10
11.66
 20
2.813937556661688
 30
0.0
  0
LINE
  5
D7
330
1F
100
AcDbEntity
  8
SK1
  6
Continuous
100
AcDbLine
 10
11.66
 20
3.4997611396
 30
0.0
 11
11.66
 21
4.2388647656
 31
0.0
  0
SPLINE
  5
D8
330
1F
100
AcDbEntity
  8
SK1
  6
Continuous
100
AcDbSpline
210
0.0
220
0.0
230
1.0
 70
     8
 71
     3
 72
     8
 73
     4
 74
     0
 42
0.0000000587427727
 43
0.0000000001
 12
1.0
 22
0.0
 32
0.0
 13
1.0
 23
0.0
 33
0.0
 40
0.0
 40
0.0
 40
0.0
 40
0.0
 40
1.0
 40
1.0
 40
1.0
 40
1.0
 10
11.66
 20
4.238864765619488
 30
0.0
 10
11.66
 20
4.272402432968758
 30
0.0
 10
11.61129689683813
 20
4.30491175290252
 30
0.0
 10
11.535
 20
4.321781609946366
 30
0.0
  0
LINE
  5
D9
330
1F
100
AcDbEntity
  8
SK1
  6
Continuous
100
AcDbLine
 10
11.535
 20
4.3217816099
 30
0.0
 11
6.9198076211
 21
5.3420809011
 31
0.0
  0
LINE
  5
DA
330
1F
100
AcDbEntity
  8
SK1
  6
Continuous
100
AcDbLine
 10
6.9198076211
 20
5.3420809011
 30
0.0
 11
6.66
 21
5.3420809011
 31
0.0
  0
LINE
  5
DB
330
1F
100
AcDbEntity
  8
SK1
  6
Continuous
100
AcDbLine
 10
-22.34
 20
0.4
 30
0.0
 11
-22.34
 21
6.1450479361
 31
0.0
  0
LINE
  5
DC
330
1F
100
AcDbEntity
  8
SK1
  6
Continuous
100
AcDbLine
 10
-22.0817519303
 20
0.4
 30
0.0
 11
-22.0817519303
 21
6.3553123498
 31
0.0
  0
LINE
  5
DD
330
1F
100
AcDbEntity
  8
SK3
100
AcDbLine
 10
-21.4141669751
 20
-0.4
 30
0.0
 11
-21.4141669751
 21
-3.9503593852
 31
0.0
  0
LINE
  5
DE
330
1F
100
AcDbEntity
  8
SK1
  6
Continuous
100
AcDbLine
 10
-22.34
 20
0.4
 30
0.0
 11
-22.0817519303
 21
0.4
 31
0.0
  0
LINE
  5
DF
330
1F
100
AcDbEntity
  8
SK1
  6
Continuous
100
AcDbLine
 10
-22.0817519303
 20
0.4
 30
0.0
 11
-3.7354130445
 21
0.4
 31
0.0
  0
LINE
  5
E0
330
1F
100
AcDbEntity
  8
SK1
  6
Continuous
100
AcDbLine
 10
-22.34
 20
-0.4
 30
0.0
 11
-22.0817519303
 21
-0.4
 31
0.0
  0
LINE
  5
E1
330
1F
100
AcDbEntity
  8
SK1
  6
Continuous
100
AcDbLine
 10
-22.0817519303
 20
-0.4
 30
0.0
 11
-3.7354130445
 21
-0.4
 31
0.0
  0
LINE
  5
E2
330
1F
100
AcDbEntity
  8
SK3
100
AcDbLine
 10
-17.466141255
 20
-1.9214406534
 30
0.0
 11
11.26
 21
-1.9214406534
 31
0.0
  0
SPLINE
  5
E3
330
1F
100
AcDbEntity
  8
SK1
  6
Continuous
100
AcDbSpline
210
0.0
220
0.0
230
1.0
 70
     8
 71
     3
 72
    35
 73
    31
 74
     0
 42
0.0000000080816639
 43
0.0000000001
 12
1.0
 22
0.0
 32
0.0
 13
1.0
 23
0.0
 33
0.0
 40
0.0
 40
0.0
 40
0.0
 40
0.0
 40
0.1134251203605287
 40
0.1134251203605287
 40
0.1134251203605287
 40
0.2270448956076113
 40
0.2270448956076113
 40
0.2270448956076113
 40
0.3375525299923994
 40
0.3375525299923994
 40
0.3375525299923994
 40
0.4436123154059478
 40
0.4436123154059478
 40
0.4436123154059478
 40
0.5001943358043288
 40
0.5001943358043288
 40
0.5001943358043288
 40
0.6025718788280243
 40
0.6025718788280243
 40
0.6025718788280243
 40
0.7048622826146601
 40
0.7048622826146601
 40
0.7048622826146601
 40
0.8085177663571332
 40
0.8085177663571332
 40
0.8085177663571332
 40
0.9156387561634702
 40
0.9156387561634702
 40
0.9156387561634702
 40
1.0
 40
1.0
 40
1.0
 40
1.0
 10
-16.92641027504489
 20
-4.239596918716483
 30
0.0
 10
-16.97418338792762
 20
-4.237025545092665
 30
0.0
 10
-17.0226697965709
 20
-4.227006356904931
 30
0.0
 10
-17.06786828878674
 20
-4.210154945025271
 30
0.0
 10
-17.11311117396345
 20
-4.193286982061015
 30
0.0
 10
-17.15633486494087
 20
-4.169060323510557
 30
0.0
 10
-17.19357317105912
 20
-4.139285345794776
 30
0.0
 10
-17.22979207083587
 20
-4.110325464259939
 30
0.0
 10
-17.26138521019838
 20
-4.075251825705291
 30
0.0
 10
-17.28527580782684
 20
-4.036986410856048
 30
0.0
 10
-17.30821952727531
 20
-4.00023760462968
 30
0.0
 10
-17.3247113623271
 20
-3.959481679113384
 30
0.0
 10
-17.33314397584146
 20
-3.918219431729706
 30
0.0
 10
-17.33769177696157
 20
-3.895966248354181
 30
0.0
 10
-17.33999999999999
 20
-3.873302295204456
 30
0.0
 10
-17.33999999999999
 20
-3.850827256408603
 30
0.0
 10
-17.33999999999999
 20
-3.81056650718956
 30
0.0
 10
-17.33244045748356
 20
-3.770043184192144
 30
0.0
 10
-17.31802614799302
 20
-3.732647902880421
 30
0.0
 10
-17.30361865999355
 20
-3.695270318675678
 30
0.0
 10
-17.28198757287048
 20
-3.660001641481508
 30
0.0
 10
-17.25505043752
 20
-3.629630989714003
 30
0.0
 10
-17.22774723689759
 20
-3.598847612511771
 30
0.0
 10
-17.19428968317309
 20
-3.572273860377515
 30
0.0
 10
-17.15746020563424
 20
-3.551829644960566
 30
0.0
 10
-17.11940649113452
 20
-3.530705849874773
 30
0.0
 10
-17.07676917987023
 20
-3.515560361867675
 30
0.0
 10
-17.03293478755093
 20
-3.507361565306204
 30
0.0
 10
-16.99823368926005
 20
-3.500871062523041
 30
0.0
 10
-16.96217039816761
 20
-3.498568514692506
 30
0.0
 10
-16.92641027504489
 20
-3.500493292707454
 30
0.0
  0
SPLINE
  5
E4
330
1F
100
AcDbEntity
  8
SK3
100
AcDbSpline
210
0.0
220
0.0
230
1.0
 70
     8
 71
     3
 72
    35
 73
    31
 74
     0
 42
0.0000000082254353
 43
0.0000000001
 12
1.0
 22
0.0
 32
0.0
 13
1.0
 23
0.0
 33
0.0
 40
0.0
 40
0.0
 40
0.0
 40
0.0
 40
0.1076383050139716
 40
0.1076383050139716
 40
0.1076383050139716
 40
0.2153008072611026
 40
0.2153008072611026
 40
0.2153008072611026
 40
0.3226362560630314
 40
0.3226362560630314
 40
0.3226362560630314
 40
0.429859597237579
 40
0.429859597237579
 40
0.429859597237579
 40
0.5000051667300311
 40
0.5000051667300311
 40
0.5000051667300311
 40
0.6072802055642827
 40
0.6072802055642827
 40
0.6072802055642827
 40
0.714556927297418
 40
0.714556927297418
 40
0.714556927297418
 40
0.8218046911877672
 40
0.8218046911877672
 40
0.8218046911877672
 40
0.9290289983391627
 40
0.9290289983391627
 40
0.9290289983391627
 40
1.0
 40
1.0
 40
1.0
 40
1.0
 10
-17.46614125497118
 20
-1.92144065340324
 30
0.0
 10
-17.51103645379189
 20
-1.92144065340324
 30
0.0
 10
-17.55655294411594
 20
-1.928757959765134
 30
0.0
 10
-17.59892363831319
 20
-1.942800934063493
 30
0.0
 10
-17.64130026679549
 20
-1.956845875169669
 30
0.0
 10
-17.68169771229811
 20
-1.978006870678116
 30
0.0
 10
-17.71674414672452
 20
-2.004463558129791
 30
0.0
 10
-17.75168654667095
 20
-2.030841709554443
 30
0.0
 10
-17.78227562749818
 20
-2.063207206483213
 30
0.0
 10
-17.80598050736177
 20
-2.098785239603946
 30
0.0
 10
-17.82966149921994
 20
-2.134327419843216
 30
0.0
 10
-17.8471271917057
 20
-2.174051007375693
 30
0.0
 10
-17.85694393800446
 20
-2.214602496091282
 30
0.0
 10
-17.8634184318164
 20
-2.241347647159022
 30
0.0
 10
-17.8667150464368
 20
-2.268849412493762
 30
0.0
 10
-17.8667150464368
 20
-2.296100594190542
 30
0.0
 10
-17.8667150464368
 20
-2.337438864345776
 30
0.0
 10
-17.85900912400439
 20
-2.379145188868118
 30
0.0
 10
-17.84422890203613
 20
-2.417797069282415
 30
0.0
 10
-17.82944855104119
 20
-2.456449287115435
 30
0.0
 10
-17.80718470103235
 20
-2.493115905528338
 30
0.0
 10
-17.77927000026981
 20
-2.524838294482136
 30
0.0
 10
-17.75136272475124
 20
-2.556552245355976
 30
0.0
 10
-17.71703680535878
 20
-2.584202920713977
 30
0.0
 10
-17.67913306982444
 20
-2.605601470067809
 30
0.0
 10
-17.64123608575177
 20
-2.626996207884766
 30
0.0
 10
-17.59872138799561
 20
-2.64273424796937
 30
0.0
 10
-17.55510556001014
 20
-2.651612841077245
 30
0.0
 10
-17.52600536421562
 20
-2.657536580457019
 30
0.0
 10
-17.49598131094942
 20
-2.660544279412269
 30
0.0
 10
-17.46614125497118
 20
-2.660544279412269
 30
0.0
  0
LINE
  5
E5
330
1F
100
AcDbEntity
  8
SK1
  6
Continuous
100
AcDbLine
 10
-3.7354130445
 20
-8.1798211038
 30
0.0
 11
-22.0817519303
 21
-6.3553123498
 31
0.0
  0
SPLINE
  5
E6
330
1F
100
AcDbEntity
  8
SK3
100
AcDbSpline
210
0.0
220
0.0
230
1.0
 70
     8
 71
     3
 72
    35
 73
    31
 74
     0
 42
0.0000000092043207
 43
0.0000000001
 12
1.0
 22
0.0
 32
0.0
 13
1.0
 23
0.0
 33
0.0
 40
0.0
 40
0.0
 40
0.0
 40
0.0
 40
0.1076383050139702
 40
0.1076383050139702
 40
0.1076383050139702
 40
0.2153008072611008
 40
0.2153008072611008
 40
0.2153008072611008
 40
0.3226362560630266
 40
0.3226362560630266
 40
0.3226362560630266
 40
0.4298595972375798
 40
0.4298595972375798
 40
0.4298595972375798
 40
0.5000051667300318
 40
0.5000051667300318
 40
0.5000051667300318
 40
0.6072802055642827
 40
0.6072802055642827
 40
0.6072802055642827
 40
0.7145569272974199
 40
0.7145569272974199
 40
0.7145569272974199
 40
0.8218046911877722
 40
0.8218046911877722
 40
0.8218046911877722
 40
0.9290289983391623
 40
0.9290289983391623
 40
0.9290289983391623
 40
1.0
 40
1.0
 40
1.0
 40
1.0
 10
-2.860493838775003
 20
-4.51604481017797
 30
0.0
 10
-2.815598639954295
 20
-4.51604481017797
 30
0.0
 10
-2.770082149630239
 20
-4.510972386312626
 30
0.0
 10
-2.727711455432992
 20
-4.501158170453011
 30
0.0
 10
-2.685334826950689
 20
-4.491342580050081
 30
0.0
 10
-2.644937381448075
 20
-4.476505128815117
 30
0.0
 10
-2.609890947021661
 20
-4.457717054269989
 30
0.0
 10
-2.574948547075234
 20
-4.438984751662786
 30
0.0
 10
-2.544359466248005
 20
-4.415800351393641
 30
0.0
 10
-2.520654586384416
 20
-4.389912095382505
 30
0.0
 10
-2.49697359452624
 20
-4.364049927620005
 30
0.0
 10
-2.479507902040484
 20
-4.334769273336847
 30
0.0
 10
-2.469691155741726
 20
-4.304372056003569
 30
0.0
 10
-2.463216661929788
 20
-4.284324008561482
 30
0.0
 10
-2.459920047309383
 20
-4.263497838614747
 30
0.0
 10
-2.459920047309383
 20
-4.242640687119289
 30
0.0
 10
-2.459920047309383
 20
-4.21100174489721
 30
0.0
 10
-2.467625969741788
 20
-4.178553131695833
 30
0.0
 10
-2.48240619171005
 20
-4.148038839089612
 30
0.0
 10
-2.497186542704989
 20
-4.117524280103239
 30
0.0
 10
-2.519450392713828
 20
-4.088107558127387
 30
0.0
 10
-2.547365093476365
 20
-4.062372768778513
 30
0.0
 10
-2.57527236899494
 20
-4.036644824822352
 30
0.0
 10
-2.609598288387407
 20
-4.013896036874768
 30
0.0
 10
-2.647502023921746
 20
-3.996176228679028
 30
0.0
 10
-2.685399007994412
 20
-3.978459576758103
 30
0.0
 10
-2.727913705750571
 20
-3.965289824796346
 30
0.0
 10
-2.771529533736043
 20
-3.957851000411333
 30
0.0
 10
-2.800629729530563
 20
-3.952887865327503
 30
0.0
 10
-2.830653782796764
 20
-3.950359385228731
 30
0.0
 10
-2.860493838775003
 20
-3.950359385228731
 30
0.0
  0
SPLINE
  5
E7
330
1F
100
AcDbEntity
  8
SK1
  6
Continuous
100
AcDbSpline
210
0.0
220
0.0
230
1.0
 70
     8
 71
     3
 72
    35
 73
    31
 74
     0
 42
0.0000000092524145
 43
0.0000000001
 12
1.0
 22
0.0
 32
0.0
 13
1.0
 23
0.0
 33
0.0
 40
0.0
 40
0.0
 40
0.0
 40
0.0
 40
0.1075456917067818
 40
0.1075456917067818
 40
0.1075456917067818
 40
0.2150989301385756
 40
0.2150989301385756
 40
0.2150989301385756
 40
0.322548403391312
 40
0.322548403391312
 40
0.322548403391312
 40
0.4299452396167556
 40
0.4299452396167556
 40
0.4299452396167556
 40
0.5000022276408209
 40
0.5000022276408209
 40
0.5000022276408209
 40
0.6074000166486768
 40
0.6074000166486768
 40
0.6074000166486768
 40
0.714798073743761
 40
0.714798073743761
 40
0.714798073743761
 40
0.8221915703467344
 40
0.8221915703467344
 40
0.8221915703467344
 40
0.9295934992251633
 40
0.9295934992251633
 40
0.9295934992251633
 40
1.0
 40
1.0
 40
1.0
 40
1.0
 10
-3.735413044452084
 20
-8.179821103772271
 30
0.0
 10
-3.691029899622515
 20
-8.184234247105506
 30
0.0
 10
-3.646070591160164
 20
-8.19435379621311
 30
0.0
 10
-3.604251747311365
 20
-8.209323061784339
 30
0.0
 10
-3.562431094453561
 20
-8.224292974899443
 30
0.0
 10
-3.522597455293366
 20
-8.244524280435815
 30
0.0
 10
-3.488043905251073
 20
-8.268271189928203
 30
0.0
 10
-3.453523039496954
 20
-8.291995637160358
 30
0.0
 10
-3.423318615637251
 20
-8.319879670680795
 30
0.0
 10
-3.399916600976032
 20
-8.349529297561865
 30
0.0
 10
-3.376525725949495
 20
-8.379164810871234
 30
0.0
 10
-3.359284309190151
 20
-8.411377977928222
 30
0.0
 10
-3.349605836744441
 20
-8.443442218482145
 30
0.0
 10
-3.343240640716418
 20
-8.464529758665813
 30
0.0
 10
-3.339999999999968
 20
-8.485869992403478
 30
0.0
 10
-3.339999999999968
 20
-8.50668425238853
 30
0.0
 10
-3.339999999999968
 20
-8.538333258317648
 30
0.0
 10
-3.347611532466507
 20
-8.569476024987996
 30
0.0
 10
-3.362211311005154
 20
-8.597561293583817
 30
0.0
 10
-3.376811110372899
 20
-8.625646602248109
 30
0.0
 10
-3.398802687503856
 20
-8.651451454699751
 30
0.0
 10
-3.426381423985207
 20
-8.672910160414498
 30
0.0
 10
-3.45395906845283
 20
-8.694368016445607
 30
0.0
 10
-3.487884880964151
 20
-8.712075572973623
 30
0.0
 10
-3.525366384340877
 20
-8.72465332608522
 30
0.0
 10
-3.562851255052244
 20
-8.737232209180936
 30
0.0
 10
-3.60492557805237
 20
-8.745030883577572
 30
0.0
 10
-3.648119116986676
 20
-8.747472025020956
 30
0.0
 10
-3.676664504534476
 20
-8.749085306319031
 30
0.0
 10
-3.706120119277524
 20
-8.74841920825203
 30
0.0
 10
-3.735413044452084
 20
-8.74550652872151
 30
0.0
  0
LINE
  5
E8
330
1F
100
AcDbEntity
  8
SK1
  6
Continuous
100
AcDbLine
 10
-3.7354130445
 20
-8.7455065287
 30
0.0
 11
-22.0817519303
 21
-6.9209977747
 31
0.0
  0
ELLIPSE
  5
E9
330
1F
100
AcDbEntity
  8
SK1
  6
Continuous
100
AcDbEllipse
 10
-64.6712534123
 20
-0.2828427133
 30
0.0
 11
62.09999999235116
 21
1.577975421099248E-9
 31
0.0
210
0.0
220
0.0
230
1.0
 40
0.7071067812
 41
-0.1939350327284792
 42
-0.1815526428255554
  0
LINE
  5
EA
330
1F
100
AcDbEntity
  8
SK3
100
AcDbLine
 10
-17.466141255
 20
-2.6605442794
 30
0.0
 11
11.26
 21
-2.6605442794
 31
0.0
  0
ELLIPSE
  5
EB
330
1F
100
AcDbEntity
  8
SK1
  6
Continuous
100
AcDbEllipse
 10
44.3446183057
 20
-0.369551814
 30
0.0
 11
-62.09999997948964
 21
1.184079391415637E-9
 31
0.0
210
0.0
220
0.0
230
1.0
 40
0.3826834324
 41
0.1352383017692265
 42
0.1635773896389701
  0
LINE
  5
EC
330
1F
100
AcDbEntity
  8
SK3
100
AcDbLine
 10
-17.466141255
 20
-5.3778717108
 30
0.0
 11
11.26
 21
-5.3778717108
 31
0.0
  0
SPLINE
  5
ED
330
1F
100
AcDbEntity
  8
SK1
  6
Continuous
100
AcDbSpline
210
0.0
220
0.0
230
1.0
 70
     8
 71
     3
 72
    35
 73
    31
 74
     0
 42
0.0000000105687091
 43
0.0000000001
 12
1.0
 22
0.0
 32
0.0
 13
1.0
 23
0.0
 33
0.0
 40
0.0
 40
0.0
 40
0.0
 40
0.0
 40
0.1134251203605403
 40
0.1134251203605403
 40
0.1134251203605403
 40
0.227044895607639
 40
0.227044895607639
 40
0.227044895607639
 40
0.3375525299924254
 40
0.3375525299924254
 40
0.3375525299924254
 40
0.4436123154059774
 40
0.4436123154059774
 40
0.4436123154059774
 40
0.5001943358043479
 40
0.5001943358043479
 40
0.5001943358043479
 40
0.6025718788280409
 40
0.6025718788280409
 40
0.6025718788280409
 40
0.7048622826146739
 40
0.7048622826146739
 40
0.7048622826146739
 40
0.8085177663571457
 40
0.8085177663571457
 40
0.8085177663571457
 40
0.9156387561634821
 40
0.9156387561634821
 40
0.9156387561634821
 40
1.0
 40
1.0
 40
1.0
 40
1.0
 10
-16.92641027504484
 20
-9.496188754151492
 30
0.0
 10
-16.97418338792759
 20
-9.489980909075053
 30
0.0
 10
-17.02266979657087
 20
-9.480865285319597
 30
0.0
 10
-17.06786828878671
 20
-9.469471953437422
 30
0.0
 10
-17.11311117396343
 20
-9.458067431276284
 30
0.0
 10
-17.15633486494086
 20
-9.444041480486622
 30
0.0
 10
-17.19357317105912
 20
-9.428407401164284
 30
0.0
 10
-17.22979207083587
 20
-9.413201308000998
 30
0.0
 10
-17.26138521019838
 20
-9.396017979255655
 30
0.0
 10
-17.28527580782684
 20
-9.37820851751563
 30
0.0
 10
-17.30821952727532
 20
-9.361104914665411
 30
0.0
 10
-17.32471136232711
 20
-9.342924537670706
 30
0.0
 10
-17.33314397584146
 20
-9.325170882298139
 30
0.0
 10
-17.33769177696157
 20
-9.315596140890628
 30
0.0
 10
-17.34
 20
-9.306028854661726
 30
0.0
 10
-17.34
 20
-9.296719388777623
 30
0.0
 10
-17.34
 20
-9.280042840419792
 30
0.0
 10
-17.33244045748357
 20
-9.26384198306019
 30
0.0
 10
-17.31802614799303
 20
-9.249500265920684
 30
0.0
 10
-17.30361865999356
 20
-9.235165335918316
 30
0.0
 10
-17.28198757287048
 20
-9.222300123647562
 30
0.0
 10
-17.25505043752
 20
-9.211988441546614
 30
0.0
 10
-17.22774723689759
 20
-9.20153662766613
 30
0.0
 10
-17.19428968317309
 20
-9.193431341179274
 30
0.0
 10
-17.15746020563424
 20
-9.188323297914888
 30
0.0
 10
-17.11940649113452
 20
-9.183045459807348
 30
0.0
 10
-17.07676917987023
 20
-9.18082690169841
 30
0.0
 10
-17.03293478755093
 20
-9.181819762747484
 30
0.0
 10
-16.99823368926004
 20
-9.182605752173371
 30
0.0
 10
-16.96217039816761
 20
-9.185395183071174
 30
0.0
 10
-16.92641027504489
 20
-9.190042008259416
 30
0.0
  0
SPLINE
  5
EE
330
1F
100
AcDbEntity
  8
SK3
100
AcDbSpline
210
0.0
220
0.0
230
1.0
 70
     8
 71
     3
 72
    35
 73
    31
 74
     0
 42
0.000000010894728
 43
0.0000000001
 12
1.0
 22
0.0
 32
0.0
 13
1.0
 23
0.0
 33
0.0
 40
0.0
 40
0.0
 40
0.0
 40
0.0
 40
0.1076383050139693
 40
0.1076383050139693
 40
0.1076383050139693
 40
0.2153008072611028
 40
0.2153008072611028
 40
0.2153008072611028
 40
0.3226362560630276
 40
0.3226362560630276
 40
0.3226362560630276
 40
0.4298595972375786
 40
0.4298595972375786
 40
0.4298595972375786
 40
0.500005166730031
 40
0.500005166730031
 40
0.500005166730031
 40
0.6072802055642822
 40
0.6072802055642822
 40
0.6072802055642822
 40
0.7145569272974179
 40
0.7145569272974179
 40
0.7145569272974179
 40
0.8218046911877697
 40
0.8218046911877697
 40
0.8218046911877697
 40
0.9290289983391657
 40
0.9290289983391657
 40
0.9290289983391657
 40
1.0
 40
1.0
 40
1.0
 40
1.0
 10
-17.46614125497118
 20
-5.377871710750149
 30
0.0
 10
-17.51103645379188
 20
-5.377871710750149
 30
0.0
 10
-17.55655294411594
 20
-5.381306751961644
 30
0.0
 10
-17.59892363831318
 20
-5.387838250637746
 30
0.0
 10
-17.64130026679549
 20
-5.394370664091754
 30
0.0
 10
-17.68169771229811
 20
-5.404175566067907
 30
0.0
 10
-17.71674414672452
 20
-5.416252483810662
 30
0.0
 10
-17.75168654667095
 20
-5.428293551519658
 30
0.0
 10
-17.78227562749818
 20
-5.442914476703784
 30
0.0
 10
-17.80598050736176
 20
-5.458678496487942
 30
0.0
 10
-17.82966149921994
 20
-5.474426630471702
 30
0.0
 10
-17.8471271917057
 20
-5.491739775438234
 30
0.0
 10
-17.85694393800446
 20
-5.509026241226931
 30
0.0
 10
-17.8634184318164
 20
-5.520427281079957
 30
0.0
 10
-17.8667150464368
 20
-5.531989386018227
 30
0.0
 10
-17.8667150464368
 20
-5.543277195067727
 30
0.0
 10
-17.8667150464368
 20
-5.560400067211066
 30
0.0
 10
-17.85900912400439
 20
-5.577271298382631
 30
0.0
 10
-17.84422890203613
 20
-5.592568550335445
 30
0.0
 10
-17.82944855104119
 20
-5.607865935828441
 30
0.0
 10
-17.80718470103235
 20
-5.622017969972045
 30
0.0
 10
-17.77927000026981
 20
-5.634043803887405
 30
0.0
 10
-17.75136272475124
 20
-5.646066438959565
 30
0.0
 10
-17.71703680535877
 20
-5.65630594580971
 30
0.0
 10
-17.67913306982444
 20
-5.664142341121151
 30
0.0
 10
-17.64123608575177
 20
-5.671977340603871
 30
0.0
 10
-17.59872138799561
 20
-5.677635688920231
 30
0.0
 10
-17.55510556001013
 20
-5.680820852331268
 30
0.0
 10
-17.52600536421561
 20
-5.682945972572702
 30
0.0
 10
-17.49598131094942
 20
-5.684018456642221
 30
0.0
 10
-17.46614125497118
 20
-5.684018456642221
 30
0.0
  0
SPLINE
  5
EF
330
1F
100
AcDbEntity
  8
SK1
  6
Continuous
100
AcDbSpline
210
0.0
220
0.0
230
1.0
 70
     8
 71
     3
 72
    20
 73
    16
 74
     0
 42
0.0000000249810842
 43
0.0000000001
 12
1.0
 22
0.0
 32
0.0
 13
1.0
 23
0.0
 33
0.0
 40
0.0
 40
0.0
 40
0.0
 40
0.0
 40
0.2147965349947689
 40
0.2147965349947689
 40
0.2147965349947689
 40
0.4295936061663822
 40
0.4295936061663822
 40
0.4295936061663822
 40
0.6443815563131251
 40
0.6443815563131251
 40
0.6443815563131251
 40
0.859186371085941
 40
0.859186371085941
 40
0.859186371085941
 40
1.0
 40
1.0
 40
1.0
 40
1.0
 10
-3.339999999999959
 20
12.03026824055348
 30
0.0
 10
-3.339999999999959
 20
12.03026824055348
 30
0.0
 10
-3.347611532466502
 20
12.0289350554236
 30
0.0
 10
-3.362211311005149
 20
12.02641819902513
 30
0.0
 10
-3.376811110372893
 20
12.02390133903592
 30
0.0
 10
-3.398802687503852
 20
12.02013487285227
 30
0.0
 10
-3.426381423985204
 20
12.0155314356308
 30
0.0
 10
-3.453959068452825
 20
12.01092818068804
 30
0.0
 10
-3.487884880964145
 20
12.00536663551151
 30
0.0
 10
-3.52536638434087
 20
11.99942631279396
 30
0.0
 10
-3.562851255052239
 20
11.99348545639838
 30
0.0
 10
-3.604925578052367
 20
11.98700732767445
 30
0.0
 10
-3.648119116986674
 20
11.98061297070364
 30
0.0
 10
-3.676664504534475
 20
11.97638712113553
 30
0.0
 10
-3.706120119277522
 20
11.97213309363531
 30
0.0
 10
-3.735413044452089
 20
11.9680139427404
 30
0.0
  0
ARC
  5
F0
330
1F
100
AcDbEntity
  8
SK3
100
AcDbCircle
 10
-2.8601936989
 20
11.9948516647
 30
0.0
 40
6.00819985337768
100
AcDbArc
 50
269.9971377867
 51
273.7541196367
  0
LINE
  5
F1
330
1F
100
AcDbEntity
  8
SK3
100
AcDbLine
 10
-2.8604938388
 20
5.9866518188
 30
0.0
 11
-21.4141669751
 21
5.9866518188
 31
0.0
  0
SPLINE
  5
F2
330
1F
100
AcDbEntity
  8
SK3
100
AcDbSpline
210
0.0
220
0.0
230
1.0
 70
     8
 71
     3
 72
    11
 73
     7
 74
     0
 42
0.0000003114663997
 43
0.0000000001
 12
1.0
 22
0.0
 32
0.0
 13
1.0
 23
0.0
 33
0.0
 40
0.0
 40
0.0
 40
0.0
 40
0.0
 40
0.3817429116726703
 40
0.3817429116726703
 40
0.3817429116726703
 40
0.9999999999999999
 40
0.9999999999999999
 40
0.9999999999999999
 40
0.9999999999999999
 10
-17.32680780842886
 20
9.3363560198265
 30
0.0
 10
-17.32926280361032
 20
9.332618141634086
 30
0.0
 10
-17.33137976566935
 20
9.328885173169763
 30
0.0
 10
-17.33314397584146
 20
9.325170882298144
 30
0.0
 10
-17.33603239359529
 20
9.319089733993854
 30
0.0
 10
-17.33801740468186
 20
9.313011592978356
 30
0.0
 10
-17.33908142240505
 20
9.307000602290135
 30
0.0
  0
LINE
  5
F3
330
1F
100
AcDbEntity
  8
SK1
  6
Continuous
100
AcDbLine
 10
-3.7354130445
 20
-11.9680139427
 30
0.0
 11
-22.0817519303
 21
-9.3877689182
 31
0.0
  0
ARC
  5
F4
330
1F
100
AcDbEntity
  8
SK3
100
AcDbCircle
 10
-2.8601936989
 20
-11.9948516647
 30
0.0
 40
6.008199853378591
100
AcDbArc
 50
86.1800555224
 51
90.0028622133
  0
SPLINE
  5
F5
330
1F
100
AcDbEntity
  8
SK1
  6
Continuous
100
AcDbSpline
210
0.0
220
0.0
230
1.0
 70
     8
 71
     3
 72
    20
 73
    16
 74
     0
 42
0.0000000249810691
 43
0.0000000001
 12
1.0
 22
0.0
 32
0.0
 13
1.0
 23
0.0
 33
0.0
 40
0.0
 40
0.0
 40
0.0
 40
0.0
 40
0.2150904251251419
 40
0.2150904251251419
 40
0.2150904251251419
 40
0.4301959436330677
 40
0.4301959436330677
 40
0.4301959436330677
 40
0.6450939327074686
 40
0.6450939327074686
 40
0.6450939327074686
 40
0.859886648196312
 40
0.859886648196312
 40
0.859886648196312
 40
1.0
 40
1.0
 40
1.0
 40
1.0
 10
-3.735413044452084
 20
-11.9680139427404
 30
0.0
 10
-3.691029899622515
 20
-11.97425506989497
 30
0.0
 10
-3.646070591160164
 20
-11.98084201834442
 30
0.0
 10
-3.604251747311365
 20
-11.98718892809335
 30
0.0
 10
-3.562431094453561
 20
-11.99353611239833
 30
0.0
 10
-3.522597455293366
 20
-11.99981462838287
 30
0.0
 10
-3.488043905251073
 20
-12.00540075095954
 30
0.0
 10
-3.453523039496956
 20
-12.0109815896091
 30
0.0
 10
-3.423318615637249
 20
-12.01601973808532
 30
0.0
 10
-3.399916600976032
 20
-12.01997878666216
 30
0.0
 10
-3.376525725949495
 20
-12.02393595068523
 30
0.0
 10
-3.359284309190146
 20
-12.02691915660881
 30
0.0
 10
-3.349605836744436
 20
-12.02859803143456
 30
0.0
 10
-3.343240640716413
 20
-12.02970216924476
 30
0.0
 10
-3.339999999999961
 20
-12.03026824055349
 30
0.0
 10
-3.339999999999961
 20
-12.03026824055349
 30
0.0
  0
LINE
  5
F6
330
1F
100
AcDbEntity
  8
SK3
100
AcDbLine
 10
-17.466141255
 20
-5.6840184566
 30
0.0
 11
11.26
 21
-5.6840184566
 31
0.0
  0
ELLIPSE
  5
F7
330
1F
100
AcDbEntity
  8
SK1
  6
Continuous
100
AcDbEllipse
 10
44.3446183259
 20
-0.153073373
 30
0.0
 11
-62.09999999967749
 21
6.281939819917042E-10
 31
0.0
210
0.0
220
0.0
230
1.0
 40
0.9238795325
 41
0.1581102711801124
 42
0.1635773896144312
  0
SPLINE
  5
F8
330
1F
100
AcDbEntity
  8
SK3
100
AcDbSpline
210
0.0
220
0.0
230
1.0
 70
     8
 71
     3
 72
     8
 73
     4
 74
     0
 42
0.0000009719479159
 43
0.0000000001
 12
1.0
 22
0.0
 32
0.0
 13
1.0
 23
0.0
 33
0.0
 40
0.0
 40
0.0
 40
0.0
 40
0.0
 40
1.0
 40
1.0
 40
1.0
 40
1.0
 10
-17.33999999999999
 20
-9.296719388777623
 30
0.0
 10
-17.33999999999999
 20
-9.300091919283332
 30
0.0
 10
-17.33969083170348
 20
-9.303502701556436
 30
0.0
 10
-17.33907832419001
 20
-9.306939874209208
 30
0.0
  0
SPLINE
  5
F9
330
1F
100
AcDbEntity
  8
SK3
100
AcDbSpline
210
0.0
220
0.0
230
1.0
 70
     8
 71
     3
 72
    11
 73
     7
 74
     0
 42
0.000000255324476
 43
0.0000000001
 12
1.0
 22
0.0
 32
0.0
 13
1.0
 23
0.0
 33
0.0
 40
0.0
 40
0.0
 40
0.0
 40
0.0
 40
0.2426291147138727
 40
0.2426291147138727
 40
0.2426291147138727
 40
1.0
 40
1.0
 40
1.0
 40
1.0
 10
-17.85120055193986
 20
-5.584572848571732
 30
0.0
 10
-17.85333687377062
 20
-5.581857020121769
 30
0.0
 10
-17.85525377474938
 20
-5.579109904875512
 30
0.0
 10
-17.85694393800446
 20
-5.576337129721118
 30
0.0
 10
-17.86226283636643
 20
-5.567611280793535
 30
0.0
 10
-17.86543702201546
 20
-5.558528528223857
 30
0.0
 10
-17.86640066433242
 20
-5.54930593430417
 30
0.0
  0
LINE
  5
FA
330
1F
100
AcDbEntity
  8
SK3
100
AcDbLine
 10
-2.8604938388
 20
4.5160448102
 30
0.0
 11
-21.4141669751
 21
4.5160448102
 31
0.0
  0
ELLIPSE
  5
FB
330
1F
100
AcDbEntity
  8
SK1
  6
Continuous
100
AcDbEllipse
 10
-64.6712534123
 20
0.2828427133
 30
0.0
 11
62.0999999923574
 21
-1.556468275804820E-9
 31
0.0
210
0.0
220
0.0
230
1.0
 40
0.7071067812
 41
0.1816956918857164
 42
0.1939350327282256
  0
SPLINE
  5
FC
330
1F
100
AcDbEntity
  8
SK1
  6
Continuous
100
AcDbSpline
210
0.0
220
0.0
230
1.0
 70
     8
 71
     3
 72
    35
 73
    31
 74
     0
 42
0.0000000092527961
 43
0.0000000001
 12
1.0
 22
0.0
 32
0.0
 13
1.0
 23
0.0
 33
0.0
 40
0.0
 40
0.0
 40
0.0
 40
0.0
 40
0.1075456917067826
 40
0.1075456917067826
 40
0.1075456917067826
 40
0.2150989301385789
 40
0.2150989301385789
 40
0.2150989301385789
 40
0.3225484033913153
 40
0.3225484033913153
 40
0.3225484033913153
 40
0.4299452396167517
 40
0.4299452396167517
 40
0.4299452396167517
 40
0.5000022276408198
 40
0.5000022276408198
 40
0.5000022276408198
 40
0.6074000166486743
 40
0.6074000166486743
 40
0.6074000166486743
 40
0.7147980737437565
 40
0.7147980737437565
 40
0.7147980737437565
 40
0.8221915703467256
 40
0.8221915703467256
 40
0.8221915703467256
 40
0.929593499225159
 40
0.929593499225159
 40
0.929593499225159
 40
1.0
 40
1.0
 40
1.0
 40
1.0
 10
-3.735413044452095
 20
8.745506528721501
 30
0.0
 10
-3.691029899622524
 20
8.74991967205474
 30
0.0
 10
-3.646070591160172
 20
8.74911547477901
 30
0.0
 10
-3.604251747311372
 20
8.743122095053874
 30
0.0
 10
-3.562431094453566
 20
8.73712845606576
 30
0.0
 10
-3.522597455293371
 20
8.725776312986289
 30
0.0
 10
-3.488043905251077
 20
8.709929373802915
 30
0.0
 10
-3.453523039496956
 20
8.69409742427838
 30
0.0
 10
-3.423318615637247
 20
8.673338408662266
 30
0.0
 10
-3.399916600976029
 20
8.649287721972652
 30
0.0
 10
-3.376525725949493
 20
8.625248483693246
 30
0.0
 10
-3.359284309190148
 20
8.597254206912746
 30
0.0
 10
-3.349605836744438
 20
8.567564253906916
 30
0.0
 10
-3.343240640716413
 20
8.548038200389172
 30
0.0
 10
-3.339999999999961
 20
8.527498512373578
 30
0.0
 10
-3.339999999999961
 20
8.506684252388524
 30
0.0
 10
-3.339999999999961
 20
8.475035246459404
 30
0.0
 10
-3.347611532466502
 20
8.442007071297219
 30
0.0
 10
-3.362211311005149
 20
8.41036243024813
 30
0.0
 10
-3.376811110372893
 20
8.37871774405251
 30
0.0
 10
-3.398802687503852
 20
8.347586304041728
 30
0.0
 10
-3.426381423985204
 20
8.31961735497484
 30
0.0
 10
-3.453959068452825
 20
8.291649513372626
 30
0.0
 10
-3.487884880964145
 20
8.266076744228211
 30
0.0
 10
-3.525366384340872
 20
8.245098106164578
 30
0.0
 10
-3.56285125505224
 20
8.224117583382128
 30
0.0
 10
-3.604925578052368
 20
8.207157451485303
 30
0.0
 10
-3.648119116986676
 20
8.195673323691148
 30
0.0
 10
-3.676664504534476
 20
8.188083788621302
 30
0.0
 10
-3.706120119277524
 20
8.182733783302783
 30
0.0
 10
-3.735413044452091
 20
8.179821103772264
 30
0.0
  0
SPLINE
  5
FD
330
1F
100
AcDbEntity
  8
SK3
100
AcDbSpline
210
0.0
220
0.0
230
1.0
 70
     8
 71
     3
 72
    35
 73
    31
 74
     0
 42
0.0000000092039453
 43
0.0000000001
 12
1.0
 22
0.0
 32
0.0
 13
1.0
 23
0.0
 33
0.0
 40
0.0
 40
0.0
 40
0.0
 40
0.0
 40
0.1076383050139706
 40
0.1076383050139706
 40
0.1076383050139706
 40
0.2153008072611012
 40
0.2153008072611012
 40
0.2153008072611012
 40
0.3226362560630271
 40
0.3226362560630271
 40
0.3226362560630271
 40
0.4298595972375784
 40
0.4298595972375784
 40
0.4298595972375784
 40
0.5000051667300324
 40
0.5000051667300324
 40
0.5000051667300324
 40
0.6072802055642833
 40
0.6072802055642833
 40
0.6072802055642833
 40
0.7145569272974204
 40
0.7145569272974204
 40
0.7145569272974204
 40
0.8218046911877696
 40
0.8218046911877696
 40
0.8218046911877696
 40
0.929028998339164
 40
0.929028998339164
 40
0.929028998339164
 40
1.0
 40
1.0
 40
1.0
 40
1.0
 10
-2.860493838775003
 20
3.950359385228726
 30
0.0
 10
-2.815598639954295
 20
3.950359385228726
 30
0.0
 10
-2.770082149630239
 20
3.956178513802861
 30
0.0
 10
-2.727711455432992
 20
3.967313338339202
 30
0.0
 10
-2.685334826950689
 20
3.978449722378501
 30
0.0
 10
-2.644937381448075
 20
3.995208345334691
 30
0.0
 10
-2.609890947021661
 20
4.016062582190489
 30
0.0
 10
-2.574948547075234
 20
4.036854913756282
 30
0.0
 10
-2.544359466248005
 20
4.062283782163601
 30
0.0
 10
-2.520654586384416
 20
4.090069900969228
 30
0.0
 10
-2.49697359452624
 20
4.117828019002006
 30
0.0
 10
-2.47950790204048
 20
4.148696076195552
 30
0.0
 10
-2.469691155741721
 20
4.179997751613707
 30
0.0
 10
-2.463216661929783
 20
4.200642321375458
 30
0.0
 10
-2.459920047309383
 20
4.221783535623828
 30
0.0
 10
-2.459920047309383
 20
4.242640687119286
 30
0.0
 10
-2.459920047309383
 20
4.274279629341367
 30
0.0
 10
-2.467625969741788
 20
4.305981574039006
 30
0.0
 10
-2.48240619171005
 20
4.335178634082356
 30
0.0
 10
-2.497186542704989
 20
4.364375949006831
 30
0.0
 10
-2.519450392713828
 20
4.391878805585098
 30
0.0
 10
-2.547365093476365
 20
4.415555173190214
 30
0.0
 10
-2.57527236899494
 20
4.439225242937899
 30
0.0
 10
-2.609598288387406
 20
4.459731261782772
 30
0.0
 10
-2.647502023921743
 20
4.475553099823608
 30
0.0
 10
-2.685399007994409
 20
4.49137211965849
 30
0.0
 10
-2.727913705750571
 20
4.502951761618305
 30
0.0
 10
-2.771529533736045
 20
4.509480619599453
 30
0.0
 10
-2.800629729530565
 20
4.513836631037074
 30
0.0
 10
-2.830653782796764
 20
4.516044810177965
 30
0.0
 10
-2.860493838775003
 20
4.516044810177965
 30
0.0
  0
LINE
  5
FE
330
1F
100
AcDbEntity
  8
SK3
100
AcDbLine
 10
-2.8604938388
 20
3.9503593852
 30
0.0
 11
-21.4141669751
 21
3.9503593852
 31
0.0
  0
SPLINE
  5
FF
330
1F
100
AcDbEntity
  8
SK1
  6
Continuous
100
AcDbSpline
210
0.0
220
0.0
230
1.0
 70
     8
 71
     3
 72
    14
 73
    10
 74
     0
 42
0.0000000004922722
 43
0.0000000001
 12
1.0
 22
0.0
 32
0.0
 13
1.0
 23
0.0
 33
0.0
 40
0.0
 40
0.0
 40
0.0
 40
0.0
 40
0.0674978826419864
 40
0.0674978826419864
 40
0.0674978826419864
 40
0.9574517239467035
 40
0.9574517239467035
 40
0.9574517239467035
 40
1.0
 40
1.0
 40
1.0
 40
1.0
 10
-16.92641027504489
 20
9.496188754151484
 30
0.0
 10
-16.47317118278356
 20
9.555084603670458
 30
0.0
 10
-16.01993196070587
 20
9.613979600482232
 30
0.0
 10
-15.56669261591317
 20
9.67287379119773
 30
0.0
 10
-9.59077040826888
 20
10.44938868612363
 30
0.0
 10
-3.614827684382489
 20
11.22576881612326
 30
0.0
 10
2.361125440140419
 20
12.00208059726193
 30
0.0
 10
2.646832958275162
 20
12.03919569968429
 30
0.0
 10
2.932540501699046
 20
12.07631063594346
 30
0.0
 10
3.218248069711967
 20
12.11342541063727
 30
0.0
  0
ELLIPSE
  5
100
330
1F
100
AcDbEntity
  8
SK1
  6
Continuous
100
AcDbEllipse
 10
44.3446183271
 20
0.1530733728
 30
0.0
 11
-62.10000000093086
 21
1.192875470510110E-9
 31
0.0
210
0.0
220
0.0
230
1.0
 40
0.9238795325
 41
-0.1635773895856998
 42
-0.1581362635176289
  0
SPLINE
  5
101
330
1F
100
AcDbEntity
  8
SK3
100
AcDbSpline
210
0.0
220
0.0
230
1.0
 70
     8
 71
     3
 72
    35
 73
    31
 74
     0
 42
0.0000000108956318
 43
0.0000000001
 12
1.0
 22
0.0
 32
0.0
 13
1.0
 23
0.0
 33
0.0
 40
0.0
 40
0.0
 40
0.0
 40
0.0
 40
0.1076383050139715
 40
0.1076383050139715
 40
0.1076383050139715
 40
0.2153008072611025
 40
0.2153008072611025
 40
0.2153008072611025
 40
0.3226362560630312
 40
0.3226362560630312
 40
0.3226362560630312
 40
0.4298595972375789
 40
0.4298595972375789
 40
0.4298595972375789
 40
0.5000051667300304
 40
0.5000051667300304
 40
0.5000051667300304
 40
0.6072802055642831
 40
0.6072802055642831
 40
0.6072802055642831
 40
0.7145569272974203
 40
0.7145569272974203
 40
0.7145569272974203
 40
0.8218046911877721
 40
0.8218046911877721
 40
0.8218046911877721
 40
0.9290289983391629
 40
0.9290289983391629
 40
0.9290289983391629
 40
1.0
 40
1.0
 40
1.0
 40
1.0
 10
-17.46614125497118
 20
5.684018456642218
 30
0.0
 10
-17.51103645379189
 20
5.684018456642219
 30
0.0
 10
-17.55655294411594
 20
5.681559032148931
 30
0.0
 10
-17.59892363831319
 20
5.676752991860933
 30
0.0
 10
-17.64130026679549
 20
5.671946278456446
 30
0.0
 10
-17.68169771229811
 20
5.664651508300415
 30
0.0
 10
-17.71674414672452
 20
5.655274161712208
 30
0.0
 10
-17.75168654667095
 20
5.645924651547075
 30
0.0
 10
-17.78227562749818
 20
5.634236265308136
 30
0.0
 10
-17.80598050736177
 20
5.620951922763675
 30
0.0
 10
-17.82966149921994
 20
5.607680967186307
 30
0.0
 10
-17.8471271917057
 20
5.592441864072829
 30
0.0
 10
-17.85694393800446
 20
5.576337129721114
 30
0.0
 10
-17.8634184318164
 20
5.565715483838683
 30
0.0
 10
-17.8667150464368
 20
5.554565004117223
 30
0.0
 10
-17.8667150464368
 20
5.543277195067724
 30
0.0
 10
-17.8667150464368
 20
5.526154322924383
 30
0.0
 10
-17.85900912400439
 20
5.508307522338796
 30
0.0
 10
-17.84422890203613
 20
5.491289223103206
 30
0.0
 10
-17.82944855104119
 20
5.474270775303231
 30
0.0
 10
-17.80718470103236
 20
5.457618155511381
 30
0.0
 10
-17.77927000026981
 20
5.442902863979532
 30
0.0
 10
-17.75136272475124
 20
5.428191486680202
 30
0.0
 10
-17.71703680535877
 20
5.415021660781689
 30
0.0
 10
-17.67913306982443
 20
5.40470544795741
 30
0.0
 10
-17.64123608575177
 20
5.394391072670106
 30
0.0
 10
-17.59872138799561
 20
5.386655145515126
 30
0.0
 10
-17.55510556001014
 20
5.382281053701518
 30
0.0
 10
-17.52600536421562
 20
5.37936268818885
 30
0.0
 10
-17.49598131094942
 20
5.377871710750146
 30
0.0
 10
-17.46614125497118
 20
5.377871710750146
 30
0.0
  0
SPLINE
  5
102
330
1F
100
AcDbEntity
  8
SK1
  6
Continuous
100
AcDbSpline
210
0.0
220
0.0
230
1.0
 70
     8
 71
     3
 72
    35
 73
    31
 74
     0
 42
0.0000000105690596
 43
0.0000000001
 12
1.0
 22
0.0
 32
0.0
 13
1.0
 23
0.0
 33
0.0
 40
0.0
 40
0.0
 40
0.0
 40
0.0
 40
0.1134251203605257
 40
0.1134251203605257
 40
0.1134251203605257
 40
0.2270448956076044
 40
0.2270448956076044
 40
0.2270448956076044
 40
0.3375525299923959
 40
0.3375525299923959
 40
0.3375525299923959
 40
0.4436123154059448
 40
0.4436123154059448
 40
0.4436123154059448
 40
0.5001943358043293
 40
0.5001943358043293
 40
0.5001943358043293
 40
0.6025718788280229
 40
0.6025718788280229
 40
0.6025718788280229
 40
0.704862282614656
 40
0.704862282614656
 40
0.704862282614656
 40
0.8085177663571345
 40
0.8085177663571345
 40
0.8085177663571345
 40
0.9156387561634705
 40
0.9156387561634705
 40
0.9156387561634705
 40
1.0
 40
1.0
 40
1.0
 40
1.0
 10
-16.92641027504489
 20
9.190042008259411
 30
0.0
 10
-16.97418338792761
 20
9.183834163182862
 30
0.0
 10
-17.0226697965709
 20
9.180961912626294
 30
0.0
 10
-17.06786828878673
 20
9.181700720037565
 30
0.0
 10
-17.11311117396344
 20
9.182440253089158
 30
0.0
 10
-17.15633486494086
 20
9.186831221807697
 30
0.0
 10
-17.19357317105911
 20
9.194496272510616
 30
0.0
 10
-17.22979207083586
 20
9.201951490863223
 30
0.0
 10
-17.26138521019838
 20
9.212724232859495
 30
0.0
 10
-17.28527580782684
 20
9.225803265377424
 30
0.0
 10
-17.30821952727531
 20
9.238363924487576
 30
0.0
 10
-17.3247113623271
 20
9.253408914288904
 30
0.0
 10
-17.33314397584146
 20
9.269563701463003
 30
0.0
 10
-17.33769177696157
 20
9.27827615568381
 30
0.0
 10
-17.33999999999999
 20
9.287409922893517
 30
0.0
 10
-17.33999999999999
 20
9.29671938877762
 30
0.0
 10
-17.33999999999999
 20
9.31339593713545
 30
0.0
 10
-17.33244045748356
 20
9.331007787932844
 30
0.0
 10
-17.31802614799303
 20
9.34812081835816
 30
0.0
 10
-17.30361865999355
 20
9.365225750137885
 30
0.0
 10
-17.28198757287048
 20
9.38230026965594
 30
0.0
 10
-17.25505043752
 20
9.398088000745405
 30
0.0
 10
-17.22774723689759
 20
9.414090281006457
 30
0.0
 10
-17.19428968317309
 20
9.429201427064086
 30
0.0
 10
-17.15746020563424
 20
9.44242177841935
 30
0.0
 10
-17.11940649113452
 20
9.456081583273448
 30
0.0
 10
-17.07676917987023
 20
9.468089556313975
 30
0.0
 10
-17.03293478755093
 20
9.4776924704366
 30
0.0
 10
-16.99823368926004
 20
9.485294530125731
 30
0.0
 10
-16.96217039816761
 20
9.49154192896324
 30
0.0
 10
-16.92641027504489
 20
9.496188754151484
 30
0.0
  0
SPLINE
  5
103
330
1F
100
AcDbEntity
  8
SK1
  6
Continuous
100
AcDbSpline
210
0.0
220
0.0
230
1.0
 70
     8
 71
     3
 72
    14
 73
    10
 74
     0
 42
0.0000000004922722
 43
0.0000000001
 12
1.0
 22
0.0
 32
0.0
 13
1.0
 23
0.0
 33
0.0
 40
0.0
 40
0.0
 40
0.0
 40
0.0
 40
0.0674978826419864
 40
0.0674978826419864
 40
0.0674978826419864
 40
0.9574517239467035
 40
0.9574517239467035
 40
0.9574517239467035
 40
1.0
 40
1.0
 40
1.0
 40
1.0
 10
-16.92641027504489
 20
9.190042008259411
 30
0.0
 10
-16.47317118278356
 20
9.248937857778389
 30
0.0
 10
-16.01993196070587
 20
9.307832854590163
 30
0.0
 10
-15.56669261591317
 20
9.36672704530566
 30
0.0
 10
-9.59077040826888
 20
10.14324194023156
 30
0.0
 10
-3.614827684382489
 20
10.91962207023119
 30
0.0
 10
2.361125440140419
 20
11.69593385136985
 30
0.0
 10
2.646832958275162
 20
11.73304895379222
 30
0.0
 10
2.932540501699046
 20
11.77016389005138
 30
0.0
 10
3.218248069711967
 20
11.8072786647452
 30
0.0
  0
LINE
  5
104
330
1F
100
AcDbEntity
  8
SK3
100
AcDbLine
 10
-2.8604938388
 20
0.4
 30
0.0
 11
-3.7354130445
 21
0.4
 31
0.0
  0
ARC
  5
105
330
1F
100
AcDbEntity
  8
SK1
  6
Continuous
100
AcDbCircle
 10
-3.7399950541
 20
0.0
 30
0.0
 40
0.4000262426542517
100
AcDbArc
 50
270.6562958262
 51
89.3437041738
  0
ARC
  5
106
330
1F
100
AcDbEntity
  8
SK3
100
AcDbCircle
 10
-2.8598644544
 20
0.0
 30
0.0
 40
0.4000004951555813
100
AcDbArc
 50
269.9098474013
 51
90.0901525987
  0
LINE
  5
107
330
1F
100
AcDbEntity
  8
SK3
100
AcDbLine
 10
-3.7354130445
 20
-0.4
 30
0.0
 11
-2.8604938388
 21
-0.4
 31
0.0
  0
LINE
  5
108
330
1F
100
AcDbEntity
  8
SK1
  6
Continuous
100
AcDbLine
 10
-16.926410275
 20
4.2395969187
 30
0.0
 11
3.2182480697
 21
5.3236918378
 31
0.0
  0
ELLIPSE
  5
109
330
1F
100
AcDbEntity
  8
SK1
  6
Continuous
100
AcDbEllipse
 10
44.3446183062
 20
0.369551814
 30
0.0
 11
-62.09999997998501
 21
-1.171496510874848E-9
 31
0.0
210
0.0
220
0.0
230
1.0
 40
0.3826834324
 41
-0.1635773896382355
 42
-0.1350059767159788
  0
SPLINE
  5
10A
330
1F
100
AcDbEntity
  8
SK3
100
AcDbSpline
210
0.0
220
0.0
230
1.0
 70
     8
 71
     3
 72
    35
 73
    31
 74
     0
 42
0.0000000082256091
 43
0.0000000001
 12
1.0
 22
0.0
 32
0.0
 13
1.0
 23
0.0
 33
0.0
 40
0.0
 40
0.0
 40
0.0
 40
0.0
 40
0.1076383050139693
 40
0.1076383050139693
 40
0.1076383050139693
 40
0.2153008072611023
 40
0.2153008072611023
 40
0.2153008072611023
 40
0.3226362560630276
 40
0.3226362560630276
 40
0.3226362560630276
 40
0.4298595972375781
 40
0.4298595972375781
 40
0.4298595972375781
 40
0.500005166730032
 40
0.500005166730032
 40
0.500005166730032
 40
0.6072802055642833
 40
0.6072802055642833
 40
0.6072802055642833
 40
0.7145569272974213
 40
0.7145569272974213
 40
0.7145569272974213
 40
0.8218046911877764
 40
0.8218046911877764
 40
0.8218046911877764
 40
0.9290289983391659
 40
0.9290289983391659
 40
0.9290289983391659
 40
1.0
 40
1.0
 40
1.0
 40
1.0
 10
-17.46614125497118
 20
2.660544279412265
 30
0.0
 10
-17.51103645379188
 20
2.660544279412264
 30
0.0
 10
-17.55655294411594
 20
2.653631086726729
 30
0.0
 10
-17.59892363831318
 20
2.640302820694033
 30
0.0
 10
-17.64130026679549
 20
2.626972687952957
 30
0.0
 10
-17.68169771229811
 20
2.606851423087751
 30
0.0
 10
-17.71674414672452
 20
2.58151293462088
 30
0.0
 10
-17.75168654667095
 20
2.556249662834806
 30
0.0
 10
-17.78227562749818
 20
2.52509886330932
 30
0.0
 10
-17.80598050736176
 20
2.490547946131577
 30
0.0
 10
-17.82966149921994
 20
2.456031846784652
 30
0.0
 10
-17.8471271917057
 20
2.417167355516638
 30
0.0
 10
-17.85694393800446
 20
2.377105355989329
 30
0.0
 10
-17.8634184318164
 20
2.350683040474641
 30
0.0
 10
-17.8667150464368
 20
2.323351775887318
 30
0.0
 10
-17.8667150464368
 20
2.296100594190538
 30
0.0
 10
-17.8667150464368
 20
2.254762324035304
 30
0.0
 10
-17.85900912400439
 20
2.212651905430636
 30
0.0
 10
-17.84422890203613
 20
2.173287143890327
 30
0.0
 10
-17.82944855104119
 20
2.133922038708067
 30
0.0
 10
-17.80718470103235
 20
2.096219643805787
 30
0.0
 10
-17.77927000026981
 20
2.06338324503181
 30
0.0
 10
-17.75136272475124
 20
2.030555580661751
 30
0.0
 10
-17.71703680535877
 20
2.00169112741184
 30
0.0
 10
-17.67913306982443
 20
1.979265404011978
 30
0.0
 10
-17.64123608575176
 20
1.956843675110546
 30
0.0
 10
-17.59872138799561
 20
1.940245073694081
 30
0.0
 10
-17.55510556001013
 20
1.930874010317173
 30
0.0
 10
-17.52600536421561
 20
1.924621697987766
 30
0.0
 10
-17.49598131094942
 20
1.921440653403235
 30
0.0
 10
-17.46614125497118
 20
1.921440653403235
 30
0.0
  0
SPLINE
  5
10B
330
1F
100
AcDbEntity
  8
SK1
  6
Continuous
100
AcDbSpline
210
0.0
220
0.0
230
1.0
 70
     8
 71
     3
 72
    35
 73
    31
 74
     0
 42
0.0000000080813779
 43
0.0000000001
 12
1.0
 22
0.0
 32
0.0
 13
1.0
 23
0.0
 33
0.0
 40
0.0
 40
0.0
 40
0.0
 40
0.0
 40
0.1134251203605125
 40
0.1134251203605125
 40
0.1134251203605125
 40
0.2270448956075928
 40
0.2270448956075928
 40
0.2270448956075928
 40
0.3375525299923796
 40
0.3375525299923796
 40
0.3375525299923796
 40
0.4436123154059351
 40
0.4436123154059351
 40
0.4436123154059351
 40
0.500194335804321
 40
0.500194335804321
 40
0.500194335804321
 40
0.6025718788280218
 40
0.6025718788280218
 40
0.6025718788280218
 40
0.704862282614664
 40
0.704862282614664
 40
0.704862282614664
 40
0.808517766357143
 40
0.808517766357143
 40
0.808517766357143
 40
0.9156387561634892
 40
0.9156387561634892
 40
0.9156387561634892
 40
1.0
 40
1.0
 40
1.0
 40
1.0
 10
-16.92641027504489
 20
3.50049329270745
 30
0.0
 10
-16.97418338792762
 20
3.497921919083633
 30
0.0
 10
-17.02266979657091
 20
3.502975567147351
 30
0.0
 10
-17.06786828878674
 20
3.515413730490526
 30
0.0
 10
-17.11311117396345
 20
3.527864110323047
 30
0.0
 10
-17.15633486494086
 20
3.548099828626421
 30
0.0
 10
-17.19357317105912
 20
3.574573926609102
 30
0.0
 10
-17.22979207083586
 20
3.600323290677098
 30
0.0
 10
-17.26138521019837
 20
3.63274157725751
 30
0.0
 10
-17.28527580782683
 20
3.669047584167111
 30
0.0
 10
-17.30821952727531
 20
3.703914641483247
 30
0.0
 10
-17.3247113623271
 20
3.743371847100757
 30
0.0
 10
-17.33314397584146
 20
3.783971821592186
 30
0.0
 10
-17.33769177696157
 20
3.805867833920316
 30
0.0
 10
-17.33999999999999
 20
3.828352217612743
 30
0.0
 10
-17.33999999999999
 20
3.850827256408598
 30
0.0
 10
-17.33999999999999
 20
3.891088005627642
 30
0.0
 10
-17.33244045748356
 20
3.932195781243415
 30
0.0
 10
-17.31802614799303
 20
3.970738978103707
 30
0.0
 10
-17.30361865999355
 20
4.009263934612428
 30
0.0
 10
-17.28198757287047
 20
4.046276163956622
 30
0.0
 10
-17.25505043751999
 20
4.078915069483392
 30
0.0
 10
-17.22774723689758
 20
4.111997525137951
 30
0.0
 10
-17.19428968317308
 20
4.141473199322503
 30
0.0
 10
-17.15746020563423
 20
4.165277642772842
 30
0.0
 10
-17.11940649113451
 20
4.189873362164422
 30
0.0
 10
-17.07676917987022
 20
4.20907375860388
 30
0.0
 10
-17.03293478755092
 20
4.221661468945325
 30
0.0
 10
-16.99823368926004
 20
4.231626415433777
 30
0.0
 10
-16.96217039816761
 20
4.237672140701533
 30
0.0
 10
-16.9264102750449
 20
4.239596918716478
 30
0.0
  0
LINE
  5
10C
330
1F
100
AcDbEntity
  8
SK1
  6
Continuous
100
AcDbLine
 10
-16.926410275
 20
3.5004932927
 30
0.0
 11
3.2182480697
 21
4.5845882118
 31
0.0
  0
LINE
  5
10D
330
1F
100
AcDbEntity
  8
SK1
  6
Continuous
100
AcDbLine
 10
3.2182480697
 20
12.9519698985
 30
0.0
 11
-3.34
 21
12.0302682406
 31
0.0
  0
LINE
  5
10E
330
1F
100
AcDbEntity
  8
SK1
  6
Continuous
100
AcDbLine
 10
-3.34
 20
-12.0302682406
 30
0.0
 11
3.2182480697
 21
-12.9519698985
 31
0.0
  0
LINE
  5
10F
330
1F
100
AcDbEntity
  8
SK3
100
AcDbLine
 10
-2.4599200473
 20
-6.0
 30
0.0
 11
11.26
 21
-6.0
 31
0.0
  0
LINE
  5
110
330
1F
100
AcDbEntity
  8
SK3
100
AcDbLine
 10
11.26
 20
6.0
 30
0.0
 11
-2.4599200473
 21
6.0
 31
0.0
  0
LINE
  5
111
330
1F
100
AcDbEntity
  8
SK1
  6
Continuous
100
AcDbLine
 10
6.9198076211
 20
13.0
 30
0.0
 11
6.66
 21
13.0
 31
0.0
  0
ARC
  5
112
330
1F
100
AcDbEntity
  8
SK3
100
AcDbCircle
 10
11.26
 20
6.4
 30
0.0
 40
0.400000000000001
100
AcDbArc
 50
270.0
 51
360.0
  0
ARC
  5
113
330
1F
100
AcDbEntity
  8
SK1
  6
Continuous
100
AcDbCircle
 10
3.26
 20
12.6548894778
 30
0.0
 40
0.2999999999999982
100
AcDbArc
 50
0.0
 51
98.0
  0
ARC
  5
114
330
1F
100
AcDbEntity
  8
SK1
  6
Continuous
100
AcDbCircle
 10
11.41
 20
10.1189110868
 30
0.0
 40
0.2500000000000016
100
AcDbArc
 50
0.0
 51
60.0
  0
ARC
  5
115
330
1F
100
AcDbEntity
  8
SK1
  6
Continuous
100
AcDbCircle
 10
3.76
 20
11.2
 30
0.0
 40
0.1999999999999994
100
AcDbArc
 50
180.0
 51
270.0
  0
LINE
  5
116
330
1F
100
AcDbEntity
  8
SK1
  6
Continuous
100
AcDbLine
 10
6.46
 20
11.0
 30
0.0
 11
3.76
 21
11.0
 31
0.0
  0
ARC
  5
117
330
1F
100
AcDbEntity
  8
SK1
  6
Continuous
100
AcDbCircle
 10
6.46
 20
11.2
 30
0.0
 40
0.2000000000000005
100
AcDbArc
 50
270.0
 51
0.0
  0
LINE
  5
118
330
1F
100
AcDbEntity
  8
SK1
  6
Continuous
100
AcDbLine
 10
11.535
 20
10.3354174377
 30
0.0
 11
6.9198076211
 21
13.0
 31
0.0
  0
LINE
  5
119
330
1F
100
AcDbEntity
  8
SK1
  6
Continuous
100
AcDbLine
 10
6.66
 20
-13.0
 30
0.0
 11
6.9198076211
 21
-13.0
 31
0.0
  0
ARC
  5
11A
330
1F
100
AcDbEntity
  8
SK3
100
AcDbCircle
 10
11.26
 20
-6.4
 30
0.0
 40
0.4000000000000007
100
AcDbArc
 50
0.0
 51
90.0
  0
ARC
  5
11B
330
1F
100
AcDbEntity
  8
SK1
  6
Continuous
100
AcDbCircle
 10
3.26
 20
-12.6548894778
 30
0.0
 40
0.2999999999999988
100
AcDbArc
 50
262.0
 51
360.0
  0
ARC
  5
11C
330
1F
100
AcDbEntity
  8
SK1
  6
Continuous
100
AcDbCircle
 10
11.41
 20
-10.1189110868
 30
0.0
 40
0.2499999999999981
100
AcDbArc
 50
300.0
 51
0.0
  0
ARC
  5
11D
330
1F
100
AcDbEntity
  8
SK1
  6
Continuous
100
AcDbCircle
 10
3.76
 20
-11.2
 30
0.0
 40
0.2000000000000005
100
AcDbArc
 50
90.0
 51
180.0
  0
LINE
  5
11E
330
1F
100
AcDbEntity
  8
SK1
  6
Continuous
100
AcDbLine
 10
3.76
 20
-11.0
 30
0.0
 11
6.46
 21
-11.0
 31
0.0
  0
ARC
  5
11F
330
1F
100
AcDbEntity
  8
SK1
  6
Continuous
100
AcDbCircle
 10
6.46
 20
-11.2
 30
0.0
 40
0.1999999999999994
100
AcDbArc
 50
0.0
 51
90.0
  0
LINE
  5
120
330
1F
100
AcDbEntity
  8
SK1
  6
Continuous
100
AcDbLine
 10
6.9198076211
 20
-13.0
 30
0.0
 11
11.535
 21
-10.3354174377
 31
0.0
  0
ARC
  5
121
330
1F
100
AcDbEntity
  8
SK3
100
AcDbCircle
 10
-7.5213644219
 20
0.2343974072
 30
0.0
 40
10.66040142324972
100
AcDbArc
 50
194.136369348
 51
203.3240010814
  0
ARC
  5
122
330
1F
100
AcDbEntity
  8
SK3
100
AcDbCircle
 10
-34.524190187
 20
0.1122532374
 30
0.0
 40
32.36031692150436
100
AcDbArc
 50
344.4565516383
 51
352.2177186106
  0
ARC
  5
123
330
1F
100
AcDbEntity
  8
SK3
100
AcDbCircle
 10
34.427213015
 20
-0.1108990789
 30
0.0
 40
52.57565541037919
100
AcDbArc
 50
185.9117976694
 51
190.0737475936
  0
ARC
  5
124
330
1F
100
AcDbEntity
  8
SK3
100
AcDbCircle
 10
-64.6712534199
 20
0.0
 30
0.0
 40
62.50000000000001
100
AcDbArc
 50
5.5088858983
 51
11.0977819747
  0
ARC
  5
125
330
1F
100
AcDbEntity
  8
SK3
100
AcDbCircle
 10
-64.6712534199
 20
0.0
 30
0.0
 40
62.50000000000001
100
AcDbArc
 50
348.9021909341
 51
354.4910915176
  0
ARC
  5
126
330
1F
100
AcDbEntity
  8
SK3
100
AcDbCircle
 10
-34.524628352
 20
-0.1120272836
 30
0.0
 40
32.36070230518009
100
AcDbArc
 50
7.7818848737
 51
15.5427459845
  0
ARC
  5
127
330
1F
100
AcDbEntity
  8
SK3
100
AcDbCircle
 10
35.0215535676
 20
0.0351600186
 30
0.0
 40
53.1746378377837
100
AcDbArc
 50
169.9574262425
 51
174.0729871951
  0
ARC
  5
128
330
1F
100
AcDbEntity
  8
SK3
100
AcDbCircle
 10
-7.4344545625
 20
-0.2603860665
 30
0.0
 40
10.75102736807687
100
AcDbArc
 50
156.7350209778
 51
165.8424433535
  0
LINE
  5
129
330
1F
100
AcDbEntity
  8
SK1
  6
Continuous
100
AcDbLine
 10
0.0
 20
12.4996746285
 30
0.0
 11
0.0
 21
-12.4996746285
 31
0.0
  0
LINE
  5
12B
330
1F
100
AcDbEntity
  8
SK4
  6
Continuous
100
AcDbLine
 10
11.66
 20
0.0
 30
0.0
 11
-22.34
 21
0.0
 31
0.0
  0
DIMENSION
  5
141
330
1F
100
AcDbEntity
  8
SK2
  6
Continuous
 62
   136
100
AcDbDimension
  2
DMBLK17
 10
11.66
 20
21.0875022034
 30
0.0
 11
-5.3399990761
 21
21.0875022034
 31
0.0
 70
   160
  1
\A1;<>
 71
     5
 42
-1.0
  3
DIN
100
AcDbAlignedDimension
 13
-22.34
 23
6.710733361
 33
0.0
 14
11.66
 24
9.1882744343
 34
0.0
100
AcDbRotatedDimension
  0
DIMENSION
  5
14B
330
1F
100
AcDbEntity
  8
SK2
  6
Continuous
 62
   136
100
AcDbDimension
  2
DMBLK18
 10
21.3088793105
 20
-6.0
 30
0.0
 11
21.3088793105
 21
11.6206417382
 31
0.0
 70
   161
  1
\A1;ø <>
 71
     5
 42
-1.0
  3
DIN
100
AcDbAlignedDimension
 13
11.26
 23
-6.0
 33
0.0
 14
11.26
 24
6.0
 34
0.0
  0
DIMENSION
  5
156
330
1F
100
AcDbEntity
  8
SK2
  6
Continuous
 62
   136
100
AcDbDimension
  2
DMBLK19
 10
11.66
 20
-20.5183647899
 30
0.0
 11
5.8300001547
 21
-20.5183647899
 31
0.0
 70
   160
  1
\A1;<>
 71
     5
 42
-1.0
  3
DIN
100
AcDbAlignedDimension
 13
0.0
 23
-12.4996746285
 33
0.0
 14
11.66
 24
-9.1882744343
 34
0.0
100
AcDbRotatedDimension
  0
DIMENSION
  5
160
330
1F
100
AcDbEntity
  8
SK2
  6
Continuous
 62
   136
100
AcDbDimension
  2
DMBLK20
 10
-29.9999993294
 20
12.4996746285
 30
0.0
 11
-29.9999993294
 21
0.0000004051
 31
0.0
 70
   161
  1
\A1;ø <>
 71
     5
 42
-1.0
  3
DIN
100
AcDbAlignedDimension
 13
0.0
 23
12.4996746285
 33
0.0
 14
0.0
 24
-12.4996746285
 34
0.0
  0
INSERT
  5
175
330
1F
100
AcDbEntity
  8
SK2
 62
     7
100
AcDbBlockReference
  2
Nullpunkt
 10
0.0
 20
0.0000000998
 30
0.0
  0
INSERT
  5
180
330
1F
100
AcDbEntity
  8
SK2
 62
     7
100
AcDbBlockReference
  2
Einfügepunkt
 10
11.66
 20
0.0
 30
0.0
  0
ENDSEC
  0
SECTION
  2
OBJECTS
  0
DICTIONARY
  5
C
330
0
100
AcDbDictionary
281
     1
  3
ACAD_GROUP
350
D
  3
ACAD_LAYOUT
350
1A
  3
ACAD_MATERIAL
350
3B
  3
ACAD_MLEADERSTYLE
350
183
  3
ACAD_MLINESTYLE
350
17
  3
ACAD_PLOTSETTINGS
350
19
  3
ACAD_PLOTSTYLENAME
350
E
  3
ACAD_VISUALSTYLE
350
2A
  3
AcDbVariableDictionary
350
181
  0
DICTIONARY
  5
D
102
{ACAD_REACTORS
330
C
102
}
330
C
100
AcDbDictionary
281
     1
  0
DICTIONARY
  5
1A
102
{ACAD_REACTORS
330
C
102
}
330
C
100
AcDbDictionary
281
     1
  3
Layout1
350
1E
  3
Model
350
22
  0
DICTIONARY
  5
3B
102
{ACAD_REACTORS
330
C
102
}
330
C
100
AcDbDictionary
281
     1
  3
ByBlock
350
3D
  3
ByLayer
350
3C
  3
Global
350
3E
  0
DICTIONARY
  5
183
102
{ACAD_REACTORS
330
C
102
}
330
C
100
AcDbDictionary
281
     1
  0
DICTIONARY
  5
17
102
{ACAD_REACTORS
330
C
102
}
330
C
100
AcDbDictionary
281
     1
  3
Standard
350
18
  0
DICTIONARY
  5
19
102
{ACAD_REACTORS
330
C
102
}
330
C
100
AcDbDictionary
281
     1
  0
ACDBDICTIONARYWDFLT
  5
E
102
{ACAD_REACTORS
330
C
102
}
330
C
100
AcDbDictionary
281
     1
  3
Normal
350
F
100
AcDbDictionaryWithDefault
340
F
  0
DICTIONARY
  5
2A
102
{ACAD_REACTORS
330
C
102
}
330
C
100
AcDbDictionary
281
     1
  3
2dWireframe
350
2F
  3
3D Hidden
350
31
  3
3dWireframe
350
30
  3
Basic
350
32
  3
Brighten
350
36
  3
ColorChange
350
3A
  3
Conceptual
350
34
  3
Dim
350
35
  3
Facepattern
350
39
  3
Flat
350
2B
  3
FlatWithEdges
350
2C
  3
Gouraud
350
2D
  3
GouraudWithEdges
350
2E
  3
Linepattern
350
38
  3
Realistic
350
33
  3
Thicken
350
37
  0
DICTIONARY
  5
181
102
{ACAD_REACTORS
330
C
102
}
330
C
100
AcDbDictionary
281
     1
  3
DIMASSOC
350
186
  3
HIDETEXT
350
187
  3
PSOLHEIGHT
350
185
  3
PSOLWIDTH
350
184
  0
LAYOUT
  5
1E
102
{ACAD_REACTORS
330
1A
102
}
330
1A
100
AcDbPlotSettings
  1

  2
none_device
  4

  6

 40
0.0
 41
0.0
 42
0.0
 43
0.0
 44
0.0
 45
0.0
 46
0.0
 47
0.0
 48
0.0
 49
0.0
140
0.0
141
0.0
142
1.0
143
1.0
 70
   688
 72
     0
 73
     0
 74
     5
  7

 75
    16
147
1.0
148
0.0
149
0.0
100
AcDbLayout
  1
Layout1
 70
     1
 71
     1
 10
0.0
 20
0.0
 11
210.0
 21
297.0
 12
0.0
 22
0.0
 32
0.0
 14
0.0
 24
0.0
 34
0.0
 15
210.0
 25
297.0
 35
0.0
146
0.0
 13
0.0
 23
0.0
 33
0.0
 16
1.0
 26
0.0
 36
0.0
 17
0.0
 27
1.0
 37
0.0
 76
     0
330
1B
  0
LAYOUT
  5
22
102
{ACAD_REACTORS
330
1A
102
}
330
1A
100
AcDbPlotSettings
  1

  2
none_device
  4

  6

 40
0.0
 41
0.0
 42
0.0
 43
0.0
 44
0.0
 45
0.0
 46
0.0
 47
0.0
 48
0.0
 49
0.0
140
0.0
141
0.0
142
1.0
143
1.0
 70
  1712
 72
     0
 73
     0
 74
     0
  7

 75
     0
147
1.0
148
0.0
149
0.0
100
AcDbLayout
  1
Model
 70
     1
 71
     0
 10
0.0
 20
0.0
 11
210.0
 21
297.0
 12
0.0
 22
0.0
 32
0.0
 14
0.0
 24
0.0
 34
0.0
 15
210.0
 25
297.0
 35
0.0
146
0.0
 13
0.0
 23
0.0
 33
0.0
 16
1.0
 26
0.0
 36
0.0
 17
0.0
 27
1.0
 37
0.0
 76
     0
330
1F
331
29
  0
MATERIAL
  5
3D
102
{ACAD_REACTORS
330
3B
102
}
102
{ACAD_XDICTIONARY
360
1AA
102
}
330
3B
100
AcDbMaterial
  1
ByBlock
  0
MATERIAL
  5
3C
102
{ACAD_REACTORS
330
3B
102
}
102
{ACAD_XDICTIONARY
360
1A8
102
}
330
3B
100
AcDbMaterial
  1
ByLayer
  0
MATERIAL
  5
3E
102
{ACAD_REACTORS
330
3B
102
}
102
{ACAD_XDICTIONARY
360
1AC
102
}
330
3B
100
AcDbMaterial
  1
Global
  0
MLINESTYLE
  5
18
102
{ACAD_REACTORS
330
17
102
}
330
17
100
AcDbMlineStyle
  2
Standard
 70
     0
  3

 62
   256
 51
90.0
 52
90.0
 71
     2
 49
0.5
 62
   256
  6
BYLAYER
 49
-0.5
 62
   256
  6
BYLAYER
  0
ACDBPLACEHOLDER
  5
F
102
{ACAD_REACTORS
330
E
102
}
330
E
  0
VISUALSTYLE
  5
2F
102
{ACAD_REACTORS
330
2A
102
}
102
{ACAD_XDICTIONARY
360
190
102
}
330
2A
100
AcDbVisualStyle
  2
2dWireframe
 70
     4
 71
     0
 72
     2
 73
     0
 90
        0
 40
-0.6
 41
-30.0
 62
     5
 63
     7
 74
     1
 91
        4
 64
     7
 65
   257
 75
     1
175
     1
 42
1.0
 92
        0
 66
   257
 43
1.0
 76
     1
 77
     6
 78
     2
 67
     7
 79
     5
170
     0
171
     0
290
     0
174
     0
 93
        1
 44
0.0
173
     0
291
     0
 45
0.0
1001
ACAD
1000
AcDbSavedByObjectVersion
1070
     0
  0
VISUALSTYLE
  5
31
102
{ACAD_REACTORS
330
2A
102
}
102
{ACAD_XDICTIONARY
360
194
102
}
330
2A
100
AcDbVisualStyle
  2
3D Hidden
 70
     6
 71
     1
 72
     2
 73
     2
 90
        0
 40
-0.6
 41
-30.0
 62
     5
 63
     7
 74
     2
 91
        2
 64
     7
 65
   257
 75
     2
175
     1
 42
40.0
 92
        0
 66
   257
 43
1.0
 76
     1
 77
     6
 78
     2
 67
     7
 79
     3
170
     0
171
     0
290
     0
174
     0
 93
        1
 44
0.0
173
     0
291
     0
 45
0.0
1001
ACAD
1000
AcDbSavedByObjectVersion
1070
     0
  0
VISUALSTYLE
  5
30
102
{ACAD_REACTORS
330
2A
102
}
102
{ACAD_XDICTIONARY
360
192
102
}
330
2A
100
AcDbVisualStyle
  2
3dWireframe
 70
     5
 71
     0
 72
     2
 73
     0
 90
        0
 40
-0.6
 41
-30.0
 62
     5
 63
     7
 74
     1
 91
        4
 64
     7
 65
   257
 75
     1
175
     1
 42
1.0
 92
        0
 66
   257
 43
1.0
 76
     1
 77
     6
 78
     2
 67
     7
 79
     5
170
     0
171
     0
290
     0
174
     0
 93
        1
 44
0.0
173
     0
291
     0
 45
0.0
1001
ACAD
1000
AcDbSavedByObjectVersion
1070
     0
  0
VISUALSTYLE
  5
32
102
{ACAD_REACTORS
330
2A
102
}
102
{ACAD_XDICTIONARY
360
196
102
}
330
2A
100
AcDbVisualStyle
  2
Basic
 70
     7
 71
     1
 72
     0
 73
     1
 90
        0
 40
-0.6
 41
-30.0
 62
     5
 63
     7
 74
     0
 91
        4
 64
     7
 65
   257
 75
     1
175
     1
 42
1.0
 92
        8
 66
     7
 43
1.0
 76
     1
 77
     6
 78
     2
 67
     7
 79
     5
170
     0
171
     0
290
     0
174
     0
 93
        1
 44
0.0
173
     0
291
     1
 45
0.0
1001
ACAD
1000
AcDbSavedByObjectVersion
1070
     0
  0
VISUALSTYLE
  5
36
102
{ACAD_REACTORS
330
2A
102
}
102
{ACAD_XDICTIONARY
360
19E
102
}
330
2A
100
AcDbVisualStyle
  2
Brighten
 70
    12
 71
     2
 72
     2
 73
     0
 90
        0
 40
-0.6
 41
-30.0
 62
     5
 63
     7
 74
     1
 91
        4
 64
     7
 65
   257
 75
     1
175
     1
 42
1.0
 92
        8
 66
     7
 43
1.0
 76
     1
 77
     6
 78
     2
 67
     7
 79
     5
170
     0
171
     0
290
     0
174
     0
 93
        1
 44
50.0
173
     0
291
     1
 45
0.0
1001
ACAD
1000
AcDbSavedByObjectVersion
1070
     0
  0
VISUALSTYLE
  5
3A
102
{ACAD_REACTORS
330
2A
102
}
102
{ACAD_XDICTIONARY
360
1A6
102
}
330
2A
100
AcDbVisualStyle
  2
ColorChange
 70
    16
 71
     2
 72
     2
 73
     3
 90
        0
 40
-0.6
 41
-30.0
 62
     5
 63
     8
 74
     1
 91
        4
 64
     7
 65
   257
 75
     1
175
     1
 42
1.0
 92
        8
 66
     8
 43
1.0
 76
     1
 77
     6
 78
     2
 67
     7
 79
     5
170
     0
171
     0
290
     0
174
     0
 93
        1
 44
0.0
173
     0
291
     1
 45
0.0
1001
ACAD
1000
AcDbSavedByObjectVersion
1070
     0
  0
VISUALSTYLE
  5
34
102
{ACAD_REACTORS
330
2A
102
}
102
{ACAD_XDICTIONARY
360
19A
102
}
330
2A
100
AcDbVisualStyle
  2
Conceptual
 70
     9
 71
     3
 72
     2
 73
     0
 90
        0
 40
-0.6
 41
-30.0
 62
     5
 63
     7
 74
     2
 91
        2
 64
     7
 65
   257
 75
     1
175
     1
 42
40.0
 92
        8
 66
     7
 43
1.0
 76
     1
 77
     6
 78
     2
 67
     7
 79
     3
170
     0
171
     0
290
     0
174
     0
 93
        1
 44
0.0
173
     0
291
     0
 45
0.0
1001
ACAD
1000
AcDbSavedByObjectVersion
1070
     0
  0
VISUALSTYLE
  5
35
102
{ACAD_REACTORS
330
2A
102
}
102
{ACAD_XDICTIONARY
360
19C
102
}
330
2A
100
AcDbVisualStyle
  2
Dim
 70
    11
 71
     2
 72
     2
 73
     0
 90
        0
 40
-0.6
 41
-30.0
 62
     5
 63
     7
 74
     1
 91
        4
 64
     7
 65
   257
 75
     1
175
     1
 42
1.0
 92
        8
 66
     7
 43
1.0
 76
     1
 77
     6
 78
     2
 67
     7
 79
     5
170
     0
171
     0
290
     0
174
     0
 93
        1
 44
-50.0
173
     0
291
     1
 45
0.0
1001
ACAD
1000
AcDbSavedByObjectVersion
1070
     0
  0
VISUALSTYLE
  5
39
102
{ACAD_REACTORS
330
2A
102
}
102
{ACAD_XDICTIONARY
360
1A4
102
}
330
2A
100
AcDbVisualStyle
  2
Facepattern
 70
    15
 71
     2
 72
     2
 73
     0
 90
        0
 40
-0.6
 41
-30.0
 62
     5
 63
     7
 74
     1
 91
        4
 64
     7
 65
   257
 75
     1
175
     1
 42
1.0
 92
        8
 66
     7
 43
1.0
 76
     1
 77
     6
 78
     2
 67
     7
 79
     5
170
     0
171
     0
290
     0
174
     0
 93
        1
 44
0.0
173
     0
291
     1
 45
0.0
1001
ACAD
1000
AcDbSavedByObjectVersion
1070
     0
  0
VISUALSTYLE
  5
2B
102
{ACAD_REACTORS
330
2A
102
}
102
{ACAD_XDICTIONARY
360
188
102
}
330
2A
100
AcDbVisualStyle
  2
Flat
 70
     0
 71
     2
 72
     1
 73
     1
 90
        2
 40
-0.6
 41
30.0
 62
     5
 63
     7
 74
     0
 91
        4
 64
     7
 65
   257
 75
     1
175
     1
 42
1.0
 92
        8
 66
     7
 43
1.0
 76
     1
 77
     6
 78
     2
 67
     7
 79
     5
170
     0
171
     0
290
     0
174
     0
 93
       13
 44
0.0
173
     0
291
     1
 45
0.0
1001
ACAD
1000
AcDbSavedByObjectVersion
1070
     0
  0
VISUALSTYLE
  5
2C
102
{ACAD_REACTORS
330
2A
102
}
102
{ACAD_XDICTIONARY
360
18A
102
}
330
2A
100
AcDbVisualStyle
  2
FlatWithEdges
 70
     1
 71
     2
 72
     1
 73
     1
 90
        2
 40
-0.6
 41
30.0
 62
     5
 63
     7
 74
     1
 91
        4
 64
     7
 65
   257
 75
     1
175
     1
 42
1.0
 92
        0
 66
   257
 43
1.0
 76
     1
 77
     6
 78
     2
 67
     7
 79
     5
170
     0
171
     0
290
     0
174
     0
 93
       13
 44
0.0
173
     0
291
     1
 45
0.0
1001
ACAD
1000
AcDbSavedByObjectVersion
1070
     0
  0
VISUALSTYLE
  5
2D
102
{ACAD_REACTORS
330
2A
102
}
102
{ACAD_XDICTIONARY
360
18C
102
}
330
2A
100
AcDbVisualStyle
  2
Gouraud
 70
     2
 71
     2
 72
     2
 73
     1
 90
        2
 40
-0.6
 41
30.0
 62
     5
 63
     7
 74
     0
 91
        4
 64
     7
 65
   257
 75
     1
175
     1
 42
1.0
 92
        0
 66
     7
 43
1.0
 76
     1
 77
     6
 78
     2
 67
     7
 79
     5
170
     0
171
     0
290
     0
174
     0
 93
       13
 44
0.0
173
     0
291
     1
 45
0.0
1001
ACAD
1000
AcDbSavedByObjectVersion
1070
     0
  0
VISUALSTYLE
  5
2E
102
{ACAD_REACTORS
330
2A
102
}
102
{ACAD_XDICTIONARY
360
18E
102
}
330
2A
100
AcDbVisualStyle
  2
GouraudWithEdges
 70
     3
 71
     2
 72
     2
 73
     1
 90
        2
 40
-0.6
 41
30.0
 62
     5
 63
     7
 74
     1
 91
        4
 64
     7
 65
   257
 75
     1
175
     1
 42
1.0
 92
        0
 66
   257
 43
1.0
 76
     1
 77
     6
 78
     2
 67
     7
 79
     5
170
     0
171
     0
290
     0
174
     0
 93
       13
 44
0.0
173
     0
291
     1
 45
0.0
1001
ACAD
1000
AcDbSavedByObjectVersion
1070
     0
  0
VISUALSTYLE
  5
38
102
{ACAD_REACTORS
330
2A
102
}
102
{ACAD_XDICTIONARY
360
1A2
102
}
330
2A
100
AcDbVisualStyle
  2
Linepattern
 70
    14
 71
     2
 72
     2
 73
     0
 90
        0
 40
-0.6
 41
-30.0
 62
     5
 63
     7
 74
     1
 91
        4
 64
     7
 65
   257
 75
     7
175
     7
 42
1.0
 92
        8
 66
     7
 43
1.0
 76
     1
 77
     6
 78
     2
 67
     7
 79
     5
170
     0
171
     0
290
     0
174
     0
 93
        1
 44
0.0
173
     0
291
     1
 45
0.0
1001
ACAD
1000
AcDbSavedByObjectVersion
1070
     0
  0
VISUALSTYLE
  5
33
102
{ACAD_REACTORS
330
2A
102
}
102
{ACAD_XDICTIONARY
360
198
102
}
330
2A
100
AcDbVisualStyle
  2
Realistic
 70
     8
 71
     2
 72
     2
 73
     0
 90
        0
 40
-0.6
 41
-30.0
 62
     5
 63
     7
 74
     1
 91
        0
 64
     7
 65
   257
 75
     1
175
     1
 42
1.0
 92
        8
 66
     8
 43
1.0
 76
     1
 77
     6
 78
     2
 67
     7
 79
     5
170
     0
171
     0
290
     0
174
     0
 93
       13
 44
0.0
173
     0
291
     0
 45
0.0
1001
ACAD
1000
AcDbSavedByObjectVersion
1070
     0
  0
VISUALSTYLE
  5
37
102
{ACAD_REACTORS
330
2A
102
}
102
{ACAD_XDICTIONARY
360
1A0
102
}
330
2A
100
AcDbVisualStyle
  2
Thicken
 70
    13
 71
     2
 72
     2
 73
     0
 90
        0
 40
-0.6
 41
-30.0
 62
     5
 63
     7
 74
     1
 91
        4
 64
     7
 65
   257
 75
     1
175
     1
 42
1.0
 92
       12
 66
     7
 43
1.0
 76
     1
 77
     6
 78
     2
 67
     7
 79
     5
170
     0
171
     0
290
     0
174
     0
 93
        1
 44
0.0
173
     0
291
     1
 45
0.0
1001
ACAD
1000
AcDbSavedByObjectVersion
1070
     0
  0
DICTIONARYVAR
  5
186
102
{ACAD_REACTORS
330
181
102
}
330
181
100
DictionaryVariables
280
     0
  1
2
  0
DICTIONARYVAR
  5
187
102
{ACAD_REACTORS
330
181
102
}
330
181
100
DictionaryVariables
280
     0
  1
1
  0
DICTIONARYVAR
  5
185
102
{ACAD_REACTORS
330
181
102
}
330
181
100
DictionaryVariables
280
     0
  1
80.000000
  0
DICTIONARYVAR
  5
184
102
{ACAD_REACTORS
330
181
102
}
330
181
100
DictionaryVariables
280
     0
  1
5.000000
  0
DICTIONARY
  5
1AA
330
3D
100
AcDbDictionary
280
     1
281
     1
  3
ACAD_XREC_ROUNDTRIP
360
1AB
  0
DICTIONARY
  5
1A8
330
3C
100
AcDbDictionary
280
     1
281
     1
  3
ACAD_XREC_ROUNDTRIP
360
1A9
  0
DICTIONARY
  5
1AC
330
3E
100
AcDbDictionary
280
     1
281
     1
  3
ACAD_XREC_ROUNDTRIP
360
1AD
  0
DICTIONARY
  5
190
330
2F
100
AcDbDictionary
280
     1
281
     1
  3
ACAD_XREC_ROUNDTRIP
360
191
  0
DICTIONARY
  5
194
330
31
100
AcDbDictionary
280
     1
281
     1
  3
ACAD_XREC_ROUNDTRIP
360
195
  0
DICTIONARY
  5
192
330
30
100
AcDbDictionary
280
     1
281
     1
  3
ACAD_XREC_ROUNDTRIP
360
193
  0
DICTIONARY
  5
196
330
32
100
AcDbDictionary
280
     1
281
     1
  3
ACAD_XREC_ROUNDTRIP
360
197
  0
DICTIONARY
  5
19E
330
36
100
AcDbDictionary
280
     1
281
     1
  3
ACAD_XREC_ROUNDTRIP
360
19F
  0
DICTIONARY
  5
1A6
330
3A
100
AcDbDictionary
280
     1
281
     1
  3
ACAD_XREC_ROUNDTRIP
360
1A7
  0
DICTIONARY
  5
19A
330
34
100
AcDbDictionary
280
     1
281
     1
  3
ACAD_XREC_ROUNDTRIP
360
19B
  0
DICTIONARY
  5
19C
330
35
100
AcDbDictionary
280
     1
281
     1
  3
ACAD_XREC_ROUNDTRIP
360
19D
  0
DICTIONARY
  5
1A4
330
39
100
AcDbDictionary
280
     1
281
     1
  3
ACAD_XREC_ROUNDTRIP
360
1A5
  0
DICTIONARY
  5
188
330
2B
100
AcDbDictionary
280
     1
281
     1
  3
ACAD_XREC_ROUNDTRIP
360
189
  0
DICTIONARY
  5
18A
330
2C
100
AcDbDictionary
280
     1
281
     1
  3
ACAD_XREC_ROUNDTRIP
360
18B
  0
DICTIONARY
  5
18C
330
2D
100
AcDbDictionary
280
     1
281
     1
  3
ACAD_XREC_ROUNDTRIP
360
18D
  0
DICTIONARY
  5
18E
330
2E
100
AcDbDictionary
280
     1
281
     1
  3
ACAD_XREC_ROUNDTRIP
360
18F
  0
DICTIONARY
  5
1A2
330
38
100
AcDbDictionary
280
     1
281
     1
  3
ACAD_XREC_ROUNDTRIP
360
1A3
  0
DICTIONARY
  5
198
330
33
100
AcDbDictionary
280
     1
281
     1
  3
ACAD_XREC_ROUNDTRIP
360
199
  0
DICTIONARY
  5
1A0
330
37
100
AcDbDictionary
280
     1
281
     1
  3
ACAD_XREC_ROUNDTRIP
360
1A1
  0
XRECORD
  5
1AB
102
{ACAD_REACTORS
330
1AA
102
}
330
1AA
100
AcDbXrecord
280
     1
102
MATERIAL
148
0.0
149
0.0
149
0.0
 93
        0
 94
      127
282
     0
 72
     1
 77
     1
171
     1
175
     1
179
     1
273
     0
  0
XRECORD
  5
1A9
102
{ACAD_REACTORS
330
1A8
102
}
330
1A8
100
AcDbXrecord
280
     1
102
MATERIAL
148
0.0
149
0.0
149
0.0
 93
        0
 94
      127
282
     0
 72
     1
 77
     1
171
     1
175
     1
179
     1
273
     0
  0
XRECORD
  5
1AD
102
{ACAD_REACTORS
330
1AC
102
}
330
1AC
100
AcDbXrecord
280
     1
102
MATERIAL
148
0.0
149
0.0
149
0.0
 93
        0
 94
      127
282
     0
 72
     1
 77
     1
171
     1
175
     1
179
     1
273
     0
  0
XRECORD
  5
191
102
{ACAD_REACTORS
330
190
102
}
330
190
100
AcDbXrecord
280
     1
102
RTVSPropertyOp0
 70
     1
102
RTVSPropertyOp1
 70
     1
102
RTVSPropertyOp2
 70
     1
102
RTVSPropertyOp3
 70
     1
102
RTVSPropertyOp4
 70
     1
102
RTVSPropertyOp5
 70
     1
102
RTVSPropertyOp6
 70
     1
102
RTVSPropertyOp7
 70
     1
102
RTVSPropertyOp8
 70
     1
102
RTVSPropertyOp9
 70
     1
102
RTVSPropertyOp10
 70
     1
102
RTVSPropertyOp11
 70
     1
102
RTVSPropertyOp12
 70
     1
102
RTVSPropertyOp13
 70
     1
102
RTVSPropertyOp14
 70
     1
102
RTVSPropertyOp15
 70
     1
102
RTVSPropertyOp16
 70
     1
102
RTVSPropertyOp17
 70
     1
102
RTVSPropertyOp18
 70
     1
102
RTVSPropertyOp19
 70
     1
102
RTVSPropertyOp20
 70
     1
102
RTVSPropertyOp21
 70
     1
102
RTVSPropertyOp22
 70
     1
102
RTVSPropertyOp23
 70
     1
102
RTVSPropertyOp24
 70
     1
102
RTVSPropertyOp25
 70
     1
102
RTVSPropertyOp26
 70
     1
102
RTVSPropertyOp27
 70
     1
102
RTVSPropertyOp28
 70
     1
102
RTVSPropertyOp29
 70
     1
102
RTVSPropertyOp30
 70
     1
102
RTVSPropertyOp31
 70
     1
102
RTVSPropertyOp32
 70
     1
  0
XRECORD
  5
195
102
{ACAD_REACTORS
330
194
102
}
330
194
100
AcDbXrecord
280
     1
102
RTVSPropertyOp0
 70
     1
102
RTVSPropertyOp1
 70
     1
102
RTVSPropertyOp2
 70
     1
102
RTVSPropertyOp3
 70
     1
102
RTVSPropertyOp4
 70
     1
102
RTVSPropertyOp5
 70
     1
102
RTVSPropertyOp6
 70
     1
102
RTVSPropertyOp7
 70
     1
102
RTVSPropertyOp8
 70
     1
102
RTVSPropertyOp9
 70
     1
102
RTVSPropertyOp10
 70
     1
102
RTVSPropertyOp11
 70
     1
102
RTVSPropertyOp12
 70
     1
102
RTVSPropertyOp13
 70
     1
102
RTVSPropertyOp14
 70
     1
102
RTVSPropertyOp15
 70
     1
102
RTVSPropertyOp16
 70
     1
102
RTVSPropertyOp17
 70
     1
102
RTVSPropertyOp18
 70
     1
102
RTVSPropertyOp19
 70
     1
102
RTVSPropertyOp20
 70
     1
102
RTVSPropertyOp21
 70
     1
102
RTVSPropertyOp22
 70
     1
102
RTVSPropertyOp23
 70
     1
102
RTVSPropertyOp24
 70
     1
102
RTVSPropertyOp25
 70
     1
102
RTVSPropertyOp26
 70
     1
102
RTVSPropertyOp27
 70
     1
102
RTVSPropertyOp28
 70
     1
102
RTVSPropertyOp29
 70
     1
102
RTVSPropertyOp30
 70
     1
102
RTVSPropertyOp31
 70
     1
102
RTVSPropertyOp32
 70
     1
  0
XRECORD
  5
193
102
{ACAD_REACTORS
330
192
102
}
330
192
100
AcDbXrecord
280
     1
102
RTVSPropertyOp0
 70
     1
102
RTVSPropertyOp1
 70
     1
102
RTVSPropertyOp2
 70
     1
102
RTVSPropertyOp3
 70
     1
102
RTVSPropertyOp4
 70
     1
102
RTVSPropertyOp5
 70
     1
102
RTVSPropertyOp6
 70
     1
102
RTVSPropertyOp7
 70
     1
102
RTVSPropertyOp8
 70
     1
102
RTVSPropertyOp9
 70
     1
102
RTVSPropertyOp10
 70
     1
102
RTVSPropertyOp11
 70
     1
102
RTVSPropertyOp12
 70
     1
102
RTVSPropertyOp13
 70
     1
102
RTVSPropertyOp14
 70
     1
102
RTVSPropertyOp15
 70
     1
102
RTVSPropertyOp16
 70
     1
102
RTVSPropertyOp17
 70
     1
102
RTVSPropertyOp18
 70
     1
102
RTVSPropertyOp19
 70
     1
102
RTVSPropertyOp20
 70
     1
102
RTVSPropertyOp21
 70
     1
102
RTVSPropertyOp22
 70
     1
102
RTVSPropertyOp23
 70
     1
102
RTVSPropertyOp24
 70
     1
102
RTVSPropertyOp25
 70
     1
102
RTVSPropertyOp26
 70
     1
102
RTVSPropertyOp27
 70
     1
102
RTVSPropertyOp28
 70
     1
102
RTVSPropertyOp29
 70
     1
102
RTVSPropertyOp30
 70
     1
102
RTVSPropertyOp31
 70
     1
102
RTVSPropertyOp32
 70
     1
  0
XRECORD
  5
197
102
{ACAD_REACTORS
330
196
102
}
330
196
100
AcDbXrecord
280
     1
102
RTVSPropertyOp0
 70
     1
102
RTVSPropertyOp1
 70
     1
102
RTVSPropertyOp2
 70
     1
102
RTVSPropertyOp3
 70
     1
102
RTVSPropertyOp4
 70
     1
102
RTVSPropertyOp5
 70
     1
102
RTVSPropertyOp6
 70
     1
102
RTVSPropertyOp7
 70
     1
102
RTVSPropertyOp8
 70
     1
102
RTVSPropertyOp9
 70
     1
102
RTVSPropertyOp10
 70
     1
102
RTVSPropertyOp11
 70
     1
102
RTVSPropertyOp12
 70
     1
102
RTVSPropertyOp13
 70
     1
102
RTVSPropertyOp14
 70
     1
102
RTVSPropertyOp15
 70
     1
102
RTVSPropertyOp16
 70
     1
102
RTVSPropertyOp17
 70
     1
102
RTVSPropertyOp18
 70
     1
102
RTVSPropertyOp19
 70
     1
102
RTVSPropertyOp20
 70
     1
102
RTVSPropertyOp21
 70
     1
102
RTVSPropertyOp22
 70
     1
102
RTVSPropertyOp23
 70
     1
102
RTVSPropertyOp24
 70
     1
102
RTVSPropertyOp25
 70
     1
102
RTVSPropertyOp26
 70
     1
102
RTVSPropertyOp27
 70
     1
102
RTVSPropertyOp28
 70
     1
102
RTVSPropertyOp29
 70
     1
102
RTVSPropertyOp30
 70
     1
102
RTVSPropertyOp31
 70
     1
102
RTVSPropertyOp32
 70
     1
  0
XRECORD
  5
19F
102
{ACAD_REACTORS
330
19E
102
}
330
19E
100
AcDbXrecord
280
     1
102
RTVSPropertyOp0
 70
     1
102
RTVSPropertyOp1
 70
     1
102
RTVSPropertyOp2
 70
     1
102
RTVSPropertyOp3
 70
     1
102
RTVSPropertyOp4
 70
     1
102
RTVSPropertyOp5
 70
     1
102
RTVSPropertyOp6
 70
     1
102
RTVSPropertyOp7
 70
     1
102
RTVSPropertyOp8
 70
     1
102
RTVSPropertyOp9
 70
     1
102
RTVSPropertyOp10
 70
     1
102
RTVSPropertyOp11
 70
     1
102
RTVSPropertyOp12
 70
     1
102
RTVSPropertyOp13
 70
     1
102
RTVSPropertyOp14
 70
     1
102
RTVSPropertyOp15
 70
     1
102
RTVSPropertyOp16
 70
     1
102
RTVSPropertyOp17
 70
     1
102
RTVSPropertyOp18
 70
     1
102
RTVSPropertyOp19
 70
     1
102
RTVSPropertyOp20
 70
     1
102
RTVSPropertyOp21
 70
     1
102
RTVSPropertyOp22
 70
     1
102
RTVSPropertyOp23
 70
     1
102
RTVSPropertyOp24
 70
     1
102
RTVSPropertyOp25
 70
     1
102
RTVSPropertyOp26
 70
     1
102
RTVSPropertyOp27
 70
     1
102
RTVSPropertyOp28
 70
     1
102
RTVSPropertyOp29
 70
     1
102
RTVSPropertyOp30
 70
     1
102
RTVSPropertyOp31
 70
     1
102
RTVSPropertyOp32
 70
     1
  0
XRECORD
  5
1A7
102
{ACAD_REACTORS
330
1A6
102
}
330
1A6
100
AcDbXrecord
280
     1
102
RTVSPropertyOp0
 70
     1
102
RTVSPropertyOp1
 70
     1
102
RTVSPropertyOp2
 70
     1
102
RTVSPropertyOp3
 70
     1
102
RTVSPropertyOp4
 70
     1
102
RTVSPropertyOp5
 70
     1
102
RTVSPropertyOp6
 70
     1
102
RTVSPropertyOp7
 70
     1
102
RTVSPropertyOp8
 70
     1
102
RTVSPropertyOp9
 70
     1
102
RTVSPropertyOp10
 70
     1
102
RTVSPropertyOp11
 70
     1
102
RTVSPropertyOp12
 70
     1
102
RTVSPropertyOp13
 70
     1
102
RTVSPropertyOp14
 70
     1
102
RTVSPropertyOp15
 70
     1
102
RTVSPropertyOp16
 70
     1
102
RTVSPropertyOp17
 70
     1
102
RTVSPropertyOp18
 70
     1
102
RTVSPropertyOp19
 70
     1
102
RTVSPropertyOp20
 70
     1
102
RTVSPropertyOp21
 70
     1
102
RTVSPropertyOp22
 70
     1
102
RTVSPropertyOp23
 70
     1
102
RTVSPropertyOp24
 70
     1
102
RTVSPropertyOp25
 70
     1
102
RTVSPropertyOp26
 70
     1
102
RTVSPropertyOp27
 70
     1
102
RTVSPropertyOp28
 70
     1
102
RTVSPropertyOp29
 70
     1
102
RTVSPropertyOp30
 70
     1
102
RTVSPropertyOp31
 70
     1
102
RTVSPropertyOp32
 70
     1
  0
XRECORD
  5
19B
102
{ACAD_REACTORS
330
19A
102
}
330
19A
100
AcDbXrecord
280
     1
102
RTVSPropertyOp0
 70
     1
102
RTVSPropertyOp1
 70
     1
102
RTVSPropertyOp2
 70
     1
102
RTVSPropertyOp3
 70
     1
102
RTVSPropertyOp4
 70
     1
102
RTVSPropertyOp5
 70
     1
102
RTVSPropertyOp6
 70
     1
102
RTVSPropertyOp7
 70
     1
102
RTVSPropertyOp8
 70
     1
102
RTVSPropertyOp9
 70
     1
102
RTVSPropertyOp10
 70
     1
102
RTVSPropertyOp11
 70
     1
102
RTVSPropertyOp12
 70
     1
102
RTVSPropertyOp13
 70
     1
102
RTVSPropertyOp14
 70
     1
102
RTVSPropertyOp15
 70
     1
102
RTVSPropertyOp16
 70
     1
102
RTVSPropertyOp17
 70
     1
102
RTVSPropertyOp18
 70
     1
102
RTVSPropertyOp19
 70
     1
102
RTVSPropertyOp20
 70
     1
102
RTVSPropertyOp21
 70
     1
102
RTVSPropertyOp22
 70
     1
102
RTVSPropertyOp23
 70
     1
102
RTVSPropertyOp24
 70
     1
102
RTVSPropertyOp25
 70
     1
102
RTVSPropertyOp26
 70
     1
102
RTVSPropertyOp27
 70
     1
102
RTVSPropertyOp28
 70
     1
102
RTVSPropertyOp29
 70
     1
102
RTVSPropertyOp30
 70
     1
102
RTVSPropertyOp31
 70
     1
102
RTVSPropertyOp32
 70
     1
  0
XRECORD
  5
19D
102
{ACAD_REACTORS
330
19C
102
}
330
19C
100
AcDbXrecord
280
     1
102
RTVSPropertyOp0
 70
     1
102
RTVSPropertyOp1
 70
     1
102
RTVSPropertyOp2
 70
     1
102
RTVSPropertyOp3
 70
     1
102
RTVSPropertyOp4
 70
     1
102
RTVSPropertyOp5
 70
     1
102
RTVSPropertyOp6
 70
     1
102
RTVSPropertyOp7
 70
     1
102
RTVSPropertyOp8
 70
     1
102
RTVSPropertyOp9
 70
     1
102
RTVSPropertyOp10
 70
     1
102
RTVSPropertyOp11
 70
     1
102
RTVSPropertyOp12
 70
     1
102
RTVSPropertyOp13
 70
     1
102
RTVSPropertyOp14
 70
     1
102
RTVSPropertyOp15
 70
     1
102
RTVSPropertyOp16
 70
     1
102
RTVSPropertyOp17
 70
     1
102
RTVSPropertyOp18
 70
     1
102
RTVSPropertyOp19
 70
     1
102
RTVSPropertyOp20
 70
     1
102
RTVSPropertyOp21
 70
     1
102
RTVSPropertyOp22
 70
     1
102
RTVSPropertyOp23
 70
     1
102
RTVSPropertyOp24
 70
     1
102
RTVSPropertyOp25
 70
     1
102
RTVSPropertyOp26
 70
     1
102
RTVSPropertyOp27
 70
     1
102
RTVSPropertyOp28
 70
     1
102
RTVSPropertyOp29
 70
     1
102
RTVSPropertyOp30
 70
     1
102
RTVSPropertyOp31
 70
     1
102
RTVSPropertyOp32
 70
     1
  0
XRECORD
  5
1A5
102
{ACAD_REACTORS
330
1A4
102
}
330
1A4
100
AcDbXrecord
280
     1
102
RTVSPropertyOp0
 70
     1
102
RTVSPropertyOp1
 70
     1
102
RTVSPropertyOp2
 70
     1
102
RTVSPropertyOp3
 70
     1
102
RTVSPropertyOp4
 70
     1
102
RTVSPropertyOp5
 70
     1
102
RTVSPropertyOp6
 70
     1
102
RTVSPropertyOp7
 70
     1
102
RTVSPropertyOp8
 70
     1
102
RTVSPropertyOp9
 70
     1
102
RTVSPropertyOp10
 70
     1
102
RTVSPropertyOp11
 70
     1
102
RTVSPropertyOp12
 70
     1
102
RTVSPropertyOp13
 70
     1
102
RTVSPropertyOp14
 70
     1
102
RTVSPropertyOp15
 70
     1
102
RTVSPropertyOp16
 70
     1
102
RTVSPropertyOp17
 70
     1
102
RTVSPropertyOp18
 70
     1
102
RTVSPropertyOp19
 70
     1
102
RTVSPropertyOp20
 70
     1
102
RTVSPropertyOp21
 70
     1
102
RTVSPropertyOp22
 70
     1
102
RTVSPropertyOp23
 70
     1
102
RTVSPropertyOp24
 70
     1
102
RTVSPropertyOp25
 70
     1
102
RTVSPropertyOp26
 70
     1
102
RTVSPropertyOp27
 70
     1
102
RTVSPropertyOp28
 70
     1
102
RTVSPropertyOp29
 70
     1
102
RTVSPropertyOp30
 70
     1
102
RTVSPropertyOp31
 70
     1
102
RTVSPropertyOp32
 70
     1
  0
XRECORD
  5
189
102
{ACAD_REACTORS
330
188
102
}
330
188
100
AcDbXrecord
280
     1
102
RTVSPropertyOp0
 70
     1
102
RTVSPropertyOp1
 70
     1
102
RTVSPropertyOp2
 70
     1
102
RTVSPropertyOp3
 70
     1
102
RTVSPropertyOp4
 70
     1
102
RTVSPropertyOp5
 70
     1
102
RTVSPropertyOp6
 70
     1
102
RTVSPropertyOp7
 70
     1
102
RTVSPropertyOp8
 70
     1
102
RTVSPropertyOp9
 70
     1
102
RTVSPropertyOp10
 70
     1
102
RTVSPropertyOp11
 70
     1
102
RTVSPropertyOp12
 70
     1
102
RTVSPropertyOp13
 70
     1
102
RTVSPropertyOp14
 70
     1
102
RTVSPropertyOp15
 70
     1
102
RTVSPropertyOp16
 70
     1
102
RTVSPropertyOp17
 70
     1
102
RTVSPropertyOp18
 70
     1
102
RTVSPropertyOp19
 70
     1
102
RTVSPropertyOp20
 70
     1
102
RTVSPropertyOp21
 70
     1
102
RTVSPropertyOp22
 70
     1
102
RTVSPropertyOp23
 70
     1
102
RTVSPropertyOp24
 70
     1
102
RTVSPropertyOp25
 70
     1
102
RTVSPropertyOp26
 70
     1
102
RTVSPropertyOp27
 70
     1
102
RTVSPropertyOp28
 70
     1
102
RTVSPropertyOp29
 70
     1
102
RTVSPropertyOp30
 70
     1
102
RTVSPropertyOp31
 70
     1
102
RTVSPropertyOp32
 70
     1
  0
XRECORD
  5
18B
102
{ACAD_REACTORS
330
18A
102
}
330
18A
100
AcDbXrecord
280
     1
102
RTVSPropertyOp0
 70
     1
102
RTVSPropertyOp1
 70
     1
102
RTVSPropertyOp2
 70
     1
102
RTVSPropertyOp3
 70
     1
102
RTVSPropertyOp4
 70
     1
102
RTVSPropertyOp5
 70
     1
102
RTVSPropertyOp6
 70
     1
102
RTVSPropertyOp7
 70
     1
102
RTVSPropertyOp8
 70
     1
102
RTVSPropertyOp9
 70
     1
102
RTVSPropertyOp10
 70
     1
102
RTVSPropertyOp11
 70
     1
102
RTVSPropertyOp12
 70
     1
102
RTVSPropertyOp13
 70
     1
102
RTVSPropertyOp14
 70
     1
102
RTVSPropertyOp15
 70
     1
102
RTVSPropertyOp16
 70
     1
102
RTVSPropertyOp17
 70
     1
102
RTVSPropertyOp18
 70
     1
102
RTVSPropertyOp19
 70
     1
102
RTVSPropertyOp20
 70
     1
102
RTVSPropertyOp21
 70
     1
102
RTVSPropertyOp22
 70
     1
102
RTVSPropertyOp23
 70
     1
102
RTVSPropertyOp24
 70
     1
102
RTVSPropertyOp25
 70
     1
102
RTVSPropertyOp26
 70
     1
102
RTVSPropertyOp27
 70
     1
102
RTVSPropertyOp28
 70
     1
102
RTVSPropertyOp29
 70
     1
102
RTVSPropertyOp30
 70
     1
102
RTVSPropertyOp31
 70
     1
102
RTVSPropertyOp32
 70
     1
  0
XRECORD
  5
18D
102
{ACAD_REACTORS
330
18C
102
}
330
18C
100
AcDbXrecord
280
     1
102
RTVSPropertyOp0
 70
     1
102
RTVSPropertyOp1
 70
     1
102
RTVSPropertyOp2
 70
     1
102
RTVSPropertyOp3
 70
     1
102
RTVSPropertyOp4
 70
     1
102
RTVSPropertyOp5
 70
     1
102
RTVSPropertyOp6
 70
     1
102
RTVSPropertyOp7
 70
     1
102
RTVSPropertyOp8
 70
     1
102
RTVSPropertyOp9
 70
     1
102
RTVSPropertyOp10
 70
     1
102
RTVSPropertyOp11
 70
     1
102
RTVSPropertyOp12
 70
     1
102
RTVSPropertyOp13
 70
     1
102
RTVSPropertyOp14
 70
     1
102
RTVSPropertyOp15
 70
     1
102
RTVSPropertyOp16
 70
     1
102
RTVSPropertyOp17
 70
     1
102
RTVSPropertyOp18
 70
     1
102
RTVSPropertyOp19
 70
     1
102
RTVSPropertyOp20
 70
     1
102
RTVSPropertyOp21
 70
     1
102
RTVSPropertyOp22
 70
     1
102
RTVSPropertyOp23
 70
     1
102
RTVSPropertyOp24
 70
     1
102
RTVSPropertyOp25
 70
     1
102
RTVSPropertyOp26
 70
     1
102
RTVSPropertyOp27
 70
     1
102
RTVSPropertyOp28
 70
     1
102
RTVSPropertyOp29
 70
     1
102
RTVSPropertyOp30
 70
     1
102
RTVSPropertyOp31
 70
     1
102
RTVSPropertyOp32
 70
     1
  0
XRECORD
  5
18F
102
{ACAD_REACTORS
330
18E
102
}
330
18E
100
AcDbXrecord
280
     1
102
RTVSPropertyOp0
 70
     1
102
RTVSPropertyOp1
 70
     1
102
RTVSPropertyOp2
 70
     1
102
RTVSPropertyOp3
 70
     1
102
RTVSPropertyOp4
 70
     1
102
RTVSPropertyOp5
 70
     1
102
RTVSPropertyOp6
 70
     1
102
RTVSPropertyOp7
 70
     1
102
RTVSPropertyOp8
 70
     1
102
RTVSPropertyOp9
 70
     1
102
RTVSPropertyOp10
 70
     1
102
RTVSPropertyOp11
 70
     1
102
RTVSPropertyOp12
 70
     1
102
RTVSPropertyOp13
 70
     1
102
RTVSPropertyOp14
 70
     1
102
RTVSPropertyOp15
 70
     1
102
RTVSPropertyOp16
 70
     1
102
RTVSPropertyOp17
 70
     1
102
RTVSPropertyOp18
 70
     1
102
RTVSPropertyOp19
 70
     1
102
RTVSPropertyOp20
 70
     1
102
RTVSPropertyOp21
 70
     1
102
RTVSPropertyOp22
 70
     1
102
RTVSPropertyOp23
 70
     1
102
RTVSPropertyOp24
 70
     1
102
RTVSPropertyOp25
 70
     1
102
RTVSPropertyOp26
 70
     1
102
RTVSPropertyOp27
 70
     1
102
RTVSPropertyOp28
 70
     1
102
RTVSPropertyOp29
 70
     1
102
RTVSPropertyOp30
 70
     1
102
RTVSPropertyOp31
 70
     1
102
RTVSPropertyOp32
 70
     1
  0
XRECORD
  5
1A3
102
{ACAD_REACTORS
330
1A2
102
}
330
1A2
100
AcDbXrecord
280
     1
102
RTVSPropertyOp0
 70
     1
102
RTVSPropertyOp1
 70
     1
102
RTVSPropertyOp2
 70
     1
102
RTVSPropertyOp3
 70
     1
102
RTVSPropertyOp4
 70
     1
102
RTVSPropertyOp5
 70
     1
102
RTVSPropertyOp6
 70
     1
102
RTVSPropertyOp7
 70
     1
102
RTVSPropertyOp8
 70
     1
102
RTVSPropertyOp9
 70
     1
102
RTVSPropertyOp10
 70
     1
102
RTVSPropertyOp11
 70
     1
102
RTVSPropertyOp12
 70
     1
102
RTVSPropertyOp13
 70
     1
102
RTVSPropertyOp14
 70
     1
102
RTVSPropertyOp15
 70
     1
102
RTVSPropertyOp16
 70
     1
102
RTVSPropertyOp17
 70
     1
102
RTVSPropertyOp18
 70
     1
102
RTVSPropertyOp19
 70
     1
102
RTVSPropertyOp20
 70
     1
102
RTVSPropertyOp21
 70
     1
102
RTVSPropertyOp22
 70
     1
102
RTVSPropertyOp23
 70
     1
102
RTVSPropertyOp24
 70
     1
102
RTVSPropertyOp25
 70
     1
102
RTVSPropertyOp26
 70
     1
102
RTVSPropertyOp27
 70
     1
102
RTVSPropertyOp28
 70
     1
102
RTVSPropertyOp29
 70
     1
102
RTVSPropertyOp30
 70
     1
102
RTVSPropertyOp31
 70
     1
102
RTVSPropertyOp32
 70
     1
  0
XRECORD
  5
199
102
{ACAD_REACTORS
330
198
102
}
330
198
100
AcDbXrecord
280
     1
102
RTVSPropertyOp0
 70
     1
102
RTVSPropertyOp1
 70
     1
102
RTVSPropertyOp2
 70
     1
102
RTVSPropertyOp3
 70
     1
102
RTVSPropertyOp4
 70
     1
102
RTVSPropertyOp5
 70
     1
102
RTVSPropertyOp6
 70
     1
102
RTVSPropertyOp7
 70
     1
102
RTVSPropertyOp8
 70
     1
102
RTVSPropertyOp9
 70
     1
102
RTVSPropertyOp10
 70
     1
102
RTVSPropertyOp11
 70
     1
102
RTVSPropertyOp12
 70
     1
102
RTVSPropertyOp13
 70
     1
102
RTVSPropertyOp14
 70
     1
102
RTVSPropertyOp15
 70
     1
102
RTVSPropertyOp16
 70
     1
102
RTVSPropertyOp17
 70
     1
102
RTVSPropertyOp18
 70
     1
102
RTVSPropertyOp19
 70
     1
102
RTVSPropertyOp20
 70
     1
102
RTVSPropertyOp21
 70
     1
102
RTVSPropertyOp22
 70
     1
102
RTVSPropertyOp23
 70
     1
102
RTVSPropertyOp24
 70
     1
102
RTVSPropertyOp25
 70
     1
102
RTVSPropertyOp26
 70
     1
102
RTVSPropertyOp27
 70
     1
102
RTVSPropertyOp28
 70
     1
102
RTVSPropertyOp29
 70
     1
102
RTVSPropertyOp30
 70
     1
102
RTVSPropertyOp31
 70
     1
102
RTVSPropertyOp32
 70
     1
  0
XRECORD
  5
1A1
102
{ACAD_REACTORS
330
1A0
102
}
330
1A0
100
AcDbXrecord
280
     1
102
RTVSPropertyOp0
 70
     1
102
RTVSPropertyOp1
 70
     1
102
RTVSPropertyOp2
 70
     1
102
RTVSPropertyOp3
 70
     1
102
RTVSPropertyOp4
 70
     1
102
RTVSPropertyOp5
 70
     1
102
RTVSPropertyOp6
 70
     1
102
RTVSPropertyOp7
 70
     1
102
RTVSPropertyOp8
 70
     1
102
RTVSPropertyOp9
 70
     1
102
RTVSPropertyOp10
 70
     1
102
RTVSPropertyOp11
 70
     1
102
RTVSPropertyOp12
 70
     1
102
RTVSPropertyOp13
 70
     1
102
RTVSPropertyOp14
 70
     1
102
RTVSPropertyOp15
 70
     1
102
RTVSPropertyOp16
 70
     1
102
RTVSPropertyOp17
 70
     1
102
RTVSPropertyOp18
 70
     1
102
RTVSPropertyOp19
 70
     1
102
RTVSPropertyOp20
 70
     1
102
RTVSPropertyOp21
 70
     1
102
RTVSPropertyOp22
 70
     1
102
RTVSPropertyOp23
 70
     1
102
RTVSPropertyOp24
 70
     1
102
RTVSPropertyOp25
 70
     1
102
RTVSPropertyOp26
 70
     1
102
RTVSPropertyOp27
 70
     1
102
RTVSPropertyOp28
 70
     1
102
RTVSPropertyOp29
 70
     1
102
RTVSPropertyOp30
 70
     1
102
RTVSPropertyOp31
 70
     1
102
RTVSPropertyOp32
 70
     1
  0
ENDSEC
  0
EOF
