  0
SECTION
  2
HEADER
  9
$ACADVER
  1
AC1015
  9
$ACADMAINTVER
 70
     6
  9
$DWGCODEPAGE
  3
ANSI_1252
  9
$INSBASE
 10
0.0
 20
0.0
 30
0.0
  9
$EXTMIN
 10
0.0
 20
0.0
 30
0.0
  9
$EXTMAX
 10
210.0
 20
297.0
 30
0.0
  9
$LIMMIN
 10
0.0
 20
0.0
  9
$LIMMAX
 10
210.0
 20
297.0
  9
$ORTHOMODE
 70
     0
  9
$REGENMODE
 70
     1
  9
$FILLMODE
 70
     1
  9
$QTEXTMODE
 70
     0
  9
$MIRRTEXT
 70
     1
  9
$LTSCALE
 40
1.0
  9
$ATTMODE
 70
     1
  9
$TEXTSIZE
 40
2.5
  9
$TRACEWID
 40
1.0
  9
$TEXTSTYLE
  7
Standard
  9
$CLAYER
  8
0
  9
$CELTYPE
  6
ByLayer
  9
$CECOLOR
 62
   256
  9
$CELTSCALE
 40
1.0
  9
$DISPSILH
 70
     0
  9
$DIMSCALE
 40
1.0
  9
$DIMASZ
 40
2.5
  9
$DIMEXO
 40
0.625
  9
$DIMDLI
 40
3.75
  9
$DIMRND
 40
0.0
  9
$DIMDLE
 40
0.0
  9
$DIMEXE
 40
1.25
  9
$DIMTP
 40
0.0
  9
$DIMTM
 40
0.0
  9
$DIMTXT
 40
2.5
  9
$DIMCEN
 40
2.5
  9
$DIMTSZ
 40
0.0
  9
$DIMTOL
 70
     0
  9
$DIMLIM
 70
     0
  9
$DIMTIH
 70
     0
  9
$DIMTOH
 70
     0
  9
$DIMSE1
 70
     0
  9
$DIMSE2
 70
     0
  9
$DIMTAD
 70
     1
  9
$DIMZIN
 70
     8
  9
$DIMBLK
  1

  9
$DIMASO
 70
     1
  9
$DIMSHO
 70
     1
  9
$DIMPOST
  1

  9
$DIMAPOST
  1

  9
$DIMALT
 70
     0
  9
$DIMALTD
 70
     3
  9
$DIMALTF
 40
0.0393700787
  9
$DIMLFAC
 40
1.0
  9
$DIMTOFL
 70
     1
  9
$DIMTVP
 40
0.0
  9
$DIMTIX
 70
     0
  9
$DIMSOXD
 70
     0
  9
$DIMSAH
 70
     0
  9
$DIMBLK1
  1

  9
$DIMBLK2
  1

  9
$DIMSTYLE
  2
ISO-25
  9
$DIMCLRD
 70
     0
  9
$DIMCLRE
 70
     0
  9
$DIMCLRT
 70
     0
  9
$DIMTFAC
 40
1.0
  9
$DIMGAP
 40
0.625
  9
$DIMJUST
 70
     0
  9
$DIMSD1
 70
     0
  9
$DIMSD2
 70
     0
  9
$DIMTOLJ
 70
     0
  9
$DIMTZIN
 70
     8
  9
$DIMALTZ
 70
     0
  9
$DIMALTTZ
 70
     0
  9
$DIMUPT
 70
     0
  9
$DIMDEC
 70
     2
  9
$DIMTDEC
 70
     2
  9
$DIMALTU
 70
     2
  9
$DIMALTTD
 70
     3
  9
$DIMTXSTY
  7
Standard
  9
$DIMAUNIT
 70
     0
  9
$DIMADEC
 70
     0
  9
$DIMALTRND
 40
0.0
  9
$DIMAZIN
 70
     0
  9
$DIMDSEP
 70
    44
  9
$DIMATFIT
 70
     3
  9
$DIMFRAC
 70
     0
  9
$DIMLDRBLK
  1

  9
$DIMLUNIT
 70
     2
  9
$DIMLWD
 70
    -2
  9
$DIMLWE
 70
    -2
  9
$DIMTMOVE
 70
     0
  9
$LUNITS
 70
     2
  9
$LUPREC
 70
     4
  9
$SKETCHINC
 40
1.0
  9
$FILLETRAD
 40
10.0
  9
$AUNITS
 70
     0
  9
$AUPREC
 70
     0
  9
$MENU
  1
.
  9
$ELEVATION
 40
0.0
  9
$PELEVATION
 40
0.0
  9
$THICKNESS
 40
0.0
  9
$LIMCHECK
 70
     0
  9
$CHAMFERA
 40
10.0
  9
$CHAMFERB
 40
10.0
  9
$CHAMFERC
 40
20.0
  9
$CHAMFERD
 40
0.0
  9
$SKPOLY
 70
     0
  9
$TDCREATE
 40
2457564.420739201
  9
$TDUCREATE
 40
2457564.337405868
  9
$TDUPDATE
 40
2457564.420741516
  9
$TDUUPDATE
 40
2457564.337408183
  9
$TDINDWG
 40
0.0000000116
  9
$TDUSRTIMER
 40
0.0000000116
  9
$USRTIMER
 70
     1
  9
$ANGBASE
 50
0.0
  9
$ANGDIR
 70
     0
  9
$PDMODE
 70
     0
  9
$PDSIZE
 40
0.0
  9
$PLINEWID
 40
0.0
  9
$SPLFRAME
 70
     0
  9
$SPLINETYPE
 70
     6
  9
$SPLINESEGS
 70
     8
  9
$HANDSEED
  5
1AE
  9
$SURFTAB1
 70
     6
  9
$SURFTAB2
 70
     6
  9
$SURFTYPE
 70
     6
  9
$SURFU
 70
     6
  9
$SURFV
 70
     6
  9
$UCSBASE
  2

  9
$UCSNAME
  2

  9
$UCSORG
 10
0.0
 20
0.0
 30
0.0
  9
$UCSXDIR
 10
1.0
 20
0.0
 30
0.0
  9
$UCSYDIR
 10
0.0
 20
1.0
 30
0.0
  9
$UCSORTHOREF
  2

  9
$UCSORTHOVIEW
 70
     0
  9
$UCSORGTOP
 10
0.0
 20
0.0
 30
0.0
  9
$UCSORGBOTTOM
 10
0.0
 20
0.0
 30
0.0
  9
$UCSORGLEFT
 10
0.0
 20
0.0
 30
0.0
  9
$UCSORGRIGHT
 10
0.0
 20
0.0
 30
0.0
  9
$UCSORGFRONT
 10
0.0
 20
0.0
 30
0.0
  9
$UCSORGBACK
 10
0.0
 20
0.0
 30
0.0
  9
$PUCSBASE
  2

  9
$PUCSNAME
  2

  9
$PUCSORG
 10
0.0
 20
0.0
 30
0.0
  9
$PUCSXDIR
 10
1.0
 20
0.0
 30
0.0
  9
$PUCSYDIR
 10
0.0
 20
1.0
 30
0.0
  9
$PUCSORTHOREF
  2

  9
$PUCSORTHOVIEW
 70
     0
  9
$PUCSORGTOP
 10
0.0
 20
0.0
 30
0.0
  9
$PUCSORGBOTTOM
 10
0.0
 20
0.0
 30
0.0
  9
$PUCSORGLEFT
 10
0.0
 20
0.0
 30
0.0
  9
$PUCSORGRIGHT
 10
0.0
 20
0.0
 30
0.0
  9
$PUCSORGFRONT
 10
0.0
 20
0.0
 30
0.0
  9
$PUCSORGBACK
 10
0.0
 20
0.0
 30
0.0
  9
$USERI1
 70
     0
  9
$USERI2
 70
     0
  9
$USERI3
 70
     0
  9
$USERI4
 70
     0
  9
$USERI5
 70
     0
  9
$USERR1
 40
0.0
  9
$USERR2
 40
0.0
  9
$USERR3
 40
0.0
  9
$USERR4
 40
0.0
  9
$USERR5
 40
0.0
  9
$WORLDVIEW
 70
     1
  9
$SHADEDGE
 70
     3
  9
$SHADEDIF
 70
    70
  9
$TILEMODE
 70
     1
  9
$MAXACTVP
 70
    64
  9
$PINSBASE
 10
0.0
 20
0.0
 30
0.0
  9
$PLIMCHECK
 70
     0
  9
$PEXTMIN
 10
0.0
 20
0.0
 30
0.0
  9
$PEXTMAX
 10
210.0
 20
297.0
 30
0.0
  9
$PLIMMIN
 10
0.0
 20
0.0
  9
$PLIMMAX
 10
210.0
 20
297.0
  9
$UNITMODE
 70
     0
  9
$VISRETAIN
 70
     1
  9
$PLINEGEN
 70
     0
  9
$PSLTSCALE
 70
     1
  9
$TREEDEPTH
 70
  3020
  9
$CMLSTYLE
  2
Standard
  9
$CMLJUST
 70
     0
  9
$CMLSCALE
 40
20.0
  9
$PROXYGRAPHICS
 70
     1
  9
$MEASUREMENT
 70
     1
  9
$CELWEIGHT
370
    -1
  9
$ENDCAPS
280
     0
  9
$JOINSTYLE
280
     0
  9
$LWDISPLAY
290
     0
  9
$INSUNITS
 70
     4
  9
$HYPERLINKBASE
  1

  9
$STYLESHEET
  1

  9
$XEDIT
290
     1
  9
$CEPSNTYPE
380
     0
  9
$PSTYLEMODE
290
     1
  9
$FINGERPRINTGUID
  2
{EB3E64FF-EA6F-42ED-A3C9-8EC6DECC6AF2}
  9
$VERSIONGUID
  2
{FAEB1C32-E019-11D5-929B-00C0DF256EC4}
  9
$EXTNAMES
290
     1
  9
$PSVPSCALE
 40
0.0
  9
$OLESTARTUP
290
     0
  0
ENDSEC
  0
SECTION
  2
CLASSES
  0
CLASS
  1
ACDBDICTIONARYWDFLT
  2
AcDbDictionaryWithDefault
  3
ObjectDBX Classes
 90
        0
280
     0
281
     0
  0
CLASS
  1
VISUALSTYLE
  2
AcDbVisualStyle
  3
ObjectDBX Classes
 90
     4095
280
     0
281
     0
  0
CLASS
  1
MATERIAL
  2
AcDbMaterial
  3
ObjectDBX Classes
 90
     1153
280
     0
281
     0
  0
CLASS
  1
DICTIONARYVAR
  2
AcDbDictionaryVar
  3
ObjectDBX Classes
 90
        0
280
     0
281
     0
  0
CLASS
  1
ACDBPLACEHOLDER
  2
AcDbPlaceHolder
  3
ObjectDBX Classes
 90
        0
280
     0
281
     0
  0
CLASS
  1
LAYOUT
  2
AcDbLayout
  3
ObjectDBX Classes
 90
        0
280
     0
281
     0
  0
ENDSEC
  0
SECTION
  2
TABLES
  0
TABLE
  2
VPORT
  5
8
330
0
100
AcDbSymbolTable
 70
     1
  0
VPORT
  5
29
330
8
100
AcDbSymbolTableRecord
100
AcDbViewportTableRecord
  2
*Active
 70
     0
 10
0.0
 20
0.0
 11
1.0
 21
1.0
 12
344.1869158879
 22
148.5
 13
0.0
 23
0.0
 14
10.0
 24
10.0
 15
10.0
 25
10.0
 16
0.0
 26
0.0
 36
1.0
 17
0.0
 27
0.0
 37
0.0
 40
297.0
 41
1.9729729729
 42
50.0
 43
0.0
 44
0.0
 50
0.0
 51
0.0
 71
     0
 72
   100
 73
     1
 74
     3
 75
     0
 76
     0
 77
     0
 78
     0
281
     0
 65
     1
110
0.0
120
0.0
130
0.0
111
1.0
121
0.0
131
0.0
112
0.0
122
1.0
132
0.0
 79
     0
146
0.0
  0
ENDTAB
  0
TABLE
  2
LTYPE
  5
5
330
0
100
AcDbSymbolTable
 70
     2
  0
LTYPE
  5
14
330
5
100
AcDbSymbolTableRecord
100
AcDbLinetypeTableRecord
  2
ByBlock
 70
     0
  3

 72
    65
 73
     0
 40
0.0
  0
LTYPE
  5
15
330
5
100
AcDbSymbolTableRecord
100
AcDbLinetypeTableRecord
  2
ByLayer
 70
     0
  3

 72
    65
 73
     0
 40
0.0
  0
LTYPE
  5
16
330
5
100
AcDbSymbolTableRecord
100
AcDbLinetypeTableRecord
  2
Continuous
 70
     0
  3
Solid line
 72
    65
 73
     0
 40
0.0
  0
LTYPE
  5
55
330
5
100
AcDbSymbolTableRecord
100
AcDbLinetypeTableRecord
  2
HIDDEN2
 70
     0
  3
Hidden (.5x) _ _ _ _ _ _ _ _ _ _ _ _ _ _ _ _ _ 
 72
    65
 73
     2
 40
4.7625
 49
3.175
 74
     4
 75
     0
340
0
 46
0.0
 50
0.0
 44
0.0
 45
0.0
 49
-1.5875
 74
     4
 75
     0
340
0
 46
0.0
 50
0.0
 44
0.0
 45
0.0
  0
ENDTAB
  0
TABLE
  2
LAYER
  5
2
330
0
100
AcDbSymbolTable
 70
     5
  0
LAYER
  5
10
330
2
100
AcDbSymbolTableRecord
100
AcDbLayerTableRecord
  2
0
 70
     0
 62
     7
  6
Continuous
370
    -3
390
F
  0
LAYER
  5
3F
330
2
100
AcDbSymbolTableRecord
100
AcDbLayerTableRecord
  2
SK1
 70
     0
 62
     4
  6
Continuous
370
    18
390
F
  0
LAYER
  5
54
330
2
100
AcDbSymbolTableRecord
100
AcDbLayerTableRecord
  2
SK3
 70
     0
 62
     1
  6
HIDDEN2
370
    15
390
F
  0
LAYER
  5
12A
330
2
100
AcDbSymbolTableRecord
100
AcDbLayerTableRecord
  2
SK4
 70
     0
 62
     2
  6
Continuous
370
    13
390
F
  0
LAYER
  5
12C
330
2
100
AcDbSymbolTableRecord
100
AcDbLayerTableRecord
  2
SK2
 70
     0
 62
     7
  6
Continuous
370
    15
390
F
  0
ENDTAB
  0
TABLE
  2
STYLE
  5
3
330
0
100
AcDbSymbolTable
 70
     2
  0
STYLE
  5
11
330
3
100
AcDbSymbolTableRecord
100
AcDbTextStyleTableRecord
  2
Standard
 70
     0
 40
0.0
 41
1.0
 50
0.0
 71
     0
 42
2.5
  3
txt
  4

  0
STYLE
  5
13F
330
3
100
AcDbSymbolTableRecord
100
AcDbTextStyleTableRecord
  2
SEACAD_Solid_Edge_ISO
 70
     0
 40
0.0
 41
1.0
 50
0.0
 71
     0
 42
0.2
  3
seiso.ttf
  4

1001
ACAD
1000
Solid Edge ISO
1071
        0
  0
ENDTAB
  0
TABLE
  2
VIEW
  5
6
330
0
100
AcDbSymbolTable
 70
     0
  0
ENDTAB
  0
TABLE
  2
UCS
  5
7
330
0
100
AcDbSymbolTable
 70
     0
  0
ENDTAB
  0
TABLE
  2
APPID
  5
9
330
0
100
AcDbSymbolTable
 70
     1
  0
APPID
  5
12
330
9
100
AcDbSymbolTableRecord
100
AcDbRegAppTableRecord
  2
ACAD
 70
     0
  0
ENDTAB
  0
TABLE
  2
DIMSTYLE
  5
A
330
0
100
AcDbSymbolTable
 70
     3
100
AcDbDimStyleTable
  0
DIMSTYLE
105
27
330
A
100
AcDbSymbolTableRecord
100
AcDbDimStyleTableRecord
  2
ISO-25
 70
     0
 41
2.5
 42
0.625
 43
3.75
 44
1.25
 73
     0
 74
     0
 77
     1
 78
     8
140
2.5
141
2.5
143
0.0393700787
147
0.625
171
     3
172
     1
178
     0
271
     2
272
     2
274
     3
278
    44
283
     0
284
     8
340
11
  0
DIMSTYLE
105
12D
330
A
100
AcDbSymbolTableRecord
100
AcDbDimStyleTableRecord
  2
Standard
 70
     0
178
     0
340
11
  0
DIMSTYLE
105
140
102
{ACAD_REACTORS
330
141
330
14B
330
156
330
160
102
}
330
A
100
AcDbSymbolTableRecord
100
AcDbDimStyleTableRecord
  2
DIN
 70
     0
 41
3.5
 42
0.0
 44
1.75
 73
     0
 74
     0
 77
     1
 78
     8
140
3.5
141
1.75
147
1.75
172
     1
173
     1
178
     0
179
     3
271
     2
272
     2
278
    44
284
     8
340
13F
343
13A
344
13A
  0
ENDTAB
  0
TABLE
  2
BLOCK_RECORD
  5
1
330
0
100
AcDbSymbolTable
 70
    10
  0
BLOCK_RECORD
  5
1F
330
1
100
AcDbSymbolTableRecord
100
AcDbBlockTableRecord
  2
*Model_Space
340
22
  0
BLOCK_RECORD
  5
1B
330
1
100
AcDbSymbolTableRecord
100
AcDbBlockTableRecord
  2
*Paper_Space
340
1E
  0
BLOCK_RECORD
  5
12E
330
1
100
AcDbSymbolTableRecord
100
AcDbBlockTableRecord
  2
_OBLIQUE
340
0
  0
BLOCK_RECORD
  5
132
330
1
100
AcDbSymbolTableRecord
100
AcDbBlockTableRecord
  2
_DOT
340
0
  0
BLOCK_RECORD
  5
13A
330
1
100
AcDbSymbolTableRecord
100
AcDbBlockTableRecord
  2
_SE_FILLED
340
0
  0
BLOCK_RECORD
  5
142
330
1
100
AcDbSymbolTableRecord
100
AcDbBlockTableRecord
  2
DMBLK111
340
0
  0
BLOCK_RECORD
  5
14C
330
1
100
AcDbSymbolTableRecord
100
AcDbBlockTableRecord
  2
DMBLK112
340
0
  0
BLOCK_RECORD
  5
157
330
1
100
AcDbSymbolTableRecord
100
AcDbBlockTableRecord
  2
DMBLK113
340
0
  0
BLOCK_RECORD
  5
161
330
1
100
AcDbSymbolTableRecord
100
AcDbBlockTableRecord
  2
DMBLK114
340
0
  0
BLOCK_RECORD
  5
16B
330
1
100
AcDbSymbolTableRecord
100
AcDbBlockTableRecord
  2
Nullpunkt
340
0
102
{BLKREFS
331
175
102
}
  0
BLOCK_RECORD
  5
176
330
1
100
AcDbSymbolTableRecord
100
AcDbBlockTableRecord
  2
Einfügepunkt
340
0
102
{BLKREFS
331
180
102
}
  0
ENDTAB
  0
ENDSEC
  0
SECTION
  2
BLOCKS
  0
BLOCK
  5
20
330
1F
100
AcDbEntity
  8
0
100
AcDbBlockBegin
  2
*Model_Space
 70
     0
 10
0.0
 20
0.0
 30
0.0
  3
*Model_Space
  1

  0
ENDBLK
  5
21
330
1F
100
AcDbEntity
  8
0
100
AcDbBlockEnd
  0
BLOCK
  5
1C
330
1B
100
AcDbEntity
 67
     1
  8
0
100
AcDbBlockBegin
  2
*Paper_Space
 70
     0
 10
0.0
 20
0.0
 30
0.0
  3
*Paper_Space
  1

  0
ENDBLK
  5
1D
330
1B
100
AcDbEntity
 67
     1
  8
0
100
AcDbBlockEnd
  0
BLOCK
  5
12F
330
12E
100
AcDbEntity
  8
0
100
AcDbBlockBegin
  2
_OBLIQUE
 70
     0
 10
0.0
 20
0.0
 30
0.0
  3
_OBLIQUE
  1

  0
LINE
  5
131
330
12E
100
AcDbEntity
  8
0
  6
ByBlock
 62
     0
370
    -2
100
AcDbLine
 10
-0.5
 20
-0.5
 30
0.0
 11
0.5
 21
0.5
 31
0.0
  0
ENDBLK
  5
130
330
12E
100
AcDbEntity
  8
0
100
AcDbBlockEnd
  0
BLOCK
  5
133
330
132
100
AcDbEntity
  8
0
100
AcDbBlockBegin
  2
_DOT
 70
     0
 10
0.0
 20
0.0
 30
0.0
  3
_DOT
  1

  0
POLYLINE
  5
135
330
132
100
AcDbEntity
  8
0
  6
ByBlock
 62
     0
100
AcDb2dPolyline
 66
     1
 10
0.0
 20
0.0
 30
0.0
 70
     1
 40
0.5
 41
0.5
  0
VERTEX
  5
137
330
135
100
AcDbEntity
  8
0
  6
ByBlock
 62
     0
100
AcDbVertex
100
AcDb2dVertex
 10
-0.25
 20
0.0
 30
0.0
 42
1.0
  0
VERTEX
  5
138
330
135
100
AcDbEntity
  8
0
  6
ByBlock
 62
     0
100
AcDbVertex
100
AcDb2dVertex
 10
0.25
 20
0.0
 30
0.0
 42
1.0
  0
SEQEND
  5
139
330
135
100
AcDbEntity
  8
0
  6
ByBlock
 62
     0
  0
LINE
  5
136
330
132
100
AcDbEntity
  8
0
  6
ByBlock
 62
     0
370
    -2
100
AcDbLine
 10
-0.5
 20
0.0
 30
0.0
 11
-1.0
 21
0.0
 31
0.0
  0
ENDBLK
  5
134
330
132
100
AcDbEntity
  8
0
100
AcDbBlockEnd
  0
BLOCK
  5
13D
330
13A
100
AcDbEntity
  8
0
100
AcDbBlockBegin
  2
_SE_FILLED
 70
     0
 10
0.0
 20
0.0
 30
0.0
  3
_SE_FILLED
  1

  0
SOLID
  5
13B
330
13A
100
AcDbEntity
  8
0
 62
     0
100
AcDbTrace
 10
0.0
 20
0.0
 30
0.0
 11
-1.0
 21
-0.1665
 31
0.0
 12
-1.0
 22
0.1665
 32
0.0
 13
0.0
 23
0.0
 33
0.0
  0
LINE
  5
13C
330
13A
100
AcDbEntity
  8
0
 62
     0
100
AcDbLine
 10
0.0
 20
0.0
 30
0.0
 11
-1.0
 21
0.0
 31
0.0
  0
ENDBLK
  5
13E
330
13A
100
AcDbEntity
  8
0
100
AcDbBlockEnd
  0
BLOCK
  5
149
330
142
100
AcDbEntity
  8
0
100
AcDbBlockBegin
  2
DMBLK111
 70
     0
 10
0.0
 20
0.0
 30
0.0
  3
DMBLK111
  1

  0
HATCH
  5
143
330
142
100
AcDbEntity
  8
SK2
  6
Continuous
 62
   136
100
AcDbHatch
 10
0.0
 20
0.0
 30
0.0
210
0.0
220
0.0
230
1.0
  2
SOLID
 70
     1
 71
     0
 91
        1
 92
        1
 93
        3
 72
     1
 10
-13.73811183758714
 20
15.67217820094376
 11
-17.23811194562055
 21
15.08884484960486
 72
     1
 10
-17.23811194562056
 20
15.08884484960486
 11
-13.73811183758714
 21
14.50551149826595
 72
     1
 10
-13.73811183758714
 20
14.50551149826595
 11
-13.73811183758714
 21
15.67217820094376
 97
        0
 75
     0
 76
     1
 98
        0
  0
HATCH
  5
144
330
142
100
AcDbEntity
  8
SK2
  6
Continuous
 62
   136
100
AcDbHatch
 10
0.0
 20
0.0
 30
0.0
210
0.0
220
0.0
230
1.0
  2
SOLID
 70
     1
 71
     0
 91
        1
 92
        1
 93
        3
 72
     1
 10
6.761887797334415
 20
15.67217820094376
 11
6.761887797334415
 21
14.50551149826595
 72
     1
 10
6.761887797334415
 20
14.50551149826595
 11
10.26188790536783
 21
15.08884484960486
 72
     1
 10
10.26188790536783
 20
15.08884484960486
 11
6.761887797334415
 21
15.67217820094376
 97
        0
 75
     0
 76
     1
 98
        0
  0
LINE
  5
145
330
142
100
AcDbEntity
  8
SK2
  6
Continuous
 62
   136
100
AcDbLine
 10
-17.2381119456
 20
3.602396502
 30
0.0
 11
-17.2381119456
 21
16.8388449036
 31
0.0
  0
LINE
  5
146
330
142
100
AcDbEntity
  8
SK2
  6
Continuous
 62
   136
100
AcDbLine
 10
10.2618880544
 20
5.5799563286
 30
0.0
 11
10.2618880544
 21
16.8388449036
 31
0.0
  0
LINE
  5
147
330
142
100
AcDbEntity
  8
SK2
  6
Continuous
 62
   136
100
AcDbLine
 10
-17.2381119456
 20
15.0888448496
 30
0.0
 11
10.2618879054
 21
15.0888448496
 31
0.0
  0
TEXT
  5
148
330
142
100
AcDbEntity
  8
SK2
  6
Continuous
 62
   136
100
AcDbText
 10
-6.9881120201
 20
15.9638448496
 30
0.0
 40
3.5
  1
27,5
  7
SEACAD_Solid_Edge_ISO
 11
-6.9881120201
 21
19.4638448496
 31
0.0
100
AcDbText
 73
     3
  0
ENDBLK
  5
14A
330
142
100
AcDbEntity
  8
0
100
AcDbBlockEnd
  0
BLOCK
  5
154
330
14C
100
AcDbEntity
  8
0
100
AcDbBlockBegin
  2
DMBLK112
 70
     0
 10
0.0
 20
0.0
 30
0.0
  3
DMBLK112
  1

  0
HATCH
  5
14D
330
14C
100
AcDbEntity
  8
SK2
  6
Continuous
 62
   136
100
AcDbHatch
 10
0.0
 20
0.0
 30
0.0
210
0.0
220
0.0
230
1.0
  2
SOLID
 70
     1
 71
     0
 91
        1
 92
        1
 93
        3
 72
     1
 10
20.30528810271989
 20
-7.500000108033427
 11
19.72195475138098
 21
-4.000000000000008
 72
     1
 10
19.72195475138098
 20
-4.000000000000008
 11
19.13862140004208
 21
-7.500000108033427
 72
     1
 10
19.13862140004208
 20
-7.500000108033427
 11
20.30528810271989
 21
-7.500000108033427
 97
        0
 75
     0
 76
     1
 98
        0
  0
HATCH
  5
14E
330
14C
100
AcDbEntity
  8
SK2
  6
Continuous
 62
   136
100
AcDbHatch
 10
0.0
 20
0.0
 30
0.0
210
0.0
220
0.0
230
1.0
  2
SOLID
 70
     1
 71
     0
 91
        1
 92
        1
 93
        3
 72
     1
 10
20.30528810271989
 20
7.500000108033421
 11
19.13862140004208
 21
7.500000108033421
 72
     1
 10
19.13862140004208
 20
7.500000108033421
 11
19.72195475138098
 21
4.000000000000003
 72
     1
 10
19.72195475138098
 20
4.000000000000003
 11
20.30528810271989
 21
7.500000108033421
 97
        0
 75
     0
 76
     1
 98
        0
  0
LINE
  5
14F
330
14C
100
AcDbEntity
  8
SK2
  6
Continuous
 62
   136
100
AcDbLine
 10
9.8618880544
 20
-4.0
 30
0.0
 11
21.4719548054
 21
-4.0
 31
0.0
  0
LINE
  5
150
330
14C
100
AcDbEntity
  8
SK2
  6
Continuous
 62
   136
100
AcDbLine
 10
9.4924601309
 20
4.0
 30
0.0
 11
21.4719548054
 21
4.0
 31
0.0
  0
LINE
  5
151
330
14C
100
AcDbEntity
  8
SK2
  6
Continuous
 62
   136
100
AcDbLine
 10
19.7219547514
 20
-11.0000002161
 30
0.0
 11
19.7219547514
 21
18.7499995381
 31
0.0
  0
TEXT
  5
152
330
14C
100
AcDbEntity
  8
SK2
  6
Continuous
 62
   136
100
AcDbText
 10
18.8469547514
 20
15.2977277049
 30
0.0
 40
3.5
  1
8
 50
90.0
  7
SEACAD_Solid_Edge_ISO
 11
15.3469547514
 21
15.2977277049
 31
0.0
100
AcDbText
 73
     3
  0
TEXT
  5
153
330
14C
100
AcDbEntity
  8
SK2
  6
Continuous
 62
   136
100
AcDbText
 10
18.8469547514
 20
11.2250004321
 30
0.0
 40
3.5
  1
ø
 50
90.0
  7
SEACAD_Solid_Edge_ISO
 11
15.3469547514
 21
11.2250004321
 31
0.0
100
AcDbText
 73
     3
  0
ENDBLK
  5
155
330
14C
100
AcDbEntity
  8
0
100
AcDbBlockEnd
  0
BLOCK
  5
15E
330
157
100
AcDbEntity
  8
0
100
AcDbBlockBegin
  2
DMBLK113
 70
     0
 10
0.0
 20
0.0
 30
0.0
  3
DMBLK113
  1

  0
HATCH
  5
158
330
157
100
AcDbEntity
  8
SK2
  6
Continuous
 62
   136
100
AcDbHatch
 10
0.0
 20
0.0
 30
0.0
210
0.0
220
0.0
230
1.0
  2
SOLID
 70
     1
 71
     0
 91
        1
 92
        1
 93
        3
 72
     1
 10
-3.500000108033418
 20
-17.59176024011975
 11
0.0000000000000009
 21
-17.00842688878085
 72
     1
 10
0.0000000000000009
 20
-17.00842688878085
 11
-3.500000108033418
 21
-16.42509353744195
 72
     1
 10
-3.500000108033418
 20
-16.42509353744195
 11
-3.500000108033418
 21
-17.59176024011975
 97
        0
 75
     0
 76
     1
 98
        0
  0
HATCH
  5
159
330
157
100
AcDbEntity
  8
SK2
  6
Continuous
 62
   136
100
AcDbHatch
 10
0.0
 20
0.0
 30
0.0
210
0.0
220
0.0
230
1.0
  2
SOLID
 70
     1
 71
     0
 91
        1
 92
        1
 93
        3
 72
     1
 10
13.76188816241294
 20
-17.59176024011975
 11
13.76188816241294
 21
-16.42509353744195
 72
     1
 10
13.76188816241294
 20
-16.42509353744195
 11
10.26188805437953
 21
-17.00842688878085
 72
     1
 10
10.26188805437953
 20
-17.00842688878085
 11
13.76188816241294
 21
-17.59176024011975
 97
        0
 75
     0
 76
     1
 98
        0
  0
LINE
  5
15A
330
157
100
AcDbEntity
  8
SK2
  6
Continuous
 62
   136
100
AcDbLine
 10
0.0
 20
-7.9994092797
 30
0.0
 11
0.0
 21
-18.7584269428
 31
0.0
  0
LINE
  5
15B
330
157
100
AcDbEntity
  8
SK2
  6
Continuous
 62
   136
100
AcDbLine
 10
10.2618880544
 20
-5.5799563286
 30
0.0
 11
10.2618880544
 21
-18.7584269428
 31
0.0
  0
LINE
  5
15C
330
157
100
AcDbEntity
  8
SK2
  6
Continuous
 62
   136
100
AcDbLine
 10
-7.0000002161
 20
-17.0084268888
 30
0.0
 11
17.2618888319
 21
-17.0084268888
 31
0.0
  0
TEXT
  5
15D
330
157
100
AcDbEntity
  8
SK2
  6
Continuous
 62
   136
100
AcDbText
 10
0.9150347513
 20
-16.1334268888
 30
0.0
 40
3.5
  1
10,26
  7
SEACAD_Solid_Edge_ISO
 11
0.9150347513
 21
-12.6334268888
 31
0.0
100
AcDbText
 73
     3
  0
ENDBLK
  5
15F
330
157
100
AcDbEntity
  8
0
100
AcDbBlockEnd
  0
BLOCK
  5
169
330
161
100
AcDbEntity
  8
0
100
AcDbBlockBegin
  2
DMBLK114
 70
     0
 10
0.0
 20
0.0
 30
0.0
  3
DMBLK114
  1

  0
HATCH
  5
162
330
161
100
AcDbEntity
  8
SK2
  6
Continuous
 62
   136
100
AcDbHatch
 10
0.0
 20
0.0
 30
0.0
210
0.0
220
0.0
230
1.0
  2
SOLID
 70
     1
 71
     0
 91
        1
 92
        1
 93
        3
 72
     1
 10
-23.20330349418024
 20
4.499409171687615
 11
-22.03663679150243
 21
4.499409171687615
 72
     1
 10
-22.03663679150243
 20
4.499409171687615
 11
-22.61997014284134
 21
7.999409279721034
 72
     1
 10
-22.61997014284134
 20
7.999409279721034
 11
-23.20330349418024
 21
4.499409171687615
 97
        0
 75
     0
 76
     1
 98
        0
  0
HATCH
  5
163
330
161
100
AcDbEntity
  8
SK2
  6
Continuous
 62
   136
100
AcDbHatch
 10
0.0
 20
0.0
 30
0.0
210
0.0
220
0.0
230
1.0
  2
SOLID
 70
     1
 71
     0
 91
        1
 92
        1
 93
        3
 72
     1
 10
-23.20330349418024
 20
-4.499408592535007
 11
-22.61997014284134
 21
-7.999408700568425
 72
     1
 10
-22.61997014284134
 20
-7.999408700568425
 11
-22.03663679150243
 21
-4.499408592535007
 72
     1
 10
-22.03663679150243
 20
-4.499408592535007
 11
-23.20330349418024
 21
-4.499408592535007
 97
        0
 75
     0
 76
     1
 98
        0
  0
LINE
  5
164
330
161
100
AcDbEntity
  8
SK2
  6
Continuous
 62
   136
100
AcDbLine
 10
0.0
 20
7.9994092797
 30
0.0
 11
-24.3699701969
 21
7.9994092797
 31
0.0
  0
LINE
  5
165
330
161
100
AcDbEntity
  8
SK2
  6
Continuous
 62
   136
100
AcDbLine
 10
0.0
 20
-7.9994092797
 30
0.0
 11
-24.3699701969
 21
-7.9994092797
 31
0.0
  0
LINE
  5
166
330
161
100
AcDbEntity
  8
SK2
  6
Continuous
 62
   136
100
AcDbLine
 10
-22.6199701428
 20
7.9994092797
 30
0.0
 11
-22.6199701428
 21
-7.9994087006
 31
0.0
  0
TEXT
  5
167
330
161
100
AcDbEntity
  8
SK2
  6
Continuous
 62
   136
100
AcDbText
 10
-23.4949701428
 20
0.2465911987
 30
0.0
 40
3.5
  1
16
 50
90.0
  7
SEACAD_Solid_Edge_ISO
 11
-26.9949701428
 21
0.2465911987
 31
0.0
100
AcDbText
 73
     3
  0
TEXT
  5
168
330
161
100
AcDbEntity
  8
SK2
  6
Continuous
 62
   136
100
AcDbText
 10
-23.4949701428
 20
-3.8261360741
 30
0.0
 40
3.5
  1
ø
 50
90.0
  7
SEACAD_Solid_Edge_ISO
 11
-26.9949701428
 21
-3.8261360741
 31
0.0
100
AcDbText
 73
     3
  0
ENDBLK
  5
16A
330
161
100
AcDbEntity
  8
0
100
AcDbBlockEnd
  0
BLOCK
  5
173
330
16B
100
AcDbEntity
  8
0
100
AcDbBlockBegin
  2
Nullpunkt
 70
     0
 10
0.0
 20
0.0
 30
0.0
  3
Nullpunkt
  1

  0
HATCH
  5
16C
330
16B
100
AcDbEntity
  8
SK2
  6
Continuous
 62
     7
100
AcDbHatch
 10
0.0
 20
0.0
 30
0.0
210
0.0
220
0.0
230
1.0
  2
SOLID
 70
     1
 71
     0
 91
        1
 92
        1
 93
        3
 72
     1
 10
-1.0
 20
0.0
 11
0.0000000000000009
 21
0.0
 72
     1
 10
0.0
 20
0.0
 11
0.0
 21
1.000000000000001
 72
     2
 10
0.0
 20
0.0
 40
1.0
 50
90.0
 51
180.0
 73
     1
 97
        0
 75
     0
 76
     1
 98
        0
  0
HATCH
  5
16D
330
16B
100
AcDbEntity
  8
SK2
  6
Continuous
 62
     7
100
AcDbHatch
 10
0.0
 20
0.0
 30
0.0
210
0.0
220
0.0
230
1.0
  2
SOLID
 70
     1
 71
     0
 91
        1
 92
        1
 93
        3
 72
     2
 10
0.0
 20
0.0
 40
1.0
 50
270.0
 51
360.0
 73
     1
 72
     1
 10
1.0
 20
0.0
 11
-0.0000000000000009
 21
0.0
 72
     1
 10
0.0
 20
0.0
 11
0.0
 21
-1.000000000000001
 97
        0
 75
     0
 76
     1
 98
        0
  0
CIRCLE
  5
16E
330
16B
100
AcDbEntity
  8
SK2
  6
Continuous
 62
     7
100
AcDbCircle
 10
0.0
 20
0.0
 30
0.0
 40
1.0
  0
LINE
  5
16F
330
16B
100
AcDbEntity
  8
SK1
  6
Continuous
100
AcDbLine
 10
-1.0
 20
0.0
 30
0.0
 11
1.0
 21
0.0
 31
0.0
  0
LINE
  5
170
330
16B
100
AcDbEntity
  8
SK1
  6
Continuous
100
AcDbLine
 10
0.0
 20
1.0
 30
0.0
 11
0.0
 21
-1.0
 31
0.0
  0
POINT
  5
171
330
16B
100
AcDbEntity
  8
SK1
  6
Continuous
100
AcDbPoint
 10
0.0
 20
0.0
 30
0.0
  0
POINT
  5
172
330
16B
100
AcDbEntity
  8
SK1
  6
Continuous
100
AcDbPoint
 10
0.0
 20
0.0
 30
0.0
  0
ENDBLK
  5
174
330
16B
100
AcDbEntity
  8
0
100
AcDbBlockEnd
  0
BLOCK
  5
17E
330
176
100
AcDbEntity
  8
0
100
AcDbBlockBegin
  2
Einfügepunkt
 70
     0
 10
0.0
 20
0.0
 30
0.0
  3
Einfügepunkt
  1

  0
HATCH
  5
177
330
176
100
AcDbEntity
  8
SK2
  6
Continuous
 62
     7
100
AcDbHatch
 10
0.0
 20
0.0
 30
0.0
210
0.0
220
0.0
230
1.0
  2
SOLID
 70
     1
 71
     0
 91
        1
 92
        1
 93
        3
 72
     1
 10
-0.4502381196756744
 20
-0.0000000000000018
 11
0.0000000000000033
 21
-0.0000000000000018
 72
     1
 10
0.0
 20
-0.0000000000000018
 11
0.0
 21
0.4502381196756812
 72
     2
 10
0.0
 20
-0.0000000000000018
 40
0.4502381196756812
 50
90.0
 51
180.0
 73
     1
 97
        0
 75
     0
 76
     1
 98
        0
  0
HATCH
  5
178
330
176
100
AcDbEntity
  8
SK2
  6
Continuous
 62
     7
100
AcDbHatch
 10
0.0
 20
0.0
 30
0.0
210
0.0
220
0.0
230
1.0
  2
SOLID
 70
     1
 71
     0
 91
        1
 92
        1
 93
        3
 72
     2
 10
0.0
 20
-0.0000000000000018
 40
0.4502381196756812
 50
270.0
 51
360.0
 73
     1
 72
     1
 10
0.4502381196756815
 20
-0.0000000000000018
 11
0.0000000000000038
 21
-0.0000000000000018
 72
     1
 10
0.0
 20
-0.0000000000000018
 11
0.0
 21
-0.4502381196756812
 97
        0
 75
     0
 76
     1
 98
        0
  0
CIRCLE
  5
179
330
176
100
AcDbEntity
  8
SK2
  6
Continuous
 62
     7
100
AcDbCircle
 10
0.0
 20
0.0
 30
0.0
 40
0.4502381196756812
  0
LINE
  5
17A
330
176
100
AcDbEntity
  8
SK1
  6
Continuous
100
AcDbLine
 10
-0.4502381197
 20
0.0
 30
0.0
 11
0.4502381197
 21
0.0
 31
0.0
  0
LINE
  5
17B
330
176
100
AcDbEntity
  8
SK1
  6
Continuous
100
AcDbLine
 10
0.0
 20
0.4502381197
 30
0.0
 11
0.0
 21
-0.4502381197
 31
0.0
  0
POINT
  5
17C
330
176
100
AcDbEntity
  8
SK2
  6
Continuous
 62
     7
100
AcDbPoint
 10
0.0
 20
0.0
 30
0.0
  0
POINT
  5
17D
330
176
100
AcDbEntity
  8
SK2
  6
Continuous
 62
     7
100
AcDbPoint
 10
0.0
 20
0.0
 30
0.0
  0
ENDBLK
  5
17F
330
176
100
AcDbEntity
  8
0
100
AcDbBlockEnd
  0
ENDSEC
  0
SECTION
  2
ENTITIES
  0
LINE
  5
40
330
1F
100
AcDbEntity
  8
SK1
  6
Continuous
100
AcDbLine
 10
3.7618880544
 20
6.4835456525
 30
0.0
 11
3.7618880544
 21
6.9
 31
0.0
  0
LINE
  5
41
330
1F
100
AcDbEntity
  8
SK1
  6
Continuous
100
AcDbLine
 10
6.0618880544
 20
6.9
 30
0.0
 11
6.0618880544
 21
6.4835456525
 31
0.0
  0
LINE
  5
42
330
1F
100
AcDbEntity
  8
SK1
  6
Continuous
100
AcDbLine
 10
10.2618880544
 20
5.8095662974
 30
0.0
 11
10.2618880544
 21
6.1712613559
 31
0.0
  0
LINE
  5
43
330
1F
100
AcDbEntity
  8
SK1
  6
Continuous
100
AcDbLine
 10
10.1368880544
 20
6.0098208121
 30
0.0
 11
10.1368880544
 21
6.3877677069
 31
0.0
  0
LINE
  5
44
330
1F
100
AcDbEntity
  8
SK1
  6
Continuous
100
AcDbLine
 10
3.5618880544
 20
7.3078774026
 30
0.0
 11
3.5618880544
 21
3.3517395924
 31
0.0
  0
LINE
  5
45
330
1F
100
AcDbEntity
  8
SK1
  6
Continuous
100
AcDbLine
 10
3.106218814
 20
-8.4359598646
 30
0.0
 11
3.106218814
 21
-7.9036858695
 31
0.0
  0
LINE
  5
46
330
1F
100
AcDbEntity
  8
SK1
  6
Continuous
100
AcDbLine
 10
6.4783944053
 20
8.5
 30
0.0
 11
6.4783944053
 21
7.962888405
 31
0.0
  0
LINE
  5
47
330
1F
100
AcDbEntity
  8
SK1
  6
Continuous
100
AcDbLine
 10
6.2618880544
 20
8.5
 30
0.0
 11
6.2618880544
 21
7.962888405
 31
0.0
  0
LINE
  5
48
330
1F
100
AcDbEntity
  8
SK1
  6
Continuous
100
AcDbLine
 10
6.4783944053
 20
-8.5
 30
0.0
 11
6.4783944053
 21
-7.962888405
 31
0.0
  0
LINE
  5
49
330
1F
100
AcDbEntity
  8
SK1
  6
Continuous
100
AcDbLine
 10
6.2618880544
 20
-8.5
 30
0.0
 11
6.2618880544
 21
-7.962888405
 31
0.0
  0
LINE
  5
4A
330
1F
100
AcDbEntity
  8
SK1
  6
Continuous
100
AcDbLine
 10
6.4783944053
 20
7.962888405
 30
0.0
 11
6.2618880544
 21
7.962888405
 31
0.0
  0
LINE
  5
4B
330
1F
100
AcDbEntity
  8
SK1
  6
Continuous
100
AcDbLine
 10
6.4783944053
 20
7.7332783456
 30
0.0
 11
6.2618880544
 21
7.7332783456
 31
0.0
  0
LINE
  5
4C
330
1F
100
AcDbEntity
  8
SK1
  6
Continuous
100
AcDbLine
 10
3.106218814
 20
7.9036858695
 30
0.0
 11
3.106218814
 21
8.4359598646
 31
0.0
  0
LINE
  5
4D
330
1F
100
AcDbEntity
  8
SK1
  6
Continuous
100
AcDbLine
 10
10.2618880544
 20
-5.8095662974
 30
0.0
 11
10.2618880544
 21
-6.1712613559
 31
0.0
  0
LINE
  5
4E
330
1F
100
AcDbEntity
  8
SK1
  6
Continuous
100
AcDbLine
 10
10.1368880544
 20
-6.0098208121
 30
0.0
 11
10.1368880544
 21
-6.3877677069
 31
0.0
  0
LINE
  5
4F
330
1F
100
AcDbEntity
  8
SK1
  6
Continuous
100
AcDbLine
 10
3.7618880544
 20
-6.4835456525
 30
0.0
 11
3.7618880544
 21
-6.9
 31
0.0
  0
LINE
  5
50
330
1F
100
AcDbEntity
  8
SK1
  6
Continuous
100
AcDbLine
 10
6.0618880544
 20
-6.9
 30
0.0
 11
6.0618880544
 21
-6.4835456525
 31
0.0
  0
ARC
  5
51
330
1F
100
AcDbEntity
  8
SK1
  6
Continuous
100
AcDbCircle
 10
3.7546386465
 20
6.4467087859
 30
0.0
 40
0.1929094548823019
100
AcDbArc
 50
182.3254217845
 51
272.1536440521
  0
LINE
  5
52
330
1F
100
AcDbEntity
  8
SK1
  6
Continuous
100
AcDbLine
 10
3.7618880544
 20
6.2539355931
 30
0.0
 11
6.0618880544
 21
6.2539355931
 31
0.0
  0
ARC
  5
53
330
1F
100
AcDbEntity
  8
SK1
  6
Continuous
100
AcDbCircle
 10
6.0691430733
 20
6.4467027182
 30
0.0
 40
0.1929036023480868
100
AcDbArc
 50
267.8446228207
 51
357.6763113501
  0
LINE
  5
56
330
1F
100
AcDbEntity
  8
SK3
100
AcDbLine
 10
9.8618880544
 20
3.5703047983
 30
0.0
 11
-12.1263388452
 21
3.5703047983
 31
0.0
  0
ARC
  5
57
330
1F
100
AcDbEntity
  8
SK3
100
AcDbCircle
 10
9.8760782925
 20
4.185769175
 30
0.0
 40
0.3861151602954426
100
AcDbArc
 50
267.8938307268
 51
357.7210164642
  0
LINE
  5
58
330
1F
100
AcDbEntity
  8
SK1
  6
Continuous
100
AcDbLine
 10
10.2618880544
 20
5.5799562379
 30
0.0
 11
10.2618880544
 21
5.8095662974
 31
0.0
  0
ARC
  5
59
330
1F
100
AcDbEntity
  8
SK1
  6
Continuous
100
AcDbCircle
 10
10.0332594168
 20
5.8059951202
 30
0.0
 40
0.2286565267324182
100
AcDbArc
 50
0.8948867718
 51
63.0503997066
  0
SPLINE
  5
5A
330
1F
100
AcDbEntity
  8
SK1
  6
Continuous
100
AcDbSpline
210
0.0
220
0.0
230
1.0
 70
     8
 71
     3
 72
    11
 73
     7
 74
     0
 42
0.0000000024112808
 43
0.0000000001
 12
1.0
 22
0.0
 32
0.0
 13
1.0
 23
0.0
 33
0.0
 40
0.0
 40
0.0
 40
0.0
 40
0.0
 40
0.4999749398417524
 40
0.4999749398417524
 40
0.4999749398417524
 40
1.0
 40
1.0
 40
1.0
 40
1.0
 10
10.13688805437953
 20
6.009820812094893
 30
0.0
 10
9.527211585626079
 20
6.335382761305336
 30
0.0
 10
8.917507783270203
 20
6.660901020732841
 30
0.0
 10
8.30778685288635
 20
6.986391890320087
 30
0.0
 10
7.698004794825652
 20
7.3119153920505
 30
0.0
 10
7.088205392800532
 20
7.637411163054242
 30
0.0
 10
6.478394405325619
 20
7.96288840498088
 30
0.0
  0
ARC
  5
5B
330
1F
100
AcDbEntity
  8
SK1
  6
Continuous
100
AcDbCircle
 10
3.1717592393
 20
7.5186402045
 30
0.0
 40
0.3905838085417689
100
AcDbArc
 50
2.7658284791
 51
99.6599997464
  0
SPLINE
  5
5C
330
1F
100
AcDbEntity
  8
SK1
  6
Continuous
100
AcDbSpline
210
0.0
220
0.0
230
1.0
 70
     8
 71
     3
 72
    14
 73
    10
 74
     0
 42
0.0000000006593864
 43
0.0000000001
 12
1.0
 22
0.0
 32
0.0
 13
1.0
 23
0.0
 33
0.0
 40
0.0
 40
0.0
 40
0.0
 40
0.0
 40
0.16058820789887
 40
0.16058820789887
 40
0.16058820789887
 40
0.9127718409957111
 40
0.9127718409957111
 40
0.9127718409957111
 40
1.0
 40
1.0
 40
1.0
 40
1.0
 10
3.106218813995366
 20
7.903685869515085
 30
0.0
 10
2.301178381329873
 20
7.799091005720576
 30
0.0
 10
1.496138345664966
 20
7.69449353375417
 30
0.0
 10
0.6910987592254935
 20
7.589893110755393
 30
0.0
 10
-3.079648848974176
 20
7.099952241407882
 30
0.0
 10
-6.85038717942099
 20
6.609950410537325
 30
0.0
 10
-10.6211071988166
 20
6.119828338153843
 30
0.0
 10
-11.05838468142415
 20
6.062990560519906
 30
0.0
 10
-11.49566190809746
 20
6.006151102198904
 30
0.0
 10
-11.93293885569638
 20
5.949309811405933
 30
0.0
  0
ARC
  5
5D
330
1F
100
AcDbEntity
  8
SK1
  6
Continuous
100
AcDbCircle
 10
3.1717592393
 20
7.2890301451
 30
0.0
 40
0.3905838085417684
100
AcDbArc
 50
2.7658284791
 51
99.6599997464
  0
SPLINE
  5
5E
330
1F
100
AcDbEntity
  8
SK1
  6
Continuous
100
AcDbSpline
210
0.0
220
0.0
230
1.0
 70
     8
 71
     3
 72
    14
 73
    10
 74
     0
 42
0.0000000006593864
 43
0.0000000001
 12
1.0
 22
0.0
 32
0.0
 13
1.0
 23
0.0
 33
0.0
 40
0.0
 40
0.0
 40
0.0
 40
0.0
 40
0.16058820789887
 40
0.16058820789887
 40
0.16058820789887
 40
0.9127718409957111
 40
0.9127718409957111
 40
0.9127718409957111
 40
1.0
 40
1.0
 40
1.0
 40
1.0
 10
3.106218813995366
 20
7.674075810096032
 30
0.0
 10
2.301178381329873
 20
7.569480946301521
 30
0.0
 10
1.496138345664966
 20
7.464883474335117
 30
0.0
 10
0.6910987592254935
 20
7.36028305133634
 30
0.0
 10
-3.079648848974176
 20
6.870342181988828
 30
0.0
 10
-6.85038717942099
 20
6.380340351118272
 30
0.0
 10
-10.6211071988166
 20
5.890218278734788
 30
0.0
 10
-11.05838468142415
 20
5.833380501100851
 30
0.0
 10
-11.49566190809746
 20
5.77654104277985
 30
0.0
 10
-11.93293885569638
 20
5.719699751986879
 30
0.0
  0
ARC
  5
5F
330
1F
100
AcDbEntity
  8
SK3
100
AcDbCircle
 10
9.8760782925
 20
3.9561591155
 30
0.0
 40
0.3861151602954426
100
AcDbArc
 50
267.8938307268
 51
357.7210164642
  0
ARC
  5
60
330
1F
100
AcDbEntity
  8
SK1
  6
Continuous
100
AcDbCircle
 10
10.0332594168
 20
5.5763850607
 30
0.0
 40
0.2286565267324212
100
AcDbArc
 50
0.8948867718
 51
63.0503997066
  0
SPLINE
  5
61
330
1F
100
AcDbEntity
  8
SK1
  6
Continuous
100
AcDbSpline
210
0.0
220
0.0
230
1.0
 70
     8
 71
     3
 72
    11
 73
     7
 74
     0
 42
0.0000000024112808
 43
0.0000000001
 12
1.0
 22
0.0
 32
0.0
 13
1.0
 23
0.0
 33
0.0
 40
0.0
 40
0.0
 40
0.0
 40
0.0
 40
0.4999749398417524
 40
0.4999749398417524
 40
0.4999749398417524
 40
1.0
 40
1.0
 40
1.0
 40
1.0
 10
10.13688805437953
 20
5.78021075267584
 30
0.0
 10
9.527211585626079
 20
6.105772701886282
 30
0.0
 10
8.917507783270203
 20
6.431290961313787
 30
0.0
 10
8.30778685288635
 20
6.756781830901034
 30
0.0
 10
7.698004794825652
 20
7.082305332631447
 30
0.0
 10
7.088205392800532
 20
7.407801103635189
 30
0.0
 10
6.478394405325619
 20
7.733278345561828
 30
0.0
  0
LINE
  5
62
330
1F
100
AcDbEntity
  8
SK1
  6
Continuous
100
AcDbLine
 10
3.5618880544
 20
7.537487462
 30
0.0
 11
3.5618880544
 21
7.3078774026
 31
0.0
  0
ARC
  5
63
330
1F
100
AcDbEntity
  8
SK1
  6
Continuous
100
AcDbCircle
 10
3.7546386465
 20
6.6763188454
 30
0.0
 40
0.1929094548823012
100
AcDbArc
 50
182.3254217845
 51
272.1536440521
  0
LINE
  5
64
330
1F
100
AcDbEntity
  8
SK1
  6
Continuous
100
AcDbLine
 10
3.7618880544
 20
6.4835456525
 30
0.0
 11
6.0618880544
 21
6.4835456525
 31
0.0
  0
ARC
  5
65
330
1F
100
AcDbEntity
  8
SK1
  6
Continuous
100
AcDbCircle
 10
6.0691430733
 20
6.6763127776
 30
0.0
 40
0.1929036023480862
100
AcDbArc
 50
267.8446228207
 51
357.6763113501
  0
LINE
  5
66
330
1F
100
AcDbEntity
  8
SK1
  6
Continuous
100
AcDbLine
 10
6.2618880544
 20
7.7332783456
 30
0.0
 11
6.2618880544
 21
7.962888405
 31
0.0
  0
LINE
  5
67
330
1F
100
AcDbEntity
  8
SK3
100
AcDbLine
 10
9.8618880544
 20
3.7999148577
 30
0.0
 11
-12.1263388452
 21
3.7999148577
 31
0.0
  0
LINE
  5
68
330
1F
100
AcDbEntity
  8
SK1
  6
Continuous
100
AcDbLine
 10
-17.0659465658
 20
-5.5929067778
 30
0.0
 11
-17.0659465658
 21
-4.1669143435
 31
0.0
  0
LINE
  5
69
330
1F
100
AcDbEntity
  8
SK1
  6
Continuous
100
AcDbLine
 10
-17.2381119456
 20
-5.3945579902
 30
0.0
 11
-17.2381119456
 21
-4.0266605707
 31
0.0
  0
ARC
  5
6A
330
1F
100
AcDbEntity
  8
SK1
  6
Continuous
100
AcDbCircle
 10
-17.0379152949
 20
-5.394682253
 30
0.0
 40
0.2001966892801567
100
AcDbArc
 50
179.9644363108
 51
261.9510743428
  0
ARC
  5
6B
330
1F
100
AcDbEntity
  8
SK1
  6
Continuous
100
AcDbCircle
 10
-17.0379153912
 20
5.3946823366
 30
0.0
 40
0.2001965930065344
100
AcDbArc
 50
98.0489017111
 51
180.0355876352
  0
LINE
  5
6C
330
1F
100
AcDbEntity
  8
SK3
100
AcDbLine
 10
-16.1390738399
 20
3.988734135
 30
0.0
 11
-16.1390738399
 21
3.0325929896
 31
0.0
  0
LINE
  5
6D
330
1F
100
AcDbEntity
  8
SK3
100
AcDbLine
 10
-17.2381119456
 20
-4.6248100309
 30
0.0
 11
-16.1390738399
 21
-3.988734135
 31
0.0
  0
LINE
  5
6E
330
1F
100
AcDbEntity
  8
SK3
100
AcDbLine
 10
-16.1390738399
 20
-3.988734135
 30
0.0
 11
-2.7005472171
 21
-3.988734135
 31
0.0
  0
LINE
  5
6F
330
1F
100
AcDbEntity
  8
SK3
100
AcDbLine
 10
-16.1390738399
 20
3.988734135
 30
0.0
 11
-17.2381119456
 21
4.6248100309
 31
0.0
  0
SPLINE
  5
70
330
1F
100
AcDbEntity
  8
SK1
  6
Continuous
100
AcDbSpline
210
0.0
220
0.0
230
1.0
 70
     8
 71
     3
 72
    11
 73
     7
 74
     0
 42
0.0000000007057356
 43
0.0000000001
 12
1.0
 22
0.0
 32
0.0
 13
1.0
 23
0.0
 33
0.0
 40
0.0
 40
0.0
 40
0.0
 40
0.0
 40
0.6939571910621137
 40
0.6939571910621137
 40
0.6939571910621137
 40
1.0
 40
1.0
 40
1.0
 40
1.0
 10
-17.06594656581249
 20
-5.592906777842076
 30
0.0
 10
-13.82023405066346
 20
-6.049717673294632
 30
0.0
 10
-10.5745002341097
 20
-6.506377223444144
 30
0.0
 10
-7.32875563140741
 20
-6.962960073788034
 30
0.0
 10
-5.897346304552762
 20
-7.16431816891357
 30
0.0
 10
-4.465934759436326
 20
-7.365660495286909
 30
0.0
 10
-3.034521488354321
 20
-7.56699054979783
 30
0.0
  0
LINE
  5
71
330
1F
100
AcDbEntity
  8
SK1
  6
Continuous
100
AcDbLine
 10
3.5618880544
 20
7.537487462
 30
0.0
 11
3.5618880544
 21
8.0398526371
 31
0.0
  0
LINE
  5
72
330
1F
100
AcDbEntity
  8
SK1
  6
Continuous
100
AcDbLine
 10
6.2618880544
 20
-7.7332783456
 30
0.0
 11
6.2618880544
 21
-3.5279464324
 31
0.0
  0
LINE
  5
73
330
1F
100
AcDbEntity
  8
SK1
  6
Continuous
100
AcDbLine
 10
6.4783944053
 20
-7.7332783456
 30
0.0
 11
6.4783944053
 21
-3.5279464324
 31
0.0
  0
LINE
  5
74
330
1F
100
AcDbEntity
  8
SK1
  6
Continuous
100
AcDbLine
 10
3.106218814
 20
-7.6740758101
 30
0.0
 11
3.106218814
 21
-3.5034239393
 31
0.0
  0
LINE
  5
75
330
1F
100
AcDbEntity
  8
SK1
  6
Continuous
100
AcDbLine
 10
3.5618880544
 20
-7.537487462
 30
0.0
 11
3.5618880544
 21
-8.0398526371
 31
0.0
  0
LINE
  5
76
330
1F
100
AcDbEntity
  8
SK1
  6
Continuous
100
AcDbLine
 10
10.1368880544
 20
-5.7802107527
 30
0.0
 11
10.1368880544
 21
-2.7189593472
 31
0.0
  0
LINE
  5
77
330
1F
100
AcDbEntity
  8
SK1
  6
Continuous
100
AcDbLine
 10
10.2618880544
 20
-5.5799562379
 30
0.0
 11
10.2618880544
 21
-2.6360112113
 31
0.0
  0
LINE
  5
78
330
1F
100
AcDbEntity
  8
SK1
  6
Continuous
100
AcDbLine
 10
3.7618880544
 20
-6.2539355931
 30
0.0
 11
3.7618880544
 21
-2.915182601
 31
0.0
  0
LINE
  5
79
330
1F
100
AcDbEntity
  8
SK1
  6
Continuous
100
AcDbLine
 10
6.0618880544
 20
-6.2539355931
 30
0.0
 11
6.0618880544
 21
-2.915182601
 31
0.0
  0
ARC
  5
7A
330
1F
100
AcDbEntity
  8
SK1
  6
Continuous
100
AcDbCircle
 10
6.0691364042
 20
-6.4467099301
 30
0.0
 40
0.1929105584737894
100
AcDbArc
 50
2.3257485766
 51
92.1533172599
  0
LINE
  5
7B
330
1F
100
AcDbEntity
  8
SK1
  6
Continuous
100
AcDbLine
 10
6.0618880544
 20
-6.2539355931
 30
0.0
 11
3.7618880544
 21
-6.2539355931
 31
0.0
  0
ARC
  5
7C
330
1F
100
AcDbEntity
  8
SK1
  6
Continuous
100
AcDbCircle
 10
3.7546400687
 20
-6.4467103239
 30
0.0
 40
0.192910938318763
100
AcDbArc
 50
87.8467952167
 51
177.6741389463
  0
ARC
  5
7D
330
1F
100
AcDbEntity
  8
SK1
  6
Continuous
100
AcDbCircle
 10
3.1717470449
 20
-7.2890149713
 30
0.0
 40
0.3905967211536582
100
AcDbArc
 50
260.342137145
 51
357.2320346267
  0
LINE
  5
7E
330
1F
100
AcDbEntity
  8
SK1
  6
Continuous
100
AcDbLine
 10
6.2618880544
 20
-7.7332783456
 30
0.0
 11
6.4783944053
 21
-7.7332783456
 31
0.0
  0
LINE
  5
7F
330
1F
100
AcDbEntity
  8
SK1
  6
Continuous
100
AcDbLine
 10
6.4783944053
 20
-7.7332783456
 30
0.0
 11
10.1368880544
 21
-5.7802107527
 31
0.0
  0
ARC
  5
80
330
1F
100
AcDbEntity
  8
SK1
  6
Continuous
100
AcDbCircle
 10
10.030407831
 20
-5.5746050848
 30
0.0
 40
0.2315420666815612
100
AcDbArc
 50
297.3789903439
 51
358.6757231777
  0
ARC
  5
81
330
1F
100
AcDbEntity
  8
SK3
100
AcDbCircle
 10
9.8760819022
 20
-3.9561552184
 30
0.0
 40
0.3861113984672777
100
AcDbArc
 50
2.2784269897
 51
92.1067258193
  0
ARC
  5
82
330
1F
100
AcDbEntity
  8
SK1
  6
Continuous
100
AcDbCircle
 10
3.1717470449
 20
-7.5186250308
 30
0.0
 40
0.390596721153659
100
AcDbArc
 50
260.342137145
 51
357.2320346267
  0
LINE
  5
83
330
1F
100
AcDbEntity
  8
SK1
  6
Continuous
100
AcDbLine
 10
6.2618880544
 20
-7.962888405
 30
0.0
 11
6.4783944053
 21
-7.962888405
 31
0.0
  0
LINE
  5
84
330
1F
100
AcDbEntity
  8
SK1
  6
Continuous
100
AcDbLine
 10
6.4783944053
 20
-7.962888405
 30
0.0
 11
10.1368880544
 21
-6.0098208121
 31
0.0
  0
ARC
  5
85
330
1F
100
AcDbEntity
  8
SK1
  6
Continuous
100
AcDbCircle
 10
10.030407831
 20
-5.8042151442
 30
0.0
 40
0.2315420666815612
100
AcDbArc
 50
297.3789903439
 51
358.6757231777
  0
LINE
  5
86
330
1F
100
AcDbEntity
  8
SK1
  6
Continuous
100
AcDbLine
 10
10.2618880544
 20
-5.8095662974
 30
0.0
 11
10.2618880544
 21
-5.5799562379
 31
0.0
  0
ARC
  5
87
330
1F
100
AcDbEntity
  8
SK3
100
AcDbCircle
 10
9.8760819022
 20
-4.1857652778
 30
0.0
 40
0.3861113984672752
100
AcDbArc
 50
2.2784269897
 51
92.1067258193
  0
LINE
  5
88
330
1F
100
AcDbEntity
  8
SK1
  6
Continuous
100
AcDbLine
 10
6.2618880544
 20
-7.962888405
 30
0.0
 11
6.2618880544
 21
-7.7332783456
 31
0.0
  0
ARC
  5
89
330
1F
100
AcDbEntity
  8
SK1
  6
Continuous
100
AcDbCircle
 10
6.0691364042
 20
-6.6763199895
 30
0.0
 40
0.1929105584737908
100
AcDbArc
 50
2.3257485766
 51
92.1533172599
  0
LINE
  5
8A
330
1F
100
AcDbEntity
  8
SK1
  6
Continuous
100
AcDbLine
 10
6.0618880544
 20
-6.4835456525
 30
0.0
 11
3.7618880544
 21
-6.4835456525
 31
0.0
  0
ARC
  5
8B
330
1F
100
AcDbEntity
  8
SK1
  6
Continuous
100
AcDbCircle
 10
3.7546400687
 20
-6.6763203833
 30
0.0
 40
0.1929109383187622
100
AcDbArc
 50
87.8467952167
 51
177.6741389463
  0
LINE
  5
8C
330
1F
100
AcDbEntity
  8
SK1
  6
Continuous
100
AcDbLine
 10
3.5618880544
 20
-7.3078774026
 30
0.0
 11
3.5618880544
 21
-7.537487462
 31
0.0
  0
LINE
  5
8D
330
1F
100
AcDbEntity
  8
SK1
  6
Continuous
100
AcDbLine
 10
-17.0659465658
 20
-3.7426502748
 30
0.0
 11
-17.0659465658
 21
-0.3
 31
0.0
  0
LINE
  5
8E
330
1F
100
AcDbEntity
  8
SK1
  6
Continuous
100
AcDbLine
 10
-17.2381119456
 20
-3.602396502
 30
0.0
 11
-17.2381119456
 21
-0.3
 31
0.0
  0
LINE
  5
8F
330
1F
100
AcDbEntity
  8
SK3
100
AcDbLine
 10
-16.1390738399
 20
-3.0325929896
 30
0.0
 11
-16.1390738399
 21
-3.988734135
 31
0.0
  0
LINE
  5
90
330
1F
100
AcDbEntity
  8
SK3
100
AcDbLine
 10
-17.2381119456
 20
-3.0581025002
 30
0.0
 11
-16.1390738399
 21
-2.6083289209
 31
0.0
  0
LINE
  5
91
330
1F
100
AcDbEntity
  8
SK3
100
AcDbLine
 10
-16.1390738399
 20
-2.6083289209
 30
0.0
 11
-2.7005472171
 21
-2.6083289209
 31
0.0
  0
SPLINE
  5
92
330
1F
100
AcDbEntity
  8
SK1
  6
Continuous
100
AcDbSpline
210
0.0
220
0.0
230
1.0
 70
     8
 71
     3
 72
    10
 73
     6
 74
     0
 42
0.0000000403600054
 43
0.0000000001
 12
1.0
 22
0.0
 32
0.0
 13
1.0
 23
0.0
 33
0.0
 40
0.0
 40
0.0
 40
0.0
 40
0.0
 40
0.5
 40
0.5
 40
1.0
 40
1.0
 40
1.0
 40
1.0
 10
-17.23811194562058
 20
-3.602396502036349
 30
0.0
 10
-17.23811194562048
 20
-3.636098372796647
 30
0.0
 10
-17.22029908163399
 20
-3.669819173484869
 30
0.0
 10
-17.15803693825409
 20
-3.720629108528628
 30
0.0
 10
-17.11364740426858
 20
-3.737903076009039
 30
0.0
 10
-17.06594656581249
 20
-3.742650274800372
 30
0.0
  0
SPLINE
  5
93
330
1F
100
AcDbEntity
  8
SK1
  6
Continuous
100
AcDbSpline
210
0.0
220
0.0
230
1.0
 70
     8
 71
     3
 72
    11
 73
     7
 74
     0
 42
0.0000000007091853
 43
0.0000000001
 12
1.0
 22
0.0
 32
0.0
 13
1.0
 23
0.0
 33
0.0
 40
0.0
 40
0.0
 40
0.0
 40
0.0
 40
0.6939571910621134
 40
0.6939571910621134
 40
0.6939571910621134
 40
1.0
 40
1.0
 40
1.0
 40
1.0
 10
-17.06594656581249
 20
-3.742650274800372
 30
0.0
 10
-13.82023405066346
 20
-4.065664356694771
 30
0.0
 10
-10.5745002341097
 20
-4.388571421299091
 30
0.0
 10
-7.328755631407415
 20
-4.711424250950737
 30
0.0
 10
-5.897346304552766
 20
-4.853805925460808
 30
0.0
 10
-4.46593475943633
 20
-4.996176449779274
 30
0.0
 10
-3.034521488354323
 20
-5.138538296580601
 30
0.0
  0
SPLINE
  5
94
330
1F
100
AcDbEntity
  8
SK1
  6
Continuous
100
AcDbSpline
210
0.0
220
0.0
230
1.0
 70
     8
 71
     3
 72
    10
 73
     6
 74
     0
 42
0.0000000403600054
 43
0.0000000001
 12
1.0
 22
0.0
 32
0.0
 13
1.0
 23
0.0
 33
0.0
 40
0.0
 40
0.0
 40
0.0
 40
0.0
 40
0.5
 40
0.5
 40
1.0
 40
1.0
 40
1.0
 40
1.0
 10
-17.23811194562047
 20
-4.026660570748283
 30
0.0
 10
-17.23811194562048
 20
-4.060362441508642
 30
0.0
 10
-17.220299081634
 20
-4.094083242196791
 30
0.0
 10
-17.15803693825404
 20
-4.144893177240589
 30
0.0
 10
-17.11364740426858
 20
-4.162167144720968
 30
0.0
 10
-17.06594656581249
 20
-4.1669143435123
 30
0.0
  0
SPLINE
  5
95
330
1F
100
AcDbEntity
  8
SK1
  6
Continuous
100
AcDbSpline
210
0.0
220
0.0
230
1.0
 70
     8
 71
     3
 72
    11
 73
     7
 74
     0
 42
0.0000000007091853
 43
0.0000000001
 12
1.0
 22
0.0
 32
0.0
 13
1.0
 23
0.0
 33
0.0
 40
0.0
 40
0.0
 40
0.0
 40
0.0
 40
0.6939571910621131
 40
0.6939571910621131
 40
0.6939571910621131
 40
1.0
 40
1.0
 40
1.0
 40
1.0
 10
-17.06594656581249
 20
-4.1669143435123
 30
0.0
 10
-13.82023405066346
 20
-4.4899284254067
 30
0.0
 10
-10.5745002341097
 20
-4.812835490011017
 30
0.0
 10
-7.328755631407415
 20
-5.135688319662663
 30
0.0
 10
-5.897346304552764
 20
-5.278069994172737
 30
0.0
 10
-4.465934759436326
 20
-5.420440518491202
 30
0.0
 10
-3.034521488354318
 20
-5.56280236529253
 30
0.0
  0
LINE
  5
96
330
1F
100
AcDbEntity
  8
SK1
  6
Continuous
100
AcDbLine
 10
-17.2381119456
 20
-3.602396502
 30
0.0
 11
-17.2381119456
 21
-4.0266605707
 31
0.0
  0
LINE
  5
97
330
1F
100
AcDbEntity
  8
SK3
100
AcDbLine
 10
-17.2381119456
 20
-3.4823665689
 30
0.0
 11
-16.1390738399
 21
-3.0325929896
 31
0.0
  0
LINE
  5
98
330
1F
100
AcDbEntity
  8
SK3
100
AcDbLine
 10
-16.1390738399
 20
-3.0325929896
 30
0.0
 11
-2.7005472171
 21
-3.0325929896
 31
0.0
  0
LINE
  5
99
330
1F
100
AcDbEntity
  8
SK1
  6
Continuous
100
AcDbLine
 10
6.2618880544
 20
-2.9736187129
 30
0.0
 11
6.2618880544
 21
2.9736187129
 31
0.0
  0
LINE
  5
9A
330
1F
100
AcDbEntity
  8
SK1
  6
Continuous
100
AcDbLine
 10
6.4783944053
 20
-2.9736187129
 30
0.0
 11
6.4783944053
 21
2.9736187129
 31
0.0
  0
LINE
  5
9B
330
1F
100
AcDbEntity
  8
SK1
  6
Continuous
100
AcDbLine
 10
3.106218814
 20
-2.9490962198
 30
0.0
 11
3.106218814
 21
2.9490962198
 31
0.0
  0
LINE
  5
9C
330
1F
100
AcDbEntity
  8
SK1
  6
Continuous
100
AcDbLine
 10
3.5618880544
 20
-3.3517395924
 30
0.0
 11
3.5618880544
 21
-7.3078774026
 31
0.0
  0
LINE
  5
9D
330
1F
100
AcDbEntity
  8
SK1
  6
Continuous
100
AcDbLine
 10
10.1368880544
 20
-2.1646316277
 30
0.0
 11
10.1368880544
 21
2.1646316277
 31
0.0
  0
LINE
  5
9E
330
1F
100
AcDbEntity
  8
SK1
  6
Continuous
100
AcDbLine
 10
10.2618880544
 20
-2.0816834918
 30
0.0
 11
10.2618880544
 21
2.0816834918
 31
0.0
  0
LINE
  5
9F
330
1F
100
AcDbEntity
  8
SK1
  6
Continuous
100
AcDbLine
 10
3.7618880544
 20
-2.3608548815
 30
0.0
 11
3.7618880544
 21
2.3608548815
 31
0.0
  0
LINE
  5
A0
330
1F
100
AcDbEntity
  8
SK1
  6
Continuous
100
AcDbLine
 10
6.0618880544
 20
-2.3608548815
 30
0.0
 11
6.0618880544
 21
2.3608548815
 31
0.0
  0
SPLINE
  5
A1
330
1F
100
AcDbEntity
  8
SK1
  6
Continuous
100
AcDbSpline
210
0.0
220
0.0
230
1.0
 70
     8
 71
     3
 72
    10
 73
     6
 74
     0
 42
0.0000000427804606
 43
0.0000000001
 12
1.0
 22
0.0
 32
0.0
 13
1.0
 23
0.0
 33
0.0
 40
0.0
 40
0.0
 40
0.0
 40
0.0
 40
0.5
 40
0.5
 40
1.0
 40
1.0
 40
1.0
 40
1.0
 10
6.261888054379508
 20
-2.437461968118012
 30
0.0
 10
6.261888054379519
 20
-2.41749320828964
 30
0.0
 10
6.240563610393973
 20
-2.397555374696402
 30
0.0
 10
6.165981331847233
 20
-2.369002328718476
 30
0.0
 10
6.114042549800985
 20
-2.360854881462835
 30
0.0
 10
6.06188805438004
 20
-2.360854881461133
 30
0.0
  0
LINE
  5
A2
330
1F
100
AcDbEntity
  8
SK1
  6
Continuous
100
AcDbLine
 10
6.0618880544
 20
-2.3608548815
 30
0.0
 11
3.7618880544
 21
-2.3608548815
 31
0.0
  0
SPLINE
  5
A3
330
1F
100
AcDbEntity
  8
SK1
  6
Continuous
100
AcDbSpline
210
0.0
220
0.0
230
1.0
 70
     8
 71
     3
 72
    10
 73
     6
 74
     0
 42
0.0000000427875695
 43
0.0000000001
 12
1.0
 22
0.0
 32
0.0
 13
1.0
 23
0.0
 33
0.0
 40
0.0
 40
0.0
 40
0.0
 40
0.0
 40
0.5
 40
0.5
 40
1.0
 40
1.0
 40
1.0
 40
1.0
 10
3.761888054379513
 20
-2.360854881462764
 30
0.0
 10
3.709620375886442
 20
-2.360854881462762
 30
0.0
 10
3.657446549616196
 20
-2.369150910787728
 30
0.0
 10
3.583713707786786
 20
-2.397348256670479
 30
0.0
 10
3.561888054379535
 20
-2.417477940889956
 30
0.0
 10
3.56188805437895
 20
-2.437461968117991
 30
0.0
  0
SPLINE
  5
A4
330
1F
100
AcDbEntity
  8
SK1
  6
Continuous
100
AcDbSpline
210
0.0
220
0.0
230
1.0
 70
     8
 71
     3
 72
    10
 73
     6
 74
     0
 42
0.0000000190345564
 43
0.0000000001
 12
1.0
 22
0.0
 32
0.0
 13
1.0
 23
0.0
 33
0.0
 40
0.0
 40
0.0
 40
0.0
 40
0.0
 40
0.5
 40
0.5
 40
1.0
 40
1.0
 40
1.0
 40
1.0
 10
3.106218813995418
 20
-2.949096219804111
 30
0.0
 10
3.218596645183839
 20
-2.955144022659784
 30
0.0
 10
3.339032649651287
 20
-2.941448672744882
 30
0.0
 10
3.510072276594716
 20
-2.884421701139272
 30
0.0
 10
3.561888054379512
 20
-2.841332556229675
 30
0.0
 10
3.561888054379514
 20
-2.797411872891704
 30
0.0
  0
LINE
  5
A5
330
1F
100
AcDbEntity
  8
SK1
  6
Continuous
100
AcDbLine
 10
6.2618880544
 20
-2.9736187129
 30
0.0
 11
6.4783944053
 21
-2.9736187129
 31
0.0
  0
SPLINE
  5
A6
330
1F
100
AcDbEntity
  8
SK1
  6
Continuous
100
AcDbSpline
210
0.0
220
0.0
230
1.0
 70
     8
 71
     3
 72
     8
 73
     4
 74
     0
 42
0.0000000026688942
 43
0.0000000001
 12
1.0
 22
0.0
 32
0.0
 13
1.0
 23
0.0
 33
0.0
 40
0.0
 40
0.0
 40
0.0
 40
0.0
 40
1.0
 40
1.0
 40
1.0
 40
1.0
 10
6.478394405325619
 20
-2.973618712918828
 30
0.0
 10
7.697955281136582
 20
-2.70399804502433
 30
0.0
 10
8.917474065612208
 20
-2.43434948093691
 30
0.0
 10
10.13688805437953
 20
-2.164631627714078
 30
0.0
  0
SPLINE
  5
A7
330
1F
100
AcDbEntity
  8
SK1
  6
Continuous
100
AcDbSpline
210
0.0
220
0.0
230
1.0
 70
     8
 71
     3
 72
    10
 73
     6
 74
     0
 42
0.0000000616089256
 43
0.0000000001
 12
1.0
 22
0.0
 32
0.0
 13
1.0
 23
0.0
 33
0.0
 40
0.0
 40
0.0
 40
0.0
 40
0.0
 40
0.5
 40
0.5
 40
1.0
 40
1.0
 40
1.0
 40
1.0
 10
10.13688805437953
 20
-2.164631627714078
 30
0.0
 10
10.17458186229443
 20
-2.156294268093597
 30
0.0
 10
10.20678160429047
 20
-2.143952051783949
 30
0.0
 10
10.2502757878019
 20
-2.115018334655611
 30
0.0
 10
10.26188805437953
 20
-2.098379385012332
 30
0.0
 10
10.26188805437957
 20
-2.081683491783807
 30
0.0
  0
SPLINE
  5
A8
330
1F
100
AcDbEntity
  8
SK3
100
AcDbSpline
210
0.0
220
0.0
230
1.0
 70
     8
 71
     3
 72
    10
 73
     6
 74
     0
 42
0.000000021380983
 43
0.0000000001
 12
1.0
 22
0.0
 32
0.0
 13
1.0
 23
0.0
 33
0.0
 40
0.0
 40
0.0
 40
0.0
 40
0.0
 40
0.5
 40
0.5
 40
1.0
 40
1.0
 40
1.0
 40
1.0
 10
10.26188805437953
 20
-1.402724875629891
 30
0.0
 10
10.26188805437953
 20
-1.362374302238085
 30
0.0
 10
10.21873310543308
 20
-1.322637471605345
 30
0.0
 10
10.07099495339743
 20
-1.265896393581096
 30
0.0
 10
9.967205595473635
 20
-1.249258609833925
 30
0.0
 10
9.861888054379527
 20
-1.249258609833926
 30
0.0
  0
SPLINE
  5
A9
330
1F
100
AcDbEntity
  8
SK1
  6
Continuous
100
AcDbSpline
210
0.0
220
0.0
230
1.0
 70
     8
 71
     3
 72
    10
 73
     6
 74
     0
 42
0.0000000190345564
 43
0.0000000001
 12
1.0
 22
0.0
 32
0.0
 13
1.0
 23
0.0
 33
0.0
 40
0.0
 40
0.0
 40
0.0
 40
0.0
 40
0.5
 40
0.5
 40
1.0
 40
1.0
 40
1.0
 40
1.0
 10
3.106218813995418
 20
-3.503423939310883
 30
0.0
 10
3.218596645183839
 20
-3.509471742166557
 30
0.0
 10
3.339032649651287
 20
-3.495776392251654
 30
0.0
 10
3.510072276594716
 20
-3.438749420646044
 30
0.0
 10
3.561888054379512
 20
-3.395660275736447
 30
0.0
 10
3.561888054379514
 20
-3.351739592398476
 30
0.0
  0
LINE
  5
AA
330
1F
100
AcDbEntity
  8
SK1
  6
Continuous
100
AcDbLine
 10
6.2618880544
 20
-3.5279464324
 30
0.0
 11
6.4783944053
 21
-3.5279464324
 31
0.0
  0
SPLINE
  5
AB
330
1F
100
AcDbEntity
  8
SK1
  6
Continuous
100
AcDbSpline
210
0.0
220
0.0
230
1.0
 70
     8
 71
     3
 72
     8
 73
     4
 74
     0
 42
0.0000000026688942
 43
0.0000000001
 12
1.0
 22
0.0
 32
0.0
 13
1.0
 23
0.0
 33
0.0
 40
0.0
 40
0.0
 40
0.0
 40
0.0
 40
1.0
 40
1.0
 40
1.0
 40
1.0
 10
6.478394405325619
 20
-3.5279464324256
 30
0.0
 10
7.697955281136582
 20
-3.258325764531103
 30
0.0
 10
8.917474065612208
 20
-2.988677200443681
 30
0.0
 10
10.13688805437953
 20
-2.71895934722085
 30
0.0
  0
SPLINE
  5
AC
330
1F
100
AcDbEntity
  8
SK1
  6
Continuous
100
AcDbSpline
210
0.0
220
0.0
230
1.0
 70
     8
 71
     3
 72
    10
 73
     6
 74
     0
 42
0.0000000616089256
 43
0.0000000001
 12
1.0
 22
0.0
 32
0.0
 13
1.0
 23
0.0
 33
0.0
 40
0.0
 40
0.0
 40
0.0
 40
0.0
 40
0.5
 40
0.5
 40
1.0
 40
1.0
 40
1.0
 40
1.0
 10
10.13688805437953
 20
-2.71895934722085
 30
0.0
 10
10.17458186229443
 20
-2.710621987600368
 30
0.0
 10
10.20678160429047
 20
-2.698279771290721
 30
0.0
 10
10.2502757878019
 20
-2.669346054162383
 30
0.0
 10
10.26188805437953
 20
-2.652707104519104
 30
0.0
 10
10.26188805437957
 20
-2.63601121129058
 30
0.0
  0
LINE
  5
AD
330
1F
100
AcDbEntity
  8
SK1
  6
Continuous
100
AcDbLine
 10
10.2618880544
 20
-2.6360112113
 30
0.0
 11
10.2618880544
 21
-2.0816834918
 31
0.0
  0
SPLINE
  5
AE
330
1F
100
AcDbEntity
  8
SK3
100
AcDbSpline
210
0.0
220
0.0
230
1.0
 70
     8
 71
     3
 72
    10
 73
     6
 74
     0
 42
0.000000021380983
 43
0.0000000001
 12
1.0
 22
0.0
 32
0.0
 13
1.0
 23
0.0
 33
0.0
 40
0.0
 40
0.0
 40
0.0
 40
0.0
 40
0.5
 40
0.5
 40
1.0
 40
1.0
 40
1.0
 40
1.0
 10
10.26188805437953
 20
-1.957052595136664
 30
0.0
 10
10.26188805437953
 20
-1.916702021744857
 30
0.0
 10
10.21873310543308
 20
-1.876965191112117
 30
0.0
 10
10.07099495339743
 20
-1.820224113087868
 30
0.0
 10
9.967205595473635
 20
-1.803586329340698
 30
0.0
 10
9.861888054379527
 20
-1.803586329340698
 30
0.0
  0
LINE
  5
AF
330
1F
100
AcDbEntity
  8
SK1
  6
Continuous
100
AcDbLine
 10
6.2618880544
 20
-3.5279464324
 30
0.0
 11
6.2618880544
 21
-2.9917896876
 31
0.0
  0
SPLINE
  5
B0
330
1F
100
AcDbEntity
  8
SK1
  6
Continuous
100
AcDbSpline
210
0.0
220
0.0
230
1.0
 70
     8
 71
     3
 72
    10
 73
     6
 74
     0
 42
0.0000000427804606
 43
0.0000000001
 12
1.0
 22
0.0
 32
0.0
 13
1.0
 23
0.0
 33
0.0
 40
0.0
 40
0.0
 40
0.0
 40
0.0
 40
0.5
 40
0.5
 40
1.0
 40
1.0
 40
1.0
 40
1.0
 10
6.261888054379508
 20
-2.991789687624784
 30
0.0
 10
6.261888054379519
 20
-2.971820927796412
 30
0.0
 10
6.240563610393973
 20
-2.951883094203174
 30
0.0
 10
6.165981331847233
 20
-2.923330048225248
 30
0.0
 10
6.114042549800985
 20
-2.915182600969607
 30
0.0
 10
6.06188805438004
 20
-2.915182600967904
 30
0.0
  0
LINE
  5
B1
330
1F
100
AcDbEntity
  8
SK1
  6
Continuous
100
AcDbLine
 10
6.0618880544
 20
-2.915182601
 30
0.0
 11
3.7618880544
 21
-2.915182601
 31
0.0
  0
SPLINE
  5
B2
330
1F
100
AcDbEntity
  8
SK1
  6
Continuous
100
AcDbSpline
210
0.0
220
0.0
230
1.0
 70
     8
 71
     3
 72
    10
 73
     6
 74
     0
 42
0.0000000427875695
 43
0.0000000001
 12
1.0
 22
0.0
 32
0.0
 13
1.0
 23
0.0
 33
0.0
 40
0.0
 40
0.0
 40
0.0
 40
0.0
 40
0.5
 40
0.5
 40
1.0
 40
1.0
 40
1.0
 40
1.0
 10
3.761888054379513
 20
-2.915182600969537
 30
0.0
 10
3.709620375886442
 20
-2.915182600969535
 30
0.0
 10
3.657446549616195
 20
-2.9234786302945
 30
0.0
 10
3.583713707786785
 20
-2.951675976177251
 30
0.0
 10
3.561888054379535
 20
-2.971805660396729
 30
0.0
 10
3.56188805437895
 20
-2.991789687624763
 30
0.0
  0
LINE
  5
B3
330
1F
100
AcDbEntity
  8
SK1
  6
Continuous
100
AcDbLine
 10
3.5618880544
 20
-2.9917896876
 30
0.0
 11
3.5618880544
 21
-3.3517395924
 31
0.0
  0
LINE
  5
B4
330
1F
100
AcDbEntity
  8
SK1
  6
Continuous
100
AcDbLine
 10
-17.2381119456
 20
0.3
 30
0.0
 11
-17.2381119456
 21
3.602396502
 31
0.0
  0
LINE
  5
B5
330
1F
100
AcDbEntity
  8
SK1
  6
Continuous
100
AcDbLine
 10
-17.0659465658
 20
0.3
 30
0.0
 11
-17.0659465658
 21
3.7426502748
 31
0.0
  0
LINE
  5
B6
330
1F
100
AcDbEntity
  8
SK3
100
AcDbLine
 10
-16.1390738399
 20
-0.3
 30
0.0
 11
-16.1390738399
 21
-2.6083289209
 31
0.0
  0
LINE
  5
B7
330
1F
100
AcDbEntity
  8
SK1
  6
Continuous
100
AcDbLine
 10
-17.2381119456
 20
0.3
 30
0.0
 11
-17.0659465658
 21
0.3
 31
0.0
  0
LINE
  5
B8
330
1F
100
AcDbEntity
  8
SK1
  6
Continuous
100
AcDbLine
 10
-17.0659465658
 20
0.3
 30
0.0
 11
-3.0345214884
 21
0.3
 31
0.0
  0
LINE
  5
B9
330
1F
100
AcDbEntity
  8
SK1
  6
Continuous
100
AcDbLine
 10
-17.2381119456
 20
-0.3
 30
0.0
 11
-17.0659465658
 21
-0.3
 31
0.0
  0
LINE
  5
BA
330
1F
100
AcDbEntity
  8
SK1
  6
Continuous
100
AcDbLine
 10
-17.0659465658
 20
-0.3
 30
0.0
 11
-3.0345214884
 21
-0.3
 31
0.0
  0
LINE
  5
BB
330
1F
100
AcDbEntity
  8
SK1
  6
Continuous
100
AcDbLine
 10
6.2618880544
 20
3.5279464324
 30
0.0
 11
6.2618880544
 21
7.7332783456
 31
0.0
  0
LINE
  5
BC
330
1F
100
AcDbEntity
  8
SK1
  6
Continuous
100
AcDbLine
 10
6.4783944053
 20
3.5279464324
 30
0.0
 11
6.4783944053
 21
7.7332783456
 31
0.0
  0
LINE
  5
BD
330
1F
100
AcDbEntity
  8
SK1
  6
Continuous
100
AcDbLine
 10
3.106218814
 20
3.5034239393
 30
0.0
 11
3.106218814
 21
7.6740758101
 31
0.0
  0
LINE
  5
BE
330
1F
100
AcDbEntity
  8
SK1
  6
Continuous
100
AcDbLine
 10
3.5618880544
 20
2.7974118729
 30
0.0
 11
3.5618880544
 21
-2.7974118729
 31
0.0
  0
LINE
  5
BF
330
1F
100
AcDbEntity
  8
SK1
  6
Continuous
100
AcDbLine
 10
10.1368880544
 20
2.7189593472
 30
0.0
 11
10.1368880544
 21
5.7802107527
 31
0.0
  0
LINE
  5
C0
330
1F
100
AcDbEntity
  8
SK1
  6
Continuous
100
AcDbLine
 10
10.2618880544
 20
2.6360112113
 30
0.0
 11
10.2618880544
 21
5.5799562379
 31
0.0
  0
LINE
  5
C1
330
1F
100
AcDbEntity
  8
SK1
  6
Continuous
100
AcDbLine
 10
3.7618880544
 20
2.915182601
 30
0.0
 11
3.7618880544
 21
6.2539355931
 31
0.0
  0
LINE
  5
C2
330
1F
100
AcDbEntity
  8
SK1
  6
Continuous
100
AcDbLine
 10
6.0618880544
 20
2.915182601
 30
0.0
 11
6.0618880544
 21
6.2539355931
 31
0.0
  0
LINE
  5
C3
330
1F
100
AcDbEntity
  8
SK1
  6
Continuous
100
AcDbLine
 10
6.2618880544
 20
3.5279464324
 30
0.0
 11
6.2618880544
 21
2.9917896876
 31
0.0
  0
SPLINE
  5
C4
330
1F
100
AcDbEntity
  8
SK1
  6
Continuous
100
AcDbSpline
210
0.0
220
0.0
230
1.0
 70
     8
 71
     3
 72
    10
 73
     6
 74
     0
 42
0.0000000427782015
 43
0.0000000001
 12
1.0
 22
0.0
 32
0.0
 13
1.0
 23
0.0
 33
0.0
 40
0.0
 40
0.0
 40
0.0
 40
0.0
 40
0.5
 40
0.5
 40
1.0
 40
1.0
 40
1.0
 40
1.0
 10
6.261888054379508
 20
2.99178968762478
 30
0.0
 10
6.26188805437952
 20
2.971822947928048
 30
0.0
 10
6.240694162757206
 20
2.951958054993673
 30
0.0
 10
6.166097519888147
 20
2.923349631873714
 30
0.0
 10
6.114734583858572
 20
2.915182600969227
 30
0.0
 10
6.061888054379516
 20
2.915182600969533
 30
0.0
  0
LINE
  5
C5
330
1F
100
AcDbEntity
  8
SK1
  6
Continuous
100
AcDbLine
 10
6.0618880544
 20
2.915182601
 30
0.0
 11
3.7618880544
 21
2.915182601
 31
0.0
  0
SPLINE
  5
C6
330
1F
100
AcDbEntity
  8
SK1
  6
Continuous
100
AcDbSpline
210
0.0
220
0.0
230
1.0
 70
     8
 71
     3
 72
    10
 73
     6
 74
     0
 42
0.000000042784668
 43
0.0000000001
 12
1.0
 22
0.0
 32
0.0
 13
1.0
 23
0.0
 33
0.0
 40
0.0
 40
0.0
 40
0.0
 40
0.0
 40
0.5
 40
0.5
 40
1.0
 40
1.0
 40
1.0
 40
1.0
 10
3.761888054379513
 20
2.915182600969533
 30
0.0
 10
3.709002273225097
 20
2.915182600969533
 30
0.0
 10
3.657275995262529
 20
2.923505035743491
 30
0.0
 10
3.583494588664136
 20
2.951798797366446
 30
0.0
 10
3.561888054379408
 20
2.971805793902817
 30
0.0
 10
3.561888054377227
 20
2.991789687624882
 30
0.0
  0
LINE
  5
C7
330
1F
100
AcDbEntity
  8
SK1
  6
Continuous
100
AcDbLine
 10
3.5618880544
 20
2.9917896876
 30
0.0
 11
3.5618880544
 21
3.3517395924
 31
0.0
  0
SPLINE
  5
C8
330
1F
100
AcDbEntity
  8
SK1
  6
Continuous
100
AcDbSpline
210
0.0
220
0.0
230
1.0
 70
     8
 71
     3
 72
    10
 73
     6
 74
     0
 42
0.0000000190338767
 43
0.0000000001
 12
1.0
 22
0.0
 32
0.0
 13
1.0
 23
0.0
 33
0.0
 40
0.0
 40
0.0
 40
0.0
 40
0.0
 40
0.5
 40
0.5
 40
1.0
 40
1.0
 40
1.0
 40
1.0
 10
3.106218813995487
 20
3.503423939301026
 30
0.0
 10
3.220232496968165
 20
3.509559778294839
 30
0.0
 10
3.338673712742176
 20
3.495852164154289
 30
0.0
 10
3.509972002366534
 20
3.438826638498639
 30
0.0
 10
3.561888054379512
 20
3.39563120141551
 30
0.0
 10
3.561888054379514
 20
3.351739592398473
 30
0.0
  0
LINE
  5
C9
330
1F
100
AcDbEntity
  8
SK1
  6
Continuous
100
AcDbLine
 10
6.2618880544
 20
3.5279464324
 30
0.0
 11
6.4783944053
 21
3.5279464324
 31
0.0
  0
LINE
  5
CA
330
1F
100
AcDbEntity
  8
SK1
  6
Continuous
100
AcDbLine
 10
6.4783944053
 20
3.5279464324
 30
0.0
 11
10.1368880544
 21
2.7189593472
 31
0.0
  0
SPLINE
  5
CB
330
1F
100
AcDbEntity
  8
SK1
  6
Continuous
100
AcDbSpline
210
0.0
220
0.0
230
1.0
 70
     8
 71
     3
 72
     8
 73
     4
 74
     0
 42
0.0000000587350374
 43
0.0000000001
 12
1.0
 22
0.0
 32
0.0
 13
1.0
 23
0.0
 33
0.0
 40
0.0
 40
0.0
 40
0.0
 40
0.0
 40
1.0
 40
1.0
 40
1.0
 40
1.0
 10
10.13688805437953
 20
2.718959347220847
 30
0.0
 10
10.21320044115066
 20
2.702080081176813
 30
0.0
 10
10.26188805437953
 20
2.669562357695096
 30
0.0
 10
10.26188805437953
 20
2.636011211290577
 30
0.0
  0
LINE
  5
CC
330
1F
100
AcDbEntity
  8
SK1
  6
Continuous
100
AcDbLine
 10
10.2618880544
 20
2.6360112113
 30
0.0
 11
10.2618880544
 21
2.0816834918
 31
0.0
  0
SPLINE
  5
CD
330
1F
100
AcDbEntity
  8
SK3
100
AcDbSpline
210
0.0
220
0.0
230
1.0
 70
     8
 71
     3
 72
    10
 73
     6
 74
     0
 42
0.0000000213829457
 43
0.0000000001
 12
1.0
 22
0.0
 32
0.0
 13
1.0
 23
0.0
 33
0.0
 40
0.0
 40
0.0
 40
0.0
 40
0.0
 40
0.5
 40
0.5
 40
1.0
 40
1.0
 40
1.0
 40
1.0
 10
10.26188805437953
 20
1.957052595136659
 30
0.0
 10
10.26188805437954
 20
1.917084641088155
 30
0.0
 10
10.21956591327093
 20
1.87731509461923
 30
0.0
 10
10.07045837731848
 20
1.819988041508146
 30
0.0
 10
9.96767390883299
 20
1.803586329340545
 30
0.0
 10
9.861888054379527
 20
1.803586329340693
 30
0.0
  0
SPLINE
  5
CE
330
1F
100
AcDbEntity
  8
SK1
  6
Continuous
100
AcDbSpline
210
0.0
220
0.0
230
1.0
 70
     8
 71
     3
 72
    10
 73
     6
 74
     0
 42
0.0000000190338767
 43
0.0000000001
 12
1.0
 22
0.0
 32
0.0
 13
1.0
 23
0.0
 33
0.0
 40
0.0
 40
0.0
 40
0.0
 40
0.0
 40
0.5
 40
0.5
 40
1.0
 40
1.0
 40
1.0
 40
1.0
 10
3.106218813995487
 20
2.949096219794254
 30
0.0
 10
3.220232496968165
 20
2.955232058788069
 30
0.0
 10
3.338673712742176
 20
2.941524444647515
 30
0.0
 10
3.509972002366534
 20
2.884498918991868
 30
0.0
 10
3.561888054379513
 20
2.841303481908738
 30
0.0
 10
3.561888054379514
 20
2.797411872891701
 30
0.0
  0
LINE
  5
CF
330
1F
100
AcDbEntity
  8
SK1
  6
Continuous
100
AcDbLine
 10
6.2618880544
 20
2.9736187129
 30
0.0
 11
6.4783944053
 21
2.9736187129
 31
0.0
  0
LINE
  5
D0
330
1F
100
AcDbEntity
  8
SK1
  6
Continuous
100
AcDbLine
 10
6.4783944053
 20
2.9736187129
 30
0.0
 11
10.1368880544
 21
2.1646316277
 31
0.0
  0
SPLINE
  5
D1
330
1F
100
AcDbEntity
  8
SK1
  6
Continuous
100
AcDbSpline
210
0.0
220
0.0
230
1.0
 70
     8
 71
     3
 72
     8
 73
     4
 74
     0
 42
0.0000000587350374
 43
0.0000000001
 12
1.0
 22
0.0
 32
0.0
 13
1.0
 23
0.0
 33
0.0
 40
0.0
 40
0.0
 40
0.0
 40
0.0
 40
1.0
 40
1.0
 40
1.0
 40
1.0
 10
10.13688805437953
 20
2.164631627714074
 30
0.0
 10
10.21320044115066
 20
2.14775236167004
 30
0.0
 10
10.26188805437953
 20
2.115234638188326
 30
0.0
 10
10.26188805437953
 20
2.081683491783806
 30
0.0
  0
SPLINE
  5
D2
330
1F
100
AcDbEntity
  8
SK3
100
AcDbSpline
210
0.0
220
0.0
230
1.0
 70
     8
 71
     3
 72
    10
 73
     6
 74
     0
 42
0.0000000213829457
 43
0.0000000001
 12
1.0
 22
0.0
 32
0.0
 13
1.0
 23
0.0
 33
0.0
 40
0.0
 40
0.0
 40
0.0
 40
0.0
 40
0.5
 40
0.5
 40
1.0
 40
1.0
 40
1.0
 40
1.0
 10
10.26188805437953
 20
1.402724875629887
 30
0.0
 10
10.26188805437954
 20
1.362756921581383
 30
0.0
 10
10.21956591327093
 20
1.322987375112459
 30
0.0
 10
10.07045837731848
 20
1.265660322001373
 30
0.0
 10
9.96767390883299
 20
1.249258609833773
 30
0.0
 10
9.861888054379527
 20
1.249258609833921
 30
0.0
  0
SPLINE
  5
D3
330
1F
100
AcDbEntity
  8
SK1
  6
Continuous
100
AcDbSpline
210
0.0
220
0.0
230
1.0
 70
     8
 71
     3
 72
    10
 73
     6
 74
     0
 42
0.0000000427782015
 43
0.0000000001
 12
1.0
 22
0.0
 32
0.0
 13
1.0
 23
0.0
 33
0.0
 40
0.0
 40
0.0
 40
0.0
 40
0.0
 40
0.5
 40
0.5
 40
1.0
 40
1.0
 40
1.0
 40
1.0
 10
6.261888054379508
 20
2.43746196811801
 30
0.0
 10
6.261888054379519
 20
2.417495228421276
 30
0.0
 10
6.240694162757206
 20
2.397630335486902
 30
0.0
 10
6.166097519888147
 20
2.369021912366942
 30
0.0
 10
6.114734583858572
 20
2.360854881462456
 30
0.0
 10
6.061888054379516
 20
2.360854881462761
 30
0.0
  0
LINE
  5
D4
330
1F
100
AcDbEntity
  8
SK1
  6
Continuous
100
AcDbLine
 10
6.0618880544
 20
2.3608548815
 30
0.0
 11
3.7618880544
 21
2.3608548815
 31
0.0
  0
SPLINE
  5
D5
330
1F
100
AcDbEntity
  8
SK1
  6
Continuous
100
AcDbSpline
210
0.0
220
0.0
230
1.0
 70
     8
 71
     3
 72
    10
 73
     6
 74
     0
 42
0.000000042784668
 43
0.0000000001
 12
1.0
 22
0.0
 32
0.0
 13
1.0
 23
0.0
 33
0.0
 40
0.0
 40
0.0
 40
0.0
 40
0.0
 40
0.5
 40
0.5
 40
1.0
 40
1.0
 40
1.0
 40
1.0
 10
3.761888054379513
 20
2.360854881462761
 30
0.0
 10
3.709002273225096
 20
2.360854881462763
 30
0.0
 10
3.657275995262528
 20
2.36917731623672
 30
0.0
 10
3.583494588664135
 20
2.397471077859676
 30
0.0
 10
3.561888054379408
 20
2.417478074396047
 30
0.0
 10
3.561888054377227
 20
2.437461968118111
 30
0.0
  0
LINE
  5
D6
330
1F
100
AcDbEntity
  8
SK1
  6
Continuous
100
AcDbLine
 10
-17.2381119456
 20
4.0266605707
 30
0.0
 11
-17.2381119456
 21
5.3945579902
 31
0.0
  0
LINE
  5
D7
330
1F
100
AcDbEntity
  8
SK1
  6
Continuous
100
AcDbLine
 10
-17.0659465658
 20
4.1669143435
 30
0.0
 11
-17.0659465658
 21
5.5929067778
 31
0.0
  0
LINE
  5
D8
330
1F
100
AcDbEntity
  8
SK3
100
AcDbLine
 10
-16.1390738399
 20
2.6083289209
 30
0.0
 11
-16.1390738399
 21
0.3
 31
0.0
  0
LINE
  5
D9
330
1F
100
AcDbEntity
  8
SK3
100
AcDbLine
 10
-17.2381119456
 20
3.4823665689
 30
0.0
 11
-16.1390738399
 21
3.0325929896
 31
0.0
  0
LINE
  5
DA
330
1F
100
AcDbEntity
  8
SK3
100
AcDbLine
 10
-16.1390738399
 20
3.0325929896
 30
0.0
 11
-2.7005472171
 21
3.0325929896
 31
0.0
  0
SPLINE
  5
DB
330
1F
100
AcDbEntity
  8
SK1
  6
Continuous
100
AcDbSpline
210
0.0
220
0.0
230
1.0
 70
     8
 71
     3
 72
    10
 73
     6
 74
     0
 42
0.0000000403600054
 43
0.0000000001
 12
1.0
 22
0.0
 32
0.0
 13
1.0
 23
0.0
 33
0.0
 40
0.0
 40
0.0
 40
0.0
 40
0.0
 40
0.5
 40
0.5
 40
1.0
 40
1.0
 40
1.0
 40
1.0
 10
-17.23811194562058
 20
4.026660570748274
 30
0.0
 10
-17.23811194562049
 20
4.060362441508627
 30
0.0
 10
-17.220299081634
 20
4.09408324219678
 30
0.0
 10
-17.15803693825404
 20
4.144893177240584
 30
0.0
 10
-17.11364740426858
 20
4.162167144720964
 30
0.0
 10
-17.06594656581249
 20
4.166914343512296
 30
0.0
  0
SPLINE
  5
DC
330
1F
100
AcDbEntity
  8
SK1
  6
Continuous
100
AcDbSpline
210
0.0
220
0.0
230
1.0
 70
     8
 71
     3
 72
    11
 73
     7
 74
     0
 42
0.0000000007091853
 43
0.0000000001
 12
1.0
 22
0.0
 32
0.0
 13
1.0
 23
0.0
 33
0.0
 40
0.0
 40
0.0
 40
0.0
 40
0.0
 40
0.6939571910621131
 40
0.6939571910621131
 40
0.6939571910621131
 40
1.0
 40
1.0
 40
1.0
 40
1.0
 10
-17.06594656581249
 20
4.166914343512296
 30
0.0
 10
-13.82023405066346
 20
4.489928425406696
 30
0.0
 10
-10.5745002341097
 20
4.812835490011014
 30
0.0
 10
-7.328755631407415
 20
5.135688319662661
 30
0.0
 10
-5.897346304552764
 20
5.278069994172735
 30
0.0
 10
-4.465934759436324
 20
5.420440518491199
 30
0.0
 10
-3.034521488354317
 20
5.562802365292528
 30
0.0
  0
LINE
  5
DD
330
1F
100
AcDbEntity
  8
SK1
  6
Continuous
100
AcDbLine
 10
-17.2381119456
 20
3.602396502
 30
0.0
 11
-17.2381119456
 21
4.0266605707
 31
0.0
  0
SPLINE
  5
DE
330
1F
100
AcDbEntity
  8
SK1
  6
Continuous
100
AcDbSpline
210
0.0
220
0.0
230
1.0
 70
     8
 71
     3
 72
    10
 73
     6
 74
     0
 42
0.0000000403600054
 43
0.0000000001
 12
1.0
 22
0.0
 32
0.0
 13
1.0
 23
0.0
 33
0.0
 40
0.0
 40
0.0
 40
0.0
 40
0.0
 40
0.5
 40
0.5
 40
1.0
 40
1.0
 40
1.0
 40
1.0
 10
-17.23811194562047
 20
3.602396502036352
 30
0.0
 10
-17.23811194562048
 20
3.636098372796712
 30
0.0
 10
-17.22029908163401
 20
3.669819173484862
 30
0.0
 10
-17.15803693825403
 20
3.72062910852866
 30
0.0
 10
-17.11364740426857
 20
3.737903076009037
 30
0.0
 10
-17.06594656581249
 20
3.742650274800368
 30
0.0
  0
SPLINE
  5
DF
330
1F
100
AcDbEntity
  8
SK1
  6
Continuous
100
AcDbSpline
210
0.0
220
0.0
230
1.0
 70
     8
 71
     3
 72
    11
 73
     7
 74
     0
 42
0.0000000007091853
 43
0.0000000001
 12
1.0
 22
0.0
 32
0.0
 13
1.0
 23
0.0
 33
0.0
 40
0.0
 40
0.0
 40
0.0
 40
0.0
 40
0.6939571910621131
 40
0.6939571910621131
 40
0.6939571910621131
 40
1.0
 40
1.0
 40
1.0
 40
1.0
 10
-17.06594656581249
 20
3.742650274800368
 30
0.0
 10
-13.82023405066346
 20
4.065664356694769
 30
0.0
 10
-10.5745002341097
 20
4.388571421299087
 30
0.0
 10
-7.328755631407415
 20
4.711424250950733
 30
0.0
 10
-5.897346304552764
 20
4.853805925460807
 30
0.0
 10
-4.465934759436324
 20
4.996176449779273
 30
0.0
 10
-3.034521488354317
 20
5.1385382965806
 30
0.0
  0
LINE
  5
E0
330
1F
100
AcDbEntity
  8
SK3
100
AcDbLine
 10
-17.2381119456
 20
3.0581025002
 30
0.0
 11
-16.1390738399
 21
2.6083289209
 31
0.0
  0
LINE
  5
E1
330
1F
100
AcDbEntity
  8
SK3
100
AcDbLine
 10
-16.1390738399
 20
2.6083289209
 30
0.0
 11
-2.7005472171
 21
2.6083289209
 31
0.0
  0
ELLIPSE
  5
E2
330
1F
100
AcDbEntity
  8
SK1
  6
Continuous
100
AcDbEllipse
 10
49.9456354666
 20
0.114805033
 30
0.0
 11
-62.19999995944814
 21
-2.250657440179512E-8
 31
0.0
210
0.0
220
0.0
230
1.0
 40
0.9238795328
 41
-0.1017061613995613
 42
-0.0976745529719727
  0
SPLINE
  5
E3
330
1F
100
AcDbEntity
  8
SK3
100
AcDbSpline
210
0.0
220
0.0
230
1.0
 70
     8
 71
     3
 72
    35
 73
    31
 74
     0
 42
0.0000000145476423
 43
0.0000000001
 12
1.0
 22
0.0
 32
0.0
 13
1.0
 23
0.0
 33
0.0
 40
0.0
 40
0.0
 40
0.0
 40
0.0
 40
0.1073188950442962
 40
0.1073188950442962
 40
0.1073188950442962
 40
0.2146461834712262
 40
0.2146461834712262
 40
0.2146461834712262
 40
0.3218782163433607
 40
0.3218782163433607
 40
0.3218782163433607
 40
0.4292264736846945
 40
0.4292264736846945
 40
0.4292264736846945
 40
0.4999972780496186
 40
0.4999972780496186
 40
0.4999972780496186
 40
0.6074282400873768
 40
0.6074282400873768
 40
0.6074282400873768
 40
0.7148594552301663
 40
0.7148594552301663
 40
0.7148594552301663
 40
0.8222802636116873
 40
0.8222802636116873
 40
0.8222802636116873
 40
0.9295916059223641
 40
0.9295916059223641
 40
0.9295916059223641
 40
1.0
 40
1.0
 40
1.0
 40
1.0
 10
-12.12633884522699
 20
3.799914857698239
 30
0.0
 10
-12.15988116641483
 20
3.79991485769824
 30
0.0
 10
-12.19388712409908
 20
3.798120439575984
 30
0.0
 10
-12.22554036080916
 20
3.794609999657527
 30
0.0
 10
-12.25719531049285
 20
3.791099369765103
 30
0.0
 10
-12.2873688502477
 20
3.785769774879358
 30
0.0
 10
-12.31356102940019
 20
3.778898848817111
 30
0.0
 10
-12.33973119610972
 20
3.772033697221628
 30
0.0
 10
-12.3626489383784
 20
3.763432061427899
 30
0.0
 10
-12.38043171499881
 20
3.753615481277236
 30
0.0
 10
-12.39823345851147
 20
3.743788430882132
 30
0.0
 10
-12.41138065842646
 20
3.73246488397228
 30
0.0
 10
-12.41879558749634
 20
3.720446822325356
 30
0.0
 10
-12.42372333914143
 20
3.71245995926931
 30
0.0
 10
-12.42623315174424
 20
3.704051015375675
 30
0.0
 10
-12.42623315174427
 20
3.695518130045402
 30
0.0
 10
-12.42623315174431
 20
3.682668850542823
 30
0.0
 10
-12.42045282354056
 20
3.669230371010402
 30
0.0
 10
-12.40936650026337
 20
3.656378524796637
 30
0.0
 10
-12.39828016881687
 20
3.643526669112586
 30
0.0
 10
-12.38158145651216
 20
3.630912506566558
 30
0.0
 10
-12.36064235151127
 20
3.619742724692038
 30
0.0
 10
-12.33970563166193
 20
3.608574215155682
 30
0.0
 10
-12.31394995628945
 20
3.598550480335237
 30
0.0
 10
-12.28550321444774
 20
3.590693245501555
 30
0.0
 10
-12.25708504043925
 20
3.582843901349193
 30
0.0
 10
-12.22519676599134
 20
3.576948707059366
 30
0.0
 10
-12.19248298204789
 20
3.5736263612638
 30
0.0
 10
-12.1708441473679
 20
3.5714287649373
 30
0.0
 10
-12.14852370501674
 20
3.570304798279186
 30
0.0
 10
-12.12633884522699
 20
3.570304798279186
 30
0.0
  0
SPLINE
  5
E4
330
1F
100
AcDbEntity
  8
SK1
  6
Continuous
100
AcDbSpline
210
0.0
220
0.0
230
1.0
 70
     8
 71
     3
 72
    35
 73
    31
 74
     0
 42
0.000000014285121
 43
0.0000000001
 12
1.0
 22
0.0
 32
0.0
 13
1.0
 23
0.0
 33
0.0
 40
0.0
 40
0.0
 40
0.0
 40
0.0
 40
0.1109282350188725
 40
0.1109282350188725
 40
0.1109282350188725
 40
0.2219835961662484
 40
0.2219835961662484
 40
0.2219835961662484
 40
0.3310796898380999
 40
0.3310796898380999
 40
0.3310796898380999
 40
0.4376166855687321
 40
0.4376166855687321
 40
0.4376166855687321
 40
0.5001075690994083
 40
0.5001075690994083
 40
0.5001075690994083
 40
0.6046394905851209
 40
0.6046394905851209
 40
0.6046394905851209
 40
0.7091265106033512
 40
0.7091265106033512
 40
0.7091265106033512
 40
0.8143265814489737
 40
0.8143265814489737
 40
0.8143265814489737
 40
0.9214452333066642
 40
0.9214452333066642
 40
0.9214452333066642
 40
1.0
 40
1.0
 40
1.0
 40
1.0
 10
-11.93293885569638
 20
5.719699751986879
 30
0.0
 10
-11.96768384588384
 20
5.715183277698242
 30
0.0
 10
-12.00295264149789
 20
5.713148824681569
 30
0.0
 10
-12.03583098346438
 20
5.713771126568199
 30
0.0
 10
-12.06873117618072
 20
5.714393842032949
 30
0.0
 10
-12.10015431420982
 20
5.717698876641296
 30
0.0
 10
-12.12731684660702
 20
5.723354272523715
 30
0.0
 10
-12.15400185780678
 20
5.728910245739123
 30
0.0
 10
-12.17732626989269
 20
5.736890299785811
 30
0.0
 10
-12.19516371480053
 20
5.746516397709372
 30
0.0
 10
-12.21258951869882
 20
5.755920350774861
 30
0.0
 10
-12.22526842253634
 20
5.767155362841905
 30
0.0
 10
-12.23205213107521
 20
5.779192673603419
 30
0.0
 10
-12.23606974867795
 20
5.786321710962246
 30
0.0
 10
-12.23811194562048
 20
5.793822546544324
 30
0.0
 10
-12.23811194562048
 20
5.801459775861209
 30
0.0
 10
-12.23811194562048
 20
5.814118101254485
 30
0.0
 10
-12.23239797595573
 20
5.827437990704366
 30
0.0
 10
-12.22147466420855
 20
5.840348956594426
 30
0.0
 10
-12.2105539518015
 20
5.853256850156917
 30
0.0
 10
-12.19413335239045
 20
5.866112454350148
 30
0.0
 10
-12.17362984602956
 20
5.877970253508512
 30
0.0
 10
-12.15298332715794
 20
5.889910761136327
 30
0.0
 10
-12.12764889056104
 20
5.901167178456311
 30
0.0
 10
-12.09974086168385
 20
5.910977048064008
 30
0.0
 10
-12.07132559558271
 20
5.920965215144769
 30
0.0
 10
-12.03949015734593
 20
5.929727338227809
 30
0.0
 10
-12.00681115613659
 20
5.936691085753253
 30
0.0
 10
-11.98269296143704
 20
5.941830564086182
 30
0.0
 10
-11.95771842805836
 20
5.946088734040462
 30
0.0
 10
-11.93293885569638
 20
5.949309811405933
 30
0.0
  0
SPLINE
  5
E5
330
1F
100
AcDbEntity
  8
SK3
100
AcDbSpline
210
0.0
220
0.0
230
1.0
 70
     8
 71
     3
 72
    11
 73
     7
 74
     0
 42
0.0000003226772465
 43
0.0000000001
 12
1.0
 22
0.0
 32
0.0
 13
1.0
 23
0.0
 33
0.0
 40
0.0
 40
0.0
 40
0.0
 40
0.0
 40
0.2260604551774935
 40
0.2260604551774935
 40
0.2260604551774935
 40
0.9999999999999999
 40
0.9999999999999999
 40
0.9999999999999999
 40
0.9999999999999999
 10
-12.41452609520699
 20
-3.72650707265251
 30
0.0
 10
-12.41611113504835
 20
-3.724509648971521
 30
0.0
 10
-12.41753605986241
 20
-3.722488255305761
 30
0.0
 10
-12.41879558749634
 20
-3.720446822325361
 30
0.0
 10
-12.42314241911886
 20
-3.713401510102415
 30
0.0
 10
-12.42560779779999
 20
-3.706027767253425
 30
0.0
 10
-12.42612866229102
 20
-3.698530234186479
 30
0.0
  0
ARC
  5
E6
330
1F
100
AcDbEntity
  8
SK3
100
AcDbCircle
 10
-2.7005096103
 20
-7.9849190223
 30
0.0
 40
3.996184887458091
100
AcDbArc
 50
85.6967240219
 51
90.0005391929
  0
SPLINE
  5
E7
330
1F
100
AcDbEntity
  8
SK1
  6
Continuous
100
AcDbSpline
210
0.0
220
0.0
230
1.0
 70
     8
 71
     3
 72
    23
 73
    19
 74
     0
 42
0.0000000327476852
 43
0.0000000001
 12
1.0
 22
0.0
 32
0.0
 13
1.0
 23
0.0
 33
0.0
 40
0.0
 40
0.0
 40
0.0
 40
0.0
 40
0.1923208162013787
 40
0.1923208162013787
 40
0.1923208162013787
 40
0.3846323453502951
 40
0.3846323453502951
 40
0.3846323453502951
 40
0.5770729487224431
 40
0.5770729487224431
 40
0.5770729487224431
 40
0.7694962031991163
 40
0.7694962031991163
 40
0.7694962031991163
 40
0.8947898157691268
 40
0.8947898157691268
 40
0.8947898157691268
 40
1.0
 40
1.0
 40
1.0
 40
1.0
 10
-3.034521488354321
 20
-7.56699054979783
 30
0.0
 10
-3.001262042975191
 20
-7.571668532101376
 30
0.0
 10
-2.967576685571383
 20
-7.576642199273308
 30
0.0
 10
-2.936250315652191
 20
-7.581462848354034
 30
0.0
 10
-2.904924854935492
 20
-7.586283357522406
 30
0.0
 10
-2.875093617115654
 20
-7.591080522490895
 30
0.0
 10
-2.849209114129073
 20
-7.595366813213643
 30
0.0
 10
-2.82330779888014
 20
-7.599655887928193
 30
0.0
 10
-2.800642999951789
 20
-7.603546794588373
 30
0.0
 10
-2.783079152379024
 20
-7.606611286284446
 30
0.0
 10
-2.765517292246903
 20
-7.609675431217356
 30
0.0
 10
-2.752570300255397
 20
-7.611993320542078
 30
0.0
 10
-2.745307680668723
 20
-7.613297298888471
 30
0.0
 10
-2.740539781487612
 20
-7.614153358773716
 30
0.0
 10
-2.738111945619113
 20
-7.614592741375197
 30
0.0
 10
-2.73811194561909
 20
-7.6145927413752
 30
0.0
 10
-2.738111945619071
 20
-7.614592741375204
 30
0.0
 10
-2.739822932578905
 20
-7.614282135788151
 30
0.0
 10
-2.743167536384555
 20
-7.613680821401339
 30
0.0
  0
SPLINE
  5
E8
330
1F
100
AcDbEntity
  8
SK1
  6
Continuous
100
AcDbSpline
210
0.0
220
0.0
230
1.0
 70
     8
 71
     3
 72
    20
 73
    16
 74
     0
 42
0.0000000333080568
 43
0.0000000001
 12
1.0
 22
0.0
 32
0.0
 13
1.0
 23
0.0
 33
0.0
 40
0.0
 40
0.0
 40
0.0
 40
0.0
 40
0.2146620896316419
 40
0.2146620896316419
 40
0.2146620896316419
 40
0.4293109030727377
 40
0.4293109030727377
 40
0.4293109030727377
 40
0.6441632339819486
 40
0.6441632339819486
 40
0.6441632339819486
 40
0.8592492961046552
 40
0.8592492961046552
 40
0.8592492961046552
 40
1.0
 40
1.0
 40
1.0
 40
1.0
 10
-2.73811194561909
 20
7.614592741375195
 30
0.0
 10
-2.738111945619054
 20
7.614592741375201
 30
0.0
 10
-2.743814603070776
 20
7.613557504224286
 30
0.0
 10
-2.754749136770307
 20
7.611608097773969
 30
0.0
 10
-2.765683288698011
 20
7.609658759385855
 30
0.0
 10
-2.78214962032883
 20
7.606744905458924
 30
0.0
 10
-2.802795129488808
 20
7.603197395577379
 30
0.0
 10
-2.82346007248528
 20
7.5996465463872
 30
0.0
 10
-2.848881758546464
 20
7.595367970078254
 30
0.0
 10
-2.876974003170497
 20
7.590820965064754
 30
0.0
 10
-2.905095767813684
 20
7.586269181946948
 30
0.0
 10
-2.936670731382803
 20
7.58132739418011
 30
0.0
 10
-2.96909528588707
 20
7.576481118453199
 30
0.0
 10
-2.990486749995705
 20
7.573283883059907
 30
0.0
 10
-3.012564063654173
 20
7.570078888854832
 30
0.0
 10
-3.034521488354321
 20
7.566990549797825
 30
0.0
  0
ARC
  5
E9
330
1F
100
AcDbEntity
  8
SK3
100
AcDbCircle
 10
-2.7005096103
 20
7.9849190223
 30
0.0
 40
3.99618488745849
100
AcDbArc
 50
269.9994608071
 51
274.2274677309
  0
LINE
  5
EA
330
1F
100
AcDbEntity
  8
SK1
  6
Continuous
100
AcDbLine
 10
-3.0345214884
 20
7.5669905498
 30
0.0
 11
-17.0659465658
 21
5.5929067778
 31
0.0
  0
LINE
  5
EB
330
1F
100
AcDbEntity
  8
SK3
100
AcDbLine
 10
-2.7005472171
 20
3.988734135
 30
0.0
 11
-16.1390738399
 21
3.988734135
 31
0.0
  0
SPLINE
  5
EC
330
1F
100
AcDbEntity
  8
SK3
100
AcDbSpline
210
0.0
220
0.0
230
1.0
 70
     8
 71
     3
 72
    11
 73
     7
 74
     0
 42
0.0000003494414589
 43
0.0000000001
 12
1.0
 22
0.0
 32
0.0
 13
1.0
 23
0.0
 33
0.0
 40
0.0
 40
0.0
 40
0.0
 40
0.0
 40
0.2942388909188763
 40
0.2942388909188763
 40
0.2942388909188763
 40
1.0
 40
1.0
 40
1.0
 40
1.0
 10
-12.22745396531935
 20
5.832481524201768
 30
0.0
 10
-12.22920238593366
 20
5.829910161900308
 30
0.0
 10
-12.23073789111863
 20
5.827339955845106
 30
0.0
 10
-12.23205213107521
 20
5.824778648544277
 30
0.0
 10
-12.2352349909085
 20
5.818575609222821
 30
0.0
 10
-12.23717803421162
 20
5.812358847030967
 30
0.0
 10
-12.23784805862237
 20
5.80624589915093
 30
0.0
  0
SPLINE
  5
ED
330
1F
100
AcDbEntity
  8
SK1
  6
Continuous
100
AcDbSpline
210
0.0
220
0.0
230
1.0
 70
     8
 71
     3
 72
    11
 73
     7
 74
     0
 42
0.0000000006593864
 43
0.0000000001
 12
1.0
 22
0.0
 32
0.0
 13
1.0
 23
0.0
 33
0.0
 40
0.0
 40
0.0
 40
0.0
 40
0.0
 40
0.6794373012482287
 40
0.6794373012482287
 40
0.6794373012482287
 40
1.0
 40
1.0
 40
1.0
 40
1.0
 10
-11.93293885569638
 20
-5.719699751986884
 30
0.0
 10
-8.526902634802276
 20
-6.162447754931711
 30
0.0
 10
-5.120850050941452
 20
-6.605088315849423
 30
0.0
 10
-1.714788787075095
 20
-7.047671846979238
 30
0.0
 10
-0.1077881276154418
 20
-7.256485479880322
 30
0.0
 10
1.499214556899385
 20
-7.465285810795531
 30
0.0
 10
3.106218813995486
 20
-7.674075810077293
 30
0.0
  0
LINE
  5
EE
330
1F
100
AcDbEntity
  8
SK3
100
AcDbLine
 10
-12.1263388452
 20
-3.5703047983
 30
0.0
 11
9.8618880544
 21
-3.5703047983
 31
0.0
  0
SPLINE
  5
EF
330
1F
100
AcDbEntity
  8
SK1
  6
Continuous
100
AcDbSpline
210
0.0
220
0.0
230
1.0
 70
     8
 71
     3
 72
    35
 73
    31
 74
     0
 42
0.0000000142844881
 43
0.0000000001
 12
1.0
 22
0.0
 32
0.0
 13
1.0
 23
0.0
 33
0.0
 40
0.0
 40
0.0
 40
0.0
 40
0.0
 40
0.110928235018865
 40
0.110928235018865
 40
0.110928235018865
 40
0.2219835961662431
 40
0.2219835961662431
 40
0.2219835961662431
 40
0.3310796898380912
 40
0.3310796898380912
 40
0.3310796898380912
 40
0.4376166855687227
 40
0.4376166855687227
 40
0.4376166855687227
 40
0.5001075690994063
 40
0.5001075690994063
 40
0.5001075690994063
 40
0.6046394905851206
 40
0.6046394905851206
 40
0.6046394905851206
 40
0.7091265106033522
 40
0.7091265106033522
 40
0.7091265106033522
 40
0.8143265814489762
 40
0.8143265814489762
 40
0.8143265814489762
 40
0.9214452333066598
 40
0.9214452333066598
 40
0.9214452333066598
 40
1.0
 40
1.0
 40
1.0
 40
1.0
 10
-11.93293885569638
 20
-5.949309811405938
 30
0.0
 10
-11.96768384588384
 20
-5.9447933371173
 30
0.0
 10
-12.00295264149789
 20
-5.938196353998801
 30
0.0
 10
-12.03583098346438
 20
-5.929983640076968
 30
0.0
 10
-12.06873117618072
 20
-5.921765468034476
 30
0.0
 10
-12.10015431420982
 20
-5.911690187872492
 30
0.0
 10
-12.12731684660702
 20
-5.900474640974328
 30
0.0
 10
-12.15400185780678
 20
-5.889456264991834
 30
0.0
 10
-12.17732626989269
 20
-5.877015668608965
 30
0.0
 10
-12.19516371480053
 20
-5.864087219057482
 30
0.0
 10
-12.21258951869882
 20
-5.851457123897724
 30
0.0
 10
-12.22526842253633
 20
-5.837999340945437
 30
0.0
 10
-12.23205213107521
 20
-5.824778648544283
 30
0.0
 10
-12.23606974867795
 20
-5.816948759302015
 30
0.0
 10
-12.23811194562048
 20
-5.809097005178101
 30
0.0
 10
-12.23811194562048
 20
-5.801459775861215
 30
0.0
 10
-12.23811194562048
 20
-5.78880145046794
 30
0.0
 10
-12.23239797595573
 20
-5.776455708096512
 30
0.0
 10
-12.22147466420855
 20
-5.765483784432732
 30
0.0
 10
-12.2105539518015
 20
-5.754514471676906
 30
0.0
 10
-12.19413335239045
 20
-5.744621347505909
 30
0.0
 10
-12.17362984602956
 20
-5.736687087230464
 30
0.0
 10
-12.15298332715794
 20
-5.728697485275267
 30
0.0
 10
-12.12764889056104
 20
-5.722482084549082
 30
0.0
 10
-12.09974086168385
 20
-5.718605807365292
 30
0.0
 10
-12.07132559558271
 20
-5.71465907762154
 30
0.0
 10
-12.03949015734594
 20
-5.713032904242617
 30
0.0
 10
-12.00681115613659
 20
-5.713883011580725
 30
0.0
 10
-11.98269296143704
 20
-5.714510419198375
 30
0.0
 10
-11.95771842805837
 20
-5.716478674621413
 30
0.0
 10
-11.93293885569638
 20
-5.719699751986884
 30
0.0
  0
SPLINE
  5
F0
330
1F
100
AcDbEntity
  8
SK3
100
AcDbSpline
210
0.0
220
0.0
230
1.0
 70
     8
 71
     3
 72
    35
 73
    31
 74
     0
 42
0.000000014546294
 43
0.0000000001
 12
1.0
 22
0.0
 32
0.0
 13
1.0
 23
0.0
 33
0.0
 40
0.0
 40
0.0
 40
0.0
 40
0.0
 40
0.1073188950442959
 40
0.1073188950442959
 40
0.1073188950442959
 40
0.2146461834712256
 40
0.2146461834712256
 40
0.2146461834712256
 40
0.3218782163433592
 40
0.3218782163433592
 40
0.3218782163433592
 40
0.429226473684696
 40
0.429226473684696
 40
0.429226473684696
 40
0.4999972780496181
 40
0.4999972780496181
 40
0.4999972780496181
 40
0.6074282400873721
 40
0.6074282400873721
 40
0.6074282400873721
 40
0.7148594552301558
 40
0.7148594552301558
 40
0.7148594552301558
 40
0.8222802636116837
 40
0.8222802636116837
 40
0.8222802636116837
 40
0.9295916059223638
 40
0.9295916059223638
 40
0.9295916059223638
 40
1.0
 40
1.0
 40
1.0
 40
1.0
 10
-12.12633884522699
 20
-3.57030479827919
 30
0.0
 10
-12.15988116641483
 20
-3.570304798279191
 30
0.0
 10
-12.19388712409908
 20
-3.572920846883452
 30
0.0
 10
-12.22554036080916
 20
-3.57788294215998
 30
0.0
 10
-12.25719531049285
 20
-3.582845305969498
 30
0.0
 10
-12.2873688502477
 20
-3.59028525333025
 30
0.0
 10
-12.31356102940019
 20
-3.599426225133311
 30
0.0
 10
-12.33973119610972
 20
-3.608559514676747
 30
0.0
 10
-12.3626489383784
 20
-3.619633127725986
 30
0.0
 10
-12.3804317149988
 20
-3.631542834138756
 30
0.0
 10
-12.39823345851147
 20
-3.643465243298865
 30
0.0
 10
-12.41138065842646
 20
-3.656545834533923
 30
0.0
 10
-12.41879558749634
 20
-3.669568714693559
 30
0.0
 10
-12.42372333914143
 20
-3.678223351646344
 30
0.0
 10
-12.42623315174424
 20
-3.686985244714849
 30
0.0
 10
-12.42623315174427
 20
-3.695518130045126
 30
0.0
 10
-12.42623315174431
 20
-3.70836740954771
 30
0.0
 10
-12.42045282354056
 20
-3.720981856433535
 30
0.0
 10
-12.40936650026337
 20
-3.732379882415204
 30
0.0
 10
-12.39828016881688
 20
-3.743777916795867
 30
0.0
 10
-12.38158145651216
 20
-3.75427968605372
 30
0.0
 10
-12.36064235151128
 20
-3.763177171837059
 30
0.0
 10
-12.33970563166194
 20
-3.772073644117104
 30
0.0
 10
-12.31394995628946
 20
-3.779620653811813
 30
0.0
 10
-12.28550321444774
 20
-3.785382702201395
 30
0.0
 10
-12.25708504043925
 20
-3.791138964014841
 30
0.0
 10
-12.22519676599134
 20
-3.795280863254855
 30
0.0
 10
-12.19248298204789
 20
-3.797603492034912
 30
0.0
 10
-12.1708441473679
 20
-3.799139816303652
 30
0.0
 10
-12.14852370501674
 20
-3.799914857698244
 30
0.0
 10
-12.12633884522699
 20
-3.799914857698244
 30
0.0
  0
LINE
  5
F1
330
1F
100
AcDbEntity
  8
SK3
100
AcDbLine
 10
-12.1263388452
 20
-3.7999148577
 30
0.0
 11
9.8618880544
 21
-3.7999148577
 31
0.0
  0
SPLINE
  5
F2
330
1F
100
AcDbEntity
  8
SK1
  6
Continuous
100
AcDbSpline
210
0.0
220
0.0
230
1.0
 70
     8
 71
     3
 72
    11
 73
     7
 74
     0
 42
0.0000000006593864
 43
0.0000000001
 12
1.0
 22
0.0
 32
0.0
 13
1.0
 23
0.0
 33
0.0
 40
0.0
 40
0.0
 40
0.0
 40
0.0
 40
0.6794373012482287
 40
0.6794373012482287
 40
0.6794373012482287
 40
1.0
 40
1.0
 40
1.0
 40
1.0
 10
-11.93293885569638
 20
-5.949309811405938
 30
0.0
 10
-8.526902634802276
 20
-6.392057814350765
 30
0.0
 10
-5.120850050941452
 20
-6.834698375268479
 30
0.0
 10
-1.714788787075095
 20
-7.277281906398292
 30
0.0
 10
-0.1077881276154418
 20
-7.486095539299376
 30
0.0
 10
1.499214556899385
 20
-7.694895870214586
 30
0.0
 10
3.106218813995486
 20
-7.903685869496347
 30
0.0
  0
ELLIPSE
  5
F3
330
1F
100
AcDbEntity
  8
SK1
  6
Continuous
100
AcDbEllipse
 10
49.9456354669
 20
-0.1148050326
 30
0.0
 11
-62.19999995982846
 21
1.967737849910684E-8
 31
0.0
210
0.0
220
0.0
230
1.0
 40
0.9238795328
 41
0.0976569707967136
 42
0.1017061613574479
  0
ELLIPSE
  5
F4
330
1F
100
AcDbEntity
  8
SK1
  6
Continuous
100
AcDbEllipse
 10
-64.7725215354
 20
-0.2121320367
 30
0.0
 11
62.19999996588031
 21
4.592303561164131E-9
 31
0.0
210
0.0
220
0.0
230
1.0
 40
0.7071067814
 41
-0.1219579000816768
 42
-0.1125736774294914
  0
SPLINE
  5
F5
330
1F
100
AcDbEntity
  8
SK3
100
AcDbSpline
210
0.0
220
0.0
230
1.0
 70
     8
 71
     3
 72
    35
 73
    31
 74
     0
 42
0.0000000122865002
 43
0.0000000001
 12
1.0
 22
0.0
 32
0.0
 13
1.0
 23
0.0
 33
0.0
 40
0.0
 40
0.0
 40
0.0
 40
0.0
 40
0.107318895044301
 40
0.107318895044301
 40
0.107318895044301
 40
0.2146461834712277
 40
0.2146461834712277
 40
0.2146461834712277
 40
0.321878216343362
 40
0.321878216343362
 40
0.321878216343362
 40
0.4292264736846992
 40
0.4292264736846992
 40
0.4292264736846992
 40
0.499997278049619
 40
0.499997278049619
 40
0.499997278049619
 40
0.6074282400873718
 40
0.6074282400873718
 40
0.6074282400873718
 40
0.71485945523016
 40
0.71485945523016
 40
0.71485945523016
 40
0.8222802636116787
 40
0.8222802636116787
 40
0.8222802636116787
 40
0.9295916059223672
 40
0.9295916059223672
 40
0.9295916059223672
 40
1.0
 40
1.0
 40
1.0
 40
1.0
 10
-2.700547217138083
 20
-3.032592989590061
 30
0.0
 10
-2.667004895950227
 20
-3.032592989590061
 30
0.0
 10
-2.632998938265976
 20
-3.0288326740256
 30
0.0
 10
-2.601345701555899
 20
-3.021560596625509
 30
0.0
 10
-2.569690751872211
 20
-3.014288125683461
 30
0.0
 10
-2.539517212117369
 20
-3.00329820389102
 30
0.0
 10
-2.513325032964876
 20
-2.989373848072321
 30
0.0
 10
-2.48715486625534
 20
-2.975461194566988
 30
0.0
 10
-2.46423712398666
 20
-2.958229619604772
 30
0.0
 10
-2.446454347366255
 20
-2.938958152873697
 30
0.0
 10
-2.42865260385359
 20
-2.919666131431682
 30
0.0
 10
-2.415505403938609
 20
-2.897792039444206
 30
0.0
 10
-2.408090474868729
 20
-2.875041753231667
 30
0.0
 10
-2.403162723223639
 20
-2.859922557990069
 30
0.0
 10
-2.400652910620828
 20
-2.84419384096635
 30
0.0
 10
-2.400652910620801
 20
-2.828427124746539
 30
0.0
 10
-2.40065291062076
 20
-2.804684752066637
 30
0.0
 10
-2.4064332388245
 20
-2.780299642945217
 30
0.0
 10
-2.417519562101688
 20
-2.757339329441383
 30
0.0
 10
-2.428605893548184
 20
-2.734378999018518
 30
0.0
 10
-2.445304605852908
 20
-2.712214284835964
 30
0.0
 10
-2.46624371085379
 20
-2.692804976905918
 30
0.0
 10
-2.487180430703134
 20
-2.673397879869829
 30
0.0
 10
-2.512936106075609
 20
-2.656216826969148
 30
0.0
 10
-2.541382847917323
 20
-2.64283245681183
 30
0.0
 10
-2.569801021925809
 20
-2.629461527998923
 30
0.0
 10
-2.601689296373728
 20
-2.619517505753191
 30
0.0
 10
-2.634403080317183
 20
-2.613919654142338
 30
0.0
 10
-2.656041914997172
 20
-2.610216903467583
 30
0.0
 10
-2.678362357348326
 20
-2.608328920878132
 30
0.0
 10
-2.700547217138083
 20
-2.608328920878132
 30
0.0
  0
SPLINE
  5
F6
330
1F
100
AcDbEntity
  8
SK1
  6
Continuous
100
AcDbSpline
210
0.0
220
0.0
230
1.0
 70
     8
 71
     3
 72
    35
 73
    31
 74
     0
 42
0.0000000123399522
 43
0.0000000001
 12
1.0
 22
0.0
 32
0.0
 13
1.0
 23
0.0
 33
0.0
 40
0.0
 40
0.0
 40
0.0
 40
0.0
 40
0.1074674443062707
 40
0.1074674443062707
 40
0.1074674443062707
 40
0.2149296990765753
 40
0.2149296990765753
 40
0.2149296990765753
 40
0.3224640795645798
 40
0.3224640795645798
 40
0.3224640795645798
 40
0.429988765618588
 40
0.429988765618588
 40
0.429988765618588
 40
0.5000019061450287
 40
0.5000019061450287
 40
0.5000019061450287
 40
0.6073325417835037
 40
0.6073325417835037
 40
0.6073325417835037
 40
0.7146565393523562
 40
0.7146565393523562
 40
0.7146565393523562
 40
0.8220822952673326
 40
0.8220822952673326
 40
0.8220822952673326
 40
0.929624916343534
 40
0.929624916343534
 40
0.929624916343534
 40
1.0
 40
1.0
 40
1.0
 40
1.0
 10
-3.034521488354323
 20
-5.138538296580601
 30
0.0
 10
-3.001262042975195
 20
-5.141846129589709
 30
0.0
 10
-2.967576685571388
 20
-5.149463316357619
 30
0.0
 10
-2.936250315652197
 20
-5.160729959621512
 30
0.0
 10
-2.904924854935498
 20
-5.171996275887411
 30
0.0
 10
-2.875093617115661
 20
-5.187219665377521
 30
0.0
 10
-2.84920911412908
 20
-5.205076672422154
 30
0.0
 10
-2.823307798880147
 20
-5.222945277784415
 30
0.0
 10
-2.800642999951799
 20
-5.243940720636109
 30
0.0
 10
-2.783079152379033
 20
-5.26625205559123
 30
0.0
 10
-2.765517292246911
 20
-5.288560865902834
 30
0.0
 10
-2.752570300255401
 20
-5.312798750538395
 30
0.0
 10
-2.745307680668725
 20
-5.336902400000264
 30
0.0
 10
-2.740539781487601
 20
-5.352726410766597
 30
0.0
 10
-2.738111945620484
 20
-5.36873076520042
 30
0.0
 10
-2.738111945620484
 20
-5.384330163400089
 30
0.0
 10
-2.738111945620484
 20
-5.408049589077364
 30
0.0
 10
-2.743814603070837
 20
-5.431364028551664
 30
0.0
 10
-2.754749136770308
 20
-5.45236703431213
 30
0.0
 10
-2.765683288698011
 20
-5.473369306767012
 30
0.0
 10
-2.782149620328826
 20
-5.492641630714219
 30
0.0
 10
-2.802795129488804
 20
-5.508657765826957
 30
0.0
 10
-2.823460072485275
 20
-5.524688977097355
 30
0.0
 10
-2.848881758546462
 20
-5.537903409630239
 30
0.0
 10
-2.876974003170494
 20
-5.547286078106762
 30
0.0
 10
-2.905095767813681
 20
-5.556678606121276
 30
0.0
 10
-2.9366707313828
 20
-5.562493376627201
 30
0.0
 10
-2.969095285887068
 20
-5.56430081323363
 30
0.0
 10
-2.990486749995702
 20
-5.565493234097577
 30
0.0
 10
-3.01256406365417
 20
-5.564986150782343
 30
0.0
 10
-3.034521488354318
 20
-5.56280236529253
 30
0.0
  0
LINE
  5
F7
330
1F
100
AcDbEntity
  8
SK1
  6
Continuous
100
AcDbLine
 10
-11.9329388557
 20
-2.1395671506
 30
0.0
 11
3.106218814
 21
-2.9490962198
 31
0.0
  0
LINE
  5
F8
330
1F
100
AcDbEntity
  8
SK3
100
AcDbLine
 10
-12.1263388452
 20
-1.2492586098
 30
0.0
 11
9.8618880544
 21
-1.2492586098
 31
0.0
  0
SPLINE
  5
F9
330
1F
100
AcDbEntity
  8
SK1
  6
Continuous
100
AcDbSpline
210
0.0
220
0.0
230
1.0
 70
     8
 71
     3
 72
    35
 73
    31
 74
     0
 42
0.0000000108719605
 43
0.0000000001
 12
1.0
 22
0.0
 32
0.0
 13
1.0
 23
0.0
 33
0.0
 40
0.0
 40
0.0
 40
0.0
 40
0.0
 40
0.1109282350188726
 40
0.1109282350188726
 40
0.1109282350188726
 40
0.22198359616625
 40
0.22198359616625
 40
0.22198359616625
 40
0.3310796898381013
 40
0.3310796898381013
 40
0.3310796898381013
 40
0.4376166855687333
 40
0.4376166855687333
 40
0.4376166855687333
 40
0.5001075690994093
 40
0.5001075690994093
 40
0.5001075690994093
 40
0.6046394905851217
 40
0.6046394905851217
 40
0.6046394905851217
 40
0.7091265106033517
 40
0.7091265106033517
 40
0.7091265106033517
 40
0.8143265814489741
 40
0.8143265814489741
 40
0.8143265814489741
 40
0.9214452333066643
 40
0.9214452333066643
 40
0.9214452333066643
 40
1.0
 40
1.0
 40
1.0
 40
1.0
 10
-11.93293885569638
 20
-2.693894870062714
 30
0.0
 10
-11.96768384588384
 20
-2.692024085158252
 30
0.0
 10
-12.00295264149789
 20
-2.684728995177997
 30
0.0
 10
-12.03583098346438
 20
-2.67249216187922
 30
0.0
 10
-12.06873117618072
 20
-2.66024719605406
 30
0.0
 10
-12.10015431420982
 20
-2.642693563595928
 30
0.0
 10
-12.12731684660702
 20
-2.621176989180692
 30
0.0
 10
-12.15400185780678
 20
-2.600038679215516
 30
0.0
 10
-12.17732626989269
 20
-2.574464965040165
 30
0.0
 10
-12.19516371480053
 20
-2.546555278420439
 30
0.0
 10
-12.21258951869882
 20
-2.519289673485956
 30
0.0
 10
-12.22526842253634
 20
-2.489022482248314
 30
0.0
 10
-12.23205213107521
 20
-2.458288288989125
 30
0.0
 10
-12.23606974867795
 20
-2.440086116072005
 30
0.0
 10
-12.23811194562048
 20
-2.42148122331947
 30
0.0
 10
-12.23811194562048
 20
-2.403043320723692
 30
0.0
 10
-12.23811194562048
 20
-2.372483419882315
 30
0.0
 10
-12.23239797595573
 20
-2.341704014133198
 30
0.0
 10
-12.22147466420855
 20
-2.313276404992497
 30
0.0
 10
-12.2105539518015
 20
-2.284855560560805
 30
0.0
 10
-12.19413335239045
 20
-2.258008965990708
 30
0.0
 10
-12.17362984602956
 20
-2.234930428343413
 30
0.0
 10
-12.15298332715794
 20
-2.211690917272596
 30
0.0
 10
-12.12764889056104
 20
-2.191644595950058
 30
0.0
 10
-12.09974086168385
 20
-2.176352842577527
 30
0.0
 10
-12.07132559558271
 20
-2.160783156766127
 30
0.0
 10
-12.03949015734593
 20
-2.149721277235848
 30
0.0
 10
-12.00681115613659
 20
-2.143959763037428
 30
0.0
 10
-11.98269296143704
 20
-2.139707573066519
 30
0.0
 10
-11.95771842805836
 20
-2.138232936625712
 30
0.0
 10
-11.93293885569638
 20
-2.139567150555942
 30
0.0
  0
SPLINE
  5
FA
330
1F
100
AcDbEntity
  8
SK3
100
AcDbSpline
210
0.0
220
0.0
230
1.0
 70
     8
 71
     3
 72
    35
 73
    31
 74
     0
 42
0.0000000109782232
 43
0.0000000001
 12
1.0
 22
0.0
 32
0.0
 13
1.0
 23
0.0
 33
0.0
 40
0.0
 40
0.0
 40
0.0
 40
0.0
 40
0.1073188950442961
 40
0.1073188950442961
 40
0.1073188950442961
 40
0.214646183471226
 40
0.214646183471226
 40
0.214646183471226
 40
0.3218782163433604
 40
0.3218782163433604
 40
0.3218782163433604
 40
0.4292264736846941
 40
0.4292264736846941
 40
0.4292264736846941
 40
0.4999972780496174
 40
0.4999972780496174
 40
0.4999972780496174
 40
0.6074282400873732
 40
0.6074282400873732
 40
0.6074282400873732
 40
0.7148594552301616
 40
0.7148594552301616
 40
0.7148594552301616
 40
0.8222802636116783
 40
0.8222802636116783
 40
0.8222802636116783
 40
0.9295916059223638
 40
0.9295916059223638
 40
0.9295916059223638
 40
1.0
 40
1.0
 40
1.0
 40
1.0
 10
-12.12633884522699
 20
-1.249258609833925
 30
0.0
 10
-12.15988116641483
 20
-1.249258609833926
 30
0.0
 10
-12.19388712409908
 20
-1.254752679372155
 30
0.0
 10
-12.22554036080916
 20
-1.265280581728466
 30
0.0
 10
-12.25719531049285
 20
-1.275809053821739
 30
0.0
 10
-12.2873688502477
 20
-1.291660323168403
 30
0.0
 10
-12.31356102940019
 20
-1.311458535527809
 30
0.0
 10
-12.33973119610972
 20
-1.331240109064698
 30
0.0
 10
-12.3626489383784
 20
-1.355502198617131
 30
0.0
 10
-12.38043171499881
 20
-1.382161647100616
 30
0.0
 10
-12.39823345851147
 20
-1.408849530226107
 30
0.0
 10
-12.41138065842646
 20
-1.438671826664437
 30
0.0
 10
-12.41879558749634
 20
-1.469107022054278
 30
0.0
 10
-12.42372333914143
 20
-1.489333390066367
 30
0.0
 10
-12.42623315174424
 20
-1.510133521969547
 30
0.0
 10
-12.42623315174427
 20
-1.530733729460071
 30
0.0
 10
-12.42623315174431
 20
-1.561754634301928
 30
0.0
 10
-12.42045282354056
 20
-1.593032635702116
 30
0.0
 10
-12.40936650026337
 20
-1.622003724843438
 30
0.0
 10
-12.39828016881688
 20
-1.650974835333018
 30
0.0
 10
-12.38158145651215
 20
-1.678440742392412
 30
0.0
 10
-12.36064235151127
 20
-1.702193469332753
 30
0.0
 10
-12.33970563166193
 20
-1.725943490624823
 30
0.0
 10
-12.31394995628946
 20
-1.746640308910891
 30
0.0
 10
-12.28550321444774
 20
-1.762646310724167
 30
0.0
 10
-12.25708504043926
 20
-1.778636238401678
 30
0.0
 10
-12.22519676599134
 20
-1.790388962770715
 30
0.0
 10
-12.19248298204789
 20
-1.796996001687397
 30
0.0
 10
-12.1708441473679
 20
-1.801366288630951
 30
0.0
 10
-12.14852370501674
 20
-1.803586329340698
 30
0.0
 10
-12.12633884522699
 20
-1.803586329340698
 30
0.0
  0
LINE
  5
FB
330
1F
100
AcDbEntity
  8
SK3
100
AcDbLine
 10
-12.1263388452
 20
-1.8035863293
 30
0.0
 11
9.8618880544
 21
-1.8035863293
 31
0.0
  0
LINE
  5
FC
330
1F
100
AcDbEntity
  8
SK1
  6
Continuous
100
AcDbLine
 10
-11.9329388557
 20
-2.6938948701
 30
0.0
 11
3.106218814
 21
-3.5034239393
 31
0.0
  0
ELLIPSE
  5
FD
330
1F
100
AcDbEntity
  8
SK1
  6
Continuous
100
AcDbEllipse
 10
49.9456354662
 20
-0.277163861
 30
0.0
 11
-62.1999999590298
 21
1.430123050393283E-9
 31
0.0
210
0.0
220
0.0
230
1.0
 40
0.3826834325
 41
0.0791656551561138
 42
0.1017061610745136
  0
LINE
  5
FE
330
1F
100
AcDbEntity
  8
SK3
100
AcDbLine
 10
-3.0345214884
 20
-0.3
 30
0.0
 11
-2.7005472171
 21
-0.3
 31
0.0
  0
ARC
  5
FF
330
1F
100
AcDbEntity
  8
SK3
100
AcDbCircle
 10
-2.7006233975
 20
0.0
 30
0.0
 40
0.3000000096724144
100
AcDbArc
 50
270.0145493786
 51
89.9854506214
  0
ARC
  5
100
330
1F
100
AcDbEntity
  8
SK1
  6
Continuous
100
AcDbCircle
 10
-3.0381208978
 20
0.0
 30
0.0
 40
0.300021592137468
100
AcDbArc
 50
270.6874035924
 51
89.3125964076
  0
LINE
  5
101
330
1F
100
AcDbEntity
  8
SK3
100
AcDbLine
 10
-2.7005472171
 20
0.3
 30
0.0
 11
-3.0345214884
 21
0.3
 31
0.0
  0
SPLINE
  5
102
330
1F
100
AcDbEntity
  8
SK3
100
AcDbSpline
210
0.0
220
0.0
230
1.0
 70
     8
 71
     3
 72
     8
 73
     4
 74
     0
 42
0.0000001494432684
 43
0.0000000001
 12
1.0
 22
0.0
 32
0.0
 13
1.0
 23
0.0
 33
0.0
 40
0.0
 40
0.0
 40
0.0
 40
0.0
 40
1.0
 40
1.0
 40
1.0
 40
1.0
 10
-12.23811194562048
 20
-2.403043320723693
 30
0.0
 10
-12.23811194562048
 20
-2.425032367612532
 30
0.0
 10
-12.23515361397221
 20
-2.447343969543341
 30
0.0
 10
-12.22942494051585
 20
-2.469018807194602
 30
0.0
  0
LINE
  5
103
330
1F
100
AcDbEntity
  8
SK1
  6
Continuous
100
AcDbLine
 10
-11.9329388557
 20
2.6938948701
 30
0.0
 11
3.106218814
 21
3.5034239393
 31
0.0
  0
LINE
  5
104
330
1F
100
AcDbEntity
  8
SK3
100
AcDbLine
 10
-12.1263388452
 20
1.8035863293
 30
0.0
 11
9.8618880544
 21
1.8035863293
 31
0.0
  0
ELLIPSE
  5
105
330
1F
100
AcDbEntity
  8
SK1
  6
Continuous
100
AcDbEllipse
 10
49.9456354663
 20
0.2771638611
 30
0.0
 11
-62.19999995918506
 21
-1.609304920808123E-9
 31
0.0
210
0.0
220
0.0
230
1.0
 40
0.3826834325
 41
-0.1017061610754793
 42
-0.0791143842136357
  0
SPLINE
  5
106
330
1F
100
AcDbEntity
  8
SK1
  6
Continuous
100
AcDbSpline
210
0.0
220
0.0
230
1.0
 70
     8
 71
     3
 72
    35
 73
    31
 74
     0
 42
0.0000000108716644
 43
0.0000000001
 12
1.0
 22
0.0
 32
0.0
 13
1.0
 23
0.0
 33
0.0
 40
0.0
 40
0.0
 40
0.0
 40
0.0
 40
0.1109282350188697
 40
0.1109282350188697
 40
0.1109282350188697
 40
0.2219835961662447
 40
0.2219835961662447
 40
0.2219835961662447
 40
0.3310796898380918
 40
0.3310796898380918
 40
0.3310796898380918
 40
0.4376166855687228
 40
0.4376166855687228
 40
0.4376166855687228
 40
0.5001075690994052
 40
0.5001075690994052
 40
0.5001075690994052
 40
0.6046394905851171
 40
0.6046394905851171
 40
0.6046394905851171
 40
0.7091265106033473
 40
0.7091265106033473
 40
0.7091265106033473
 40
0.8143265814489673
 40
0.8143265814489673
 40
0.8143265814489673
 40
0.9214452333066556
 40
0.9214452333066556
 40
0.9214452333066556
 40
1.0
 40
1.0
 40
1.0
 40
1.0
 10
-11.93293885569638
 20
2.139567150555938
 30
0.0
 10
-11.96768384588384
 20
2.137696365651476
 30
0.0
 10
-12.00295264149789
 20
2.141416197721787
 30
0.0
 10
-12.03583098346438
 20
2.150508979411582
 30
0.0
 10
-12.06873117618072
 20
2.159607804109823
 30
0.0
 10
-12.10015431420982
 20
2.174357109039045
 30
0.0
 10
-12.12731684660702
 20
2.193570593494715
 30
0.0
 10
-12.15400185780678
 20
2.212446302150618
 30
0.0
 10
-12.17732626989269
 20
2.236172399194782
 30
0.0
 10
-12.19516371480053
 20
2.262714206982495
 30
0.0
 10
-12.21258951869882
 20
2.28864350010739
 30
0.0
 10
-12.22526842253633
 20
2.317989989498316
 30
0.0
 10
-12.23205213107521
 20
2.348234010032903
 30
0.0
 10
-12.23606974867795
 20
2.366145880594689
 30
0.0
 10
-12.23811194562048
 20
2.384605418127908
 30
0.0
 10
-12.23811194562048
 20
2.403043320723688
 30
0.0
 10
-12.23811194562048
 20
2.433603221565066
 30
0.0
 10
-12.23239797595573
 20
2.464786132245826
 30
0.0
 10
-12.22147466420855
 20
2.494016918974664
 30
0.0
 10
-12.2105539518015
 20
2.523240749868235
 30
0.0
 10
-12.19413335239045
 20
2.551314443841799
 30
0.0
 10
-12.17362984602957
 20
2.576018164506899
 30
0.0
 10
-12.15298332715795
 20
2.600894194290969
 30
0.0
 10
-12.12764889056105
 20
2.623028573054806
 30
0.0
 10
-12.09974086168385
 20
2.640778100882913
 30
0.0
 10
-12.07132559558272
 20
2.658850231975529
 30
0.0
 10
-12.03949015734594
 20
2.672867918653667
 30
0.0
 10
-12.00681115613659
 20
2.681866037510985
 30
0.0
 10
-11.98269296143704
 20
2.688506949855284
 30
0.0
 10
-11.95771842805836
 20
2.69256065613248
 30
0.0
 10
-11.93293885569638
 20
2.693894870062711
 30
0.0
  0
SPLINE
  5
107
330
1F
100
AcDbEntity
  8
SK3
100
AcDbSpline
210
0.0
220
0.0
230
1.0
 70
     8
 71
     3
 72
    35
 73
    31
 74
     0
 42
0.0000000109784826
 43
0.0000000001
 12
1.0
 22
0.0
 32
0.0
 13
1.0
 23
0.0
 33
0.0
 40
0.0
 40
0.0
 40
0.0
 40
0.0
 40
0.107318895044296
 40
0.107318895044296
 40
0.107318895044296
 40
0.2146461834712201
 40
0.2146461834712201
 40
0.2146461834712201
 40
0.321878216343359
 40
0.321878216343359
 40
0.321878216343359
 40
0.4292264736846962
 40
0.4292264736846962
 40
0.4292264736846962
 40
0.499997278049618
 40
0.499997278049618
 40
0.499997278049618
 40
0.6074282400873732
 40
0.6074282400873732
 40
0.6074282400873732
 40
0.7148594552301599
 40
0.7148594552301599
 40
0.7148594552301599
 40
0.8222802636116857
 40
0.8222802636116857
 40
0.8222802636116857
 40
0.9295916059223638
 40
0.9295916059223638
 40
0.9295916059223638
 40
1.0
 40
1.0
 40
1.0
 40
1.0
 10
-12.12633884522699
 20
1.803586329340693
 30
0.0
 10
-12.15988116641483
 20
1.803586329340694
 30
0.0
 10
-12.19388712409908
 20
1.798432590291371
 30
0.0
 10
-12.22554036080916
 20
1.788505983272264
 30
0.0
 10
-12.25719531049285
 20
1.778578839056408
 30
0.0
 10
-12.28736885024769
 20
1.763601706326283
 30
0.0
 10
-12.31356102940018
 20
1.744743777699931
 30
0.0
 10
-12.33973119610972
 20
1.725901697662416
 30
0.0
 10
-12.3626489383784
 20
1.702663534615089
 30
0.0
 10
-12.3804317149988
 20
1.676871087417127
 30
0.0
 10
-12.39823345851147
 20
1.651051130310138
 30
0.0
 10
-12.41138065842646
 20
1.621956625460999
 30
0.0
 10
-12.41879558749634
 20
1.591937639526846
 30
0.0
 10
-12.42372333914143
 20
1.571987872519385
 30
0.0
 10
-12.42623315174424
 20
1.551333936951265
 30
0.0
 10
-12.42623315174427
 20
1.530733729460744
 30
0.0
 10
-12.42623315174431
 20
1.499712824618889
 30
0.0
 10
-12.42045282354056
 20
1.468093497720643
 30
0.0
 10
-12.40936650026337
 20
1.438520216521935
 30
0.0
 10
-12.39828016881688
 20
1.408946913531225
 30
0.0
 10
-12.38158145651216
 20
1.380606024522802
 30
0.0
 10
-12.36064235151128
 20
1.355912081723766
 30
0.0
 10
-12.33970563166193
 20
1.331220951785913
 30
0.0
 10
-12.31394995628945
 20
1.309498240362498
 30
0.0
 10
-12.28550321444774
 20
1.292624383908374
 30
0.0
 10
-12.25708504043925
 20
1.275767473138922
 30
0.0
 10
-12.22519676599134
 20
1.26328851018141
 30
0.0
 10
-12.19248298204789
 20
1.256267374918369
 30
0.0
 10
-12.1708441473679
 20
1.251623180120073
 30
0.0
 10
-12.14852370501674
 20
1.249258609833921
 30
0.0
 10
-12.12633884522699
 20
1.249258609833921
 30
0.0
  0
LINE
  5
108
330
1F
100
AcDbEntity
  8
SK3
100
AcDbLine
 10
-12.1263388452
 20
1.2492586098
 30
0.0
 11
9.8618880544
 21
1.2492586098
 31
0.0
  0
LINE
  5
109
330
1F
100
AcDbEntity
  8
SK1
  6
Continuous
100
AcDbLine
 10
-11.9329388557
 20
2.1395671506
 30
0.0
 11
3.106218814
 21
2.9490962198
 31
0.0
  0
SPLINE
  5
10A
330
1F
100
AcDbEntity
  8
SK3
100
AcDbSpline
210
0.0
220
0.0
230
1.0
 70
     8
 71
     3
 72
    35
 73
    31
 74
     0
 42
0.0000000122859411
 43
0.0000000001
 12
1.0
 22
0.0
 32
0.0
 13
1.0
 23
0.0
 33
0.0
 40
0.0
 40
0.0
 40
0.0
 40
0.0
 40
0.1073188950443007
 40
0.1073188950443007
 40
0.1073188950443007
 40
0.2146461834712275
 40
0.2146461834712275
 40
0.2146461834712275
 40
0.3218782163433617
 40
0.3218782163433617
 40
0.3218782163433617
 40
0.429226473684699
 40
0.429226473684699
 40
0.429226473684699
 40
0.4999972780496141
 40
0.4999972780496141
 40
0.4999972780496141
 40
0.6074282400873722
 40
0.6074282400873722
 40
0.6074282400873722
 40
0.714859455230159
 40
0.714859455230159
 40
0.714859455230159
 40
0.8222802636116832
 40
0.8222802636116832
 40
0.8222802636116832
 40
0.9295916059223652
 40
0.9295916059223652
 40
0.9295916059223652
 40
1.0
 40
1.0
 40
1.0
 40
1.0
 10
-2.700547217138083
 20
2.608328920878128
 30
0.0
 10
-2.667004895950227
 20
2.608328920878129
 30
0.0
 10
-2.632998938265976
 20
2.612718085188569
 30
0.0
 10
-2.601345701555899
 20
2.621101211498735
 30
0.0
 10
-2.569690751872211
 20
2.62948479147733
 30
0.0
 10
-2.539517212117369
 20
2.642089907127043
 30
0.0
 10
-2.513325032964876
 20
2.657751680737182
 30
0.0
 10
-2.48715486625534
 20
2.673400291872516
 30
0.0
 10
-2.46423712398666
 20
2.692523836316467
 30
0.0
 10
-2.446454347366255
 20
2.713397312532256
 30
0.0
 10
-2.42865260385359
 20
2.734293052142727
 30
0.0
 10
-2.415505403938609
 20
2.757511927636577
 30
0.0
 10
-2.408090474868729
 20
2.781031268643814
 30
0.0
 10
-2.403162723223639
 20
2.796661555899105
 30
0.0
 10
-2.400652910620816
 20
2.812660408526204
 30
0.0
 10
-2.400652910620789
 20
2.828427124746016
 30
0.0
 10
-2.400652910620747
 20
2.852169497425924
 30
0.0
 10
-2.4064332388245
 20
2.875923919264184
 30
0.0
 10
-2.417519562101689
 20
2.8977715269351
 30
0.0
 10
-2.428605893548184
 20
2.919619150705114
 30
0.0
 10
-2.445304605852906
 20
2.94016710905962
 30
0.0
 10
-2.466243710853788
 20
2.95783727685462
 30
0.0
 10
-2.487180430703131
 20
2.975505431859299
 30
0.0
 10
-2.512936106075611
 20
2.990790881415693
 30
0.0
 10
-2.541382847917327
 20
3.002571665293267
 30
0.0
 10
-2.569801021925813
 20
3.014340618238813
 30
0.0
 10
-2.601689296373729
 20
3.022942726549322
 30
0.0
 10
-2.634403080317181
 20
3.027775427882397
 30
0.0
 10
-2.656041914997171
 20
3.030972062835571
 30
0.0
 10
-2.678362357348325
 20
3.032592989590056
 30
0.0
 10
-2.700547217138083
 20
3.032592989590056
 30
0.0
  0
SPLINE
  5
10B
330
1F
100
AcDbEntity
  8
SK1
  6
Continuous
100
AcDbSpline
210
0.0
220
0.0
230
1.0
 70
     8
 71
     3
 72
    35
 73
    31
 74
     0
 42
0.0000000123404959
 43
0.0000000001
 12
1.0
 22
0.0
 32
0.0
 13
1.0
 23
0.0
 33
0.0
 40
0.0
 40
0.0
 40
0.0
 40
0.0
 40
0.1074674443062806
 40
0.1074674443062806
 40
0.1074674443062806
 40
0.2149296990765917
 40
0.2149296990765917
 40
0.2149296990765917
 40
0.3224640795646004
 40
0.3224640795646004
 40
0.3224640795646004
 40
0.4299887656186115
 40
0.4299887656186115
 40
0.4299887656186115
 40
0.5000019061450258
 40
0.5000019061450258
 40
0.5000019061450258
 40
0.6073325417834998
 40
0.6073325417834998
 40
0.6073325417834998
 40
0.7146565393523522
 40
0.7146565393523522
 40
0.7146565393523522
 40
0.8220822952673292
 40
0.8220822952673292
 40
0.8220822952673292
 40
0.9296249163435369
 40
0.9296249163435369
 40
0.9296249163435369
 40
1.0
 40
1.0
 40
1.0
 40
1.0
 10
-3.034521488354317
 20
5.562802365292528
 30
0.0
 10
-3.001262042975186
 20
5.566110198301637
 30
0.0
 10
-2.967576685571377
 20
5.565526839103001
 30
0.0
 10
-2.936250315652184
 20
5.561077623148511
 30
0.0
 10
-2.904924854935484
 20
5.556628536326067
 30
0.0
 10
-2.875093617115644
 20
5.548189362595335
 30
0.0
 10
-2.849209114129063
 20
5.536394086023082
 30
0.0
 10
-2.82330779888013
 20
5.524591148292171
 30
0.0
 10
-2.80064299995178
 20
5.509098278409228
 30
0.0
 10
-2.783079152379016
 20
5.491120789172472
 30
0.0
 10
-2.765517292246896
 20
5.473145334182063
 30
0.0
 10
-2.752570300255397
 20
5.452185440065601
 30
0.0
 10
-2.745307680668724
 20
5.429925894466239
 30
0.0
 10
-2.740539781487605
 20
5.415312535199832
 30
0.0
 10
-2.738111945620486
 20
5.399929561599748
 30
0.0
 10
-2.738111945620486
 20
5.384330163400086
 30
0.0
 10
-2.738111945620486
 20
5.360610737722811
 30
0.0
 10
-2.743814603070833
 20
5.335832251829765
 30
0.0
 10
-2.754749136770303
 20
5.312072369028696
 30
0.0
 10
-2.765683288698007
 20
5.288313315787691
 30
0.0
 10
-2.782149620328825
 20
5.264920180098245
 30
0.0
 10
-2.802795129488802
 20
5.243887108398373
 30
0.0
 10
-2.823460072485273
 20
5.222834238045281
 30
0.0
 10
-2.84888175854646
 20
5.203568984868637
 30
0.0
 10
-2.876974003170492
 20
5.187755880233846
 30
0.0
 10
-2.90509576781368
 20
5.171926158801148
 30
0.0
 10
-2.936670731382801
 20
5.159122645012991
 30
0.0
 10
-2.969095285887071
 20
5.150461539546563
 30
0.0
 10
-2.990486749995704
 20
5.144747545027323
 30
0.0
 10
-3.012564063654171
 20
5.140722082070412
 30
0.0
 10
-3.034521488354317
 20
5.1385382965806
 30
0.0
  0
ELLIPSE
  5
10C
330
1F
100
AcDbEntity
  8
SK1
  6
Continuous
100
AcDbEllipse
 10
-64.7725215346
 20
0.2121320366
 30
0.0
 11
62.19999996514159
 21
-4.474247903465208E-9
 31
0.0
210
0.0
220
0.0
230
1.0
 40
0.7071067814
 41
0.112521267209366
 42
0.1219579000810712
  0
LINE
  5
10D
330
1F
100
AcDbEntity
  8
SK1
  6
Continuous
100
AcDbLine
 10
3.106218814
 20
8.4359598646
 30
0.0
 11
-2.7381119456
 21
7.6145927414
 31
0.0
  0
LINE
  5
10E
330
1F
100
AcDbEntity
  8
SK1
  6
Continuous
100
AcDbLine
 10
-2.7381119456
 20
-7.6145927414
 30
0.0
 11
3.106218814
 21
-8.4359598646
 31
0.0
  0
LINE
  5
10F
330
1F
100
AcDbEntity
  8
SK3
100
AcDbLine
 10
-2.4006529106
 20
-4.0
 30
0.0
 11
9.8618880544
 21
-4.0
 31
0.0
  0
LINE
  5
110
330
1F
100
AcDbEntity
  8
SK3
100
AcDbLine
 10
9.8618880544
 20
4.0
 30
0.0
 11
-2.4006529106
 21
4.0
 31
0.0
  0
LINE
  5
111
330
1F
100
AcDbEntity
  8
SK1
  6
Continuous
100
AcDbLine
 10
6.2618880544
 20
-8.5
 30
0.0
 11
6.4783944053
 21
-8.5
 31
0.0
  0
ARC
  5
112
330
1F
100
AcDbEntity
  8
SK3
100
AcDbCircle
 10
9.8618880544
 20
-4.4
 30
0.0
 40
0.4000000000000006
100
AcDbArc
 50
0.0
 51
90.0
  0
ARC
  5
113
330
1F
100
AcDbEntity
  8
SK1
  6
Continuous
100
AcDbCircle
 10
3.1618880544
 20
-8.0398526371
 30
0.0
 40
0.4000000000000009
100
AcDbArc
 50
262.0
 51
0.0
  0
ARC
  5
114
330
1F
100
AcDbEntity
  8
SK1
  6
Continuous
100
AcDbCircle
 10
10.0118880544
 20
-6.1712613559
 30
0.0
 40
0.2499999999999995
100
AcDbArc
 50
300.0
 51
0.0
  0
ARC
  5
115
330
1F
100
AcDbEntity
  8
SK1
  6
Continuous
100
AcDbCircle
 10
3.7618880544
 20
-7.1
 30
0.0
 40
0.2000000000000001
100
AcDbArc
 50
90.0
 51
180.0
  0
LINE
  5
116
330
1F
100
AcDbEntity
  8
SK1
  6
Continuous
100
AcDbLine
 10
3.7618880544
 20
-6.9
 30
0.0
 11
6.0618880544
 21
-6.9
 31
0.0
  0
ARC
  5
117
330
1F
100
AcDbEntity
  8
SK1
  6
Continuous
100
AcDbCircle
 10
6.0618880544
 20
-7.1
 30
0.0
 40
0.2000000000000005
100
AcDbArc
 50
0.0
 51
90.0
  0
LINE
  5
118
330
1F
100
AcDbEntity
  8
SK1
  6
Continuous
100
AcDbLine
 10
6.4783944053
 20
-8.5
 30
0.0
 11
10.1368880544
 21
-6.3877677069
 31
0.0
  0
LINE
  5
119
330
1F
100
AcDbEntity
  8
SK1
  6
Continuous
100
AcDbLine
 10
6.4783944053
 20
8.5
 30
0.0
 11
6.2618880544
 21
8.5
 31
0.0
  0
ARC
  5
11A
330
1F
100
AcDbEntity
  8
SK3
100
AcDbCircle
 10
9.8618880544
 20
4.4
 30
0.0
 40
0.3999999999999993
100
AcDbArc
 50
270.0
 51
0.0
  0
ARC
  5
11B
330
1F
100
AcDbEntity
  8
SK1
  6
Continuous
100
AcDbCircle
 10
3.1618880544
 20
8.0398526371
 30
0.0
 40
0.4000000000000006
100
AcDbArc
 50
0.0
 51
98.0
  0
ARC
  5
11C
330
1F
100
AcDbEntity
  8
SK1
  6
Continuous
100
AcDbCircle
 10
10.0118880544
 20
6.1712613559
 30
0.0
 40
0.2499999999999994
100
AcDbArc
 50
0.0
 51
60.0
  0
ARC
  5
11D
330
1F
100
AcDbEntity
  8
SK1
  6
Continuous
100
AcDbCircle
 10
3.7618880544
 20
7.1
 30
0.0
 40
0.2000000000000005
100
AcDbArc
 50
180.0
 51
270.0
  0
LINE
  5
11E
330
1F
100
AcDbEntity
  8
SK1
  6
Continuous
100
AcDbLine
 10
6.0618880544
 20
6.9
 30
0.0
 11
3.7618880544
 21
6.9
 31
0.0
  0
ARC
  5
11F
330
1F
100
AcDbEntity
  8
SK1
  6
Continuous
100
AcDbCircle
 10
6.0618880544
 20
7.1
 30
0.0
 40
0.1999999999999971
100
AcDbArc
 50
270.0
 51
360.0
  0
LINE
  5
120
330
1F
100
AcDbEntity
  8
SK1
  6
Continuous
100
AcDbLine
 10
10.1368880544
 20
6.3877677069
 30
0.0
 11
6.4783944053
 21
8.5
 31
0.0
  0
ARC
  5
121
330
1F
100
AcDbEntity
  8
SK3
100
AcDbCircle
 10
40.0658443834
 20
0.0645116618
 30
0.0
 40
52.6176177012817
100
AcDbArc
 50
173.734966877
 51
176.0542344748
  0
ARC
  5
122
330
1F
100
AcDbEntity
  8
SK3
100
AcDbCircle
 10
-64.7725215695
 20
0.0
 30
0.0
 40
62.50000000000001
100
AcDbArc
 50
353.002075969
 51
356.3305777243
  0
ARC
  5
123
330
1F
100
AcDbEntity
  8
SK3
100
AcDbCircle
 10
-64.7725215695
 20
0.0
 30
0.0
 40
62.50000000000001
100
AcDbArc
 50
3.6694351888
 51
6.9979052529
  0
ARC
  5
124
330
1F
100
AcDbEntity
  8
SK3
100
AcDbCircle
 10
39.4481444576
 20
-0.1145415244
 30
0.0
 40
51.9979398146972
100
AcDbArc
 50
183.937604965
 51
186.2843541888
  0
ARC
  5
125
330
1F
100
AcDbEntity
  8
SK3
100
AcDbCircle
 10
-34.0089232816
 20
0.0256204676
 30
0.0
 40
31.73743887792075
100
AcDbArc
 50
350.1392684861
 51
354.8161207179
  0
ARC
  5
126
330
1F
100
AcDbEntity
  8
SK3
100
AcDbCircle
 10
-2.8642217446
 20
0.0252831118
 30
0.0
 40
9.691201432875308
100
AcDbArc
 50
189.4585632694
 51
194.9132246888
  0
ARC
  5
127
330
1F
100
AcDbEntity
  8
SK3
100
AcDbCircle
 10
-2.7603847854
 20
-0.0453914373
 30
0.0
 40
9.796931577065882
100
AcDbArc
 50
165.1289178717
 51
170.5252311248
  0
ARC
  5
128
330
1F
100
AcDbEntity
  8
SK3
100
AcDbCircle
 10
-34.0070453672
 20
-0.0239518764
 30
0.0
 40
31.73536046543995
100
AcDbArc
 50
5.1811899127
 51
9.8584968596
  0
LINE
  5
129
330
1F
100
AcDbEntity
  8
SK1
  6
Continuous
100
AcDbLine
 10
0.0
 20
7.9994092797
 30
0.0
 11
0.0
 21
-7.9994092797
 31
0.0
  0
LINE
  5
12B
330
1F
100
AcDbEntity
  8
SK4
  6
Continuous
100
AcDbLine
 10
10.2618880544
 20
0.0
 30
0.0
 11
-17.2381119456
 21
0.0
 31
0.0
  0
DIMENSION
  5
141
330
1F
100
AcDbEntity
  8
SK2
  6
Continuous
 62
   136
100
AcDbDimension
  2
DMBLK111
 10
10.2618880544
 20
15.0888448496
 30
0.0
 11
-3.4881120201
 21
15.0888448496
 31
0.0
 70
   160
  1
\A1;<>
 71
     5
 42
-1.0
  3
DIN
100
AcDbAlignedDimension
 13
-17.2381119456
 23
3.602396502
 33
0.0
 14
10.2618880544
 24
2.6360112113
 34
0.0
100
AcDbRotatedDimension
  0
DIMENSION
  5
14B
330
1F
100
AcDbEntity
  8
SK2
  6
Continuous
 62
   136
100
AcDbDimension
  2
DMBLK112
 10
19.7219547514
 20
4.0
 30
0.0
 11
19.7219547514
 21
10.0000004321
 31
0.0
 70
   160
  1
\A1;ø <>
 71
     5
 42
-1.0
  3
DIN
100
AcDbAlignedDimension
 13
9.8618880544
 23
-4.0
 33
0.0
 14
9.4924601309
 24
4.0
 34
0.0
 50
90.0
100
AcDbRotatedDimension
  0
DIMENSION
  5
156
330
1F
100
AcDbEntity
  8
SK2
  6
Continuous
 62
   136
100
AcDbDimension
  2
DMBLK113
 10
10.2618880544
 20
-17.0084268888
 30
0.0
 11
5.1309438422
 21
-17.0084268888
 31
0.0
 70
   160
  1
\A1;<>
 71
     5
 42
-1.0
  3
DIN
100
AcDbAlignedDimension
 13
0.0
 23
-7.9994092797
 33
0.0
 14
10.2618880544
 24
-2.6360112113
 34
0.0
100
AcDbRotatedDimension
  0
DIMENSION
  5
160
330
1F
100
AcDbEntity
  8
SK2
  6
Continuous
 62
   136
100
AcDbDimension
  2
DMBLK114
 10
-22.6199701428
 20
7.9994092797
 30
0.0
 11
-22.6199701428
 21
0.0000002896
 31
0.0
 70
   161
  1
\A1;ø <>
 71
     5
 42
-1.0
  3
DIN
100
AcDbAlignedDimension
 13
0.0
 23
7.9994092797
 33
0.0
 14
0.0
 24
-7.9994092797
 34
0.0
  0
INSERT
  5
175
330
1F
100
AcDbEntity
  8
SK2
 62
     7
100
AcDbBlockReference
  2
Nullpunkt
 10
0.0
 20
0.0000000998
 30
0.0
  0
INSERT
  5
180
330
1F
100
AcDbEntity
  8
SK2
 62
     7
100
AcDbBlockReference
  2
Einfügepunkt
 10
10.2618880544
 20
0.0
 30
0.0
  0
ENDSEC
  0
SECTION
  2
OBJECTS
  0
DICTIONARY
  5
C
330
0
100
AcDbDictionary
281
     1
  3
ACAD_GROUP
350
D
  3
ACAD_LAYOUT
350
1A
  3
ACAD_MATERIAL
350
3B
  3
ACAD_MLEADERSTYLE
350
183
  3
ACAD_MLINESTYLE
350
17
  3
ACAD_PLOTSETTINGS
350
19
  3
ACAD_PLOTSTYLENAME
350
E
  3
ACAD_VISUALSTYLE
350
2A
  3
AcDbVariableDictionary
350
181
  0
DICTIONARY
  5
D
102
{ACAD_REACTORS
330
C
102
}
330
C
100
AcDbDictionary
281
     1
  0
DICTIONARY
  5
1A
102
{ACAD_REACTORS
330
C
102
}
330
C
100
AcDbDictionary
281
     1
  3
Layout1
350
1E
  3
Model
350
22
  0
DICTIONARY
  5
3B
102
{ACAD_REACTORS
330
C
102
}
330
C
100
AcDbDictionary
281
     1
  3
ByBlock
350
3D
  3
ByLayer
350
3C
  3
Global
350
3E
  0
DICTIONARY
  5
183
102
{ACAD_REACTORS
330
C
102
}
330
C
100
AcDbDictionary
281
     1
  0
DICTIONARY
  5
17
102
{ACAD_REACTORS
330
C
102
}
330
C
100
AcDbDictionary
281
     1
  3
Standard
350
18
  0
DICTIONARY
  5
19
102
{ACAD_REACTORS
330
C
102
}
330
C
100
AcDbDictionary
281
     1
  0
ACDBDICTIONARYWDFLT
  5
E
102
{ACAD_REACTORS
330
C
102
}
330
C
100
AcDbDictionary
281
     1
  3
Normal
350
F
100
AcDbDictionaryWithDefault
340
F
  0
DICTIONARY
  5
2A
102
{ACAD_REACTORS
330
C
102
}
330
C
100
AcDbDictionary
281
     1
  3
2dWireframe
350
2F
  3
3D Hidden
350
31
  3
3dWireframe
350
30
  3
Basic
350
32
  3
Brighten
350
36
  3
ColorChange
350
3A
  3
Conceptual
350
34
  3
Dim
350
35
  3
Facepattern
350
39
  3
Flat
350
2B
  3
FlatWithEdges
350
2C
  3
Gouraud
350
2D
  3
GouraudWithEdges
350
2E
  3
Linepattern
350
38
  3
Realistic
350
33
  3
Thicken
350
37
  0
DICTIONARY
  5
181
102
{ACAD_REACTORS
330
C
102
}
330
C
100
AcDbDictionary
281
     1
  3
DIMASSOC
350
186
  3
HIDETEXT
350
187
  3
PSOLHEIGHT
350
185
  3
PSOLWIDTH
350
184
  0
LAYOUT
  5
1E
102
{ACAD_REACTORS
330
1A
102
}
330
1A
100
AcDbPlotSettings
  1

  2
none_device
  4

  6

 40
0.0
 41
0.0
 42
0.0
 43
0.0
 44
0.0
 45
0.0
 46
0.0
 47
0.0
 48
0.0
 49
0.0
140
0.0
141
0.0
142
1.0
143
1.0
 70
   688
 72
     0
 73
     0
 74
     5
  7

 75
    16
147
1.0
148
0.0
149
0.0
100
AcDbLayout
  1
Layout1
 70
     1
 71
     1
 10
0.0
 20
0.0
 11
210.0
 21
297.0
 12
0.0
 22
0.0
 32
0.0
 14
0.0
 24
0.0
 34
0.0
 15
210.0
 25
297.0
 35
0.0
146
0.0
 13
0.0
 23
0.0
 33
0.0
 16
1.0
 26
0.0
 36
0.0
 17
0.0
 27
1.0
 37
0.0
 76
     0
330
1B
  0
LAYOUT
  5
22
102
{ACAD_REACTORS
330
1A
102
}
330
1A
100
AcDbPlotSettings
  1

  2
none_device
  4

  6

 40
0.0
 41
0.0
 42
0.0
 43
0.0
 44
0.0
 45
0.0
 46
0.0
 47
0.0
 48
0.0
 49
0.0
140
0.0
141
0.0
142
1.0
143
1.0
 70
  1712
 72
     0
 73
     0
 74
     0
  7

 75
     0
147
1.0
148
0.0
149
0.0
100
AcDbLayout
  1
Model
 70
     1
 71
     0
 10
0.0
 20
0.0
 11
210.0
 21
297.0
 12
0.0
 22
0.0
 32
0.0
 14
0.0
 24
0.0
 34
0.0
 15
210.0
 25
297.0
 35
0.0
146
0.0
 13
0.0
 23
0.0
 33
0.0
 16
1.0
 26
0.0
 36
0.0
 17
0.0
 27
1.0
 37
0.0
 76
     0
330
1F
331
29
  0
MATERIAL
  5
3D
102
{ACAD_REACTORS
330
3B
102
}
102
{ACAD_XDICTIONARY
360
1AA
102
}
330
3B
100
AcDbMaterial
  1
ByBlock
  0
MATERIAL
  5
3C
102
{ACAD_REACTORS
330
3B
102
}
102
{ACAD_XDICTIONARY
360
1A8
102
}
330
3B
100
AcDbMaterial
  1
ByLayer
  0
MATERIAL
  5
3E
102
{ACAD_REACTORS
330
3B
102
}
102
{ACAD_XDICTIONARY
360
1AC
102
}
330
3B
100
AcDbMaterial
  1
Global
  0
MLINESTYLE
  5
18
102
{ACAD_REACTORS
330
17
102
}
330
17
100
AcDbMlineStyle
  2
Standard
 70
     0
  3

 62
   256
 51
90.0
 52
90.0
 71
     2
 49
0.5
 62
   256
  6
BYLAYER
 49
-0.5
 62
   256
  6
BYLAYER
  0
ACDBPLACEHOLDER
  5
F
102
{ACAD_REACTORS
330
E
102
}
330
E
  0
VISUALSTYLE
  5
2F
102
{ACAD_REACTORS
330
2A
102
}
102
{ACAD_XDICTIONARY
360
190
102
}
330
2A
100
AcDbVisualStyle
  2
2dWireframe
 70
     4
 71
     0
 72
     2
 73
     0
 90
        0
 40
-0.6
 41
-30.0
 62
     5
 63
     7
 74
     1
 91
        4
 64
     7
 65
   257
 75
     1
175
     1
 42
1.0
 92
        0
 66
   257
 43
1.0
 76
     1
 77
     6
 78
     2
 67
     7
 79
     5
170
     0
171
     0
290
     0
174
     0
 93
        1
 44
0.0
173
     0
291
     0
 45
0.0
1001
ACAD
1000
AcDbSavedByObjectVersion
1070
     0
  0
VISUALSTYLE
  5
31
102
{ACAD_REACTORS
330
2A
102
}
102
{ACAD_XDICTIONARY
360
194
102
}
330
2A
100
AcDbVisualStyle
  2
3D Hidden
 70
     6
 71
     1
 72
     2
 73
     2
 90
        0
 40
-0.6
 41
-30.0
 62
     5
 63
     7
 74
     2
 91
        2
 64
     7
 65
   257
 75
     2
175
     1
 42
40.0
 92
        0
 66
   257
 43
1.0
 76
     1
 77
     6
 78
     2
 67
     7
 79
     3
170
     0
171
     0
290
     0
174
     0
 93
        1
 44
0.0
173
     0
291
     0
 45
0.0
1001
ACAD
1000
AcDbSavedByObjectVersion
1070
     0
  0
VISUALSTYLE
  5
30
102
{ACAD_REACTORS
330
2A
102
}
102
{ACAD_XDICTIONARY
360
192
102
}
330
2A
100
AcDbVisualStyle
  2
3dWireframe
 70
     5
 71
     0
 72
     2
 73
     0
 90
        0
 40
-0.6
 41
-30.0
 62
     5
 63
     7
 74
     1
 91
        4
 64
     7
 65
   257
 75
     1
175
     1
 42
1.0
 92
        0
 66
   257
 43
1.0
 76
     1
 77
     6
 78
     2
 67
     7
 79
     5
170
     0
171
     0
290
     0
174
     0
 93
        1
 44
0.0
173
     0
291
     0
 45
0.0
1001
ACAD
1000
AcDbSavedByObjectVersion
1070
     0
  0
VISUALSTYLE
  5
32
102
{ACAD_REACTORS
330
2A
102
}
102
{ACAD_XDICTIONARY
360
196
102
}
330
2A
100
AcDbVisualStyle
  2
Basic
 70
     7
 71
     1
 72
     0
 73
     1
 90
        0
 40
-0.6
 41
-30.0
 62
     5
 63
     7
 74
     0
 91
        4
 64
     7
 65
   257
 75
     1
175
     1
 42
1.0
 92
        8
 66
     7
 43
1.0
 76
     1
 77
     6
 78
     2
 67
     7
 79
     5
170
     0
171
     0
290
     0
174
     0
 93
        1
 44
0.0
173
     0
291
     1
 45
0.0
1001
ACAD
1000
AcDbSavedByObjectVersion
1070
     0
  0
VISUALSTYLE
  5
36
102
{ACAD_REACTORS
330
2A
102
}
102
{ACAD_XDICTIONARY
360
19E
102
}
330
2A
100
AcDbVisualStyle
  2
Brighten
 70
    12
 71
     2
 72
     2
 73
     0
 90
        0
 40
-0.6
 41
-30.0
 62
     5
 63
     7
 74
     1
 91
        4
 64
     7
 65
   257
 75
     1
175
     1
 42
1.0
 92
        8
 66
     7
 43
1.0
 76
     1
 77
     6
 78
     2
 67
     7
 79
     5
170
     0
171
     0
290
     0
174
     0
 93
        1
 44
50.0
173
     0
291
     1
 45
0.0
1001
ACAD
1000
AcDbSavedByObjectVersion
1070
     0
  0
VISUALSTYLE
  5
3A
102
{ACAD_REACTORS
330
2A
102
}
102
{ACAD_XDICTIONARY
360
1A6
102
}
330
2A
100
AcDbVisualStyle
  2
ColorChange
 70
    16
 71
     2
 72
     2
 73
     3
 90
        0
 40
-0.6
 41
-30.0
 62
     5
 63
     8
 74
     1
 91
        4
 64
     7
 65
   257
 75
     1
175
     1
 42
1.0
 92
        8
 66
     8
 43
1.0
 76
     1
 77
     6
 78
     2
 67
     7
 79
     5
170
     0
171
     0
290
     0
174
     0
 93
        1
 44
0.0
173
     0
291
     1
 45
0.0
1001
ACAD
1000
AcDbSavedByObjectVersion
1070
     0
  0
VISUALSTYLE
  5
34
102
{ACAD_REACTORS
330
2A
102
}
102
{ACAD_XDICTIONARY
360
19A
102
}
330
2A
100
AcDbVisualStyle
  2
Conceptual
 70
     9
 71
     3
 72
     2
 73
     0
 90
        0
 40
-0.6
 41
-30.0
 62
     5
 63
     7
 74
     2
 91
        2
 64
     7
 65
   257
 75
     1
175
     1
 42
40.0
 92
        8
 66
     7
 43
1.0
 76
     1
 77
     6
 78
     2
 67
     7
 79
     3
170
     0
171
     0
290
     0
174
     0
 93
        1
 44
0.0
173
     0
291
     0
 45
0.0
1001
ACAD
1000
AcDbSavedByObjectVersion
1070
     0
  0
VISUALSTYLE
  5
35
102
{ACAD_REACTORS
330
2A
102
}
102
{ACAD_XDICTIONARY
360
19C
102
}
330
2A
100
AcDbVisualStyle
  2
Dim
 70
    11
 71
     2
 72
     2
 73
     0
 90
        0
 40
-0.6
 41
-30.0
 62
     5
 63
     7
 74
     1
 91
        4
 64
     7
 65
   257
 75
     1
175
     1
 42
1.0
 92
        8
 66
     7
 43
1.0
 76
     1
 77
     6
 78
     2
 67
     7
 79
     5
170
     0
171
     0
290
     0
174
     0
 93
        1
 44
-50.0
173
     0
291
     1
 45
0.0
1001
ACAD
1000
AcDbSavedByObjectVersion
1070
     0
  0
VISUALSTYLE
  5
39
102
{ACAD_REACTORS
330
2A
102
}
102
{ACAD_XDICTIONARY
360
1A4
102
}
330
2A
100
AcDbVisualStyle
  2
Facepattern
 70
    15
 71
     2
 72
     2
 73
     0
 90
        0
 40
-0.6
 41
-30.0
 62
     5
 63
     7
 74
     1
 91
        4
 64
     7
 65
   257
 75
     1
175
     1
 42
1.0
 92
        8
 66
     7
 43
1.0
 76
     1
 77
     6
 78
     2
 67
     7
 79
     5
170
     0
171
     0
290
     0
174
     0
 93
        1
 44
0.0
173
     0
291
     1
 45
0.0
1001
ACAD
1000
AcDbSavedByObjectVersion
1070
     0
  0
VISUALSTYLE
  5
2B
102
{ACAD_REACTORS
330
2A
102
}
102
{ACAD_XDICTIONARY
360
188
102
}
330
2A
100
AcDbVisualStyle
  2
Flat
 70
     0
 71
     2
 72
     1
 73
     1
 90
        2
 40
-0.6
 41
30.0
 62
     5
 63
     7
 74
     0
 91
        4
 64
     7
 65
   257
 75
     1
175
     1
 42
1.0
 92
        8
 66
     7
 43
1.0
 76
     1
 77
     6
 78
     2
 67
     7
 79
     5
170
     0
171
     0
290
     0
174
     0
 93
       13
 44
0.0
173
     0
291
     1
 45
0.0
1001
ACAD
1000
AcDbSavedByObjectVersion
1070
     0
  0
VISUALSTYLE
  5
2C
102
{ACAD_REACTORS
330
2A
102
}
102
{ACAD_XDICTIONARY
360
18A
102
}
330
2A
100
AcDbVisualStyle
  2
FlatWithEdges
 70
     1
 71
     2
 72
     1
 73
     1
 90
        2
 40
-0.6
 41
30.0
 62
     5
 63
     7
 74
     1
 91
        4
 64
     7
 65
   257
 75
     1
175
     1
 42
1.0
 92
        0
 66
   257
 43
1.0
 76
     1
 77
     6
 78
     2
 67
     7
 79
     5
170
     0
171
     0
290
     0
174
     0
 93
       13
 44
0.0
173
     0
291
     1
 45
0.0
1001
ACAD
1000
AcDbSavedByObjectVersion
1070
     0
  0
VISUALSTYLE
  5
2D
102
{ACAD_REACTORS
330
2A
102
}
102
{ACAD_XDICTIONARY
360
18C
102
}
330
2A
100
AcDbVisualStyle
  2
Gouraud
 70
     2
 71
     2
 72
     2
 73
     1
 90
        2
 40
-0.6
 41
30.0
 62
     5
 63
     7
 74
     0
 91
        4
 64
     7
 65
   257
 75
     1
175
     1
 42
1.0
 92
        0
 66
     7
 43
1.0
 76
     1
 77
     6
 78
     2
 67
     7
 79
     5
170
     0
171
     0
290
     0
174
     0
 93
       13
 44
0.0
173
     0
291
     1
 45
0.0
1001
ACAD
1000
AcDbSavedByObjectVersion
1070
     0
  0
VISUALSTYLE
  5
2E
102
{ACAD_REACTORS
330
2A
102
}
102
{ACAD_XDICTIONARY
360
18E
102
}
330
2A
100
AcDbVisualStyle
  2
GouraudWithEdges
 70
     3
 71
     2
 72
     2
 73
     1
 90
        2
 40
-0.6
 41
30.0
 62
     5
 63
     7
 74
     1
 91
        4
 64
     7
 65
   257
 75
     1
175
     1
 42
1.0
 92
        0
 66
   257
 43
1.0
 76
     1
 77
     6
 78
     2
 67
     7
 79
     5
170
     0
171
     0
290
     0
174
     0
 93
       13
 44
0.0
173
     0
291
     1
 45
0.0
1001
ACAD
1000
AcDbSavedByObjectVersion
1070
     0
  0
VISUALSTYLE
  5
38
102
{ACAD_REACTORS
330
2A
102
}
102
{ACAD_XDICTIONARY
360
1A2
102
}
330
2A
100
AcDbVisualStyle
  2
Linepattern
 70
    14
 71
     2
 72
     2
 73
     0
 90
        0
 40
-0.6
 41
-30.0
 62
     5
 63
     7
 74
     1
 91
        4
 64
     7
 65
   257
 75
     7
175
     7
 42
1.0
 92
        8
 66
     7
 43
1.0
 76
     1
 77
     6
 78
     2
 67
     7
 79
     5
170
     0
171
     0
290
     0
174
     0
 93
        1
 44
0.0
173
     0
291
     1
 45
0.0
1001
ACAD
1000
AcDbSavedByObjectVersion
1070
     0
  0
VISUALSTYLE
  5
33
102
{ACAD_REACTORS
330
2A
102
}
102
{ACAD_XDICTIONARY
360
198
102
}
330
2A
100
AcDbVisualStyle
  2
Realistic
 70
     8
 71
     2
 72
     2
 73
     0
 90
        0
 40
-0.6
 41
-30.0
 62
     5
 63
     7
 74
     1
 91
        0
 64
     7
 65
   257
 75
     1
175
     1
 42
1.0
 92
        8
 66
     8
 43
1.0
 76
     1
 77
     6
 78
     2
 67
     7
 79
     5
170
     0
171
     0
290
     0
174
     0
 93
       13
 44
0.0
173
     0
291
     0
 45
0.0
1001
ACAD
1000
AcDbSavedByObjectVersion
1070
     0
  0
VISUALSTYLE
  5
37
102
{ACAD_REACTORS
330
2A
102
}
102
{ACAD_XDICTIONARY
360
1A0
102
}
330
2A
100
AcDbVisualStyle
  2
Thicken
 70
    13
 71
     2
 72
     2
 73
     0
 90
        0
 40
-0.6
 41
-30.0
 62
     5
 63
     7
 74
     1
 91
        4
 64
     7
 65
   257
 75
     1
175
     1
 42
1.0
 92
       12
 66
     7
 43
1.0
 76
     1
 77
     6
 78
     2
 67
     7
 79
     5
170
     0
171
     0
290
     0
174
     0
 93
        1
 44
0.0
173
     0
291
     1
 45
0.0
1001
ACAD
1000
AcDbSavedByObjectVersion
1070
     0
  0
DICTIONARYVAR
  5
186
102
{ACAD_REACTORS
330
181
102
}
330
181
100
DictionaryVariables
280
     0
  1
2
  0
DICTIONARYVAR
  5
187
102
{ACAD_REACTORS
330
181
102
}
330
181
100
DictionaryVariables
280
     0
  1
1
  0
DICTIONARYVAR
  5
185
102
{ACAD_REACTORS
330
181
102
}
330
181
100
DictionaryVariables
280
     0
  1
80.000000
  0
DICTIONARYVAR
  5
184
102
{ACAD_REACTORS
330
181
102
}
330
181
100
DictionaryVariables
280
     0
  1
5.000000
  0
DICTIONARY
  5
1AA
330
3D
100
AcDbDictionary
280
     1
281
     1
  3
ACAD_XREC_ROUNDTRIP
360
1AB
  0
DICTIONARY
  5
1A8
330
3C
100
AcDbDictionary
280
     1
281
     1
  3
ACAD_XREC_ROUNDTRIP
360
1A9
  0
DICTIONARY
  5
1AC
330
3E
100
AcDbDictionary
280
     1
281
     1
  3
ACAD_XREC_ROUNDTRIP
360
1AD
  0
DICTIONARY
  5
190
330
2F
100
AcDbDictionary
280
     1
281
     1
  3
ACAD_XREC_ROUNDTRIP
360
191
  0
DICTIONARY
  5
194
330
31
100
AcDbDictionary
280
     1
281
     1
  3
ACAD_XREC_ROUNDTRIP
360
195
  0
DICTIONARY
  5
192
330
30
100
AcDbDictionary
280
     1
281
     1
  3
ACAD_XREC_ROUNDTRIP
360
193
  0
DICTIONARY
  5
196
330
32
100
AcDbDictionary
280
     1
281
     1
  3
ACAD_XREC_ROUNDTRIP
360
197
  0
DICTIONARY
  5
19E
330
36
100
AcDbDictionary
280
     1
281
     1
  3
ACAD_XREC_ROUNDTRIP
360
19F
  0
DICTIONARY
  5
1A6
330
3A
100
AcDbDictionary
280
     1
281
     1
  3
ACAD_XREC_ROUNDTRIP
360
1A7
  0
DICTIONARY
  5
19A
330
34
100
AcDbDictionary
280
     1
281
     1
  3
ACAD_XREC_ROUNDTRIP
360
19B
  0
DICTIONARY
  5
19C
330
35
100
AcDbDictionary
280
     1
281
     1
  3
ACAD_XREC_ROUNDTRIP
360
19D
  0
DICTIONARY
  5
1A4
330
39
100
AcDbDictionary
280
     1
281
     1
  3
ACAD_XREC_ROUNDTRIP
360
1A5
  0
DICTIONARY
  5
188
330
2B
100
AcDbDictionary
280
     1
281
     1
  3
ACAD_XREC_ROUNDTRIP
360
189
  0
DICTIONARY
  5
18A
330
2C
100
AcDbDictionary
280
     1
281
     1
  3
ACAD_XREC_ROUNDTRIP
360
18B
  0
DICTIONARY
  5
18C
330
2D
100
AcDbDictionary
280
     1
281
     1
  3
ACAD_XREC_ROUNDTRIP
360
18D
  0
DICTIONARY
  5
18E
330
2E
100
AcDbDictionary
280
     1
281
     1
  3
ACAD_XREC_ROUNDTRIP
360
18F
  0
DICTIONARY
  5
1A2
330
38
100
AcDbDictionary
280
     1
281
     1
  3
ACAD_XREC_ROUNDTRIP
360
1A3
  0
DICTIONARY
  5
198
330
33
100
AcDbDictionary
280
     1
281
     1
  3
ACAD_XREC_ROUNDTRIP
360
199
  0
DICTIONARY
  5
1A0
330
37
100
AcDbDictionary
280
     1
281
     1
  3
ACAD_XREC_ROUNDTRIP
360
1A1
  0
XRECORD
  5
1AB
102
{ACAD_REACTORS
330
1AA
102
}
330
1AA
100
AcDbXrecord
280
     1
102
MATERIAL
148
0.0
149
0.0
149
0.0
 93
        0
 94
      127
282
     0
 72
     1
 77
     1
171
     1
175
     1
179
     1
273
     0
  0
XRECORD
  5
1A9
102
{ACAD_REACTORS
330
1A8
102
}
330
1A8
100
AcDbXrecord
280
     1
102
MATERIAL
148
0.0
149
0.0
149
0.0
 93
        0
 94
      127
282
     0
 72
     1
 77
     1
171
     1
175
     1
179
     1
273
     0
  0
XRECORD
  5
1AD
102
{ACAD_REACTORS
330
1AC
102
}
330
1AC
100
AcDbXrecord
280
     1
102
MATERIAL
148
0.0
149
0.0
149
0.0
 93
        0
 94
      127
282
     0
 72
     1
 77
     1
171
     1
175
     1
179
     1
273
     0
  0
XRECORD
  5
191
102
{ACAD_REACTORS
330
190
102
}
330
190
100
AcDbXrecord
280
     1
102
RTVSPropertyOp0
 70
     1
102
RTVSPropertyOp1
 70
     1
102
RTVSPropertyOp2
 70
     1
102
RTVSPropertyOp3
 70
     1
102
RTVSPropertyOp4
 70
     1
102
RTVSPropertyOp5
 70
     1
102
RTVSPropertyOp6
 70
     1
102
RTVSPropertyOp7
 70
     1
102
RTVSPropertyOp8
 70
     1
102
RTVSPropertyOp9
 70
     1
102
RTVSPropertyOp10
 70
     1
102
RTVSPropertyOp11
 70
     1
102
RTVSPropertyOp12
 70
     1
102
RTVSPropertyOp13
 70
     1
102
RTVSPropertyOp14
 70
     1
102
RTVSPropertyOp15
 70
     1
102
RTVSPropertyOp16
 70
     1
102
RTVSPropertyOp17
 70
     1
102
RTVSPropertyOp18
 70
     1
102
RTVSPropertyOp19
 70
     1
102
RTVSPropertyOp20
 70
     1
102
RTVSPropertyOp21
 70
     1
102
RTVSPropertyOp22
 70
     1
102
RTVSPropertyOp23
 70
     1
102
RTVSPropertyOp24
 70
     1
102
RTVSPropertyOp25
 70
     1
102
RTVSPropertyOp26
 70
     1
102
RTVSPropertyOp27
 70
     1
102
RTVSPropertyOp28
 70
     1
102
RTVSPropertyOp29
 70
     1
102
RTVSPropertyOp30
 70
     1
102
RTVSPropertyOp31
 70
     1
102
RTVSPropertyOp32
 70
     1
  0
XRECORD
  5
195
102
{ACAD_REACTORS
330
194
102
}
330
194
100
AcDbXrecord
280
     1
102
RTVSPropertyOp0
 70
     1
102
RTVSPropertyOp1
 70
     1
102
RTVSPropertyOp2
 70
     1
102
RTVSPropertyOp3
 70
     1
102
RTVSPropertyOp4
 70
     1
102
RTVSPropertyOp5
 70
     1
102
RTVSPropertyOp6
 70
     1
102
RTVSPropertyOp7
 70
     1
102
RTVSPropertyOp8
 70
     1
102
RTVSPropertyOp9
 70
     1
102
RTVSPropertyOp10
 70
     1
102
RTVSPropertyOp11
 70
     1
102
RTVSPropertyOp12
 70
     1
102
RTVSPropertyOp13
 70
     1
102
RTVSPropertyOp14
 70
     1
102
RTVSPropertyOp15
 70
     1
102
RTVSPropertyOp16
 70
     1
102
RTVSPropertyOp17
 70
     1
102
RTVSPropertyOp18
 70
     1
102
RTVSPropertyOp19
 70
     1
102
RTVSPropertyOp20
 70
     1
102
RTVSPropertyOp21
 70
     1
102
RTVSPropertyOp22
 70
     1
102
RTVSPropertyOp23
 70
     1
102
RTVSPropertyOp24
 70
     1
102
RTVSPropertyOp25
 70
     1
102
RTVSPropertyOp26
 70
     1
102
RTVSPropertyOp27
 70
     1
102
RTVSPropertyOp28
 70
     1
102
RTVSPropertyOp29
 70
     1
102
RTVSPropertyOp30
 70
     1
102
RTVSPropertyOp31
 70
     1
102
RTVSPropertyOp32
 70
     1
  0
XRECORD
  5
193
102
{ACAD_REACTORS
330
192
102
}
330
192
100
AcDbXrecord
280
     1
102
RTVSPropertyOp0
 70
     1
102
RTVSPropertyOp1
 70
     1
102
RTVSPropertyOp2
 70
     1
102
RTVSPropertyOp3
 70
     1
102
RTVSPropertyOp4
 70
     1
102
RTVSPropertyOp5
 70
     1
102
RTVSPropertyOp6
 70
     1
102
RTVSPropertyOp7
 70
     1
102
RTVSPropertyOp8
 70
     1
102
RTVSPropertyOp9
 70
     1
102
RTVSPropertyOp10
 70
     1
102
RTVSPropertyOp11
 70
     1
102
RTVSPropertyOp12
 70
     1
102
RTVSPropertyOp13
 70
     1
102
RTVSPropertyOp14
 70
     1
102
RTVSPropertyOp15
 70
     1
102
RTVSPropertyOp16
 70
     1
102
RTVSPropertyOp17
 70
     1
102
RTVSPropertyOp18
 70
     1
102
RTVSPropertyOp19
 70
     1
102
RTVSPropertyOp20
 70
     1
102
RTVSPropertyOp21
 70
     1
102
RTVSPropertyOp22
 70
     1
102
RTVSPropertyOp23
 70
     1
102
RTVSPropertyOp24
 70
     1
102
RTVSPropertyOp25
 70
     1
102
RTVSPropertyOp26
 70
     1
102
RTVSPropertyOp27
 70
     1
102
RTVSPropertyOp28
 70
     1
102
RTVSPropertyOp29
 70
     1
102
RTVSPropertyOp30
 70
     1
102
RTVSPropertyOp31
 70
     1
102
RTVSPropertyOp32
 70
     1
  0
XRECORD
  5
197
102
{ACAD_REACTORS
330
196
102
}
330
196
100
AcDbXrecord
280
     1
102
RTVSPropertyOp0
 70
     1
102
RTVSPropertyOp1
 70
     1
102
RTVSPropertyOp2
 70
     1
102
RTVSPropertyOp3
 70
     1
102
RTVSPropertyOp4
 70
     1
102
RTVSPropertyOp5
 70
     1
102
RTVSPropertyOp6
 70
     1
102
RTVSPropertyOp7
 70
     1
102
RTVSPropertyOp8
 70
     1
102
RTVSPropertyOp9
 70
     1
102
RTVSPropertyOp10
 70
     1
102
RTVSPropertyOp11
 70
     1
102
RTVSPropertyOp12
 70
     1
102
RTVSPropertyOp13
 70
     1
102
RTVSPropertyOp14
 70
     1
102
RTVSPropertyOp15
 70
     1
102
RTVSPropertyOp16
 70
     1
102
RTVSPropertyOp17
 70
     1
102
RTVSPropertyOp18
 70
     1
102
RTVSPropertyOp19
 70
     1
102
RTVSPropertyOp20
 70
     1
102
RTVSPropertyOp21
 70
     1
102
RTVSPropertyOp22
 70
     1
102
RTVSPropertyOp23
 70
     1
102
RTVSPropertyOp24
 70
     1
102
RTVSPropertyOp25
 70
     1
102
RTVSPropertyOp26
 70
     1
102
RTVSPropertyOp27
 70
     1
102
RTVSPropertyOp28
 70
     1
102
RTVSPropertyOp29
 70
     1
102
RTVSPropertyOp30
 70
     1
102
RTVSPropertyOp31
 70
     1
102
RTVSPropertyOp32
 70
     1
  0
XRECORD
  5
19F
102
{ACAD_REACTORS
330
19E
102
}
330
19E
100
AcDbXrecord
280
     1
102
RTVSPropertyOp0
 70
     1
102
RTVSPropertyOp1
 70
     1
102
RTVSPropertyOp2
 70
     1
102
RTVSPropertyOp3
 70
     1
102
RTVSPropertyOp4
 70
     1
102
RTVSPropertyOp5
 70
     1
102
RTVSPropertyOp6
 70
     1
102
RTVSPropertyOp7
 70
     1
102
RTVSPropertyOp8
 70
     1
102
RTVSPropertyOp9
 70
     1
102
RTVSPropertyOp10
 70
     1
102
RTVSPropertyOp11
 70
     1
102
RTVSPropertyOp12
 70
     1
102
RTVSPropertyOp13
 70
     1
102
RTVSPropertyOp14
 70
     1
102
RTVSPropertyOp15
 70
     1
102
RTVSPropertyOp16
 70
     1
102
RTVSPropertyOp17
 70
     1
102
RTVSPropertyOp18
 70
     1
102
RTVSPropertyOp19
 70
     1
102
RTVSPropertyOp20
 70
     1
102
RTVSPropertyOp21
 70
     1
102
RTVSPropertyOp22
 70
     1
102
RTVSPropertyOp23
 70
     1
102
RTVSPropertyOp24
 70
     1
102
RTVSPropertyOp25
 70
     1
102
RTVSPropertyOp26
 70
     1
102
RTVSPropertyOp27
 70
     1
102
RTVSPropertyOp28
 70
     1
102
RTVSPropertyOp29
 70
     1
102
RTVSPropertyOp30
 70
     1
102
RTVSPropertyOp31
 70
     1
102
RTVSPropertyOp32
 70
     1
  0
XRECORD
  5
1A7
102
{ACAD_REACTORS
330
1A6
102
}
330
1A6
100
AcDbXrecord
280
     1
102
RTVSPropertyOp0
 70
     1
102
RTVSPropertyOp1
 70
     1
102
RTVSPropertyOp2
 70
     1
102
RTVSPropertyOp3
 70
     1
102
RTVSPropertyOp4
 70
     1
102
RTVSPropertyOp5
 70
     1
102
RTVSPropertyOp6
 70
     1
102
RTVSPropertyOp7
 70
     1
102
RTVSPropertyOp8
 70
     1
102
RTVSPropertyOp9
 70
     1
102
RTVSPropertyOp10
 70
     1
102
RTVSPropertyOp11
 70
     1
102
RTVSPropertyOp12
 70
     1
102
RTVSPropertyOp13
 70
     1
102
RTVSPropertyOp14
 70
     1
102
RTVSPropertyOp15
 70
     1
102
RTVSPropertyOp16
 70
     1
102
RTVSPropertyOp17
 70
     1
102
RTVSPropertyOp18
 70
     1
102
RTVSPropertyOp19
 70
     1
102
RTVSPropertyOp20
 70
     1
102
RTVSPropertyOp21
 70
     1
102
RTVSPropertyOp22
 70
     1
102
RTVSPropertyOp23
 70
     1
102
RTVSPropertyOp24
 70
     1
102
RTVSPropertyOp25
 70
     1
102
RTVSPropertyOp26
 70
     1
102
RTVSPropertyOp27
 70
     1
102
RTVSPropertyOp28
 70
     1
102
RTVSPropertyOp29
 70
     1
102
RTVSPropertyOp30
 70
     1
102
RTVSPropertyOp31
 70
     1
102
RTVSPropertyOp32
 70
     1
  0
XRECORD
  5
19B
102
{ACAD_REACTORS
330
19A
102
}
330
19A
100
AcDbXrecord
280
     1
102
RTVSPropertyOp0
 70
     1
102
RTVSPropertyOp1
 70
     1
102
RTVSPropertyOp2
 70
     1
102
RTVSPropertyOp3
 70
     1
102
RTVSPropertyOp4
 70
     1
102
RTVSPropertyOp5
 70
     1
102
RTVSPropertyOp6
 70
     1
102
RTVSPropertyOp7
 70
     1
102
RTVSPropertyOp8
 70
     1
102
RTVSPropertyOp9
 70
     1
102
RTVSPropertyOp10
 70
     1
102
RTVSPropertyOp11
 70
     1
102
RTVSPropertyOp12
 70
     1
102
RTVSPropertyOp13
 70
     1
102
RTVSPropertyOp14
 70
     1
102
RTVSPropertyOp15
 70
     1
102
RTVSPropertyOp16
 70
     1
102
RTVSPropertyOp17
 70
     1
102
RTVSPropertyOp18
 70
     1
102
RTVSPropertyOp19
 70
     1
102
RTVSPropertyOp20
 70
     1
102
RTVSPropertyOp21
 70
     1
102
RTVSPropertyOp22
 70
     1
102
RTVSPropertyOp23
 70
     1
102
RTVSPropertyOp24
 70
     1
102
RTVSPropertyOp25
 70
     1
102
RTVSPropertyOp26
 70
     1
102
RTVSPropertyOp27
 70
     1
102
RTVSPropertyOp28
 70
     1
102
RTVSPropertyOp29
 70
     1
102
RTVSPropertyOp30
 70
     1
102
RTVSPropertyOp31
 70
     1
102
RTVSPropertyOp32
 70
     1
  0
XRECORD
  5
19D
102
{ACAD_REACTORS
330
19C
102
}
330
19C
100
AcDbXrecord
280
     1
102
RTVSPropertyOp0
 70
     1
102
RTVSPropertyOp1
 70
     1
102
RTVSPropertyOp2
 70
     1
102
RTVSPropertyOp3
 70
     1
102
RTVSPropertyOp4
 70
     1
102
RTVSPropertyOp5
 70
     1
102
RTVSPropertyOp6
 70
     1
102
RTVSPropertyOp7
 70
     1
102
RTVSPropertyOp8
 70
     1
102
RTVSPropertyOp9
 70
     1
102
RTVSPropertyOp10
 70
     1
102
RTVSPropertyOp11
 70
     1
102
RTVSPropertyOp12
 70
     1
102
RTVSPropertyOp13
 70
     1
102
RTVSPropertyOp14
 70
     1
102
RTVSPropertyOp15
 70
     1
102
RTVSPropertyOp16
 70
     1
102
RTVSPropertyOp17
 70
     1
102
RTVSPropertyOp18
 70
     1
102
RTVSPropertyOp19
 70
     1
102
RTVSPropertyOp20
 70
     1
102
RTVSPropertyOp21
 70
     1
102
RTVSPropertyOp22
 70
     1
102
RTVSPropertyOp23
 70
     1
102
RTVSPropertyOp24
 70
     1
102
RTVSPropertyOp25
 70
     1
102
RTVSPropertyOp26
 70
     1
102
RTVSPropertyOp27
 70
     1
102
RTVSPropertyOp28
 70
     1
102
RTVSPropertyOp29
 70
     1
102
RTVSPropertyOp30
 70
     1
102
RTVSPropertyOp31
 70
     1
102
RTVSPropertyOp32
 70
     1
  0
XRECORD
  5
1A5
102
{ACAD_REACTORS
330
1A4
102
}
330
1A4
100
AcDbXrecord
280
     1
102
RTVSPropertyOp0
 70
     1
102
RTVSPropertyOp1
 70
     1
102
RTVSPropertyOp2
 70
     1
102
RTVSPropertyOp3
 70
     1
102
RTVSPropertyOp4
 70
     1
102
RTVSPropertyOp5
 70
     1
102
RTVSPropertyOp6
 70
     1
102
RTVSPropertyOp7
 70
     1
102
RTVSPropertyOp8
 70
     1
102
RTVSPropertyOp9
 70
     1
102
RTVSPropertyOp10
 70
     1
102
RTVSPropertyOp11
 70
     1
102
RTVSPropertyOp12
 70
     1
102
RTVSPropertyOp13
 70
     1
102
RTVSPropertyOp14
 70
     1
102
RTVSPropertyOp15
 70
     1
102
RTVSPropertyOp16
 70
     1
102
RTVSPropertyOp17
 70
     1
102
RTVSPropertyOp18
 70
     1
102
RTVSPropertyOp19
 70
     1
102
RTVSPropertyOp20
 70
     1
102
RTVSPropertyOp21
 70
     1
102
RTVSPropertyOp22
 70
     1
102
RTVSPropertyOp23
 70
     1
102
RTVSPropertyOp24
 70
     1
102
RTVSPropertyOp25
 70
     1
102
RTVSPropertyOp26
 70
     1
102
RTVSPropertyOp27
 70
     1
102
RTVSPropertyOp28
 70
     1
102
RTVSPropertyOp29
 70
     1
102
RTVSPropertyOp30
 70
     1
102
RTVSPropertyOp31
 70
     1
102
RTVSPropertyOp32
 70
     1
  0
XRECORD
  5
189
102
{ACAD_REACTORS
330
188
102
}
330
188
100
AcDbXrecord
280
     1
102
RTVSPropertyOp0
 70
     1
102
RTVSPropertyOp1
 70
     1
102
RTVSPropertyOp2
 70
     1
102
RTVSPropertyOp3
 70
     1
102
RTVSPropertyOp4
 70
     1
102
RTVSPropertyOp5
 70
     1
102
RTVSPropertyOp6
 70
     1
102
RTVSPropertyOp7
 70
     1
102
RTVSPropertyOp8
 70
     1
102
RTVSPropertyOp9
 70
     1
102
RTVSPropertyOp10
 70
     1
102
RTVSPropertyOp11
 70
     1
102
RTVSPropertyOp12
 70
     1
102
RTVSPropertyOp13
 70
     1
102
RTVSPropertyOp14
 70
     1
102
RTVSPropertyOp15
 70
     1
102
RTVSPropertyOp16
 70
     1
102
RTVSPropertyOp17
 70
     1
102
RTVSPropertyOp18
 70
     1
102
RTVSPropertyOp19
 70
     1
102
RTVSPropertyOp20
 70
     1
102
RTVSPropertyOp21
 70
     1
102
RTVSPropertyOp22
 70
     1
102
RTVSPropertyOp23
 70
     1
102
RTVSPropertyOp24
 70
     1
102
RTVSPropertyOp25
 70
     1
102
RTVSPropertyOp26
 70
     1
102
RTVSPropertyOp27
 70
     1
102
RTVSPropertyOp28
 70
     1
102
RTVSPropertyOp29
 70
     1
102
RTVSPropertyOp30
 70
     1
102
RTVSPropertyOp31
 70
     1
102
RTVSPropertyOp32
 70
     1
  0
XRECORD
  5
18B
102
{ACAD_REACTORS
330
18A
102
}
330
18A
100
AcDbXrecord
280
     1
102
RTVSPropertyOp0
 70
     1
102
RTVSPropertyOp1
 70
     1
102
RTVSPropertyOp2
 70
     1
102
RTVSPropertyOp3
 70
     1
102
RTVSPropertyOp4
 70
     1
102
RTVSPropertyOp5
 70
     1
102
RTVSPropertyOp6
 70
     1
102
RTVSPropertyOp7
 70
     1
102
RTVSPropertyOp8
 70
     1
102
RTVSPropertyOp9
 70
     1
102
RTVSPropertyOp10
 70
     1
102
RTVSPropertyOp11
 70
     1
102
RTVSPropertyOp12
 70
     1
102
RTVSPropertyOp13
 70
     1
102
RTVSPropertyOp14
 70
     1
102
RTVSPropertyOp15
 70
     1
102
RTVSPropertyOp16
 70
     1
102
RTVSPropertyOp17
 70
     1
102
RTVSPropertyOp18
 70
     1
102
RTVSPropertyOp19
 70
     1
102
RTVSPropertyOp20
 70
     1
102
RTVSPropertyOp21
 70
     1
102
RTVSPropertyOp22
 70
     1
102
RTVSPropertyOp23
 70
     1
102
RTVSPropertyOp24
 70
     1
102
RTVSPropertyOp25
 70
     1
102
RTVSPropertyOp26
 70
     1
102
RTVSPropertyOp27
 70
     1
102
RTVSPropertyOp28
 70
     1
102
RTVSPropertyOp29
 70
     1
102
RTVSPropertyOp30
 70
     1
102
RTVSPropertyOp31
 70
     1
102
RTVSPropertyOp32
 70
     1
  0
XRECORD
  5
18D
102
{ACAD_REACTORS
330
18C
102
}
330
18C
100
AcDbXrecord
280
     1
102
RTVSPropertyOp0
 70
     1
102
RTVSPropertyOp1
 70
     1
102
RTVSPropertyOp2
 70
     1
102
RTVSPropertyOp3
 70
     1
102
RTVSPropertyOp4
 70
     1
102
RTVSPropertyOp5
 70
     1
102
RTVSPropertyOp6
 70
     1
102
RTVSPropertyOp7
 70
     1
102
RTVSPropertyOp8
 70
     1
102
RTVSPropertyOp9
 70
     1
102
RTVSPropertyOp10
 70
     1
102
RTVSPropertyOp11
 70
     1
102
RTVSPropertyOp12
 70
     1
102
RTVSPropertyOp13
 70
     1
102
RTVSPropertyOp14
 70
     1
102
RTVSPropertyOp15
 70
     1
102
RTVSPropertyOp16
 70
     1
102
RTVSPropertyOp17
 70
     1
102
RTVSPropertyOp18
 70
     1
102
RTVSPropertyOp19
 70
     1
102
RTVSPropertyOp20
 70
     1
102
RTVSPropertyOp21
 70
     1
102
RTVSPropertyOp22
 70
     1
102
RTVSPropertyOp23
 70
     1
102
RTVSPropertyOp24
 70
     1
102
RTVSPropertyOp25
 70
     1
102
RTVSPropertyOp26
 70
     1
102
RTVSPropertyOp27
 70
     1
102
RTVSPropertyOp28
 70
     1
102
RTVSPropertyOp29
 70
     1
102
RTVSPropertyOp30
 70
     1
102
RTVSPropertyOp31
 70
     1
102
RTVSPropertyOp32
 70
     1
  0
XRECORD
  5
18F
102
{ACAD_REACTORS
330
18E
102
}
330
18E
100
AcDbXrecord
280
     1
102
RTVSPropertyOp0
 70
     1
102
RTVSPropertyOp1
 70
     1
102
RTVSPropertyOp2
 70
     1
102
RTVSPropertyOp3
 70
     1
102
RTVSPropertyOp4
 70
     1
102
RTVSPropertyOp5
 70
     1
102
RTVSPropertyOp6
 70
     1
102
RTVSPropertyOp7
 70
     1
102
RTVSPropertyOp8
 70
     1
102
RTVSPropertyOp9
 70
     1
102
RTVSPropertyOp10
 70
     1
102
RTVSPropertyOp11
 70
     1
102
RTVSPropertyOp12
 70
     1
102
RTVSPropertyOp13
 70
     1
102
RTVSPropertyOp14
 70
     1
102
RTVSPropertyOp15
 70
     1
102
RTVSPropertyOp16
 70
     1
102
RTVSPropertyOp17
 70
     1
102
RTVSPropertyOp18
 70
     1
102
RTVSPropertyOp19
 70
     1
102
RTVSPropertyOp20
 70
     1
102
RTVSPropertyOp21
 70
     1
102
RTVSPropertyOp22
 70
     1
102
RTVSPropertyOp23
 70
     1
102
RTVSPropertyOp24
 70
     1
102
RTVSPropertyOp25
 70
     1
102
RTVSPropertyOp26
 70
     1
102
RTVSPropertyOp27
 70
     1
102
RTVSPropertyOp28
 70
     1
102
RTVSPropertyOp29
 70
     1
102
RTVSPropertyOp30
 70
     1
102
RTVSPropertyOp31
 70
     1
102
RTVSPropertyOp32
 70
     1
  0
XRECORD
  5
1A3
102
{ACAD_REACTORS
330
1A2
102
}
330
1A2
100
AcDbXrecord
280
     1
102
RTVSPropertyOp0
 70
     1
102
RTVSPropertyOp1
 70
     1
102
RTVSPropertyOp2
 70
     1
102
RTVSPropertyOp3
 70
     1
102
RTVSPropertyOp4
 70
     1
102
RTVSPropertyOp5
 70
     1
102
RTVSPropertyOp6
 70
     1
102
RTVSPropertyOp7
 70
     1
102
RTVSPropertyOp8
 70
     1
102
RTVSPropertyOp9
 70
     1
102
RTVSPropertyOp10
 70
     1
102
RTVSPropertyOp11
 70
     1
102
RTVSPropertyOp12
 70
     1
102
RTVSPropertyOp13
 70
     1
102
RTVSPropertyOp14
 70
     1
102
RTVSPropertyOp15
 70
     1
102
RTVSPropertyOp16
 70
     1
102
RTVSPropertyOp17
 70
     1
102
RTVSPropertyOp18
 70
     1
102
RTVSPropertyOp19
 70
     1
102
RTVSPropertyOp20
 70
     1
102
RTVSPropertyOp21
 70
     1
102
RTVSPropertyOp22
 70
     1
102
RTVSPropertyOp23
 70
     1
102
RTVSPropertyOp24
 70
     1
102
RTVSPropertyOp25
 70
     1
102
RTVSPropertyOp26
 70
     1
102
RTVSPropertyOp27
 70
     1
102
RTVSPropertyOp28
 70
     1
102
RTVSPropertyOp29
 70
     1
102
RTVSPropertyOp30
 70
     1
102
RTVSPropertyOp31
 70
     1
102
RTVSPropertyOp32
 70
     1
  0
XRECORD
  5
199
102
{ACAD_REACTORS
330
198
102
}
330
198
100
AcDbXrecord
280
     1
102
RTVSPropertyOp0
 70
     1
102
RTVSPropertyOp1
 70
     1
102
RTVSPropertyOp2
 70
     1
102
RTVSPropertyOp3
 70
     1
102
RTVSPropertyOp4
 70
     1
102
RTVSPropertyOp5
 70
     1
102
RTVSPropertyOp6
 70
     1
102
RTVSPropertyOp7
 70
     1
102
RTVSPropertyOp8
 70
     1
102
RTVSPropertyOp9
 70
     1
102
RTVSPropertyOp10
 70
     1
102
RTVSPropertyOp11
 70
     1
102
RTVSPropertyOp12
 70
     1
102
RTVSPropertyOp13
 70
     1
102
RTVSPropertyOp14
 70
     1
102
RTVSPropertyOp15
 70
     1
102
RTVSPropertyOp16
 70
     1
102
RTVSPropertyOp17
 70
     1
102
RTVSPropertyOp18
 70
     1
102
RTVSPropertyOp19
 70
     1
102
RTVSPropertyOp20
 70
     1
102
RTVSPropertyOp21
 70
     1
102
RTVSPropertyOp22
 70
     1
102
RTVSPropertyOp23
 70
     1
102
RTVSPropertyOp24
 70
     1
102
RTVSPropertyOp25
 70
     1
102
RTVSPropertyOp26
 70
     1
102
RTVSPropertyOp27
 70
     1
102
RTVSPropertyOp28
 70
     1
102
RTVSPropertyOp29
 70
     1
102
RTVSPropertyOp30
 70
     1
102
RTVSPropertyOp31
 70
     1
102
RTVSPropertyOp32
 70
     1
  0
XRECORD
  5
1A1
102
{ACAD_REACTORS
330
1A0
102
}
330
1A0
100
AcDbXrecord
280
     1
102
RTVSPropertyOp0
 70
     1
102
RTVSPropertyOp1
 70
     1
102
RTVSPropertyOp2
 70
     1
102
RTVSPropertyOp3
 70
     1
102
RTVSPropertyOp4
 70
     1
102
RTVSPropertyOp5
 70
     1
102
RTVSPropertyOp6
 70
     1
102
RTVSPropertyOp7
 70
     1
102
RTVSPropertyOp8
 70
     1
102
RTVSPropertyOp9
 70
     1
102
RTVSPropertyOp10
 70
     1
102
RTVSPropertyOp11
 70
     1
102
RTVSPropertyOp12
 70
     1
102
RTVSPropertyOp13
 70
     1
102
RTVSPropertyOp14
 70
     1
102
RTVSPropertyOp15
 70
     1
102
RTVSPropertyOp16
 70
     1
102
RTVSPropertyOp17
 70
     1
102
RTVSPropertyOp18
 70
     1
102
RTVSPropertyOp19
 70
     1
102
RTVSPropertyOp20
 70
     1
102
RTVSPropertyOp21
 70
     1
102
RTVSPropertyOp22
 70
     1
102
RTVSPropertyOp23
 70
     1
102
RTVSPropertyOp24
 70
     1
102
RTVSPropertyOp25
 70
     1
102
RTVSPropertyOp26
 70
     1
102
RTVSPropertyOp27
 70
     1
102
RTVSPropertyOp28
 70
     1
102
RTVSPropertyOp29
 70
     1
102
RTVSPropertyOp30
 70
     1
102
RTVSPropertyOp31
 70
     1
102
RTVSPropertyOp32
 70
     1
  0
ENDSEC
  0
EOF
