  0
SECTION
  2
HEADER
  9
$ACADVER
  1
AC1015
  9
$ACADMAINTVER
 70
     6
  9
$DWGCODEPAGE
  3
ANSI_1252
  9
$INSBASE
 10
0.0
 20
0.0
 30
0.0
  9
$EXTMIN
 10
0.0
 20
0.0
 30
0.0
  9
$EXTMAX
 10
210.0
 20
297.0
 30
0.0
  9
$LIMMIN
 10
0.0
 20
0.0
  9
$LIMMAX
 10
210.0
 20
297.0
  9
$ORTHOMODE
 70
     0
  9
$REGENMODE
 70
     1
  9
$FILLMODE
 70
     1
  9
$QTEXTMODE
 70
     0
  9
$MIRRTEXT
 70
     1
  9
$LTSCALE
 40
1.0
  9
$ATTMODE
 70
     1
  9
$TEXTSIZE
 40
2.5
  9
$TRACEWID
 40
1.0
  9
$TEXTSTYLE
  7
Standard
  9
$CLAYER
  8
0
  9
$CELTYPE
  6
ByLayer
  9
$CECOLOR
 62
   256
  9
$CELTSCALE
 40
1.0
  9
$DISPSILH
 70
     0
  9
$DIMSCALE
 40
1.0
  9
$DIMASZ
 40
2.5
  9
$DIMEXO
 40
0.625
  9
$DIMDLI
 40
3.75
  9
$DIMRND
 40
0.0
  9
$DIMDLE
 40
0.0
  9
$DIMEXE
 40
1.25
  9
$DIMTP
 40
0.0
  9
$DIMTM
 40
0.0
  9
$DIMTXT
 40
2.5
  9
$DIMCEN
 40
2.5
  9
$DIMTSZ
 40
0.0
  9
$DIMTOL
 70
     0
  9
$DIMLIM
 70
     0
  9
$DIMTIH
 70
     0
  9
$DIMTOH
 70
     0
  9
$DIMSE1
 70
     0
  9
$DIMSE2
 70
     0
  9
$DIMTAD
 70
     1
  9
$DIMZIN
 70
     8
  9
$DIMBLK
  1

  9
$DIMASO
 70
     1
  9
$DIMSHO
 70
     1
  9
$DIMPOST
  1

  9
$DIMAPOST
  1

  9
$DIMALT
 70
     0
  9
$DIMALTD
 70
     3
  9
$DIMALTF
 40
0.0393700787
  9
$DIMLFAC
 40
1.0
  9
$DIMTOFL
 70
     1
  9
$DIMTVP
 40
0.0
  9
$DIMTIX
 70
     0
  9
$DIMSOXD
 70
     0
  9
$DIMSAH
 70
     0
  9
$DIMBLK1
  1

  9
$DIMBLK2
  1

  9
$DIMSTYLE
  2
ISO-25
  9
$DIMCLRD
 70
     0
  9
$DIMCLRE
 70
     0
  9
$DIMCLRT
 70
     0
  9
$DIMTFAC
 40
1.0
  9
$DIMGAP
 40
0.625
  9
$DIMJUST
 70
     0
  9
$DIMSD1
 70
     0
  9
$DIMSD2
 70
     0
  9
$DIMTOLJ
 70
     0
  9
$DIMTZIN
 70
     8
  9
$DIMALTZ
 70
     0
  9
$DIMALTTZ
 70
     0
  9
$DIMUPT
 70
     0
  9
$DIMDEC
 70
     2
  9
$DIMTDEC
 70
     2
  9
$DIMALTU
 70
     2
  9
$DIMALTTD
 70
     3
  9
$DIMTXSTY
  7
Standard
  9
$DIMAUNIT
 70
     0
  9
$DIMADEC
 70
     0
  9
$DIMALTRND
 40
0.0
  9
$DIMAZIN
 70
     0
  9
$DIMDSEP
 70
    44
  9
$DIMATFIT
 70
     3
  9
$DIMFRAC
 70
     0
  9
$DIMLDRBLK
  1

  9
$DIMLUNIT
 70
     2
  9
$DIMLWD
 70
    -2
  9
$DIMLWE
 70
    -2
  9
$DIMTMOVE
 70
     0
  9
$LUNITS
 70
     2
  9
$LUPREC
 70
     4
  9
$SKETCHINC
 40
1.0
  9
$FILLETRAD
 40
10.0
  9
$AUNITS
 70
     0
  9
$AUPREC
 70
     0
  9
$MENU
  1
.
  9
$ELEVATION
 40
0.0
  9
$PELEVATION
 40
0.0
  9
$THICKNESS
 40
0.0
  9
$LIMCHECK
 70
     0
  9
$CHAMFERA
 40
10.0
  9
$CHAMFERB
 40
10.0
  9
$CHAMFERC
 40
20.0
  9
$CHAMFERD
 40
0.0
  9
$SKPOLY
 70
     0
  9
$TDCREATE
 40
2457564.392679387
  9
$TDUCREATE
 40
2457564.309346053
  9
$TDUPDATE
 40
2457564.392720116
  9
$TDUUPDATE
 40
2457564.309386782
  9
$TDINDWG
 40
0.0000000116
  9
$TDUSRTIMER
 40
0.0000000116
  9
$USRTIMER
 70
     1
  9
$ANGBASE
 50
0.0
  9
$ANGDIR
 70
     0
  9
$PDMODE
 70
     0
  9
$PDSIZE
 40
0.0
  9
$PLINEWID
 40
0.0
  9
$SPLFRAME
 70
     0
  9
$SPLINETYPE
 70
     6
  9
$SPLINESEGS
 70
     8
  9
$HANDSEED
  5
15A
  9
$SURFTAB1
 70
     6
  9
$SURFTAB2
 70
     6
  9
$SURFTYPE
 70
     6
  9
$SURFU
 70
     6
  9
$SURFV
 70
     6
  9
$UCSBASE
  2

  9
$UCSNAME
  2

  9
$UCSORG
 10
0.0
 20
0.0
 30
0.0
  9
$UCSXDIR
 10
1.0
 20
0.0
 30
0.0
  9
$UCSYDIR
 10
0.0
 20
1.0
 30
0.0
  9
$UCSORTHOREF
  2

  9
$UCSORTHOVIEW
 70
     0
  9
$UCSORGTOP
 10
0.0
 20
0.0
 30
0.0
  9
$UCSORGBOTTOM
 10
0.0
 20
0.0
 30
0.0
  9
$UCSORGLEFT
 10
0.0
 20
0.0
 30
0.0
  9
$UCSORGRIGHT
 10
0.0
 20
0.0
 30
0.0
  9
$UCSORGFRONT
 10
0.0
 20
0.0
 30
0.0
  9
$UCSORGBACK
 10
0.0
 20
0.0
 30
0.0
  9
$PUCSBASE
  2

  9
$PUCSNAME
  2

  9
$PUCSORG
 10
0.0
 20
0.0
 30
0.0
  9
$PUCSXDIR
 10
1.0
 20
0.0
 30
0.0
  9
$PUCSYDIR
 10
0.0
 20
1.0
 30
0.0
  9
$PUCSORTHOREF
  2

  9
$PUCSORTHOVIEW
 70
     0
  9
$PUCSORGTOP
 10
0.0
 20
0.0
 30
0.0
  9
$PUCSORGBOTTOM
 10
0.0
 20
0.0
 30
0.0
  9
$PUCSORGLEFT
 10
0.0
 20
0.0
 30
0.0
  9
$PUCSORGRIGHT
 10
0.0
 20
0.0
 30
0.0
  9
$PUCSORGFRONT
 10
0.0
 20
0.0
 30
0.0
  9
$PUCSORGBACK
 10
0.0
 20
0.0
 30
0.0
  9
$USERI1
 70
     0
  9
$USERI2
 70
     0
  9
$USERI3
 70
     0
  9
$USERI4
 70
     0
  9
$USERI5
 70
     0
  9
$USERR1
 40
0.0
  9
$USERR2
 40
0.0
  9
$USERR3
 40
0.0
  9
$USERR4
 40
0.0
  9
$USERR5
 40
0.0
  9
$WORLDVIEW
 70
     1
  9
$SHADEDGE
 70
     3
  9
$SHADEDIF
 70
    70
  9
$TILEMODE
 70
     1
  9
$MAXACTVP
 70
    64
  9
$PINSBASE
 10
0.0
 20
0.0
 30
0.0
  9
$PLIMCHECK
 70
     0
  9
$PEXTMIN
 10
0.0
 20
0.0
 30
0.0
  9
$PEXTMAX
 10
210.0
 20
297.0
 30
0.0
  9
$PLIMMIN
 10
0.0
 20
0.0
  9
$PLIMMAX
 10
210.0
 20
297.0
  9
$UNITMODE
 70
     0
  9
$VISRETAIN
 70
     1
  9
$PLINEGEN
 70
     0
  9
$PSLTSCALE
 70
     1
  9
$TREEDEPTH
 70
  3020
  9
$CMLSTYLE
  2
Standard
  9
$CMLJUST
 70
     0
  9
$CMLSCALE
 40
20.0
  9
$PROXYGRAPHICS
 70
     1
  9
$MEASUREMENT
 70
     1
  9
$CELWEIGHT
370
    -1
  9
$ENDCAPS
280
     0
  9
$JOINSTYLE
280
     0
  9
$LWDISPLAY
290
     0
  9
$INSUNITS
 70
     4
  9
$HYPERLINKBASE
  1

  9
$STYLESHEET
  1

  9
$XEDIT
290
     1
  9
$CEPSNTYPE
380
     0
  9
$PSTYLEMODE
290
     1
  9
$FINGERPRINTGUID
  2
{4F8ABC15-4B7E-4B98-8FCF-58F9B154782A}
  9
$VERSIONGUID
  2
{FAEB1C32-E019-11D5-929B-00C0DF256EC4}
  9
$EXTNAMES
290
     1
  9
$PSVPSCALE
 40
0.0
  9
$OLESTARTUP
290
     0
  0
ENDSEC
  0
SECTION
  2
CLASSES
  0
CLASS
  1
ACDBDICTIONARYWDFLT
  2
AcDbDictionaryWithDefault
  3
ObjectDBX Classes
 90
        0
280
     0
281
     0
  0
CLASS
  1
VISUALSTYLE
  2
AcDbVisualStyle
  3
ObjectDBX Classes
 90
     4095
280
     0
281
     0
  0
CLASS
  1
MATERIAL
  2
AcDbMaterial
  3
ObjectDBX Classes
 90
     1153
280
     0
281
     0
  0
CLASS
  1
DICTIONARYVAR
  2
AcDbDictionaryVar
  3
ObjectDBX Classes
 90
        0
280
     0
281
     0
  0
CLASS
  1
ACDBPLACEHOLDER
  2
AcDbPlaceHolder
  3
ObjectDBX Classes
 90
        0
280
     0
281
     0
  0
CLASS
  1
LAYOUT
  2
AcDbLayout
  3
ObjectDBX Classes
 90
        0
280
     0
281
     0
  0
ENDSEC
  0
SECTION
  2
TABLES
  0
TABLE
  2
VPORT
  5
8
330
0
100
AcDbSymbolTable
 70
     1
  0
VPORT
  5
29
330
8
100
AcDbSymbolTableRecord
100
AcDbViewportTableRecord
  2
*Active
 70
     0
 10
0.0
 20
0.0
 11
1.0
 21
1.0
 12
344.1869158879
 22
148.5
 13
0.0
 23
0.0
 14
10.0
 24
10.0
 15
10.0
 25
10.0
 16
0.0
 26
0.0
 36
1.0
 17
0.0
 27
0.0
 37
0.0
 40
297.0
 41
1.9729729729
 42
50.0
 43
0.0
 44
0.0
 50
0.0
 51
0.0
 71
     0
 72
   100
 73
     1
 74
     3
 75
     0
 76
     0
 77
     0
 78
     0
281
     0
 65
     1
110
0.0
120
0.0
130
0.0
111
1.0
121
0.0
131
0.0
112
0.0
122
1.0
132
0.0
 79
     0
146
0.0
  0
ENDTAB
  0
TABLE
  2
LTYPE
  5
5
330
0
100
AcDbSymbolTable
 70
     2
  0
LTYPE
  5
14
330
5
100
AcDbSymbolTableRecord
100
AcDbLinetypeTableRecord
  2
ByBlock
 70
     0
  3

 72
    65
 73
     0
 40
0.0
  0
LTYPE
  5
15
330
5
100
AcDbSymbolTableRecord
100
AcDbLinetypeTableRecord
  2
ByLayer
 70
     0
  3

 72
    65
 73
     0
 40
0.0
  0
LTYPE
  5
16
330
5
100
AcDbSymbolTableRecord
100
AcDbLinetypeTableRecord
  2
Continuous
 70
     0
  3
Solid line
 72
    65
 73
     0
 40
0.0
  0
LTYPE
  5
53
330
5
100
AcDbSymbolTableRecord
100
AcDbLinetypeTableRecord
  2
HIDDEN2
 70
     0
  3
Hidden (.5x) _ _ _ _ _ _ _ _ _ _ _ _ _ _ _ _ _ 
 72
    65
 73
     2
 40
4.7625
 49
3.175
 74
     4
 75
     0
340
0
 46
0.0
 50
0.0
 44
0.0
 45
0.0
 49
-1.5875
 74
     4
 75
     0
340
0
 46
0.0
 50
0.0
 44
0.0
 45
0.0
  0
ENDTAB
  0
TABLE
  2
LAYER
  5
2
330
0
100
AcDbSymbolTable
 70
     5
  0
LAYER
  5
10
330
2
100
AcDbSymbolTableRecord
100
AcDbLayerTableRecord
  2
0
 70
     0
 62
     7
  6
Continuous
370
    -3
390
F
  0
LAYER
  5
3F
330
2
100
AcDbSymbolTableRecord
100
AcDbLayerTableRecord
  2
SK1
 70
     0
 62
     4
  6
Continuous
370
    18
390
F
  0
LAYER
  5
52
330
2
100
AcDbSymbolTableRecord
100
AcDbLayerTableRecord
  2
SK3
 70
     0
 62
     1
  6
HIDDEN2
370
    15
390
F
  0
LAYER
  5
D6
330
2
100
AcDbSymbolTableRecord
100
AcDbLayerTableRecord
  2
SK4
 70
     0
 62
     2
  6
Continuous
370
    13
390
F
  0
LAYER
  5
D8
330
2
100
AcDbSymbolTableRecord
100
AcDbLayerTableRecord
  2
SK2
 70
     0
 62
     7
  6
Continuous
370
    15
390
F
  0
ENDTAB
  0
TABLE
  2
STYLE
  5
3
330
0
100
AcDbSymbolTable
 70
     2
  0
STYLE
  5
11
330
3
100
AcDbSymbolTableRecord
100
AcDbTextStyleTableRecord
  2
Standard
 70
     0
 40
0.0
 41
1.0
 50
0.0
 71
     0
 42
2.5
  3
txt
  4

  0
STYLE
  5
EB
330
3
100
AcDbSymbolTableRecord
100
AcDbTextStyleTableRecord
  2
SEACAD_Solid_Edge_ISO
 70
     0
 40
0.0
 41
1.0
 50
0.0
 71
     0
 42
0.2
  3
seiso.ttf
  4

1001
ACAD
1000
Solid Edge ISO
1071
        0
  0
ENDTAB
  0
TABLE
  2
VIEW
  5
6
330
0
100
AcDbSymbolTable
 70
     0
  0
ENDTAB
  0
TABLE
  2
UCS
  5
7
330
0
100
AcDbSymbolTable
 70
     0
  0
ENDTAB
  0
TABLE
  2
APPID
  5
9
330
0
100
AcDbSymbolTable
 70
     1
  0
APPID
  5
12
330
9
100
AcDbSymbolTableRecord
100
AcDbRegAppTableRecord
  2
ACAD
 70
     0
  0
ENDTAB
  0
TABLE
  2
DIMSTYLE
  5
A
330
0
100
AcDbSymbolTable
 70
     3
100
AcDbDimStyleTable
  0
DIMSTYLE
105
27
330
A
100
AcDbSymbolTableRecord
100
AcDbDimStyleTableRecord
  2
ISO-25
 70
     0
 41
2.5
 42
0.625
 43
3.75
 44
1.25
 73
     0
 74
     0
 77
     1
 78
     8
140
2.5
141
2.5
143
0.0393700787
147
0.625
171
     3
172
     1
178
     0
271
     2
272
     2
274
     3
278
    44
283
     0
284
     8
340
11
  0
DIMSTYLE
105
D9
330
A
100
AcDbSymbolTableRecord
100
AcDbDimStyleTableRecord
  2
Standard
 70
     0
178
     0
340
11
  0
DIMSTYLE
105
EC
102
{ACAD_REACTORS
330
ED
330
F7
330
102
330
10C
102
}
330
A
100
AcDbSymbolTableRecord
100
AcDbDimStyleTableRecord
  2
DIN
 70
     0
 41
3.5
 42
0.0
 44
1.75
 73
     0
 74
     0
 77
     1
 78
     8
140
3.5
141
1.75
147
1.75
172
     1
173
     1
178
     0
179
     3
271
     2
272
     2
278
    44
284
     8
340
EB
343
E6
344
E6
  0
ENDTAB
  0
TABLE
  2
BLOCK_RECORD
  5
1
330
0
100
AcDbSymbolTable
 70
    10
  0
BLOCK_RECORD
  5
1F
330
1
100
AcDbSymbolTableRecord
100
AcDbBlockTableRecord
  2
*Model_Space
340
22
  0
BLOCK_RECORD
  5
1B
330
1
100
AcDbSymbolTableRecord
100
AcDbBlockTableRecord
  2
*Paper_Space
340
1E
  0
BLOCK_RECORD
  5
DA
330
1
100
AcDbSymbolTableRecord
100
AcDbBlockTableRecord
  2
_OBLIQUE
340
0
  0
BLOCK_RECORD
  5
DE
330
1
100
AcDbSymbolTableRecord
100
AcDbBlockTableRecord
  2
_DOT
340
0
  0
BLOCK_RECORD
  5
E6
330
1
100
AcDbSymbolTableRecord
100
AcDbBlockTableRecord
  2
_SE_FILLED
340
0
  0
BLOCK_RECORD
  5
EE
330
1
100
AcDbSymbolTableRecord
100
AcDbBlockTableRecord
  2
DMBLK79
340
0
  0
BLOCK_RECORD
  5
F8
330
1
100
AcDbSymbolTableRecord
100
AcDbBlockTableRecord
  2
DMBLK80
340
0
  0
BLOCK_RECORD
  5
103
330
1
100
AcDbSymbolTableRecord
100
AcDbBlockTableRecord
  2
DMBLK81
340
0
  0
BLOCK_RECORD
  5
10D
330
1
100
AcDbSymbolTableRecord
100
AcDbBlockTableRecord
  2
DMBLK82
340
0
  0
BLOCK_RECORD
  5
117
330
1
100
AcDbSymbolTableRecord
100
AcDbBlockTableRecord
  2
Nullpunkt
340
0
102
{BLKREFS
331
121
102
}
  0
BLOCK_RECORD
  5
122
330
1
100
AcDbSymbolTableRecord
100
AcDbBlockTableRecord
  2
Einfügepunkt
340
0
102
{BLKREFS
331
12C
102
}
  0
ENDTAB
  0
ENDSEC
  0
SECTION
  2
BLOCKS
  0
BLOCK
  5
20
330
1F
100
AcDbEntity
  8
0
100
AcDbBlockBegin
  2
*Model_Space
 70
     0
 10
0.0
 20
0.0
 30
0.0
  3
*Model_Space
  1

  0
ENDBLK
  5
21
330
1F
100
AcDbEntity
  8
0
100
AcDbBlockEnd
  0
BLOCK
  5
1C
330
1B
100
AcDbEntity
 67
     1
  8
0
100
AcDbBlockBegin
  2
*Paper_Space
 70
     0
 10
0.0
 20
0.0
 30
0.0
  3
*Paper_Space
  1

  0
ENDBLK
  5
1D
330
1B
100
AcDbEntity
 67
     1
  8
0
100
AcDbBlockEnd
  0
BLOCK
  5
DB
330
DA
100
AcDbEntity
  8
0
100
AcDbBlockBegin
  2
_OBLIQUE
 70
     0
 10
0.0
 20
0.0
 30
0.0
  3
_OBLIQUE
  1

  0
LINE
  5
DD
330
DA
100
AcDbEntity
  8
0
  6
ByBlock
 62
     0
370
    -2
100
AcDbLine
 10
-0.5
 20
-0.5
 30
0.0
 11
0.5
 21
0.5
 31
0.0
  0
ENDBLK
  5
DC
330
DA
100
AcDbEntity
  8
0
100
AcDbBlockEnd
  0
BLOCK
  5
DF
330
DE
100
AcDbEntity
  8
0
100
AcDbBlockBegin
  2
_DOT
 70
     0
 10
0.0
 20
0.0
 30
0.0
  3
_DOT
  1

  0
POLYLINE
  5
E1
330
DE
100
AcDbEntity
  8
0
  6
ByBlock
 62
     0
100
AcDb2dPolyline
 66
     1
 10
0.0
 20
0.0
 30
0.0
 70
     1
 40
0.5
 41
0.5
  0
VERTEX
  5
E3
330
E1
100
AcDbEntity
  8
0
  6
ByBlock
 62
     0
100
AcDbVertex
100
AcDb2dVertex
 10
-0.25
 20
0.0
 30
0.0
 42
1.0
  0
VERTEX
  5
E4
330
E1
100
AcDbEntity
  8
0
  6
ByBlock
 62
     0
100
AcDbVertex
100
AcDb2dVertex
 10
0.25
 20
0.0
 30
0.0
 42
1.0
  0
SEQEND
  5
E5
330
E1
100
AcDbEntity
  8
0
  6
ByBlock
 62
     0
  0
LINE
  5
E2
330
DE
100
AcDbEntity
  8
0
  6
ByBlock
 62
     0
370
    -2
100
AcDbLine
 10
-0.5
 20
0.0
 30
0.0
 11
-1.0
 21
0.0
 31
0.0
  0
ENDBLK
  5
E0
330
DE
100
AcDbEntity
  8
0
100
AcDbBlockEnd
  0
BLOCK
  5
E9
330
E6
100
AcDbEntity
  8
0
100
AcDbBlockBegin
  2
_SE_FILLED
 70
     0
 10
0.0
 20
0.0
 30
0.0
  3
_SE_FILLED
  1

  0
SOLID
  5
E7
330
E6
100
AcDbEntity
  8
0
 62
     0
100
AcDbTrace
 10
0.0
 20
0.0
 30
0.0
 11
-1.0
 21
-0.1665
 31
0.0
 12
-1.0
 22
0.1665
 32
0.0
 13
0.0
 23
0.0
 33
0.0
  0
LINE
  5
E8
330
E6
100
AcDbEntity
  8
0
 62
     0
100
AcDbLine
 10
0.0
 20
0.0
 30
0.0
 11
-1.0
 21
0.0
 31
0.0
  0
ENDBLK
  5
EA
330
E6
100
AcDbEntity
  8
0
100
AcDbBlockEnd
  0
BLOCK
  5
F5
330
EE
100
AcDbEntity
  8
0
100
AcDbBlockBegin
  2
DMBLK79
 70
     0
 10
0.0
 20
0.0
 30
0.0
  3
DMBLK79
  1

  0
HATCH
  5
EF
330
EE
100
AcDbEntity
  8
SK2
  6
Continuous
 62
   136
100
AcDbHatch
 10
0.0
 20
0.0
 30
0.0
210
0.0
220
0.0
230
1.0
  2
SOLID
 70
     1
 71
     0
 91
        1
 92
        1
 93
        3
 72
     1
 10
-13.74133282617798
 20
16.0744195450473
 11
-17.24133293421139
 21
15.4910861937084
 72
     1
 10
-17.24133293421139
 20
15.4910861937084
 11
-13.74133282617797
 21
14.9077528423695
 72
     1
 10
-13.74133282617798
 20
14.9077528423695
 11
-13.74133282617798
 21
16.0744195450473
 97
        0
 75
     0
 76
     1
 98
        0
  0
HATCH
  5
F0
330
EE
100
AcDbEntity
  8
SK2
  6
Continuous
 62
   136
100
AcDbHatch
 10
0.0
 20
0.0
 30
0.0
210
0.0
220
0.0
230
1.0
  2
SOLID
 70
     1
 71
     0
 91
        1
 92
        1
 93
        3
 72
     1
 10
6.758666808743576
 20
16.0744195450473
 11
6.758666808743576
 21
14.9077528423695
 72
     1
 10
6.758666808743576
 20
14.9077528423695
 11
10.25866691677699
 21
15.4910861937084
 72
     1
 10
10.25866691677699
 20
15.4910861937084
 11
6.758666808743575
 21
16.0744195450473
 97
        0
 75
     0
 76
     1
 98
        0
  0
LINE
  5
F1
330
EE
100
AcDbEntity
  8
SK2
  6
Continuous
 62
   136
100
AcDbLine
 10
-17.2413329342
 20
5.3100829435
 30
0.0
 11
-17.2413329342
 21
17.2410862477
 31
0.0
  0
LINE
  5
F2
330
EE
100
AcDbEntity
  8
SK2
  6
Continuous
 62
   136
100
AcDbLine
 10
10.2586670658
 20
5.3540984451
 30
0.0
 11
10.2586670658
 21
17.2410862477
 31
0.0
  0
LINE
  5
F3
330
EE
100
AcDbEntity
  8
SK2
  6
Continuous
 62
   136
100
AcDbLine
 10
-17.2413329342
 20
15.4910861937
 30
0.0
 11
10.2586669168
 21
15.4910861937
 31
0.0
  0
TEXT
  5
F4
330
EE
100
AcDbEntity
  8
SK2
  6
Continuous
 62
   136
100
AcDbText
 10
-6.9913330087
 20
16.3660861937
 30
0.0
 40
3.5
  1
27,5
  7
SEACAD_Solid_Edge_ISO
 11
-6.9913330087
 21
19.8660861937
 31
0.0
100
AcDbText
 73
     3
  0
ENDBLK
  5
F6
330
EE
100
AcDbEntity
  8
0
100
AcDbBlockEnd
  0
BLOCK
  5
100
330
F8
100
AcDbEntity
  8
0
100
AcDbBlockBegin
  2
DMBLK80
 70
     0
 10
0.0
 20
0.0
 30
0.0
  3
DMBLK80
  1

  0
HATCH
  5
F9
330
F8
100
AcDbEntity
  8
SK2
  6
Continuous
 62
   136
100
AcDbHatch
 10
0.0
 20
0.0
 30
0.0
210
0.0
220
0.0
230
1.0
  2
SOLID
 70
     1
 71
     0
 91
        1
 92
        1
 93
        3
 72
     1
 10
19.72660103262891
 20
-5.500000008262711
 11
19.14326768129001
 21
-1.999999900229293
 72
     1
 10
19.14326768129001
 20
-1.999999900229293
 11
18.5599343299511
 21
-5.500000008262711
 72
     1
 10
18.5599343299511
 20
-5.500000008262711
 11
19.72660103262891
 21
-5.500000008262711
 97
        0
 75
     0
 76
     1
 98
        0
  0
HATCH
  5
FA
330
F8
100
AcDbEntity
  8
SK2
  6
Continuous
 62
   136
100
AcDbHatch
 10
0.0
 20
0.0
 30
0.0
210
0.0
220
0.0
230
1.0
  2
SOLID
 70
     1
 71
     0
 91
        1
 92
        1
 93
        3
 72
     1
 10
19.72660103262891
 20
5.500000207804111
 11
18.5599343299511
 21
5.500000207804111
 72
     1
 10
18.5599343299511
 20
5.500000207804111
 11
19.14326768129001
 21
2.000000099770692
 72
     1
 10
19.14326768129001
 20
2.000000099770692
 11
19.72660103262891
 21
5.50000020780411
 97
        0
 75
     0
 76
     1
 98
        0
  0
LINE
  5
FB
330
F8
100
AcDbEntity
  8
SK2
  6
Continuous
 62
   136
100
AcDbLine
 10
9.8586670658
 20
-1.9999999002
 30
0.0
 11
20.8932677353
 21
-1.9999999002
 31
0.0
  0
LINE
  5
FC
330
F8
100
AcDbEntity
  8
SK2
  6
Continuous
 62
   136
100
AcDbLine
 10
9.8586670658
 20
2.0000000998
 30
0.0
 11
20.8932677353
 21
2.0000000998
 31
0.0
  0
LINE
  5
FD
330
F8
100
AcDbEntity
  8
SK2
  6
Continuous
 62
   136
100
AcDbLine
 10
19.1432676813
 20
-9.0000001163
 30
0.0
 11
19.1432676813
 21
17.6380597606
 31
0.0
  0
TEXT
  5
FE
330
F8
100
AcDbEntity
  8
SK2
  6
Continuous
 62
   136
100
AcDbText
 10
18.2682676813
 20
14.3448792435
 30
0.0
 40
3.5
  1
4
 50
90.0
  7
SEACAD_Solid_Edge_ISO
 11
14.7682676813
 21
14.3448792435
 31
0.0
100
AcDbText
 73
     3
  0
TEXT
  5
FF
330
F8
100
AcDbEntity
  8
SK2
  6
Continuous
 62
   136
100
AcDbText
 10
18.2682676813
 20
10.2721519708
 30
0.0
 40
3.5
  1
ø
 50
90.0
  7
SEACAD_Solid_Edge_ISO
 11
14.7682676813
 21
10.2721519708
 31
0.0
100
AcDbText
 73
     3
  0
ENDBLK
  5
101
330
F8
100
AcDbEntity
  8
0
100
AcDbBlockEnd
  0
BLOCK
  5
10A
330
103
100
AcDbEntity
  8
0
100
AcDbBlockBegin
  2
DMBLK81
 70
     0
 10
0.0
 20
0.0
 30
0.0
  3
DMBLK81
  1

  0
HATCH
  5
104
330
103
100
AcDbEntity
  8
SK2
  6
Continuous
 62
   136
100
AcDbHatch
 10
0.0
 20
0.0
 30
0.0
210
0.0
220
0.0
230
1.0
  2
SOLID
 70
     1
 71
     0
 91
        1
 92
        1
 93
        3
 72
     1
 10
-3.500000108033416
 20
-17.24950567108975
 11
0.0000000000000022
 21
-16.66617231975084
 72
     1
 10
0.0000000000000022
 20
-16.66617231975084
 11
-3.500000108033416
 21
-16.08283896841194
 72
     1
 10
-3.500000108033416
 20
-16.08283896841194
 11
-3.500000108033416
 21
-17.24950567108975
 97
        0
 75
     0
 76
     1
 98
        0
  0
HATCH
  5
105
330
103
100
AcDbEntity
  8
SK2
  6
Continuous
 62
   136
100
AcDbHatch
 10
0.0
 20
0.0
 30
0.0
210
0.0
220
0.0
230
1.0
  2
SOLID
 70
     1
 71
     0
 91
        1
 92
        1
 93
        3
 72
     1
 10
13.75866717382247
 20
-17.24950567108975
 11
13.75866717382247
 21
-16.08283896841194
 72
     1
 10
13.75866717382247
 20
-16.08283896841194
 11
10.25866706578905
 21
-16.66617231975084
 72
     1
 10
10.25866706578905
 20
-16.66617231975084
 11
13.75866717382247
 21
-17.24950567108975
 97
        0
 75
     0
 76
     1
 98
        0
  0
LINE
  5
106
330
103
100
AcDbEntity
  8
SK2
  6
Continuous
 62
   136
100
AcDbLine
 10
0.0
 20
-7.9998618604
 30
0.0
 11
0.0
 21
-18.4161723738
 31
0.0
  0
LINE
  5
107
330
103
100
AcDbEntity
  8
SK2
  6
Continuous
 62
   136
100
AcDbLine
 10
10.2586670658
 20
-5.3540982456
 30
0.0
 11
10.2586670658
 21
-18.4161723738
 31
0.0
  0
LINE
  5
108
330
103
100
AcDbEntity
  8
SK2
  6
Continuous
 62
   136
100
AcDbLine
 10
-7.0000002161
 20
-16.6661723198
 30
0.0
 11
17.2586664557
 21
-16.6661723198
 31
0.0
  0
TEXT
  5
109
330
103
100
AcDbEntity
  8
SK2
  6
Continuous
 62
   136
100
AcDbText
 10
0.9134244946
 20
-15.7911723198
 30
0.0
 40
3.5
  1
10,26
  7
SEACAD_Solid_Edge_ISO
 11
0.9134244946
 21
-12.2911723198
 31
0.0
100
AcDbText
 73
     3
  0
ENDBLK
  5
10B
330
103
100
AcDbEntity
  8
0
100
AcDbBlockEnd
  0
BLOCK
  5
115
330
10D
100
AcDbEntity
  8
0
100
AcDbBlockBegin
  2
DMBLK82
 70
     0
 10
0.0
 20
0.0
 30
0.0
  3
DMBLK82
  1

  0
HATCH
  5
10E
330
10D
100
AcDbEntity
  8
SK2
  6
Continuous
 62
   136
100
AcDbHatch
 10
0.0
 20
0.0
 30
0.0
210
0.0
220
0.0
230
1.0
  2
SOLID
 70
     1
 71
     0
 91
        1
 92
        1
 93
        3
 72
     1
 10
-23.42168187412123
 20
4.499861951883441
 11
-22.25501517144342
 21
4.499861951883441
 72
     1
 10
-22.25501517144342
 20
4.499861951883441
 11
-22.83834852278233
 21
7.999862059916859
 72
     1
 10
-22.83834852278233
 20
7.999862059916859
 11
-23.42168187412123
 21
4.499861951883441
 97
        0
 75
     0
 76
     1
 98
        0
  0
HATCH
  5
10F
330
10D
100
AcDbEntity
  8
SK2
  6
Continuous
 62
   136
100
AcDbHatch
 10
0.0
 20
0.0
 30
0.0
210
0.0
220
0.0
230
1.0
  2
SOLID
 70
     1
 71
     0
 91
        1
 92
        1
 93
        3
 72
     1
 10
-23.42168187412123
 20
-4.499861057881708
 11
-22.83834852278233
 21
-7.999861165915126
 72
     1
 10
-22.83834852278233
 20
-7.999861165915126
 11
-22.25501517144342
 21
-4.499861057881708
 72
     1
 10
-22.25501517144342
 20
-4.499861057881708
 11
-23.42168187412123
 21
-4.499861057881708
 97
        0
 75
     0
 76
     1
 98
        0
  0
LINE
  5
110
330
10D
100
AcDbEntity
  8
SK2
  6
Continuous
 62
   136
100
AcDbLine
 10
0.0
 20
7.9998620599
 30
0.0
 11
-24.5883485768
 21
7.9998620599
 31
0.0
  0
LINE
  5
111
330
10D
100
AcDbEntity
  8
SK2
  6
Continuous
 62
   136
100
AcDbLine
 10
0.0
 20
-7.9998618604
 30
0.0
 11
-24.5883485768
 21
-7.9998618604
 31
0.0
  0
LINE
  5
112
330
10D
100
AcDbEntity
  8
SK2
  6
Continuous
 62
   136
100
AcDbLine
 10
-22.8383485228
 20
7.9998620599
 30
0.0
 11
-22.8383485228
 21
-7.9998611659
 31
0.0
  0
TEXT
  5
113
330
10D
100
AcDbEntity
  8
SK2
  6
Continuous
 62
   136
100
AcDbText
 10
-23.7133485228
 20
0.2465913561
 30
0.0
 40
3.5
  1
16
 50
90.0
  7
SEACAD_Solid_Edge_ISO
 11
-27.2133485228
 21
0.2465913561
 31
0.0
100
AcDbText
 73
     3
  0
TEXT
  5
114
330
10D
100
AcDbEntity
  8
SK2
  6
Continuous
 62
   136
100
AcDbText
 10
-23.7133485228
 20
-3.8261359166
 30
0.0
 40
3.5
  1
ø
 50
90.0
  7
SEACAD_Solid_Edge_ISO
 11
-27.2133485228
 21
-3.8261359166
 31
0.0
100
AcDbText
 73
     3
  0
ENDBLK
  5
116
330
10D
100
AcDbEntity
  8
0
100
AcDbBlockEnd
  0
BLOCK
  5
11F
330
117
100
AcDbEntity
  8
0
100
AcDbBlockBegin
  2
Nullpunkt
 70
     0
 10
0.0
 20
0.0
 30
0.0
  3
Nullpunkt
  1

  0
HATCH
  5
118
330
117
100
AcDbEntity
  8
SK2
  6
Continuous
 62
     7
100
AcDbHatch
 10
0.0
 20
0.0
 30
0.0
210
0.0
220
0.0
230
1.0
  2
SOLID
 70
     1
 71
     0
 91
        1
 92
        1
 93
        3
 72
     1
 10
-1.0
 20
0.0
 11
0.0000000000000009
 21
0.0
 72
     1
 10
0.0
 20
0.0
 11
0.0
 21
1.000000000000001
 72
     2
 10
0.0
 20
0.0
 40
1.0
 50
90.0
 51
180.0
 73
     1
 97
        0
 75
     0
 76
     1
 98
        0
  0
HATCH
  5
119
330
117
100
AcDbEntity
  8
SK2
  6
Continuous
 62
     7
100
AcDbHatch
 10
0.0
 20
0.0
 30
0.0
210
0.0
220
0.0
230
1.0
  2
SOLID
 70
     1
 71
     0
 91
        1
 92
        1
 93
        3
 72
     2
 10
0.0
 20
0.0
 40
1.0
 50
270.0
 51
360.0
 73
     1
 72
     1
 10
1.0
 20
0.0
 11
-0.0000000000000009
 21
0.0
 72
     1
 10
0.0
 20
0.0
 11
0.0
 21
-1.000000000000001
 97
        0
 75
     0
 76
     1
 98
        0
  0
CIRCLE
  5
11A
330
117
100
AcDbEntity
  8
SK2
  6
Continuous
 62
     7
100
AcDbCircle
 10
0.0
 20
0.0
 30
0.0
 40
1.0
  0
LINE
  5
11B
330
117
100
AcDbEntity
  8
SK1
  6
Continuous
100
AcDbLine
 10
-1.0
 20
0.0
 30
0.0
 11
1.0
 21
0.0
 31
0.0
  0
LINE
  5
11C
330
117
100
AcDbEntity
  8
SK1
  6
Continuous
100
AcDbLine
 10
0.0
 20
1.0
 30
0.0
 11
0.0
 21
-1.0
 31
0.0
  0
POINT
  5
11D
330
117
100
AcDbEntity
  8
SK1
  6
Continuous
100
AcDbPoint
 10
0.0
 20
0.0
 30
0.0
  0
POINT
  5
11E
330
117
100
AcDbEntity
  8
SK1
  6
Continuous
100
AcDbPoint
 10
0.0
 20
0.0
 30
0.0
  0
ENDBLK
  5
120
330
117
100
AcDbEntity
  8
0
100
AcDbBlockEnd
  0
BLOCK
  5
12A
330
122
100
AcDbEntity
  8
0
100
AcDbBlockBegin
  2
Einfügepunkt
 70
     0
 10
0.0
 20
0.0
 30
0.0
  3
Einfügepunkt
  1

  0
HATCH
  5
123
330
122
100
AcDbEntity
  8
SK2
  6
Continuous
 62
     7
100
AcDbHatch
 10
0.0
 20
0.0
 30
0.0
210
0.0
220
0.0
230
1.0
  2
SOLID
 70
     1
 71
     0
 91
        1
 92
        1
 93
        3
 72
     1
 10
-0.4502381196756744
 20
-0.0000000000000018
 11
0.0000000000000033
 21
-0.0000000000000018
 72
     1
 10
0.0
 20
-0.0000000000000018
 11
0.0
 21
0.4502381196756812
 72
     2
 10
0.0
 20
-0.0000000000000018
 40
0.4502381196756812
 50
90.0
 51
180.0
 73
     1
 97
        0
 75
     0
 76
     1
 98
        0
  0
HATCH
  5
124
330
122
100
AcDbEntity
  8
SK2
  6
Continuous
 62
     7
100
AcDbHatch
 10
0.0
 20
0.0
 30
0.0
210
0.0
220
0.0
230
1.0
  2
SOLID
 70
     1
 71
     0
 91
        1
 92
        1
 93
        3
 72
     2
 10
0.0
 20
-0.0000000000000018
 40
0.4502381196756812
 50
270.0
 51
360.0
 73
     1
 72
     1
 10
0.4502381196756815
 20
-0.0000000000000018
 11
0.0000000000000038
 21
-0.0000000000000018
 72
     1
 10
0.0
 20
-0.0000000000000018
 11
0.0
 21
-0.4502381196756812
 97
        0
 75
     0
 76
     1
 98
        0
  0
CIRCLE
  5
125
330
122
100
AcDbEntity
  8
SK2
  6
Continuous
 62
     7
100
AcDbCircle
 10
0.0
 20
0.0
 30
0.0
 40
0.4502381196756812
  0
LINE
  5
126
330
122
100
AcDbEntity
  8
SK1
  6
Continuous
100
AcDbLine
 10
-0.4502381197
 20
0.0
 30
0.0
 11
0.4502381197
 21
0.0
 31
0.0
  0
LINE
  5
127
330
122
100
AcDbEntity
  8
SK1
  6
Continuous
100
AcDbLine
 10
0.0
 20
0.4502381197
 30
0.0
 11
0.0
 21
-0.4502381197
 31
0.0
  0
POINT
  5
128
330
122
100
AcDbEntity
  8
SK2
  6
Continuous
 62
     7
100
AcDbPoint
 10
0.0
 20
0.0
 30
0.0
  0
POINT
  5
129
330
122
100
AcDbEntity
  8
SK2
  6
Continuous
 62
     7
100
AcDbPoint
 10
0.0
 20
0.0
 30
0.0
  0
ENDBLK
  5
12B
330
122
100
AcDbEntity
  8
0
100
AcDbBlockEnd
  0
ENDSEC
  0
SECTION
  2
ENTITIES
  0
LINE
  5
40
330
1F
100
AcDbEntity
  8
SK1
  6
Continuous
100
AcDbLine
 10
10.2586670658
 20
6.1712614557
 30
0.0
 11
10.2586670658
 21
4.5369354346
 31
0.0
  0
LINE
  5
41
330
1F
100
AcDbEntity
  8
SK1
  6
Continuous
100
AcDbLine
 10
10.1693639682
 20
6.3627725665
 30
0.0
 11
10.1693639682
 21
4.6724621412
 31
0.0
  0
LINE
  5
42
330
1F
100
AcDbEntity
  8
SK1
  6
Continuous
100
AcDbLine
 10
6.0586670658
 20
6.9000000998
 30
0.0
 11
6.0586670658
 21
5.0526100572
 31
0.0
  0
LINE
  5
43
330
1F
100
AcDbEntity
  8
SK1
  6
Continuous
100
AcDbLine
 10
3.7586670658
 20
6.9000000998
 30
0.0
 11
3.7586670658
 21
5.0526100572
 31
0.0
  0
LINE
  5
44
330
1F
100
AcDbEntity
  8
SK1
  6
Continuous
100
AcDbLine
 10
3.2169151355
 20
6.1506070222
 30
0.0
 11
3.2169151355
 21
8.4519699982
 31
0.0
  0
LINE
  5
45
330
1F
100
AcDbEntity
  8
SK1
  6
Continuous
100
AcDbLine
 10
6.2586670658
 20
8.3700000998
 30
0.0
 11
6.2586670658
 21
6.0926199302
 31
0.0
  0
LINE
  5
46
330
1F
100
AcDbEntity
  8
SK1
  6
Continuous
100
AcDbLine
 10
6.7003400217
 20
8.3700000998
 30
0.0
 11
6.7003400217
 21
6.0926199302
 31
0.0
  0
LINE
  5
47
330
1F
100
AcDbEntity
  8
SK1
  6
Continuous
100
AcDbLine
 10
6.7003400217
 20
-6.0926197307
 30
0.0
 11
6.7003400217
 21
-8.3699999002
 31
0.0
  0
LINE
  5
48
330
1F
100
AcDbEntity
  8
SK1
  6
Continuous
100
AcDbLine
 10
6.2586670658
 20
-6.0926197307
 30
0.0
 11
6.2586670658
 21
-8.3699999002
 31
0.0
  0
LINE
  5
49
330
1F
100
AcDbEntity
  8
SK1
  6
Continuous
100
AcDbLine
 10
6.7003400217
 20
6.0926199302
 30
0.0
 11
6.2586670658
 21
6.0926199302
 31
0.0
  0
LINE
  5
4A
330
1F
100
AcDbEntity
  8
SK1
  6
Continuous
100
AcDbLine
 10
6.7003400217
 20
5.7390665396
 30
0.0
 11
6.2586670658
 21
5.7390665396
 31
0.0
  0
LINE
  5
4B
330
1F
100
AcDbEntity
  8
SK1
  6
Continuous
100
AcDbLine
 10
3.5586670658
 20
5.5868907438
 30
0.0
 11
3.5586670658
 21
-5.5868905442
 31
0.0
  0
LINE
  5
4C
330
1F
100
AcDbEntity
  8
SK1
  6
Continuous
100
AcDbLine
 10
3.2169151355
 20
-6.1506068226
 30
0.0
 11
3.2169151355
 21
-8.4519697987
 31
0.0
  0
LINE
  5
4D
330
1F
100
AcDbEntity
  8
SK1
  6
Continuous
100
AcDbLine
 10
10.1693639682
 20
-4.6724619417
 30
0.0
 11
10.1693639682
 21
-6.362772367
 31
0.0
  0
LINE
  5
4E
330
1F
100
AcDbEntity
  8
SK1
  6
Continuous
100
AcDbLine
 10
10.1526089171
 20
4.3288577416
 30
0.0
 11
10.1526089171
 21
-4.3288575421
 31
0.0
  0
LINE
  5
4F
330
1F
100
AcDbEntity
  8
SK1
  6
Continuous
100
AcDbLine
 10
10.2586670658
 20
-6.1712612562
 30
0.0
 11
10.2586670658
 21
-4.536935235
 31
0.0
  0
LINE
  5
50
330
1F
100
AcDbEntity
  8
SK1
  6
Continuous
100
AcDbLine
 10
6.0586670658
 20
-6.8999999002
 30
0.0
 11
6.0586670658
 21
-5.0526098576
 31
0.0
  0
LINE
  5
51
330
1F
100
AcDbEntity
  8
SK1
  6
Continuous
100
AcDbLine
 10
3.7586670658
 20
-5.0526098576
 30
0.0
 11
3.7586670658
 21
-6.8999999002
 31
0.0
  0
SPLINE
  5
54
330
1F
100
AcDbEntity
  8
SK3
100
AcDbSpline
210
0.0
220
0.0
230
1.0
 70
     8
 71
     3
 72
    10
 73
     6
 74
     0
 42
0.0000000180118967
 43
0.0000000001
 12
1.0
 22
0.0
 32
0.0
 13
1.0
 23
0.0
 33
0.0
 40
0.0
 40
0.0
 40
0.0
 40
0.0
 40
0.5000000000000001
 40
0.5000000000000001
 40
1.0
 40
1.0
 40
1.0
 40
1.0
 10
9.858667065788316
 20
1.579898315105138
 30
0.0
 10
9.963324842306886
 20
1.579898315107468
 30
0.0
 10
10.0677836075271
 20
1.610647640527654
 30
0.0
 10
10.21637171445648
 20
1.716881314541024
 30
0.0
 10
10.25866706578861
 20
1.790667955453816
 30
0.0
 10
10.2586670657886
 20
1.864600838029156
 30
0.0
  0
LINE
  5
55
330
1F
100
AcDbEntity
  8
SK1
  6
Continuous
100
AcDbLine
 10
10.2586670658
 20
4.183382044
 30
0.0
 11
10.2586670658
 21
4.5369354346
 31
0.0
  0
ARC
  5
56
330
1F
100
AcDbEntity
  8
SK1
  6
Continuous
100
AcDbCircle
 10
10.0962905446
 20
4.5271258507
 30
0.0
 40
0.1626725624471735
100
AcDbArc
 50
3.4571838191
 51
63.3072734582
  0
LINE
  5
57
330
1F
100
AcDbEntity
  8
SK1
  6
Continuous
100
AcDbLine
 10
10.1693639682
 20
4.6724621412
 30
0.0
 11
10.1526089171
 21
4.6824111322
 31
0.0
  0
LINE
  5
58
330
1F
100
AcDbEntity
  8
SK1
  6
Continuous
100
AcDbLine
 10
10.1526089171
 20
4.6824111322
 30
0.0
 11
6.7003400217
 21
6.0926199302
 31
0.0
  0
LINE
  5
59
330
1F
100
AcDbEntity
  8
SK1
  6
Continuous
100
AcDbLine
 10
6.2586670658
 20
6.0926199302
 30
0.0
 11
6.2586670658
 21
5.7390665396
 31
0.0
  0
SPLINE
  5
5A
330
1F
100
AcDbEntity
  8
SK1
  6
Continuous
100
AcDbSpline
210
0.0
220
0.0
230
1.0
 70
     8
 71
     3
 72
    10
 73
     6
 74
     0
 42
0.000000036096425
 43
0.0000000001
 12
1.0
 22
0.0
 32
0.0
 13
1.0
 23
0.0
 33
0.0
 40
0.0
 40
0.0
 40
0.0
 40
0.0
 40
0.5
 40
0.5
 40
1.0
 40
1.0
 40
1.0
 40
1.0
 10
6.258667065788598
 20
5.194121710458345
 30
0.0
 10
6.258667065788599
 20
5.156786404915018
 30
0.0
 10
6.237026408914333
 20
5.120226551986495
 30
0.0
 10
6.163324603707797
 20
5.068013556942744
 30
0.0
 10
6.111381732457441
 20
5.052610057187771
 30
0.0
 10
6.058667065788598
 20
5.052610057187771
 30
0.0
  0
LINE
  5
5B
330
1F
100
AcDbEntity
  8
SK1
  6
Continuous
100
AcDbLine
 10
6.0586670658
 20
5.0526100572
 30
0.0
 11
3.7586670658
 21
5.0526100572
 31
0.0
  0
SPLINE
  5
5C
330
1F
100
AcDbEntity
  8
SK1
  6
Continuous
100
AcDbSpline
210
0.0
220
0.0
230
1.0
 70
     8
 71
     3
 72
    10
 73
     6
 74
     0
 42
0.0000000361072764
 43
0.0000000001
 12
1.0
 22
0.0
 32
0.0
 13
1.0
 23
0.0
 33
0.0
 40
0.0
 40
0.0
 40
0.0
 40
0.0
 40
0.5
 40
0.5
 40
1.0
 40
1.0
 40
1.0
 40
1.0
 10
3.758667065788602
 20
5.052610057187771
 30
0.0
 10
3.706558029079594
 20
5.05261005718777
 30
0.0
 10
3.653944991254986
 20
5.068028853398364
 30
0.0
 10
3.580207591100156
 20
5.120327980354695
 30
0.0
 10
3.558667065788238
 20
5.157261274288551
 30
0.0
 10
3.558667065780518
 20
5.194121710459096
 30
0.0
  0
LINE
  5
5D
330
1F
100
AcDbEntity
  8
SK1
  6
Continuous
100
AcDbLine
 10
3.5586670658
 20
5.5868907438
 30
0.0
 11
3.5586670658
 21
5.9404441343
 31
0.0
  0
SPLINE
  5
5E
330
1F
100
AcDbEntity
  8
SK1
  6
Continuous
100
AcDbSpline
210
0.0
220
0.0
230
1.0
 70
     8
 71
     3
 72
    10
 73
     6
 74
     0
 42
0.0000000217507907
 43
0.0000000001
 12
1.0
 22
0.0
 32
0.0
 13
1.0
 23
0.0
 33
0.0
 40
0.0
 40
0.0
 40
0.0
 40
0.0
 40
0.5
 40
0.5
 40
1.0
 40
1.0
 40
1.0
 40
1.0
 10
3.558667065788607
 20
5.940444134343728
 30
0.0
 10
3.558667065788617
 20
6.000788862992054
 30
0.0
 10
3.520234372998231
 20
6.060743633154393
 30
0.0
 10
3.391038894893895
 20
6.140300392523383
 30
0.0
 10
3.301312687129759
 20
6.158997900935177
 30
0.0
 10
3.216915135500468
 20
6.15060702217162
 30
0.0
  0
LINE
  5
5F
330
1F
100
AcDbEntity
  8
SK1
  6
Continuous
100
AcDbLine
 10
3.2169151355
 20
6.1506070222
 30
0.0
 11
-9.984968859
 21
4.8379024285
 31
0.0
  0
SPLINE
  5
60
330
1F
100
AcDbEntity
  8
SK3
100
AcDbSpline
210
0.0
220
0.0
230
1.0
 70
     8
 71
     3
 72
    10
 73
     6
 74
     0
 42
0.0000000180118967
 43
0.0000000001
 12
1.0
 22
0.0
 32
0.0
 13
1.0
 23
0.0
 33
0.0
 40
0.0
 40
0.0
 40
0.0
 40
0.0
 40
0.5000000000000001
 40
0.5000000000000001
 40
1.0
 40
1.0
 40
1.0
 40
1.0
 10
9.858667065788316
 20
1.226344924511864
 30
0.0
 10
9.963324842306886
 20
1.226344924514194
 30
0.0
 10
10.0677836075271
 20
1.25709424993438
 30
0.0
 10
10.21637171445648
 20
1.363327923947751
 30
0.0
 10
10.25866706578861
 20
1.437114564860542
 30
0.0
 10
10.2586670657886
 20
1.511047447435883
 30
0.0
  0
ARC
  5
61
330
1F
100
AcDbEntity
  8
SK1
  6
Continuous
100
AcDbCircle
 10
10.0962905446
 20
4.1735724601
 30
0.0
 40
0.1626725624471719
100
AcDbArc
 50
3.4571838191
 51
63.3072734582
  0
LINE
  5
62
330
1F
100
AcDbEntity
  8
SK1
  6
Continuous
100
AcDbLine
 10
10.1693639682
 20
4.3189087506
 30
0.0
 11
10.1526089171
 21
4.3288577416
 31
0.0
  0
LINE
  5
63
330
1F
100
AcDbEntity
  8
SK1
  6
Continuous
100
AcDbLine
 10
10.1526089171
 20
4.3288577416
 30
0.0
 11
6.7003400217
 21
5.7390665396
 31
0.0
  0
SPLINE
  5
64
330
1F
100
AcDbEntity
  8
SK1
  6
Continuous
100
AcDbSpline
210
0.0
220
0.0
230
1.0
 70
     8
 71
     3
 72
    10
 73
     6
 74
     0
 42
0.000000036096425
 43
0.0000000001
 12
1.0
 22
0.0
 32
0.0
 13
1.0
 23
0.0
 33
0.0
 40
0.0
 40
0.0
 40
0.0
 40
0.0
 40
0.5
 40
0.5
 40
1.0
 40
1.0
 40
1.0
 40
1.0
 10
6.258667065788598
 20
4.840568319865071
 30
0.0
 10
6.258667065788599
 20
4.803233014321744
 30
0.0
 10
6.237026408914333
 20
4.766673161393221
 30
0.0
 10
6.163324603707797
 20
4.71446016634947
 30
0.0
 10
6.111381732457441
 20
4.699056666594498
 30
0.0
 10
6.058667065788598
 20
4.699056666594498
 30
0.0
  0
LINE
  5
65
330
1F
100
AcDbEntity
  8
SK1
  6
Continuous
100
AcDbLine
 10
6.0586670658
 20
4.6990566666
 30
0.0
 11
3.7586670658
 21
4.6990566666
 31
0.0
  0
SPLINE
  5
66
330
1F
100
AcDbEntity
  8
SK1
  6
Continuous
100
AcDbSpline
210
0.0
220
0.0
230
1.0
 70
     8
 71
     3
 72
    10
 73
     6
 74
     0
 42
0.0000000361072764
 43
0.0000000001
 12
1.0
 22
0.0
 32
0.0
 13
1.0
 23
0.0
 33
0.0
 40
0.0
 40
0.0
 40
0.0
 40
0.0
 40
0.5
 40
0.5
 40
1.0
 40
1.0
 40
1.0
 40
1.0
 10
3.758667065788602
 20
4.699056666594499
 30
0.0
 10
3.706558029079594
 20
4.699056666594496
 30
0.0
 10
3.653944991254986
 20
4.71447546280509
 30
0.0
 10
3.580207591100156
 20
4.766774589761423
 30
0.0
 10
3.558667065788238
 20
4.803707883695276
 30
0.0
 10
3.558667065780518
 20
4.840568319865824
 30
0.0
  0
SPLINE
  5
67
330
1F
100
AcDbEntity
  8
SK1
  6
Continuous
100
AcDbSpline
210
0.0
220
0.0
230
1.0
 70
     8
 71
     3
 72
    10
 73
     6
 74
     0
 42
0.0000000217507907
 43
0.0000000001
 12
1.0
 22
0.0
 32
0.0
 13
1.0
 23
0.0
 33
0.0
 40
0.0
 40
0.0
 40
0.0
 40
0.0
 40
0.5
 40
0.5
 40
1.0
 40
1.0
 40
1.0
 40
1.0
 10
3.558667065788607
 20
5.586890743750453
 30
0.0
 10
3.558667065788617
 20
5.647235472398779
 30
0.0
 10
3.520234372998231
 20
5.707190242561119
 30
0.0
 10
3.391038894893895
 20
5.786747001930108
 30
0.0
 10
3.301312687129759
 20
5.805444510341903
 30
0.0
 10
3.216915135500468
 20
5.797053631578345
 30
0.0
  0
LINE
  5
68
330
1F
100
AcDbEntity
  8
SK1
  6
Continuous
100
AcDbLine
 10
3.2169151355
 20
5.7970536316
 30
0.0
 11
-9.984968859
 21
4.4843490379
 31
0.0
  0
LINE
  5
69
330
1F
100
AcDbEntity
  8
SK1
  6
Continuous
100
AcDbLine
 10
3.5586670658
 20
5.9404441343
 30
0.0
 11
3.5586670658
 21
8.1548895776
 31
0.0
  0
LINE
  5
6A
330
1F
100
AcDbEntity
  8
SK1
  6
Continuous
100
AcDbLine
 10
10.1526089171
 20
4.6824111322
 30
0.0
 11
10.1526089171
 21
6.3768317237
 31
0.0
  0
LINE
  5
6B
330
1F
100
AcDbEntity
  8
SK1
  6
Continuous
100
AcDbLine
 10
6.2586670658
 20
-5.7390663401
 30
0.0
 11
6.2586670658
 21
5.7390665396
 31
0.0
  0
LINE
  5
6C
330
1F
100
AcDbEntity
  8
SK1
  6
Continuous
100
AcDbLine
 10
6.7003400217
 20
-5.7390663401
 30
0.0
 11
6.7003400217
 21
5.7390665396
 31
0.0
  0
LINE
  5
6D
330
1F
100
AcDbEntity
  8
SK1
  6
Continuous
100
AcDbLine
 10
3.2169151355
 20
-5.797053432
 30
0.0
 11
3.2169151355
 21
5.7970536316
 31
0.0
  0
LINE
  5
6E
330
1F
100
AcDbEntity
  8
SK1
  6
Continuous
100
AcDbLine
 10
3.5586670658
 20
-5.9404439348
 30
0.0
 11
3.5586670658
 21
-8.1548893781
 31
0.0
  0
LINE
  5
6F
330
1F
100
AcDbEntity
  8
SK1
  6
Continuous
100
AcDbLine
 10
10.1526089171
 20
-4.6824109327
 30
0.0
 11
10.1526089171
 21
-6.3768315242
 31
0.0
  0
LINE
  5
70
330
1F
100
AcDbEntity
  8
SK1
  6
Continuous
100
AcDbLine
 10
10.1693639682
 20
-4.3189085511
 30
0.0
 11
10.1693639682
 21
4.3189087506
 31
0.0
  0
LINE
  5
71
330
1F
100
AcDbEntity
  8
SK1
  6
Continuous
100
AcDbLine
 10
10.2586670658
 20
-4.1833818444
 30
0.0
 11
10.2586670658
 21
4.183382044
 31
0.0
  0
LINE
  5
72
330
1F
100
AcDbEntity
  8
SK1
  6
Continuous
100
AcDbLine
 10
6.0586670658
 20
-4.6990564671
 30
0.0
 11
6.0586670658
 21
4.6990566666
 31
0.0
  0
LINE
  5
73
330
1F
100
AcDbEntity
  8
SK1
  6
Continuous
100
AcDbLine
 10
3.7586670658
 20
-4.6990564671
 30
0.0
 11
3.7586670658
 21
4.6990566666
 31
0.0
  0
SPLINE
  5
74
330
1F
100
AcDbEntity
  8
SK3
100
AcDbSpline
210
0.0
220
0.0
230
1.0
 70
     8
 71
     3
 72
    10
 73
     6
 74
     0
 42
0.0000000180103621
 43
0.0000000001
 12
1.0
 22
0.0
 32
0.0
 13
1.0
 23
0.0
 33
0.0
 40
0.0
 40
0.0
 40
0.0
 40
0.0
 40
0.5
 40
0.5
 40
1.0
 40
1.0
 40
1.0
 40
1.0
 10
10.2586670657886
 20
-1.511047247894486
 30
0.0
 10
10.2586670657886
 20
-1.436266331195452
 30
0.0
 10
10.21559229149143
 20
-1.362689875672401
 30
0.0
 10
10.06812991149471
 20
-1.257422476095586
 30
0.0
 10
9.964356276043295
 20
-1.22634472497289
 30
0.0
 10
9.858667065788604
 20
-1.226344724972889
 30
0.0
  0
LINE
  5
75
330
1F
100
AcDbEntity
  8
SK3
100
AcDbLine
 10
9.8586670658
 20
-1.226344725
 30
0.0
 11
-10.3840193246
 21
-1.226344725
 31
0.0
  0
SPLINE
  5
76
330
1F
100
AcDbEntity
  8
SK1
  6
Continuous
100
AcDbSpline
210
0.0
220
0.0
230
1.0
 70
     8
 71
     3
 72
    10
 73
     6
 74
     0
 42
0.0000000217510525
 43
0.0000000001
 12
1.0
 22
0.0
 32
0.0
 13
1.0
 23
0.0
 33
0.0
 40
0.0
 40
0.0
 40
0.0
 40
0.0
 40
0.5
 40
0.5
 40
1.0
 40
1.0
 40
1.0
 40
1.0
 10
3.216915135500582
 20
-5.797053432031908
 30
0.0
 10
3.301169518762143
 20
-5.805430076875788
 30
0.0
 10
3.391522428876088
 20
-5.786473011342687
 30
0.0
 10
3.519886740111258
 20
-5.707380122702195
 30
0.0
 10
3.558667065788608
 20
-5.647701662432762
 30
0.0
 10
3.558667065788607
 20
-5.586890544209055
 30
0.0
  0
SPLINE
  5
77
330
1F
100
AcDbEntity
  8
SK1
  6
Continuous
100
AcDbSpline
210
0.0
220
0.0
230
1.0
 70
     8
 71
     3
 72
    10
 73
     6
 74
     0
 42
0.0000000360964285
 43
0.0000000001
 12
1.0
 22
0.0
 32
0.0
 13
1.0
 23
0.0
 33
0.0
 40
0.0
 40
0.0
 40
0.0
 40
0.0
 40
0.5
 40
0.5
 40
1.0
 40
1.0
 40
1.0
 40
1.0
 10
3.558667065788326
 20
-4.840568120323691
 30
0.0
 10
3.558667065788587
 20
-4.80362851544821
 30
0.0
 10
3.579955915999476
 20
-4.766883967120186
 30
0.0
 10
3.654566273534328
 20
-4.714103880605141
 30
0.0
 10
3.706464021238627
 20
-4.699056467053098
 30
0.0
 10
3.758667065788602
 20
-4.6990564670531
 30
0.0
  0
LINE
  5
78
330
1F
100
AcDbEntity
  8
SK1
  6
Continuous
100
AcDbLine
 10
3.7586670658
 20
-4.6990564671
 30
0.0
 11
6.0586670658
 21
-4.6990564671
 31
0.0
  0
SPLINE
  5
79
330
1F
100
AcDbEntity
  8
SK1
  6
Continuous
100
AcDbSpline
210
0.0
220
0.0
230
1.0
 70
     8
 71
     3
 72
    10
 73
     6
 74
     0
 42
0.0000000361076875
 43
0.0000000001
 12
1.0
 22
0.0
 32
0.0
 13
1.0
 23
0.0
 33
0.0
 40
0.0
 40
0.0
 40
0.0
 40
0.0
 40
0.5
 40
0.5
 40
1.0
 40
1.0
 40
1.0
 40
1.0
 10
6.058667065788469
 20
-4.699056467052249
 30
0.0
 10
6.110855088862572
 20
-4.699056467053059
 30
0.0
 10
6.163063348423391
 20
-4.714354216056176
 30
0.0
 10
6.236858991580843
 20
-4.766475485432382
 30
0.0
 10
6.258667065788607
 20
-4.803689547644966
 30
0.0
 10
6.258667065788598
 20
-4.840568120323674
 30
0.0
  0
LINE
  5
7A
330
1F
100
AcDbEntity
  8
SK1
  6
Continuous
100
AcDbLine
 10
6.2586670658
 20
-5.7390663401
 30
0.0
 11
6.7003400217
 21
-5.7390663401
 31
0.0
  0
SPLINE
  5
7B
330
1F
100
AcDbEntity
  8
SK1
  6
Continuous
100
AcDbSpline
210
0.0
220
0.0
230
1.0
 70
     8
 71
     3
 72
     8
 73
     4
 74
     0
 42
0.0000000026815483
 43
0.0000000001
 12
1.0
 22
0.0
 32
0.0
 13
1.0
 23
0.0
 33
0.0
 40
0.0
 40
0.0
 40
0.0
 40
0.0
 40
1.0
 40
1.0
 40
1.0
 40
1.0
 10
6.700340021718673
 20
-5.739066340107903
 30
0.0
 10
7.851136522513818
 20
-5.269045929087587
 30
0.0
 10
9.001905418574882
 20
-4.798991712100026
 30
0.0
 10
10.15260891707775
 20
-4.328857542082207
 30
0.0
  0
LINE
  5
7C
330
1F
100
AcDbEntity
  8
SK1
  6
Continuous
100
AcDbLine
 10
10.1526089171
 20
-4.3288575421
 30
0.0
 11
10.1693639682
 21
-4.3189085511
 31
0.0
  0
ARC
  5
7D
330
1F
100
AcDbEntity
  8
SK1
  6
Continuous
100
AcDbCircle
 10
10.0963053412
 20
-4.1735820106
 30
0.0
 40
0.1626572050204095
100
AcDbArc
 50
296.6896126694
 51
356.5459300535
  0
SPLINE
  5
7E
330
1F
100
AcDbEntity
  8
SK3
100
AcDbSpline
210
0.0
220
0.0
230
1.0
 70
     8
 71
     3
 72
    10
 73
     6
 74
     0
 42
0.0000000180103621
 43
0.0000000001
 12
1.0
 22
0.0
 32
0.0
 13
1.0
 23
0.0
 33
0.0
 40
0.0
 40
0.0
 40
0.0
 40
0.0
 40
0.5
 40
0.5
 40
1.0
 40
1.0
 40
1.0
 40
1.0
 10
10.2586670657886
 20
-1.864600638487759
 30
0.0
 10
10.2586670657886
 20
-1.789819721788726
 30
0.0
 10
10.21559229149143
 20
-1.716243266265674
 30
0.0
 10
10.0681299114947
 20
-1.610975866688859
 30
0.0
 10
9.964356276043295
 20
-1.579898115566163
 30
0.0
 10
9.858667065788604
 20
-1.579898115566162
 30
0.0
  0
LINE
  5
7F
330
1F
100
AcDbEntity
  8
SK3
100
AcDbLine
 10
9.8586670658
 20
-1.5798981156
 30
0.0
 11
-10.3840193246
 21
-1.5798981156
 31
0.0
  0
SPLINE
  5
80
330
1F
100
AcDbEntity
  8
SK1
  6
Continuous
100
AcDbSpline
210
0.0
220
0.0
230
1.0
 70
     8
 71
     3
 72
    10
 73
     6
 74
     0
 42
0.0000000217510525
 43
0.0000000001
 12
1.0
 22
0.0
 32
0.0
 13
1.0
 23
0.0
 33
0.0
 40
0.0
 40
0.0
 40
0.0
 40
0.0
 40
0.5
 40
0.5
 40
1.0
 40
1.0
 40
1.0
 40
1.0
 10
3.216915135500582
 20
-6.150606822625182
 30
0.0
 10
3.301169518762143
 20
-6.158983467469063
 30
0.0
 10
3.391522428876088
 20
-6.140026401935961
 30
0.0
 10
3.519886740111258
 20
-6.060933513295469
 30
0.0
 10
3.558667065788608
 20
-6.001255053026035
 30
0.0
 10
3.558667065788607
 20
-5.940443934802328
 30
0.0
  0
LINE
  5
81
330
1F
100
AcDbEntity
  8
SK1
  6
Continuous
100
AcDbLine
 10
3.5586670658
 20
-5.9404439348
 30
0.0
 11
3.5586670658
 21
-5.5868905442
 31
0.0
  0
SPLINE
  5
82
330
1F
100
AcDbEntity
  8
SK1
  6
Continuous
100
AcDbSpline
210
0.0
220
0.0
230
1.0
 70
     8
 71
     3
 72
    10
 73
     6
 74
     0
 42
0.0000000360964285
 43
0.0000000001
 12
1.0
 22
0.0
 32
0.0
 13
1.0
 23
0.0
 33
0.0
 40
0.0
 40
0.0
 40
0.0
 40
0.0
 40
0.5
 40
0.5
 40
1.0
 40
1.0
 40
1.0
 40
1.0
 10
3.558667065788326
 20
-5.194121510916966
 30
0.0
 10
3.558667065788587
 20
-5.157181906041484
 30
0.0
 10
3.579955915999476
 20
-5.12043735771346
 30
0.0
 10
3.654566273534328
 20
-5.067657271198416
 30
0.0
 10
3.706464021238627
 20
-5.052609857646372
 30
0.0
 10
3.758667065788602
 20
-5.052609857646375
 30
0.0
  0
LINE
  5
83
330
1F
100
AcDbEntity
  8
SK1
  6
Continuous
100
AcDbLine
 10
3.7586670658
 20
-5.0526098576
 30
0.0
 11
6.0586670658
 21
-5.0526098576
 31
0.0
  0
SPLINE
  5
84
330
1F
100
AcDbEntity
  8
SK1
  6
Continuous
100
AcDbSpline
210
0.0
220
0.0
230
1.0
 70
     8
 71
     3
 72
    10
 73
     6
 74
     0
 42
0.0000000361076875
 43
0.0000000001
 12
1.0
 22
0.0
 32
0.0
 13
1.0
 23
0.0
 33
0.0
 40
0.0
 40
0.0
 40
0.0
 40
0.0
 40
0.5
 40
0.5
 40
1.0
 40
1.0
 40
1.0
 40
1.0
 10
6.058667065788469
 20
-5.052609857645523
 30
0.0
 10
6.110855088862572
 20
-5.052609857646333
 30
0.0
 10
6.163063348423391
 20
-5.067907606649449
 30
0.0
 10
6.236858991580843
 20
-5.120028876025656
 30
0.0
 10
6.258667065788607
 20
-5.157242938238241
 30
0.0
 10
6.258667065788598
 20
-5.194121510916947
 30
0.0
  0
LINE
  5
85
330
1F
100
AcDbEntity
  8
SK1
  6
Continuous
100
AcDbLine
 10
6.2586670658
 20
-5.7390663401
 30
0.0
 11
6.2586670658
 21
-6.0926197307
 31
0.0
  0
LINE
  5
86
330
1F
100
AcDbEntity
  8
SK1
  6
Continuous
100
AcDbLine
 10
6.2586670658
 20
-6.0926197307
 30
0.0
 11
6.7003400217
 21
-6.0926197307
 31
0.0
  0
SPLINE
  5
87
330
1F
100
AcDbEntity
  8
SK1
  6
Continuous
100
AcDbSpline
210
0.0
220
0.0
230
1.0
 70
     8
 71
     3
 72
     8
 73
     4
 74
     0
 42
0.0000000026815483
 43
0.0000000001
 12
1.0
 22
0.0
 32
0.0
 13
1.0
 23
0.0
 33
0.0
 40
0.0
 40
0.0
 40
0.0
 40
0.0
 40
1.0
 40
1.0
 40
1.0
 40
1.0
 10
6.700340021718673
 20
-6.092619730701176
 30
0.0
 10
7.851136522513818
 20
-5.62259931968086
 30
0.0
 10
9.001905418574882
 20
-5.1525451026933
 30
0.0
 10
10.15260891707775
 20
-4.68241093267548
 30
0.0
  0
LINE
  5
88
330
1F
100
AcDbEntity
  8
SK1
  6
Continuous
100
AcDbLine
 10
10.1526089171
 20
-4.6824109327
 30
0.0
 11
10.1693639682
 21
-4.6724619417
 31
0.0
  0
ARC
  5
89
330
1F
100
AcDbEntity
  8
SK1
  6
Continuous
100
AcDbCircle
 10
10.0963053412
 20
-4.5271354012
 30
0.0
 40
0.1626572050204124
100
AcDbArc
 50
296.6896126694
 51
356.5459300535
  0
LINE
  5
8A
330
1F
100
AcDbEntity
  8
SK1
  6
Continuous
100
AcDbLine
 10
10.2586670658
 20
-4.536935235
 30
0.0
 11
10.2586670658
 21
-4.1833818444
 31
0.0
  0
LINE
  5
8B
330
1F
100
AcDbEntity
  8
SK3
100
AcDbLine
 10
-10.3840193246
 20
1.5798983151
 30
0.0
 11
9.8586670658
 21
1.5798983151
 31
0.0
  0
ELLIPSE
  5
8C
330
1F
100
AcDbEntity
  8
SK1
  6
Continuous
100
AcDbEllipse
 10
39.3263920609
 20
0.176776795
 30
0.0
 11
-49.75000000112157
 21
1.335092051514121E-10
 31
0.0
210
0.0
220
0.0
230
1.0
 40
0.7071067812
 41
-0.1328898242203369
 42
-0.1228149987168266
  0
SPLINE
  5
8D
330
1F
100
AcDbEntity
  8
SK3
100
AcDbSpline
210
0.0
220
0.0
230
1.0
 70
     8
 71
     3
 72
    35
 73
    31
 74
     0
 42
0.0000000147526288
 43
0.0000000001
 12
1.0
 22
0.0
 32
0.0
 13
1.0
 23
0.0
 33
0.0
 40
0.0
 40
0.0
 40
0.0
 40
0.0
 40
0.1067737953179182
 40
0.1067737953179182
 40
0.1067737953179182
 40
0.2135298763769399
 40
0.2135298763769399
 40
0.2135298763769399
 40
0.3205848259087153
 40
0.3205848259087153
 40
0.3205848259087153
 40
0.4281299878978877
 40
0.4281299878978877
 40
0.4281299878978877
 40
0.4999897921699626
 40
0.4999897921699626
 40
0.4999897921699626
 40
0.6072404677490193
 40
0.6072404677490193
 40
0.6072404677490193
 40
0.7144732382300207
 40
0.7144732382300207
 40
0.7144732382300207
 40
0.8219649966772811
 40
0.8219649966772811
 40
0.8219649966772811
 40
0.9294413628935732
 40
0.9294413628935732
 40
0.9294413628935732
 40
1.0
 40
1.0
 40
1.0
 40
1.0
 10
-10.38401932455573
 20
1.579898315107559
 30
0.0
 10
-10.41182851181468
 20
1.579898315107558
 30
0.0
 10
-10.44002178244889
 20
1.576963329403136
 30
0.0
 10
-10.46626054807295
 20
1.571263339894365
 30
0.0
 10
-10.49249711337862
 20
1.565563828372706
 30
0.0
 10
-10.5175006696727
 20
1.556938734730237
 30
0.0
 10
-10.53922884514606
 20
1.545929488275049
 30
0.0
 10
-10.5610179798328
 20
1.534889354964927
 30
0.0
 10
-10.58011418000345
 20
1.521139950103292
 30
0.0
 10
-10.594969269653
 20
1.505606295470884
 30
0.0
 10
-10.60989000869496
 20
1.490003992650382
 30
0.0
 10
-10.62094292928076
 20
1.472160725591372
 30
0.0
 10
-10.62721478406828
 20
1.45340915608304
 30
0.0
 10
-10.63143864202329
 20
1.440780680341823
 30
0.0
 10
-10.63359192740781
 20
1.427551393622658
 30
0.0
 10
-10.63359192740784
 20
1.414213662144225
 30
0.0
 10
-10.63359192740789
 20
1.394462685035499
 30
0.0
 10
-10.62879785960927
 20
1.374003167936622
 30
0.0
 10
-10.61960797248604
 20
1.354597364176761
 30
0.0
 10
-10.61041896662679
 20
1.335193421335925
 30
0.0
 10
-10.59658395359597
 20
1.316313926521509
 30
0.0
 10
-10.57923374195279
 20
1.299678550708667
 30
0.0
 10
-10.56184291732236
 20
1.28300423518029
 30
0.0
 10
-10.54043835157601
 20
1.268133013390057
 30
0.0
 10
-10.51677205158894
 20
1.256498807773397
 30
0.0
 10
-10.49311154882619
 20
1.24486745203609
 30
0.0
 10
-10.46653118499077
 20
1.236160126253564
 30
0.0
 10
-10.43924478268432
 20
1.231252916742021
 30
0.0
 10
-10.42118422447343
 20
1.228004890782391
 30
0.0
 10
-10.40254422268609
 20
1.226344924514285
 30
0.0
 10
-10.38401932455573
 20
1.226344924514285
 30
0.0
  0
SPLINE
  5
8E
330
1F
100
AcDbEntity
  8
SK1
  6
Continuous
100
AcDbSpline
210
0.0
220
0.0
230
1.0
 70
     8
 71
     3
 72
    35
 73
    31
 74
     0
 42
0.0000000144798034
 43
0.0000000001
 12
1.0
 22
0.0
 32
0.0
 13
1.0
 23
0.0
 33
0.0
 40
0.0
 40
0.0
 40
0.0
 40
0.0
 40
0.1121859067527125
 40
0.1121859067527125
 40
0.1121859067527125
 40
0.2245268140661581
 40
0.2245268140661581
 40
0.2245268140661581
 40
0.3344161427818531
 40
0.3344161427818531
 40
0.3344161427818531
 40
0.4407808148148269
 40
0.4407808148148269
 40
0.4407808148148269
 40
0.5001515774490931
 40
0.5001515774490931
 40
0.5001515774490931
 40
0.6035484910140853
 40
0.6035484910140853
 40
0.6035484910140853
 40
0.7068759051535327
 40
0.7068759051535327
 40
0.7068759051535327
 40
0.8112977769422177
 40
0.8112977769422177
 40
0.8112977769422177
 40
0.9184972697620453
 40
0.9184972697620453
 40
0.9184972697620453
 40
1.0
 40
1.0
 40
1.0
 40
1.0
 10
-9.984968858965786
 20
4.484349037896004
 30
0.0
 10
-10.01437697459072
 20
4.481424435442068
 30
0.0
 10
-10.04422193480902
 20
4.482158270592367
 30
0.0
 10
-10.07203994561207
 20
4.486545688403488
 30
0.0
 10
-10.09988000619651
 20
4.490936583875332
 30
0.0
 10
-10.12647016121479
 20
4.499122498066006
 30
0.0
 10
-10.14941839681099
 20
4.510447109043869
 30
0.0
 10
-10.1718661440766
 20
4.521524736517525
 30
0.0
 10
-10.19146640117286
 20
4.535929357168484
 30
0.0
 10
-10.20637013708224
 20
4.552400446268569
 30
0.0
 10
-10.22080308827188
 20
4.56835124051688
 30
0.0
 10
-10.23123942915666
 20
4.58669362765349
 30
0.0
 10
-10.23669416492353
 20
4.605819538801015
 30
0.0
 10
-10.23977039413822
 20
4.616605705014009
 30
0.0
 10
-10.24133293421139
 20
4.627772564343331
 30
0.0
 10
-10.24133293421139
 20
4.638999933783183
 30
0.0
 10
-10.24133293421139
 20
4.658365616172854
 30
0.0
 10
-10.23659292705764
 20
4.678341239043864
 30
0.0
 10
-10.22754479727367
 20
4.69728091199126
 30
0.0
 10
-10.21850004632943
 20
4.716213512303638
 30
0.0
 10
-10.20491185300479
 20
4.734628672293004
 30
0.0
 10
-10.18797003999144
 20
4.751108276853534
 30
0.0
 10
-10.1708454248355
 20
4.767765696327992
 30
0.0
 10
-10.14984742831804
 20
4.782895314023357
 30
0.0
 10
-10.12672288464003
 20
4.795425961349121
 30
0.0
 10
-10.1029866685391
 20
4.808288059600671
 30
0.0
 10
-10.0763887555972
 20
4.818759204852104
 30
0.0
 10
-10.0490594704448
 20
4.826147340670802
 30
0.0
 10
-10.02816082042785
 20
4.831797033441458
 30
0.0
 10
-10.00647792400222
 20
4.835763377310696
 30
0.0
 10
-9.984968858965786
 20
4.837902428489276
 30
0.0
  0
SPLINE
  5
8F
330
1F
100
AcDbEntity
  8
SK3
100
AcDbSpline
210
0.0
220
0.0
230
1.0
 70
     8
 71
     3
 72
     8
 73
     4
 74
     0
 42
0.0000004289462976
 43
0.0000000001
 12
1.0
 22
0.0
 32
0.0
 13
1.0
 23
0.0
 33
0.0
 40
0.0
 40
0.0
 40
0.0
 40
0.0
 40
1.0
 40
1.0
 40
1.0
 40
1.0
 10
-10.24133293421139
 20
-4.638999734241784
 30
0.0
 10
-10.24133293421139
 20
-4.646652460581827
 30
0.0
 10
-10.24059273988129
 20
-4.654400434559973
 30
0.0
 10
-10.23913900248298
 20
-4.662142089544786
 30
0.0
  0
LINE
  5
90
330
1F
100
AcDbEntity
  8
SK3
100
AcDbLine
 10
-10.3840193246
 20
1.2263449245
 30
0.0
 11
9.8586670658
 21
1.2263449245
 31
0.0
  0
SPLINE
  5
91
330
1F
100
AcDbEntity
  8
SK3
100
AcDbSpline
210
0.0
220
0.0
230
1.0
 70
     8
 71
     3
 72
    11
 73
     7
 74
     0
 42
0.0000004239001446
 43
0.0000000001
 12
1.0
 22
0.0
 32
0.0
 13
1.0
 23
0.0
 33
0.0
 40
0.0
 40
0.0
 40
0.0
 40
0.0
 40
0.5343924602796641
 40
0.5343924602796641
 40
0.5343924602796641
 40
1.0
 40
1.0
 40
1.0
 40
1.0
 10
-10.23279543817181
 20
4.684894184470854
 30
0.0
 10
-10.2342921312445
 20
4.680893844690611
 30
0.0
 10
-10.23559439770541
 20
4.676877924439805
 30
0.0
 10
-10.23669416492354
 20
4.67286011762826
 30
0.0
 10
-10.23766228718061
 20
4.669323252612856
 30
0.0
 10
-10.23848048938706
 20
4.665770948239952
 30
0.0
 10
-10.23914724886728
 20
4.662213268198701
 30
0.0
  0
LINE
  5
92
330
1F
100
AcDbEntity
  8
SK1
  6
Continuous
100
AcDbLine
 10
-9.984968859
 20
-4.4843488384
 30
0.0
 11
3.2169151355
 21
-5.797053432
 31
0.0
  0
SPLINE
  5
93
330
1F
100
AcDbEntity
  8
SK1
  6
Continuous
100
AcDbSpline
210
0.0
220
0.0
230
1.0
 70
     8
 71
     3
 72
    35
 73
    31
 74
     0
 42
0.0000000144803281
 43
0.0000000001
 12
1.0
 22
0.0
 32
0.0
 13
1.0
 23
0.0
 33
0.0
 40
0.0
 40
0.0
 40
0.0
 40
0.0
 40
0.1121859067527219
 40
0.1121859067527219
 40
0.1121859067527219
 40
0.2245268140661753
 40
0.2245268140661753
 40
0.2245268140661753
 40
0.3344161427818613
 40
0.3344161427818613
 40
0.3344161427818613
 40
0.4407808148148394
 40
0.4407808148148394
 40
0.4407808148148394
 40
0.500151577449095
 40
0.500151577449095
 40
0.500151577449095
 40
0.6035484910140824
 40
0.6035484910140824
 40
0.6035484910140824
 40
0.7068759051535224
 40
0.7068759051535224
 40
0.7068759051535224
 40
0.8112977769422061
 40
0.8112977769422061
 40
0.8112977769422061
 40
0.9184972697620318
 40
0.9184972697620318
 40
0.9184972697620318
 40
1.0
 40
1.0
 40
1.0
 40
1.0
 10
-9.984968858965786
 20
-4.837902228947879
 30
0.0
 10
-10.01437697459072
 20
-4.834977626493944
 30
0.0
 10
-10.04422193480902
 20
-4.828585524984272
 30
0.0
 10
-10.07203994561207
 20
-4.819159353781269
 30
0.0
 10
-10.09988000619652
 20
-4.80972571097953
 30
0.0
 10
-10.1264701612148
 20
-4.796973506351289
 30
0.0
 10
-10.149418396811
 20
-4.781858142573919
 30
0.0
 10
-10.1718661440766
 20
-4.76707243652346
 30
0.0
 10
-10.19146640117286
 20
-4.74959027620473
 30
0.0
 10
-10.20637013708224
 20
-4.730833566179872
 30
0.0
 10
-10.22080308827188
 20
-4.712669350045539
 30
0.0
 10
-10.23123942915667
 20
-4.692787839339708
 30
0.0
 10
-10.23669416492354
 20
-4.672859918086858
 30
0.0
 10
-10.23977039413822
 20
-4.661621453720129
 30
0.0
 10
-10.24133293421139
 20
-4.650227103681637
 30
0.0
 10
-10.24133293421139
 20
-4.638999734241786
 30
0.0
 10
-10.24133293421139
 20
-4.619634051852115
 30
0.0
 10
-10.23659292705764
 20
-4.600344552070683
 30
0.0
 10
-10.22754479727367
 20
-4.582752524191744
 30
0.0
 10
-10.21850004632943
 20
-4.565167065697225
 30
0.0
 10
-10.20491185300479
 20
-4.5487993434592
 30
0.0
 10
-10.18797003999144
 20
-4.534982801560338
 30
0.0
 10
-10.1708454248355
 20
-4.521017179190551
 30
0.0
 10
-10.14984742831805
 20
-4.509283833253078
 30
0.0
 10
-10.12672288464004
 20
-4.500681564177787
 30
0.0
 10
-10.10298666853911
 20
-4.491851754579272
 30
0.0
 10
-10.07638875559721
 20
-4.486083592256272
 30
0.0
 10
-10.04905947044481
 20
-4.4837743313459
 30
0.0
 10
-10.02816082042786
 20
-4.482008444119265
 30
0.0
 10
-10.00647792400222
 20
-4.482209787176022
 30
0.0
 10
-9.984968858965786
 20
-4.484348838354606
 30
0.0
  0
SPLINE
  5
94
330
1F
100
AcDbEntity
  8
SK3
100
AcDbSpline
210
0.0
220
0.0
230
1.0
 70
     8
 71
     3
 72
    35
 73
    31
 74
     0
 42
0.000000014751556
 43
0.0000000001
 12
1.0
 22
0.0
 32
0.0
 13
1.0
 23
0.0
 33
0.0
 40
0.0
 40
0.0
 40
0.0
 40
0.0
 40
0.1067737953179182
 40
0.1067737953179182
 40
0.1067737953179182
 40
0.2135298763769398
 40
0.2135298763769398
 40
0.2135298763769398
 40
0.3205848259087153
 40
0.3205848259087153
 40
0.3205848259087153
 40
0.4281299878978876
 40
0.4281299878978876
 40
0.4281299878978876
 40
0.4999897921699626
 40
0.4999897921699626
 40
0.4999897921699626
 40
0.6072404677490193
 40
0.6072404677490193
 40
0.6072404677490193
 40
0.7144732382300208
 40
0.7144732382300208
 40
0.7144732382300208
 40
0.8219649966772811
 40
0.8219649966772811
 40
0.8219649966772811
 40
0.9294413628935733
 40
0.9294413628935733
 40
0.9294413628935733
 40
1.0
 40
1.0
 40
1.0
 40
1.0
 10
-10.38401932455573
 20
-1.226344724972888
 30
0.0
 10
-10.41182851181468
 20
-1.226344724972888
 30
0.0
 10
-10.44002178244889
 20
-1.23015104966653
 30
0.0
 10
-10.46626054807295
 20
-1.237389018589428
 30
0.0
 10
-10.49249711337862
 20
-1.244626380554041
 30
0.0
 10
-10.5175006696727
 20
-1.255485142898339
 30
0.0
 10
-10.53922884514606
 20
-1.268897975631159
 30
0.0
 10
-10.5610179798328
 20
-1.282348438570602
 30
0.0
 10
-10.58011418000345
 20
-1.298726371788575
 30
0.0
 10
-10.594969269653
 20
-1.316491443487057
 30
0.0
 10
-10.60989000869496
 20
-1.334335024719344
 30
0.0
 10
-10.62094292928076
 20
-1.354063491542071
 30
0.0
 10
-10.62721478406828
 20
-1.373900229594296
 30
0.0
 10
-10.63143864202329
 20
-1.387259525474362
 30
0.0
 10
-10.63359192740781
 20
-1.400875731123822
 30
0.0
 10
-10.63359192740784
 20
-1.414213462602261
 30
0.0
 10
-10.63359192740789
 20
-1.433964439710995
 30
0.0
 10
-10.62879785960927
 20
-1.453551177907101
 30
0.0
 10
-10.61960797248604
 20
-1.47141631010911
 30
0.0
 10
-10.61041896662679
 20
-1.489279729134751
 30
0.0
 10
-10.59658395359597
 20
-1.505920526366777
 30
0.0
 10
-10.57923374195279
 20
-1.520143289573693
 30
0.0
 10
-10.56184291732236
 20
-1.534399345106532
 30
0.0
 10
-10.54043835157601
 20
-1.546629309085603
 30
0.0
 10
-10.51677205158894
 20
-1.556023999267462
 30
0.0
 10
-10.49311154882619
 20
-1.565416388154807
 30
0.0
 10
-10.46653118499077
 20
-1.572242618759526
 30
0.0
 10
-10.43924478268432
 20
-1.576076199365912
 30
0.0
 10
-10.42118422447343
 20
-1.578613602608752
 30
0.0
 10
-10.40254422268609
 20
-1.579898115566161
 30
0.0
 10
-10.38401932455573
 20
-1.579898115566161
 30
0.0
  0
LINE
  5
95
330
1F
100
AcDbEntity
  8
SK1
  6
Continuous
100
AcDbLine
 10
-9.984968859
 20
-4.8379022289
 30
0.0
 11
3.2169151355
 21
-6.1506068226
 31
0.0
  0
ELLIPSE
  5
96
330
1F
100
AcDbEntity
  8
SK1
  6
Continuous
100
AcDbEllipse
 10
39.3263920608
 20
-0.1767765955
 30
0.0
 11
-49.75000000105774
 21
-1.337591703106669E-10
 31
0.0
210
0.0
220
0.0
230
1.0
 40
0.7071067812
 41
0.1227433839921902
 42
0.1328898242204102
  0
LINE
  5
97
330
1F
100
AcDbEntity
  8
SK3
100
AcDbLine
 10
-16.7413329342
 20
0.2500000998
 30
0.0
 11
-16.7413329342
 21
3.7416574865
 31
0.0
  0
LINE
  5
98
330
1F
100
AcDbEntity
  8
SK3
100
AcDbLine
 10
-12.2413329342
 20
0.2500000998
 30
0.0
 11
-12.2413329342
 21
2.9393877911
 31
0.0
  0
LINE
  5
99
330
1F
100
AcDbEntity
  8
SK3
100
AcDbLine
 10
-11.8949227727
 20
0.2500000998
 30
0.0
 11
-11.8949227727
 21
1.9843135831
 31
0.0
  0
LINE
  5
9A
330
1F
100
AcDbEntity
  8
SK1
  6
Continuous
100
AcDbLine
 10
-16.9830848645
 20
0.2500000998
 30
0.0
 11
-16.9830848645
 21
5.6074749854
 31
0.0
  0
LINE
  5
9B
330
1F
100
AcDbEntity
  8
SK1
  6
Continuous
100
AcDbLine
 10
-17.2413329342
 20
0.2500000998
 30
0.0
 11
-17.2413329342
 21
5.3100829435
 31
0.0
  0
LINE
  5
9C
330
1F
100
AcDbEntity
  8
SK1
  6
Continuous
100
AcDbLine
 10
-16.9830848645
 20
-0.2499999002
 30
0.0
 11
-17.2413329342
 21
-0.2499999002
 31
0.0
  0
LINE
  5
9D
330
1F
100
AcDbEntity
  8
SK1
  6
Continuous
100
AcDbLine
 10
-16.9830848645
 20
0.2500000998
 30
0.0
 11
-17.2413329342
 21
0.2500000998
 31
0.0
  0
LINE
  5
9E
330
1F
100
AcDbEntity
  8
SK3
100
AcDbLine
 10
-16.7413329342
 20
3.7416574865
 30
0.0
 11
-17.2413329342
 21
4.0309301218
 31
0.0
  0
LINE
  5
9F
330
1F
100
AcDbEntity
  8
SK3
100
AcDbLine
 10
-16.7413329342
 20
-3.741657287
 30
0.0
 11
-16.7413329342
 21
-0.2499999002
 31
0.0
  0
LINE
  5
A0
330
1F
100
AcDbEntity
  8
SK3
100
AcDbLine
 10
-12.2413329342
 20
-2.9393875916
 30
0.0
 11
-12.2413329342
 21
-0.2499999002
 31
0.0
  0
LINE
  5
A1
330
1F
100
AcDbEntity
  8
SK3
100
AcDbLine
 10
-11.8949227727
 20
-1.9843133835
 30
0.0
 11
-11.8949227727
 21
-0.2499999002
 31
0.0
  0
LINE
  5
A2
330
1F
100
AcDbEntity
  8
SK1
  6
Continuous
100
AcDbLine
 10
-17.2413329342
 20
-5.310082744
 30
0.0
 11
-17.2413329342
 21
-0.2499999002
 31
0.0
  0
LINE
  5
A3
330
1F
100
AcDbEntity
  8
SK1
  6
Continuous
100
AcDbLine
 10
-16.9830848645
 20
-5.6074747858
 30
0.0
 11
-16.9830848645
 21
-0.2499999002
 31
0.0
  0
ARC
  5
A4
330
1F
100
AcDbEntity
  8
SK1
  6
Continuous
100
AcDbCircle
 10
-16.9411280435
 20
-5.3102162798
 30
0.0
 40
0.3002049204166357
100
AcDbArc
 50
179.9745139479
 51
261.966006325
  0
LINE
  5
A5
330
1F
100
AcDbEntity
  8
SK3
100
AcDbLine
 10
-17.2413329342
 20
-4.0309299223
 30
0.0
 11
-16.7413329342
 21
-3.741657287
 31
0.0
  0
LINE
  5
A6
330
1F
100
AcDbEntity
  8
SK3
100
AcDbLine
 10
-16.7413329342
 20
-3.741657287
 30
0.0
 11
-13.0413329342
 21
-3.741657287
 31
0.0
  0
SPLINE
  5
A7
330
1F
100
AcDbEntity
  8
SK3
100
AcDbSpline
210
0.0
220
0.0
230
1.0
 70
     8
 71
     3
 72
    20
 73
    16
 74
     0
 42
0.0000000079120924
 43
0.0000000001
 12
1.0
 22
0.0
 32
0.0
 13
1.0
 23
0.0
 33
0.0
 40
0.0
 40
0.0
 40
0.0
 40
0.0
 40
0.2138955458590422
 40
0.2138955458590422
 40
0.2138955458590422
 40
0.4279372048282655
 40
0.4279372048282655
 40
0.4279372048282655
 40
0.6421595378041547
 40
0.6421595378041547
 40
0.6421595378041547
 40
0.8568469621908055
 40
0.8568469621908055
 40
0.8568469621908055
 40
1.0
 40
1.0
 40
1.0
 40
1.0
 10
-13.04133293421139
 20
-3.741657287003247
 30
0.0
 10
-12.9520170080122
 20
-3.741657287003247
 30
0.0
 10
-12.86147123079335
 20
-3.726239926417614
 30
0.0
 10
-12.77718546738895
 20
-3.696689211364407
 30
0.0
 10
-12.692840146708
 20
-3.667117615440724
 30
0.0
 10
-12.61244063300064
 20
-3.622579439630793
 30
0.0
 10
-12.54262080392013
 20
-3.566777971250336
 30
0.0
 10
-12.47274081193159
 20
-3.510928419414868
 30
0.0
 10
-12.4115356960655
 20
-3.442262635151137
 30
0.0
 10
-12.36402356680176
 20
-3.366466967112871
 30
0.0
 10
-12.31640863809261
 20
-3.290507304053542
 30
0.0
 10
-12.28123570911582
 20
-3.205301936643575
 30
0.0
 10
-12.26136165172084
 20
-3.11788298165825
 30
0.0
 10
-12.24808890257475
 20
-3.059500848756341
 30
0.0
 10
-12.24133293421127
 20
-2.999259448997339
 30
0.0
 10
-12.2413329342032
 20
-2.939387591568185
 30
0.0
  0
LINE
  5
A8
330
1F
100
AcDbEntity
  8
SK3
100
AcDbLine
 10
-12.2413329342
 20
-2.1857491997
 30
0.0
 11
-11.8949227727
 21
-1.9843133835
 31
0.0
  0
LINE
  5
A9
330
1F
100
AcDbEntity
  8
SK3
100
AcDbLine
 10
-11.8949227727
 20
-1.9843133835
 30
0.0
 11
-1.9368207749
 21
-1.9843133835
 31
0.0
  0
LINE
  5
AA
330
1F
100
AcDbEntity
  8
SK3
100
AcDbLine
 10
-11.8949227727
 20
1.9843135831
 30
0.0
 11
-12.2413329342
 21
2.1857493992
 31
0.0
  0
SPLINE
  5
AB
330
1F
100
AcDbEntity
  8
SK3
100
AcDbSpline
210
0.0
220
0.0
230
1.0
 70
     8
 71
     3
 72
    23
 73
    19
 74
     0
 42
0.0000000079134795
 43
0.0000000001
 12
1.0
 22
0.0
 32
0.0
 13
1.0
 23
0.0
 33
0.0
 40
0.0
 40
0.0
 40
0.0
 40
0.0
 40
0.071583144690993
 40
0.071583144690993
 40
0.071583144690993
 40
0.287829568756634
 40
0.287829568756634
 40
0.287829568756634
 40
0.5035712391785468
 40
0.5035712391785468
 40
0.5035712391785468
 40
0.718678924109984
 40
0.718678924109984
 40
0.718678924109984
 40
0.9332439708924166
 40
0.9332439708924166
 40
0.9332439708924166
 40
1.0
 40
1.0
 40
1.0
 40
1.0
 10
-12.24133293420384
 20
2.939387791111372
 30
0.0
 10
-12.24133293421142
 20
2.969442685639374
 30
0.0
 10
-12.24301970213656
 20
2.999544577441264
 30
0.0
 10
-12.24637867459465
 20
3.029411180681159
 30
0.0
 10
-12.25646097583383
 20
3.119058861515801
 30
0.0
 10
-12.28217928587283
 20
3.208209578370832
 30
0.0
 10
-12.3214339792061
 20
3.289434134563024
 30
0.0
 10
-12.36059746400344
 20
3.370469964969261
 30
0.0
 10
-12.41432186481277
 20
3.445859329116923
 30
0.0
 10
-12.47816557545634
 20
3.50929878814961
 30
0.0
 10
-12.54182399780604
 20
3.572554132114278
 30
0.0
 10
-12.61730611288041
 20
3.625678683198309
 30
0.0
 10
-12.69834724816932
 20
3.664226934354845
 30
0.0
 10
-12.77918739623381
 20
3.702679583370839
 30
0.0
 10
-12.86779370846935
 20
3.727690900013587
 30
0.0
 10
-12.95680991396447
 20
3.737169872251509
 30
0.0
 10
-12.98486532128136
 20
3.740157378016344
 30
0.0
 10
-13.01311891162664
 20
3.741657486544844
 30
0.0
 10
-13.04133293421139
 20
3.741657486544646
 30
0.0
  0
LINE
  5
AC
330
1F
100
AcDbEntity
  8
SK3
100
AcDbLine
 10
-13.0413329342
 20
3.7416574865
 30
0.0
 11
-16.7413329342
 21
3.7416574865
 31
0.0
  0
ARC
  5
AD
330
1F
100
AcDbEntity
  8
SK1
  6
Continuous
100
AcDbCircle
 10
-16.9411279415
 20
5.3102163908
 30
0.0
 40
0.3002050223243981
100
AcDbArc
 50
98.0340105797
 51
180.0254691473
  0
SPLINE
  5
AE
330
1F
100
AcDbEntity
  8
SK1
  6
Continuous
100
AcDbSpline
210
0.0
220
0.0
230
1.0
 70
     8
 71
     3
 72
    11
 73
     7
 74
     0
 42
0.0000000006831798
 43
0.0000000001
 12
1.0
 22
0.0
 32
0.0
 13
1.0
 23
0.0
 33
0.0
 40
0.0
 40
0.0
 40
0.0
 40
0.0
 40
0.6732288776721553
 40
0.6732288776721553
 40
0.6732288776721553
 40
1.0
 40
1.0
 40
1.0
 40
1.0
 10
-16.98308486449942
 20
5.607474985371391
 30
0.0
 10
-13.73033336159349
 20
6.065073498354607
 30
0.0
 10
-10.47756712286156
 20
6.52256726668992
 30
0.0
 10
-7.224793416814859
 20
6.980007925128204
 30
0.0
 10
-5.645965547033746
 20
7.202039989323393
 30
0.0
 10
-4.06713581965344
 20
7.424058844706772
 30
0.0
 10
-2.488304681444632
 20
7.64606766649237
 30
0.0
  0
LINE
  5
AF
330
1F
100
AcDbEntity
  8
SK1
  6
Continuous
100
AcDbLine
 10
-2.4883046814
 20
-0.2499999002
 30
0.0
 11
-16.9830848645
 21
-0.2499999002
 31
0.0
  0
LINE
  5
B0
330
1F
100
AcDbEntity
  8
SK3
100
AcDbLine
 10
-2.4883046814
 20
-0.2499999002
 30
0.0
 11
-1.9368207749
 21
-0.2499999002
 31
0.0
  0
ARC
  5
B1
330
1F
100
AcDbEntity
  8
SK1
  6
Continuous
100
AcDbCircle
 10
-2.4913395877
 20
0.0000000998
 30
0.0
 40
0.250018420633256
100
AcDbArc
 50
270.6955151132
 51
89.3044848879
  0
ARC
  5
B2
330
1F
100
AcDbEntity
  8
SK3
100
AcDbCircle
 10
-1.937224224
 20
0.0000000998
 30
0.0
 40
0.2500003255421304
100
AcDbArc
 50
270.092463641
 51
89.907536359
  0
LINE
  5
B3
330
1F
100
AcDbEntity
  8
SK1
  6
Continuous
100
AcDbLine
 10
-2.4883046814
 20
0.2500000998
 30
0.0
 11
-16.9830848645
 21
0.2500000998
 31
0.0
  0
LINE
  5
B4
330
1F
100
AcDbEntity
  8
SK3
100
AcDbLine
 10
-1.9368207749
 20
0.2500000998
 30
0.0
 11
-2.4883046814
 21
0.2500000998
 31
0.0
  0
ARC
  5
B5
330
1F
100
AcDbEntity
  8
SK3
100
AcDbCircle
 10
-1.9372509543
 20
3.9843520264
 30
0.0
 40
2.000038489610807
100
AcDbArc
 50
270.0123234953
 51
277.1806971983
  0
SPLINE
  5
B6
330
1F
100
AcDbEntity
  8
SK1
  6
Continuous
100
AcDbSpline
210
0.0
220
0.0
230
1.0
 70
     8
 71
     3
 72
    20
 73
    16
 74
     0
 42
0.0000000399981231
 43
0.0000000001
 12
1.0
 22
0.0
 32
0.0
 13
1.0
 23
0.0
 33
0.0
 40
0.0
 40
0.0
 40
0.0
 40
0.0
 40
0.2149223877893217
 40
0.2149223877893217
 40
0.2149223877893217
 40
0.4298431822597509
 40
0.4298431822597509
 40
0.4298431822597509
 40
0.6447861082663885
 40
0.6447861082663885
 40
0.6447861082663885
 40
0.8597112829820983
 40
0.8597112829820983
 40
0.8597112829820983
 40
1.0
 40
1.0
 40
1.0
 40
1.0
 10
-2.241332934210203
 20
7.684863258497034
 30
0.0
 10
-2.241332934210173
 20
7.684863258497039
 30
0.0
 10
-2.246092255263043
 20
7.684033216741315
 30
0.0
 10
-2.255220307724921
 20
7.682465912129578
 30
0.0
 10
-2.264348320923072
 20
7.680898614259501
 30
0.0
 10
-2.278097011412457
 20
7.67855300837299
 30
0.0
 10
-2.295337750028109
 20
7.675684970564292
 30
0.0
 10
-2.312580183398933
 20
7.672816650829048
 30
0.0
 10
-2.333791623170633
 20
7.669350055287182
 30
0.0
 10
-2.357226962311403
 20
7.665644975863498
 30
0.0
 10
-2.380660272403825
 20
7.661940217228229
 30
0.0
 10
-2.406964236756354
 20
7.65789796967017
 30
0.0
 10
-2.433967101025326
 20
7.653905263779264
 30
0.0
 10
-2.451737175400143
 20
7.651277739531043
 30
0.0
 10
-2.470071409243766
 20
7.648631555170351
 30
0.0
 10
-2.488304681444632
 20
7.64606766649237
 30
0.0
  0
SPLINE
  5
B7
330
1F
100
AcDbEntity
  8
SK1
  6
Continuous
100
AcDbSpline
210
0.0
220
0.0
230
1.0
 70
     8
 71
     3
 72
    20
 73
    16
 74
     0
 42
0.0000000399981001
 43
0.0000000001
 12
1.0
 22
0.0
 32
0.0
 13
1.0
 23
0.0
 33
0.0
 40
0.0
 40
0.0
 40
0.0
 40
0.0
 40
0.2148500002122874
 40
0.2148500002122874
 40
0.2148500002122874
 40
0.4296987889033124
 40
0.4296987889033124
 40
0.4296987889033124
 40
0.6445720637313617
 40
0.6445720637313617
 40
0.6445720637313617
 40
0.8595100949037041
 40
0.8595100949037041
 40
0.8595100949037041
 40
0.9999999999999999
 40
0.9999999999999999
 40
0.9999999999999999
 40
0.9999999999999999
 10
-2.488304681449375
 20
-7.646067466950305
 30
0.0
 10
-2.460607480099628
 20
-7.649962134904158
 30
0.0
 10
-2.432550567691653
 20
-7.654069232727
 30
0.0
 10
-2.406454056504154
 20
-7.658023687046295
 30
0.0
 10
-2.380357603776039
 20
-7.661978132507129
 30
0.0
 10
-2.355501643518611
 20
-7.665886723363165
 30
0.0
 10
-2.33393424266151
 20
-7.669363490885727
 30
0.0
 10
-2.31236433037436
 20
-7.672840663262749
 30
0.0
 10
-2.293488337308565
 20
-7.675978378900283
 30
0.0
 10
-2.278856794907677
 20
-7.67844452853036
 30
0.0
 10
-2.264220974808412
 20
-7.680911399167421
 30
0.0
 10
-2.253428001235481
 20
-7.68277121775635
 30
0.0
 10
-2.247363806599206
 20
-7.683818804248202
 30
0.0
 10
-2.243367682089168
 20
-7.684509132693704
 30
0.0
 10
-2.241332934211398
 20
-7.684863058955428
 30
0.0
 10
-2.241332934211398
 20
-7.684863058955428
 30
0.0
  0
ARC
  5
B8
330
1F
100
AcDbEntity
  8
SK3
100
AcDbCircle
 10
-1.9372509543
 20
-3.9843518269
 30
0.0
 40
2.000038489610948
100
AcDbArc
 50
82.8193028017
 51
89.9876765047
  0
SPLINE
  5
B9
330
1F
100
AcDbEntity
  8
SK1
  6
Continuous
100
AcDbSpline
210
0.0
220
0.0
230
1.0
 70
     8
 71
     3
 72
    11
 73
     7
 74
     0
 42
0.0000000006831798
 43
0.0000000001
 12
1.0
 22
0.0
 32
0.0
 13
1.0
 23
0.0
 33
0.0
 40
0.0
 40
0.0
 40
0.0
 40
0.0
 40
0.8737249549639965
 40
0.8737249549639965
 40
0.8737249549639965
 40
1.0
 40
1.0
 40
1.0
 40
1.0
 10
-2.488304681449375
 20
-7.646067466950305
 30
0.0
 10
-6.709804289501473
 20
-7.05245733888095
 30
0.0
 10
-10.93129465946095
 20
-6.458781495826368
 30
0.0
 10
-15.15276369099941
 20
-5.864953961358411
 30
0.0
 10
-15.76287124176508
 20
-5.779131073656346
 30
0.0
 10
-16.37297832225314
 20
-5.693304842704555
 30
0.0
 10
-16.98308486449942
 20
-5.607474785829992
 30
0.0
  0
LINE
  5
BA
330
1F
100
AcDbEntity
  8
SK3
100
AcDbLine
 10
-1.9368207749
 20
1.9843135831
 30
0.0
 11
-11.8949227727
 21
1.9843135831
 31
0.0
  0
LINE
  5
BB
330
1F
100
AcDbEntity
  8
SK1
  6
Continuous
100
AcDbLine
 10
3.2169151355
 20
8.4519699982
 30
0.0
 11
-2.2413329342
 21
7.6848632585
 31
0.0
  0
LINE
  5
BC
330
1F
100
AcDbEntity
  8
SK1
  6
Continuous
100
AcDbLine
 10
-2.2413329342
 20
-7.684863059
 30
0.0
 11
3.2169151355
 21
-8.4519697987
 31
0.0
  0
LINE
  5
BD
330
1F
100
AcDbEntity
  8
SK3
100
AcDbLine
 10
-1.687248172
 20
-1.9999999002
 30
0.0
 11
9.8586670658
 21
-1.9999999002
 31
0.0
  0
LINE
  5
BE
330
1F
100
AcDbEntity
  8
SK3
100
AcDbLine
 10
9.8586670658
 20
2.0000000998
 30
0.0
 11
-1.687248172
 21
2.0000000998
 31
0.0
  0
LINE
  5
BF
330
1F
100
AcDbEntity
  8
SK1
  6
Continuous
100
AcDbLine
 10
6.2586670658
 20
-8.3699999002
 30
0.0
 11
6.7003400217
 21
-8.3699999002
 31
0.0
  0
ARC
  5
C0
330
1F
100
AcDbEntity
  8
SK3
100
AcDbCircle
 10
9.8586670658
 20
-2.3999999002
 30
0.0
 40
0.4
100
AcDbArc
 50
0.0
 51
90.0
  0
ARC
  5
C1
330
1F
100
AcDbEntity
  8
SK1
  6
Continuous
100
AcDbCircle
 10
3.2586670658
 20
-8.1548893781
 30
0.0
 40
0.3
100
AcDbArc
 50
262.0
 51
0.0
  0
LINE
  5
C2
330
1F
100
AcDbEntity
  8
SK1
  6
Continuous
100
AcDbLine
 10
10.1526089171
 20
-6.3768315242
 30
0.0
 11
10.1693639682
 21
-6.362772367
 31
0.0
  0
ARC
  5
C3
330
1F
100
AcDbEntity
  8
SK1
  6
Continuous
100
AcDbCircle
 10
10.0086670658
 20
-6.1712612562
 30
0.0
 40
0.2500000000000002
100
AcDbArc
 50
310.0
 51
0.0
  0
LINE
  5
C4
330
1F
100
AcDbEntity
  8
SK1
  6
Continuous
100
AcDbLine
 10
6.7003400217
 20
-8.3699999002
 30
0.0
 11
10.1526089171
 21
-6.3768315242
 31
0.0
  0
ARC
  5
C5
330
1F
100
AcDbEntity
  8
SK1
  6
Continuous
100
AcDbCircle
 10
6.0586670658
 20
-7.0999999002
 30
0.0
 40
0.2000000000000015
100
AcDbArc
 50
0.0
 51
90.0
  0
LINE
  5
C6
330
1F
100
AcDbEntity
  8
SK1
  6
Continuous
100
AcDbLine
 10
3.7586670658
 20
-6.8999999002
 30
0.0
 11
6.0586670658
 21
-6.8999999002
 31
0.0
  0
ARC
  5
C7
330
1F
100
AcDbEntity
  8
SK1
  6
Continuous
100
AcDbCircle
 10
3.7586670658
 20
-7.0999999002
 30
0.0
 40
0.1999999999999988
100
AcDbArc
 50
90.0
 51
180.0
  0
LINE
  5
C8
330
1F
100
AcDbEntity
  8
SK1
  6
Continuous
100
AcDbLine
 10
6.7003400217
 20
8.3700000998
 30
0.0
 11
6.2586670658
 21
8.3700000998
 31
0.0
  0
ARC
  5
C9
330
1F
100
AcDbEntity
  8
SK3
100
AcDbCircle
 10
9.8586670658
 20
2.4000000998
 30
0.0
 40
0.4
100
AcDbArc
 50
270.0
 51
0.0
  0
ARC
  5
CA
330
1F
100
AcDbEntity
  8
SK1
  6
Continuous
100
AcDbCircle
 10
3.2586670658
 20
8.1548895776
 30
0.0
 40
0.299999999999999
100
AcDbArc
 50
0.0
 51
98.0
  0
LINE
  5
CB
330
1F
100
AcDbEntity
  8
SK1
  6
Continuous
100
AcDbLine
 10
10.1693639682
 20
6.3627725665
 30
0.0
 11
10.1526089171
 21
6.3768317237
 31
0.0
  0
ARC
  5
CC
330
1F
100
AcDbEntity
  8
SK1
  6
Continuous
100
AcDbCircle
 10
10.0086670658
 20
6.1712614557
 30
0.0
 40
0.2500000000000001
100
AcDbArc
 50
0.0
 51
50.0
  0
LINE
  5
CD
330
1F
100
AcDbEntity
  8
SK1
  6
Continuous
100
AcDbLine
 10
10.1526089171
 20
6.3768317237
 30
0.0
 11
6.7003400217
 21
8.3700000998
 31
0.0
  0
ARC
  5
CE
330
1F
100
AcDbEntity
  8
SK1
  6
Continuous
100
AcDbCircle
 10
6.0586670658
 20
7.1000000998
 30
0.0
 40
0.1999999999999988
100
AcDbArc
 50
270.0
 51
0.0
  0
LINE
  5
CF
330
1F
100
AcDbEntity
  8
SK1
  6
Continuous
100
AcDbLine
 10
6.0586670658
 20
6.9000000998
 30
0.0
 11
3.7586670658
 21
6.9000000998
 31
0.0
  0
ARC
  5
D0
330
1F
100
AcDbEntity
  8
SK1
  6
Continuous
100
AcDbCircle
 10
3.7586670658
 20
7.1000000998
 30
0.0
 40
0.2000000000000015
100
AcDbArc
 50
180.0
 51
270.0
  0
ARC
  5
D1
330
1F
100
AcDbEntity
  8
SK3
100
AcDbCircle
 10
14.6201197516
 20
-0.0077693989
 30
0.0
 40
25.29374620735857
100
AcDbArc
 50
169.3594097328
 51
176.7613435487
  0
ARC
  5
D2
330
1F
100
AcDbEntity
  8
SK3
100
AcDbCircle
 10
14.6171837175
 20
0.0075814867
 30
0.0
 40
25.29080978639439
100
AcDbArc
 50
183.238542361
 51
190.6405428576
  0
ARC
  5
D3
330
1F
100
AcDbEntity
  8
SK3
100
AcDbCircle
 10
-51.6472321592
 20
0.0000000998
 30
0.0
 40
50.00000000000001
100
AcDbArc
 50
2.2924076325
 51
8.8412352036
  0
ARC
  5
D4
330
1F
100
AcDbEntity
  8
SK3
100
AcDbCircle
 10
-51.6472321592
 20
0.0000000998
 30
0.0
 40
50.00000000000001
100
AcDbArc
 50
351.1587286693
 51
357.707547453
  0
LINE
  5
D5
330
1F
100
AcDbEntity
  8
SK1
  6
Continuous
100
AcDbLine
 10
0.0
 20
7.9998620599
 30
0.0
 11
0.0
 21
-7.9998618604
 31
0.0
  0
LINE
  5
D7
330
1F
100
AcDbEntity
  8
SK4
  6
Continuous
100
AcDbLine
 10
10.2586670658
 20
0.0000000998
 30
0.0
 11
-17.2413329342
 21
0.0000000998
 31
0.0
  0
DIMENSION
  5
ED
330
1F
100
AcDbEntity
  8
SK2
  6
Continuous
 62
   136
100
AcDbDimension
  2
DMBLK79
 10
-17.2413329342
 20
15.4910861937
 30
0.0
 11
-3.4913330087
 21
15.4910861937
 31
0.0
 70
   161
  1
\A1;<>
 71
     5
 42
-1.0
  3
DIN
100
AcDbAlignedDimension
 13
-17.2413329342
 23
5.3100829435
 33
0.0
 14
10.2586670658
 24
5.3540984451
 34
0.0
  0
DIMENSION
  5
F7
330
1F
100
AcDbEntity
  8
SK2
  6
Continuous
 62
   136
100
AcDbDimension
  2
DMBLK80
 10
19.1432676813
 20
-1.9999999002
 30
0.0
 11
19.1432676813
 21
9.0471519708
 31
0.0
 70
   161
  1
\A1;ø <>
 71
     5
 42
-1.0
  3
DIN
100
AcDbAlignedDimension
 13
9.8586670658
 23
-1.9999999002
 33
0.0
 14
9.8586670658
 24
2.0000000998
 34
0.0
  0
DIMENSION
  5
102
330
1F
100
AcDbEntity
  8
SK2
  6
Continuous
 62
   136
100
AcDbDimension
  2
DMBLK81
 10
10.2586670658
 20
-16.6661723198
 30
0.0
 11
5.1293335855
 21
-16.6661723198
 31
0.0
 70
   160
  1
\A1;<>
 71
     5
 42
-1.0
  3
DIN
100
AcDbAlignedDimension
 13
0.0
 23
-7.9998618604
 33
0.0
 14
10.2586670658
 24
-5.3540982456
 34
0.0
100
AcDbRotatedDimension
  0
DIMENSION
  5
10C
330
1F
100
AcDbEntity
  8
SK2
  6
Continuous
 62
   136
100
AcDbDimension
  2
DMBLK82
 10
-22.8383485228
 20
7.9998620599
 30
0.0
 11
-22.8383485228
 21
0.000000447
 31
0.0
 70
   161
  1
\A1;ø <>
 71
     5
 42
-1.0
  3
DIN
100
AcDbAlignedDimension
 13
0.0
 23
7.9998620599
 33
0.0
 14
0.0
 24
-7.9998618604
 34
0.0
  0
INSERT
  5
121
330
1F
100
AcDbEntity
  8
SK2
 62
     7
100
AcDbBlockReference
  2
Nullpunkt
 10
0.0
 20
0.0000000998
 30
0.0
  0
INSERT
  5
12C
330
1F
100
AcDbEntity
  8
SK2
 62
     7
100
AcDbBlockReference
  2
Einfügepunkt
 10
10.2586670658
 20
0.0000000998
 30
0.0
  0
ENDSEC
  0
SECTION
  2
OBJECTS
  0
DICTIONARY
  5
C
330
0
100
AcDbDictionary
281
     1
  3
ACAD_GROUP
350
D
  3
ACAD_LAYOUT
350
1A
  3
ACAD_MATERIAL
350
3B
  3
ACAD_MLEADERSTYLE
350
12F
  3
ACAD_MLINESTYLE
350
17
  3
ACAD_PLOTSETTINGS
350
19
  3
ACAD_PLOTSTYLENAME
350
E
  3
ACAD_VISUALSTYLE
350
2A
  3
AcDbVariableDictionary
350
12D
  0
DICTIONARY
  5
D
102
{ACAD_REACTORS
330
C
102
}
330
C
100
AcDbDictionary
281
     1
  0
DICTIONARY
  5
1A
102
{ACAD_REACTORS
330
C
102
}
330
C
100
AcDbDictionary
281
     1
  3
Layout1
350
1E
  3
Model
350
22
  0
DICTIONARY
  5
3B
102
{ACAD_REACTORS
330
C
102
}
330
C
100
AcDbDictionary
281
     1
  3
ByBlock
350
3D
  3
ByLayer
350
3C
  3
Global
350
3E
  0
DICTIONARY
  5
12F
102
{ACAD_REACTORS
330
C
102
}
330
C
100
AcDbDictionary
281
     1
  0
DICTIONARY
  5
17
102
{ACAD_REACTORS
330
C
102
}
330
C
100
AcDbDictionary
281
     1
  3
Standard
350
18
  0
DICTIONARY
  5
19
102
{ACAD_REACTORS
330
C
102
}
330
C
100
AcDbDictionary
281
     1
  0
ACDBDICTIONARYWDFLT
  5
E
102
{ACAD_REACTORS
330
C
102
}
330
C
100
AcDbDictionary
281
     1
  3
Normal
350
F
100
AcDbDictionaryWithDefault
340
F
  0
DICTIONARY
  5
2A
102
{ACAD_REACTORS
330
C
102
}
330
C
100
AcDbDictionary
281
     1
  3
2dWireframe
350
2F
  3
3D Hidden
350
31
  3
3dWireframe
350
30
  3
Basic
350
32
  3
Brighten
350
36
  3
ColorChange
350
3A
  3
Conceptual
350
34
  3
Dim
350
35
  3
Facepattern
350
39
  3
Flat
350
2B
  3
FlatWithEdges
350
2C
  3
Gouraud
350
2D
  3
GouraudWithEdges
350
2E
  3
Linepattern
350
38
  3
Realistic
350
33
  3
Thicken
350
37
  0
DICTIONARY
  5
12D
102
{ACAD_REACTORS
330
C
102
}
330
C
100
AcDbDictionary
281
     1
  3
DIMASSOC
350
132
  3
HIDETEXT
350
133
  3
PSOLHEIGHT
350
131
  3
PSOLWIDTH
350
130
  0
LAYOUT
  5
1E
102
{ACAD_REACTORS
330
1A
102
}
330
1A
100
AcDbPlotSettings
  1

  2
none_device
  4

  6

 40
0.0
 41
0.0
 42
0.0
 43
0.0
 44
0.0
 45
0.0
 46
0.0
 47
0.0
 48
0.0
 49
0.0
140
0.0
141
0.0
142
1.0
143
1.0
 70
   688
 72
     0
 73
     0
 74
     5
  7

 75
    16
147
1.0
148
0.0
149
0.0
100
AcDbLayout
  1
Layout1
 70
     1
 71
     1
 10
0.0
 20
0.0
 11
210.0
 21
297.0
 12
0.0
 22
0.0
 32
0.0
 14
0.0
 24
0.0
 34
0.0
 15
210.0
 25
297.0
 35
0.0
146
0.0
 13
0.0
 23
0.0
 33
0.0
 16
1.0
 26
0.0
 36
0.0
 17
0.0
 27
1.0
 37
0.0
 76
     0
330
1B
  0
LAYOUT
  5
22
102
{ACAD_REACTORS
330
1A
102
}
330
1A
100
AcDbPlotSettings
  1

  2
none_device
  4

  6

 40
0.0
 41
0.0
 42
0.0
 43
0.0
 44
0.0
 45
0.0
 46
0.0
 47
0.0
 48
0.0
 49
0.0
140
0.0
141
0.0
142
1.0
143
1.0
 70
  1712
 72
     0
 73
     0
 74
     0
  7

 75
     0
147
1.0
148
0.0
149
0.0
100
AcDbLayout
  1
Model
 70
     1
 71
     0
 10
0.0
 20
0.0
 11
210.0
 21
297.0
 12
0.0
 22
0.0
 32
0.0
 14
0.0
 24
0.0
 34
0.0
 15
210.0
 25
297.0
 35
0.0
146
0.0
 13
0.0
 23
0.0
 33
0.0
 16
1.0
 26
0.0
 36
0.0
 17
0.0
 27
1.0
 37
0.0
 76
     0
330
1F
331
29
  0
MATERIAL
  5
3D
102
{ACAD_REACTORS
330
3B
102
}
102
{ACAD_XDICTIONARY
360
156
102
}
330
3B
100
AcDbMaterial
  1
ByBlock
  0
MATERIAL
  5
3C
102
{ACAD_REACTORS
330
3B
102
}
102
{ACAD_XDICTIONARY
360
154
102
}
330
3B
100
AcDbMaterial
  1
ByLayer
  0
MATERIAL
  5
3E
102
{ACAD_REACTORS
330
3B
102
}
102
{ACAD_XDICTIONARY
360
158
102
}
330
3B
100
AcDbMaterial
  1
Global
  0
MLINESTYLE
  5
18
102
{ACAD_REACTORS
330
17
102
}
330
17
100
AcDbMlineStyle
  2
Standard
 70
     0
  3

 62
   256
 51
90.0
 52
90.0
 71
     2
 49
0.5
 62
   256
  6
BYLAYER
 49
-0.5
 62
   256
  6
BYLAYER
  0
ACDBPLACEHOLDER
  5
F
102
{ACAD_REACTORS
330
E
102
}
330
E
  0
VISUALSTYLE
  5
2F
102
{ACAD_REACTORS
330
2A
102
}
102
{ACAD_XDICTIONARY
360
13C
102
}
330
2A
100
AcDbVisualStyle
  2
2dWireframe
 70
     4
 71
     0
 72
     2
 73
     0
 90
        0
 40
-0.6
 41
-30.0
 62
     5
 63
     7
 74
     1
 91
        4
 64
     7
 65
   257
 75
     1
175
     1
 42
1.0
 92
        0
 66
   257
 43
1.0
 76
     1
 77
     6
 78
     2
 67
     7
 79
     5
170
     0
171
     0
290
     0
174
     0
 93
        1
 44
0.0
173
     0
291
     0
 45
0.0
1001
ACAD
1000
AcDbSavedByObjectVersion
1070
     0
  0
VISUALSTYLE
  5
31
102
{ACAD_REACTORS
330
2A
102
}
102
{ACAD_XDICTIONARY
360
140
102
}
330
2A
100
AcDbVisualStyle
  2
3D Hidden
 70
     6
 71
     1
 72
     2
 73
     2
 90
        0
 40
-0.6
 41
-30.0
 62
     5
 63
     7
 74
     2
 91
        2
 64
     7
 65
   257
 75
     2
175
     1
 42
40.0
 92
        0
 66
   257
 43
1.0
 76
     1
 77
     6
 78
     2
 67
     7
 79
     3
170
     0
171
     0
290
     0
174
     0
 93
        1
 44
0.0
173
     0
291
     0
 45
0.0
1001
ACAD
1000
AcDbSavedByObjectVersion
1070
     0
  0
VISUALSTYLE
  5
30
102
{ACAD_REACTORS
330
2A
102
}
102
{ACAD_XDICTIONARY
360
13E
102
}
330
2A
100
AcDbVisualStyle
  2
3dWireframe
 70
     5
 71
     0
 72
     2
 73
     0
 90
        0
 40
-0.6
 41
-30.0
 62
     5
 63
     7
 74
     1
 91
        4
 64
     7
 65
   257
 75
     1
175
     1
 42
1.0
 92
        0
 66
   257
 43
1.0
 76
     1
 77
     6
 78
     2
 67
     7
 79
     5
170
     0
171
     0
290
     0
174
     0
 93
        1
 44
0.0
173
     0
291
     0
 45
0.0
1001
ACAD
1000
AcDbSavedByObjectVersion
1070
     0
  0
VISUALSTYLE
  5
32
102
{ACAD_REACTORS
330
2A
102
}
102
{ACAD_XDICTIONARY
360
142
102
}
330
2A
100
AcDbVisualStyle
  2
Basic
 70
     7
 71
     1
 72
     0
 73
     1
 90
        0
 40
-0.6
 41
-30.0
 62
     5
 63
     7
 74
     0
 91
        4
 64
     7
 65
   257
 75
     1
175
     1
 42
1.0
 92
        8
 66
     7
 43
1.0
 76
     1
 77
     6
 78
     2
 67
     7
 79
     5
170
     0
171
     0
290
     0
174
     0
 93
        1
 44
0.0
173
     0
291
     1
 45
0.0
1001
ACAD
1000
AcDbSavedByObjectVersion
1070
     0
  0
VISUALSTYLE
  5
36
102
{ACAD_REACTORS
330
2A
102
}
102
{ACAD_XDICTIONARY
360
14A
102
}
330
2A
100
AcDbVisualStyle
  2
Brighten
 70
    12
 71
     2
 72
     2
 73
     0
 90
        0
 40
-0.6
 41
-30.0
 62
     5
 63
     7
 74
     1
 91
        4
 64
     7
 65
   257
 75
     1
175
     1
 42
1.0
 92
        8
 66
     7
 43
1.0
 76
     1
 77
     6
 78
     2
 67
     7
 79
     5
170
     0
171
     0
290
     0
174
     0
 93
        1
 44
50.0
173
     0
291
     1
 45
0.0
1001
ACAD
1000
AcDbSavedByObjectVersion
1070
     0
  0
VISUALSTYLE
  5
3A
102
{ACAD_REACTORS
330
2A
102
}
102
{ACAD_XDICTIONARY
360
152
102
}
330
2A
100
AcDbVisualStyle
  2
ColorChange
 70
    16
 71
     2
 72
     2
 73
     3
 90
        0
 40
-0.6
 41
-30.0
 62
     5
 63
     8
 74
     1
 91
        4
 64
     7
 65
   257
 75
     1
175
     1
 42
1.0
 92
        8
 66
     8
 43
1.0
 76
     1
 77
     6
 78
     2
 67
     7
 79
     5
170
     0
171
     0
290
     0
174
     0
 93
        1
 44
0.0
173
     0
291
     1
 45
0.0
1001
ACAD
1000
AcDbSavedByObjectVersion
1070
     0
  0
VISUALSTYLE
  5
34
102
{ACAD_REACTORS
330
2A
102
}
102
{ACAD_XDICTIONARY
360
146
102
}
330
2A
100
AcDbVisualStyle
  2
Conceptual
 70
     9
 71
     3
 72
     2
 73
     0
 90
        0
 40
-0.6
 41
-30.0
 62
     5
 63
     7
 74
     2
 91
        2
 64
     7
 65
   257
 75
     1
175
     1
 42
40.0
 92
        8
 66
     7
 43
1.0
 76
     1
 77
     6
 78
     2
 67
     7
 79
     3
170
     0
171
     0
290
     0
174
     0
 93
        1
 44
0.0
173
     0
291
     0
 45
0.0
1001
ACAD
1000
AcDbSavedByObjectVersion
1070
     0
  0
VISUALSTYLE
  5
35
102
{ACAD_REACTORS
330
2A
102
}
102
{ACAD_XDICTIONARY
360
148
102
}
330
2A
100
AcDbVisualStyle
  2
Dim
 70
    11
 71
     2
 72
     2
 73
     0
 90
        0
 40
-0.6
 41
-30.0
 62
     5
 63
     7
 74
     1
 91
        4
 64
     7
 65
   257
 75
     1
175
     1
 42
1.0
 92
        8
 66
     7
 43
1.0
 76
     1
 77
     6
 78
     2
 67
     7
 79
     5
170
     0
171
     0
290
     0
174
     0
 93
        1
 44
-50.0
173
     0
291
     1
 45
0.0
1001
ACAD
1000
AcDbSavedByObjectVersion
1070
     0
  0
VISUALSTYLE
  5
39
102
{ACAD_REACTORS
330
2A
102
}
102
{ACAD_XDICTIONARY
360
150
102
}
330
2A
100
AcDbVisualStyle
  2
Facepattern
 70
    15
 71
     2
 72
     2
 73
     0
 90
        0
 40
-0.6
 41
-30.0
 62
     5
 63
     7
 74
     1
 91
        4
 64
     7
 65
   257
 75
     1
175
     1
 42
1.0
 92
        8
 66
     7
 43
1.0
 76
     1
 77
     6
 78
     2
 67
     7
 79
     5
170
     0
171
     0
290
     0
174
     0
 93
        1
 44
0.0
173
     0
291
     1
 45
0.0
1001
ACAD
1000
AcDbSavedByObjectVersion
1070
     0
  0
VISUALSTYLE
  5
2B
102
{ACAD_REACTORS
330
2A
102
}
102
{ACAD_XDICTIONARY
360
134
102
}
330
2A
100
AcDbVisualStyle
  2
Flat
 70
     0
 71
     2
 72
     1
 73
     1
 90
        2
 40
-0.6
 41
30.0
 62
     5
 63
     7
 74
     0
 91
        4
 64
     7
 65
   257
 75
     1
175
     1
 42
1.0
 92
        8
 66
     7
 43
1.0
 76
     1
 77
     6
 78
     2
 67
     7
 79
     5
170
     0
171
     0
290
     0
174
     0
 93
       13
 44
0.0
173
     0
291
     1
 45
0.0
1001
ACAD
1000
AcDbSavedByObjectVersion
1070
     0
  0
VISUALSTYLE
  5
2C
102
{ACAD_REACTORS
330
2A
102
}
102
{ACAD_XDICTIONARY
360
136
102
}
330
2A
100
AcDbVisualStyle
  2
FlatWithEdges
 70
     1
 71
     2
 72
     1
 73
     1
 90
        2
 40
-0.6
 41
30.0
 62
     5
 63
     7
 74
     1
 91
        4
 64
     7
 65
   257
 75
     1
175
     1
 42
1.0
 92
        0
 66
   257
 43
1.0
 76
     1
 77
     6
 78
     2
 67
     7
 79
     5
170
     0
171
     0
290
     0
174
     0
 93
       13
 44
0.0
173
     0
291
     1
 45
0.0
1001
ACAD
1000
AcDbSavedByObjectVersion
1070
     0
  0
VISUALSTYLE
  5
2D
102
{ACAD_REACTORS
330
2A
102
}
102
{ACAD_XDICTIONARY
360
138
102
}
330
2A
100
AcDbVisualStyle
  2
Gouraud
 70
     2
 71
     2
 72
     2
 73
     1
 90
        2
 40
-0.6
 41
30.0
 62
     5
 63
     7
 74
     0
 91
        4
 64
     7
 65
   257
 75
     1
175
     1
 42
1.0
 92
        0
 66
     7
 43
1.0
 76
     1
 77
     6
 78
     2
 67
     7
 79
     5
170
     0
171
     0
290
     0
174
     0
 93
       13
 44
0.0
173
     0
291
     1
 45
0.0
1001
ACAD
1000
AcDbSavedByObjectVersion
1070
     0
  0
VISUALSTYLE
  5
2E
102
{ACAD_REACTORS
330
2A
102
}
102
{ACAD_XDICTIONARY
360
13A
102
}
330
2A
100
AcDbVisualStyle
  2
GouraudWithEdges
 70
     3
 71
     2
 72
     2
 73
     1
 90
        2
 40
-0.6
 41
30.0
 62
     5
 63
     7
 74
     1
 91
        4
 64
     7
 65
   257
 75
     1
175
     1
 42
1.0
 92
        0
 66
   257
 43
1.0
 76
     1
 77
     6
 78
     2
 67
     7
 79
     5
170
     0
171
     0
290
     0
174
     0
 93
       13
 44
0.0
173
     0
291
     1
 45
0.0
1001
ACAD
1000
AcDbSavedByObjectVersion
1070
     0
  0
VISUALSTYLE
  5
38
102
{ACAD_REACTORS
330
2A
102
}
102
{ACAD_XDICTIONARY
360
14E
102
}
330
2A
100
AcDbVisualStyle
  2
Linepattern
 70
    14
 71
     2
 72
     2
 73
     0
 90
        0
 40
-0.6
 41
-30.0
 62
     5
 63
     7
 74
     1
 91
        4
 64
     7
 65
   257
 75
     7
175
     7
 42
1.0
 92
        8
 66
     7
 43
1.0
 76
     1
 77
     6
 78
     2
 67
     7
 79
     5
170
     0
171
     0
290
     0
174
     0
 93
        1
 44
0.0
173
     0
291
     1
 45
0.0
1001
ACAD
1000
AcDbSavedByObjectVersion
1070
     0
  0
VISUALSTYLE
  5
33
102
{ACAD_REACTORS
330
2A
102
}
102
{ACAD_XDICTIONARY
360
144
102
}
330
2A
100
AcDbVisualStyle
  2
Realistic
 70
     8
 71
     2
 72
     2
 73
     0
 90
        0
 40
-0.6
 41
-30.0
 62
     5
 63
     7
 74
     1
 91
        0
 64
     7
 65
   257
 75
     1
175
     1
 42
1.0
 92
        8
 66
     8
 43
1.0
 76
     1
 77
     6
 78
     2
 67
     7
 79
     5
170
     0
171
     0
290
     0
174
     0
 93
       13
 44
0.0
173
     0
291
     0
 45
0.0
1001
ACAD
1000
AcDbSavedByObjectVersion
1070
     0
  0
VISUALSTYLE
  5
37
102
{ACAD_REACTORS
330
2A
102
}
102
{ACAD_XDICTIONARY
360
14C
102
}
330
2A
100
AcDbVisualStyle
  2
Thicken
 70
    13
 71
     2
 72
     2
 73
     0
 90
        0
 40
-0.6
 41
-30.0
 62
     5
 63
     7
 74
     1
 91
        4
 64
     7
 65
   257
 75
     1
175
     1
 42
1.0
 92
       12
 66
     7
 43
1.0
 76
     1
 77
     6
 78
     2
 67
     7
 79
     5
170
     0
171
     0
290
     0
174
     0
 93
        1
 44
0.0
173
     0
291
     1
 45
0.0
1001
ACAD
1000
AcDbSavedByObjectVersion
1070
     0
  0
DICTIONARYVAR
  5
132
102
{ACAD_REACTORS
330
12D
102
}
330
12D
100
DictionaryVariables
280
     0
  1
2
  0
DICTIONARYVAR
  5
133
102
{ACAD_REACTORS
330
12D
102
}
330
12D
100
DictionaryVariables
280
     0
  1
1
  0
DICTIONARYVAR
  5
131
102
{ACAD_REACTORS
330
12D
102
}
330
12D
100
DictionaryVariables
280
     0
  1
80.000000
  0
DICTIONARYVAR
  5
130
102
{ACAD_REACTORS
330
12D
102
}
330
12D
100
DictionaryVariables
280
     0
  1
5.000000
  0
DICTIONARY
  5
156
330
3D
100
AcDbDictionary
280
     1
281
     1
  3
ACAD_XREC_ROUNDTRIP
360
157
  0
DICTIONARY
  5
154
330
3C
100
AcDbDictionary
280
     1
281
     1
  3
ACAD_XREC_ROUNDTRIP
360
155
  0
DICTIONARY
  5
158
330
3E
100
AcDbDictionary
280
     1
281
     1
  3
ACAD_XREC_ROUNDTRIP
360
159
  0
DICTIONARY
  5
13C
330
2F
100
AcDbDictionary
280
     1
281
     1
  3
ACAD_XREC_ROUNDTRIP
360
13D
  0
DICTIONARY
  5
140
330
31
100
AcDbDictionary
280
     1
281
     1
  3
ACAD_XREC_ROUNDTRIP
360
141
  0
DICTIONARY
  5
13E
330
30
100
AcDbDictionary
280
     1
281
     1
  3
ACAD_XREC_ROUNDTRIP
360
13F
  0
DICTIONARY
  5
142
330
32
100
AcDbDictionary
280
     1
281
     1
  3
ACAD_XREC_ROUNDTRIP
360
143
  0
DICTIONARY
  5
14A
330
36
100
AcDbDictionary
280
     1
281
     1
  3
ACAD_XREC_ROUNDTRIP
360
14B
  0
DICTIONARY
  5
152
330
3A
100
AcDbDictionary
280
     1
281
     1
  3
ACAD_XREC_ROUNDTRIP
360
153
  0
DICTIONARY
  5
146
330
34
100
AcDbDictionary
280
     1
281
     1
  3
ACAD_XREC_ROUNDTRIP
360
147
  0
DICTIONARY
  5
148
330
35
100
AcDbDictionary
280
     1
281
     1
  3
ACAD_XREC_ROUNDTRIP
360
149
  0
DICTIONARY
  5
150
330
39
100
AcDbDictionary
280
     1
281
     1
  3
ACAD_XREC_ROUNDTRIP
360
151
  0
DICTIONARY
  5
134
330
2B
100
AcDbDictionary
280
     1
281
     1
  3
ACAD_XREC_ROUNDTRIP
360
135
  0
DICTIONARY
  5
136
330
2C
100
AcDbDictionary
280
     1
281
     1
  3
ACAD_XREC_ROUNDTRIP
360
137
  0
DICTIONARY
  5
138
330
2D
100
AcDbDictionary
280
     1
281
     1
  3
ACAD_XREC_ROUNDTRIP
360
139
  0
DICTIONARY
  5
13A
330
2E
100
AcDbDictionary
280
     1
281
     1
  3
ACAD_XREC_ROUNDTRIP
360
13B
  0
DICTIONARY
  5
14E
330
38
100
AcDbDictionary
280
     1
281
     1
  3
ACAD_XREC_ROUNDTRIP
360
14F
  0
DICTIONARY
  5
144
330
33
100
AcDbDictionary
280
     1
281
     1
  3
ACAD_XREC_ROUNDTRIP
360
145
  0
DICTIONARY
  5
14C
330
37
100
AcDbDictionary
280
     1
281
     1
  3
ACAD_XREC_ROUNDTRIP
360
14D
  0
XRECORD
  5
157
102
{ACAD_REACTORS
330
156
102
}
330
156
100
AcDbXrecord
280
     1
102
MATERIAL
148
0.0
149
0.0
149
0.0
 93
        0
 94
      127
282
     0
 72
     1
 77
     1
171
     1
175
     1
179
     1
273
     0
  0
XRECORD
  5
155
102
{ACAD_REACTORS
330
154
102
}
330
154
100
AcDbXrecord
280
     1
102
MATERIAL
148
0.0
149
0.0
149
0.0
 93
        0
 94
      127
282
     0
 72
     1
 77
     1
171
     1
175
     1
179
     1
273
     0
  0
XRECORD
  5
159
102
{ACAD_REACTORS
330
158
102
}
330
158
100
AcDbXrecord
280
     1
102
MATERIAL
148
0.0
149
0.0
149
0.0
 93
        0
 94
      127
282
     0
 72
     1
 77
     1
171
     1
175
     1
179
     1
273
     0
  0
XRECORD
  5
13D
102
{ACAD_REACTORS
330
13C
102
}
330
13C
100
AcDbXrecord
280
     1
102
RTVSPropertyOp0
 70
     1
102
RTVSPropertyOp1
 70
     1
102
RTVSPropertyOp2
 70
     1
102
RTVSPropertyOp3
 70
     1
102
RTVSPropertyOp4
 70
     1
102
RTVSPropertyOp5
 70
     1
102
RTVSPropertyOp6
 70
     1
102
RTVSPropertyOp7
 70
     1
102
RTVSPropertyOp8
 70
     1
102
RTVSPropertyOp9
 70
     1
102
RTVSPropertyOp10
 70
     1
102
RTVSPropertyOp11
 70
     1
102
RTVSPropertyOp12
 70
     1
102
RTVSPropertyOp13
 70
     1
102
RTVSPropertyOp14
 70
     1
102
RTVSPropertyOp15
 70
     1
102
RTVSPropertyOp16
 70
     1
102
RTVSPropertyOp17
 70
     1
102
RTVSPropertyOp18
 70
     1
102
RTVSPropertyOp19
 70
     1
102
RTVSPropertyOp20
 70
     1
102
RTVSPropertyOp21
 70
     1
102
RTVSPropertyOp22
 70
     1
102
RTVSPropertyOp23
 70
     1
102
RTVSPropertyOp24
 70
     1
102
RTVSPropertyOp25
 70
     1
102
RTVSPropertyOp26
 70
     1
102
RTVSPropertyOp27
 70
     1
102
RTVSPropertyOp28
 70
     1
102
RTVSPropertyOp29
 70
     1
102
RTVSPropertyOp30
 70
     1
102
RTVSPropertyOp31
 70
     1
102
RTVSPropertyOp32
 70
     1
  0
XRECORD
  5
141
102
{ACAD_REACTORS
330
140
102
}
330
140
100
AcDbXrecord
280
     1
102
RTVSPropertyOp0
 70
     1
102
RTVSPropertyOp1
 70
     1
102
RTVSPropertyOp2
 70
     1
102
RTVSPropertyOp3
 70
     1
102
RTVSPropertyOp4
 70
     1
102
RTVSPropertyOp5
 70
     1
102
RTVSPropertyOp6
 70
     1
102
RTVSPropertyOp7
 70
     1
102
RTVSPropertyOp8
 70
     1
102
RTVSPropertyOp9
 70
     1
102
RTVSPropertyOp10
 70
     1
102
RTVSPropertyOp11
 70
     1
102
RTVSPropertyOp12
 70
     1
102
RTVSPropertyOp13
 70
     1
102
RTVSPropertyOp14
 70
     1
102
RTVSPropertyOp15
 70
     1
102
RTVSPropertyOp16
 70
     1
102
RTVSPropertyOp17
 70
     1
102
RTVSPropertyOp18
 70
     1
102
RTVSPropertyOp19
 70
     1
102
RTVSPropertyOp20
 70
     1
102
RTVSPropertyOp21
 70
     1
102
RTVSPropertyOp22
 70
     1
102
RTVSPropertyOp23
 70
     1
102
RTVSPropertyOp24
 70
     1
102
RTVSPropertyOp25
 70
     1
102
RTVSPropertyOp26
 70
     1
102
RTVSPropertyOp27
 70
     1
102
RTVSPropertyOp28
 70
     1
102
RTVSPropertyOp29
 70
     1
102
RTVSPropertyOp30
 70
     1
102
RTVSPropertyOp31
 70
     1
102
RTVSPropertyOp32
 70
     1
  0
XRECORD
  5
13F
102
{ACAD_REACTORS
330
13E
102
}
330
13E
100
AcDbXrecord
280
     1
102
RTVSPropertyOp0
 70
     1
102
RTVSPropertyOp1
 70
     1
102
RTVSPropertyOp2
 70
     1
102
RTVSPropertyOp3
 70
     1
102
RTVSPropertyOp4
 70
     1
102
RTVSPropertyOp5
 70
     1
102
RTVSPropertyOp6
 70
     1
102
RTVSPropertyOp7
 70
     1
102
RTVSPropertyOp8
 70
     1
102
RTVSPropertyOp9
 70
     1
102
RTVSPropertyOp10
 70
     1
102
RTVSPropertyOp11
 70
     1
102
RTVSPropertyOp12
 70
     1
102
RTVSPropertyOp13
 70
     1
102
RTVSPropertyOp14
 70
     1
102
RTVSPropertyOp15
 70
     1
102
RTVSPropertyOp16
 70
     1
102
RTVSPropertyOp17
 70
     1
102
RTVSPropertyOp18
 70
     1
102
RTVSPropertyOp19
 70
     1
102
RTVSPropertyOp20
 70
     1
102
RTVSPropertyOp21
 70
     1
102
RTVSPropertyOp22
 70
     1
102
RTVSPropertyOp23
 70
     1
102
RTVSPropertyOp24
 70
     1
102
RTVSPropertyOp25
 70
     1
102
RTVSPropertyOp26
 70
     1
102
RTVSPropertyOp27
 70
     1
102
RTVSPropertyOp28
 70
     1
102
RTVSPropertyOp29
 70
     1
102
RTVSPropertyOp30
 70
     1
102
RTVSPropertyOp31
 70
     1
102
RTVSPropertyOp32
 70
     1
  0
XRECORD
  5
143
102
{ACAD_REACTORS
330
142
102
}
330
142
100
AcDbXrecord
280
     1
102
RTVSPropertyOp0
 70
     1
102
RTVSPropertyOp1
 70
     1
102
RTVSPropertyOp2
 70
     1
102
RTVSPropertyOp3
 70
     1
102
RTVSPropertyOp4
 70
     1
102
RTVSPropertyOp5
 70
     1
102
RTVSPropertyOp6
 70
     1
102
RTVSPropertyOp7
 70
     1
102
RTVSPropertyOp8
 70
     1
102
RTVSPropertyOp9
 70
     1
102
RTVSPropertyOp10
 70
     1
102
RTVSPropertyOp11
 70
     1
102
RTVSPropertyOp12
 70
     1
102
RTVSPropertyOp13
 70
     1
102
RTVSPropertyOp14
 70
     1
102
RTVSPropertyOp15
 70
     1
102
RTVSPropertyOp16
 70
     1
102
RTVSPropertyOp17
 70
     1
102
RTVSPropertyOp18
 70
     1
102
RTVSPropertyOp19
 70
     1
102
RTVSPropertyOp20
 70
     1
102
RTVSPropertyOp21
 70
     1
102
RTVSPropertyOp22
 70
     1
102
RTVSPropertyOp23
 70
     1
102
RTVSPropertyOp24
 70
     1
102
RTVSPropertyOp25
 70
     1
102
RTVSPropertyOp26
 70
     1
102
RTVSPropertyOp27
 70
     1
102
RTVSPropertyOp28
 70
     1
102
RTVSPropertyOp29
 70
     1
102
RTVSPropertyOp30
 70
     1
102
RTVSPropertyOp31
 70
     1
102
RTVSPropertyOp32
 70
     1
  0
XRECORD
  5
14B
102
{ACAD_REACTORS
330
14A
102
}
330
14A
100
AcDbXrecord
280
     1
102
RTVSPropertyOp0
 70
     1
102
RTVSPropertyOp1
 70
     1
102
RTVSPropertyOp2
 70
     1
102
RTVSPropertyOp3
 70
     1
102
RTVSPropertyOp4
 70
     1
102
RTVSPropertyOp5
 70
     1
102
RTVSPropertyOp6
 70
     1
102
RTVSPropertyOp7
 70
     1
102
RTVSPropertyOp8
 70
     1
102
RTVSPropertyOp9
 70
     1
102
RTVSPropertyOp10
 70
     1
102
RTVSPropertyOp11
 70
     1
102
RTVSPropertyOp12
 70
     1
102
RTVSPropertyOp13
 70
     1
102
RTVSPropertyOp14
 70
     1
102
RTVSPropertyOp15
 70
     1
102
RTVSPropertyOp16
 70
     1
102
RTVSPropertyOp17
 70
     1
102
RTVSPropertyOp18
 70
     1
102
RTVSPropertyOp19
 70
     1
102
RTVSPropertyOp20
 70
     1
102
RTVSPropertyOp21
 70
     1
102
RTVSPropertyOp22
 70
     1
102
RTVSPropertyOp23
 70
     1
102
RTVSPropertyOp24
 70
     1
102
RTVSPropertyOp25
 70
     1
102
RTVSPropertyOp26
 70
     1
102
RTVSPropertyOp27
 70
     1
102
RTVSPropertyOp28
 70
     1
102
RTVSPropertyOp29
 70
     1
102
RTVSPropertyOp30
 70
     1
102
RTVSPropertyOp31
 70
     1
102
RTVSPropertyOp32
 70
     1
  0
XRECORD
  5
153
102
{ACAD_REACTORS
330
152
102
}
330
152
100
AcDbXrecord
280
     1
102
RTVSPropertyOp0
 70
     1
102
RTVSPropertyOp1
 70
     1
102
RTVSPropertyOp2
 70
     1
102
RTVSPropertyOp3
 70
     1
102
RTVSPropertyOp4
 70
     1
102
RTVSPropertyOp5
 70
     1
102
RTVSPropertyOp6
 70
     1
102
RTVSPropertyOp7
 70
     1
102
RTVSPropertyOp8
 70
     1
102
RTVSPropertyOp9
 70
     1
102
RTVSPropertyOp10
 70
     1
102
RTVSPropertyOp11
 70
     1
102
RTVSPropertyOp12
 70
     1
102
RTVSPropertyOp13
 70
     1
102
RTVSPropertyOp14
 70
     1
102
RTVSPropertyOp15
 70
     1
102
RTVSPropertyOp16
 70
     1
102
RTVSPropertyOp17
 70
     1
102
RTVSPropertyOp18
 70
     1
102
RTVSPropertyOp19
 70
     1
102
RTVSPropertyOp20
 70
     1
102
RTVSPropertyOp21
 70
     1
102
RTVSPropertyOp22
 70
     1
102
RTVSPropertyOp23
 70
     1
102
RTVSPropertyOp24
 70
     1
102
RTVSPropertyOp25
 70
     1
102
RTVSPropertyOp26
 70
     1
102
RTVSPropertyOp27
 70
     1
102
RTVSPropertyOp28
 70
     1
102
RTVSPropertyOp29
 70
     1
102
RTVSPropertyOp30
 70
     1
102
RTVSPropertyOp31
 70
     1
102
RTVSPropertyOp32
 70
     1
  0
XRECORD
  5
147
102
{ACAD_REACTORS
330
146
102
}
330
146
100
AcDbXrecord
280
     1
102
RTVSPropertyOp0
 70
     1
102
RTVSPropertyOp1
 70
     1
102
RTVSPropertyOp2
 70
     1
102
RTVSPropertyOp3
 70
     1
102
RTVSPropertyOp4
 70
     1
102
RTVSPropertyOp5
 70
     1
102
RTVSPropertyOp6
 70
     1
102
RTVSPropertyOp7
 70
     1
102
RTVSPropertyOp8
 70
     1
102
RTVSPropertyOp9
 70
     1
102
RTVSPropertyOp10
 70
     1
102
RTVSPropertyOp11
 70
     1
102
RTVSPropertyOp12
 70
     1
102
RTVSPropertyOp13
 70
     1
102
RTVSPropertyOp14
 70
     1
102
RTVSPropertyOp15
 70
     1
102
RTVSPropertyOp16
 70
     1
102
RTVSPropertyOp17
 70
     1
102
RTVSPropertyOp18
 70
     1
102
RTVSPropertyOp19
 70
     1
102
RTVSPropertyOp20
 70
     1
102
RTVSPropertyOp21
 70
     1
102
RTVSPropertyOp22
 70
     1
102
RTVSPropertyOp23
 70
     1
102
RTVSPropertyOp24
 70
     1
102
RTVSPropertyOp25
 70
     1
102
RTVSPropertyOp26
 70
     1
102
RTVSPropertyOp27
 70
     1
102
RTVSPropertyOp28
 70
     1
102
RTVSPropertyOp29
 70
     1
102
RTVSPropertyOp30
 70
     1
102
RTVSPropertyOp31
 70
     1
102
RTVSPropertyOp32
 70
     1
  0
XRECORD
  5
149
102
{ACAD_REACTORS
330
148
102
}
330
148
100
AcDbXrecord
280
     1
102
RTVSPropertyOp0
 70
     1
102
RTVSPropertyOp1
 70
     1
102
RTVSPropertyOp2
 70
     1
102
RTVSPropertyOp3
 70
     1
102
RTVSPropertyOp4
 70
     1
102
RTVSPropertyOp5
 70
     1
102
RTVSPropertyOp6
 70
     1
102
RTVSPropertyOp7
 70
     1
102
RTVSPropertyOp8
 70
     1
102
RTVSPropertyOp9
 70
     1
102
RTVSPropertyOp10
 70
     1
102
RTVSPropertyOp11
 70
     1
102
RTVSPropertyOp12
 70
     1
102
RTVSPropertyOp13
 70
     1
102
RTVSPropertyOp14
 70
     1
102
RTVSPropertyOp15
 70
     1
102
RTVSPropertyOp16
 70
     1
102
RTVSPropertyOp17
 70
     1
102
RTVSPropertyOp18
 70
     1
102
RTVSPropertyOp19
 70
     1
102
RTVSPropertyOp20
 70
     1
102
RTVSPropertyOp21
 70
     1
102
RTVSPropertyOp22
 70
     1
102
RTVSPropertyOp23
 70
     1
102
RTVSPropertyOp24
 70
     1
102
RTVSPropertyOp25
 70
     1
102
RTVSPropertyOp26
 70
     1
102
RTVSPropertyOp27
 70
     1
102
RTVSPropertyOp28
 70
     1
102
RTVSPropertyOp29
 70
     1
102
RTVSPropertyOp30
 70
     1
102
RTVSPropertyOp31
 70
     1
102
RTVSPropertyOp32
 70
     1
  0
XRECORD
  5
151
102
{ACAD_REACTORS
330
150
102
}
330
150
100
AcDbXrecord
280
     1
102
RTVSPropertyOp0
 70
     1
102
RTVSPropertyOp1
 70
     1
102
RTVSPropertyOp2
 70
     1
102
RTVSPropertyOp3
 70
     1
102
RTVSPropertyOp4
 70
     1
102
RTVSPropertyOp5
 70
     1
102
RTVSPropertyOp6
 70
     1
102
RTVSPropertyOp7
 70
     1
102
RTVSPropertyOp8
 70
     1
102
RTVSPropertyOp9
 70
     1
102
RTVSPropertyOp10
 70
     1
102
RTVSPropertyOp11
 70
     1
102
RTVSPropertyOp12
 70
     1
102
RTVSPropertyOp13
 70
     1
102
RTVSPropertyOp14
 70
     1
102
RTVSPropertyOp15
 70
     1
102
RTVSPropertyOp16
 70
     1
102
RTVSPropertyOp17
 70
     1
102
RTVSPropertyOp18
 70
     1
102
RTVSPropertyOp19
 70
     1
102
RTVSPropertyOp20
 70
     1
102
RTVSPropertyOp21
 70
     1
102
RTVSPropertyOp22
 70
     1
102
RTVSPropertyOp23
 70
     1
102
RTVSPropertyOp24
 70
     1
102
RTVSPropertyOp25
 70
     1
102
RTVSPropertyOp26
 70
     1
102
RTVSPropertyOp27
 70
     1
102
RTVSPropertyOp28
 70
     1
102
RTVSPropertyOp29
 70
     1
102
RTVSPropertyOp30
 70
     1
102
RTVSPropertyOp31
 70
     1
102
RTVSPropertyOp32
 70
     1
  0
XRECORD
  5
135
102
{ACAD_REACTORS
330
134
102
}
330
134
100
AcDbXrecord
280
     1
102
RTVSPropertyOp0
 70
     1
102
RTVSPropertyOp1
 70
     1
102
RTVSPropertyOp2
 70
     1
102
RTVSPropertyOp3
 70
     1
102
RTVSPropertyOp4
 70
     1
102
RTVSPropertyOp5
 70
     1
102
RTVSPropertyOp6
 70
     1
102
RTVSPropertyOp7
 70
     1
102
RTVSPropertyOp8
 70
     1
102
RTVSPropertyOp9
 70
     1
102
RTVSPropertyOp10
 70
     1
102
RTVSPropertyOp11
 70
     1
102
RTVSPropertyOp12
 70
     1
102
RTVSPropertyOp13
 70
     1
102
RTVSPropertyOp14
 70
     1
102
RTVSPropertyOp15
 70
     1
102
RTVSPropertyOp16
 70
     1
102
RTVSPropertyOp17
 70
     1
102
RTVSPropertyOp18
 70
     1
102
RTVSPropertyOp19
 70
     1
102
RTVSPropertyOp20
 70
     1
102
RTVSPropertyOp21
 70
     1
102
RTVSPropertyOp22
 70
     1
102
RTVSPropertyOp23
 70
     1
102
RTVSPropertyOp24
 70
     1
102
RTVSPropertyOp25
 70
     1
102
RTVSPropertyOp26
 70
     1
102
RTVSPropertyOp27
 70
     1
102
RTVSPropertyOp28
 70
     1
102
RTVSPropertyOp29
 70
     1
102
RTVSPropertyOp30
 70
     1
102
RTVSPropertyOp31
 70
     1
102
RTVSPropertyOp32
 70
     1
  0
XRECORD
  5
137
102
{ACAD_REACTORS
330
136
102
}
330
136
100
AcDbXrecord
280
     1
102
RTVSPropertyOp0
 70
     1
102
RTVSPropertyOp1
 70
     1
102
RTVSPropertyOp2
 70
     1
102
RTVSPropertyOp3
 70
     1
102
RTVSPropertyOp4
 70
     1
102
RTVSPropertyOp5
 70
     1
102
RTVSPropertyOp6
 70
     1
102
RTVSPropertyOp7
 70
     1
102
RTVSPropertyOp8
 70
     1
102
RTVSPropertyOp9
 70
     1
102
RTVSPropertyOp10
 70
     1
102
RTVSPropertyOp11
 70
     1
102
RTVSPropertyOp12
 70
     1
102
RTVSPropertyOp13
 70
     1
102
RTVSPropertyOp14
 70
     1
102
RTVSPropertyOp15
 70
     1
102
RTVSPropertyOp16
 70
     1
102
RTVSPropertyOp17
 70
     1
102
RTVSPropertyOp18
 70
     1
102
RTVSPropertyOp19
 70
     1
102
RTVSPropertyOp20
 70
     1
102
RTVSPropertyOp21
 70
     1
102
RTVSPropertyOp22
 70
     1
102
RTVSPropertyOp23
 70
     1
102
RTVSPropertyOp24
 70
     1
102
RTVSPropertyOp25
 70
     1
102
RTVSPropertyOp26
 70
     1
102
RTVSPropertyOp27
 70
     1
102
RTVSPropertyOp28
 70
     1
102
RTVSPropertyOp29
 70
     1
102
RTVSPropertyOp30
 70
     1
102
RTVSPropertyOp31
 70
     1
102
RTVSPropertyOp32
 70
     1
  0
XRECORD
  5
139
102
{ACAD_REACTORS
330
138
102
}
330
138
100
AcDbXrecord
280
     1
102
RTVSPropertyOp0
 70
     1
102
RTVSPropertyOp1
 70
     1
102
RTVSPropertyOp2
 70
     1
102
RTVSPropertyOp3
 70
     1
102
RTVSPropertyOp4
 70
     1
102
RTVSPropertyOp5
 70
     1
102
RTVSPropertyOp6
 70
     1
102
RTVSPropertyOp7
 70
     1
102
RTVSPropertyOp8
 70
     1
102
RTVSPropertyOp9
 70
     1
102
RTVSPropertyOp10
 70
     1
102
RTVSPropertyOp11
 70
     1
102
RTVSPropertyOp12
 70
     1
102
RTVSPropertyOp13
 70
     1
102
RTVSPropertyOp14
 70
     1
102
RTVSPropertyOp15
 70
     1
102
RTVSPropertyOp16
 70
     1
102
RTVSPropertyOp17
 70
     1
102
RTVSPropertyOp18
 70
     1
102
RTVSPropertyOp19
 70
     1
102
RTVSPropertyOp20
 70
     1
102
RTVSPropertyOp21
 70
     1
102
RTVSPropertyOp22
 70
     1
102
RTVSPropertyOp23
 70
     1
102
RTVSPropertyOp24
 70
     1
102
RTVSPropertyOp25
 70
     1
102
RTVSPropertyOp26
 70
     1
102
RTVSPropertyOp27
 70
     1
102
RTVSPropertyOp28
 70
     1
102
RTVSPropertyOp29
 70
     1
102
RTVSPropertyOp30
 70
     1
102
RTVSPropertyOp31
 70
     1
102
RTVSPropertyOp32
 70
     1
  0
XRECORD
  5
13B
102
{ACAD_REACTORS
330
13A
102
}
330
13A
100
AcDbXrecord
280
     1
102
RTVSPropertyOp0
 70
     1
102
RTVSPropertyOp1
 70
     1
102
RTVSPropertyOp2
 70
     1
102
RTVSPropertyOp3
 70
     1
102
RTVSPropertyOp4
 70
     1
102
RTVSPropertyOp5
 70
     1
102
RTVSPropertyOp6
 70
     1
102
RTVSPropertyOp7
 70
     1
102
RTVSPropertyOp8
 70
     1
102
RTVSPropertyOp9
 70
     1
102
RTVSPropertyOp10
 70
     1
102
RTVSPropertyOp11
 70
     1
102
RTVSPropertyOp12
 70
     1
102
RTVSPropertyOp13
 70
     1
102
RTVSPropertyOp14
 70
     1
102
RTVSPropertyOp15
 70
     1
102
RTVSPropertyOp16
 70
     1
102
RTVSPropertyOp17
 70
     1
102
RTVSPropertyOp18
 70
     1
102
RTVSPropertyOp19
 70
     1
102
RTVSPropertyOp20
 70
     1
102
RTVSPropertyOp21
 70
     1
102
RTVSPropertyOp22
 70
     1
102
RTVSPropertyOp23
 70
     1
102
RTVSPropertyOp24
 70
     1
102
RTVSPropertyOp25
 70
     1
102
RTVSPropertyOp26
 70
     1
102
RTVSPropertyOp27
 70
     1
102
RTVSPropertyOp28
 70
     1
102
RTVSPropertyOp29
 70
     1
102
RTVSPropertyOp30
 70
     1
102
RTVSPropertyOp31
 70
     1
102
RTVSPropertyOp32
 70
     1
  0
XRECORD
  5
14F
102
{ACAD_REACTORS
330
14E
102
}
330
14E
100
AcDbXrecord
280
     1
102
RTVSPropertyOp0
 70
     1
102
RTVSPropertyOp1
 70
     1
102
RTVSPropertyOp2
 70
     1
102
RTVSPropertyOp3
 70
     1
102
RTVSPropertyOp4
 70
     1
102
RTVSPropertyOp5
 70
     1
102
RTVSPropertyOp6
 70
     1
102
RTVSPropertyOp7
 70
     1
102
RTVSPropertyOp8
 70
     1
102
RTVSPropertyOp9
 70
     1
102
RTVSPropertyOp10
 70
     1
102
RTVSPropertyOp11
 70
     1
102
RTVSPropertyOp12
 70
     1
102
RTVSPropertyOp13
 70
     1
102
RTVSPropertyOp14
 70
     1
102
RTVSPropertyOp15
 70
     1
102
RTVSPropertyOp16
 70
     1
102
RTVSPropertyOp17
 70
     1
102
RTVSPropertyOp18
 70
     1
102
RTVSPropertyOp19
 70
     1
102
RTVSPropertyOp20
 70
     1
102
RTVSPropertyOp21
 70
     1
102
RTVSPropertyOp22
 70
     1
102
RTVSPropertyOp23
 70
     1
102
RTVSPropertyOp24
 70
     1
102
RTVSPropertyOp25
 70
     1
102
RTVSPropertyOp26
 70
     1
102
RTVSPropertyOp27
 70
     1
102
RTVSPropertyOp28
 70
     1
102
RTVSPropertyOp29
 70
     1
102
RTVSPropertyOp30
 70
     1
102
RTVSPropertyOp31
 70
     1
102
RTVSPropertyOp32
 70
     1
  0
XRECORD
  5
145
102
{ACAD_REACTORS
330
144
102
}
330
144
100
AcDbXrecord
280
     1
102
RTVSPropertyOp0
 70
     1
102
RTVSPropertyOp1
 70
     1
102
RTVSPropertyOp2
 70
     1
102
RTVSPropertyOp3
 70
     1
102
RTVSPropertyOp4
 70
     1
102
RTVSPropertyOp5
 70
     1
102
RTVSPropertyOp6
 70
     1
102
RTVSPropertyOp7
 70
     1
102
RTVSPropertyOp8
 70
     1
102
RTVSPropertyOp9
 70
     1
102
RTVSPropertyOp10
 70
     1
102
RTVSPropertyOp11
 70
     1
102
RTVSPropertyOp12
 70
     1
102
RTVSPropertyOp13
 70
     1
102
RTVSPropertyOp14
 70
     1
102
RTVSPropertyOp15
 70
     1
102
RTVSPropertyOp16
 70
     1
102
RTVSPropertyOp17
 70
     1
102
RTVSPropertyOp18
 70
     1
102
RTVSPropertyOp19
 70
     1
102
RTVSPropertyOp20
 70
     1
102
RTVSPropertyOp21
 70
     1
102
RTVSPropertyOp22
 70
     1
102
RTVSPropertyOp23
 70
     1
102
RTVSPropertyOp24
 70
     1
102
RTVSPropertyOp25
 70
     1
102
RTVSPropertyOp26
 70
     1
102
RTVSPropertyOp27
 70
     1
102
RTVSPropertyOp28
 70
     1
102
RTVSPropertyOp29
 70
     1
102
RTVSPropertyOp30
 70
     1
102
RTVSPropertyOp31
 70
     1
102
RTVSPropertyOp32
 70
     1
  0
XRECORD
  5
14D
102
{ACAD_REACTORS
330
14C
102
}
330
14C
100
AcDbXrecord
280
     1
102
RTVSPropertyOp0
 70
     1
102
RTVSPropertyOp1
 70
     1
102
RTVSPropertyOp2
 70
     1
102
RTVSPropertyOp3
 70
     1
102
RTVSPropertyOp4
 70
     1
102
RTVSPropertyOp5
 70
     1
102
RTVSPropertyOp6
 70
     1
102
RTVSPropertyOp7
 70
     1
102
RTVSPropertyOp8
 70
     1
102
RTVSPropertyOp9
 70
     1
102
RTVSPropertyOp10
 70
     1
102
RTVSPropertyOp11
 70
     1
102
RTVSPropertyOp12
 70
     1
102
RTVSPropertyOp13
 70
     1
102
RTVSPropertyOp14
 70
     1
102
RTVSPropertyOp15
 70
     1
102
RTVSPropertyOp16
 70
     1
102
RTVSPropertyOp17
 70
     1
102
RTVSPropertyOp18
 70
     1
102
RTVSPropertyOp19
 70
     1
102
RTVSPropertyOp20
 70
     1
102
RTVSPropertyOp21
 70
     1
102
RTVSPropertyOp22
 70
     1
102
RTVSPropertyOp23
 70
     1
102
RTVSPropertyOp24
 70
     1
102
RTVSPropertyOp25
 70
     1
102
RTVSPropertyOp26
 70
     1
102
RTVSPropertyOp27
 70
     1
102
RTVSPropertyOp28
 70
     1
102
RTVSPropertyOp29
 70
     1
102
RTVSPropertyOp30
 70
     1
102
RTVSPropertyOp31
 70
     1
102
RTVSPropertyOp32
 70
     1
  0
ENDSEC
  0
EOF
