  0
SECTION
  2
HEADER
  9
$ACADVER
  1
AC1015
  9
$ACADMAINTVER
 70
     6
  9
$DWGCODEPAGE
  3
ANSI_1252
  9
$INSBASE
 10
0.0
 20
0.0
 30
0.0
  9
$EXTMIN
 10
0.0
 20
0.0
 30
0.0
  9
$EXTMAX
 10
210.0
 20
297.0
 30
0.0
  9
$LIMMIN
 10
0.0
 20
0.0
  9
$LIMMAX
 10
210.0
 20
297.0
  9
$ORTHOMODE
 70
     0
  9
$REGENMODE
 70
     1
  9
$FILLMODE
 70
     1
  9
$QTEXTMODE
 70
     0
  9
$MIRRTEXT
 70
     1
  9
$LTSCALE
 40
1.0
  9
$ATTMODE
 70
     1
  9
$TEXTSIZE
 40
2.5
  9
$TRACEWID
 40
1.0
  9
$TEXTSTYLE
  7
Standard
  9
$CLAYER
  8
0
  9
$CELTYPE
  6
ByLayer
  9
$CECOLOR
 62
   256
  9
$CELTSCALE
 40
1.0
  9
$DISPSILH
 70
     0
  9
$DIMSCALE
 40
1.0
  9
$DIMASZ
 40
2.5
  9
$DIMEXO
 40
0.625
  9
$DIMDLI
 40
3.75
  9
$DIMRND
 40
0.0
  9
$DIMDLE
 40
0.0
  9
$DIMEXE
 40
1.25
  9
$DIMTP
 40
0.0
  9
$DIMTM
 40
0.0
  9
$DIMTXT
 40
2.5
  9
$DIMCEN
 40
2.5
  9
$DIMTSZ
 40
0.0
  9
$DIMTOL
 70
     0
  9
$DIMLIM
 70
     0
  9
$DIMTIH
 70
     0
  9
$DIMTOH
 70
     0
  9
$DIMSE1
 70
     0
  9
$DIMSE2
 70
     0
  9
$DIMTAD
 70
     1
  9
$DIMZIN
 70
     8
  9
$DIMBLK
  1

  9
$DIMASO
 70
     1
  9
$DIMSHO
 70
     1
  9
$DIMPOST
  1

  9
$DIMAPOST
  1

  9
$DIMALT
 70
     0
  9
$DIMALTD
 70
     3
  9
$DIMALTF
 40
0.0393700787
  9
$DIMLFAC
 40
1.0
  9
$DIMTOFL
 70
     1
  9
$DIMTVP
 40
0.0
  9
$DIMTIX
 70
     0
  9
$DIMSOXD
 70
     0
  9
$DIMSAH
 70
     0
  9
$DIMBLK1
  1

  9
$DIMBLK2
  1

  9
$DIMSTYLE
  2
ISO-25
  9
$DIMCLRD
 70
     0
  9
$DIMCLRE
 70
     0
  9
$DIMCLRT
 70
     0
  9
$DIMTFAC
 40
1.0
  9
$DIMGAP
 40
0.625
  9
$DIMJUST
 70
     0
  9
$DIMSD1
 70
     0
  9
$DIMSD2
 70
     0
  9
$DIMTOLJ
 70
     0
  9
$DIMTZIN
 70
     8
  9
$DIMALTZ
 70
     0
  9
$DIMALTTZ
 70
     0
  9
$DIMUPT
 70
     0
  9
$DIMDEC
 70
     2
  9
$DIMTDEC
 70
     2
  9
$DIMALTU
 70
     2
  9
$DIMALTTD
 70
     3
  9
$DIMTXSTY
  7
Standard
  9
$DIMAUNIT
 70
     0
  9
$DIMADEC
 70
     0
  9
$DIMALTRND
 40
0.0
  9
$DIMAZIN
 70
     0
  9
$DIMDSEP
 70
    44
  9
$DIMATFIT
 70
     3
  9
$DIMFRAC
 70
     0
  9
$DIMLDRBLK
  1

  9
$DIMLUNIT
 70
     2
  9
$DIMLWD
 70
    -2
  9
$DIMLWE
 70
    -2
  9
$DIMTMOVE
 70
     0
  9
$LUNITS
 70
     2
  9
$LUPREC
 70
     4
  9
$SKETCHINC
 40
1.0
  9
$FILLETRAD
 40
10.0
  9
$AUNITS
 70
     0
  9
$AUPREC
 70
     0
  9
$MENU
  1
.
  9
$ELEVATION
 40
0.0
  9
$PELEVATION
 40
0.0
  9
$THICKNESS
 40
0.0
  9
$LIMCHECK
 70
     0
  9
$CHAMFERA
 40
10.0
  9
$CHAMFERB
 40
10.0
  9
$CHAMFERC
 40
20.0
  9
$CHAMFERD
 40
0.0
  9
$SKPOLY
 70
     0
  9
$TDCREATE
 40
2457564.35170478
  9
$TDUCREATE
 40
2457564.268371447
  9
$TDUPDATE
 40
2457564.351706262
  9
$TDUUPDATE
 40
2457564.268372928
  9
$TDINDWG
 40
0.0000000116
  9
$TDUSRTIMER
 40
0.0000000116
  9
$USRTIMER
 70
     1
  9
$ANGBASE
 50
0.0
  9
$ANGDIR
 70
     0
  9
$PDMODE
 70
     0
  9
$PDSIZE
 40
0.0
  9
$PLINEWID
 40
0.0
  9
$SPLFRAME
 70
     0
  9
$SPLINETYPE
 70
     6
  9
$SPLINESEGS
 70
     8
  9
$HANDSEED
  5
157
  9
$SURFTAB1
 70
     6
  9
$SURFTAB2
 70
     6
  9
$SURFTYPE
 70
     6
  9
$SURFU
 70
     6
  9
$SURFV
 70
     6
  9
$UCSBASE
  2

  9
$UCSNAME
  2

  9
$UCSORG
 10
0.0
 20
0.0
 30
0.0
  9
$UCSXDIR
 10
1.0
 20
0.0
 30
0.0
  9
$UCSYDIR
 10
0.0
 20
1.0
 30
0.0
  9
$UCSORTHOREF
  2

  9
$UCSORTHOVIEW
 70
     0
  9
$UCSORGTOP
 10
0.0
 20
0.0
 30
0.0
  9
$UCSORGBOTTOM
 10
0.0
 20
0.0
 30
0.0
  9
$UCSORGLEFT
 10
0.0
 20
0.0
 30
0.0
  9
$UCSORGRIGHT
 10
0.0
 20
0.0
 30
0.0
  9
$UCSORGFRONT
 10
0.0
 20
0.0
 30
0.0
  9
$UCSORGBACK
 10
0.0
 20
0.0
 30
0.0
  9
$PUCSBASE
  2

  9
$PUCSNAME
  2

  9
$PUCSORG
 10
0.0
 20
0.0
 30
0.0
  9
$PUCSXDIR
 10
1.0
 20
0.0
 30
0.0
  9
$PUCSYDIR
 10
0.0
 20
1.0
 30
0.0
  9
$PUCSORTHOREF
  2

  9
$PUCSORTHOVIEW
 70
     0
  9
$PUCSORGTOP
 10
0.0
 20
0.0
 30
0.0
  9
$PUCSORGBOTTOM
 10
0.0
 20
0.0
 30
0.0
  9
$PUCSORGLEFT
 10
0.0
 20
0.0
 30
0.0
  9
$PUCSORGRIGHT
 10
0.0
 20
0.0
 30
0.0
  9
$PUCSORGFRONT
 10
0.0
 20
0.0
 30
0.0
  9
$PUCSORGBACK
 10
0.0
 20
0.0
 30
0.0
  9
$USERI1
 70
     0
  9
$USERI2
 70
     0
  9
$USERI3
 70
     0
  9
$USERI4
 70
     0
  9
$USERI5
 70
     0
  9
$USERR1
 40
0.0
  9
$USERR2
 40
0.0
  9
$USERR3
 40
0.0
  9
$USERR4
 40
0.0
  9
$USERR5
 40
0.0
  9
$WORLDVIEW
 70
     1
  9
$SHADEDGE
 70
     3
  9
$SHADEDIF
 70
    70
  9
$TILEMODE
 70
     1
  9
$MAXACTVP
 70
    64
  9
$PINSBASE
 10
0.0
 20
0.0
 30
0.0
  9
$PLIMCHECK
 70
     0
  9
$PEXTMIN
 10
0.0
 20
0.0
 30
0.0
  9
$PEXTMAX
 10
210.0
 20
297.0
 30
0.0
  9
$PLIMMIN
 10
0.0
 20
0.0
  9
$PLIMMAX
 10
210.0
 20
297.0
  9
$UNITMODE
 70
     0
  9
$VISRETAIN
 70
     1
  9
$PLINEGEN
 70
     0
  9
$PSLTSCALE
 70
     1
  9
$TREEDEPTH
 70
  3020
  9
$CMLSTYLE
  2
Standard
  9
$CMLJUST
 70
     0
  9
$CMLSCALE
 40
20.0
  9
$PROXYGRAPHICS
 70
     1
  9
$MEASUREMENT
 70
     1
  9
$CELWEIGHT
370
    -1
  9
$ENDCAPS
280
     0
  9
$JOINSTYLE
280
     0
  9
$LWDISPLAY
290
     0
  9
$INSUNITS
 70
     4
  9
$HYPERLINKBASE
  1

  9
$STYLESHEET
  1

  9
$XEDIT
290
     1
  9
$CEPSNTYPE
380
     0
  9
$PSTYLEMODE
290
     1
  9
$FINGERPRINTGUID
  2
{5406917B-49A6-44D1-90CD-20A8471EFE92}
  9
$VERSIONGUID
  2
{FAEB1C32-E019-11D5-929B-00C0DF256EC4}
  9
$EXTNAMES
290
     1
  9
$PSVPSCALE
 40
0.0
  9
$OLESTARTUP
290
     0
  0
ENDSEC
  0
SECTION
  2
CLASSES
  0
CLASS
  1
ACDBDICTIONARYWDFLT
  2
AcDbDictionaryWithDefault
  3
ObjectDBX Classes
 90
        0
280
     0
281
     0
  0
CLASS
  1
VISUALSTYLE
  2
AcDbVisualStyle
  3
ObjectDBX Classes
 90
     4095
280
     0
281
     0
  0
CLASS
  1
MATERIAL
  2
AcDbMaterial
  3
ObjectDBX Classes
 90
     1153
280
     0
281
     0
  0
CLASS
  1
DICTIONARYVAR
  2
AcDbDictionaryVar
  3
ObjectDBX Classes
 90
        0
280
     0
281
     0
  0
CLASS
  1
ACDBPLACEHOLDER
  2
AcDbPlaceHolder
  3
ObjectDBX Classes
 90
        0
280
     0
281
     0
  0
CLASS
  1
LAYOUT
  2
AcDbLayout
  3
ObjectDBX Classes
 90
        0
280
     0
281
     0
  0
ENDSEC
  0
SECTION
  2
TABLES
  0
TABLE
  2
VPORT
  5
8
330
0
100
AcDbSymbolTable
 70
     1
  0
VPORT
  5
29
330
8
100
AcDbSymbolTableRecord
100
AcDbViewportTableRecord
  2
*Active
 70
     0
 10
0.0
 20
0.0
 11
1.0
 21
1.0
 12
344.1869158879
 22
148.5
 13
0.0
 23
0.0
 14
10.0
 24
10.0
 15
10.0
 25
10.0
 16
0.0
 26
0.0
 36
1.0
 17
0.0
 27
0.0
 37
0.0
 40
297.0
 41
1.9729729729
 42
50.0
 43
0.0
 44
0.0
 50
0.0
 51
0.0
 71
     0
 72
   100
 73
     1
 74
     3
 75
     0
 76
     0
 77
     0
 78
     0
281
     0
 65
     1
110
0.0
120
0.0
130
0.0
111
1.0
121
0.0
131
0.0
112
0.0
122
1.0
132
0.0
 79
     0
146
0.0
  0
ENDTAB
  0
TABLE
  2
LTYPE
  5
5
330
0
100
AcDbSymbolTable
 70
     4
  0
LTYPE
  5
14
330
5
100
AcDbSymbolTableRecord
100
AcDbLinetypeTableRecord
  2
ByBlock
 70
     0
  3

 72
    65
 73
     0
 40
0.0
  0
LTYPE
  5
15
330
5
100
AcDbSymbolTableRecord
100
AcDbLinetypeTableRecord
  2
ByLayer
 70
     0
  3

 72
    65
 73
     0
 40
0.0
  0
LTYPE
  5
16
330
5
100
AcDbSymbolTableRecord
100
AcDbLinetypeTableRecord
  2
Continuous
 70
     0
  3
Solid line
 72
    65
 73
     0
 40
0.0
  0
LTYPE
  5
53
330
5
100
AcDbSymbolTableRecord
100
AcDbLinetypeTableRecord
  2
HIDDEN2
 70
     0
  3
Hidden (.5x) _ _ _ _ _ _ _ _ _ _ _ _ _ _ _ _ _ 
 72
    65
 73
     2
 40
4.7625
 49
3.175
 74
     4
 75
     0
340
0
 46
0.0
 50
0.0
 44
0.0
 45
0.0
 49
-1.5875
 74
     4
 75
     0
340
0
 46
0.0
 50
0.0
 44
0.0
 45
0.0
  0
LTYPE
  5
D6
330
5
100
AcDbSymbolTableRecord
100
AcDbLinetypeTableRecord
  2
CENTER2
 70
     0
  3
Center (.5x) ___ _ ___ _ ___ _ ___ _ ___ _ ___
 72
    65
 73
     4
 40
28.575
 49
19.05
 74
     4
 75
     0
340
0
 46
0.0
 50
0.0
 44
0.0
 45
0.0
 49
-3.175
 74
     4
 75
     0
340
0
 46
0.0
 50
0.0
 44
0.0
 45
0.0
 49
3.175
 74
     4
 75
     0
340
0
 46
0.0
 50
0.0
 44
0.0
 45
0.0
 49
-3.175
 74
     4
 75
     0
340
0
 46
0.0
 50
0.0
 44
0.0
 45
0.0
  0
LTYPE
  5
D8
330
5
100
AcDbSymbolTableRecord
100
AcDbLinetypeTableRecord
  2
PHANTOM2
 70
     0
  3
Phantom (.5x) ___ _ _ ___ _ _ ___ _ _ ___ _ _
 72
    65
 73
     6
 40
31.75
 49
15.875
 74
     4
 75
     0
340
0
 46
0.0
 50
0.0
 44
0.0
 45
0.0
 49
-3.175
 74
     4
 75
     0
340
0
 46
0.0
 50
0.0
 44
0.0
 45
0.0
 49
3.175
 74
     4
 75
     0
340
0
 46
0.0
 50
0.0
 44
0.0
 45
0.0
 49
-3.175
 74
     4
 75
     0
340
0
 46
0.0
 50
0.0
 44
0.0
 45
0.0
 49
3.175
 74
     4
 75
     0
340
0
 46
0.0
 50
0.0
 44
0.0
 45
0.0
 49
-3.175
 74
     4
 75
     0
340
0
 46
0.0
 50
0.0
 44
0.0
 45
0.0
  0
ENDTAB
  0
TABLE
  2
LAYER
  5
2
330
0
100
AcDbSymbolTable
 70
     5
  0
LAYER
  5
10
330
2
100
AcDbSymbolTableRecord
100
AcDbLayerTableRecord
  2
0
 70
     0
 62
     7
  6
Continuous
370
    -3
390
F
  0
LAYER
  5
3F
330
2
100
AcDbSymbolTableRecord
100
AcDbLayerTableRecord
  2
SK1
 70
     0
 62
     4
  6
Continuous
370
    18
390
F
  0
LAYER
  5
52
330
2
100
AcDbSymbolTableRecord
100
AcDbLayerTableRecord
  2
SK3
 70
     0
 62
     1
  6
HIDDEN2
370
    15
390
F
  0
LAYER
  5
D5
330
2
100
AcDbSymbolTableRecord
100
AcDbLayerTableRecord
  2
SK4
 70
     0
 62
     2
  6
Continuous
370
    13
390
F
  0
LAYER
  5
DB
330
2
100
AcDbSymbolTableRecord
100
AcDbLayerTableRecord
  2
SK2
 70
     0
 62
     7
  6
Continuous
370
    15
390
F
  0
ENDTAB
  0
TABLE
  2
STYLE
  5
3
330
0
100
AcDbSymbolTable
 70
     2
  0
STYLE
  5
11
330
3
100
AcDbSymbolTableRecord
100
AcDbTextStyleTableRecord
  2
Standard
 70
     0
 40
0.0
 41
1.0
 50
0.0
 71
     0
 42
2.5
  3
txt
  4

  0
STYLE
  5
EE
330
3
100
AcDbSymbolTableRecord
100
AcDbTextStyleTableRecord
  2
SEACAD_Solid_Edge_ISO
 70
     0
 40
0.0
 41
1.0
 50
0.0
 71
     0
 42
0.2
  3
seiso.ttf
  4

1001
ACAD
1000
Solid Edge ISO
1071
        0
  0
ENDTAB
  0
TABLE
  2
VIEW
  5
6
330
0
100
AcDbSymbolTable
 70
     0
  0
ENDTAB
  0
TABLE
  2
UCS
  5
7
330
0
100
AcDbSymbolTable
 70
     0
  0
ENDTAB
  0
TABLE
  2
APPID
  5
9
330
0
100
AcDbSymbolTable
 70
     1
  0
APPID
  5
12
330
9
100
AcDbSymbolTableRecord
100
AcDbRegAppTableRecord
  2
ACAD
 70
     0
  0
ENDTAB
  0
TABLE
  2
DIMSTYLE
  5
A
330
0
100
AcDbSymbolTable
 70
     3
100
AcDbDimStyleTable
  0
DIMSTYLE
105
27
330
A
100
AcDbSymbolTableRecord
100
AcDbDimStyleTableRecord
  2
ISO-25
 70
     0
 41
2.5
 42
0.625
 43
3.75
 44
1.25
 73
     0
 74
     0
 77
     1
 78
     8
140
2.5
141
2.5
143
0.0393700787
147
0.625
171
     3
172
     1
178
     0
271
     2
272
     2
274
     3
278
    44
283
     0
284
     8
340
11
  0
DIMSTYLE
105
DC
330
A
100
AcDbSymbolTableRecord
100
AcDbDimStyleTableRecord
  2
Standard
 70
     0
178
     0
340
11
  0
DIMSTYLE
105
EF
102
{ACAD_REACTORS
330
F0
330
104
102
}
330
A
100
AcDbSymbolTableRecord
100
AcDbDimStyleTableRecord
  2
DIN
 70
     0
 41
3.5
 42
0.0
 44
1.75
 73
     0
 74
     0
 77
     1
 78
     8
140
3.5
141
1.75
147
1.75
172
     1
173
     1
178
     0
179
     3
271
     2
272
     2
278
    44
284
     8
340
EE
343
E9
344
E9
  0
ENDTAB
  0
TABLE
  2
BLOCK_RECORD
  5
1
330
0
100
AcDbSymbolTable
 70
    10
  0
BLOCK_RECORD
  5
1F
330
1
100
AcDbSymbolTableRecord
100
AcDbBlockTableRecord
  2
*Model_Space
340
22
  0
BLOCK_RECORD
  5
1B
330
1
100
AcDbSymbolTableRecord
100
AcDbBlockTableRecord
  2
*Paper_Space
340
1E
  0
BLOCK_RECORD
  5
DD
330
1
100
AcDbSymbolTableRecord
100
AcDbBlockTableRecord
  2
_OBLIQUE
340
0
  0
BLOCK_RECORD
  5
E1
330
1
100
AcDbSymbolTableRecord
100
AcDbBlockTableRecord
  2
_DOT
340
0
  0
BLOCK_RECORD
  5
E9
330
1
100
AcDbSymbolTableRecord
100
AcDbBlockTableRecord
  2
_SE_FILLED
340
0
  0
BLOCK_RECORD
  5
F1
330
1
100
AcDbSymbolTableRecord
100
AcDbBlockTableRecord
  2
DMBLK61
340
0
  0
BLOCK_RECORD
  5
FA
330
1
100
AcDbSymbolTableRecord
100
AcDbBlockTableRecord
  2
GDimGGroup
340
0
102
{BLKREFS
331
FB
102
}
  0
BLOCK_RECORD
  5
105
330
1
100
AcDbSymbolTableRecord
100
AcDbBlockTableRecord
  2
DMBLK62
340
0
  0
BLOCK_RECORD
  5
10E
330
1
100
AcDbSymbolTableRecord
100
AcDbBlockTableRecord
  2
GDimGGroup1
340
0
102
{BLKREFS
331
10F
102
}
  0
BLOCK_RECORD
  5
118
330
1
100
AcDbSymbolTableRecord
100
AcDbBlockTableRecord
  2
Nullpunkt
340
0
102
{BLKREFS
331
120
102
}
  0
BLOCK_RECORD
  5
121
330
1
100
AcDbSymbolTableRecord
100
AcDbBlockTableRecord
  2
Einfügepunkt
340
0
102
{BLKREFS
331
129
102
}
  0
ENDTAB
  0
ENDSEC
  0
SECTION
  2
BLOCKS
  0
BLOCK
  5
20
330
1F
100
AcDbEntity
  8
0
100
AcDbBlockBegin
  2
*Model_Space
 70
     0
 10
0.0
 20
0.0
 30
0.0
  3
*Model_Space
  1

  0
ENDBLK
  5
21
330
1F
100
AcDbEntity
  8
0
100
AcDbBlockEnd
  0
BLOCK
  5
1C
330
1B
100
AcDbEntity
 67
     1
  8
0
100
AcDbBlockBegin
  2
*Paper_Space
 70
     0
 10
0.0
 20
0.0
 30
0.0
  3
*Paper_Space
  1

  0
ENDBLK
  5
1D
330
1B
100
AcDbEntity
 67
     1
  8
0
100
AcDbBlockEnd
  0
BLOCK
  5
DE
330
DD
100
AcDbEntity
  8
0
100
AcDbBlockBegin
  2
_OBLIQUE
 70
     0
 10
0.0
 20
0.0
 30
0.0
  3
_OBLIQUE
  1

  0
LINE
  5
E0
330
DD
100
AcDbEntity
  8
0
  6
ByBlock
 62
     0
370
    -2
100
AcDbLine
 10
-0.5
 20
-0.5
 30
0.0
 11
0.5
 21
0.5
 31
0.0
  0
ENDBLK
  5
DF
330
DD
100
AcDbEntity
  8
0
100
AcDbBlockEnd
  0
BLOCK
  5
E2
330
E1
100
AcDbEntity
  8
0
100
AcDbBlockBegin
  2
_DOT
 70
     0
 10
0.0
 20
0.0
 30
0.0
  3
_DOT
  1

  0
POLYLINE
  5
E4
330
E1
100
AcDbEntity
  8
0
  6
ByBlock
 62
     0
100
AcDb2dPolyline
 66
     1
 10
0.0
 20
0.0
 30
0.0
 70
     1
 40
0.5
 41
0.5
  0
VERTEX
  5
E6
330
E4
100
AcDbEntity
  8
0
  6
ByBlock
 62
     0
100
AcDbVertex
100
AcDb2dVertex
 10
-0.25
 20
0.0
 30
0.0
 42
1.0
  0
VERTEX
  5
E7
330
E4
100
AcDbEntity
  8
0
  6
ByBlock
 62
     0
100
AcDbVertex
100
AcDb2dVertex
 10
0.25
 20
0.0
 30
0.0
 42
1.0
  0
SEQEND
  5
E8
330
E4
100
AcDbEntity
  8
0
  6
ByBlock
 62
     0
  0
LINE
  5
E5
330
E1
100
AcDbEntity
  8
0
  6
ByBlock
 62
     0
370
    -2
100
AcDbLine
 10
-0.5
 20
0.0
 30
0.0
 11
-1.0
 21
0.0
 31
0.0
  0
ENDBLK
  5
E3
330
E1
100
AcDbEntity
  8
0
100
AcDbBlockEnd
  0
BLOCK
  5
EC
330
E9
100
AcDbEntity
  8
0
100
AcDbBlockBegin
  2
_SE_FILLED
 70
     0
 10
0.0
 20
0.0
 30
0.0
  3
_SE_FILLED
  1

  0
SOLID
  5
EA
330
E9
100
AcDbEntity
  8
0
 62
     0
100
AcDbTrace
 10
0.0
 20
0.0
 30
0.0
 11
-1.0
 21
-0.1665
 31
0.0
 12
-1.0
 22
0.1665
 32
0.0
 13
0.0
 23
0.0
 33
0.0
  0
LINE
  5
EB
330
E9
100
AcDbEntity
  8
0
 62
     0
100
AcDbLine
 10
0.0
 20
0.0
 30
0.0
 11
-1.0
 21
0.0
 31
0.0
  0
ENDBLK
  5
ED
330
E9
100
AcDbEntity
  8
0
100
AcDbBlockEnd
  0
BLOCK
  5
F8
330
F1
100
AcDbEntity
  8
0
100
AcDbBlockBegin
  2
DMBLK61
 70
     0
 10
0.0
 20
0.0
 30
0.0
  3
DMBLK61
  1

  0
HATCH
  5
F2
330
F1
100
AcDbEntity
  8
SK2
  6
Continuous
 62
   136
100
AcDbHatch
 10
0.0
 20
0.0
 30
0.0
210
0.0
220
0.0
230
1.0
  2
SOLID
 70
     1
 71
     0
 91
        1
 92
        1
 93
        3
 72
     1
 10
-13.73999989197001
 20
15.85767087984119
 11
-17.24000000000343
 21
15.27433752850229
 72
     1
 10
-17.24000000000343
 20
15.27433752850229
 11
-13.73999989197001
 21
14.69100417716339
 72
     1
 10
-13.73999989197001
 20
14.69100417716339
 11
-13.73999989197001
 21
15.85767087984119
 97
        0
 75
     0
 76
     1
 98
        0
  0
HATCH
  5
F3
330
F1
100
AcDbEntity
  8
SK2
  6
Continuous
 62
   136
100
AcDbHatch
 10
0.0
 20
0.0
 30
0.0
210
0.0
220
0.0
230
1.0
  2
SOLID
 70
     1
 71
     0
 91
        1
 92
        1
 93
        3
 72
     1
 10
6.75999974295154
 20
15.85767087984119
 11
6.75999974295154
 21
14.69100417716339
 72
     1
 10
6.75999974295154
 20
14.69100417716339
 11
10.25999985098496
 21
15.27433752850229
 72
     1
 10
10.25999985098496
 20
15.27433752850229
 11
6.759999742951539
 21
15.85767087984119
 97
        0
 75
     0
 76
     1
 98
        0
  0
LINE
  5
F4
330
F1
100
AcDbEntity
  8
SK2
  6
Continuous
 62
   136
100
AcDbLine
 10
-17.24
 20
5.3100828438
 30
0.0
 11
-17.24
 21
17.0243375825
 31
0.0
  0
LINE
  5
F5
330
F1
100
AcDbEntity
  8
SK2
  6
Continuous
 62
   136
100
AcDbLine
 10
10.26
 20
5.3540983454
 30
0.0
 11
10.26
 21
17.0243375825
 31
0.0
  0
LINE
  5
F6
330
F1
100
AcDbEntity
  8
SK2
  6
Continuous
 62
   136
100
AcDbLine
 10
-17.24
 20
15.2743375285
 30
0.0
 11
10.259999851
 21
15.2743375285
 31
0.0
  0
TEXT
  5
F7
330
F1
100
AcDbEntity
  8
SK2
  6
Continuous
 62
   136
100
AcDbText
 10
-6.9900000745
 20
16.1493375285
 30
0.0
 40
3.5
  1
27,5
  7
SEACAD_Solid_Edge_ISO
 11
-6.9900000745
 21
19.6493375285
 31
0.0
100
AcDbText
 73
     3
  0
ENDBLK
  5
F9
330
F1
100
AcDbEntity
  8
0
100
AcDbBlockEnd
  0
BLOCK
  5
102
330
FA
100
AcDbEntity
  8
0
100
AcDbBlockBegin
  2
GDimGGroup
 70
     0
 10
0.0
 20
0.0
 30
0.0
  3
GDimGGroup
  1

  0
HATCH
  5
FC
330
FA
100
AcDbEntity
  8
SK2
  6
Continuous
 62
   136
100
AcDbHatch
 10
0.0
 20
0.0
 30
0.0
210
0.0
220
0.0
230
1.0
  2
SOLID
 70
     1
 71
     0
 91
        1
 92
        1
 93
        3
 72
     1
 10
19.3012522545671
 20
5.000000108033412
 11
18.13458555188929
 21
5.000000108033412
 72
     1
 10
18.13458555188929
 20
5.000000108033412
 11
18.71791890322819
 21
1.499999999999994
 72
     1
 10
18.71791890322819
 20
1.499999999999994
 11
19.3012522545671
 21
5.000000108033412
 97
        0
 75
     0
 76
     1
 98
        0
  0
HATCH
  5
FD
330
FA
100
AcDbEntity
  8
SK2
  6
Continuous
 62
   136
100
AcDbHatch
 10
0.0
 20
0.0
 30
0.0
210
0.0
220
0.0
230
1.0
  2
SOLID
 70
     1
 71
     0
 91
        1
 92
        1
 93
        3
 72
     1
 10
19.3012522545671
 20
-5.000000108033445
 11
18.71791890322819
 21
-1.500000000000027
 72
     1
 10
18.71791890322819
 20
-1.500000000000026
 11
18.13458555188929
 21
-5.000000108033445
 72
     1
 10
18.13458555188929
 20
-5.000000108033445
 11
19.3012522545671
 21
-5.000000108033445
 97
        0
 75
     0
 76
     1
 98
        0
  0
LINE
  5
FE
330
FA
100
AcDbEntity
  8
SK2
  6
Continuous
 62
   136
100
AcDbLine
 10
9.86
 20
1.5
 30
0.0
 11
20.4679189572
 21
1.5
 31
0.0
  0
LINE
  5
FF
330
FA
100
AcDbEntity
  8
SK2
  6
Continuous
 62
   136
100
AcDbLine
 10
9.86
 20
-1.5
 30
0.0
 11
20.4679189572
 21
-1.5
 31
0.0
  0
LINE
  5
100
330
FA
100
AcDbEntity
  8
SK2
  6
Continuous
 62
   136
100
AcDbLine
 10
18.7179189032
 20
15.4106027782
 30
0.0
 11
18.7179189032
 21
-8.4999997765
 31
0.0
  0
TEXT
  5
101
330
FA
100
AcDbEntity
  8
SK2
  6
Continuous
 62
   136
100
AcDbText
 10
17.8429189032
 20
6.8515110485
 30
0.0
 40
3.5
  1
ø 3
 50
90.0
  7
SEACAD_Solid_Edge_ISO
 11
14.3429189032
 21
6.8515110485
 31
0.0
100
AcDbText
 73
     3
  0
ENDBLK
  5
103
330
FA
100
AcDbEntity
  8
0
100
AcDbBlockEnd
  0
BLOCK
  5
10C
330
105
100
AcDbEntity
  8
0
100
AcDbBlockBegin
  2
DMBLK62
 70
     0
 10
0.0
 20
0.0
 30
0.0
  3
DMBLK62
  1

  0
HATCH
  5
106
330
105
100
AcDbEntity
  8
SK2
  6
Continuous
 62
   136
100
AcDbHatch
 10
0.0
 20
0.0
 30
0.0
210
0.0
220
0.0
230
1.0
  2
SOLID
 70
     1
 71
     0
 91
        1
 92
        1
 93
        3
 72
     1
 10
-3.50000010803342
 20
-16.35014418851193
 11
-0.0000000000000009
 21
-15.76681083717302
 72
     1
 10
-0.0000000000000009
 20
-15.76681083717302
 11
-3.500000108033419
 21
-15.18347748583412
 72
     1
 10
-3.50000010803342
 20
-15.18347748583412
 11
-3.50000010803342
 21
-16.35014418851193
 97
        0
 75
     0
 76
     1
 98
        0
  0
HATCH
  5
107
330
105
100
AcDbEntity
  8
SK2
  6
Continuous
 62
   136
100
AcDbHatch
 10
0.0
 20
0.0
 30
0.0
210
0.0
220
0.0
230
1.0
  2
SOLID
 70
     1
 71
     0
 91
        1
 92
        1
 93
        3
 72
     1
 10
13.7600001080308
 20
-16.35014418851193
 11
13.7600001080308
 21
-15.18347748583412
 72
     1
 10
13.7600001080308
 20
-15.18347748583412
 11
10.25999999999738
 21
-15.76681083717302
 72
     1
 10
10.25999999999738
 20
-15.76681083717302
 11
13.7600001080308
 21
-16.35014418851193
 97
        0
 75
     0
 76
     1
 98
        0
  0
LINE
  5
108
330
105
100
AcDbEntity
  8
SK2
  6
Continuous
 62
   136
100
AcDbLine
 10
0.0
 20
-7.9996746285
 30
0.0
 11
0.0
 21
-17.5168108912
 31
0.0
  0
LINE
  5
109
330
105
100
AcDbEntity
  8
SK2
  6
Continuous
 62
   136
100
AcDbLine
 10
10.26
 20
-6.1712613559
 30
0.0
 11
10.26
 21
-17.5168108912
 31
0.0
  0
LINE
  5
10A
330
105
100
AcDbEntity
  8
SK2
  6
Continuous
 62
   136
100
AcDbLine
 10
-7.0000002161
 20
-15.7668108372
 30
0.0
 11
17.2600001097
 21
-15.7668108372
 31
0.0
  0
TEXT
  5
10B
330
105
100
AcDbEntity
  8
SK2
  6
Continuous
 62
   136
100
AcDbText
 10
0.9140908559
 20
-14.8918108372
 30
0.0
 40
3.5
  1
10,26
  7
SEACAD_Solid_Edge_ISO
 11
0.9140908559
 21
-11.3918108372
 31
0.0
100
AcDbText
 73
     3
  0
ENDBLK
  5
10D
330
105
100
AcDbEntity
  8
0
100
AcDbBlockEnd
  0
BLOCK
  5
116
330
10E
100
AcDbEntity
  8
0
100
AcDbBlockBegin
  2
GDimGGroup1
 70
     0
 10
0.0
 20
0.0
 30
0.0
  3
GDimGGroup1
  1

  0
HATCH
  5
110
330
10E
100
AcDbEntity
  8
SK2
  6
Continuous
 62
   136
100
AcDbHatch
 10
0.0
 20
0.0
 30
0.0
210
0.0
220
0.0
230
1.0
  2
SOLID
 70
     1
 71
     0
 91
        1
 92
        1
 93
        3
 72
     1
 10
-23.3234273424993
 20
4.499674520426548
 11
-22.15676063982149
 21
4.499674520426548
 72
     1
 10
-22.15676063982149
 20
4.499674520426548
 11
-22.7400939911604
 21
7.999674628459966
 72
     1
 10
-22.7400939911604
 20
7.999674628459966
 11
-23.3234273424993
 21
4.499674520426548
 97
        0
 75
     0
 76
     1
 98
        0
  0
HATCH
  5
111
330
10E
100
AcDbEntity
  8
SK2
  6
Continuous
 62
   136
100
AcDbHatch
 10
0.0
 20
0.0
 30
0.0
210
0.0
220
0.0
230
1.0
  2
SOLID
 70
     1
 71
     0
 91
        1
 92
        1
 93
        3
 72
     1
 10
-23.3234273424993
 20
-4.499674097663605
 11
-22.7400939911604
 21
-7.999674205697024
 72
     1
 10
-22.7400939911604
 20
-7.999674205697024
 11
-22.15676063982149
 21
-4.499674097663605
 72
     1
 10
-22.15676063982149
 20
-4.499674097663605
 11
-23.3234273424993
 21
-4.499674097663605
 97
        0
 75
     0
 76
     1
 98
        0
  0
LINE
  5
112
330
10E
100
AcDbEntity
  8
SK2
  6
Continuous
 62
   136
100
AcDbLine
 10
0.0
 20
7.9996746285
 30
0.0
 11
-24.4900940452
 21
7.9996746285
 31
0.0
  0
LINE
  5
113
330
10E
100
AcDbEntity
  8
SK2
  6
Continuous
 62
   136
100
AcDbLine
 10
0.0
 20
-7.9996746285
 30
0.0
 11
-24.4900940452
 21
-7.9996746285
 31
0.0
  0
LINE
  5
114
330
10E
100
AcDbEntity
  8
SK2
  6
Continuous
 62
   136
100
AcDbLine
 10
-22.7400939912
 20
7.9996746285
 30
0.0
 11
-22.7400939912
 21
-7.9996742057
 31
0.0
  0
TEXT
  5
115
330
10E
100
AcDbEntity
  8
SK2
  6
Continuous
 62
   136
100
AcDbText
 10
-23.6150939912
 20
-4.5420452432
 30
0.0
 40
3.5
  1
ø 16
 50
90.0
  7
SEACAD_Solid_Edge_ISO
 11
-27.1150939912
 21
-4.5420452432
 31
0.0
100
AcDbText
 73
     3
  0
ENDBLK
  5
117
330
10E
100
AcDbEntity
  8
0
100
AcDbBlockEnd
  0
BLOCK
  5
11E
330
118
100
AcDbEntity
  8
0
100
AcDbBlockBegin
  2
Nullpunkt
 70
     0
 10
0.0
 20
0.0
 30
0.0
  3
Nullpunkt
  1

  0
HATCH
  5
119
330
118
100
AcDbEntity
  8
SK2
  6
Continuous
 62
     7
100
AcDbHatch
 10
0.0
 20
0.0
 30
0.0
210
0.0
220
0.0
230
1.0
  2
SOLID
 70
     1
 71
     0
 91
        1
 92
        1
 93
        3
 72
     1
 10
-1.0
 20
0.0
 11
0.0000000000000009
 21
0.0
 72
     1
 10
0.0
 20
0.0
 11
0.0
 21
1.000000000000001
 72
     2
 10
0.0
 20
0.0
 40
1.0
 50
90.0
 51
180.0
 73
     1
 97
        0
 75
     0
 76
     1
 98
        0
  0
HATCH
  5
11A
330
118
100
AcDbEntity
  8
SK2
  6
Continuous
 62
     7
100
AcDbHatch
 10
0.0
 20
0.0
 30
0.0
210
0.0
220
0.0
230
1.0
  2
SOLID
 70
     1
 71
     0
 91
        1
 92
        1
 93
        3
 72
     2
 10
0.0
 20
0.0
 40
1.0
 50
270.0
 51
360.0
 73
     1
 72
     1
 10
1.0
 20
0.0
 11
-0.0000000000000009
 21
0.0
 72
     1
 10
0.0
 20
0.0
 11
0.0
 21
-1.000000000000001
 97
        0
 75
     0
 76
     1
 98
        0
  0
CIRCLE
  5
11B
330
118
100
AcDbEntity
  8
SK1
  6
Continuous
100
AcDbCircle
 10
0.0
 20
0.0
 30
0.0
 40
1.0
  0
LINE
  5
11C
330
118
100
AcDbEntity
  8
SK1
  6
Continuous
100
AcDbLine
 10
-1.0
 20
0.0
 30
0.0
 11
1.0
 21
0.0
 31
0.0
  0
LINE
  5
11D
330
118
100
AcDbEntity
  8
SK1
  6
Continuous
100
AcDbLine
 10
0.0
 20
1.0
 30
0.0
 11
0.0
 21
-1.0
 31
0.0
  0
ENDBLK
  5
11F
330
118
100
AcDbEntity
  8
0
100
AcDbBlockEnd
  0
BLOCK
  5
127
330
121
100
AcDbEntity
  8
0
100
AcDbBlockBegin
  2
Einfügepunkt
 70
     0
 10
0.0
 20
0.0
 30
0.0
  3
Einfügepunkt
  1

  0
HATCH
  5
122
330
121
100
AcDbEntity
  8
SK2
  6
Continuous
 62
     7
100
AcDbHatch
 10
0.0
 20
0.0
 30
0.0
210
0.0
220
0.0
230
1.0
  2
SOLID
 70
     1
 71
     0
 91
        1
 92
        1
 93
        3
 72
     1
 10
-0.4502381196756744
 20
-0.0000000000000018
 11
0.0000000000000033
 21
-0.0000000000000018
 72
     1
 10
0.0
 20
-0.0000000000000018
 11
0.0
 21
0.4502381196756812
 72
     2
 10
0.0
 20
-0.0000000000000018
 40
0.4502381196756812
 50
90.0
 51
180.0
 73
     1
 97
        0
 75
     0
 76
     1
 98
        0
  0
HATCH
  5
123
330
121
100
AcDbEntity
  8
SK2
  6
Continuous
 62
     7
100
AcDbHatch
 10
0.0
 20
0.0
 30
0.0
210
0.0
220
0.0
230
1.0
  2
SOLID
 70
     1
 71
     0
 91
        1
 92
        1
 93
        3
 72
     2
 10
0.0
 20
-0.0000000000000018
 40
0.4502381196756812
 50
270.0
 51
360.0
 73
     1
 72
     1
 10
0.4502381196756815
 20
-0.0000000000000018
 11
0.0000000000000038
 21
-0.0000000000000018
 72
     1
 10
0.0
 20
-0.0000000000000018
 11
0.0
 21
-0.4502381196756812
 97
        0
 75
     0
 76
     1
 98
        0
  0
CIRCLE
  5
124
330
121
100
AcDbEntity
  8
SK1
  6
Continuous
100
AcDbCircle
 10
0.0
 20
0.0
 30
0.0
 40
0.4502381196756812
  0
LINE
  5
125
330
121
100
AcDbEntity
  8
SK1
  6
Continuous
100
AcDbLine
 10
-0.4502381197
 20
0.0
 30
0.0
 11
0.4502381197
 21
0.0
 31
0.0
  0
LINE
  5
126
330
121
100
AcDbEntity
  8
SK1
  6
Continuous
100
AcDbLine
 10
0.0
 20
0.4502381197
 30
0.0
 11
0.0
 21
-0.4502381197
 31
0.0
  0
ENDBLK
  5
128
330
121
100
AcDbEntity
  8
0
100
AcDbBlockEnd
  0
ENDSEC
  0
SECTION
  2
ENTITIES
  0
LINE
  5
40
330
1F
100
AcDbEntity
  8
SK1
  6
Continuous
100
AcDbLine
 10
10.26
 20
6.1712613559
 30
0.0
 11
10.26
 21
4.5369353348
 31
0.0
  0
LINE
  5
41
330
1F
100
AcDbEntity
  8
SK1
  6
Continuous
100
AcDbLine
 10
10.1706969024
 20
6.3627724667
 30
0.0
 11
10.1706969024
 21
4.6724620415
 31
0.0
  0
LINE
  5
42
330
1F
100
AcDbEntity
  8
SK1
  6
Continuous
100
AcDbLine
 10
6.06
 20
6.9
 30
0.0
 11
6.06
 21
5.0526099574
 31
0.0
  0
LINE
  5
43
330
1F
100
AcDbEntity
  8
SK1
  6
Continuous
100
AcDbLine
 10
3.76
 20
6.9
 30
0.0
 11
3.76
 21
5.0526099574
 31
0.0
  0
LINE
  5
44
330
1F
100
AcDbEntity
  8
SK1
  6
Continuous
100
AcDbLine
 10
3.2182480697
 20
6.1506069224
 30
0.0
 11
3.2182480697
 21
8.4519698985
 31
0.0
  0
LINE
  5
45
330
1F
100
AcDbEntity
  8
SK1
  6
Continuous
100
AcDbLine
 10
6.26
 20
8.37
 30
0.0
 11
6.26
 21
6.0926198305
 31
0.0
  0
LINE
  5
46
330
1F
100
AcDbEntity
  8
SK1
  6
Continuous
100
AcDbLine
 10
6.7016729559
 20
8.37
 30
0.0
 11
6.7016729559
 21
6.0926198305
 31
0.0
  0
LINE
  5
47
330
1F
100
AcDbEntity
  8
SK1
  6
Continuous
100
AcDbLine
 10
6.7016729559
 20
-8.37
 30
0.0
 11
6.7016729559
 21
-6.0926198305
 31
0.0
  0
LINE
  5
48
330
1F
100
AcDbEntity
  8
SK1
  6
Continuous
100
AcDbLine
 10
6.26
 20
-8.37
 30
0.0
 11
6.26
 21
-6.0926198305
 31
0.0
  0
LINE
  5
49
330
1F
100
AcDbEntity
  8
SK1
  6
Continuous
100
AcDbLine
 10
6.7016729559
 20
6.0926198305
 30
0.0
 11
6.26
 21
6.0926198305
 31
0.0
  0
LINE
  5
4A
330
1F
100
AcDbEntity
  8
SK1
  6
Continuous
100
AcDbLine
 10
6.7016729559
 20
5.7390664399
 30
0.0
 11
6.26
 21
5.7390664399
 31
0.0
  0
LINE
  5
4B
330
1F
100
AcDbEntity
  8
SK1
  6
Continuous
100
AcDbLine
 10
3.56
 20
5.586890644
 30
0.0
 11
3.56
 21
-5.586890644
 31
0.0
  0
LINE
  5
4C
330
1F
100
AcDbEntity
  8
SK1
  6
Continuous
100
AcDbLine
 10
3.2182480697
 20
-8.4519698985
 30
0.0
 11
3.2182480697
 21
-6.1506069224
 31
0.0
  0
LINE
  5
4D
330
1F
100
AcDbEntity
  8
SK1
  6
Continuous
100
AcDbLine
 10
10.1706969024
 20
-4.6724620415
 30
0.0
 11
10.1706969024
 21
-6.3627724667
 31
0.0
  0
LINE
  5
4E
330
1F
100
AcDbEntity
  8
SK1
  6
Continuous
100
AcDbLine
 10
10.1539418513
 20
4.3288576419
 30
0.0
 11
10.1539418513
 21
-4.3288576419
 31
0.0
  0
LINE
  5
4F
330
1F
100
AcDbEntity
  8
SK1
  6
Continuous
100
AcDbLine
 10
10.26
 20
-6.1712613559
 30
0.0
 11
10.26
 21
-4.5369353348
 31
0.0
  0
LINE
  5
50
330
1F
100
AcDbEntity
  8
SK1
  6
Continuous
100
AcDbLine
 10
6.06
 20
-6.9
 30
0.0
 11
6.06
 21
-5.0526099574
 31
0.0
  0
LINE
  5
51
330
1F
100
AcDbEntity
  8
SK1
  6
Continuous
100
AcDbLine
 10
3.76
 20
-5.0526099574
 30
0.0
 11
3.76
 21
-6.9
 31
0.0
  0
SPLINE
  5
54
330
1F
100
AcDbEntity
  8
SK3
100
AcDbSpline
210
0.0
220
0.0
230
1.0
 70
     8
 71
     3
 72
    10
 73
     6
 74
     0
 42
0.0000000179818867
 43
0.0000000001
 12
1.0
 22
0.0
 32
0.0
 13
1.0
 23
0.0
 33
0.0
 40
0.0
 40
0.0
 40
0.0
 40
0.0
 40
0.5
 40
0.5
 40
1.0
 40
1.0
 40
1.0
 40
1.0
 10
9.859999999996543
 20
1.22260172846425
 30
0.0
 10
9.966160034234996
 20
1.222601728464222
 30
0.0
 10
10.06997060997609
 20
1.25410008676591
 30
0.0
 10
10.21720854498463
 20
1.360037407637317
 30
0.0
 10
10.25999999999657
 20
1.433741933652318
 30
0.0
 10
10.25999999999657
 20
1.508598755483354
 30
0.0
  0
LINE
  5
55
330
1F
100
AcDbEntity
  8
SK1
  6
Continuous
100
AcDbLine
 10
10.26
 20
4.1833819442
 30
0.0
 11
10.26
 21
4.5369353348
 31
0.0
  0
ARC
  5
56
330
1F
100
AcDbEntity
  8
SK1
  6
Continuous
100
AcDbCircle
 10
10.0976234788
 20
4.527125751
 30
0.0
 40
0.1626725624471734
100
AcDbArc
 50
3.4571838191
 51
63.3072734582
  0
LINE
  5
57
330
1F
100
AcDbEntity
  8
SK1
  6
Continuous
100
AcDbLine
 10
10.1706969024
 20
4.6724620415
 30
0.0
 11
10.1539418513
 21
4.6824110324
 31
0.0
  0
LINE
  5
58
330
1F
100
AcDbEntity
  8
SK1
  6
Continuous
100
AcDbLine
 10
10.1539418513
 20
4.6824110324
 30
0.0
 11
6.7016729559
 21
6.0926198305
 31
0.0
  0
LINE
  5
59
330
1F
100
AcDbEntity
  8
SK1
  6
Continuous
100
AcDbLine
 10
6.26
 20
6.0926198305
 30
0.0
 11
6.26
 21
5.7390664399
 31
0.0
  0
SPLINE
  5
5A
330
1F
100
AcDbEntity
  8
SK1
  6
Continuous
100
AcDbSpline
210
0.0
220
0.0
230
1.0
 70
     8
 71
     3
 72
    10
 73
     6
 74
     0
 42
0.000000036096425
 43
0.0000000001
 12
1.0
 22
0.0
 32
0.0
 13
1.0
 23
0.0
 33
0.0
 40
0.0
 40
0.0
 40
0.0
 40
0.0
 40
0.5
 40
0.5
 40
1.0
 40
1.0
 40
1.0
 40
1.0
 10
6.259999999996563
 20
5.194121610687647
 30
0.0
 10
6.259999999996565
 20
5.156786305144321
 30
0.0
 10
6.238359343122299
 20
5.120226452215798
 30
0.0
 10
6.164657537915763
 20
5.068013457172047
 30
0.0
 10
6.112714666665407
 20
5.052609957417073
 30
0.0
 10
6.059999999996565
 20
5.052609957417074
 30
0.0
  0
LINE
  5
5B
330
1F
100
AcDbEntity
  8
SK1
  6
Continuous
100
AcDbLine
 10
6.06
 20
5.0526099574
 30
0.0
 11
3.76
 21
5.0526099574
 31
0.0
  0
SPLINE
  5
5C
330
1F
100
AcDbEntity
  8
SK1
  6
Continuous
100
AcDbSpline
210
0.0
220
0.0
230
1.0
 70
     8
 71
     3
 72
    10
 73
     6
 74
     0
 42
0.0000000361072764
 43
0.0000000001
 12
1.0
 22
0.0
 32
0.0
 13
1.0
 23
0.0
 33
0.0
 40
0.0
 40
0.0
 40
0.0
 40
0.0
 40
0.5
 40
0.5
 40
1.0
 40
1.0
 40
1.0
 40
1.0
 10
3.759999999996568
 20
5.052609957417074
 30
0.0
 10
3.70789096328756
 20
5.052609957417072
 30
0.0
 10
3.655277925462952
 20
5.068028753627666
 30
0.0
 10
3.581540525308122
 20
5.120327880583997
 30
0.0
 10
3.559999999996204
 20
5.157261174517853
 30
0.0
 10
3.559999999988484
 20
5.194121610688399
 30
0.0
  0
LINE
  5
5D
330
1F
100
AcDbEntity
  8
SK1
  6
Continuous
100
AcDbLine
 10
3.56
 20
5.586890644
 30
0.0
 11
3.56
 21
5.9404440346
 31
0.0
  0
SPLINE
  5
5E
330
1F
100
AcDbEntity
  8
SK1
  6
Continuous
100
AcDbSpline
210
0.0
220
0.0
230
1.0
 70
     8
 71
     3
 72
    10
 73
     6
 74
     0
 42
0.0000000217507907
 43
0.0000000001
 12
1.0
 22
0.0
 32
0.0
 13
1.0
 23
0.0
 33
0.0
 40
0.0
 40
0.0
 40
0.0
 40
0.0
 40
0.5
 40
0.5
 40
1.0
 40
1.0
 40
1.0
 40
1.0
 10
3.559999999996573
 20
5.94044403457303
 30
0.0
 10
3.559999999996582
 20
6.000788763221355
 30
0.0
 10
3.521567307206197
 20
6.060743533383695
 30
0.0
 10
3.392371829101861
 20
6.140300292752683
 30
0.0
 10
3.302645621337725
 20
6.15899780116448
 30
0.0
 10
3.218248069708434
 20
6.150606922400923
 30
0.0
  0
LINE
  5
5F
330
1F
100
AcDbEntity
  8
SK1
  6
Continuous
100
AcDbLine
 10
3.2182480697
 20
6.1506069224
 30
0.0
 11
-9.9836359248
 21
4.8379023287
 31
0.0
  0
SPLINE
  5
60
330
1F
100
AcDbEntity
  8
SK3
100
AcDbSpline
210
0.0
220
0.0
230
1.0
 70
     8
 71
     3
 72
    10
 73
     6
 74
     0
 42
0.0000000179818867
 43
0.0000000001
 12
1.0
 22
0.0
 32
0.0
 13
1.0
 23
0.0
 33
0.0
 40
0.0
 40
0.0
 40
0.0
 40
0.0
 40
0.5
 40
0.5
 40
1.0
 40
1.0
 40
1.0
 40
1.0
 10
9.859999999996543
 20
0.8690483378709761
 30
0.0
 10
9.966160034234996
 20
0.8690483378709485
 30
0.0
 10
10.06997060997609
 20
0.9005466961726364
 30
0.0
 10
10.21720854498463
 20
1.006484017044043
 30
0.0
 10
10.25999999999657
 20
1.080188543059044
 30
0.0
 10
10.25999999999657
 20
1.15504536489008
 30
0.0
  0
ARC
  5
61
330
1F
100
AcDbEntity
  8
SK1
  6
Continuous
100
AcDbCircle
 10
10.0976234788
 20
4.1735723604
 30
0.0
 40
0.162672562447172
100
AcDbArc
 50
3.4571838191
 51
63.3072734582
  0
LINE
  5
62
330
1F
100
AcDbEntity
  8
SK1
  6
Continuous
100
AcDbLine
 10
10.1706969024
 20
4.3189086509
 30
0.0
 11
10.1539418513
 21
4.3288576419
 31
0.0
  0
LINE
  5
63
330
1F
100
AcDbEntity
  8
SK1
  6
Continuous
100
AcDbLine
 10
10.1539418513
 20
4.3288576419
 30
0.0
 11
6.7016729559
 21
5.7390664399
 31
0.0
  0
SPLINE
  5
64
330
1F
100
AcDbEntity
  8
SK1
  6
Continuous
100
AcDbSpline
210
0.0
220
0.0
230
1.0
 70
     8
 71
     3
 72
    10
 73
     6
 74
     0
 42
0.000000036096425
 43
0.0000000001
 12
1.0
 22
0.0
 32
0.0
 13
1.0
 23
0.0
 33
0.0
 40
0.0
 40
0.0
 40
0.0
 40
0.0
 40
0.5
 40
0.5
 40
1.0
 40
1.0
 40
1.0
 40
1.0
 10
6.259999999996563
 20
4.840568220094373
 30
0.0
 10
6.259999999996565
 20
4.803232914551045
 30
0.0
 10
6.238359343122299
 20
4.766673061622524
 30
0.0
 10
6.164657537915763
 20
4.714460066578773
 30
0.0
 10
6.112714666665407
 20
4.6990565668238
 30
0.0
 10
6.059999999996565
 20
4.6990565668238
 30
0.0
  0
LINE
  5
65
330
1F
100
AcDbEntity
  8
SK1
  6
Continuous
100
AcDbLine
 10
6.06
 20
4.6990565668
 30
0.0
 11
3.76
 21
4.6990565668
 31
0.0
  0
SPLINE
  5
66
330
1F
100
AcDbEntity
  8
SK1
  6
Continuous
100
AcDbSpline
210
0.0
220
0.0
230
1.0
 70
     8
 71
     3
 72
    10
 73
     6
 74
     0
 42
0.0000000361072764
 43
0.0000000001
 12
1.0
 22
0.0
 32
0.0
 13
1.0
 23
0.0
 33
0.0
 40
0.0
 40
0.0
 40
0.0
 40
0.0
 40
0.5
 40
0.5
 40
1.0
 40
1.0
 40
1.0
 40
1.0
 10
3.759999999996568
 20
4.699056566823801
 30
0.0
 10
3.70789096328756
 20
4.699056566823798
 30
0.0
 10
3.655277925462952
 20
4.714475363034393
 30
0.0
 10
3.581540525308122
 20
4.766774489990725
 30
0.0
 10
3.559999999996204
 20
4.803707783924579
 30
0.0
 10
3.559999999988484
 20
4.840568220095125
 30
0.0
  0
SPLINE
  5
67
330
1F
100
AcDbEntity
  8
SK1
  6
Continuous
100
AcDbSpline
210
0.0
220
0.0
230
1.0
 70
     8
 71
     3
 72
    10
 73
     6
 74
     0
 42
0.0000000217507907
 43
0.0000000001
 12
1.0
 22
0.0
 32
0.0
 13
1.0
 23
0.0
 33
0.0
 40
0.0
 40
0.0
 40
0.0
 40
0.0
 40
0.5
 40
0.5
 40
1.0
 40
1.0
 40
1.0
 40
1.0
 10
3.559999999996573
 20
5.586890643979755
 30
0.0
 10
3.559999999996582
 20
5.647235372628082
 30
0.0
 10
3.521567307206197
 20
5.707190142790421
 30
0.0
 10
3.392371829101861
 20
5.78674690215941
 30
0.0
 10
3.302645621337725
 20
5.805444410571205
 30
0.0
 10
3.218248069708434
 20
5.797053531807649
 30
0.0
  0
LINE
  5
68
330
1F
100
AcDbEntity
  8
SK1
  6
Continuous
100
AcDbLine
 10
3.2182480697
 20
5.7970535318
 30
0.0
 11
-9.9836359248
 21
4.4843489381
 31
0.0
  0
LINE
  5
69
330
1F
100
AcDbEntity
  8
SK1
  6
Continuous
100
AcDbLine
 10
3.56
 20
5.9404440346
 30
0.0
 11
3.56
 21
8.1548894778
 31
0.0
  0
LINE
  5
6A
330
1F
100
AcDbEntity
  8
SK1
  6
Continuous
100
AcDbLine
 10
10.1539418513
 20
4.6824110324
 30
0.0
 11
10.1539418513
 21
6.3768316239
 31
0.0
  0
LINE
  5
6B
330
1F
100
AcDbEntity
  8
SK1
  6
Continuous
100
AcDbLine
 10
6.26
 20
-5.7390664399
 30
0.0
 11
6.26
 21
5.7390664399
 31
0.0
  0
LINE
  5
6C
330
1F
100
AcDbEntity
  8
SK1
  6
Continuous
100
AcDbLine
 10
6.7016729559
 20
-5.7390664399
 30
0.0
 11
6.7016729559
 21
5.7390664399
 31
0.0
  0
LINE
  5
6D
330
1F
100
AcDbEntity
  8
SK1
  6
Continuous
100
AcDbLine
 10
3.2182480697
 20
-5.7970535318
 30
0.0
 11
3.2182480697
 21
5.7970535318
 31
0.0
  0
LINE
  5
6E
330
1F
100
AcDbEntity
  8
SK1
  6
Continuous
100
AcDbLine
 10
3.56
 20
-5.9404440346
 30
0.0
 11
3.56
 21
-8.1548894778
 31
0.0
  0
LINE
  5
6F
330
1F
100
AcDbEntity
  8
SK1
  6
Continuous
100
AcDbLine
 10
10.1539418513
 20
-4.6824110324
 30
0.0
 11
10.1539418513
 21
-6.3768316239
 31
0.0
  0
LINE
  5
70
330
1F
100
AcDbEntity
  8
SK1
  6
Continuous
100
AcDbLine
 10
10.1706969024
 20
-4.3189086509
 30
0.0
 11
10.1706969024
 21
4.3189086509
 31
0.0
  0
LINE
  5
71
330
1F
100
AcDbEntity
  8
SK1
  6
Continuous
100
AcDbLine
 10
10.26
 20
-4.1833819442
 30
0.0
 11
10.26
 21
4.1833819442
 31
0.0
  0
LINE
  5
72
330
1F
100
AcDbEntity
  8
SK1
  6
Continuous
100
AcDbLine
 10
6.06
 20
-4.6990565668
 30
0.0
 11
6.06
 21
4.6990565668
 31
0.0
  0
LINE
  5
73
330
1F
100
AcDbEntity
  8
SK1
  6
Continuous
100
AcDbLine
 10
3.76
 20
-4.6990565668
 30
0.0
 11
3.76
 21
4.6990565668
 31
0.0
  0
SPLINE
  5
74
330
1F
100
AcDbEntity
  8
SK3
100
AcDbSpline
210
0.0
220
0.0
230
1.0
 70
     8
 71
     3
 72
    10
 73
     6
 74
     0
 42
0.0000000179852709
 43
0.0000000001
 12
1.0
 22
0.0
 32
0.0
 13
1.0
 23
0.0
 33
0.0
 40
0.0
 40
0.0
 40
0.0
 40
0.0
 40
0.5
 40
0.5
 40
1.0
 40
1.0
 40
1.0
 40
1.0
 10
10.25999999999657
 20
-1.155045364890079
 30
0.0
 10
10.25999999999657
 20
-1.080988273564162
 30
0.0
 10
10.21733498241717
 20
-1.006456837743897
 30
0.0
 10
10.0692149635669
 20
-0.900121664459871
 30
0.0
 10
9.964725614845845
 20
-0.8690483378710184
 30
0.0
 10
9.85999999999657
 20
-0.8690483378709533
 30
0.0
  0
LINE
  5
75
330
1F
100
AcDbEntity
  8
SK3
100
AcDbLine
 10
9.86
 20
-0.8690483379
 30
0.0
 11
-10.4002852216
 21
-0.8690483379
 31
0.0
  0
SPLINE
  5
76
330
1F
100
AcDbEntity
  8
SK1
  6
Continuous
100
AcDbSpline
210
0.0
220
0.0
230
1.0
 70
     8
 71
     3
 72
    10
 73
     6
 74
     0
 42
0.0000000217510525
 43
0.0000000001
 12
1.0
 22
0.0
 32
0.0
 13
1.0
 23
0.0
 33
0.0
 40
0.0
 40
0.0
 40
0.0
 40
0.0
 40
0.5
 40
0.5
 40
1.0
 40
1.0
 40
1.0
 40
1.0
 10
3.218248069708548
 20
-5.797053531802606
 30
0.0
 10
3.302502452970109
 20
-5.805430176646486
 30
0.0
 10
3.392855363084053
 20
-5.786473111113384
 30
0.0
 10
3.521219674319223
 20
-5.707380222472891
 30
0.0
 10
3.559999999996574
 20
-5.647701762203458
 30
0.0
 10
3.559999999996573
 20
-5.586890643979752
 30
0.0
  0
SPLINE
  5
77
330
1F
100
AcDbEntity
  8
SK1
  6
Continuous
100
AcDbSpline
210
0.0
220
0.0
230
1.0
 70
     8
 71
     3
 72
    10
 73
     6
 74
     0
 42
0.0000000360964285
 43
0.0000000001
 12
1.0
 22
0.0
 32
0.0
 13
1.0
 23
0.0
 33
0.0
 40
0.0
 40
0.0
 40
0.0
 40
0.0
 40
0.5
 40
0.5
 40
1.0
 40
1.0
 40
1.0
 40
1.0
 10
3.559999999996292
 20
-4.840568220094389
 30
0.0
 10
3.559999999996553
 20
-4.803628615218908
 30
0.0
 10
3.581288850207442
 20
-4.766884066890882
 30
0.0
 10
3.655899207742294
 20
-4.714103980375839
 30
0.0
 10
3.707796955446593
 20
-4.699056566823795
 30
0.0
 10
3.759999999996568
 20
-4.699056566823797
 30
0.0
  0
LINE
  5
78
330
1F
100
AcDbEntity
  8
SK1
  6
Continuous
100
AcDbLine
 10
3.76
 20
-4.6990565668
 30
0.0
 11
6.06
 21
-4.6990565668
 31
0.0
  0
SPLINE
  5
79
330
1F
100
AcDbEntity
  8
SK1
  6
Continuous
100
AcDbSpline
210
0.0
220
0.0
230
1.0
 70
     8
 71
     3
 72
    10
 73
     6
 74
     0
 42
0.0000000361076875
 43
0.0000000001
 12
1.0
 22
0.0
 32
0.0
 13
1.0
 23
0.0
 33
0.0
 40
0.0
 40
0.0
 40
0.0
 40
0.0
 40
0.5
 40
0.5
 40
1.0
 40
1.0
 40
1.0
 40
1.0
 10
6.059999999996434
 20
-4.699056566822946
 30
0.0
 10
6.112188023070538
 20
-4.699056566823755
 30
0.0
 10
6.164396282631357
 20
-4.714354315826874
 30
0.0
 10
6.238191925788809
 20
-4.76647558520308
 30
0.0
 10
6.259999999996572
 20
-4.803689647415665
 30
0.0
 10
6.259999999996563
 20
-4.84056822009437
 30
0.0
  0
LINE
  5
7A
330
1F
100
AcDbEntity
  8
SK1
  6
Continuous
100
AcDbLine
 10
6.26
 20
-5.7390664399
 30
0.0
 11
6.7016729559
 21
-5.7390664399
 31
0.0
  0
SPLINE
  5
7B
330
1F
100
AcDbEntity
  8
SK1
  6
Continuous
100
AcDbSpline
210
0.0
220
0.0
230
1.0
 70
     8
 71
     3
 72
     8
 73
     4
 74
     0
 42
0.0000000026815483
 43
0.0000000001
 12
1.0
 22
0.0
 32
0.0
 13
1.0
 23
0.0
 33
0.0
 40
0.0
 40
0.0
 40
0.0
 40
0.0
 40
1.0
 40
1.0
 40
1.0
 40
1.0
 10
6.701672955926639
 20
-5.7390664398786
 30
0.0
 10
7.852469456721784
 20
-5.269046028858283
 30
0.0
 10
9.003238352782848
 20
-4.798991811870724
 30
0.0
 10
10.15394185128572
 20
-4.328857641852903
 30
0.0
  0
LINE
  5
7C
330
1F
100
AcDbEntity
  8
SK1
  6
Continuous
100
AcDbLine
 10
10.1539418513
 20
-4.3288576419
 30
0.0
 11
10.1706969024
 21
-4.3189086509
 31
0.0
  0
ARC
  5
7D
330
1F
100
AcDbEntity
  8
SK1
  6
Continuous
100
AcDbCircle
 10
10.0976382754
 20
-4.1735821104
 30
0.0
 40
0.1626572050204094
100
AcDbArc
 50
296.6896126694
 51
356.5459300535
  0
SPLINE
  5
7E
330
1F
100
AcDbEntity
  8
SK3
100
AcDbSpline
210
0.0
220
0.0
230
1.0
 70
     8
 71
     3
 72
    10
 73
     6
 74
     0
 42
0.0000000179852709
 43
0.0000000001
 12
1.0
 22
0.0
 32
0.0
 13
1.0
 23
0.0
 33
0.0
 40
0.0
 40
0.0
 40
0.0
 40
0.0
 40
0.5
 40
0.5
 40
1.0
 40
1.0
 40
1.0
 40
1.0
 10
10.25999999999657
 20
-1.508598755483352
 30
0.0
 10
10.25999999999657
 20
-1.434541664157435
 30
0.0
 10
10.21733498241717
 20
-1.360010228337171
 30
0.0
 10
10.0692149635669
 20
-1.253675055053145
 30
0.0
 10
9.964725614845845
 20
-1.222601728464292
 30
0.0
 10
9.85999999999657
 20
-1.222601728464227
 30
0.0
  0
LINE
  5
7F
330
1F
100
AcDbEntity
  8
SK3
100
AcDbLine
 10
9.86
 20
-1.2226017285
 30
0.0
 11
-10.4002852216
 21
-1.2226017285
 31
0.0
  0
SPLINE
  5
80
330
1F
100
AcDbEntity
  8
SK1
  6
Continuous
100
AcDbSpline
210
0.0
220
0.0
230
1.0
 70
     8
 71
     3
 72
    10
 73
     6
 74
     0
 42
0.0000000217510525
 43
0.0000000001
 12
1.0
 22
0.0
 32
0.0
 13
1.0
 23
0.0
 33
0.0
 40
0.0
 40
0.0
 40
0.0
 40
0.0
 40
0.5
 40
0.5
 40
1.0
 40
1.0
 40
1.0
 40
1.0
 10
3.218248069708548
 20
-6.150606922395879
 30
0.0
 10
3.302502452970109
 20
-6.158983567239759
 30
0.0
 10
3.392855363084053
 20
-6.140026501706658
 30
0.0
 10
3.521219674319223
 20
-6.060933613066164
 30
0.0
 10
3.559999999996574
 20
-6.001255152796731
 30
0.0
 10
3.559999999996573
 20
-5.940444034573026
 30
0.0
  0
LINE
  5
81
330
1F
100
AcDbEntity
  8
SK1
  6
Continuous
100
AcDbLine
 10
3.56
 20
-5.9404440346
 30
0.0
 11
3.56
 21
-5.586890644
 31
0.0
  0
SPLINE
  5
82
330
1F
100
AcDbEntity
  8
SK1
  6
Continuous
100
AcDbSpline
210
0.0
220
0.0
230
1.0
 70
     8
 71
     3
 72
    10
 73
     6
 74
     0
 42
0.0000000360964285
 43
0.0000000001
 12
1.0
 22
0.0
 32
0.0
 13
1.0
 23
0.0
 33
0.0
 40
0.0
 40
0.0
 40
0.0
 40
0.0
 40
0.5
 40
0.5
 40
1.0
 40
1.0
 40
1.0
 40
1.0
 10
3.559999999996292
 20
-5.194121610687663
 30
0.0
 10
3.559999999996553
 20
-5.157182005812182
 30
0.0
 10
3.581288850207442
 20
-5.120437457484157
 30
0.0
 10
3.655899207742294
 20
-5.067657370969113
 30
0.0
 10
3.707796955446593
 20
-5.052609957417069
 30
0.0
 10
3.759999999996568
 20
-5.052609957417071
 30
0.0
  0
LINE
  5
83
330
1F
100
AcDbEntity
  8
SK1
  6
Continuous
100
AcDbLine
 10
3.76
 20
-5.0526099574
 30
0.0
 11
6.06
 21
-5.0526099574
 31
0.0
  0
SPLINE
  5
84
330
1F
100
AcDbEntity
  8
SK1
  6
Continuous
100
AcDbSpline
210
0.0
220
0.0
230
1.0
 70
     8
 71
     3
 72
    10
 73
     6
 74
     0
 42
0.0000000361076875
 43
0.0000000001
 12
1.0
 22
0.0
 32
0.0
 13
1.0
 23
0.0
 33
0.0
 40
0.0
 40
0.0
 40
0.0
 40
0.0
 40
0.5
 40
0.5
 40
1.0
 40
1.0
 40
1.0
 40
1.0
 10
6.059999999996434
 20
-5.05260995741622
 30
0.0
 10
6.112188023070538
 20
-5.052609957417029
 30
0.0
 10
6.164396282631357
 20
-5.067907706420145
 30
0.0
 10
6.238191925788809
 20
-5.120028975796354
 30
0.0
 10
6.259999999996572
 20
-5.157243038008937
 30
0.0
 10
6.259999999996563
 20
-5.194121610687644
 30
0.0
  0
LINE
  5
85
330
1F
100
AcDbEntity
  8
SK1
  6
Continuous
100
AcDbLine
 10
6.26
 20
-5.7390664399
 30
0.0
 11
6.26
 21
-6.0926198305
 31
0.0
  0
LINE
  5
86
330
1F
100
AcDbEntity
  8
SK1
  6
Continuous
100
AcDbLine
 10
6.26
 20
-6.0926198305
 30
0.0
 11
6.7016729559
 21
-6.0926198305
 31
0.0
  0
SPLINE
  5
87
330
1F
100
AcDbEntity
  8
SK1
  6
Continuous
100
AcDbSpline
210
0.0
220
0.0
230
1.0
 70
     8
 71
     3
 72
     8
 73
     4
 74
     0
 42
0.0000000026815483
 43
0.0000000001
 12
1.0
 22
0.0
 32
0.0
 13
1.0
 23
0.0
 33
0.0
 40
0.0
 40
0.0
 40
0.0
 40
0.0
 40
1.0
 40
1.0
 40
1.0
 40
1.0
 10
6.701672955926639
 20
-6.092619830471873
 30
0.0
 10
7.852469456721784
 20
-5.622599419451556
 30
0.0
 10
9.003238352782848
 20
-5.152545202463997
 30
0.0
 10
10.15394185128572
 20
-4.682411032446177
 30
0.0
  0
LINE
  5
88
330
1F
100
AcDbEntity
  8
SK1
  6
Continuous
100
AcDbLine
 10
10.1539418513
 20
-4.6824110324
 30
0.0
 11
10.1706969024
 21
-4.6724620415
 31
0.0
  0
ARC
  5
89
330
1F
100
AcDbEntity
  8
SK1
  6
Continuous
100
AcDbCircle
 10
10.0976382754
 20
-4.527135501
 30
0.0
 40
0.1626572050204124
100
AcDbArc
 50
296.6896126694
 51
356.5459300535
  0
LINE
  5
8A
330
1F
100
AcDbEntity
  8
SK1
  6
Continuous
100
AcDbLine
 10
10.26
 20
-4.5369353348
 30
0.0
 11
10.26
 21
-4.1833819442
 31
0.0
  0
LINE
  5
8B
330
1F
100
AcDbEntity
  8
SK3
100
AcDbLine
 10
-10.4002852216
 20
1.2226017285
 30
0.0
 11
9.86
 21
1.2226017285
 31
0.0
  0
ELLIPSE
  5
8C
330
1F
100
AcDbEntity
  8
SK1
  6
Continuous
100
AcDbEllipse
 10
39.3277249972
 20
0.1767766951
 30
0.0
 11
-49.75000000320569
 21
3.532541478041106E-10
 31
0.0
210
0.0
220
0.0
230
1.0
 40
0.7071067812
 41
-0.132889824214427
 42
-0.122814998711184
  0
SPLINE
  5
8D
330
1F
100
AcDbEntity
  8
SK3
100
AcDbSpline
210
0.0
220
0.0
230
1.0
 70
     8
 71
     3
 72
    35
 73
    31
 74
     0
 42
0.0000000147513241
 43
0.0000000001
 12
1.0
 22
0.0
 32
0.0
 13
1.0
 23
0.0
 33
0.0
 40
0.0
 40
0.0
 40
0.0
 40
0.0
 40
0.1062806031721957
 40
0.1062806031721957
 40
0.1062806031721957
 40
0.212514742850429
 40
0.212514742850429
 40
0.212514742850429
 40
0.3194760564377881
 40
0.3194760564377881
 40
0.3194760564377881
 40
0.4272579005019586
 40
0.4272579005019586
 40
0.4272579005019586
 40
0.4999867305917936
 40
0.4999867305917936
 40
0.4999867305917936
 40
0.606839844086763
 40
0.606839844086763
 40
0.606839844086763
 40
0.7136492969419679
 40
0.7136492969419679
 40
0.7136492969419679
 40
0.8211054424665541
 40
0.8211054424665541
 40
0.8211054424665541
 40
0.9288184127994791
 40
0.9288184127994791
 40
0.9288184127994791
 40
1.0
 40
1.0
 40
1.0
 40
1.0
 10
-10.40028522158263
 20
1.222601728464227
 30
0.0
 10
-10.42798260881122
 20
1.222601728464227
 30
0.0
 10
-10.45606215464374
 20
1.219835072987328
 30
0.0
 10
-10.48219058040364
 20
1.21444123185561
 30
0.0
 10
-10.50831278270085
 20
1.209048675469069
 30
0.0
 10
-10.53320190511804
 20
1.200877949944552
 30
0.0
 10
-10.55485601230409
 20
1.190376419779756
 30
0.0
 10
-10.57665719543783
 20
1.179803562615056
 30
0.0
 10
-10.59578042717329
 20
1.166566990050327
 30
0.0
 10
-10.61069207875205
 20
1.151470745296603
 30
0.0
 10
-10.62571328909817
 20
1.136263585534021
 30
0.0
 10
-10.63687361175655
 20
1.118732727483494
 30
0.0
 10
-10.64323552396298
 20
1.100138571766486
 30
0.0
 10
-10.64756194409964
 20
1.087493611083584
 30
0.0
 10
-10.64976994123371
 20
1.074164728396161
 30
0.0
 10
-10.64976994123374
 20
1.060660171780442
 30
0.0
 10
-10.6497699412338
 20
1.040970795585389
 30
0.0
 10
-10.64500603675213
 20
1.020432241090694
 30
0.0
 10
-10.63588213641309
 20
1.000836740541683
 30
0.0
 10
-10.62676036442388
 20
0.9812458110728675
 30
0.0
 10
-10.61303558761145
 20
0.9620660364219671
 30
0.0
 10
-10.59582623686612
 20
0.9450734922638379
 30
0.0
 10
-10.57851496170772
 20
0.9279803077552596
 30
0.0
 10
-10.55719855481969
 20
0.9126396680132929
 30
0.0
 10
-10.53360091632906
 20
0.9005818216351242
 30
0.0
 10
-10.50995312725773
 20
0.8884983494724932
 30
0.0
 10
-10.4833490102735
 20
0.8793913752967151
 30
0.0
 10
-10.45601172288459
 20
0.8742393682993053
 30
0.0
 10
-10.4377983594582
 20
0.8708068632930792
 30
0.0
 10
-10.41898200693251
 20
0.8690483378709533
 30
0.0
 10
-10.40028522158263
 20
0.8690483378709533
 30
0.0
  0
SPLINE
  5
8E
330
1F
100
AcDbEntity
  8
SK1
  6
Continuous
100
AcDbSpline
210
0.0
220
0.0
230
1.0
 70
     8
 71
     3
 72
    35
 73
    31
 74
     0
 42
0.0000000144798034
 43
0.0000000001
 12
1.0
 22
0.0
 32
0.0
 13
1.0
 23
0.0
 33
0.0
 40
0.0
 40
0.0
 40
0.0
 40
0.0
 40
0.1121859067527125
 40
0.1121859067527125
 40
0.1121859067527125
 40
0.2245268140661581
 40
0.2245268140661581
 40
0.2245268140661581
 40
0.3344161427818531
 40
0.3344161427818531
 40
0.3344161427818531
 40
0.4407808148148269
 40
0.4407808148148269
 40
0.4407808148148269
 40
0.5001515774490931
 40
0.5001515774490931
 40
0.5001515774490931
 40
0.6035484910140853
 40
0.6035484910140853
 40
0.6035484910140853
 40
0.7068759051535327
 40
0.7068759051535327
 40
0.7068759051535327
 40
0.8112977769422177
 40
0.8112977769422177
 40
0.8112977769422177
 40
0.9184972697620453
 40
0.9184972697620453
 40
0.9184972697620453
 40
1.0
 40
1.0
 40
1.0
 40
1.0
 10
-9.98363592475782
 20
4.484348938125307
 30
0.0
 10
-10.01304404038275
 20
4.48142433567137
 30
0.0
 10
-10.04288900060105
 20
4.482158170821669
 30
0.0
 10
-10.0707070114041
 20
4.486545588632789
 30
0.0
 10
-10.09854707198854
 20
4.490936484104634
 30
0.0
 10
-10.12513722700683
 20
4.499122398295309
 30
0.0
 10
-10.14808546260303
 20
4.510447009273172
 30
0.0
 10
-10.17053320986863
 20
4.521524636746827
 30
0.0
 10
-10.19013346696489
 20
4.535929257397786
 30
0.0
 10
-10.20503720287427
 20
4.552400346497871
 30
0.0
 10
-10.21947015406391
 20
4.568351140746182
 30
0.0
 10
-10.2299064949487
 20
4.586693527882793
 30
0.0
 10
-10.23536123071557
 20
4.605819439030316
 30
0.0
 10
-10.23843745993025
 20
4.616605605243312
 30
0.0
 10
-10.24000000000342
 20
4.627772464572632
 30
0.0
 10
-10.24000000000342
 20
4.638999834012485
 30
0.0
 10
-10.24000000000342
 20
4.658365516402156
 30
0.0
 10
-10.23525999284967
 20
4.678341139273167
 30
0.0
 10
-10.2262118630657
 20
4.697280812220561
 30
0.0
 10
-10.21716711212147
 20
4.71621341253294
 30
0.0
 10
-10.20357891879683
 20
4.734628572522307
 30
0.0
 10
-10.18663710578347
 20
4.751108177082838
 30
0.0
 10
-10.16951249062753
 20
4.767765596557293
 30
0.0
 10
-10.14851449411008
 20
4.782895214252659
 30
0.0
 10
-10.12538995043207
 20
4.795425861578422
 30
0.0
 10
-10.10165373433114
 20
4.808287959829975
 30
0.0
 10
-10.07505582138923
 20
4.818759105081405
 30
0.0
 10
-10.04772653623684
 20
4.826147240900105
 30
0.0
 10
-10.02682788621989
 20
4.83179693367076
 30
0.0
 10
-10.00514498979425
 20
4.835763277539997
 30
0.0
 10
-9.98363592475782
 20
4.837902328718579
 30
0.0
  0
SPLINE
  5
8F
330
1F
100
AcDbEntity
  8
SK3
100
AcDbSpline
210
0.0
220
0.0
230
1.0
 70
     8
 71
     3
 72
     8
 73
     4
 74
     0
 42
0.0000004296812939
 43
0.0000000001
 12
1.0
 22
0.0
 32
0.0
 13
1.0
 23
0.0
 33
0.0
 40
0.0
 40
0.0
 40
0.0
 40
0.0
 40
1.0
 40
1.0
 40
1.0
 40
1.0
 10
-10.24000000000342
 20
-4.638999834012482
 30
0.0
 10
-10.24000000000342
 20
-4.646639699047145
 30
0.0
 10
-10.23926229154967
 20
-4.654374491839251
 30
0.0
 10
-10.23781339175803
 20
-4.662103156981188
 30
0.0
  0
LINE
  5
90
330
1F
100
AcDbEntity
  8
SK3
100
AcDbLine
 10
-10.4002852216
 20
0.8690483379
 30
0.0
 11
9.86
 21
0.8690483379
 31
0.0
  0
SPLINE
  5
91
330
1F
100
AcDbEntity
  8
SK3
100
AcDbSpline
210
0.0
220
0.0
230
1.0
 70
     8
 71
     3
 72
    11
 73
     7
 74
     0
 42
0.0000004239113919
 43
0.0000000001
 12
1.0
 22
0.0
 32
0.0
 13
1.0
 23
0.0
 33
0.0
 40
0.0
 40
0.0
 40
0.0
 40
0.0
 40
0.5344067903743982
 40
0.5344067903743982
 40
0.5344067903743982
 40
1.0
 40
1.0
 40
1.0
 40
1.0
 10
-10.23146250396385
 20
4.684894084700155
 30
0.0
 10
-10.23295919703654
 20
4.680893744919912
 30
0.0
 10
-10.23426146349744
 20
4.676877824669105
 30
0.0
 10
-10.23536123071557
 20
4.67286001785756
 30
0.0
 10
-10.2363292972172
 20
4.669323356534909
 30
0.0
 10
-10.23714746093589
 20
4.66577125763305
 30
0.0
 10
-10.23781419945912
 20
4.662213783102498
 30
0.0
  0
LINE
  5
92
330
1F
100
AcDbEntity
  8
SK1
  6
Continuous
100
AcDbLine
 10
-9.9836359248
 20
-4.4843489381
 30
0.0
 11
3.2182480697
 21
-5.7970535318
 31
0.0
  0
SPLINE
  5
93
330
1F
100
AcDbEntity
  8
SK1
  6
Continuous
100
AcDbSpline
210
0.0
220
0.0
230
1.0
 70
     8
 71
     3
 72
    35
 73
    31
 74
     0
 42
0.0000000144803281
 43
0.0000000001
 12
1.0
 22
0.0
 32
0.0
 13
1.0
 23
0.0
 33
0.0
 40
0.0
 40
0.0
 40
0.0
 40
0.0
 40
0.1121859067527219
 40
0.1121859067527219
 40
0.1121859067527219
 40
0.2245268140661753
 40
0.2245268140661753
 40
0.2245268140661753
 40
0.3344161427818613
 40
0.3344161427818613
 40
0.3344161427818613
 40
0.4407808148148394
 40
0.4407808148148394
 40
0.4407808148148394
 40
0.500151577449095
 40
0.500151577449095
 40
0.500151577449095
 40
0.6035484910140824
 40
0.6035484910140824
 40
0.6035484910140824
 40
0.7068759051535224
 40
0.7068759051535224
 40
0.7068759051535224
 40
0.8112977769422061
 40
0.8112977769422061
 40
0.8112977769422061
 40
0.9184972697620318
 40
0.9184972697620318
 40
0.9184972697620318
 40
1.0
 40
1.0
 40
1.0
 40
1.0
 10
-9.98363592475782
 20
-4.837902328718577
 30
0.0
 10
-10.01304404038275
 20
-4.834977726264641
 30
0.0
 10
-10.04288900060105
 20
-4.828585624754969
 30
0.0
 10
-10.07070701140411
 20
-4.819159453551965
 30
0.0
 10
-10.09854707198855
 20
-4.809725810750226
 30
0.0
 10
-10.12513722700683
 20
-4.796973606121987
 30
0.0
 10
-10.14808546260303
 20
-4.781858242344615
 30
0.0
 10
-10.17053320986864
 20
-4.767072536294157
 30
0.0
 10
-10.1901334669649
 20
-4.749590375975427
 30
0.0
 10
-10.20503720287428
 20
-4.730833665950569
 30
0.0
 10
-10.21947015406392
 20
-4.712669449816238
 30
0.0
 10
-10.2299064949487
 20
-4.692787939110405
 30
0.0
 10
-10.23536123071557
 20
-4.672860017857555
 30
0.0
 10
-10.23843745993026
 20
-4.661621553490826
 30
0.0
 10
-10.24000000000342
 20
-4.650227203452335
 30
0.0
 10
-10.24000000000342
 20
-4.638999834012483
 30
0.0
 10
-10.24000000000342
 20
-4.619634151622811
 30
0.0
 10
-10.23525999284967
 20
-4.600344651841381
 30
0.0
 10
-10.2262118630657
 20
-4.582752623962442
 30
0.0
 10
-10.21716711212147
 20
-4.565167165467923
 30
0.0
 10
-10.20357891879683
 20
-4.548799443229898
 30
0.0
 10
-10.18663710578348
 20
-4.534982901331034
 30
0.0
 10
-10.16951249062753
 20
-4.521017278961248
 30
0.0
 10
-10.14851449411008
 20
-4.509283933023774
 30
0.0
 10
-10.12538995043207
 20
-4.500681663948484
 30
0.0
 10
-10.10165373433114
 20
-4.491851854349967
 30
0.0
 10
-10.07505582138924
 20
-4.486083692026969
 30
0.0
 10
-10.04772653623685
 20
-4.483774431116598
 30
0.0
 10
-10.02682788621989
 20
-4.482008543889963
 30
0.0
 10
-10.00514498979426
 20
-4.48220988694672
 30
0.0
 10
-9.98363592475782
 20
-4.484348938125303
 30
0.0
  0
SPLINE
  5
94
330
1F
100
AcDbEntity
  8
SK3
100
AcDbSpline
210
0.0
220
0.0
230
1.0
 70
     8
 71
     3
 72
    35
 73
    31
 74
     0
 42
0.0000000147499751
 43
0.0000000001
 12
1.0
 22
0.0
 32
0.0
 13
1.0
 23
0.0
 33
0.0
 40
0.0
 40
0.0
 40
0.0
 40
0.0
 40
0.1062806031721957
 40
0.1062806031721957
 40
0.1062806031721957
 40
0.2125147428504288
 40
0.2125147428504288
 40
0.2125147428504288
 40
0.319476056437788
 40
0.319476056437788
 40
0.319476056437788
 40
0.4272579005019584
 40
0.4272579005019584
 40
0.4272579005019584
 40
0.4999867305917924
 40
0.4999867305917924
 40
0.4999867305917924
 40
0.6068398440867617
 40
0.6068398440867617
 40
0.6068398440867617
 40
0.7136492969419632
 40
0.7136492969419632
 40
0.7136492969419632
 40
0.821105442466548
 40
0.821105442466548
 40
0.821105442466548
 40
0.9288184127994735
 40
0.9288184127994735
 40
0.9288184127994735
 40
1.0
 40
1.0
 40
1.0
 40
1.0
 10
-10.40028522158263
 20
-0.8690483378709523
 30
0.0
 10
-10.42798260881122
 20
-0.8690483378709523
 30
0.0
 10
-10.45606215464374
 20
-0.8729758561017469
 30
0.0
 10
-10.48219058040364
 20
-0.8804160916118067
 30
0.0
 10
-10.50831278270085
 20
-0.8878545549512624
 30
0.0
 10
-10.53320190511804
 20
-0.898993898106664
 30
0.0
 10
-10.55485601230409
 20
-0.9126905166770987
 30
0.0
 10
-10.57665719543783
 20
-0.9264801634725763
 30
0.0
 10
-10.59578042717329
 20
-0.9432265537109813
 30
0.0
 10
-10.61069207875205
 20
-0.9613090672234738
 30
0.0
 10
-10.62571328909817
 20
-0.9795244364347937
 30
0.0
 10
-10.63687361175655
 20
-0.9995925693372335
 30
0.0
 10
-10.64323552396298
 20
-1.019654413471337
 30
0.0
 10
-10.64756194409964
 20
-1.033297476063858
 30
0.0
 10
-10.64976994123371
 20
-1.047155615163977
 30
0.0
 10
-10.64976994123374
 20
-1.060660171779705
 30
0.0
 10
-10.6497699412338
 20
-1.080349547974772
 30
0.0
 10
-10.64500603675212
 20
-1.099731848613609
 30
0.0
 10
-10.63588213641309
 20
-1.117285021282339
 30
0.0
 10
-10.62676036442387
 20
-1.134834099288635
 30
0.0
 10
-10.61303558761145
 20
-1.151046376646386
 30
0.0
 10
-10.59582623686612
 20
-1.164833075689478
 30
0.0
 10
-10.57851496170772
 20
-1.178701428086554
 30
0.0
 10
-10.55719855481969
 20
-1.190510888748474
 30
0.0
 10
-10.53360091632906
 20
-1.199563413305161
 30
0.0
 10
-10.50995312725773
 20
-1.208635176624381
 30
0.0
 10
-10.48334901027351
 20
-1.215199986376369
 30
0.0
 10
-10.45601172288459
 20
-1.218895207520157
 30
0.0
 10
-10.4377983594582
 20
-1.221357134509298
 30
0.0
 10
-10.41898200693251
 20
-1.222601728464226
 30
0.0
 10
-10.40028522158263
 20
-1.222601728464225
 30
0.0
  0
LINE
  5
95
330
1F
100
AcDbEntity
  8
SK1
  6
Continuous
100
AcDbLine
 10
-9.9836359248
 20
-4.8379023287
 30
0.0
 11
3.2182480697
 21
-6.1506069224
 31
0.0
  0
ELLIPSE
  5
96
330
1F
100
AcDbEntity
  8
SK1
  6
Continuous
100
AcDbEllipse
 10
39.3277249972
 20
-0.1767766951
 30
0.0
 11
-49.75000000324452
 21
-3.871860461123200E-10
 31
0.0
210
0.0
220
0.0
230
1.0
 40
0.7071067812
 41
0.1227502573856949
 42
0.1328898242138988
  0
LINE
  5
97
330
1F
100
AcDbEntity
  8
SK3
100
AcDbLine
 10
-16.74
 20
0.25
 30
0.0
 11
-16.74
 21
3.7416573868
 31
0.0
  0
LINE
  5
98
330
1F
100
AcDbEntity
  8
SK3
100
AcDbLine
 10
-12.24
 20
0.25
 30
0.0
 11
-12.24
 21
2.9393876913
 31
0.0
  0
LINE
  5
99
330
1F
100
AcDbEntity
  8
SK3
100
AcDbLine
 10
-11.8935898385
 20
0.25
 30
0.0
 11
-11.8935898385
 21
1.4790199458
 31
0.0
  0
LINE
  5
9A
330
1F
100
AcDbEntity
  8
SK1
  6
Continuous
100
AcDbLine
 10
-16.9817519303
 20
0.25
 30
0.0
 11
-16.9817519303
 21
5.6074748856
 31
0.0
  0
LINE
  5
9B
330
1F
100
AcDbEntity
  8
SK1
  6
Continuous
100
AcDbLine
 10
-17.24
 20
0.25
 30
0.0
 11
-17.24
 21
5.3100828438
 31
0.0
  0
LINE
  5
9C
330
1F
100
AcDbEntity
  8
SK1
  6
Continuous
100
AcDbLine
 10
-16.9817519303
 20
-0.25
 30
0.0
 11
-17.24
 21
-0.25
 31
0.0
  0
LINE
  5
9D
330
1F
100
AcDbEntity
  8
SK1
  6
Continuous
100
AcDbLine
 10
-16.9817519303
 20
0.25
 30
0.0
 11
-17.24
 21
0.25
 31
0.0
  0
LINE
  5
9E
330
1F
100
AcDbEntity
  8
SK3
100
AcDbLine
 10
-16.74
 20
3.7416573868
 30
0.0
 11
-17.24
 21
4.0309300221
 31
0.0
  0
LINE
  5
9F
330
1F
100
AcDbEntity
  8
SK3
100
AcDbLine
 10
-16.74
 20
-3.7416573868
 30
0.0
 11
-16.74
 21
-0.25
 31
0.0
  0
LINE
  5
A0
330
1F
100
AcDbEntity
  8
SK3
100
AcDbLine
 10
-12.24
 20
-2.9393876913
 30
0.0
 11
-12.24
 21
-0.25
 31
0.0
  0
LINE
  5
A1
330
1F
100
AcDbEntity
  8
SK3
100
AcDbLine
 10
-11.8935898385
 20
-1.4790199458
 30
0.0
 11
-11.8935898385
 21
-0.25
 31
0.0
  0
LINE
  5
A2
330
1F
100
AcDbEntity
  8
SK1
  6
Continuous
100
AcDbLine
 10
-17.24
 20
-5.3100828438
 30
0.0
 11
-17.24
 21
-0.25
 31
0.0
  0
LINE
  5
A3
330
1F
100
AcDbEntity
  8
SK1
  6
Continuous
100
AcDbLine
 10
-16.9817519303
 20
-5.6074748856
 30
0.0
 11
-16.9817519303
 21
-0.25
 31
0.0
  0
ARC
  5
A4
330
1F
100
AcDbEntity
  8
SK1
  6
Continuous
100
AcDbCircle
 10
-16.9397951093
 20
-5.3102163796
 30
0.0
 40
0.3002049204166357
100
AcDbArc
 50
179.9745139479
 51
261.966006325
  0
LINE
  5
A5
330
1F
100
AcDbEntity
  8
SK3
100
AcDbLine
 10
-17.24
 20
-4.0309300221
 30
0.0
 11
-16.74
 21
-3.7416573868
 31
0.0
  0
LINE
  5
A6
330
1F
100
AcDbEntity
  8
SK3
100
AcDbLine
 10
-16.74
 20
-3.7416573868
 30
0.0
 11
-13.04
 21
-3.7416573868
 31
0.0
  0
SPLINE
  5
A7
330
1F
100
AcDbEntity
  8
SK3
100
AcDbSpline
210
0.0
220
0.0
230
1.0
 70
     8
 71
     3
 72
    20
 73
    16
 74
     0
 42
0.0000000079120924
 43
0.0000000001
 12
1.0
 22
0.0
 32
0.0
 13
1.0
 23
0.0
 33
0.0
 40
0.0
 40
0.0
 40
0.0
 40
0.0
 40
0.2138955458590422
 40
0.2138955458590422
 40
0.2138955458590422
 40
0.4279372048282655
 40
0.4279372048282655
 40
0.4279372048282655
 40
0.6421595378041547
 40
0.6421595378041547
 40
0.6421595378041547
 40
0.8568469621908055
 40
0.8568469621908055
 40
0.8568469621908055
 40
1.0
 40
1.0
 40
1.0
 40
1.0
 10
-13.04000000000342
 20
-3.741657386773944
 30
0.0
 10
-12.95068407380423
 20
-3.741657386773944
 30
0.0
 10
-12.86013829658539
 20
-3.726240026188312
 30
0.0
 10
-12.77585253318098
 20
-3.696689311135104
 30
0.0
 10
-12.69150721250003
 20
-3.667117715211421
 30
0.0
 10
-12.61110769879267
 20
-3.62257953940149
 30
0.0
 10
-12.54128786971217
 20
-3.566778071021033
 30
0.0
 10
-12.47140787772362
 20
-3.510928519185565
 30
0.0
 10
-12.41020276185754
 20
-3.442262734921835
 30
0.0
 10
-12.3626906325938
 20
-3.366467066883568
 30
0.0
 10
-12.31507570388464
 20
-3.29050740382424
 30
0.0
 10
-12.27990277490785
 20
-3.205302036414272
 30
0.0
 10
-12.26002871751288
 20
-3.117883081428947
 30
0.0
 10
-12.24675596836679
 20
-3.059500948527039
 30
0.0
 10
-12.2400000000033
 20
-2.999259548768037
 30
0.0
 10
-12.23999999999523
 20
-2.939387691338882
 30
0.0
  0
LINE
  5
A8
330
1F
100
AcDbEntity
  8
SK3
100
AcDbLine
 10
-12.24
 20
-1.6815171721
 30
0.0
 11
-11.8935898385
 21
-1.4790199458
 31
0.0
  0
LINE
  5
A9
330
1F
100
AcDbEntity
  8
SK3
100
AcDbLine
 10
-11.8935898385
 20
-1.4790199458
 30
0.0
 11
-1.9178890094
 21
-1.4790199458
 31
0.0
  0
LINE
  5
AA
330
1F
100
AcDbEntity
  8
SK3
100
AcDbLine
 10
-11.8935898385
 20
1.4790199458
 30
0.0
 11
-12.24
 21
1.6815171721
 31
0.0
  0
SPLINE
  5
AB
330
1F
100
AcDbEntity
  8
SK3
100
AcDbSpline
210
0.0
220
0.0
230
1.0
 70
     8
 71
     3
 72
    23
 73
    19
 74
     0
 42
0.0000000079134795
 43
0.0000000001
 12
1.0
 22
0.0
 32
0.0
 13
1.0
 23
0.0
 33
0.0
 40
0.0
 40
0.0
 40
0.0
 40
0.0
 40
0.071583144690993
 40
0.071583144690993
 40
0.071583144690993
 40
0.287829568756634
 40
0.287829568756634
 40
0.287829568756634
 40
0.5035712391785468
 40
0.5035712391785468
 40
0.5035712391785468
 40
0.718678924109984
 40
0.718678924109984
 40
0.718678924109984
 40
0.9332439708924166
 40
0.9332439708924166
 40
0.9332439708924166
 40
1.0
 40
1.0
 40
1.0
 40
1.0
 10
-12.23999999999587
 20
2.939387691340675
 30
0.0
 10
-12.24000000000345
 20
2.969442585868676
 30
0.0
 10
-12.24168676792859
 20
2.999544477670566
 30
0.0
 10
-12.24504574038669
 20
3.02941108091046
 30
0.0
 10
-12.25512804162587
 20
3.119058761745103
 30
0.0
 10
-12.28084635166486
 20
3.208209478600134
 30
0.0
 10
-12.32010104499813
 20
3.289434034792326
 30
0.0
 10
-12.35926452979547
 20
3.370469865198563
 30
0.0
 10
-12.4129889306048
 20
3.445859229346224
 30
0.0
 10
-12.47683264124837
 20
3.509298688378912
 30
0.0
 10
-12.54049106359808
 20
3.572554032343579
 30
0.0
 10
-12.61597317867245
 20
3.625678583427611
 30
0.0
 10
-12.69701431396135
 20
3.664226834584147
 30
0.0
 10
-12.77785446202585
 20
3.70267948360014
 30
0.0
 10
-12.86646077426138
 20
3.727690800242889
 30
0.0
 10
-12.9554769797565
 20
3.737169772480812
 30
0.0
 10
-12.98353238707339
 20
3.740157278245646
 30
0.0
 10
-13.01178597741868
 20
3.741657386774146
 30
0.0
 10
-13.04000000000342
 20
3.741657386773948
 30
0.0
  0
LINE
  5
AC
330
1F
100
AcDbEntity
  8
SK3
100
AcDbLine
 10
-13.04
 20
3.7416573868
 30
0.0
 11
-16.74
 21
3.7416573868
 31
0.0
  0
ARC
  5
AD
330
1F
100
AcDbEntity
  8
SK1
  6
Continuous
100
AcDbCircle
 10
-16.9397950073
 20
5.310216291
 30
0.0
 40
0.3002050223243981
100
AcDbArc
 50
98.0340105797
 51
180.0254691473
  0
SPLINE
  5
AE
330
1F
100
AcDbEntity
  8
SK1
  6
Continuous
100
AcDbSpline
210
0.0
220
0.0
230
1.0
 70
     8
 71
     3
 72
    11
 73
     7
 74
     0
 42
0.0000000006831798
 43
0.0000000001
 12
1.0
 22
0.0
 32
0.0
 13
1.0
 23
0.0
 33
0.0
 40
0.0
 40
0.0
 40
0.0
 40
0.0
 40
0.6732288776721553
 40
0.6732288776721553
 40
0.6732288776721553
 40
1.0
 40
1.0
 40
1.0
 40
1.0
 10
-16.98175193029146
 20
5.607474885600693
 30
0.0
 10
-13.72900042738553
 20
6.06507339858391
 30
0.0
 10
-10.47623418865359
 20
6.522567166919221
 30
0.0
 10
-7.223460482606893
 20
6.980007825357506
 30
0.0
 10
-5.64463261282578
 20
7.202039889552694
 30
0.0
 10
-4.065802885445474
 20
7.424058744936072
 30
0.0
 10
-2.486971747236666
 20
7.646067566721673
 30
0.0
  0
LINE
  5
AF
330
1F
100
AcDbEntity
  8
SK1
  6
Continuous
100
AcDbLine
 10
-2.4869717472
 20
-0.25
 30
0.0
 11
-16.9817519303
 21
-0.25
 31
0.0
  0
LINE
  5
B0
330
1F
100
AcDbEntity
  8
SK3
100
AcDbLine
 10
-2.4869717472
 20
-0.25
 30
0.0
 11
-1.9178890094
 21
-0.25
 31
0.0
  0
ARC
  5
B1
330
1F
100
AcDbEntity
  8
SK1
  6
Continuous
100
AcDbCircle
 10
-2.4900066535
 20
0.0
 30
0.0
 40
0.250018420633256
100
AcDbArc
 50
270.6955151132
 51
89.3044848879
  0
ARC
  5
B2
330
1F
100
AcDbEntity
  8
SK3
100
AcDbCircle
 10
-1.9183807822
 20
0.0
 30
0.0
 40
0.2500004836803659
100
AcDbArc
 50
270.112705862
 51
89.887294138
  0
LINE
  5
B3
330
1F
100
AcDbEntity
  8
SK1
  6
Continuous
100
AcDbLine
 10
-2.4869717472
 20
0.25
 30
0.0
 11
-16.9817519303
 21
0.25
 31
0.0
  0
LINE
  5
B4
330
1F
100
AcDbEntity
  8
SK3
100
AcDbLine
 10
-1.9178890094
 20
0.25
 30
0.0
 11
-2.4869717472
 21
0.25
 31
0.0
  0
ARC
  5
B5
330
1F
100
AcDbEntity
  8
SK3
100
AcDbCircle
 10
-1.9189023563
 20
2.9849363856
 30
0.0
 40
1.505916780770804
100
AcDbArc
 50
270.0385549214
 51
279.5752359313
  0
SPLINE
  5
B6
330
1F
100
AcDbEntity
  8
SK1
  6
Continuous
100
AcDbSpline
210
0.0
220
0.0
230
1.0
 70
     8
 71
     3
 72
    20
 73
    16
 74
     0
 42
0.0000000399981231
 43
0.0000000001
 12
1.0
 22
0.0
 32
0.0
 13
1.0
 23
0.0
 33
0.0
 40
0.0
 40
0.0
 40
0.0
 40
0.0
 40
0.2149223877893253
 40
0.2149223877893253
 40
0.2149223877893253
 40
0.4298431822597445
 40
0.4298431822597445
 40
0.4298431822597445
 40
0.6447861082664013
 40
0.6447861082664013
 40
0.6447861082664013
 40
0.859711282982098
 40
0.859711282982098
 40
0.859711282982098
 40
1.0
 40
1.0
 40
1.0
 40
1.0
 10
-2.240000000002237
 20
7.684863158726336
 30
0.0
 10
-2.240000000002207
 20
7.684863158726341
 30
0.0
 10
-2.244759321055077
 20
7.684033116970616
 30
0.0
 10
-2.253887373516957
 20
7.682465812358879
 30
0.0
 10
-2.263015386715108
 20
7.680898514488801
 30
0.0
 10
-2.276764077204483
 20
7.678552908602292
 30
0.0
 10
-2.294004815820134
 20
7.675684870793595
 30
0.0
 10
-2.311247249190958
 20
7.672816551058351
 30
0.0
 10
-2.332458688962667
 20
7.669349955516482
 30
0.0
 10
-2.355894028103441
 20
7.6656448760928
 30
0.0
 10
-2.379327338195861
 20
7.66194011745753
 30
0.0
 10
-2.405631302548389
 20
7.657897869899473
 30
0.0
 10
-2.43263416681736
 20
7.653905164008566
 30
0.0
 10
-2.450404241192177
 20
7.651277639760345
 30
0.0
 10
-2.468738475035801
 20
7.648631455399653
 30
0.0
 10
-2.486971747236666
 20
7.646067566721673
 30
0.0
  0
SPLINE
  5
B7
330
1F
100
AcDbEntity
  8
SK1
  6
Continuous
100
AcDbSpline
210
0.0
220
0.0
230
1.0
 70
     8
 71
     3
 72
    20
 73
    16
 74
     0
 42
0.0000000399981001
 43
0.0000000001
 12
1.0
 22
0.0
 32
0.0
 13
1.0
 23
0.0
 33
0.0
 40
0.0
 40
0.0
 40
0.0
 40
0.0
 40
0.2148500002122874
 40
0.2148500002122874
 40
0.2148500002122874
 40
0.4296987889033124
 40
0.4296987889033124
 40
0.4296987889033124
 40
0.6445720637313617
 40
0.6445720637313617
 40
0.6445720637313617
 40
0.8595100949037041
 40
0.8595100949037041
 40
0.8595100949037041
 40
0.9999999999999999
 40
0.9999999999999999
 40
0.9999999999999999
 40
0.9999999999999999
 10
-2.486971747241409
 20
-7.646067566721003
 30
0.0
 10
-2.459274545891663
 20
-7.649962234674856
 30
0.0
 10
-2.431217633483687
 20
-7.654069332497698
 30
0.0
 10
-2.405121122296189
 20
-7.658023786816994
 30
0.0
 10
-2.379024669568073
 20
-7.661978232277827
 30
0.0
 10
-2.354168709310645
 20
-7.665886823133863
 30
0.0
 10
-2.332601308453544
 20
-7.669363590656425
 30
0.0
 10
-2.311031396166395
 20
-7.672840763033447
 30
0.0
 10
-2.292155403100598
 20
-7.675978478670982
 30
0.0
 10
-2.277523860699711
 20
-7.678444628301056
 30
0.0
 10
-2.262888040600446
 20
-7.680911498938118
 30
0.0
 10
-2.252095067027514
 20
-7.682771317527047
 30
0.0
 10
-2.24603087239124
 20
-7.6838189040189
 30
0.0
 10
-2.242034747881202
 20
-7.684509232464401
 30
0.0
 10
-2.240000000003432
 20
-7.684863158726126
 30
0.0
 10
-2.240000000003432
 20
-7.684863158726126
 30
0.0
  0
ARC
  5
B8
330
1F
100
AcDbEntity
  8
SK3
100
AcDbCircle
 10
-1.9189023563
 20
-2.9849363856
 30
0.0
 40
1.505916780771205
100
AcDbArc
 50
80.4247640686
 51
89.9614450786
  0
SPLINE
  5
B9
330
1F
100
AcDbEntity
  8
SK1
  6
Continuous
100
AcDbSpline
210
0.0
220
0.0
230
1.0
 70
     8
 71
     3
 72
    11
 73
     7
 74
     0
 42
0.0000000006831798
 43
0.0000000001
 12
1.0
 22
0.0
 32
0.0
 13
1.0
 23
0.0
 33
0.0
 40
0.0
 40
0.0
 40
0.0
 40
0.0
 40
0.8737249549639965
 40
0.8737249549639965
 40
0.8737249549639965
 40
1.0
 40
1.0
 40
1.0
 40
1.0
 10
-2.486971747241409
 20
-7.646067566721003
 30
0.0
 10
-6.708471355293507
 20
-7.052457438651646
 30
0.0
 10
-10.92996172525299
 20
-6.458781595597065
 30
0.0
 10
-15.15143075679144
 20
-5.864954061129107
 30
0.0
 10
-15.76153830755711
 20
-5.779131173427043
 30
0.0
 10
-16.37164538804517
 20
-5.693304942475251
 30
0.0
 10
-16.98175193029146
 20
-5.60747488560069
 30
0.0
  0
LINE
  5
BA
330
1F
100
AcDbEntity
  8
SK3
100
AcDbLine
 10
-1.9178890094
 20
1.4790199458
 30
0.0
 11
-11.8935898385
 21
1.4790199458
 31
0.0
  0
LINE
  5
BB
330
1F
100
AcDbEntity
  8
SK1
  6
Continuous
100
AcDbLine
 10
3.2182480697
 20
8.4519698985
 30
0.0
 11
-2.24
 21
7.6848631587
 31
0.0
  0
LINE
  5
BC
330
1F
100
AcDbEntity
  8
SK1
  6
Continuous
100
AcDbLine
 10
-2.24
 20
-7.6848631587
 30
0.0
 11
3.2182480697
 21
-8.4519698985
 31
0.0
  0
LINE
  5
BD
330
1F
100
AcDbEntity
  8
SK3
100
AcDbLine
 10
-1.6684042898
 20
-1.5
 30
0.0
 11
9.86
 21
-1.5
 31
0.0
  0
LINE
  5
BE
330
1F
100
AcDbEntity
  8
SK3
100
AcDbLine
 10
9.86
 20
1.5
 30
0.0
 11
-1.6684042898
 21
1.5
 31
0.0
  0
LINE
  5
BF
330
1F
100
AcDbEntity
  8
SK1
  6
Continuous
100
AcDbLine
 10
6.26
 20
-8.37
 30
0.0
 11
6.7016729559
 21
-8.37
 31
0.0
  0
ARC
  5
C0
330
1F
100
AcDbEntity
  8
SK3
100
AcDbCircle
 10
9.86
 20
-1.9
 30
0.0
 40
0.4
100
AcDbArc
 50
0.0
 51
90.0
  0
ARC
  5
C1
330
1F
100
AcDbEntity
  8
SK1
  6
Continuous
100
AcDbCircle
 10
3.26
 20
-8.1548894778
 30
0.0
 40
0.2999999999999999
100
AcDbArc
 50
262.0
 51
0.0
  0
LINE
  5
C2
330
1F
100
AcDbEntity
  8
SK1
  6
Continuous
100
AcDbLine
 10
10.1539418513
 20
-6.3768316239
 30
0.0
 11
10.1706969024
 21
-6.3627724667
 31
0.0
  0
ARC
  5
C3
330
1F
100
AcDbEntity
  8
SK1
  6
Continuous
100
AcDbCircle
 10
10.01
 20
-6.1712613559
 30
0.0
 40
0.2499999999999997
100
AcDbArc
 50
310.0
 51
360.0
  0
LINE
  5
C4
330
1F
100
AcDbEntity
  8
SK1
  6
Continuous
100
AcDbLine
 10
6.7016729559
 20
-8.37
 30
0.0
 11
10.1539418513
 21
-6.3768316239
 31
0.0
  0
ARC
  5
C5
330
1F
100
AcDbEntity
  8
SK1
  6
Continuous
100
AcDbCircle
 10
6.06
 20
-7.1
 30
0.0
 40
0.1999999999999997
100
AcDbArc
 50
0.0
 51
90.0
  0
LINE
  5
C6
330
1F
100
AcDbEntity
  8
SK1
  6
Continuous
100
AcDbLine
 10
3.76
 20
-6.9
 30
0.0
 11
6.06
 21
-6.9
 31
0.0
  0
ARC
  5
C7
330
1F
100
AcDbEntity
  8
SK1
  6
Continuous
100
AcDbCircle
 10
3.76
 20
-7.1
 30
0.0
 40
0.1999999999999988
100
AcDbArc
 50
90.0
 51
180.0
  0
LINE
  5
C8
330
1F
100
AcDbEntity
  8
SK1
  6
Continuous
100
AcDbLine
 10
6.7016729559
 20
8.37
 30
0.0
 11
6.26
 21
8.37
 31
0.0
  0
ARC
  5
C9
330
1F
100
AcDbEntity
  8
SK3
100
AcDbCircle
 10
9.86
 20
1.9
 30
0.0
 40
0.4
100
AcDbArc
 50
270.0
 51
0.0
  0
ARC
  5
CA
330
1F
100
AcDbEntity
  8
SK1
  6
Continuous
100
AcDbCircle
 10
3.26
 20
8.1548894778
 30
0.0
 40
0.299999999999999
100
AcDbArc
 50
0.0
 51
98.0
  0
LINE
  5
CB
330
1F
100
AcDbEntity
  8
SK1
  6
Continuous
100
AcDbLine
 10
10.1706969024
 20
6.3627724667
 30
0.0
 11
10.1539418513
 21
6.3768316239
 31
0.0
  0
ARC
  5
CC
330
1F
100
AcDbEntity
  8
SK1
  6
Continuous
100
AcDbCircle
 10
10.01
 20
6.1712613559
 30
0.0
 40
0.2500000000000001
100
AcDbArc
 50
0.0
 51
50.0
  0
LINE
  5
CD
330
1F
100
AcDbEntity
  8
SK1
  6
Continuous
100
AcDbLine
 10
10.1539418513
 20
6.3768316239
 30
0.0
 11
6.7016729559
 21
8.37
 31
0.0
  0
ARC
  5
CE
330
1F
100
AcDbEntity
  8
SK1
  6
Continuous
100
AcDbCircle
 10
6.06
 20
7.1
 30
0.0
 40
0.1999999999999988
100
AcDbArc
 50
270.0
 51
0.0
  0
LINE
  5
CF
330
1F
100
AcDbEntity
  8
SK1
  6
Continuous
100
AcDbLine
 10
6.06
 20
6.9
 30
0.0
 11
3.76
 21
6.9
 31
0.0
  0
ARC
  5
D0
330
1F
100
AcDbEntity
  8
SK1
  6
Continuous
100
AcDbCircle
 10
3.76
 20
7.1
 30
0.0
 40
0.1999999999999997
100
AcDbArc
 50
180.0
 51
270.0
  0
ARC
  5
D1
330
1F
100
AcDbEntity
  8
SK3
100
AcDbCircle
 10
14.6389128257
 20
-0.0106867784
 30
0.0
 40
25.31143556304202
100
AcDbArc
 50
169.360215203
 51
177.5623224464
  0
ARC
  5
D2
330
1F
100
AcDbEntity
  8
SK3
100
AcDbCircle
 10
14.6719352238
 20
0.0110250163
 30
0.0
 40
25.34428351555978
100
AcDbArc
 50
182.4351995492
 51
190.6258290123
  0
ARC
  5
D3
330
1F
100
AcDbEntity
  8
SK3
100
AcDbCircle
 10
-51.645899225
 20
0.0
 30
0.0
 40
50.0
100
AcDbArc
 50
1.7191354812
 51
8.8412352036
  0
ARC
  5
D4
330
1F
100
AcDbEntity
  8
SK3
100
AcDbCircle
 10
-51.645899225
 20
0.0
 30
0.0
 40
50.0
100
AcDbArc
 50
351.1587286693
 51
358.2808880965
  0
LINE
  5
D7
330
1F
100
AcDbEntity
  8
SK4
  6
CENTER2
100
AcDbLine
 10
-17.2522562619
 20
0.0
 30
0.0
 11
10.2584177558
 21
0.0
 31
0.0
  0
LINE
  5
D9
330
1F
100
AcDbEntity
  8
SK1
  6
PHANTOM2
100
AcDbLine
 10
0.0
 20
-2.1939246169
 30
0.0
 11
0.0
 21
-7.9996746285
 31
0.0
  0
LINE
  5
DA
330
1F
100
AcDbEntity
  8
SK1
  6
PHANTOM2
100
AcDbLine
 10
0.0
 20
-2.1939246169
 30
0.0
 11
0.0
 21
7.9996746285
 31
0.0
  0
DIMENSION
  5
F0
330
1F
100
AcDbEntity
  8
SK2
  6
Continuous
 62
   136
100
AcDbDimension
  2
DMBLK61
 10
-17.24
 20
15.2743375285
 30
0.0
 11
-3.4900000745
 21
15.2743375285
 31
0.0
 70
   161
  1
\A1;<>
 71
     5
 42
-1.0
  3
DIN
100
AcDbAlignedDimension
 13
-17.24
 23
5.3100828438
 33
0.0
 14
10.26
 24
5.3540983454
 34
0.0
  0
INSERT
  5
FB
330
1F
100
AcDbEntity
  8
SK2
100
AcDbBlockReference
  2
GDimGGroup
 10
0.0
 20
0.0
 30
0.0
  0
DIMENSION
  5
104
330
1F
100
AcDbEntity
  8
SK2
  6
Continuous
 62
   136
100
AcDbDimension
  2
DMBLK62
 10
10.26
 20
-15.7668108372
 30
0.0
 11
5.1299999468
 21
-15.7668108372
 31
0.0
 70
   160
  1
\A1;<>
 71
     5
 42
-1.0
  3
DIN
100
AcDbAlignedDimension
 13
0.0
 23
-7.9996746285
 33
0.0
 14
10.26
 24
-6.1712613559
 34
0.0
100
AcDbRotatedDimension
  0
INSERT
  5
10F
330
1F
100
AcDbEntity
  8
SK2
100
AcDbBlockReference
  2
GDimGGroup1
 10
0.0
 20
0.0
 30
0.0
  0
INSERT
  5
120
330
1F
100
AcDbEntity
  8
SK2
 62
     7
100
AcDbBlockReference
  2
Nullpunkt
 10
0.0
 20
0.0
 30
0.0
  0
INSERT
  5
129
330
1F
100
AcDbEntity
  8
SK1
100
AcDbBlockReference
  2
Einfügepunkt
 10
10.26
 20
0.0
 30
0.0
  0
ENDSEC
  0
SECTION
  2
OBJECTS
  0
DICTIONARY
  5
C
330
0
100
AcDbDictionary
281
     1
  3
ACAD_GROUP
350
D
  3
ACAD_LAYOUT
350
1A
  3
ACAD_MATERIAL
350
3B
  3
ACAD_MLEADERSTYLE
350
12C
  3
ACAD_MLINESTYLE
350
17
  3
ACAD_PLOTSETTINGS
350
19
  3
ACAD_PLOTSTYLENAME
350
E
  3
ACAD_VISUALSTYLE
350
2A
  3
AcDbVariableDictionary
350
12A
  0
DICTIONARY
  5
D
102
{ACAD_REACTORS
330
C
102
}
330
C
100
AcDbDictionary
281
     1
  0
DICTIONARY
  5
1A
102
{ACAD_REACTORS
330
C
102
}
330
C
100
AcDbDictionary
281
     1
  3
Layout1
350
1E
  3
Model
350
22
  0
DICTIONARY
  5
3B
102
{ACAD_REACTORS
330
C
102
}
330
C
100
AcDbDictionary
281
     1
  3
ByBlock
350
3D
  3
ByLayer
350
3C
  3
Global
350
3E
  0
DICTIONARY
  5
12C
102
{ACAD_REACTORS
330
C
102
}
330
C
100
AcDbDictionary
281
     1
  0
DICTIONARY
  5
17
102
{ACAD_REACTORS
330
C
102
}
330
C
100
AcDbDictionary
281
     1
  3
Standard
350
18
  0
DICTIONARY
  5
19
102
{ACAD_REACTORS
330
C
102
}
330
C
100
AcDbDictionary
281
     1
  0
ACDBDICTIONARYWDFLT
  5
E
102
{ACAD_REACTORS
330
C
102
}
330
C
100
AcDbDictionary
281
     1
  3
Normal
350
F
100
AcDbDictionaryWithDefault
340
F
  0
DICTIONARY
  5
2A
102
{ACAD_REACTORS
330
C
102
}
330
C
100
AcDbDictionary
281
     1
  3
2dWireframe
350
2F
  3
3D Hidden
350
31
  3
3dWireframe
350
30
  3
Basic
350
32
  3
Brighten
350
36
  3
ColorChange
350
3A
  3
Conceptual
350
34
  3
Dim
350
35
  3
Facepattern
350
39
  3
Flat
350
2B
  3
FlatWithEdges
350
2C
  3
Gouraud
350
2D
  3
GouraudWithEdges
350
2E
  3
Linepattern
350
38
  3
Realistic
350
33
  3
Thicken
350
37
  0
DICTIONARY
  5
12A
102
{ACAD_REACTORS
330
C
102
}
330
C
100
AcDbDictionary
281
     1
  3
DIMASSOC
350
12F
  3
HIDETEXT
350
130
  3
PSOLHEIGHT
350
12E
  3
PSOLWIDTH
350
12D
  0
LAYOUT
  5
1E
102
{ACAD_REACTORS
330
1A
102
}
330
1A
100
AcDbPlotSettings
  1

  2
none_device
  4

  6

 40
0.0
 41
0.0
 42
0.0
 43
0.0
 44
0.0
 45
0.0
 46
0.0
 47
0.0
 48
0.0
 49
0.0
140
0.0
141
0.0
142
1.0
143
1.0
 70
   688
 72
     0
 73
     0
 74
     5
  7

 75
    16
147
1.0
148
0.0
149
0.0
100
AcDbLayout
  1
Layout1
 70
     1
 71
     1
 10
0.0
 20
0.0
 11
210.0
 21
297.0
 12
0.0
 22
0.0
 32
0.0
 14
0.0
 24
0.0
 34
0.0
 15
210.0
 25
297.0
 35
0.0
146
0.0
 13
0.0
 23
0.0
 33
0.0
 16
1.0
 26
0.0
 36
0.0
 17
0.0
 27
1.0
 37
0.0
 76
     0
330
1B
  0
LAYOUT
  5
22
102
{ACAD_REACTORS
330
1A
102
}
330
1A
100
AcDbPlotSettings
  1

  2
none_device
  4

  6

 40
0.0
 41
0.0
 42
0.0
 43
0.0
 44
0.0
 45
0.0
 46
0.0
 47
0.0
 48
0.0
 49
0.0
140
0.0
141
0.0
142
1.0
143
1.0
 70
  1712
 72
     0
 73
     0
 74
     0
  7

 75
     0
147
1.0
148
0.0
149
0.0
100
AcDbLayout
  1
Model
 70
     1
 71
     0
 10
0.0
 20
0.0
 11
210.0
 21
297.0
 12
0.0
 22
0.0
 32
0.0
 14
0.0
 24
0.0
 34
0.0
 15
210.0
 25
297.0
 35
0.0
146
0.0
 13
0.0
 23
0.0
 33
0.0
 16
1.0
 26
0.0
 36
0.0
 17
0.0
 27
1.0
 37
0.0
 76
     0
330
1F
331
29
  0
MATERIAL
  5
3D
102
{ACAD_REACTORS
330
3B
102
}
102
{ACAD_XDICTIONARY
360
153
102
}
330
3B
100
AcDbMaterial
  1
ByBlock
  0
MATERIAL
  5
3C
102
{ACAD_REACTORS
330
3B
102
}
102
{ACAD_XDICTIONARY
360
151
102
}
330
3B
100
AcDbMaterial
  1
ByLayer
  0
MATERIAL
  5
3E
102
{ACAD_REACTORS
330
3B
102
}
102
{ACAD_XDICTIONARY
360
155
102
}
330
3B
100
AcDbMaterial
  1
Global
  0
MLINESTYLE
  5
18
102
{ACAD_REACTORS
330
17
102
}
330
17
100
AcDbMlineStyle
  2
Standard
 70
     0
  3

 62
   256
 51
90.0
 52
90.0
 71
     2
 49
0.5
 62
   256
  6
BYLAYER
 49
-0.5
 62
   256
  6
BYLAYER
  0
ACDBPLACEHOLDER
  5
F
102
{ACAD_REACTORS
330
E
102
}
330
E
  0
VISUALSTYLE
  5
2F
102
{ACAD_REACTORS
330
2A
102
}
102
{ACAD_XDICTIONARY
360
139
102
}
330
2A
100
AcDbVisualStyle
  2
2dWireframe
 70
     4
 71
     0
 72
     2
 73
     0
 90
        0
 40
-0.6
 41
-30.0
 62
     5
 63
     7
 74
     1
 91
        4
 64
     7
 65
   257
 75
     1
175
     1
 42
1.0
 92
        0
 66
   257
 43
1.0
 76
     1
 77
     6
 78
     2
 67
     7
 79
     5
170
     0
171
     0
290
     0
174
     0
 93
        1
 44
0.0
173
     0
291
     0
 45
0.0
1001
ACAD
1000
AcDbSavedByObjectVersion
1070
     0
  0
VISUALSTYLE
  5
31
102
{ACAD_REACTORS
330
2A
102
}
102
{ACAD_XDICTIONARY
360
13D
102
}
330
2A
100
AcDbVisualStyle
  2
3D Hidden
 70
     6
 71
     1
 72
     2
 73
     2
 90
        0
 40
-0.6
 41
-30.0
 62
     5
 63
     7
 74
     2
 91
        2
 64
     7
 65
   257
 75
     2
175
     1
 42
40.0
 92
        0
 66
   257
 43
1.0
 76
     1
 77
     6
 78
     2
 67
     7
 79
     3
170
     0
171
     0
290
     0
174
     0
 93
        1
 44
0.0
173
     0
291
     0
 45
0.0
1001
ACAD
1000
AcDbSavedByObjectVersion
1070
     0
  0
VISUALSTYLE
  5
30
102
{ACAD_REACTORS
330
2A
102
}
102
{ACAD_XDICTIONARY
360
13B
102
}
330
2A
100
AcDbVisualStyle
  2
3dWireframe
 70
     5
 71
     0
 72
     2
 73
     0
 90
        0
 40
-0.6
 41
-30.0
 62
     5
 63
     7
 74
     1
 91
        4
 64
     7
 65
   257
 75
     1
175
     1
 42
1.0
 92
        0
 66
   257
 43
1.0
 76
     1
 77
     6
 78
     2
 67
     7
 79
     5
170
     0
171
     0
290
     0
174
     0
 93
        1
 44
0.0
173
     0
291
     0
 45
0.0
1001
ACAD
1000
AcDbSavedByObjectVersion
1070
     0
  0
VISUALSTYLE
  5
32
102
{ACAD_REACTORS
330
2A
102
}
102
{ACAD_XDICTIONARY
360
13F
102
}
330
2A
100
AcDbVisualStyle
  2
Basic
 70
     7
 71
     1
 72
     0
 73
     1
 90
        0
 40
-0.6
 41
-30.0
 62
     5
 63
     7
 74
     0
 91
        4
 64
     7
 65
   257
 75
     1
175
     1
 42
1.0
 92
        8
 66
     7
 43
1.0
 76
     1
 77
     6
 78
     2
 67
     7
 79
     5
170
     0
171
     0
290
     0
174
     0
 93
        1
 44
0.0
173
     0
291
     1
 45
0.0
1001
ACAD
1000
AcDbSavedByObjectVersion
1070
     0
  0
VISUALSTYLE
  5
36
102
{ACAD_REACTORS
330
2A
102
}
102
{ACAD_XDICTIONARY
360
147
102
}
330
2A
100
AcDbVisualStyle
  2
Brighten
 70
    12
 71
     2
 72
     2
 73
     0
 90
        0
 40
-0.6
 41
-30.0
 62
     5
 63
     7
 74
     1
 91
        4
 64
     7
 65
   257
 75
     1
175
     1
 42
1.0
 92
        8
 66
     7
 43
1.0
 76
     1
 77
     6
 78
     2
 67
     7
 79
     5
170
     0
171
     0
290
     0
174
     0
 93
        1
 44
50.0
173
     0
291
     1
 45
0.0
1001
ACAD
1000
AcDbSavedByObjectVersion
1070
     0
  0
VISUALSTYLE
  5
3A
102
{ACAD_REACTORS
330
2A
102
}
102
{ACAD_XDICTIONARY
360
14F
102
}
330
2A
100
AcDbVisualStyle
  2
ColorChange
 70
    16
 71
     2
 72
     2
 73
     3
 90
        0
 40
-0.6
 41
-30.0
 62
     5
 63
     8
 74
     1
 91
        4
 64
     7
 65
   257
 75
     1
175
     1
 42
1.0
 92
        8
 66
     8
 43
1.0
 76
     1
 77
     6
 78
     2
 67
     7
 79
     5
170
     0
171
     0
290
     0
174
     0
 93
        1
 44
0.0
173
     0
291
     1
 45
0.0
1001
ACAD
1000
AcDbSavedByObjectVersion
1070
     0
  0
VISUALSTYLE
  5
34
102
{ACAD_REACTORS
330
2A
102
}
102
{ACAD_XDICTIONARY
360
143
102
}
330
2A
100
AcDbVisualStyle
  2
Conceptual
 70
     9
 71
     3
 72
     2
 73
     0
 90
        0
 40
-0.6
 41
-30.0
 62
     5
 63
     7
 74
     2
 91
        2
 64
     7
 65
   257
 75
     1
175
     1
 42
40.0
 92
        8
 66
     7
 43
1.0
 76
     1
 77
     6
 78
     2
 67
     7
 79
     3
170
     0
171
     0
290
     0
174
     0
 93
        1
 44
0.0
173
     0
291
     0
 45
0.0
1001
ACAD
1000
AcDbSavedByObjectVersion
1070
     0
  0
VISUALSTYLE
  5
35
102
{ACAD_REACTORS
330
2A
102
}
102
{ACAD_XDICTIONARY
360
145
102
}
330
2A
100
AcDbVisualStyle
  2
Dim
 70
    11
 71
     2
 72
     2
 73
     0
 90
        0
 40
-0.6
 41
-30.0
 62
     5
 63
     7
 74
     1
 91
        4
 64
     7
 65
   257
 75
     1
175
     1
 42
1.0
 92
        8
 66
     7
 43
1.0
 76
     1
 77
     6
 78
     2
 67
     7
 79
     5
170
     0
171
     0
290
     0
174
     0
 93
        1
 44
-50.0
173
     0
291
     1
 45
0.0
1001
ACAD
1000
AcDbSavedByObjectVersion
1070
     0
  0
VISUALSTYLE
  5
39
102
{ACAD_REACTORS
330
2A
102
}
102
{ACAD_XDICTIONARY
360
14D
102
}
330
2A
100
AcDbVisualStyle
  2
Facepattern
 70
    15
 71
     2
 72
     2
 73
     0
 90
        0
 40
-0.6
 41
-30.0
 62
     5
 63
     7
 74
     1
 91
        4
 64
     7
 65
   257
 75
     1
175
     1
 42
1.0
 92
        8
 66
     7
 43
1.0
 76
     1
 77
     6
 78
     2
 67
     7
 79
     5
170
     0
171
     0
290
     0
174
     0
 93
        1
 44
0.0
173
     0
291
     1
 45
0.0
1001
ACAD
1000
AcDbSavedByObjectVersion
1070
     0
  0
VISUALSTYLE
  5
2B
102
{ACAD_REACTORS
330
2A
102
}
102
{ACAD_XDICTIONARY
360
131
102
}
330
2A
100
AcDbVisualStyle
  2
Flat
 70
     0
 71
     2
 72
     1
 73
     1
 90
        2
 40
-0.6
 41
30.0
 62
     5
 63
     7
 74
     0
 91
        4
 64
     7
 65
   257
 75
     1
175
     1
 42
1.0
 92
        8
 66
     7
 43
1.0
 76
     1
 77
     6
 78
     2
 67
     7
 79
     5
170
     0
171
     0
290
     0
174
     0
 93
       13
 44
0.0
173
     0
291
     1
 45
0.0
1001
ACAD
1000
AcDbSavedByObjectVersion
1070
     0
  0
VISUALSTYLE
  5
2C
102
{ACAD_REACTORS
330
2A
102
}
102
{ACAD_XDICTIONARY
360
133
102
}
330
2A
100
AcDbVisualStyle
  2
FlatWithEdges
 70
     1
 71
     2
 72
     1
 73
     1
 90
        2
 40
-0.6
 41
30.0
 62
     5
 63
     7
 74
     1
 91
        4
 64
     7
 65
   257
 75
     1
175
     1
 42
1.0
 92
        0
 66
   257
 43
1.0
 76
     1
 77
     6
 78
     2
 67
     7
 79
     5
170
     0
171
     0
290
     0
174
     0
 93
       13
 44
0.0
173
     0
291
     1
 45
0.0
1001
ACAD
1000
AcDbSavedByObjectVersion
1070
     0
  0
VISUALSTYLE
  5
2D
102
{ACAD_REACTORS
330
2A
102
}
102
{ACAD_XDICTIONARY
360
135
102
}
330
2A
100
AcDbVisualStyle
  2
Gouraud
 70
     2
 71
     2
 72
     2
 73
     1
 90
        2
 40
-0.6
 41
30.0
 62
     5
 63
     7
 74
     0
 91
        4
 64
     7
 65
   257
 75
     1
175
     1
 42
1.0
 92
        0
 66
     7
 43
1.0
 76
     1
 77
     6
 78
     2
 67
     7
 79
     5
170
     0
171
     0
290
     0
174
     0
 93
       13
 44
0.0
173
     0
291
     1
 45
0.0
1001
ACAD
1000
AcDbSavedByObjectVersion
1070
     0
  0
VISUALSTYLE
  5
2E
102
{ACAD_REACTORS
330
2A
102
}
102
{ACAD_XDICTIONARY
360
137
102
}
330
2A
100
AcDbVisualStyle
  2
GouraudWithEdges
 70
     3
 71
     2
 72
     2
 73
     1
 90
        2
 40
-0.6
 41
30.0
 62
     5
 63
     7
 74
     1
 91
        4
 64
     7
 65
   257
 75
     1
175
     1
 42
1.0
 92
        0
 66
   257
 43
1.0
 76
     1
 77
     6
 78
     2
 67
     7
 79
     5
170
     0
171
     0
290
     0
174
     0
 93
       13
 44
0.0
173
     0
291
     1
 45
0.0
1001
ACAD
1000
AcDbSavedByObjectVersion
1070
     0
  0
VISUALSTYLE
  5
38
102
{ACAD_REACTORS
330
2A
102
}
102
{ACAD_XDICTIONARY
360
14B
102
}
330
2A
100
AcDbVisualStyle
  2
Linepattern
 70
    14
 71
     2
 72
     2
 73
     0
 90
        0
 40
-0.6
 41
-30.0
 62
     5
 63
     7
 74
     1
 91
        4
 64
     7
 65
   257
 75
     7
175
     7
 42
1.0
 92
        8
 66
     7
 43
1.0
 76
     1
 77
     6
 78
     2
 67
     7
 79
     5
170
     0
171
     0
290
     0
174
     0
 93
        1
 44
0.0
173
     0
291
     1
 45
0.0
1001
ACAD
1000
AcDbSavedByObjectVersion
1070
     0
  0
VISUALSTYLE
  5
33
102
{ACAD_REACTORS
330
2A
102
}
102
{ACAD_XDICTIONARY
360
141
102
}
330
2A
100
AcDbVisualStyle
  2
Realistic
 70
     8
 71
     2
 72
     2
 73
     0
 90
        0
 40
-0.6
 41
-30.0
 62
     5
 63
     7
 74
     1
 91
        0
 64
     7
 65
   257
 75
     1
175
     1
 42
1.0
 92
        8
 66
     8
 43
1.0
 76
     1
 77
     6
 78
     2
 67
     7
 79
     5
170
     0
171
     0
290
     0
174
     0
 93
       13
 44
0.0
173
     0
291
     0
 45
0.0
1001
ACAD
1000
AcDbSavedByObjectVersion
1070
     0
  0
VISUALSTYLE
  5
37
102
{ACAD_REACTORS
330
2A
102
}
102
{ACAD_XDICTIONARY
360
149
102
}
330
2A
100
AcDbVisualStyle
  2
Thicken
 70
    13
 71
     2
 72
     2
 73
     0
 90
        0
 40
-0.6
 41
-30.0
 62
     5
 63
     7
 74
     1
 91
        4
 64
     7
 65
   257
 75
     1
175
     1
 42
1.0
 92
       12
 66
     7
 43
1.0
 76
     1
 77
     6
 78
     2
 67
     7
 79
     5
170
     0
171
     0
290
     0
174
     0
 93
        1
 44
0.0
173
     0
291
     1
 45
0.0
1001
ACAD
1000
AcDbSavedByObjectVersion
1070
     0
  0
DICTIONARYVAR
  5
12F
102
{ACAD_REACTORS
330
12A
102
}
330
12A
100
DictionaryVariables
280
     0
  1
2
  0
DICTIONARYVAR
  5
130
102
{ACAD_REACTORS
330
12A
102
}
330
12A
100
DictionaryVariables
280
     0
  1
1
  0
DICTIONARYVAR
  5
12E
102
{ACAD_REACTORS
330
12A
102
}
330
12A
100
DictionaryVariables
280
     0
  1
80.000000
  0
DICTIONARYVAR
  5
12D
102
{ACAD_REACTORS
330
12A
102
}
330
12A
100
DictionaryVariables
280
     0
  1
5.000000
  0
DICTIONARY
  5
153
330
3D
100
AcDbDictionary
280
     1
281
     1
  3
ACAD_XREC_ROUNDTRIP
360
154
  0
DICTIONARY
  5
151
330
3C
100
AcDbDictionary
280
     1
281
     1
  3
ACAD_XREC_ROUNDTRIP
360
152
  0
DICTIONARY
  5
155
330
3E
100
AcDbDictionary
280
     1
281
     1
  3
ACAD_XREC_ROUNDTRIP
360
156
  0
DICTIONARY
  5
139
330
2F
100
AcDbDictionary
280
     1
281
     1
  3
ACAD_XREC_ROUNDTRIP
360
13A
  0
DICTIONARY
  5
13D
330
31
100
AcDbDictionary
280
     1
281
     1
  3
ACAD_XREC_ROUNDTRIP
360
13E
  0
DICTIONARY
  5
13B
330
30
100
AcDbDictionary
280
     1
281
     1
  3
ACAD_XREC_ROUNDTRIP
360
13C
  0
DICTIONARY
  5
13F
330
32
100
AcDbDictionary
280
     1
281
     1
  3
ACAD_XREC_ROUNDTRIP
360
140
  0
DICTIONARY
  5
147
330
36
100
AcDbDictionary
280
     1
281
     1
  3
ACAD_XREC_ROUNDTRIP
360
148
  0
DICTIONARY
  5
14F
330
3A
100
AcDbDictionary
280
     1
281
     1
  3
ACAD_XREC_ROUNDTRIP
360
150
  0
DICTIONARY
  5
143
330
34
100
AcDbDictionary
280
     1
281
     1
  3
ACAD_XREC_ROUNDTRIP
360
144
  0
DICTIONARY
  5
145
330
35
100
AcDbDictionary
280
     1
281
     1
  3
ACAD_XREC_ROUNDTRIP
360
146
  0
DICTIONARY
  5
14D
330
39
100
AcDbDictionary
280
     1
281
     1
  3
ACAD_XREC_ROUNDTRIP
360
14E
  0
DICTIONARY
  5
131
330
2B
100
AcDbDictionary
280
     1
281
     1
  3
ACAD_XREC_ROUNDTRIP
360
132
  0
DICTIONARY
  5
133
330
2C
100
AcDbDictionary
280
     1
281
     1
  3
ACAD_XREC_ROUNDTRIP
360
134
  0
DICTIONARY
  5
135
330
2D
100
AcDbDictionary
280
     1
281
     1
  3
ACAD_XREC_ROUNDTRIP
360
136
  0
DICTIONARY
  5
137
330
2E
100
AcDbDictionary
280
     1
281
     1
  3
ACAD_XREC_ROUNDTRIP
360
138
  0
DICTIONARY
  5
14B
330
38
100
AcDbDictionary
280
     1
281
     1
  3
ACAD_XREC_ROUNDTRIP
360
14C
  0
DICTIONARY
  5
141
330
33
100
AcDbDictionary
280
     1
281
     1
  3
ACAD_XREC_ROUNDTRIP
360
142
  0
DICTIONARY
  5
149
330
37
100
AcDbDictionary
280
     1
281
     1
  3
ACAD_XREC_ROUNDTRIP
360
14A
  0
XRECORD
  5
154
102
{ACAD_REACTORS
330
153
102
}
330
153
100
AcDbXrecord
280
     1
102
MATERIAL
148
0.0
149
0.0
149
0.0
 93
        0
 94
      127
282
     0
 72
     1
 77
     1
171
     1
175
     1
179
     1
273
     0
  0
XRECORD
  5
152
102
{ACAD_REACTORS
330
151
102
}
330
151
100
AcDbXrecord
280
     1
102
MATERIAL
148
0.0
149
0.0
149
0.0
 93
        0
 94
      127
282
     0
 72
     1
 77
     1
171
     1
175
     1
179
     1
273
     0
  0
XRECORD
  5
156
102
{ACAD_REACTORS
330
155
102
}
330
155
100
AcDbXrecord
280
     1
102
MATERIAL
148
0.0
149
0.0
149
0.0
 93
        0
 94
      127
282
     0
 72
     1
 77
     1
171
     1
175
     1
179
     1
273
     0
  0
XRECORD
  5
13A
102
{ACAD_REACTORS
330
139
102
}
330
139
100
AcDbXrecord
280
     1
102
RTVSPropertyOp0
 70
     1
102
RTVSPropertyOp1
 70
     1
102
RTVSPropertyOp2
 70
     1
102
RTVSPropertyOp3
 70
     1
102
RTVSPropertyOp4
 70
     1
102
RTVSPropertyOp5
 70
     1
102
RTVSPropertyOp6
 70
     1
102
RTVSPropertyOp7
 70
     1
102
RTVSPropertyOp8
 70
     1
102
RTVSPropertyOp9
 70
     1
102
RTVSPropertyOp10
 70
     1
102
RTVSPropertyOp11
 70
     1
102
RTVSPropertyOp12
 70
     1
102
RTVSPropertyOp13
 70
     1
102
RTVSPropertyOp14
 70
     1
102
RTVSPropertyOp15
 70
     1
102
RTVSPropertyOp16
 70
     1
102
RTVSPropertyOp17
 70
     1
102
RTVSPropertyOp18
 70
     1
102
RTVSPropertyOp19
 70
     1
102
RTVSPropertyOp20
 70
     1
102
RTVSPropertyOp21
 70
     1
102
RTVSPropertyOp22
 70
     1
102
RTVSPropertyOp23
 70
     1
102
RTVSPropertyOp24
 70
     1
102
RTVSPropertyOp25
 70
     1
102
RTVSPropertyOp26
 70
     1
102
RTVSPropertyOp27
 70
     1
102
RTVSPropertyOp28
 70
     1
102
RTVSPropertyOp29
 70
     1
102
RTVSPropertyOp30
 70
     1
102
RTVSPropertyOp31
 70
     1
102
RTVSPropertyOp32
 70
     1
  0
XRECORD
  5
13E
102
{ACAD_REACTORS
330
13D
102
}
330
13D
100
AcDbXrecord
280
     1
102
RTVSPropertyOp0
 70
     1
102
RTVSPropertyOp1
 70
     1
102
RTVSPropertyOp2
 70
     1
102
RTVSPropertyOp3
 70
     1
102
RTVSPropertyOp4
 70
     1
102
RTVSPropertyOp5
 70
     1
102
RTVSPropertyOp6
 70
     1
102
RTVSPropertyOp7
 70
     1
102
RTVSPropertyOp8
 70
     1
102
RTVSPropertyOp9
 70
     1
102
RTVSPropertyOp10
 70
     1
102
RTVSPropertyOp11
 70
     1
102
RTVSPropertyOp12
 70
     1
102
RTVSPropertyOp13
 70
     1
102
RTVSPropertyOp14
 70
     1
102
RTVSPropertyOp15
 70
     1
102
RTVSPropertyOp16
 70
     1
102
RTVSPropertyOp17
 70
     1
102
RTVSPropertyOp18
 70
     1
102
RTVSPropertyOp19
 70
     1
102
RTVSPropertyOp20
 70
     1
102
RTVSPropertyOp21
 70
     1
102
RTVSPropertyOp22
 70
     1
102
RTVSPropertyOp23
 70
     1
102
RTVSPropertyOp24
 70
     1
102
RTVSPropertyOp25
 70
     1
102
RTVSPropertyOp26
 70
     1
102
RTVSPropertyOp27
 70
     1
102
RTVSPropertyOp28
 70
     1
102
RTVSPropertyOp29
 70
     1
102
RTVSPropertyOp30
 70
     1
102
RTVSPropertyOp31
 70
     1
102
RTVSPropertyOp32
 70
     1
  0
XRECORD
  5
13C
102
{ACAD_REACTORS
330
13B
102
}
330
13B
100
AcDbXrecord
280
     1
102
RTVSPropertyOp0
 70
     1
102
RTVSPropertyOp1
 70
     1
102
RTVSPropertyOp2
 70
     1
102
RTVSPropertyOp3
 70
     1
102
RTVSPropertyOp4
 70
     1
102
RTVSPropertyOp5
 70
     1
102
RTVSPropertyOp6
 70
     1
102
RTVSPropertyOp7
 70
     1
102
RTVSPropertyOp8
 70
     1
102
RTVSPropertyOp9
 70
     1
102
RTVSPropertyOp10
 70
     1
102
RTVSPropertyOp11
 70
     1
102
RTVSPropertyOp12
 70
     1
102
RTVSPropertyOp13
 70
     1
102
RTVSPropertyOp14
 70
     1
102
RTVSPropertyOp15
 70
     1
102
RTVSPropertyOp16
 70
     1
102
RTVSPropertyOp17
 70
     1
102
RTVSPropertyOp18
 70
     1
102
RTVSPropertyOp19
 70
     1
102
RTVSPropertyOp20
 70
     1
102
RTVSPropertyOp21
 70
     1
102
RTVSPropertyOp22
 70
     1
102
RTVSPropertyOp23
 70
     1
102
RTVSPropertyOp24
 70
     1
102
RTVSPropertyOp25
 70
     1
102
RTVSPropertyOp26
 70
     1
102
RTVSPropertyOp27
 70
     1
102
RTVSPropertyOp28
 70
     1
102
RTVSPropertyOp29
 70
     1
102
RTVSPropertyOp30
 70
     1
102
RTVSPropertyOp31
 70
     1
102
RTVSPropertyOp32
 70
     1
  0
XRECORD
  5
140
102
{ACAD_REACTORS
330
13F
102
}
330
13F
100
AcDbXrecord
280
     1
102
RTVSPropertyOp0
 70
     1
102
RTVSPropertyOp1
 70
     1
102
RTVSPropertyOp2
 70
     1
102
RTVSPropertyOp3
 70
     1
102
RTVSPropertyOp4
 70
     1
102
RTVSPropertyOp5
 70
     1
102
RTVSPropertyOp6
 70
     1
102
RTVSPropertyOp7
 70
     1
102
RTVSPropertyOp8
 70
     1
102
RTVSPropertyOp9
 70
     1
102
RTVSPropertyOp10
 70
     1
102
RTVSPropertyOp11
 70
     1
102
RTVSPropertyOp12
 70
     1
102
RTVSPropertyOp13
 70
     1
102
RTVSPropertyOp14
 70
     1
102
RTVSPropertyOp15
 70
     1
102
RTVSPropertyOp16
 70
     1
102
RTVSPropertyOp17
 70
     1
102
RTVSPropertyOp18
 70
     1
102
RTVSPropertyOp19
 70
     1
102
RTVSPropertyOp20
 70
     1
102
RTVSPropertyOp21
 70
     1
102
RTVSPropertyOp22
 70
     1
102
RTVSPropertyOp23
 70
     1
102
RTVSPropertyOp24
 70
     1
102
RTVSPropertyOp25
 70
     1
102
RTVSPropertyOp26
 70
     1
102
RTVSPropertyOp27
 70
     1
102
RTVSPropertyOp28
 70
     1
102
RTVSPropertyOp29
 70
     1
102
RTVSPropertyOp30
 70
     1
102
RTVSPropertyOp31
 70
     1
102
RTVSPropertyOp32
 70
     1
  0
XRECORD
  5
148
102
{ACAD_REACTORS
330
147
102
}
330
147
100
AcDbXrecord
280
     1
102
RTVSPropertyOp0
 70
     1
102
RTVSPropertyOp1
 70
     1
102
RTVSPropertyOp2
 70
     1
102
RTVSPropertyOp3
 70
     1
102
RTVSPropertyOp4
 70
     1
102
RTVSPropertyOp5
 70
     1
102
RTVSPropertyOp6
 70
     1
102
RTVSPropertyOp7
 70
     1
102
RTVSPropertyOp8
 70
     1
102
RTVSPropertyOp9
 70
     1
102
RTVSPropertyOp10
 70
     1
102
RTVSPropertyOp11
 70
     1
102
RTVSPropertyOp12
 70
     1
102
RTVSPropertyOp13
 70
     1
102
RTVSPropertyOp14
 70
     1
102
RTVSPropertyOp15
 70
     1
102
RTVSPropertyOp16
 70
     1
102
RTVSPropertyOp17
 70
     1
102
RTVSPropertyOp18
 70
     1
102
RTVSPropertyOp19
 70
     1
102
RTVSPropertyOp20
 70
     1
102
RTVSPropertyOp21
 70
     1
102
RTVSPropertyOp22
 70
     1
102
RTVSPropertyOp23
 70
     1
102
RTVSPropertyOp24
 70
     1
102
RTVSPropertyOp25
 70
     1
102
RTVSPropertyOp26
 70
     1
102
RTVSPropertyOp27
 70
     1
102
RTVSPropertyOp28
 70
     1
102
RTVSPropertyOp29
 70
     1
102
RTVSPropertyOp30
 70
     1
102
RTVSPropertyOp31
 70
     1
102
RTVSPropertyOp32
 70
     1
  0
XRECORD
  5
150
102
{ACAD_REACTORS
330
14F
102
}
330
14F
100
AcDbXrecord
280
     1
102
RTVSPropertyOp0
 70
     1
102
RTVSPropertyOp1
 70
     1
102
RTVSPropertyOp2
 70
     1
102
RTVSPropertyOp3
 70
     1
102
RTVSPropertyOp4
 70
     1
102
RTVSPropertyOp5
 70
     1
102
RTVSPropertyOp6
 70
     1
102
RTVSPropertyOp7
 70
     1
102
RTVSPropertyOp8
 70
     1
102
RTVSPropertyOp9
 70
     1
102
RTVSPropertyOp10
 70
     1
102
RTVSPropertyOp11
 70
     1
102
RTVSPropertyOp12
 70
     1
102
RTVSPropertyOp13
 70
     1
102
RTVSPropertyOp14
 70
     1
102
RTVSPropertyOp15
 70
     1
102
RTVSPropertyOp16
 70
     1
102
RTVSPropertyOp17
 70
     1
102
RTVSPropertyOp18
 70
     1
102
RTVSPropertyOp19
 70
     1
102
RTVSPropertyOp20
 70
     1
102
RTVSPropertyOp21
 70
     1
102
RTVSPropertyOp22
 70
     1
102
RTVSPropertyOp23
 70
     1
102
RTVSPropertyOp24
 70
     1
102
RTVSPropertyOp25
 70
     1
102
RTVSPropertyOp26
 70
     1
102
RTVSPropertyOp27
 70
     1
102
RTVSPropertyOp28
 70
     1
102
RTVSPropertyOp29
 70
     1
102
RTVSPropertyOp30
 70
     1
102
RTVSPropertyOp31
 70
     1
102
RTVSPropertyOp32
 70
     1
  0
XRECORD
  5
144
102
{ACAD_REACTORS
330
143
102
}
330
143
100
AcDbXrecord
280
     1
102
RTVSPropertyOp0
 70
     1
102
RTVSPropertyOp1
 70
     1
102
RTVSPropertyOp2
 70
     1
102
RTVSPropertyOp3
 70
     1
102
RTVSPropertyOp4
 70
     1
102
RTVSPropertyOp5
 70
     1
102
RTVSPropertyOp6
 70
     1
102
RTVSPropertyOp7
 70
     1
102
RTVSPropertyOp8
 70
     1
102
RTVSPropertyOp9
 70
     1
102
RTVSPropertyOp10
 70
     1
102
RTVSPropertyOp11
 70
     1
102
RTVSPropertyOp12
 70
     1
102
RTVSPropertyOp13
 70
     1
102
RTVSPropertyOp14
 70
     1
102
RTVSPropertyOp15
 70
     1
102
RTVSPropertyOp16
 70
     1
102
RTVSPropertyOp17
 70
     1
102
RTVSPropertyOp18
 70
     1
102
RTVSPropertyOp19
 70
     1
102
RTVSPropertyOp20
 70
     1
102
RTVSPropertyOp21
 70
     1
102
RTVSPropertyOp22
 70
     1
102
RTVSPropertyOp23
 70
     1
102
RTVSPropertyOp24
 70
     1
102
RTVSPropertyOp25
 70
     1
102
RTVSPropertyOp26
 70
     1
102
RTVSPropertyOp27
 70
     1
102
RTVSPropertyOp28
 70
     1
102
RTVSPropertyOp29
 70
     1
102
RTVSPropertyOp30
 70
     1
102
RTVSPropertyOp31
 70
     1
102
RTVSPropertyOp32
 70
     1
  0
XRECORD
  5
146
102
{ACAD_REACTORS
330
145
102
}
330
145
100
AcDbXrecord
280
     1
102
RTVSPropertyOp0
 70
     1
102
RTVSPropertyOp1
 70
     1
102
RTVSPropertyOp2
 70
     1
102
RTVSPropertyOp3
 70
     1
102
RTVSPropertyOp4
 70
     1
102
RTVSPropertyOp5
 70
     1
102
RTVSPropertyOp6
 70
     1
102
RTVSPropertyOp7
 70
     1
102
RTVSPropertyOp8
 70
     1
102
RTVSPropertyOp9
 70
     1
102
RTVSPropertyOp10
 70
     1
102
RTVSPropertyOp11
 70
     1
102
RTVSPropertyOp12
 70
     1
102
RTVSPropertyOp13
 70
     1
102
RTVSPropertyOp14
 70
     1
102
RTVSPropertyOp15
 70
     1
102
RTVSPropertyOp16
 70
     1
102
RTVSPropertyOp17
 70
     1
102
RTVSPropertyOp18
 70
     1
102
RTVSPropertyOp19
 70
     1
102
RTVSPropertyOp20
 70
     1
102
RTVSPropertyOp21
 70
     1
102
RTVSPropertyOp22
 70
     1
102
RTVSPropertyOp23
 70
     1
102
RTVSPropertyOp24
 70
     1
102
RTVSPropertyOp25
 70
     1
102
RTVSPropertyOp26
 70
     1
102
RTVSPropertyOp27
 70
     1
102
RTVSPropertyOp28
 70
     1
102
RTVSPropertyOp29
 70
     1
102
RTVSPropertyOp30
 70
     1
102
RTVSPropertyOp31
 70
     1
102
RTVSPropertyOp32
 70
     1
  0
XRECORD
  5
14E
102
{ACAD_REACTORS
330
14D
102
}
330
14D
100
AcDbXrecord
280
     1
102
RTVSPropertyOp0
 70
     1
102
RTVSPropertyOp1
 70
     1
102
RTVSPropertyOp2
 70
     1
102
RTVSPropertyOp3
 70
     1
102
RTVSPropertyOp4
 70
     1
102
RTVSPropertyOp5
 70
     1
102
RTVSPropertyOp6
 70
     1
102
RTVSPropertyOp7
 70
     1
102
RTVSPropertyOp8
 70
     1
102
RTVSPropertyOp9
 70
     1
102
RTVSPropertyOp10
 70
     1
102
RTVSPropertyOp11
 70
     1
102
RTVSPropertyOp12
 70
     1
102
RTVSPropertyOp13
 70
     1
102
RTVSPropertyOp14
 70
     1
102
RTVSPropertyOp15
 70
     1
102
RTVSPropertyOp16
 70
     1
102
RTVSPropertyOp17
 70
     1
102
RTVSPropertyOp18
 70
     1
102
RTVSPropertyOp19
 70
     1
102
RTVSPropertyOp20
 70
     1
102
RTVSPropertyOp21
 70
     1
102
RTVSPropertyOp22
 70
     1
102
RTVSPropertyOp23
 70
     1
102
RTVSPropertyOp24
 70
     1
102
RTVSPropertyOp25
 70
     1
102
RTVSPropertyOp26
 70
     1
102
RTVSPropertyOp27
 70
     1
102
RTVSPropertyOp28
 70
     1
102
RTVSPropertyOp29
 70
     1
102
RTVSPropertyOp30
 70
     1
102
RTVSPropertyOp31
 70
     1
102
RTVSPropertyOp32
 70
     1
  0
XRECORD
  5
132
102
{ACAD_REACTORS
330
131
102
}
330
131
100
AcDbXrecord
280
     1
102
RTVSPropertyOp0
 70
     1
102
RTVSPropertyOp1
 70
     1
102
RTVSPropertyOp2
 70
     1
102
RTVSPropertyOp3
 70
     1
102
RTVSPropertyOp4
 70
     1
102
RTVSPropertyOp5
 70
     1
102
RTVSPropertyOp6
 70
     1
102
RTVSPropertyOp7
 70
     1
102
RTVSPropertyOp8
 70
     1
102
RTVSPropertyOp9
 70
     1
102
RTVSPropertyOp10
 70
     1
102
RTVSPropertyOp11
 70
     1
102
RTVSPropertyOp12
 70
     1
102
RTVSPropertyOp13
 70
     1
102
RTVSPropertyOp14
 70
     1
102
RTVSPropertyOp15
 70
     1
102
RTVSPropertyOp16
 70
     1
102
RTVSPropertyOp17
 70
     1
102
RTVSPropertyOp18
 70
     1
102
RTVSPropertyOp19
 70
     1
102
RTVSPropertyOp20
 70
     1
102
RTVSPropertyOp21
 70
     1
102
RTVSPropertyOp22
 70
     1
102
RTVSPropertyOp23
 70
     1
102
RTVSPropertyOp24
 70
     1
102
RTVSPropertyOp25
 70
     1
102
RTVSPropertyOp26
 70
     1
102
RTVSPropertyOp27
 70
     1
102
RTVSPropertyOp28
 70
     1
102
RTVSPropertyOp29
 70
     1
102
RTVSPropertyOp30
 70
     1
102
RTVSPropertyOp31
 70
     1
102
RTVSPropertyOp32
 70
     1
  0
XRECORD
  5
134
102
{ACAD_REACTORS
330
133
102
}
330
133
100
AcDbXrecord
280
     1
102
RTVSPropertyOp0
 70
     1
102
RTVSPropertyOp1
 70
     1
102
RTVSPropertyOp2
 70
     1
102
RTVSPropertyOp3
 70
     1
102
RTVSPropertyOp4
 70
     1
102
RTVSPropertyOp5
 70
     1
102
RTVSPropertyOp6
 70
     1
102
RTVSPropertyOp7
 70
     1
102
RTVSPropertyOp8
 70
     1
102
RTVSPropertyOp9
 70
     1
102
RTVSPropertyOp10
 70
     1
102
RTVSPropertyOp11
 70
     1
102
RTVSPropertyOp12
 70
     1
102
RTVSPropertyOp13
 70
     1
102
RTVSPropertyOp14
 70
     1
102
RTVSPropertyOp15
 70
     1
102
RTVSPropertyOp16
 70
     1
102
RTVSPropertyOp17
 70
     1
102
RTVSPropertyOp18
 70
     1
102
RTVSPropertyOp19
 70
     1
102
RTVSPropertyOp20
 70
     1
102
RTVSPropertyOp21
 70
     1
102
RTVSPropertyOp22
 70
     1
102
RTVSPropertyOp23
 70
     1
102
RTVSPropertyOp24
 70
     1
102
RTVSPropertyOp25
 70
     1
102
RTVSPropertyOp26
 70
     1
102
RTVSPropertyOp27
 70
     1
102
RTVSPropertyOp28
 70
     1
102
RTVSPropertyOp29
 70
     1
102
RTVSPropertyOp30
 70
     1
102
RTVSPropertyOp31
 70
     1
102
RTVSPropertyOp32
 70
     1
  0
XRECORD
  5
136
102
{ACAD_REACTORS
330
135
102
}
330
135
100
AcDbXrecord
280
     1
102
RTVSPropertyOp0
 70
     1
102
RTVSPropertyOp1
 70
     1
102
RTVSPropertyOp2
 70
     1
102
RTVSPropertyOp3
 70
     1
102
RTVSPropertyOp4
 70
     1
102
RTVSPropertyOp5
 70
     1
102
RTVSPropertyOp6
 70
     1
102
RTVSPropertyOp7
 70
     1
102
RTVSPropertyOp8
 70
     1
102
RTVSPropertyOp9
 70
     1
102
RTVSPropertyOp10
 70
     1
102
RTVSPropertyOp11
 70
     1
102
RTVSPropertyOp12
 70
     1
102
RTVSPropertyOp13
 70
     1
102
RTVSPropertyOp14
 70
     1
102
RTVSPropertyOp15
 70
     1
102
RTVSPropertyOp16
 70
     1
102
RTVSPropertyOp17
 70
     1
102
RTVSPropertyOp18
 70
     1
102
RTVSPropertyOp19
 70
     1
102
RTVSPropertyOp20
 70
     1
102
RTVSPropertyOp21
 70
     1
102
RTVSPropertyOp22
 70
     1
102
RTVSPropertyOp23
 70
     1
102
RTVSPropertyOp24
 70
     1
102
RTVSPropertyOp25
 70
     1
102
RTVSPropertyOp26
 70
     1
102
RTVSPropertyOp27
 70
     1
102
RTVSPropertyOp28
 70
     1
102
RTVSPropertyOp29
 70
     1
102
RTVSPropertyOp30
 70
     1
102
RTVSPropertyOp31
 70
     1
102
RTVSPropertyOp32
 70
     1
  0
XRECORD
  5
138
102
{ACAD_REACTORS
330
137
102
}
330
137
100
AcDbXrecord
280
     1
102
RTVSPropertyOp0
 70
     1
102
RTVSPropertyOp1
 70
     1
102
RTVSPropertyOp2
 70
     1
102
RTVSPropertyOp3
 70
     1
102
RTVSPropertyOp4
 70
     1
102
RTVSPropertyOp5
 70
     1
102
RTVSPropertyOp6
 70
     1
102
RTVSPropertyOp7
 70
     1
102
RTVSPropertyOp8
 70
     1
102
RTVSPropertyOp9
 70
     1
102
RTVSPropertyOp10
 70
     1
102
RTVSPropertyOp11
 70
     1
102
RTVSPropertyOp12
 70
     1
102
RTVSPropertyOp13
 70
     1
102
RTVSPropertyOp14
 70
     1
102
RTVSPropertyOp15
 70
     1
102
RTVSPropertyOp16
 70
     1
102
RTVSPropertyOp17
 70
     1
102
RTVSPropertyOp18
 70
     1
102
RTVSPropertyOp19
 70
     1
102
RTVSPropertyOp20
 70
     1
102
RTVSPropertyOp21
 70
     1
102
RTVSPropertyOp22
 70
     1
102
RTVSPropertyOp23
 70
     1
102
RTVSPropertyOp24
 70
     1
102
RTVSPropertyOp25
 70
     1
102
RTVSPropertyOp26
 70
     1
102
RTVSPropertyOp27
 70
     1
102
RTVSPropertyOp28
 70
     1
102
RTVSPropertyOp29
 70
     1
102
RTVSPropertyOp30
 70
     1
102
RTVSPropertyOp31
 70
     1
102
RTVSPropertyOp32
 70
     1
  0
XRECORD
  5
14C
102
{ACAD_REACTORS
330
14B
102
}
330
14B
100
AcDbXrecord
280
     1
102
RTVSPropertyOp0
 70
     1
102
RTVSPropertyOp1
 70
     1
102
RTVSPropertyOp2
 70
     1
102
RTVSPropertyOp3
 70
     1
102
RTVSPropertyOp4
 70
     1
102
RTVSPropertyOp5
 70
     1
102
RTVSPropertyOp6
 70
     1
102
RTVSPropertyOp7
 70
     1
102
RTVSPropertyOp8
 70
     1
102
RTVSPropertyOp9
 70
     1
102
RTVSPropertyOp10
 70
     1
102
RTVSPropertyOp11
 70
     1
102
RTVSPropertyOp12
 70
     1
102
RTVSPropertyOp13
 70
     1
102
RTVSPropertyOp14
 70
     1
102
RTVSPropertyOp15
 70
     1
102
RTVSPropertyOp16
 70
     1
102
RTVSPropertyOp17
 70
     1
102
RTVSPropertyOp18
 70
     1
102
RTVSPropertyOp19
 70
     1
102
RTVSPropertyOp20
 70
     1
102
RTVSPropertyOp21
 70
     1
102
RTVSPropertyOp22
 70
     1
102
RTVSPropertyOp23
 70
     1
102
RTVSPropertyOp24
 70
     1
102
RTVSPropertyOp25
 70
     1
102
RTVSPropertyOp26
 70
     1
102
RTVSPropertyOp27
 70
     1
102
RTVSPropertyOp28
 70
     1
102
RTVSPropertyOp29
 70
     1
102
RTVSPropertyOp30
 70
     1
102
RTVSPropertyOp31
 70
     1
102
RTVSPropertyOp32
 70
     1
  0
XRECORD
  5
142
102
{ACAD_REACTORS
330
141
102
}
330
141
100
AcDbXrecord
280
     1
102
RTVSPropertyOp0
 70
     1
102
RTVSPropertyOp1
 70
     1
102
RTVSPropertyOp2
 70
     1
102
RTVSPropertyOp3
 70
     1
102
RTVSPropertyOp4
 70
     1
102
RTVSPropertyOp5
 70
     1
102
RTVSPropertyOp6
 70
     1
102
RTVSPropertyOp7
 70
     1
102
RTVSPropertyOp8
 70
     1
102
RTVSPropertyOp9
 70
     1
102
RTVSPropertyOp10
 70
     1
102
RTVSPropertyOp11
 70
     1
102
RTVSPropertyOp12
 70
     1
102
RTVSPropertyOp13
 70
     1
102
RTVSPropertyOp14
 70
     1
102
RTVSPropertyOp15
 70
     1
102
RTVSPropertyOp16
 70
     1
102
RTVSPropertyOp17
 70
     1
102
RTVSPropertyOp18
 70
     1
102
RTVSPropertyOp19
 70
     1
102
RTVSPropertyOp20
 70
     1
102
RTVSPropertyOp21
 70
     1
102
RTVSPropertyOp22
 70
     1
102
RTVSPropertyOp23
 70
     1
102
RTVSPropertyOp24
 70
     1
102
RTVSPropertyOp25
 70
     1
102
RTVSPropertyOp26
 70
     1
102
RTVSPropertyOp27
 70
     1
102
RTVSPropertyOp28
 70
     1
102
RTVSPropertyOp29
 70
     1
102
RTVSPropertyOp30
 70
     1
102
RTVSPropertyOp31
 70
     1
102
RTVSPropertyOp32
 70
     1
  0
XRECORD
  5
14A
102
{ACAD_REACTORS
330
149
102
}
330
149
100
AcDbXrecord
280
     1
102
RTVSPropertyOp0
 70
     1
102
RTVSPropertyOp1
 70
     1
102
RTVSPropertyOp2
 70
     1
102
RTVSPropertyOp3
 70
     1
102
RTVSPropertyOp4
 70
     1
102
RTVSPropertyOp5
 70
     1
102
RTVSPropertyOp6
 70
     1
102
RTVSPropertyOp7
 70
     1
102
RTVSPropertyOp8
 70
     1
102
RTVSPropertyOp9
 70
     1
102
RTVSPropertyOp10
 70
     1
102
RTVSPropertyOp11
 70
     1
102
RTVSPropertyOp12
 70
     1
102
RTVSPropertyOp13
 70
     1
102
RTVSPropertyOp14
 70
     1
102
RTVSPropertyOp15
 70
     1
102
RTVSPropertyOp16
 70
     1
102
RTVSPropertyOp17
 70
     1
102
RTVSPropertyOp18
 70
     1
102
RTVSPropertyOp19
 70
     1
102
RTVSPropertyOp20
 70
     1
102
RTVSPropertyOp21
 70
     1
102
RTVSPropertyOp22
 70
     1
102
RTVSPropertyOp23
 70
     1
102
RTVSPropertyOp24
 70
     1
102
RTVSPropertyOp25
 70
     1
102
RTVSPropertyOp26
 70
     1
102
RTVSPropertyOp27
 70
     1
102
RTVSPropertyOp28
 70
     1
102
RTVSPropertyOp29
 70
     1
102
RTVSPropertyOp30
 70
     1
102
RTVSPropertyOp31
 70
     1
102
RTVSPropertyOp32
 70
     1
  0
ENDSEC
  0
EOF
