  0
SECTION
  2
HEADER
  9
$ACADVER
  1
AC1015
  9
$ACADMAINTVER
 70
     6
  9
$DWGCODEPAGE
  3
ANSI_1252
  9
$INSBASE
 10
0.0
 20
0.0
 30
0.0
  9
$EXTMIN
 10
0.0
 20
0.0
 30
0.0
  9
$EXTMAX
 10
210.0
 20
297.0
 30
0.0
  9
$LIMMIN
 10
0.0
 20
0.0
  9
$LIMMAX
 10
210.0
 20
297.0
  9
$ORTHOMODE
 70
     0
  9
$REGENMODE
 70
     1
  9
$FILLMODE
 70
     1
  9
$QTEXTMODE
 70
     0
  9
$MIRRTEXT
 70
     1
  9
$LTSCALE
 40
1.0
  9
$ATTMODE
 70
     1
  9
$TEXTSIZE
 40
2.5
  9
$TRACEWID
 40
1.0
  9
$TEXTSTYLE
  7
Standard
  9
$CLAYER
  8
0
  9
$CELTYPE
  6
ByLayer
  9
$CECOLOR
 62
   256
  9
$CELTSCALE
 40
1.0
  9
$DISPSILH
 70
     0
  9
$DIMSCALE
 40
1.0
  9
$DIMASZ
 40
2.5
  9
$DIMEXO
 40
0.625
  9
$DIMDLI
 40
3.75
  9
$DIMRND
 40
0.0
  9
$DIMDLE
 40
0.0
  9
$DIMEXE
 40
1.25
  9
$DIMTP
 40
0.0
  9
$DIMTM
 40
0.0
  9
$DIMTXT
 40
2.5
  9
$DIMCEN
 40
2.5
  9
$DIMTSZ
 40
0.0
  9
$DIMTOL
 70
     0
  9
$DIMLIM
 70
     0
  9
$DIMTIH
 70
     0
  9
$DIMTOH
 70
     0
  9
$DIMSE1
 70
     0
  9
$DIMSE2
 70
     0
  9
$DIMTAD
 70
     1
  9
$DIMZIN
 70
     8
  9
$DIMBLK
  1

  9
$DIMASO
 70
     1
  9
$DIMSHO
 70
     1
  9
$DIMPOST
  1

  9
$DIMAPOST
  1

  9
$DIMALT
 70
     0
  9
$DIMALTD
 70
     3
  9
$DIMALTF
 40
0.0393700787
  9
$DIMLFAC
 40
1.0
  9
$DIMTOFL
 70
     1
  9
$DIMTVP
 40
0.0
  9
$DIMTIX
 70
     0
  9
$DIMSOXD
 70
     0
  9
$DIMSAH
 70
     0
  9
$DIMBLK1
  1

  9
$DIMBLK2
  1

  9
$DIMSTYLE
  2
ISO-25
  9
$DIMCLRD
 70
     0
  9
$DIMCLRE
 70
     0
  9
$DIMCLRT
 70
     0
  9
$DIMTFAC
 40
1.0
  9
$DIMGAP
 40
0.625
  9
$DIMJUST
 70
     0
  9
$DIMSD1
 70
     0
  9
$DIMSD2
 70
     0
  9
$DIMTOLJ
 70
     0
  9
$DIMTZIN
 70
     8
  9
$DIMALTZ
 70
     0
  9
$DIMALTTZ
 70
     0
  9
$DIMUPT
 70
     0
  9
$DIMDEC
 70
     2
  9
$DIMTDEC
 70
     2
  9
$DIMALTU
 70
     2
  9
$DIMALTTD
 70
     3
  9
$DIMTXSTY
  7
Standard
  9
$DIMAUNIT
 70
     0
  9
$DIMADEC
 70
     0
  9
$DIMALTRND
 40
0.0
  9
$DIMAZIN
 70
     0
  9
$DIMDSEP
 70
    44
  9
$DIMATFIT
 70
     3
  9
$DIMFRAC
 70
     0
  9
$DIMLDRBLK
  1

  9
$DIMLUNIT
 70
     2
  9
$DIMLWD
 70
    -2
  9
$DIMLWE
 70
    -2
  9
$DIMTMOVE
 70
     0
  9
$LUNITS
 70
     2
  9
$LUPREC
 70
     4
  9
$SKETCHINC
 40
1.0
  9
$FILLETRAD
 40
10.0
  9
$AUNITS
 70
     0
  9
$AUPREC
 70
     0
  9
$MENU
  1
.
  9
$ELEVATION
 40
0.0
  9
$PELEVATION
 40
0.0
  9
$THICKNESS
 40
0.0
  9
$LIMCHECK
 70
     0
  9
$CHAMFERA
 40
10.0
  9
$CHAMFERB
 40
10.0
  9
$CHAMFERC
 40
20.0
  9
$CHAMFERD
 40
0.0
  9
$SKPOLY
 70
     0
  9
$TDCREATE
 40
2457564.298339467
  9
$TDUCREATE
 40
2457564.215006134
  9
$TDUPDATE
 40
2457564.298342187
  9
$TDUUPDATE
 40
2457564.215008854
  9
$TDINDWG
 40
0.0000000116
  9
$TDUSRTIMER
 40
0.0000000116
  9
$USRTIMER
 70
     1
  9
$ANGBASE
 50
0.0
  9
$ANGDIR
 70
     0
  9
$PDMODE
 70
     0
  9
$PDSIZE
 40
0.0
  9
$PLINEWID
 40
0.0
  9
$SPLFRAME
 70
     0
  9
$SPLINETYPE
 70
     6
  9
$SPLINESEGS
 70
     8
  9
$HANDSEED
  5
21B
  9
$SURFTAB1
 70
     6
  9
$SURFTAB2
 70
     6
  9
$SURFTYPE
 70
     6
  9
$SURFU
 70
     6
  9
$SURFV
 70
     6
  9
$UCSBASE
  2

  9
$UCSNAME
  2

  9
$UCSORG
 10
0.0
 20
0.0
 30
0.0
  9
$UCSXDIR
 10
1.0
 20
0.0
 30
0.0
  9
$UCSYDIR
 10
0.0
 20
1.0
 30
0.0
  9
$UCSORTHOREF
  2

  9
$UCSORTHOVIEW
 70
     0
  9
$UCSORGTOP
 10
0.0
 20
0.0
 30
0.0
  9
$UCSORGBOTTOM
 10
0.0
 20
0.0
 30
0.0
  9
$UCSORGLEFT
 10
0.0
 20
0.0
 30
0.0
  9
$UCSORGRIGHT
 10
0.0
 20
0.0
 30
0.0
  9
$UCSORGFRONT
 10
0.0
 20
0.0
 30
0.0
  9
$UCSORGBACK
 10
0.0
 20
0.0
 30
0.0
  9
$PUCSBASE
  2

  9
$PUCSNAME
  2

  9
$PUCSORG
 10
0.0
 20
0.0
 30
0.0
  9
$PUCSXDIR
 10
1.0
 20
0.0
 30
0.0
  9
$PUCSYDIR
 10
0.0
 20
1.0
 30
0.0
  9
$PUCSORTHOREF
  2

  9
$PUCSORTHOVIEW
 70
     0
  9
$PUCSORGTOP
 10
0.0
 20
0.0
 30
0.0
  9
$PUCSORGBOTTOM
 10
0.0
 20
0.0
 30
0.0
  9
$PUCSORGLEFT
 10
0.0
 20
0.0
 30
0.0
  9
$PUCSORGRIGHT
 10
0.0
 20
0.0
 30
0.0
  9
$PUCSORGFRONT
 10
0.0
 20
0.0
 30
0.0
  9
$PUCSORGBACK
 10
0.0
 20
0.0
 30
0.0
  9
$USERI1
 70
     0
  9
$USERI2
 70
     0
  9
$USERI3
 70
     0
  9
$USERI4
 70
     0
  9
$USERI5
 70
     0
  9
$USERR1
 40
0.0
  9
$USERR2
 40
0.0
  9
$USERR3
 40
0.0
  9
$USERR4
 40
0.0
  9
$USERR5
 40
0.0
  9
$WORLDVIEW
 70
     1
  9
$SHADEDGE
 70
     3
  9
$SHADEDIF
 70
    70
  9
$TILEMODE
 70
     1
  9
$MAXACTVP
 70
    64
  9
$PINSBASE
 10
0.0
 20
0.0
 30
0.0
  9
$PLIMCHECK
 70
     0
  9
$PEXTMIN
 10
0.0
 20
0.0
 30
0.0
  9
$PEXTMAX
 10
210.0
 20
297.0
 30
0.0
  9
$PLIMMIN
 10
0.0
 20
0.0
  9
$PLIMMAX
 10
210.0
 20
297.0
  9
$UNITMODE
 70
     0
  9
$VISRETAIN
 70
     1
  9
$PLINEGEN
 70
     0
  9
$PSLTSCALE
 70
     1
  9
$TREEDEPTH
 70
  3020
  9
$CMLSTYLE
  2
Standard
  9
$CMLJUST
 70
     0
  9
$CMLSCALE
 40
20.0
  9
$PROXYGRAPHICS
 70
     1
  9
$MEASUREMENT
 70
     1
  9
$CELWEIGHT
370
    -1
  9
$ENDCAPS
280
     0
  9
$JOINSTYLE
280
     0
  9
$LWDISPLAY
290
     0
  9
$INSUNITS
 70
     4
  9
$HYPERLINKBASE
  1

  9
$STYLESHEET
  1

  9
$XEDIT
290
     1
  9
$CEPSNTYPE
380
     0
  9
$PSTYLEMODE
290
     1
  9
$FINGERPRINTGUID
  2
{853EF767-55A7-4426-BEFD-D68B3F659344}
  9
$VERSIONGUID
  2
{FAEB1C32-E019-11D5-929B-00C0DF256EC4}
  9
$EXTNAMES
290
     1
  9
$PSVPSCALE
 40
0.0
  9
$OLESTARTUP
290
     0
  0
ENDSEC
  0
SECTION
  2
CLASSES
  0
CLASS
  1
ACDBDICTIONARYWDFLT
  2
AcDbDictionaryWithDefault
  3
ObjectDBX Classes
 90
        0
280
     0
281
     0
  0
CLASS
  1
VISUALSTYLE
  2
AcDbVisualStyle
  3
ObjectDBX Classes
 90
     4095
280
     0
281
     0
  0
CLASS
  1
MATERIAL
  2
AcDbMaterial
  3
ObjectDBX Classes
 90
     1153
280
     0
281
     0
  0
CLASS
  1
DICTIONARYVAR
  2
AcDbDictionaryVar
  3
ObjectDBX Classes
 90
        0
280
     0
281
     0
  0
CLASS
  1
ACDBPLACEHOLDER
  2
AcDbPlaceHolder
  3
ObjectDBX Classes
 90
        0
280
     0
281
     0
  0
CLASS
  1
LAYOUT
  2
AcDbLayout
  3
ObjectDBX Classes
 90
        0
280
     0
281
     0
  0
ENDSEC
  0
SECTION
  2
TABLES
  0
TABLE
  2
VPORT
  5
8
330
0
100
AcDbSymbolTable
 70
     1
  0
VPORT
  5
29
330
8
100
AcDbSymbolTableRecord
100
AcDbViewportTableRecord
  2
*Active
 70
     0
 10
0.0
 20
0.0
 11
1.0
 21
1.0
 12
344.1869158879
 22
148.5
 13
0.0
 23
0.0
 14
10.0
 24
10.0
 15
10.0
 25
10.0
 16
0.0
 26
0.0
 36
1.0
 17
0.0
 27
0.0
 37
0.0
 40
297.0
 41
1.9729729729
 42
50.0
 43
0.0
 44
0.0
 50
0.0
 51
0.0
 71
     0
 72
   100
 73
     1
 74
     3
 75
     0
 76
     0
 77
     0
 78
     0
281
     0
 65
     1
110
0.0
120
0.0
130
0.0
111
1.0
121
0.0
131
0.0
112
0.0
122
1.0
132
0.0
 79
     0
146
0.0
  0
ENDTAB
  0
TABLE
  2
LTYPE
  5
5
330
0
100
AcDbSymbolTable
 70
     2
  0
LTYPE
  5
14
330
5
100
AcDbSymbolTableRecord
100
AcDbLinetypeTableRecord
  2
ByBlock
 70
     0
  3

 72
    65
 73
     0
 40
0.0
  0
LTYPE
  5
15
330
5
100
AcDbSymbolTableRecord
100
AcDbLinetypeTableRecord
  2
ByLayer
 70
     0
  3

 72
    65
 73
     0
 40
0.0
  0
LTYPE
  5
16
330
5
100
AcDbSymbolTableRecord
100
AcDbLinetypeTableRecord
  2
Continuous
 70
     0
  3
Solid line
 72
    65
 73
     0
 40
0.0
  0
LTYPE
  5
5A
330
5
100
AcDbSymbolTableRecord
100
AcDbLinetypeTableRecord
  2
HIDDEN2
 70
     0
  3
Hidden (.5x) _ _ _ _ _ _ _ _ _ _ _ _ _ _ _ _ _ 
 72
    65
 73
     2
 40
4.7625
 49
3.175
 74
     4
 75
     0
340
0
 46
0.0
 50
0.0
 44
0.0
 45
0.0
 49
-1.5875
 74
     4
 75
     0
340
0
 46
0.0
 50
0.0
 44
0.0
 45
0.0
  0
ENDTAB
  0
TABLE
  2
LAYER
  5
2
330
0
100
AcDbSymbolTable
 70
     5
  0
LAYER
  5
10
330
2
100
AcDbSymbolTableRecord
100
AcDbLayerTableRecord
  2
0
 70
     0
 62
     7
  6
Continuous
370
    -3
390
F
  0
LAYER
  5
3F
330
2
100
AcDbSymbolTableRecord
100
AcDbLayerTableRecord
  2
SK2
 70
     0
 62
     7
  6
Continuous
370
    15
390
F
  0
LAYER
  5
40
330
2
100
AcDbSymbolTableRecord
100
AcDbLayerTableRecord
  2
SK1
 70
     0
 62
     4
  6
Continuous
370
    18
390
F
  0
LAYER
  5
59
330
2
100
AcDbSymbolTableRecord
100
AcDbLayerTableRecord
  2
SK3
 70
     0
 62
     1
  6
HIDDEN2
370
    15
390
F
  0
LAYER
  5
1AE
330
2
100
AcDbSymbolTableRecord
100
AcDbLayerTableRecord
  2
SK4
 70
     0
 62
     2
  6
Continuous
370
    13
390
F
  0
ENDTAB
  0
TABLE
  2
STYLE
  5
3
330
0
100
AcDbSymbolTable
 70
     2
  0
STYLE
  5
11
330
3
100
AcDbSymbolTableRecord
100
AcDbTextStyleTableRecord
  2
Standard
 70
     0
 40
0.0
 41
1.0
 50
0.0
 71
     0
 42
2.5
  3
txt
  4

  0
STYLE
  5
1C2
330
3
100
AcDbSymbolTableRecord
100
AcDbTextStyleTableRecord
  2
SEACAD_Solid_Edge_ISO
 70
     0
 40
0.0
 41
1.0
 50
0.0
 71
     0
 42
0.2
  3
seiso.ttf
  4

1001
ACAD
1000
Solid Edge ISO
1071
        0
  0
ENDTAB
  0
TABLE
  2
VIEW
  5
6
330
0
100
AcDbSymbolTable
 70
     0
  0
ENDTAB
  0
TABLE
  2
UCS
  5
7
330
0
100
AcDbSymbolTable
 70
     0
  0
ENDTAB
  0
TABLE
  2
APPID
  5
9
330
0
100
AcDbSymbolTable
 70
     1
  0
APPID
  5
12
330
9
100
AcDbSymbolTableRecord
100
AcDbRegAppTableRecord
  2
ACAD
 70
     0
  0
ENDTAB
  0
TABLE
  2
DIMSTYLE
  5
A
330
0
100
AcDbSymbolTable
 70
     3
100
AcDbDimStyleTable
  0
DIMSTYLE
105
27
330
A
100
AcDbSymbolTableRecord
100
AcDbDimStyleTableRecord
  2
ISO-25
 70
     0
 41
2.5
 42
0.625
 43
3.75
 44
1.25
 73
     0
 74
     0
 77
     1
 78
     8
140
2.5
141
2.5
143
0.0393700787
147
0.625
171
     3
172
     1
178
     0
271
     2
272
     2
274
     3
278
    44
283
     0
284
     8
340
11
  0
DIMSTYLE
105
1B0
330
A
100
AcDbSymbolTableRecord
100
AcDbDimStyleTableRecord
  2
Standard
 70
     0
178
     0
340
11
  0
DIMSTYLE
105
1C3
102
{ACAD_REACTORS
330
1C4
330
1CF
330
1D9
330
1E4
102
}
330
A
100
AcDbSymbolTableRecord
100
AcDbDimStyleTableRecord
  2
DIN
 70
     0
 41
3.5
 42
0.0
 44
1.75
 73
     0
 74
     0
 77
     1
 78
     8
140
3.5
141
1.75
147
1.75
172
     1
173
     1
178
     0
179
     3
271
     2
272
     2
278
    44
284
     8
340
1C2
343
1BD
344
1BD
  0
ENDTAB
  0
TABLE
  2
BLOCK_RECORD
  5
1
330
0
100
AcDbSymbolTable
 70
    10
  0
BLOCK_RECORD
  5
1F
330
1
100
AcDbSymbolTableRecord
100
AcDbBlockTableRecord
  2
*Model_Space
340
22
  0
BLOCK_RECORD
  5
1B
330
1
100
AcDbSymbolTableRecord
100
AcDbBlockTableRecord
  2
*Paper_Space
340
1E
  0
BLOCK_RECORD
  5
41
330
1
100
AcDbSymbolTableRecord
100
AcDbBlockTableRecord
  2
Nullpunkt
340
0
102
{BLKREFS
331
4B
102
}
  0
BLOCK_RECORD
  5
4C
330
1
100
AcDbSymbolTableRecord
100
AcDbBlockTableRecord
  2
Einfügepunkt
340
0
102
{BLKREFS
331
56
102
}
  0
BLOCK_RECORD
  5
1B1
330
1
100
AcDbSymbolTableRecord
100
AcDbBlockTableRecord
  2
_OBLIQUE
340
0
  0
BLOCK_RECORD
  5
1B5
330
1
100
AcDbSymbolTableRecord
100
AcDbBlockTableRecord
  2
_DOT
340
0
  0
BLOCK_RECORD
  5
1BD
330
1
100
AcDbSymbolTableRecord
100
AcDbBlockTableRecord
  2
_SE_FILLED
340
0
  0
BLOCK_RECORD
  5
1C5
330
1
100
AcDbSymbolTableRecord
100
AcDbBlockTableRecord
  2
DMBLK1
340
0
  0
BLOCK_RECORD
  5
1D0
330
1
100
AcDbSymbolTableRecord
100
AcDbBlockTableRecord
  2
DMBLK2
340
0
  0
BLOCK_RECORD
  5
1DA
330
1
100
AcDbSymbolTableRecord
100
AcDbBlockTableRecord
  2
DMBLK3
340
0
  0
BLOCK_RECORD
  5
1E5
330
1
100
AcDbSymbolTableRecord
100
AcDbBlockTableRecord
  2
DMBLK4
340
0
  0
ENDTAB
  0
ENDSEC
  0
SECTION
  2
BLOCKS
  0
BLOCK
  5
20
330
1F
100
AcDbEntity
  8
0
100
AcDbBlockBegin
  2
*Model_Space
 70
     0
 10
0.0
 20
0.0
 30
0.0
  3
*Model_Space
  1

  0
ENDBLK
  5
21
330
1F
100
AcDbEntity
  8
0
100
AcDbBlockEnd
  0
BLOCK
  5
1C
330
1B
100
AcDbEntity
 67
     1
  8
0
100
AcDbBlockBegin
  2
*Paper_Space
 70
     0
 10
0.0
 20
0.0
 30
0.0
  3
*Paper_Space
  1

  0
ENDBLK
  5
1D
330
1B
100
AcDbEntity
 67
     1
  8
0
100
AcDbBlockEnd
  0
BLOCK
  5
49
330
41
100
AcDbEntity
  8
0
100
AcDbBlockBegin
  2
Nullpunkt
 70
     0
 10
0.0
 20
0.0
 30
0.0
  3
Nullpunkt
  1

  0
HATCH
  5
42
330
41
100
AcDbEntity
  8
SK2
  6
Continuous
 62
     7
100
AcDbHatch
 10
0.0
 20
0.0
 30
0.0
210
0.0
220
0.0
230
1.0
  2
SOLID
 70
     1
 71
     0
 91
        1
 92
        1
 93
        3
 72
     1
 10
-1.0
 20
0.0
 11
0.0000000000000009
 21
0.0
 72
     1
 10
0.0
 20
0.0
 11
0.0
 21
1.000000000000001
 72
     2
 10
0.0
 20
0.0
 40
1.0
 50
90.0
 51
180.0
 73
     1
 97
        0
 75
     0
 76
     1
 98
        0
  0
HATCH
  5
43
330
41
100
AcDbEntity
  8
SK2
  6
Continuous
 62
     7
100
AcDbHatch
 10
0.0
 20
0.0
 30
0.0
210
0.0
220
0.0
230
1.0
  2
SOLID
 70
     1
 71
     0
 91
        1
 92
        1
 93
        3
 72
     2
 10
0.0
 20
0.0
 40
1.0
 50
270.0
 51
360.0
 73
     1
 72
     1
 10
1.0
 20
0.0
 11
-0.0000000000000009
 21
0.0
 72
     1
 10
0.0
 20
0.0
 11
0.0
 21
-1.000000000000001
 97
        0
 75
     0
 76
     1
 98
        0
  0
CIRCLE
  5
44
330
41
100
AcDbEntity
  8
SK2
  6
Continuous
 62
     7
100
AcDbCircle
 10
0.0
 20
0.0
 30
0.0
 40
1.0
  0
LINE
  5
45
330
41
100
AcDbEntity
  8
SK1
  6
Continuous
100
AcDbLine
 10
-1.0
 20
0.0
 30
0.0
 11
1.0
 21
0.0
 31
0.0
  0
LINE
  5
46
330
41
100
AcDbEntity
  8
SK1
  6
Continuous
100
AcDbLine
 10
0.0
 20
1.0
 30
0.0
 11
0.0
 21
-1.0
 31
0.0
  0
POINT
  5
47
330
41
100
AcDbEntity
  8
SK1
  6
Continuous
100
AcDbPoint
 10
0.0
 20
0.0
 30
0.0
  0
POINT
  5
48
330
41
100
AcDbEntity
  8
SK1
  6
Continuous
100
AcDbPoint
 10
0.0
 20
0.0
 30
0.0
  0
ENDBLK
  5
4A
330
41
100
AcDbEntity
  8
0
100
AcDbBlockEnd
  0
BLOCK
  5
54
330
4C
100
AcDbEntity
  8
0
100
AcDbBlockBegin
  2
Einfügepunkt
 70
     0
 10
0.0
 20
0.0
 30
0.0
  3
Einfügepunkt
  1

  0
HATCH
  5
4D
330
4C
100
AcDbEntity
  8
SK2
  6
Continuous
 62
     7
100
AcDbHatch
 10
0.0
 20
0.0
 30
0.0
210
0.0
220
0.0
230
1.0
  2
SOLID
 70
     1
 71
     0
 91
        1
 92
        1
 93
        3
 72
     1
 10
-0.4502381196756744
 20
-0.0000000000000018
 11
0.0000000000000033
 21
-0.0000000000000018
 72
     1
 10
0.0
 20
-0.0000000000000018
 11
0.0
 21
0.4502381196756812
 72
     2
 10
0.0
 20
-0.0000000000000018
 40
0.4502381196756812
 50
90.0
 51
180.0
 73
     1
 97
        0
 75
     0
 76
     1
 98
        0
  0
HATCH
  5
4E
330
4C
100
AcDbEntity
  8
SK2
  6
Continuous
 62
     7
100
AcDbHatch
 10
0.0
 20
0.0
 30
0.0
210
0.0
220
0.0
230
1.0
  2
SOLID
 70
     1
 71
     0
 91
        1
 92
        1
 93
        3
 72
     2
 10
0.0
 20
-0.0000000000000018
 40
0.4502381196756812
 50
270.0
 51
360.0
 73
     1
 72
     1
 10
0.4502381196756815
 20
-0.0000000000000018
 11
0.0000000000000038
 21
-0.0000000000000018
 72
     1
 10
0.0
 20
-0.0000000000000018
 11
0.0
 21
-0.4502381196756812
 97
        0
 75
     0
 76
     1
 98
        0
  0
CIRCLE
  5
4F
330
4C
100
AcDbEntity
  8
SK2
  6
Continuous
 62
     7
100
AcDbCircle
 10
0.0
 20
0.0
 30
0.0
 40
0.4502381196756812
  0
LINE
  5
50
330
4C
100
AcDbEntity
  8
SK1
  6
Continuous
100
AcDbLine
 10
-0.4502381197
 20
0.0
 30
0.0
 11
0.4502381197
 21
0.0
 31
0.0
  0
LINE
  5
51
330
4C
100
AcDbEntity
  8
SK1
  6
Continuous
100
AcDbLine
 10
0.0
 20
0.4502381197
 30
0.0
 11
0.0
 21
-0.4502381197
 31
0.0
  0
POINT
  5
52
330
4C
100
AcDbEntity
  8
SK2
  6
Continuous
 62
     7
100
AcDbPoint
 10
0.0
 20
0.0
 30
0.0
  0
POINT
  5
53
330
4C
100
AcDbEntity
  8
SK2
  6
Continuous
 62
     7
100
AcDbPoint
 10
0.0
 20
0.0
 30
0.0
  0
ENDBLK
  5
55
330
4C
100
AcDbEntity
  8
0
100
AcDbBlockEnd
  0
BLOCK
  5
1B2
330
1B1
100
AcDbEntity
  8
0
100
AcDbBlockBegin
  2
_OBLIQUE
 70
     0
 10
0.0
 20
0.0
 30
0.0
  3
_OBLIQUE
  1

  0
LINE
  5
1B4
330
1B1
100
AcDbEntity
  8
0
  6
ByBlock
 62
     0
370
    -2
100
AcDbLine
 10
-0.5
 20
-0.5
 30
0.0
 11
0.5
 21
0.5
 31
0.0
  0
ENDBLK
  5
1B3
330
1B1
100
AcDbEntity
  8
0
100
AcDbBlockEnd
  0
BLOCK
  5
1B6
330
1B5
100
AcDbEntity
  8
0
100
AcDbBlockBegin
  2
_DOT
 70
     0
 10
0.0
 20
0.0
 30
0.0
  3
_DOT
  1

  0
POLYLINE
  5
1B8
330
1B5
100
AcDbEntity
  8
0
  6
ByBlock
 62
     0
100
AcDb2dPolyline
 66
     1
 10
0.0
 20
0.0
 30
0.0
 70
     1
 40
0.5
 41
0.5
  0
VERTEX
  5
1BA
330
1B8
100
AcDbEntity
  8
0
  6
ByBlock
 62
     0
100
AcDbVertex
100
AcDb2dVertex
 10
-0.25
 20
0.0
 30
0.0
 42
1.0
  0
VERTEX
  5
1BB
330
1B8
100
AcDbEntity
  8
0
  6
ByBlock
 62
     0
100
AcDbVertex
100
AcDb2dVertex
 10
0.25
 20
0.0
 30
0.0
 42
1.0
  0
SEQEND
  5
1BC
330
1B8
100
AcDbEntity
  8
0
  6
ByBlock
 62
     0
  0
LINE
  5
1B9
330
1B5
100
AcDbEntity
  8
0
  6
ByBlock
 62
     0
370
    -2
100
AcDbLine
 10
-0.5
 20
0.0
 30
0.0
 11
-1.0
 21
0.0
 31
0.0
  0
ENDBLK
  5
1B7
330
1B5
100
AcDbEntity
  8
0
100
AcDbBlockEnd
  0
BLOCK
  5
1C0
330
1BD
100
AcDbEntity
  8
0
100
AcDbBlockBegin
  2
_SE_FILLED
 70
     0
 10
0.0
 20
0.0
 30
0.0
  3
_SE_FILLED
  1

  0
SOLID
  5
1BE
330
1BD
100
AcDbEntity
  8
0
 62
     0
100
AcDbTrace
 10
0.0
 20
0.0
 30
0.0
 11
-1.0
 21
-0.1665
 31
0.0
 12
-1.0
 22
0.1665
 32
0.0
 13
0.0
 23
0.0
 33
0.0
  0
LINE
  5
1BF
330
1BD
100
AcDbEntity
  8
0
 62
     0
100
AcDbLine
 10
0.0
 20
0.0
 30
0.0
 11
-1.0
 21
0.0
 31
0.0
  0
ENDBLK
  5
1C1
330
1BD
100
AcDbEntity
  8
0
100
AcDbBlockEnd
  0
BLOCK
  5
1CD
330
1C5
100
AcDbEntity
  8
0
100
AcDbBlockBegin
  2
DMBLK1
 70
     0
 10
0.0
 20
0.0
 30
0.0
  3
DMBLK1
  1

  0
HATCH
  5
1C6
330
1C5
100
AcDbEntity
  8
SK2
  6
Continuous
 62
   136
100
AcDbHatch
 10
0.0
 20
0.0
 30
0.0
210
0.0
220
0.0
230
1.0
  2
SOLID
 70
     1
 71
     0
 91
        1
 92
        1
 93
        3
 72
     1
 10
34.22024725171163
 20
7.500000207804111
 11
33.05358054903382
 21
7.500000207804111
 72
     1
 10
33.05358054903382
 20
7.500000207804111
 11
33.63691390037273
 21
4.000000099770692
 72
     1
 10
33.63691390037273
 20
4.000000099770692
 11
34.22024725171163
 21
7.500000207804111
 97
        0
 75
     0
 76
     1
 98
        0
  0
HATCH
  5
1C7
330
1C5
100
AcDbEntity
  8
SK2
  6
Continuous
 62
   136
100
AcDbHatch
 10
0.0
 20
0.0
 30
0.0
210
0.0
220
0.0
230
1.0
  2
SOLID
 70
     1
 71
     0
 91
        1
 92
        1
 93
        3
 72
     1
 10
34.22024725171163
 20
-7.500000008262727
 11
33.63691390037273
 21
-3.999999900229309
 72
     1
 10
33.63691390037273
 20
-3.999999900229308
 11
33.05358054903382
 21
-7.500000008262727
 72
     1
 10
33.05358054903382
 20
-7.500000008262727
 11
34.22024725171163
 21
-7.500000008262727
 97
        0
 75
     0
 76
     1
 98
        0
  0
LINE
  5
1C8
330
1C5
100
AcDbEntity
  8
SK2
  6
Continuous
 62
   136
100
AcDbLine
 10
20.88
 20
4.0000000998
 30
0.0
 11
35.3869139544
 21
4.0000000998
 31
0.0
  0
LINE
  5
1C9
330
1C5
100
AcDbEntity
  8
SK2
  6
Continuous
 62
   136
100
AcDbLine
 10
20.88
 20
-3.9999999002
 30
0.0
 11
35.3869139544
 21
-3.9999999002
 31
0.0
  0
LINE
  5
1CA
330
1C5
100
AcDbEntity
  8
SK2
  6
Continuous
 62
   136
100
AcDbLine
 10
33.6369139004
 20
19.2850347637
 30
0.0
 11
33.6369139004
 21
-10.999999565
 31
0.0
  0
TEXT
  5
1CB
330
1C5
100
AcDbEntity
  8
SK2
  6
Continuous
 62
   136
100
AcDbText
 10
32.7619139004
 20
15.8327619992
 30
0.0
 40
3.5
  1
8
 50
90.0
  7
SEACAD_Solid_Edge_ISO
 11
29.2619139004
 21
15.8327619992
 31
0.0
100
AcDbText
 73
     3
  0
TEXT
  5
1CC
330
1C5
100
AcDbEntity
  8
SK2
  6
Continuous
 62
   136
100
AcDbText
 10
32.7619139004
 20
11.7600347265
 30
0.0
 40
3.5
  1
ø
 50
90.0
  7
SEACAD_Solid_Edge_ISO
 11
29.2619139004
 21
11.7600347265
 31
0.0
100
AcDbText
 73
     3
  0
ENDBLK
  5
1CE
330
1C5
100
AcDbEntity
  8
0
100
AcDbBlockEnd
  0
BLOCK
  5
1D7
330
1D0
100
AcDbEntity
  8
0
100
AcDbBlockBegin
  2
DMBLK2
 70
     0
 10
0.0
 20
0.0
 30
0.0
  3
DMBLK2
  1

  0
HATCH
  5
1D1
330
1D0
100
AcDbEntity
  8
SK2
  6
Continuous
 62
   136
100
AcDbHatch
 10
0.0
 20
0.0
 30
0.0
210
0.0
220
0.0
230
1.0
  2
SOLID
 70
     1
 71
     0
 91
        1
 92
        1
 93
        3
 72
     1
 10
3.50000010803342
 20
-34.53531133847127
 11
3.50000010803342
 21
-33.36864463579347
 72
     1
 10
3.50000010803342
 20
-33.36864463579347
 11
0.0000000000000018
 21
-33.95197798713237
 72
     1
 10
0.0000000000000017
 20
-33.95197798713237
 11
3.50000010803342
 21
-34.53531133847127
 97
        0
 75
     0
 76
     1
 98
        0
  0
HATCH
  5
1D2
330
1D0
100
AcDbEntity
  8
SK2
  6
Continuous
 62
   136
100
AcDbHatch
 10
0.0
 20
0.0
 30
0.0
210
0.0
220
0.0
230
1.0
  2
SOLID
 70
     1
 71
     0
 91
        1
 92
        1
 93
        3
 72
     1
 10
17.58000021800399
 20
-34.53531133847127
 11
21.08000032603741
 21
-33.95197798713237
 72
     1
 10
21.08000032603741
 20
-33.95197798713237
 11
17.58000021800399
 21
-33.36864463579347
 72
     1
 10
17.58000021800399
 20
-33.36864463579347
 11
17.58000021800399
 21
-34.53531133847127
 97
        0
 75
     0
 76
     1
 98
        0
  0
LINE
  5
1D3
330
1D0
100
AcDbEntity
  8
SK2
  6
Continuous
 62
   136
100
AcDbLine
 10
0.0
 20
-24.9999712895
 30
0.0
 11
0.0
 21
-35.7019780411
 31
0.0
  0
LINE
  5
1D4
330
1D0
100
AcDbEntity
  8
SK2
  6
Continuous
 62
   136
100
AcDbLine
 10
21.08
 20
-14.9498449648
 30
0.0
 11
21.08
 21
-35.7019780411
 31
0.0
  0
LINE
  5
1D5
330
1D0
100
AcDbEntity
  8
SK2
  6
Continuous
 62
   136
100
AcDbLine
 10
0.0
 20
-33.9519779871
 30
0.0
 11
21.080000326
 21
-33.9519779871
 31
0.0
  0
TEXT
  5
1D6
330
1D0
100
AcDbEntity
  8
SK2
  6
Continuous
 62
   136
100
AcDbText
 10
6.2843183448
 20
-33.0769779871
 30
0.0
 40
3.5
  1
21,08
  7
SEACAD_Solid_Edge_ISO
 11
6.2843183448
 21
-29.5769779871
 31
0.0
100
AcDbText
 73
     3
  0
ENDBLK
  5
1D8
330
1D0
100
AcDbEntity
  8
0
100
AcDbBlockEnd
  0
BLOCK
  5
1E2
330
1DA
100
AcDbEntity
  8
0
100
AcDbBlockBegin
  2
DMBLK3
 70
     0
 10
0.0
 20
0.0
 30
0.0
  3
DMBLK3
  1

  0
HATCH
  5
1DB
330
1DA
100
AcDbEntity
  8
SK2
  6
Continuous
 62
   136
100
AcDbHatch
 10
0.0
 20
0.0
 30
0.0
210
0.0
220
0.0
230
1.0
  2
SOLID
 70
     1
 71
     0
 91
        1
 92
        1
 93
        3
 72
     1
 10
-46.94641885968546
 20
21.4999713809856
 11
-45.77975215700766
 21
21.4999713809856
 72
     1
 10
-45.77975215700766
 20
21.4999713809856
 11
-46.36308550834656
 21
24.99997148901902
 72
     1
 10
-46.36308550834656
 20
24.99997148901902
 11
-46.94641885968546
 21
21.4999713809856
 97
        0
 75
     0
 76
     1
 98
        0
  0
HATCH
  5
1DC
330
1DA
100
AcDbEntity
  8
SK2
  6
Continuous
 62
   136
100
AcDbHatch
 10
0.0
 20
0.0
 30
0.0
210
0.0
220
0.0
230
1.0
  2
SOLID
 70
     1
 71
     0
 91
        1
 92
        1
 93
        3
 72
     1
 10
-46.94641885968546
 20
-21.49996954336084
 11
-46.36308550834656
 21
-24.99996965139426
 72
     1
 10
-46.36308550834656
 20
-24.99996965139426
 11
-45.77975215700766
 21
-21.49996954336084
 72
     1
 10
-45.77975215700766
 20
-21.49996954336084
 11
-46.94641885968546
 21
-21.49996954336084
 97
        0
 75
     0
 76
     1
 98
        0
  0
LINE
  5
1DD
330
1DA
100
AcDbEntity
  8
SK2
  6
Continuous
 62
   136
100
AcDbLine
 10
0.0
 20
24.999971489
 30
0.0
 11
-48.1130855624
 21
24.999971489
 31
0.0
  0
LINE
  5
1DE
330
1DA
100
AcDbEntity
  8
SK2
  6
Continuous
 62
   136
100
AcDbLine
 10
0.0
 20
-24.9999712895
 30
0.0
 11
-48.1130855624
 21
-24.9999712895
 31
0.0
  0
LINE
  5
1DF
330
1DA
100
AcDbEntity
  8
SK2
  6
Continuous
 62
   136
100
AcDbLine
 10
-46.3630855083
 20
24.999971489
 30
0.0
 11
-46.3630855083
 21
-24.9999696514
 31
0.0
  0
TEXT
  5
1E0
330
1DA
100
AcDbEntity
  8
SK2
  6
Continuous
 62
   136
100
AcDbText
 10
-47.2380855083
 20
0.0079554643
 30
0.0
 40
3.5
  1
50
 50
90.0
  7
SEACAD_Solid_Edge_ISO
 11
-50.7380855083
 21
0.0079554643
 31
0.0
100
AcDbText
 73
     3
  0
TEXT
  5
1E1
330
1DA
100
AcDbEntity
  8
SK2
  6
Continuous
 62
   136
100
AcDbText
 10
-47.2380855083
 20
-4.0647718085
 30
0.0
 40
3.5
  1
ø
 50
90.0
  7
SEACAD_Solid_Edge_ISO
 11
-50.7380855083
 21
-4.0647718085
 31
0.0
100
AcDbText
 73
     3
  0
ENDBLK
  5
1E3
330
1DA
100
AcDbEntity
  8
0
100
AcDbBlockEnd
  0
BLOCK
  5
1EC
330
1E5
100
AcDbEntity
  8
0
100
AcDbBlockBegin
  2
DMBLK4
 70
     0
 10
0.0
 20
0.0
 30
0.0
  3
DMBLK4
  1

  0
HATCH
  5
1E6
330
1E5
100
AcDbEntity
  8
SK2
  6
Continuous
 62
   136
100
AcDbHatch
 10
0.0
 20
0.0
 30
0.0
210
0.0
220
0.0
230
1.0
  2
SOLID
 70
     1
 71
     0
 91
        1
 92
        1
 93
        3
 72
     1
 10
-35.41999989196921
 20
34.59368527720365
 11
-38.92000000000263
 21
34.01035192586475
 72
     1
 10
-38.92000000000263
 20
34.01035192586475
 11
-35.41999989196921
 21
33.42701857452585
 72
     1
 10
-35.41999989196921
 20
33.42701857452585
 11
-35.41999989196921
 21
34.59368527720365
 97
        0
 75
     0
 76
     1
 98
        0
  0
HATCH
  5
1E7
330
1E5
100
AcDbEntity
  8
SK2
  6
Continuous
 62
   136
100
AcDbHatch
 10
0.0
 20
0.0
 30
0.0
210
0.0
220
0.0
230
1.0
  2
SOLID
 70
     1
 71
     0
 91
        1
 92
        1
 93
        3
 72
     1
 10
17.57999855085944
 20
34.59368527720365
 11
17.57999855085944
 21
33.42701857452585
 72
     1
 10
17.57999855085944
 20
33.42701857452585
 11
21.07999865889286
 21
34.01035192586475
 72
     1
 10
21.07999865889286
 20
34.01035192586475
 11
17.57999855085944
 21
34.59368527720365
 97
        0
 75
     0
 76
     1
 98
        0
  0
LINE
  5
1E8
330
1E5
100
AcDbEntity
  8
SK2
  6
Continuous
 62
   136
100
AcDbLine
 10
-38.92
 20
19.0939328743
 30
0.0
 11
-38.92
 21
35.7603519799
 31
0.0
  0
LINE
  5
1E9
330
1E5
100
AcDbEntity
  8
SK2
  6
Continuous
 62
   136
100
AcDbLine
 10
21.08
 20
19.724255708
 30
0.0
 11
21.08
 21
35.7603519799
 31
0.0
  0
LINE
  5
1EA
330
1E5
100
AcDbEntity
  8
SK2
  6
Continuous
 62
   136
100
AcDbLine
 10
-38.92
 20
34.0103519259
 30
0.0
 11
21.0799986589
 21
34.0103519259
 31
0.0
  0
TEXT
  5
1EB
330
1E5
100
AcDbEntity
  8
SK2
  6
Continuous
 62
   136
100
AcDbText
 10
-11.027955216
 20
34.8853519259
 30
0.0
 40
3.5
  1
60
  7
SEACAD_Solid_Edge_ISO
 11
-11.027955216
 21
38.3853519259
 31
0.0
100
AcDbText
 73
     3
  0
ENDBLK
  5
1ED
330
1E5
100
AcDbEntity
  8
0
100
AcDbBlockEnd
  0
ENDSEC
  0
SECTION
  2
ENTITIES
  0
INSERT
  5
4B
330
1F
100
AcDbEntity
  8
SK2
 62
     7
100
AcDbBlockReference
  2
Nullpunkt
 10
0.0
 20
0.0000000998
 30
0.0
  0
INSERT
  5
56
330
1F
100
AcDbEntity
  8
SK2
 62
     7
100
AcDbBlockReference
  2
Einfügepunkt
 10
21.08
 20
0.0000000998
 30
0.0
  0
LINE
  5
57
330
1F
100
AcDbEntity
  8
SK1
  6
Continuous
100
AcDbLine
 10
-38.4895865505
 20
-19.5892321517
 30
0.0
 11
-38.4895865505
 21
-14.2052322541
 31
0.0
  0
LINE
  5
58
330
1F
100
AcDbEntity
  8
SK1
  6
Continuous
100
AcDbLine
 10
-38.92
 20
-19.0939326747
 30
0.0
 11
-38.92
 21
-13.8550026352
 31
0.0
  0
LINE
  5
5B
330
1F
100
AcDbEntity
  8
SK3
100
AcDbLine
 10
-37.42
 20
-9.9874920779
 30
0.0
 11
-37.42
 21
-7.4157767367
 31
0.0
  0
LINE
  5
5C
330
1F
100
AcDbEntity
  8
SK3
100
AcDbLine
 10
-6.92
 20
-7.9843596116
 30
0.0
 11
-6.92
 21
-7.5679281339
 31
0.0
  0
SPLINE
  5
5D
330
1F
100
AcDbEntity
  8
SK3
100
AcDbSpline
210
0.0
220
0.0
230
1.0
 70
     8
 71
     3
 72
    18
 73
    14
 74
     0
 42
0.0000000031679428
 43
0.0000000001
 12
1.0
 22
0.0
 32
0.0
 13
1.0
 23
0.0
 33
0.0
 40
0.0
 40
0.0
 40
0.0
 40
0.0
 40
0.1249999999999995
 40
0.1249999999999995
 40
0.2499999999999991
 40
0.2499999999999991
 40
0.4999999999999993
 40
0.4999999999999993
 40
0.7499999999999996
 40
0.7499999999999996
 40
0.8749999999999998
 40
0.8749999999999998
 40
1.0
 40
1.0
 40
1.0
 40
1.0
 10
-6.920000000002584
 20
-7.984359611564953
 30
0.0
 10
-6.920000000002632
 20
-8.115443102244674
 30
0.0
 10
-6.932714707005718
 20
-8.245166312512605
 30
0.0
 10
-6.983457367131352
 20
-8.501904600423273
 30
0.0
 10
-7.02200003118018
 20
-8.629411614594119
 30
0.0
 10
-7.17143204538466
 20
-8.991336612898799
 30
0.0
 10
-7.320330785144536
 20
-9.214829661079412
 30
0.0
 10
-7.688350922346751
 20
-9.584124702954368
 30
0.0
 10
-7.911305220696028
 20
-9.73378807066787
 30
0.0
 10
-8.272889694048557
 20
-9.884276589470774
 30
0.0
 10
-8.400232622754785
 20
-9.923136572485591
 30
0.0
 10
-8.657397046817248
 20
-9.974491415657933
 30
0.0
 10
-8.78777679233787
 20
-9.987492077952252
 30
0.0
 10
-8.920000000002638
 20
-9.987492077948392
 30
0.0
  0
LINE
  5
5E
330
1F
100
AcDbEntity
  8
SK1
  6
Continuous
100
AcDbLine
 10
7.08
 20
-25.9951917633
 30
0.0
 11
7.08
 21
-24.2077673224
 31
0.0
  0
LINE
  5
5F
330
1F
100
AcDbEntity
  8
SK1
  6
Continuous
100
AcDbLine
 10
21.08
 20
-21.1422735459
 30
0.0
 11
21.08
 21
-19.7242555084
 31
0.0
  0
LINE
  5
60
330
1F
100
AcDbEntity
  8
SK1
  6
Continuous
100
AcDbLine
 10
20.955
 20
-21.3588398196
 30
0.0
 11
20.955
 21
-19.9243366561
 31
0.0
  0
LINE
  5
61
330
1F
100
AcDbEntity
  8
SK1
  6
Continuous
100
AcDbLine
 10
13.0192304845
 20
-25.9415919923
 30
0.0
 11
13.0192304845
 21
-24.158247591
 31
0.0
  0
LINE
  5
62
330
1F
100
AcDbEntity
  8
SK1
  6
Continuous
100
AcDbLine
 10
12.58
 20
-25.6879545901
 30
0.0
 11
12.58
 21
-23.9239171865
 31
0.0
  0
LINE
  5
63
330
1F
100
AcDbEntity
  8
SK1
  6
Continuous
100
AcDbLine
 10
7.48
 20
-22.9945644754
 30
0.0
 11
7.48
 21
-21.4355491864
 31
0.0
  0
LINE
  5
64
330
1F
100
AcDbEntity
  8
SK1
  6
Continuous
100
AcDbLine
 10
12.18
 20
-22.9945644754
 30
0.0
 11
12.18
 21
-21.4355491864
 31
0.0
  0
ARC
  5
65
330
1F
100
AcDbEntity
  8
SK1
  6
Continuous
100
AcDbCircle
 10
20.8268977615
 20
-21.1405428777
 30
0.0
 40
0.2531081553985629
100
AcDbArc
 50
300.4055026949
 51
359.6082277207
  0
LINE
  5
66
330
1F
100
AcDbEntity
  8
SK1
  6
Continuous
100
AcDbLine
 10
20.955
 20
-21.3588398196
 30
0.0
 11
13.0192304845
 21
-25.9415919923
 31
0.0
  0
LINE
  5
67
330
1F
100
AcDbEntity
  8
SK1
  6
Continuous
100
AcDbLine
 10
13.0192304845
 20
-25.9415919923
 30
0.0
 11
12.58
 21
-25.6879545901
 31
0.0
  0
LINE
  5
68
330
1F
100
AcDbEntity
  8
SK3
100
AcDbLine
 10
-38.92
 20
-10.8545154618
 30
0.0
 11
-37.42
 21
-9.9874920779
 31
0.0
  0
LINE
  5
69
330
1F
100
AcDbEntity
  8
SK3
100
AcDbLine
 10
21.08
 20
-19.9999999002
 30
0.0
 11
12.4777981968
 21
-16.0061204916
 31
0.0
  0
LINE
  5
6A
330
1F
100
AcDbEntity
  8
SK3
100
AcDbLine
 10
12.2910396235
 20
-15.919411154
 30
0.0
 11
-6.92
 21
-6.9999999002
 31
0.0
  0
LINE
  5
6B
330
1F
100
AcDbEntity
  8
SK3
100
AcDbLine
 10
-8.92
 20
-9.9874920779
 30
0.0
 11
-37.42
 21
-9.9874920779
 31
0.0
  0
SPLINE
  5
6C
330
1F
100
AcDbEntity
  8
SK1
  6
Continuous
100
AcDbSpline
210
0.0
220
0.0
230
1.0
 70
     8
 71
     3
 72
    10
 73
     6
 74
     0
 42
0.0000000136845499
 43
0.0000000001
 12
1.0
 22
0.0
 32
0.0
 13
1.0
 23
0.0
 33
0.0
 40
0.0
 40
0.0
 40
0.0
 40
0.0
 40
0.5
 40
0.5
 40
1.0
 40
1.0
 40
1.0
 40
1.0
 10
-38.92000000000263
 20
-19.09393267473579
 30
0.0
 10
-38.92000000000263
 20
-19.21302435536105
 30
0.0
 10
-38.87541014102383
 20
-19.33213894119583
 30
0.0
 10
-38.71970326451248
 20
-19.5115415464312
 30
0.0
 10
-38.60876748604776
 20
-19.57247690832091
 30
0.0
 10
-38.48958655048266
 20
-19.58923215172305
 30
0.0
  0
SPLINE
  5
6D
330
1F
100
AcDbEntity
  8
SK1
  6
Continuous
100
AcDbSpline
210
0.0
220
0.0
230
1.0
 70
     8
 71
     3
 72
    11
 73
     7
 74
     0
 42
0.000000000217308
 43
0.0000000001
 12
1.0
 22
0.0
 32
0.0
 13
1.0
 23
0.0
 33
0.0
 40
0.0
 40
0.0
 40
0.0
 40
0.0
 40
0.7476039056833147
 40
0.7476039056833147
 40
0.7476039056833147
 40
1.0
 40
1.0
 40
1.0
 40
1.0
 10
-38.48958655048266
 20
-19.58923215172305
 30
0.0
 10
-27.13360391202705
 20
-21.18573122513828
 30
0.0
 10
-15.7776044319005
 20
-22.78211050366386
 30
0.0
 10
-4.421596407630155
 20
-24.37842899601704
 30
0.0
 10
-0.5877319098218994
 20
-24.91735682892696
 30
0.0
 10
3.246133619814119
 20
-25.45627732157871
 30
0.0
 10
7.079999999997363
 20
-25.99519176334123
 30
0.0
  0
SPLINE
  5
6E
330
1F
100
AcDbEntity
  8
SK1
  6
Continuous
100
AcDbSpline
210
0.0
220
0.0
230
1.0
 70
     8
 71
     3
 72
    10
 73
     6
 74
     0
 42
0.0000000155178301
 43
0.0000000001
 12
1.0
 22
0.0
 32
0.0
 13
1.0
 23
0.0
 33
0.0
 40
0.0
 40
0.0
 40
0.0
 40
0.0
 40
0.5
 40
0.5
 40
1.0
 40
1.0
 40
1.0
 40
1.0
 10
7.079999999997363
 20
-23.39465741001132
 30
0.0
 10
7.079999999997352
 20
-23.29034823215648
 30
0.0
 10
7.122426651374012
 20
-23.18656395899757
 30
0.0
 10
7.271636167946134
 20
-23.0371865997027
 30
0.0
 10
7.374341814358059
 20
-22.99456447536276
 30
0.0
 10
7.479999999997363
 20
-22.99456447536314
 30
0.0
  0
LINE
  5
6F
330
1F
100
AcDbEntity
  8
SK1
  6
Continuous
100
AcDbLine
 10
7.48
 20
-22.9945644754
 30
0.0
 11
12.18
 21
-22.9945644754
 31
0.0
  0
SPLINE
  5
70
330
1F
100
AcDbEntity
  8
SK1
  6
Continuous
100
AcDbSpline
210
0.0
220
0.0
230
1.0
 70
     8
 71
     3
 72
    10
 73
     6
 74
     0
 42
0.0000000155217058
 43
0.0000000001
 12
1.0
 22
0.0
 32
0.0
 13
1.0
 23
0.0
 33
0.0
 40
0.0
 40
0.0
 40
0.0
 40
0.0
 40
0.5
 40
0.5
 40
1.0
 40
1.0
 40
1.0
 40
1.0
 10
12.17999999999736
 20
-22.99456447536314
 30
0.0
 10
12.28574349326614
 20
-22.99456447536314
 30
0.0
 10
12.38916074250757
 20
-23.03798961431085
 30
0.0
 10
12.53675651024682
 20
-23.18574099476103
 30
0.0
 10
12.5799999999976
 20
-23.29025791060707
 30
0.0
 10
12.58000000000239
 20
-23.39465741001191
 30
0.0
  0
ARC
  5
71
330
1F
100
AcDbEntity
  8
SK3
100
AcDbCircle
 10
20.886671516
 20
4.0512217578
 30
0.0
 40
0.1934617828813877
100
AcDbArc
 50
268.0237672497
 51
357.8729476273
  0
ARC
  5
72
330
1F
100
AcDbEntity
  8
SK3
100
AcDbCircle
 10
20.886671516
 20
3.6685383255
 30
0.0
 40
0.1934617828813907
100
AcDbArc
 50
268.0237672497
 51
357.8729476273
  0
LINE
  5
73
330
1F
100
AcDbEntity
  8
SK3
100
AcDbLine
 10
-6.92
 20
7.5679283335
 30
0.0
 11
-6.92
 21
7.9843598111
 31
0.0
  0
LINE
  5
74
330
1F
100
AcDbEntity
  8
SK1
  6
Continuous
100
AcDbLine
 10
21.08
 20
19.724255708
 30
0.0
 11
21.08
 21
21.1422737455
 31
0.0
  0
LINE
  5
75
330
1F
100
AcDbEntity
  8
SK1
  6
Continuous
100
AcDbLine
 10
20.955
 20
19.9243368556
 30
0.0
 11
20.955
 21
21.3588400191
 31
0.0
  0
LINE
  5
76
330
1F
100
AcDbEntity
  8
SK1
  6
Continuous
100
AcDbLine
 10
13.0192304845
 20
24.1582477905
 30
0.0
 11
13.0192304845
 21
25.9415921918
 31
0.0
  0
LINE
  5
77
330
1F
100
AcDbEntity
  8
SK1
  6
Continuous
100
AcDbLine
 10
12.58
 20
23.923917386
 30
0.0
 11
12.58
 21
25.6879547897
 31
0.0
  0
LINE
  5
78
330
1F
100
AcDbEntity
  8
SK1
  6
Continuous
100
AcDbLine
 10
7.08
 20
24.207767522
 30
0.0
 11
7.08
 21
25.9951919629
 31
0.0
  0
LINE
  5
79
330
1F
100
AcDbEntity
  8
SK1
  6
Continuous
100
AcDbLine
 10
7.48
 20
21.4355493859
 30
0.0
 11
7.48
 21
22.9945646749
 31
0.0
  0
LINE
  5
7A
330
1F
100
AcDbEntity
  8
SK1
  6
Continuous
100
AcDbLine
 10
12.18
 20
21.4355493859
 30
0.0
 11
12.18
 21
22.9945646749
 31
0.0
  0
ELLIPSE
  5
7B
330
1F
100
AcDbEntity
  8
SK3
100
AcDbEllipse
 10
3.0799999462
 20
0.0000001165
 30
0.0
 11
29.98017367645741
 21
-9.371794623244329
 31
0.0
210
0.0
220
0.0
230
1.0
 40
0.1163594346
 41
3.12792969728622
 42
3.177950554136776
  0
ELLIPSE
  5
7C
330
1F
100
AcDbEntity
  8
SK3
100
AcDbEllipse
 10
3.0799999352
 20
0.0000001195
 30
0.0
 11
-29.9801736654561
 21
9.371794620248982
 31
0.0
210
0.0
220
0.0
230
1.0
 40
0.1163594346
 41
0.0363579005550977
 42
0.0863787574148654
  0
LINE
  5
7D
330
1F
100
AcDbEntity
  8
SK3
100
AcDbLine
 10
-26.92
 20
9.2387954249
 30
0.0
 11
-26.92
 21
9.4301371411
 31
0.0
  0
LINE
  5
7E
330
1F
100
AcDbEntity
  8
SK3
100
AcDbLine
 10
-26.92
 20
9.4301371411
 30
0.0
 11
-26.8824765332
 21
9.4185814201
 31
0.0
  0
LINE
  5
7F
330
1F
100
AcDbEntity
  8
SK3
100
AcDbLine
 10
-26.92
 20
9.0474537087
 30
0.0
 11
-26.92
 21
9.2387954249
 31
0.0
  0
SPLINE
  5
80
330
1F
100
AcDbEntity
  8
SK1
  6
Continuous
100
AcDbSpline
210
0.0
220
0.0
230
1.0
 70
     8
 71
     3
 72
    14
 73
    10
 74
     0
 42
0.0000000002260452
 43
0.0000000001
 12
1.0
 22
0.0
 32
0.0
 13
1.0
 23
0.0
 33
0.0
 40
0.0
 40
0.0
 40
0.0
 40
0.0
 40
0.1040792485779622
 40
0.1040792485779622
 40
0.1040792485779622
 40
0.9116852591122946
 40
0.9116852591122946
 40
0.9116852591122946
 40
1.0
 40
1.0
 40
1.0
 40
1.0
 10
7.079999999997363
 20
23.82508408962119
 30
0.0
 10
5.557995535104901
 20
23.627426214734
 30
0.0
 10
4.035991204765887
 20
23.42976745548809
 30
0.0
 10
2.513987019466538
 20
23.23210774297583
 30
0.0
 10
-9.296049514056891
 20
21.69836135218237
 30
0.0
 10
-21.10607783219254
 20
20.16456096256796
 30
0.0
 10
-32.91608995728691
 20
18.63065415674758
 30
0.0
 10
-34.20755899928982
 20
18.46291570465698
 30
0.0
 10
-35.49902784003285
 20
18.29517592992735
 30
0.0
 10
-36.7904964624564
 20
18.12743472048274
 30
0.0
  0
LINE
  5
81
330
1F
100
AcDbEntity
  8
SK3
100
AcDbLine
 10
-26.92
 20
9.0474537087
 30
0.0
 11
-26.8824765332
 21
9.0358979877
 31
0.0
  0
LINE
  5
82
330
1F
100
AcDbEntity
  8
SK3
100
AcDbLine
 10
-26.8824765332
 20
9.0358979877
 30
0.0
 11
-8.92
 21
9.0358979877
 31
0.0
  0
ARC
  5
83
330
1F
100
AcDbEntity
  8
SK3
100
AcDbCircle
 10
-8.8478100551
 20
7.1078875143
 30
0.0
 40
1.929361493795527
100
AcDbArc
 50
2.2978794779
 51
92.1443077898
  0
LINE
  5
84
330
1F
100
AcDbEntity
  8
SK3
100
AcDbLine
 10
-6.72
 20
3.4751916102
 30
0.0
 11
20.88
 21
3.4751916102
 31
0.0
  0
ARC
  5
85
330
1F
100
AcDbEntity
  8
SK1
  6
Continuous
100
AcDbCircle
 10
12.1946237007
 20
21.4382880432
 30
0.0
 40
0.3856994164211457
100
AcDbArc
 50
267.8271234728
 51
357.6545646032
  0
LINE
  5
86
330
1F
100
AcDbEntity
  8
SK1
  6
Continuous
100
AcDbLine
 10
12.18
 20
21.0528659536
 30
0.0
 11
7.48
 21
21.0528659536
 31
0.0
  0
ARC
  5
87
330
1F
100
AcDbEntity
  8
SK1
  6
Continuous
100
AcDbCircle
 10
7.4653930343
 20
21.4383061529
 30
0.0
 40
0.3857168789908074
100
AcDbArc
 50
182.3480214913
 51
272.1702904327
  0
LINE
  5
88
330
1F
100
AcDbEntity
  8
SK1
  6
Continuous
100
AcDbLine
 10
12.58
 20
23.923917386
 30
0.0
 11
13.0192304845
 21
24.1582477905
 31
0.0
  0
SPLINE
  5
89
330
1F
100
AcDbEntity
  8
SK1
  6
Continuous
100
AcDbSpline
210
0.0
220
0.0
230
1.0
 70
     8
 71
     3
 72
     8
 73
     4
 74
     0
 42
0.0000000011117809
 43
0.0000000001
 12
1.0
 22
0.0
 32
0.0
 13
1.0
 23
0.0
 33
0.0
 40
0.0
 40
0.0
 40
0.0
 40
0.0
 40
1.0
 40
1.0
 40
1.0
 40
1.0
 10
13.01923048453869
 20
24.15824779054053
 30
0.0
 10
15.66451334340676
 20
22.74698630547879
 30
0.0
 10
18.30977550887716
 20
21.33569170169526
 30
0.0
 10
20.95499999999736
 20
19.92433685560513
 30
0.0
  0
ARC
  5
8A
330
1F
100
AcDbEntity
  8
SK1
  6
Continuous
100
AcDbCircle
 10
20.8515795126
 20
19.7206380353
 30
0.0
 40
0.2284491334997854
100
AcDbArc
 50
0.9073619006
 51
63.0825143555
  0
LINE
  5
8B
330
1F
100
AcDbEntity
  8
SK1
  6
Continuous
100
AcDbLine
 10
21.08
 20
19.724255708
 30
0.0
 11
21.08
 21
19.3415722756
 31
0.0
  0
ARC
  5
8C
330
1F
100
AcDbEntity
  8
SK3
100
AcDbCircle
 10
-6.7266789532
 20
4.051213768
 30
0.0
 40
0.1934540544620744
100
AcDbArc
 50
182.124769401
 51
271.9785157417
  0
ELLIPSE
  5
8D
330
1F
100
AcDbEntity
  8
SK1
  6
Continuous
100
AcDbEllipse
 10
3.08
 20
46.3853184415
 30
0.0
 11
-49.99999999996916
 21
1.313100366342953E-10
 31
0.0
210
0.0
220
0.0
230
1.0
 40
0.9238795325
 41
0.647805554523426
 42
0.6573666716016991
  0
ELLIPSE
  5
8E
330
1F
100
AcDbEntity
  8
SK3
100
AcDbEllipse
 10
3.08
 20
46.3853184415
 30
0.0
 11
-49.99999999996916
 21
1.313100366342953E-10
 31
0.0
210
0.0
220
0.0
230
1.0
 40
0.9238795325
 41
0.6573666716016991
 42
0.9272952180043037
  0
LINE
  5
8F
330
1F
100
AcDbEntity
  8
SK1
  6
Continuous
100
AcDbLine
 10
-36.7904964625
 20
18.5101181528
 30
0.0
 11
-36.7904964625
 21
18.1274347205
 31
0.0
  0
LINE
  5
90
330
1F
100
AcDbEntity
  8
SK1
  6
Continuous
100
AcDbLine
 10
12.58
 20
23.5412339537
 30
0.0
 11
13.0192304845
 21
23.7755643582
 31
0.0
  0
SPLINE
  5
91
330
1F
100
AcDbEntity
  8
SK1
  6
Continuous
100
AcDbSpline
210
0.0
220
0.0
230
1.0
 70
     8
 71
     3
 72
     8
 73
     4
 74
     0
 42
0.0000000011117809
 43
0.0000000001
 12
1.0
 22
0.0
 32
0.0
 13
1.0
 23
0.0
 33
0.0
 40
0.0
 40
0.0
 40
0.0
 40
0.0
 40
1.0
 40
1.0
 40
1.0
 40
1.0
 10
13.01923048453869
 20
23.77556435817544
 30
0.0
 10
15.66451334340676
 20
22.3643028731137
 30
0.0
 10
18.30977550887716
 20
20.95300826933017
 30
0.0
 10
20.95499999999736
 20
19.54165342324004
 30
0.0
  0
ARC
  5
92
330
1F
100
AcDbEntity
  8
SK1
  6
Continuous
100
AcDbCircle
 10
20.8515795126
 20
19.3379546029
 30
0.0
 40
0.228449133499784
100
AcDbArc
 50
0.9073619006
 51
63.0825143555
  0
ARC
  5
93
330
1F
100
AcDbEntity
  8
SK3
100
AcDbCircle
 10
-6.7266789532
 20
3.6685303357
 30
0.0
 40
0.1934540544620776
100
AcDbArc
 50
182.124769401
 51
271.9785157417
  0
ELLIPSE
  5
94
330
1F
100
AcDbEntity
  8
SK3
100
AcDbEllipse
 10
3.08
 20
46.0026350091
 30
0.0
 11
-49.99999999997001
 21
1.228809125529901E-10
 31
0.0
210
0.0
220
0.0
230
1.0
 40
0.9238795325
 41
0.6478055545232685
 42
0.9272952180041543
  0
LINE
  5
95
330
1F
100
AcDbEntity
  8
SK1
  6
Continuous
100
AcDbLine
 10
7.08
 20
23.8250840896
 30
0.0
 11
7.08
 21
24.207767522
 31
0.0
  0
SPLINE
  5
96
330
1F
100
AcDbEntity
  8
SK1
  6
Continuous
100
AcDbSpline
210
0.0
220
0.0
230
1.0
 70
     8
 71
     3
 72
    14
 73
    10
 74
     0
 42
0.0000000002260452
 43
0.0000000001
 12
1.0
 22
0.0
 32
0.0
 13
1.0
 23
0.0
 33
0.0
 40
0.0
 40
0.0
 40
0.0
 40
0.0
 40
0.1040792485779622
 40
0.1040792485779622
 40
0.1040792485779622
 40
0.9116852591122946
 40
0.9116852591122946
 40
0.9116852591122946
 40
1.0
 40
1.0
 40
1.0
 40
1.0
 10
7.079999999997363
 20
24.20776752198628
 30
0.0
 10
5.557995535104901
 20
24.01010964709909
 30
0.0
 10
4.035991204765887
 20
23.81245088785317
 30
0.0
 10
2.513987019466538
 20
23.61479117534092
 30
0.0
 10
-9.296049514056891
 20
22.08104478454746
 30
0.0
 10
-21.10607783219254
 20
20.54724439493305
 30
0.0
 10
-32.91608995728691
 20
19.01333758911267
 30
0.0
 10
-34.20755899928982
 20
18.84559913702207
 30
0.0
 10
-35.49902784003285
 20
18.67785936229244
 30
0.0
 10
-36.7904964624564
 20
18.51011815284783
 30
0.0
  0
LINE
  5
97
330
1F
100
AcDbEntity
  8
SK3
100
AcDbLine
 10
-26.8824765332
 20
9.4185814201
 30
0.0
 11
-8.92
 21
9.4185814201
 31
0.0
  0
ARC
  5
98
330
1F
100
AcDbEntity
  8
SK3
100
AcDbCircle
 10
-8.8478100551
 20
7.4905709467
 30
0.0
 40
1.929361493795532
100
AcDbArc
 50
2.2978794779
 51
92.1443077898
  0
LINE
  5
99
330
1F
100
AcDbEntity
  8
SK3
100
AcDbLine
 10
-6.92
 20
7.5679283335
 30
0.0
 11
-6.92
 21
7.1852449011
 31
0.0
  0
LINE
  5
9A
330
1F
100
AcDbEntity
  8
SK3
100
AcDbLine
 10
-6.72
 20
3.8578750426
 30
0.0
 11
20.88
 21
3.8578750426
 31
0.0
  0
LINE
  5
9B
330
1F
100
AcDbEntity
  8
SK1
  6
Continuous
100
AcDbLine
 10
12.58
 20
23.923917386
 30
0.0
 11
12.58
 21
23.5412339537
 31
0.0
  0
ARC
  5
9C
330
1F
100
AcDbEntity
  8
SK1
  6
Continuous
100
AcDbCircle
 10
12.1946237007
 20
21.8209714756
 30
0.0
 40
0.3856994164211454
100
AcDbArc
 50
267.8271234728
 51
357.6545646032
  0
LINE
  5
9D
330
1F
100
AcDbEntity
  8
SK1
  6
Continuous
100
AcDbLine
 10
12.18
 20
21.4355493859
 30
0.0
 11
7.48
 21
21.4355493859
 31
0.0
  0
ARC
  5
9E
330
1F
100
AcDbEntity
  8
SK1
  6
Continuous
100
AcDbCircle
 10
7.4653930343
 20
21.8209895853
 30
0.0
 40
0.3857168789908041
100
AcDbArc
 50
182.3480214913
 51
272.1702904327
  0
SPLINE
  5
9F
330
1F
100
AcDbEntity
  8
SK3
100
AcDbSpline
210
0.0
220
0.0
230
1.0
 70
     8
 71
     3
 72
    10
 73
     6
 74
     0
 42
0.0000000427273499
 43
0.0000000001
 12
1.0
 22
0.0
 32
0.0
 13
1.0
 23
0.0
 33
0.0
 40
0.0
 40
0.0
 40
0.0
 40
0.0
 40
0.5
 40
0.5
 40
1.0
 40
1.0
 40
1.0
 40
1.0
 10
21.07999999999879
 20
2.057780252024505
 30
0.0
 10
21.07999999999731
 20
2.037740907691564
 30
0.0
 10
21.0589628111757
 20
2.017800289632912
 30
0.0
 10
20.98450738671575
 20
1.988960933959628
 30
0.0
 10
20.93302863145582
 20
1.980667655379985
 30
0.0
 10
20.87999999999736
 20
1.980667655380287
 30
0.0
  0
SPLINE
  5
A0
330
1F
100
AcDbEntity
  8
SK3
100
AcDbSpline
210
0.0
220
0.0
230
1.0
 70
     8
 71
     3
 72
    10
 73
     6
 74
     0
 42
0.0000000427273499
 43
0.0000000001
 12
1.0
 22
0.0
 32
0.0
 13
1.0
 23
0.0
 33
0.0
 40
0.0
 40
0.0
 40
0.0
 40
0.0
 40
0.5
 40
0.5
 40
1.0
 40
1.0
 40
1.0
 40
1.0
 10
21.07999999999879
 20
1.133900719513215
 30
0.0
 10
21.07999999999731
 20
1.11386137518028
 30
0.0
 10
21.0589628111757
 20
1.09392075712163
 30
0.0
 10
20.98450738671575
 20
1.065081401448347
 30
0.0
 10
20.93302863145582
 20
1.056788122868697
 30
0.0
 10
20.87999999999736
 20
1.056788122869005
 30
0.0
  0
LINE
  5
A1
330
1F
100
AcDbEntity
  8
SK3
100
AcDbLine
 10
-6.92
 20
3.5174220456
 30
0.0
 11
-6.92
 21
5.2922416045
 31
0.0
  0
LINE
  5
A2
330
1F
100
AcDbEntity
  8
SK1
  6
Continuous
100
AcDbLine
 10
21.08
 20
8.5527377128
 30
0.0
 11
21.08
 21
14.5962917738
 31
0.0
  0
LINE
  5
A3
330
1F
100
AcDbEntity
  8
SK1
  6
Continuous
100
AcDbLine
 10
20.955
 20
8.6356140377
 30
0.0
 11
20.955
 21
14.7494272544
 31
0.0
  0
LINE
  5
A4
330
1F
100
AcDbEntity
  8
SK1
  6
Continuous
100
AcDbLine
 10
13.0192304845
 20
10.3893573688
 30
0.0
 11
13.0192304845
 21
17.9899223922
 31
0.0
  0
LINE
  5
A5
330
1F
100
AcDbEntity
  8
SK1
  6
Continuous
100
AcDbLine
 10
12.58
 20
10.2922945372
 30
0.0
 11
12.58
 21
17.8105736652
 31
0.0
  0
LINE
  5
A6
330
1F
100
AcDbEntity
  8
SK1
  6
Continuous
100
AcDbLine
 10
7.08
 20
10.4098691132
 30
0.0
 11
7.08
 21
18.0278231538
 31
0.0
  0
LINE
  5
A7
330
1F
100
AcDbEntity
  8
SK1
  6
Continuous
100
AcDbLine
 10
7.48
 20
9.2615787634
 30
0.0
 11
7.48
 21
15.9060592507
 31
0.0
  0
LINE
  5
A8
330
1F
100
AcDbEntity
  8
SK1
  6
Continuous
100
AcDbLine
 10
12.18
 20
9.2615787634
 30
0.0
 11
12.18
 21
15.9060592507
 31
0.0
  0
ELLIPSE
  5
A9
330
1F
100
AcDbEntity
  8
SK3
100
AcDbEllipse
 10
3.0799999463
 20
0.000000107
 30
0.0
 11
29.97287147835407
 21
-4.216185235936671
 31
0.0
210
0.0
220
0.0
230
1.0
 40
0.3025313411
 41
3.13410222321663
 42
3.184123080067113
  0
ELLIPSE
  5
AA
330
1F
100
AcDbEntity
  8
SK3
100
AcDbEllipse
 10
3.0799999354
 20
0.0000001075
 30
0.0
 11
-29.97287146739271
 21
4.216185235574462
 31
0.0
210
0.0
220
0.0
230
1.0
 40
0.3025313411
 41
0.0425304264965572
 42
0.0925512833562155
  0
LINE
  5
AB
330
1F
100
AcDbEntity
  8
SK3
100
AcDbLine
 10
-26.92
 20
3.8268344234
 30
0.0
 11
-26.92
 21
4.2887741897
 31
0.0
  0
LINE
  5
AC
330
1F
100
AcDbEntity
  8
SK3
100
AcDbLine
 10
-26.92
 20
4.2887741897
 30
0.0
 11
-26.8824765332
 21
4.2839876533
 31
0.0
  0
LINE
  5
AD
330
1F
100
AcDbEntity
  8
SK3
100
AcDbLine
 10
-26.92
 20
3.3648946572
 30
0.0
 11
-26.92
 21
3.8268344234
 31
0.0
  0
LINE
  5
AE
330
1F
100
AcDbEntity
  8
SK1
  6
Continuous
100
AcDbLine
 10
7.08
 20
9.4859895807
 30
0.0
 11
-36.7904964625
 21
7.1259459383
 31
0.0
  0
LINE
  5
AF
330
1F
100
AcDbEntity
  8
SK3
100
AcDbLine
 10
-26.92
 20
3.3648946572
 30
0.0
 11
-26.8824765332
 21
3.3601081208
 31
0.0
  0
LINE
  5
B0
330
1F
100
AcDbEntity
  8
SK3
100
AcDbLine
 10
-26.8824765332
 20
3.3601081208
 30
0.0
 11
-8.92
 21
3.3601081208
 31
0.0
  0
SPLINE
  5
B1
330
1F
100
AcDbEntity
  8
SK3
100
AcDbSpline
210
0.0
220
0.0
230
1.0
 70
     8
 71
     3
 72
    10
 73
     6
 74
     0
 42
0.0000000042778946
 43
0.0000000001
 12
1.0
 22
0.0
 32
0.0
 13
1.0
 23
0.0
 33
0.0
 40
0.0
 40
0.0
 40
0.0
 40
0.0
 40
0.5
 40
0.5
 40
1.0
 40
1.0
 40
1.0
 40
1.0
 10
-8.920000000002638
 20
3.360108120804073
 30
0.0
 10
-8.39087985783574
 20
3.360108120804076
 30
0.0
 10
-7.873532872663687
 20
3.276793586079181
 30
0.0
 10
-7.135787782341561
 20
2.993620844412906
 30
0.0
 10
-6.92000000000264
 20
2.793448366832966
 30
0.0
 10
-6.920000000002636
 20
2.593542513086515
 30
0.0
  0
LINE
  5
B2
330
1F
100
AcDbEntity
  8
SK3
100
AcDbLine
 10
-6.72
 20
1.0567881229
 30
0.0
 11
20.88
 21
1.0567881229
 31
0.0
  0
SPLINE
  5
B3
330
1F
100
AcDbEntity
  8
SK1
  6
Continuous
100
AcDbSpline
210
0.0
220
0.0
230
1.0
 70
     8
 71
     3
 72
    10
 73
     6
 74
     0
 42
0.0000000213917985
 43
0.0000000001
 12
1.0
 22
0.0
 32
0.0
 13
1.0
 23
0.0
 33
0.0
 40
0.0
 40
0.0
 40
0.0
 40
0.0
 40
0.5
 40
0.5
 40
1.0
 40
1.0
 40
1.0
 40
1.0
 10
12.57999999999737
 20
8.490808168364156
 30
0.0
 10
12.57999999999737
 20
8.450890774155486
 30
0.0
 10
12.53757334862072
 20
8.411174252277512
 30
0.0
 10
12.3883638320486
 20
8.354010011704927
 30
0.0
 10
12.28565818563667
 20
8.33769923086782
 30
0.0
 10
12.17999999999736
 20
8.33769923086797
 30
0.0
  0
LINE
  5
B4
330
1F
100
AcDbEntity
  8
SK1
  6
Continuous
100
AcDbLine
 10
12.18
 20
8.3376992309
 30
0.0
 11
7.48
 21
8.3376992309
 31
0.0
  0
SPLINE
  5
B5
330
1F
100
AcDbEntity
  8
SK1
  6
Continuous
100
AcDbSpline
210
0.0
220
0.0
230
1.0
 70
     8
 71
     3
 72
    10
 73
     6
 74
     0
 42
0.0000000213949802
 43
0.0000000001
 12
1.0
 22
0.0
 32
0.0
 13
1.0
 23
0.0
 33
0.0
 40
0.0
 40
0.0
 40
0.0
 40
0.0
 40
0.5
 40
0.5
 40
1.0
 40
1.0
 40
1.0
 40
1.0
 10
7.479999999997367
 20
8.337699230867967
 30
0.0
 10
7.374256506728585
 20
8.337699230867976
 30
0.0
 10
7.270839257487165
 20
8.354317312091418
 30
0.0
 10
7.12324348974791
 20
8.410859317498765
 30
0.0
 10
7.079999999997127
 20
8.450856209594944
 30
0.0
 10
7.079999999992335
 20
8.490808168364383
 30
0.0
  0
LINE
  5
B6
330
1F
100
AcDbEntity
  8
SK1
  6
Continuous
100
AcDbLine
 10
12.58
 20
10.2922945372
 30
0.0
 11
13.0192304845
 21
10.3893573688
 31
0.0
  0
LINE
  5
B7
330
1F
100
AcDbEntity
  8
SK1
  6
Continuous
100
AcDbLine
 10
13.0192304845
 20
10.3893573688
 30
0.0
 11
20.955
 21
8.6356140377
 31
0.0
  0
SPLINE
  5
B8
330
1F
100
AcDbEntity
  8
SK1
  6
Continuous
100
AcDbSpline
210
0.0
220
0.0
230
1.0
 70
     8
 71
     3
 72
     8
 73
     4
 74
     0
 42
0.000000058751002
 43
0.0000000001
 12
1.0
 22
0.0
 32
0.0
 13
1.0
 23
0.0
 33
0.0
 40
0.0
 40
0.0
 40
0.0
 40
0.0
 40
1.0
 40
1.0
 40
1.0
 40
1.0
 10
20.95499999999736
 20
8.635614037691164
 30
0.0
 10
21.03128100986064
 20
8.618755712290518
 30
0.0
 10
21.07999999999737
 20
8.586268703515461
 30
0.0
 10
21.07999999999736
 20
8.552737712766872
 30
0.0
  0
LINE
  5
B9
330
1F
100
AcDbEntity
  8
SK1
  6
Continuous
100
AcDbLine
 10
21.08
 20
8.5527377128
 30
0.0
 11
21.08
 21
7.6288581803
 31
0.0
  0
SPLINE
  5
BA
330
1F
100
AcDbEntity
  8
SK3
100
AcDbSpline
210
0.0
220
0.0
230
1.0
 70
     8
 71
     3
 72
    10
 73
     6
 74
     0
 42
0.0000000427340934
 43
0.0000000001
 12
1.0
 22
0.0
 32
0.0
 13
1.0
 23
0.0
 33
0.0
 40
0.0
 40
0.0
 40
0.0
 40
0.0
 40
0.5
 40
0.5
 40
1.0
 40
1.0
 40
1.0
 40
1.0
 10
-6.720000000002631
 20
1.980667655380287
 30
0.0
 10
-6.773061321210101
 20
1.980667655380285
 30
0.0
 10
-6.824909183571648
 20
1.98911795034752
 30
0.0
 10
-6.898547302251357
 20
2.017637962304713
 30
0.0
 10
-6.920000000002702
 20
2.037726152567819
 30
0.0
 10
-6.920000000004016
 20
2.057780252024616
 30
0.0
  0
ELLIPSE
  5
BB
330
1F
100
AcDbEntity
  8
SK1
  6
Continuous
100
AcDbEllipse
 10
3.08
 20
19.5961114843
 30
0.0
 11
-49.99999999996825
 21
9.684573989370739E-12
 31
0.0
210
0.0
220
0.0
230
1.0
 40
0.3826834324
 41
0.6478055545210769
 42
0.7035322083212225
  0
ELLIPSE
  5
BC
330
1F
100
AcDbEntity
  8
SK3
100
AcDbEllipse
 10
3.08
 20
19.5961114843
 30
0.0
 11
-49.99999999996825
 21
9.684573989370739E-12
 31
0.0
210
0.0
220
0.0
230
1.0
 40
0.3826834324
 41
0.7035322083212225
 42
0.9272952180019598
  0
LINE
  5
BD
330
1F
100
AcDbEntity
  8
SK1
  6
Continuous
100
AcDbLine
 10
-36.7904964625
 20
8.0498254708
 30
0.0
 11
-36.7904964625
 21
7.1259459383
 31
0.0
  0
LINE
  5
BE
330
1F
100
AcDbEntity
  8
SK1
  6
Continuous
100
AcDbLine
 10
12.58
 20
9.3684150047
 30
0.0
 11
13.0192304845
 21
9.4654778363
 31
0.0
  0
LINE
  5
BF
330
1F
100
AcDbEntity
  8
SK1
  6
Continuous
100
AcDbLine
 10
13.0192304845
 20
9.4654778363
 30
0.0
 11
20.955
 21
7.7117345052
 31
0.0
  0
SPLINE
  5
C0
330
1F
100
AcDbEntity
  8
SK1
  6
Continuous
100
AcDbSpline
210
0.0
220
0.0
230
1.0
 70
     8
 71
     3
 72
     8
 73
     4
 74
     0
 42
0.000000058751002
 43
0.0000000001
 12
1.0
 22
0.0
 32
0.0
 13
1.0
 23
0.0
 33
0.0
 40
0.0
 40
0.0
 40
0.0
 40
0.0
 40
1.0
 40
1.0
 40
1.0
 40
1.0
 10
20.95499999999736
 20
7.711734505179876
 30
0.0
 10
21.03128100986064
 20
7.694876179779234
 30
0.0
 10
21.07999999999737
 20
7.662389171004179
 30
0.0
 10
21.07999999999736
 20
7.628858180255591
 30
0.0
  0
SPLINE
  5
C1
330
1F
100
AcDbEntity
  8
SK3
100
AcDbSpline
210
0.0
220
0.0
230
1.0
 70
     8
 71
     3
 72
    10
 73
     6
 74
     0
 42
0.0000000427340934
 43
0.0000000001
 12
1.0
 22
0.0
 32
0.0
 13
1.0
 23
0.0
 33
0.0
 40
0.0
 40
0.0
 40
0.0
 40
0.0
 40
0.5
 40
0.5
 40
1.0
 40
1.0
 40
1.0
 40
1.0
 10
-6.720000000002631
 20
1.056788122869002
 30
0.0
 10
-6.773061321210101
 20
1.056788122869
 30
0.0
 10
-6.824909183571648
 20
1.065238417836236
 30
0.0
 10
-6.898547302251361
 20
1.09375842979343
 30
0.0
 10
-6.920000000002702
 20
1.113846620056536
 30
0.0
 10
-6.920000000004016
 20
1.133900719513333
 30
0.0
  0
ELLIPSE
  5
C2
330
1F
100
AcDbEntity
  8
SK3
100
AcDbEllipse
 10
3.08
 20
18.6722319518
 30
0.0
 11
-49.99999999999977
 21
9.818139351950223E-14
 31
0.0
210
0.0
220
0.0
230
1.0
 40
0.3826834324
 41
0.6478055545208464
 42
0.9272952180016142
  0
LINE
  5
C3
330
1F
100
AcDbEntity
  8
SK1
  6
Continuous
100
AcDbLine
 10
7.08
 20
9.4859895807
 30
0.0
 11
7.08
 21
10.4098691132
 31
0.0
  0
LINE
  5
C4
330
1F
100
AcDbEntity
  8
SK1
  6
Continuous
100
AcDbLine
 10
7.08
 20
10.4098691132
 30
0.0
 11
-36.7904964625
 21
8.0498254708
 31
0.0
  0
LINE
  5
C5
330
1F
100
AcDbEntity
  8
SK3
100
AcDbLine
 10
-26.8824765332
 20
4.2839876533
 30
0.0
 11
-8.92
 21
4.2839876533
 31
0.0
  0
SPLINE
  5
C6
330
1F
100
AcDbEntity
  8
SK3
100
AcDbSpline
210
0.0
220
0.0
230
1.0
 70
     8
 71
     3
 72
    10
 73
     6
 74
     0
 42
0.0000000042778946
 43
0.0000000001
 12
1.0
 22
0.0
 32
0.0
 13
1.0
 23
0.0
 33
0.0
 40
0.0
 40
0.0
 40
0.0
 40
0.0
 40
0.5
 40
0.5
 40
1.0
 40
1.0
 40
1.0
 40
1.0
 10
-8.920000000002638
 20
4.283987653315358
 30
0.0
 10
-8.39087985783574
 20
4.283987653315358
 30
0.0
 10
-7.873532872663691
 20
4.200673118590466
 30
0.0
 10
-7.13578778234155
 20
3.917500376924193
 30
0.0
 10
-6.920000000002643
 20
3.717327899344253
 30
0.0
 10
-6.920000000002636
 20
3.5174220455978
 30
0.0
  0
LINE
  5
C7
330
1F
100
AcDbEntity
  8
SK3
100
AcDbLine
 10
-6.92
 20
3.5174220456
 30
0.0
 11
-6.92
 21
2.5935425131
 31
0.0
  0
LINE
  5
C8
330
1F
100
AcDbEntity
  8
SK3
100
AcDbLine
 10
-6.72
 20
1.9806676554
 30
0.0
 11
20.88
 21
1.9806676554
 31
0.0
  0
LINE
  5
C9
330
1F
100
AcDbEntity
  8
SK1
  6
Continuous
100
AcDbLine
 10
12.58
 20
10.2922945372
 30
0.0
 11
12.58
 21
9.4146877009
 31
0.0
  0
SPLINE
  5
CA
330
1F
100
AcDbEntity
  8
SK1
  6
Continuous
100
AcDbSpline
210
0.0
220
0.0
230
1.0
 70
     8
 71
     3
 72
    10
 73
     6
 74
     0
 42
0.0000000213917985
 43
0.0000000001
 12
1.0
 22
0.0
 32
0.0
 13
1.0
 23
0.0
 33
0.0
 40
0.0
 40
0.0
 40
0.0
 40
0.0
 40
0.5
 40
0.5
 40
1.0
 40
1.0
 40
1.0
 40
1.0
 10
12.57999999999737
 20
9.41468770087544
 30
0.0
 10
12.57999999999738
 20
9.374770306666763
 30
0.0
 10
12.53757334862072
 20
9.335053784788798
 30
0.0
 10
12.3883638320486
 20
9.277889544216203
 30
0.0
 10
12.28565818563667
 20
9.261578763379106
 30
0.0
 10
12.17999999999736
 20
9.261578763379259
 30
0.0
  0
LINE
  5
CB
330
1F
100
AcDbEntity
  8
SK1
  6
Continuous
100
AcDbLine
 10
12.18
 20
9.2615787634
 30
0.0
 11
7.48
 21
9.2615787634
 31
0.0
  0
SPLINE
  5
CC
330
1F
100
AcDbEntity
  8
SK1
  6
Continuous
100
AcDbSpline
210
0.0
220
0.0
230
1.0
 70
     8
 71
     3
 72
    10
 73
     6
 74
     0
 42
0.0000000213949802
 43
0.0000000001
 12
1.0
 22
0.0
 32
0.0
 13
1.0
 23
0.0
 33
0.0
 40
0.0
 40
0.0
 40
0.0
 40
0.0
 40
0.5
 40
0.5
 40
1.0
 40
1.0
 40
1.0
 40
1.0
 10
7.479999999997367
 20
9.261578763379251
 30
0.0
 10
7.374256506728585
 20
9.261578763379262
 30
0.0
 10
7.270839257487161
 20
9.278196844602697
 30
0.0
 10
7.12324348974791
 20
9.33473885001005
 30
0.0
 10
7.07999999999713
 20
9.374735742106225
 30
0.0
 10
7.079999999992335
 20
9.414687700875668
 30
0.0
  0
SPLINE
  5
CD
330
1F
100
AcDbEntity
  8
SK3
100
AcDbSpline
210
0.0
220
0.0
230
1.0
 70
     8
 71
     3
 72
    10
 73
     6
 74
     0
 42
0.0000000427252543
 43
0.0000000001
 12
1.0
 22
0.0
 32
0.0
 13
1.0
 23
0.0
 33
0.0
 40
0.0
 40
0.0
 40
0.0
 40
0.0
 40
0.5
 40
0.5
 40
1.0
 40
1.0
 40
1.0
 40
1.0
 10
21.07999999999736
 20
-1.133900519971895
 30
0.0
 10
21.07999999999736
 20
-1.113670423937126
 30
0.0
 10
21.05840156933056
 20
-1.093676251539091
 30
0.0
 10
20.98480123888266
 20
-1.065222035989696
 30
0.0
 10
20.93290335144388
 20
-1.056787923327619
 30
0.0
 10
20.87999999999736
 20
-1.056787923327619
 30
0.0
  0
SPLINE
  5
CE
330
1F
100
AcDbEntity
  8
SK3
100
AcDbSpline
210
0.0
220
0.0
230
1.0
 70
     8
 71
     3
 72
    10
 73
     6
 74
     0
 42
0.0000000427252543
 43
0.0000000001
 12
1.0
 22
0.0
 32
0.0
 13
1.0
 23
0.0
 33
0.0
 40
0.0
 40
0.0
 40
0.0
 40
0.0
 40
0.5
 40
0.5
 40
1.0
 40
1.0
 40
1.0
 40
1.0
 10
21.07999999999736
 20
-2.057780052483181
 30
0.0
 10
21.07999999999736
 20
-2.037549956448413
 30
0.0
 10
21.05840156933056
 20
-2.017555784050378
 30
0.0
 10
20.98480123888266
 20
-1.989101568500983
 30
0.0
 10
20.93290335144388
 20
-1.980667455838905
 30
0.0
 10
20.87999999999736
 20
-1.980667455838905
 30
0.0
  0
LINE
  5
CF
330
1F
100
AcDbEntity
  8
SK3
100
AcDbLine
 10
-6.92
 20
-2.5935423135
 30
0.0
 11
-6.92
 21
-0.4999999002
 31
0.0
  0
LINE
  5
D0
330
1F
100
AcDbEntity
  8
SK1
  6
Continuous
100
AcDbLine
 10
21.08
 20
-7.6288579807
 30
0.0
 11
21.08
 21
-0.4999999002
 31
0.0
  0
LINE
  5
D1
330
1F
100
AcDbEntity
  8
SK1
  6
Continuous
100
AcDbLine
 10
20.955
 20
-7.7117343056
 30
0.0
 11
20.955
 21
-0.4999999002
 31
0.0
  0
LINE
  5
D2
330
1F
100
AcDbEntity
  8
SK1
  6
Continuous
100
AcDbLine
 10
13.0192304845
 20
-9.4654776368
 30
0.0
 11
13.0192304845
 21
-0.4999999002
 31
0.0
  0
LINE
  5
D3
330
1F
100
AcDbEntity
  8
SK1
  6
Continuous
100
AcDbLine
 10
12.58
 20
-9.3684148052
 30
0.0
 11
12.58
 21
-0.4999999002
 31
0.0
  0
LINE
  5
D4
330
1F
100
AcDbEntity
  8
SK1
  6
Continuous
100
AcDbLine
 10
7.08
 20
-9.4859893811
 30
0.0
 11
7.08
 21
-0.4999999002
 31
0.0
  0
LINE
  5
D5
330
1F
100
AcDbEntity
  8
SK1
  6
Continuous
100
AcDbLine
 10
7.48
 20
-8.3376990313
 30
0.0
 11
7.48
 21
-0.4999999002
 31
0.0
  0
LINE
  5
D6
330
1F
100
AcDbEntity
  8
SK1
  6
Continuous
100
AcDbLine
 10
12.18
 20
-8.3376990313
 30
0.0
 11
12.18
 21
-0.4999999002
 31
0.0
  0
ELLIPSE
  5
D7
330
1F
100
AcDbEntity
  8
SK3
100
AcDbEllipse
 10
3.0799999462
 20
0.0000000933
 30
0.0
 11
-29.97287147824681
 21
-4.216185236861329
 31
0.0
210
0.0
220
0.0
230
1.0
 40
0.3025313411
 41
-0.0925512833371149
 42
-0.0425304264865121
  0
ELLIPSE
  5
D8
330
1F
100
AcDbEntity
  8
SK3
100
AcDbEllipse
 10
3.0799999352
 20
0.000000091
 30
0.0
 11
29.97287146725748
 21
4.216185234451745
 31
0.0
210
0.0
220
0.0
230
1.0
 40
0.3025313412
 41
3.099062227103848
 42
3.149083083963668
  0
LINE
  5
D9
330
1F
100
AcDbEntity
  8
SK3
100
AcDbLine
 10
-26.92
 20
-3.8268342239
 30
0.0
 11
-26.92
 21
-3.3648944576
 31
0.0
  0
LINE
  5
DA
330
1F
100
AcDbEntity
  8
SK3
100
AcDbLine
 10
-26.92
 20
-3.3648944576
 30
0.0
 11
-26.8824765332
 21
-3.3601079213
 31
0.0
  0
LINE
  5
DB
330
1F
100
AcDbEntity
  8
SK3
100
AcDbLine
 10
-26.92
 20
-4.2887739901
 30
0.0
 11
-26.92
 21
-3.8268342239
 31
0.0
  0
LINE
  5
DC
330
1F
100
AcDbEntity
  8
SK1
  6
Continuous
100
AcDbLine
 10
7.08
 20
-9.4859893811
 30
0.0
 11
7.08
 21
-10.4098689136
 31
0.0
  0
LINE
  5
DD
330
1F
100
AcDbEntity
  8
SK1
  6
Continuous
100
AcDbLine
 10
7.08
 20
-10.4098689136
 30
0.0
 11
-36.7904964625
 21
-8.0498252713
 31
0.0
  0
LINE
  5
DE
330
1F
100
AcDbEntity
  8
SK3
100
AcDbLine
 10
-26.92
 20
-4.2887739901
 30
0.0
 11
-26.8824765332
 21
-4.2839874538
 31
0.0
  0
LINE
  5
DF
330
1F
100
AcDbEntity
  8
SK3
100
AcDbLine
 10
-26.8824765332
 20
-4.2839874538
 30
0.0
 11
-8.92
 21
-4.2839874538
 31
0.0
  0
SPLINE
  5
E0
330
1F
100
AcDbEntity
  8
SK3
100
AcDbSpline
210
0.0
220
0.0
230
1.0
 70
     8
 71
     3
 72
    10
 73
     6
 74
     0
 42
0.0000000042780368
 43
0.0000000001
 12
1.0
 22
0.0
 32
0.0
 13
1.0
 23
0.0
 33
0.0
 40
0.0
 40
0.0
 40
0.0
 40
0.0
 40
0.5
 40
0.5
 40
1.0
 40
1.0
 40
1.0
 40
1.0
 10
-8.920000000002638
 20
-4.283987453773977
 30
0.0
 10
-8.398742124962103
 20
-4.283987453773977
 30
0.0
 10
-7.874321009627157
 20
-4.201111780988851
 30
0.0
 10
-7.13364426282171
 20
-3.916540821854321
 30
0.0
 10
-6.92000000000264
 20
-3.716864181173777
 30
0.0
 10
-6.920000000002636
 20
-3.517421846056418
 30
0.0
  0
LINE
  5
E1
330
1F
100
AcDbEntity
  8
SK3
100
AcDbLine
 10
-6.92
 20
-3.5174218461
 30
0.0
 11
-6.92
 21
-2.5935423135
 31
0.0
  0
LINE
  5
E2
330
1F
100
AcDbEntity
  8
SK3
100
AcDbLine
 10
-6.72
 20
-1.9806674558
 30
0.0
 11
20.88
 21
-1.9806674558
 31
0.0
  0
LINE
  5
E3
330
1F
100
AcDbEntity
  8
SK1
  6
Continuous
100
AcDbLine
 10
12.58
 20
-10.2922943377
 30
0.0
 11
12.58
 21
-9.4146875013
 31
0.0
  0
SPLINE
  5
E4
330
1F
100
AcDbEntity
  8
SK1
  6
Continuous
100
AcDbSpline
210
0.0
220
0.0
230
1.0
 70
     8
 71
     3
 72
    10
 73
     6
 74
     0
 42
0.0000000213970196
 43
0.0000000001
 12
1.0
 22
0.0
 32
0.0
 13
1.0
 23
0.0
 33
0.0
 40
0.0
 40
0.0
 40
0.0
 40
0.0
 40
0.5
 40
0.5
 40
1.0
 40
1.0
 40
1.0
 40
1.0
 10
12.57999999999737
 20
-9.414687501334058
 30
0.0
 10
12.57999999999738
 20
-9.37479320399484
 30
0.0
 10
12.53639448414851
 20
-9.334520358776174
 30
0.0
 10
12.38872323027533
 20
-9.2781090765699
 30
0.0
 10
12.28430098524542
 20
-9.261578563837782
 30
0.0
 10
12.17999999999673
 20
-9.261578563835805
 30
0.0
  0
LINE
  5
E5
330
1F
100
AcDbEntity
  8
SK1
  6
Continuous
100
AcDbLine
 10
12.18
 20
-9.2615785638
 30
0.0
 11
7.48
 21
-9.2615785638
 31
0.0
  0
SPLINE
  5
E6
330
1F
100
AcDbEntity
  8
SK1
  6
Continuous
100
AcDbSpline
210
0.0
220
0.0
230
1.0
 70
     8
 71
     3
 72
    10
 73
     6
 74
     0
 42
0.0000000213881793
 43
0.0000000001
 12
1.0
 22
0.0
 32
0.0
 13
1.0
 23
0.0
 33
0.0
 40
0.0
 40
0.0
 40
0.0
 40
0.0
 40
0.5
 40
0.5
 40
1.0
 40
1.0
 40
1.0
 40
1.0
 10
7.479999999997367
 20
-9.26157856383787
 30
0.0
 10
7.374543526803556
 20
-9.261578563837874
 30
0.0
 10
7.271052272261339
 20
-9.278151473397942
 30
0.0
 10
7.123394562567945
 20
-9.334644434692892
 30
0.0
 10
7.079999999998219
 20
-9.374258026974092
 30
0.0
 10
7.079999999997366
 20
-9.414687501334058
 30
0.0
  0
LINE
  5
E7
330
1F
100
AcDbEntity
  8
SK1
  6
Continuous
100
AcDbLine
 10
12.58
 20
-9.3684148052
 30
0.0
 11
13.0192304845
 21
-9.4654776368
 31
0.0
  0
SPLINE
  5
E8
330
1F
100
AcDbEntity
  8
SK1
  6
Continuous
100
AcDbSpline
210
0.0
220
0.0
230
1.0
 70
     8
 71
     3
 72
     8
 73
     4
 74
     0
 42
0.0000000012304298
 43
0.0000000001
 12
1.0
 22
0.0
 32
0.0
 13
1.0
 23
0.0
 33
0.0
 40
0.0
 40
0.0
 40
0.0
 40
0.0
 40
1.0
 40
1.0
 40
1.0
 40
1.0
 10
13.01923048453869
 20
-9.465477636768485
 30
0.0
 10
15.66451334580392
 20
-8.880913989071384
 30
0.0
 10
18.30977550988447
 20
-8.296336623987395
 30
0.0
 10
20.95499999999739
 20
-7.711734305638514
 30
0.0
  0
SPLINE
  5
E9
330
1F
100
AcDbEntity
  8
SK1
  6
Continuous
100
AcDbSpline
210
0.0
220
0.0
230
1.0
 70
     8
 71
     3
 72
    10
 73
     6
 74
     0
 42
0.0000000616257284
 43
0.0000000001
 12
1.0
 22
0.0
 32
0.0
 13
1.0
 23
0.0
 33
0.0
 40
0.0
 40
0.0
 40
0.0
 40
0.0
 40
0.5
 40
0.5
 40
1.0
 40
1.0
 40
1.0
 40
1.0
 10
20.95499999999739
 20
-7.711734305638514
 30
0.0
 10
20.9927457107271
 20
-7.703392393606903
 30
0.0
 10
21.02481596139749
 20
-7.691118553602764
 30
0.0
 10
21.06842813069195
 20
-7.662141280467246
 30
0.0
 10
21.07999999999737
 20
-7.645511997165396
 30
0.0
 10
21.07999999999736
 20
-7.628857980714203
 30
0.0
  0
SPLINE
  5
EA
330
1F
100
AcDbEntity
  8
SK3
100
AcDbSpline
210
0.0
220
0.0
230
1.0
 70
     8
 71
     3
 72
    10
 73
     6
 74
     0
 42
0.0000000427293783
 43
0.0000000001
 12
1.0
 22
0.0
 32
0.0
 13
1.0
 23
0.0
 33
0.0
 40
0.0
 40
0.0
 40
0.0
 40
0.0
 40
0.5
 40
0.5
 40
1.0
 40
1.0
 40
1.0
 40
1.0
 10
-6.720000000002631
 20
-1.056787923327619
 30
0.0
 10
-6.77231459911326
 20
-1.056787923327617
 30
0.0
 10
-6.824371043494589
 20
-1.065051792403785
 30
0.0
 10
-6.898870303401416
 20
-1.093861396379765
 30
0.0
 10
-6.920000000002695
 20
-1.113863935130278
 30
0.0
 10
-6.920000000003861
 20
-1.133900519971945
 30
0.0
  0
ELLIPSE
  5
EB
330
1F
100
AcDbEntity
  8
SK3
100
AcDbEllipse
 10
3.08
 20
-18.6722317522
 30
0.0
 11
-49.99999999996923
 21
-9.278896923484133E-12
 31
0.0
210
0.0
220
0.0
230
1.0
 40
0.3826834324
 41
-0.927295218001948
 42
-0.647805554521069
  0
LINE
  5
EC
330
1F
100
AcDbEntity
  8
SK1
  6
Continuous
100
AcDbLine
 10
-36.7904964625
 20
-7.1259457388
 30
0.0
 11
-36.7904964625
 21
-8.0498252713
 31
0.0
  0
LINE
  5
ED
330
1F
100
AcDbEntity
  8
SK1
  6
Continuous
100
AcDbLine
 10
12.58
 20
-10.2922943377
 30
0.0
 11
13.0192304845
 21
-10.3893571693
 31
0.0
  0
SPLINE
  5
EE
330
1F
100
AcDbEntity
  8
SK1
  6
Continuous
100
AcDbSpline
210
0.0
220
0.0
230
1.0
 70
     8
 71
     3
 72
     8
 73
     4
 74
     0
 42
0.0000000012304298
 43
0.0000000001
 12
1.0
 22
0.0
 32
0.0
 13
1.0
 23
0.0
 33
0.0
 40
0.0
 40
0.0
 40
0.0
 40
0.0
 40
1.0
 40
1.0
 40
1.0
 40
1.0
 10
13.01923048453869
 20
-10.38935716927977
 30
0.0
 10
15.66451334580392
 20
-9.80479352158267
 30
0.0
 10
18.30977550988447
 20
-9.220216156498681
 30
0.0
 10
20.95499999999739
 20
-8.6356138381498
 30
0.0
  0
SPLINE
  5
EF
330
1F
100
AcDbEntity
  8
SK1
  6
Continuous
100
AcDbSpline
210
0.0
220
0.0
230
1.0
 70
     8
 71
     3
 72
    10
 73
     6
 74
     0
 42
0.0000000616257284
 43
0.0000000001
 12
1.0
 22
0.0
 32
0.0
 13
1.0
 23
0.0
 33
0.0
 40
0.0
 40
0.0
 40
0.0
 40
0.0
 40
0.5
 40
0.5
 40
1.0
 40
1.0
 40
1.0
 40
1.0
 10
20.95499999999739
 20
-8.6356138381498
 30
0.0
 10
20.9927457107271
 20
-8.627271926118192
 30
0.0
 10
21.02481596139749
 20
-8.614998086114051
 30
0.0
 10
21.06842813069195
 20
-8.586020812978534
 30
0.0
 10
21.07999999999737
 20
-8.569391529676682
 30
0.0
 10
21.07999999999736
 20
-8.55273751322549
 30
0.0
  0
LINE
  5
F0
330
1F
100
AcDbEntity
  8
SK1
  6
Continuous
100
AcDbLine
 10
21.08
 20
-8.5527375132
 30
0.0
 11
21.08
 21
-7.6288579807
 31
0.0
  0
SPLINE
  5
F1
330
1F
100
AcDbEntity
  8
SK3
100
AcDbSpline
210
0.0
220
0.0
230
1.0
 70
     8
 71
     3
 72
    10
 73
     6
 74
     0
 42
0.0000000427293783
 43
0.0000000001
 12
1.0
 22
0.0
 32
0.0
 13
1.0
 23
0.0
 33
0.0
 40
0.0
 40
0.0
 40
0.0
 40
0.0
 40
0.5
 40
0.5
 40
1.0
 40
1.0
 40
1.0
 40
1.0
 10
-6.720000000002631
 20
-1.980667455838905
 30
0.0
 10
-6.77231459911326
 20
-1.980667455838904
 30
0.0
 10
-6.824371043494589
 20
-1.988931324915071
 30
0.0
 10
-6.898870303401416
 20
-2.017740928891052
 30
0.0
 10
-6.920000000002695
 20
-2.037743467641564
 30
0.0
 10
-6.920000000003861
 20
-2.057780052483232
 30
0.0
  0
ELLIPSE
  5
F2
330
1F
100
AcDbEntity
  8
SK1
  6
Continuous
100
AcDbEllipse
 10
3.08
 20
-19.5961112847
 30
0.0
 11
-49.99999999996928
 21
-9.254135991518859E-12
 31
0.0
210
0.0
220
0.0
230
1.0
 40
0.3826834324
 41
-0.7035318286429746
 42
-0.647805554521069
  0
ELLIPSE
  5
F3
330
1F
100
AcDbEntity
  8
SK3
100
AcDbEllipse
 10
3.08
 20
-19.5961112847
 30
0.0
 11
-49.99999999996928
 21
-9.254135991518859E-12
 31
0.0
210
0.0
220
0.0
230
1.0
 40
0.3826834324
 41
-0.927295218001948
 42
-0.7035318286429746
  0
LINE
  5
F4
330
1F
100
AcDbEntity
  8
SK1
  6
Continuous
100
AcDbLine
 10
7.08
 20
-9.4859893811
 30
0.0
 11
-36.7904964625
 21
-7.1259457388
 31
0.0
  0
LINE
  5
F5
330
1F
100
AcDbEntity
  8
SK3
100
AcDbLine
 10
-26.8824765332
 20
-3.3601079213
 30
0.0
 11
-8.92
 21
-3.3601079213
 31
0.0
  0
SPLINE
  5
F6
330
1F
100
AcDbEntity
  8
SK3
100
AcDbSpline
210
0.0
220
0.0
230
1.0
 70
     8
 71
     3
 72
    10
 73
     6
 74
     0
 42
0.0000000042780368
 43
0.0000000001
 12
1.0
 22
0.0
 32
0.0
 13
1.0
 23
0.0
 33
0.0
 40
0.0
 40
0.0
 40
0.0
 40
0.0
 40
0.5
 40
0.5
 40
1.0
 40
1.0
 40
1.0
 40
1.0
 10
-8.920000000002638
 20
-3.360107921262691
 30
0.0
 10
-8.398742124962103
 20
-3.360107921262689
 30
0.0
 10
-7.874321009627157
 20
-3.277232248477564
 30
0.0
 10
-7.13364426282171
 20
-2.992661289343035
 30
0.0
 10
-6.92000000000264
 20
-2.792984648662491
 30
0.0
 10
-6.920000000002636
 20
-2.593542313545131
 30
0.0
  0
LINE
  5
F7
330
1F
100
AcDbEntity
  8
SK3
100
AcDbLine
 10
-6.72
 20
-1.0567879233
 30
0.0
 11
20.88
 21
-1.0567879233
 31
0.0
  0
SPLINE
  5
F8
330
1F
100
AcDbEntity
  8
SK1
  6
Continuous
100
AcDbSpline
210
0.0
220
0.0
230
1.0
 70
     8
 71
     3
 72
    10
 73
     6
 74
     0
 42
0.0000000213970196
 43
0.0000000001
 12
1.0
 22
0.0
 32
0.0
 13
1.0
 23
0.0
 33
0.0
 40
0.0
 40
0.0
 40
0.0
 40
0.0
 40
0.5
 40
0.5
 40
1.0
 40
1.0
 40
1.0
 40
1.0
 10
12.57999999999737
 20
-8.49080796882277
 30
0.0
 10
12.57999999999738
 20
-8.450913671483551
 30
0.0
 10
12.53639448414851
 20
-8.410640826264888
 30
0.0
 10
12.38872323027533
 20
-8.354229544058612
 30
0.0
 10
12.28430098524542
 20
-8.337699031326492
 30
0.0
 10
12.17999999999673
 20
-8.337699031324517
 30
0.0
  0
LINE
  5
F9
330
1F
100
AcDbEntity
  8
SK1
  6
Continuous
100
AcDbLine
 10
12.18
 20
-8.3376990313
 30
0.0
 11
7.48
 21
-8.3376990313
 31
0.0
  0
SPLINE
  5
FA
330
1F
100
AcDbEntity
  8
SK1
  6
Continuous
100
AcDbSpline
210
0.0
220
0.0
230
1.0
 70
     8
 71
     3
 72
    10
 73
     6
 74
     0
 42
0.0000000213881793
 43
0.0000000001
 12
1.0
 22
0.0
 32
0.0
 13
1.0
 23
0.0
 33
0.0
 40
0.0
 40
0.0
 40
0.0
 40
0.0
 40
0.5
 40
0.5
 40
1.0
 40
1.0
 40
1.0
 40
1.0
 10
7.479999999997367
 20
-8.337699031326583
 30
0.0
 10
7.374543526803556
 20
-8.337699031326586
 30
0.0
 10
7.271052272261339
 20
-8.354271940886655
 30
0.0
 10
7.123394562567945
 20
-8.410764902181604
 30
0.0
 10
7.079999999998219
 20
-8.450378494462806
 30
0.0
 10
7.079999999997366
 20
-8.490807968822772
 30
0.0
  0
SPLINE
  5
FB
330
1F
100
AcDbEntity
  8
SK3
100
AcDbSpline
210
0.0
220
0.0
230
1.0
 70
     8
 71
     3
 72
    18
 73
    14
 74
     0
 42
0.0000000031679428
 43
0.0000000001
 12
1.0
 22
0.0
 32
0.0
 13
1.0
 23
0.0
 33
0.0
 40
0.0
 40
0.0
 40
0.0
 40
0.0
 40
0.125
 40
0.125
 40
0.2499999999999999
 40
0.2499999999999999
 40
0.4999999999999988
 40
0.4999999999999988
 40
0.7499999999999977
 40
0.7499999999999977
 40
0.8749999999999988
 40
0.8749999999999988
 40
1.0
 40
1.0
 40
1.0
 40
1.0
 10
-6.920000000002636
 20
7.984359811106342
 30
0.0
 10
-6.920000000002625
 20
8.115443301786073
 30
0.0
 10
-6.932714707005724
 20
8.245166512054004
 30
0.0
 10
-6.983457367131355
 20
8.501904799964656
 30
0.0
 10
-7.022000031180184
 20
8.629411814135512
 30
0.0
 10
-7.17143204538466
 20
8.991336812440192
 30
0.0
 10
-7.320330785144529
 20
9.2148298606208
 30
0.0
 10
-7.688350922346747
 20
9.584124902495754
 30
0.0
 10
-7.911305220696025
 20
9.733788270209253
 30
0.0
 10
-8.272889694048535
 20
9.884276789012153
 30
0.0
 10
-8.400232622754762
 20
9.923136772026968
 30
0.0
 10
-8.657397046817252
 20
9.97449161519931
 30
0.0
 10
-8.787776792337873
 20
9.98749227749364
 30
0.0
 10
-8.920000000002638
 20
9.987492277489777
 30
0.0
  0
LINE
  5
FC
330
1F
100
AcDbEntity
  8
SK3
100
AcDbLine
 10
-8.92
 20
9.9874922775
 30
0.0
 11
-37.42
 21
9.9874922775
 31
0.0
  0
SPLINE
  5
FD
330
1F
100
AcDbEntity
  8
SK1
  6
Continuous
100
AcDbSpline
210
0.0
220
0.0
230
1.0
 70
     8
 71
     3
 72
    10
 73
     6
 74
     0
 42
0.0000000136845499
 43
0.0000000001
 12
1.0
 22
0.0
 32
0.0
 13
1.0
 23
0.0
 33
0.0
 40
0.0
 40
0.0
 40
0.0
 40
0.0
 40
0.5
 40
0.5
 40
1.0
 40
1.0
 40
1.0
 40
1.0
 10
-38.92000000000263
 20
19.09393287427717
 30
0.0
 10
-38.92000000000263
 20
19.21302455490244
 30
0.0
 10
-38.87541014102383
 20
19.33213914073721
 30
0.0
 10
-38.71970326451249
 20
19.51154174597259
 30
0.0
 10
-38.60876748604776
 20
19.57247710786229
 30
0.0
 10
-38.48958655048266
 20
19.58923235126444
 30
0.0
  0
SPLINE
  5
FE
330
1F
100
AcDbEntity
  8
SK1
  6
Continuous
100
AcDbSpline
210
0.0
220
0.0
230
1.0
 70
     8
 71
     3
 72
    11
 73
     7
 74
     0
 42
0.000000000217308
 43
0.0000000001
 12
1.0
 22
0.0
 32
0.0
 13
1.0
 23
0.0
 33
0.0
 40
0.0
 40
0.0
 40
0.0
 40
0.0
 40
0.7476039056833146
 40
0.7476039056833146
 40
0.7476039056833146
 40
1.0
 40
1.0
 40
1.0
 40
1.0
 10
-38.48958655048266
 20
19.58923235126444
 30
0.0
 10
-27.13360391202705
 20
21.18573142467966
 30
0.0
 10
-15.7776044319005
 20
22.78211070320524
 30
0.0
 10
-4.421596407630155
 20
24.37842919555842
 30
0.0
 10
-0.5877319098218959
 20
24.91735702846834
 30
0.0
 10
3.246133619814122
 20
25.4562775211201
 30
0.0
 10
7.079999999997363
 20
25.99519196288261
 30
0.0
  0
SPLINE
  5
FF
330
1F
100
AcDbEntity
  8
SK1
  6
Continuous
100
AcDbSpline
210
0.0
220
0.0
230
1.0
 70
     8
 71
     3
 72
    10
 73
     6
 74
     0
 42
0.0000000155178301
 43
0.0000000001
 12
1.0
 22
0.0
 32
0.0
 13
1.0
 23
0.0
 33
0.0
 40
0.0
 40
0.0
 40
0.0
 40
0.0
 40
0.5
 40
0.5
 40
1.0
 40
1.0
 40
1.0
 40
1.0
 10
7.079999999997363
 20
23.39465760955271
 30
0.0
 10
7.079999999997352
 20
23.29034843169786
 30
0.0
 10
7.122426651374012
 20
23.18656415853895
 30
0.0
 10
7.271636167946134
 20
23.03718679924408
 30
0.0
 10
7.374341814358056
 20
22.99456467490414
 30
0.0
 10
7.479999999997363
 20
22.99456467490453
 30
0.0
  0
LINE
  5
100
330
1F
100
AcDbEntity
  8
SK1
  6
Continuous
100
AcDbLine
 10
7.48
 20
22.9945646749
 30
0.0
 11
12.18
 21
22.9945646749
 31
0.0
  0
SPLINE
  5
101
330
1F
100
AcDbEntity
  8
SK1
  6
Continuous
100
AcDbSpline
210
0.0
220
0.0
230
1.0
 70
     8
 71
     3
 72
    10
 73
     6
 74
     0
 42
0.0000000155217058
 43
0.0000000001
 12
1.0
 22
0.0
 32
0.0
 13
1.0
 23
0.0
 33
0.0
 40
0.0
 40
0.0
 40
0.0
 40
0.0
 40
0.5
 40
0.5
 40
1.0
 40
1.0
 40
1.0
 40
1.0
 10
12.17999999999736
 20
22.99456467490453
 30
0.0
 10
12.28574349326614
 20
22.99456467490453
 30
0.0
 10
12.38916074250757
 20
23.03798981385225
 30
0.0
 10
12.53675651024682
 20
23.18574119430241
 30
0.0
 10
12.5799999999976
 20
23.29025811014846
 30
0.0
 10
12.58000000000239
 20
23.3946576095533
 30
0.0
  0
LINE
  5
102
330
1F
100
AcDbEntity
  8
SK3
100
AcDbLine
 10
21.08
 20
20.0000000998
 30
0.0
 11
12.4777981968
 21
16.0061206911
 31
0.0
  0
LINE
  5
103
330
1F
100
AcDbEntity
  8
SK3
100
AcDbLine
 10
12.2910396235
 20
15.9194113536
 30
0.0
 11
-6.92
 21
7.0000000998
 31
0.0
  0
ARC
  5
104
330
1F
100
AcDbEntity
  8
SK1
  6
Continuous
100
AcDbCircle
 10
20.8268977615
 20
21.1405430772
 30
0.0
 40
0.2531081553985752
100
AcDbArc
 50
0.3917722793
 51
59.5944973051
  0
LINE
  5
105
330
1F
100
AcDbEntity
  8
SK1
  6
Continuous
100
AcDbLine
 10
20.955
 20
21.3588400191
 30
0.0
 11
13.0192304845
 21
25.9415921918
 31
0.0
  0
LINE
  5
106
330
1F
100
AcDbEntity
  8
SK1
  6
Continuous
100
AcDbLine
 10
13.0192304845
 20
25.9415921918
 30
0.0
 11
12.58
 21
25.6879547897
 31
0.0
  0
LINE
  5
107
330
1F
100
AcDbEntity
  8
SK3
100
AcDbLine
 10
-38.92
 20
10.8545156613
 30
0.0
 11
-37.42
 21
9.9874922775
 31
0.0
  0
ARC
  5
108
330
1F
100
AcDbEntity
  8
SK3
100
AcDbCircle
 10
20.8866745489
 20
-3.6685348677
 30
0.0
 40
0.1934586311507891
100
AcDbArc
 50
2.126121385
 51
91.9771637384
  0
ARC
  5
109
330
1F
100
AcDbEntity
  8
SK3
100
AcDbCircle
 10
20.8866745489
 20
-4.0512183
 30
0.0
 40
0.1934586311507919
100
AcDbArc
 50
2.126121385
 51
91.9771637384
  0
LINE
  5
10A
330
1F
100
AcDbEntity
  8
SK3
100
AcDbLine
 10
-6.92
 20
-7.1852447016
 30
0.0
 11
-6.92
 21
-5.9993481861
 31
0.0
  0
LINE
  5
10B
330
1F
100
AcDbEntity
  8
SK1
  6
Continuous
100
AcDbLine
 10
21.08
 20
-19.3415720761
 30
0.0
 11
21.08
 21
-15.3033983554
 31
0.0
  0
LINE
  5
10C
330
1F
100
AcDbEntity
  8
SK1
  6
Continuous
100
AcDbLine
 10
20.955
 20
-19.5416532237
 30
0.0
 11
20.955
 21
-15.4565338361
 31
0.0
  0
LINE
  5
10D
330
1F
100
AcDbEntity
  8
SK1
  6
Continuous
100
AcDbLine
 10
13.0192304845
 20
-23.7755641586
 30
0.0
 11
13.0192304845
 21
-18.6970289739
 31
0.0
  0
LINE
  5
10E
330
1F
100
AcDbEntity
  8
SK1
  6
Continuous
100
AcDbLine
 10
12.58
 20
-23.5412337541
 30
0.0
 11
12.58
 21
-18.5176802469
 31
0.0
  0
LINE
  5
10F
330
1F
100
AcDbEntity
  8
SK1
  6
Continuous
100
AcDbLine
 10
7.08
 20
-23.8250838901
 30
0.0
 11
7.08
 21
-18.7349297355
 31
0.0
  0
LINE
  5
110
330
1F
100
AcDbEntity
  8
SK1
  6
Continuous
100
AcDbLine
 10
7.48
 20
-21.052865754
 30
0.0
 11
7.48
 21
-16.6131658323
 31
0.0
  0
LINE
  5
111
330
1F
100
AcDbEntity
  8
SK1
  6
Continuous
100
AcDbLine
 10
12.18
 20
-21.052865754
 30
0.0
 11
12.18
 21
-16.6131658323
 31
0.0
  0
ELLIPSE
  5
112
330
1F
100
AcDbEntity
  8
SK3
100
AcDbEllipse
 10
3.0799999462
 20
0.0000000834
 30
0.0
 11
-29.98017367644048
 21
-9.371794623595985
 31
0.0
210
0.0
220
0.0
230
1.0
 40
0.1163594346
 41
-0.0863787573987533
 42
-0.0363579005481336
  0
ELLIPSE
  5
113
330
1F
100
AcDbEntity
  8
SK3
100
AcDbEllipse
 10
3.0799999354
 20
0.0000000797
 30
0.0
 11
29.98017366561201
 21
9.371794619873816
 31
0.0
210
0.0
220
0.0
230
1.0
 40
0.1163594346
 41
3.105234753036165
 42
3.155255609895837
  0
LINE
  5
114
330
1F
100
AcDbEntity
  8
SK3
100
AcDbLine
 10
-26.92
 20
-9.2387952253
 30
0.0
 11
-26.92
 21
-9.0474535092
 31
0.0
  0
LINE
  5
115
330
1F
100
AcDbEntity
  8
SK3
100
AcDbLine
 10
-26.92
 20
-9.0474535092
 30
0.0
 11
-26.8824765332
 21
-9.0358977882
 31
0.0
  0
LINE
  5
116
330
1F
100
AcDbEntity
  8
SK3
100
AcDbLine
 10
-26.92
 20
-9.4301369415
 30
0.0
 11
-26.92
 21
-9.2387952253
 31
0.0
  0
LINE
  5
117
330
1F
100
AcDbEntity
  8
SK1
  6
Continuous
100
AcDbLine
 10
7.08
 20
-23.8250838901
 30
0.0
 11
7.08
 21
-24.2077673224
 31
0.0
  0
LINE
  5
118
330
1F
100
AcDbEntity
  8
SK1
  6
Continuous
100
AcDbLine
 10
7.08
 20
-24.2077673224
 30
0.0
 11
-36.7904964625
 21
-18.5101179533
 31
0.0
  0
LINE
  5
119
330
1F
100
AcDbEntity
  8
SK3
100
AcDbLine
 10
-26.92
 20
-9.4301369415
 30
0.0
 11
-26.8824765332
 21
-9.4185812205
 31
0.0
  0
LINE
  5
11A
330
1F
100
AcDbEntity
  8
SK3
100
AcDbLine
 10
-26.8824765332
 20
-9.4185812205
 30
0.0
 11
-8.92
 21
-9.4185812205
 31
0.0
  0
ARC
  5
11B
330
1F
100
AcDbEntity
  8
SK3
100
AcDbCircle
 10
-8.8478200063
 20
-7.4905599928
 30
0.0
 40
1.929371868217664
100
AcDbArc
 50
267.8559994698
 51
357.7018132626
  0
LINE
  5
11C
330
1F
100
AcDbEntity
  8
SK3
100
AcDbLine
 10
-6.92
 20
-7.5679281339
 30
0.0
 11
-6.92
 21
-7.1852447016
 31
0.0
  0
LINE
  5
11D
330
1F
100
AcDbEntity
  8
SK3
100
AcDbLine
 10
-6.72
 20
-3.857874843
 30
0.0
 11
20.88
 21
-3.857874843
 31
0.0
  0
LINE
  5
11E
330
1F
100
AcDbEntity
  8
SK1
  6
Continuous
100
AcDbLine
 10
12.58
 20
-23.9239171865
 30
0.0
 11
12.58
 21
-23.5412337541
 31
0.0
  0
ARC
  5
11F
330
1F
100
AcDbEntity
  8
SK1
  6
Continuous
100
AcDbCircle
 10
12.1946136733
 20
-21.8209821272
 30
0.0
 40
0.3857098797175914
100
AcDbArc
 50
2.346984986
 51
92.171326938
  0
LINE
  5
120
330
1F
100
AcDbEntity
  8
SK1
  6
Continuous
100
AcDbLine
 10
12.18
 20
-21.4355491864
 30
0.0
 11
7.48
 21
-21.4355491864
 31
0.0
  0
ARC
  5
121
330
1F
100
AcDbEntity
  8
SK1
  6
Continuous
100
AcDbCircle
 10
7.4653870547
 20
-21.8209829149
 30
0.0
 40
0.3857106392963482
100
AcDbArc
 50
87.8287855481
 51
177.6529025272
  0
LINE
  5
122
330
1F
100
AcDbEntity
  8
SK1
  6
Continuous
100
AcDbLine
 10
12.58
 20
-23.5412337541
 30
0.0
 11
13.0192304845
 21
-23.7755641586
 31
0.0
  0
LINE
  5
123
330
1F
100
AcDbEntity
  8
SK1
  6
Continuous
100
AcDbLine
 10
13.0192304845
 20
-23.7755641586
 30
0.0
 11
20.955
 21
-19.5416532237
 31
0.0
  0
ARC
  5
124
330
1F
100
AcDbEntity
  8
SK1
  6
Continuous
100
AcDbCircle
 10
20.8487262581
 20
-19.3361718426
 30
0.0
 40
0.2313367808909606
100
AcDbArc
 50
297.3477350549
 51
358.662388689
  0
ARC
  5
125
330
1F
100
AcDbEntity
  8
SK3
100
AcDbCircle
 10
-6.7266740905
 20
-3.6685353601
 30
0.0
 40
0.1934591075287693
100
AcDbArc
 50
88.0229769815
 51
177.8737378951
  0
ELLIPSE
  5
126
330
1F
100
AcDbEntity
  8
SK3
100
AcDbEllipse
 10
3.08
 20
-46.0026348096
 30
0.0
 11
-49.9999999999688
 21
-1.361181223773735E-10
 31
0.0
210
0.0
220
0.0
230
1.0
 40
0.9238795325
 41
5.355890089175201
 42
5.635379752656075
  0
LINE
  5
127
330
1F
100
AcDbEntity
  8
SK1
  6
Continuous
100
AcDbLine
 10
-36.7904964625
 20
-18.1274345209
 30
0.0
 11
-36.7904964625
 21
-18.5101179533
 31
0.0
  0
LINE
  5
128
330
1F
100
AcDbEntity
  8
SK1
  6
Continuous
100
AcDbLine
 10
12.58
 20
-23.9239171865
 30
0.0
 11
13.0192304845
 21
-24.158247591
 31
0.0
  0
LINE
  5
129
330
1F
100
AcDbEntity
  8
SK1
  6
Continuous
100
AcDbLine
 10
13.0192304845
 20
-24.158247591
 30
0.0
 11
20.955
 21
-19.9243366561
 31
0.0
  0
ARC
  5
12A
330
1F
100
AcDbEntity
  8
SK1
  6
Continuous
100
AcDbCircle
 10
20.8487262581
 20
-19.7188552749
 30
0.0
 40
0.2313367808909602
100
AcDbArc
 50
297.3477350549
 51
358.662388689
  0
LINE
  5
12B
330
1F
100
AcDbEntity
  8
SK1
  6
Continuous
100
AcDbLine
 10
21.08
 20
-19.7242555084
 30
0.0
 11
21.08
 21
-19.3415720761
 31
0.0
  0
ARC
  5
12C
330
1F
100
AcDbEntity
  8
SK3
100
AcDbCircle
 10
-6.7266740905
 20
-4.0512187925
 30
0.0
 40
0.1934591075287669
100
AcDbArc
 50
88.0229769815
 51
177.8737378951
  0
ELLIPSE
  5
12D
330
1F
100
AcDbEntity
  8
SK1
  6
Continuous
100
AcDbEllipse
 10
3.08
 20
-46.385318242
 30
0.0
 11
-49.99999999997526
 21
-1.041354445938772E-10
 31
0.0
210
0.0
220
0.0
230
1.0
 40
0.9238795325
 41
-0.6573667367436631
 42
-0.6478055545228933
  0
ELLIPSE
  5
12E
330
1F
100
AcDbEntity
  8
SK3
100
AcDbEllipse
 10
3.08
 20
-46.385318242
 30
0.0
 11
-49.99999999997526
 21
-1.041354445938772E-10
 31
0.0
210
0.0
220
0.0
230
1.0
 40
0.9238795325
 41
5.355890089175834
 42
5.625818570435923
  0
LINE
  5
12F
330
1F
100
AcDbEntity
  8
SK1
  6
Continuous
100
AcDbLine
 10
7.08
 20
-23.8250838901
 30
0.0
 11
-36.7904964625
 21
-18.1274345209
 31
0.0
  0
LINE
  5
130
330
1F
100
AcDbEntity
  8
SK3
100
AcDbLine
 10
-26.8824765332
 20
-9.0358977882
 30
0.0
 11
-8.92
 21
-9.0358977882
 31
0.0
  0
ARC
  5
131
330
1F
100
AcDbEntity
  8
SK3
100
AcDbCircle
 10
-8.8478200063
 20
-7.1078765605
 30
0.0
 40
1.929371868217663
100
AcDbArc
 50
267.8559994698
 51
357.7018132626
  0
LINE
  5
132
330
1F
100
AcDbEntity
  8
SK3
100
AcDbLine
 10
-6.72
 20
-3.4751914107
 30
0.0
 11
20.88
 21
-3.4751914107
 31
0.0
  0
ARC
  5
133
330
1F
100
AcDbEntity
  8
SK1
  6
Continuous
100
AcDbCircle
 10
12.1946136733
 20
-21.4382986948
 30
0.0
 40
0.3857098797176018
100
AcDbArc
 50
2.346984986
 51
92.171326938
  0
LINE
  5
134
330
1F
100
AcDbEntity
  8
SK1
  6
Continuous
100
AcDbLine
 10
12.18
 20
-21.052865754
 30
0.0
 11
7.48
 21
-21.052865754
 31
0.0
  0
ARC
  5
135
330
1F
100
AcDbEntity
  8
SK1
  6
Continuous
100
AcDbCircle
 10
7.4653870547
 20
-21.4382994826
 30
0.0
 40
0.385710639296349
100
AcDbArc
 50
87.8287855481
 51
177.6529025272
  0
LINE
  5
136
330
1F
100
AcDbEntity
  8
SK3
100
AcDbLine
 10
-6.92
 20
5.9993483857
 30
0.0
 11
-6.92
 21
7.1852449011
 31
0.0
  0
SPLINE
  5
137
330
1F
100
AcDbEntity
  8
SK3
100
AcDbSpline
210
0.0
220
0.0
230
1.0
 70
     8
 71
     3
 72
    18
 73
    14
 74
     0
 42
0.0000000036856682
 43
0.0000000001
 12
1.0
 22
0.0
 32
0.0
 13
1.0
 23
0.0
 33
0.0
 40
0.0
 40
0.0
 40
0.0
 40
0.0
 40
0.1249999999999996
 40
0.1249999999999996
 40
0.2499999999999992
 40
0.2499999999999992
 40
0.4999999999999994
 40
0.4999999999999994
 40
0.7499999999999997
 40
0.7499999999999997
 40
0.8749999999999999
 40
0.8749999999999999
 40
1.0
 40
1.0
 40
1.0
 40
1.0
 10
-6.920000000002636
 20
5.292241604495523
 30
0.0
 10
-6.920000000002625
 20
5.384931629656759
 30
0.0
 10
-6.932714707005714
 20
5.476659791314503
 30
0.0
 10
-6.983457367131352
 20
5.65820117568636
 30
0.0
 10
-7.022000031180184
 20
5.748362250055417
 30
0.0
 10
-7.171432045384656
 20
6.004281870637585
 30
0.0
 10
-7.320330785144536
 20
6.162315320554148
 30
0.0
 10
-7.688350922346754
 20
6.4234463489225
 30
0.0
 10
-7.911305220696028
 20
6.52927433112793
 30
0.0
 10
-8.27288969404856
 20
6.635685783264183
 30
0.0
 10
-8.400232622754785
 20
6.663163940770753
 30
0.0
 10
-8.657397046817241
 20
6.699477298624681
 30
0.0
 10
-8.787776792337851
 20
6.708670155092917
 30
0.0
 10
-8.920000000002638
 20
6.708670155090185
 30
0.0
  0
SPLINE
  5
138
330
1F
100
AcDbEntity
  8
SK3
100
AcDbSpline
210
0.0
220
0.0
230
1.0
 70
     8
 71
     3
 72
    18
 73
    14
 74
     0
 42
0.0000000036856682
 43
0.0000000001
 12
1.0
 22
0.0
 32
0.0
 13
1.0
 23
0.0
 33
0.0
 40
0.0
 40
0.0
 40
0.0
 40
0.0
 40
0.1249999999999983
 40
0.1249999999999983
 40
0.2499999999999973
 40
0.2499999999999973
 40
0.4999999999999979
 40
0.4999999999999979
 40
0.7499999999999986
 40
0.7499999999999986
 40
0.8749999999999993
 40
0.8749999999999993
 40
1.0
 40
1.0
 40
1.0
 40
1.0
 10
-6.920000000002584
 20
5.99934838568207
 30
0.0
 10
-6.920000000002622
 20
6.092038410843308
 30
0.0
 10
-6.932714707005718
 20
6.18376657250105
 30
0.0
 10
-6.983457367131341
 20
6.365307956872897
 30
0.0
 10
-7.022000031180188
 20
6.455469031241961
 30
0.0
 10
-7.171432045384656
 20
6.711388651824132
 30
0.0
 10
-7.32033078514454
 20
6.869422101740696
 30
0.0
 10
-7.688350922346761
 20
7.130553130109045
 30
0.0
 10
-7.911305220696034
 20
7.236381112314481
 30
0.0
 10
-8.272889694048542
 20
7.342792564450727
 30
0.0
 10
-8.400232622754764
 20
7.3702707219573
 30
0.0
 10
-8.657397046817248
 20
7.406584079811231
 30
0.0
 10
-8.787776792337858
 20
7.415776936279466
 30
0.0
 10
-8.920000000002638
 20
7.415776936276735
 30
0.0
  0
LINE
  5
139
330
1F
100
AcDbEntity
  8
SK1
  6
Continuous
100
AcDbLine
 10
21.08
 20
15.3033985549
 30
0.0
 11
21.08
 21
19.3415722756
 31
0.0
  0
LINE
  5
13A
330
1F
100
AcDbEntity
  8
SK1
  6
Continuous
100
AcDbLine
 10
20.955
 20
15.4565340356
 30
0.0
 11
20.955
 21
19.5416534232
 31
0.0
  0
LINE
  5
13B
330
1F
100
AcDbEntity
  8
SK1
  6
Continuous
100
AcDbLine
 10
13.0192304845
 20
18.6970291734
 30
0.0
 11
13.0192304845
 21
23.7755643582
 31
0.0
  0
LINE
  5
13C
330
1F
100
AcDbEntity
  8
SK1
  6
Continuous
100
AcDbLine
 10
12.58
 20
18.5176804464
 30
0.0
 11
12.58
 21
23.5412339537
 31
0.0
  0
LINE
  5
13D
330
1F
100
AcDbEntity
  8
SK1
  6
Continuous
100
AcDbLine
 10
7.08
 20
18.734929935
 30
0.0
 11
7.08
 21
23.8250840896
 31
0.0
  0
LINE
  5
13E
330
1F
100
AcDbEntity
  8
SK1
  6
Continuous
100
AcDbLine
 10
7.48
 20
16.6131660319
 30
0.0
 11
7.48
 21
21.0528659536
 31
0.0
  0
LINE
  5
13F
330
1F
100
AcDbEntity
  8
SK1
  6
Continuous
100
AcDbLine
 10
12.18
 20
16.6131660319
 30
0.0
 11
12.18
 21
21.0528659536
 31
0.0
  0
LINE
  5
140
330
1F
100
AcDbEntity
  8
SK3
100
AcDbLine
 10
-37.42
 20
7.4157769363
 30
0.0
 11
-37.42
 21
9.9874922775
 31
0.0
  0
LINE
  5
141
330
1F
100
AcDbEntity
  8
SK1
  6
Continuous
100
AcDbLine
 10
-38.92
 20
13.8550028347
 30
0.0
 11
-38.92
 21
19.0939328743
 31
0.0
  0
LINE
  5
142
330
1F
100
AcDbEntity
  8
SK1
  6
Continuous
100
AcDbLine
 10
-38.4895865505
 20
14.2052324536
 30
0.0
 11
-38.4895865505
 21
19.5892323513
 31
0.0
  0
LINE
  5
143
330
1F
100
AcDbEntity
  8
SK1
  6
Continuous
100
AcDbLine
 10
21.08
 20
14.5962917738
 30
0.0
 11
21.08
 21
15.3033985549
 31
0.0
  0
ARC
  5
144
330
1F
100
AcDbEntity
  8
SK1
  6
Continuous
100
AcDbCircle
 10
20.9013713478
 20
15.2851738836
 30
0.0
 40
0.179555935682342
100
AcDbArc
 50
5.8254715452
 51
72.6220345853
  0
LINE
  5
145
330
1F
100
AcDbEntity
  8
SK1
  6
Continuous
100
AcDbLine
 10
20.955
 20
15.4565340356
 30
0.0
 11
13.0192304845
 21
18.6970291734
 31
0.0
  0
LINE
  5
146
330
1F
100
AcDbEntity
  8
SK1
  6
Continuous
100
AcDbLine
 10
13.0192304845
 20
18.6970291734
 30
0.0
 11
12.58
 21
18.5176804464
 31
0.0
  0
LINE
  5
147
330
1F
100
AcDbEntity
  8
SK3
100
AcDbLine
 10
-38.92
 20
8.0288550504
 30
0.0
 11
-37.42
 21
7.4157769363
 31
0.0
  0
LINE
  5
148
330
1F
100
AcDbEntity
  8
SK3
100
AcDbLine
 10
-8.92
 20
6.7086701551
 30
0.0
 11
-37.42
 21
6.7086701551
 31
0.0
  0
SPLINE
  5
149
330
1F
100
AcDbEntity
  8
SK1
  6
Continuous
100
AcDbSpline
210
0.0
220
0.0
230
1.0
 70
     8
 71
     3
 72
    10
 73
     6
 74
     0
 42
0.0000000161516538
 43
0.0000000001
 12
1.0
 22
0.0
 32
0.0
 13
1.0
 23
0.0
 33
0.0
 40
0.0
 40
0.0
 40
0.0
 40
0.0
 40
0.5
 40
0.5
 40
1.0
 40
1.0
 40
1.0
 40
1.0
 10
-38.92000000000263
 20
13.14789605355103
 30
0.0
 10
-38.92000000000263
 20
13.23210658850406
 30
0.0
 10
-38.87541014102383
 20
13.31633331988606
 30
0.0
 10
-38.71970326451248
 20
13.44319011861053
 30
0.0
 10
-38.60876748604772
 20
13.4862779262168
 30
0.0
 10
-38.48958655048266
 20
13.49812567244688
 30
0.0
  0
SPLINE
  5
14A
330
1F
100
AcDbEntity
  8
SK1
  6
Continuous
100
AcDbSpline
210
0.0
220
0.0
230
1.0
 70
     8
 71
     3
 72
    11
 73
     7
 74
     0
 42
0.0000000002183684
 43
0.0000000001
 12
1.0
 22
0.0
 32
0.0
 13
1.0
 23
0.0
 33
0.0
 40
0.0
 40
0.0
 40
0.0
 40
0.0
 40
0.7476039056833147
 40
0.7476039056833147
 40
0.7476039056833147
 40
1.0
 40
1.0
 40
1.0
 40
1.0
 10
-38.48958655048266
 20
13.49812567244688
 30
0.0
 10
-27.13360391202705
 20
14.62702099341682
 30
0.0
 10
-15.7776044319005
 20
15.75583160660794
 30
0.0
 10
-4.421596407630155
 20
16.88459923748437
 30
0.0
 10
-0.5877319098218994
 20
17.26567876270514
 30
0.0
 10
3.246133619814119
 20
17.64675309757959
 30
0.0
 10
7.079999999997363
 20
18.02782315382922
 30
0.0
  0
SPLINE
  5
14B
330
1F
100
AcDbEntity
  8
SK1
  6
Continuous
100
AcDbSpline
210
0.0
220
0.0
230
1.0
 70
     8
 71
     3
 72
    10
 73
     6
 74
     0
 42
0.0000000180494881
 43
0.0000000001
 12
1.0
 22
0.0
 32
0.0
 13
1.0
 23
0.0
 33
0.0
 40
0.0
 40
0.0
 40
0.0
 40
0.0
 40
0.5
 40
0.5
 40
1.0
 40
1.0
 40
1.0
 40
1.0
 10
7.079999999997363
 20
16.18896767788108
 30
0.0
 10
7.079999999997356
 20
16.11520995087992
 30
0.0
 10
7.122426651374012
 20
16.04182338754874
 30
0.0
 10
7.271636167946134
 20
15.9361976438356
 30
0.0
 10
7.374341814358063
 20
15.90605925068626
 30
0.0
 10
7.479999999997363
 20
15.90605925068653
 30
0.0
  0
LINE
  5
14C
330
1F
100
AcDbEntity
  8
SK1
  6
Continuous
100
AcDbLine
 10
7.48
 20
15.9060592507
 30
0.0
 11
12.18
 21
15.9060592507
 31
0.0
  0
SPLINE
  5
14D
330
1F
100
AcDbEntity
  8
SK1
  6
Continuous
100
AcDbSpline
210
0.0
220
0.0
230
1.0
 70
     8
 71
     3
 72
    10
 73
     6
 74
     0
 42
0.0000000180537409
 43
0.0000000001
 12
1.0
 22
0.0
 32
0.0
 13
1.0
 23
0.0
 33
0.0
 40
0.0
 40
0.0
 40
0.0
 40
0.0
 40
0.5
 40
0.5
 40
1.0
 40
1.0
 40
1.0
 40
1.0
 10
12.17999999999736
 20
15.90605925068653
 30
0.0
 10
12.28574349326614
 20
15.90605925068653
 30
0.0
 10
12.38916074250756
 20
15.93676546091043
 30
0.0
 10
12.53675651024682
 20
16.04124146395642
 30
0.0
 10
12.5799999999976
 20
16.11514608389986
 30
0.0
 10
12.58000000000239
 20
16.1889676778815
 30
0.0
  0
LINE
  5
14E
330
1F
100
AcDbEntity
  8
SK3
100
AcDbLine
 10
-6.92
 20
5.3033009587
 30
0.0
 11
-6.92
 21
5.2922416045
 31
0.0
  0
LINE
  5
14F
330
1F
100
AcDbEntity
  8
SK3
100
AcDbLine
 10
21.08
 20
13.7885823329
 30
0.0
 11
-6.92
 21
4.5961941775
 31
0.0
  0
LINE
  5
150
330
1F
100
AcDbEntity
  8
SK3
100
AcDbLine
 10
21.08
 20
14.4956891141
 30
0.0
 11
-6.92
 21
5.3033009587
 31
0.0
  0
LINE
  5
151
330
1F
100
AcDbEntity
  8
SK3
100
AcDbLine
 10
-6.92
 20
5.3033009587
 30
0.0
 11
-6.92
 21
5.9993483857
 31
0.0
  0
LINE
  5
152
330
1F
100
AcDbEntity
  8
SK3
100
AcDbLine
 10
-8.92
 20
7.4157769363
 30
0.0
 11
-37.42
 21
7.4157769363
 31
0.0
  0
LINE
  5
153
330
1F
100
AcDbEntity
  8
SK1
  6
Continuous
100
AcDbLine
 10
-38.92
 20
13.1478960536
 30
0.0
 11
-38.92
 21
13.8550028347
 31
0.0
  0
SPLINE
  5
154
330
1F
100
AcDbEntity
  8
SK1
  6
Continuous
100
AcDbSpline
210
0.0
220
0.0
230
1.0
 70
     8
 71
     3
 72
    10
 73
     6
 74
     0
 42
0.0000000161516538
 43
0.0000000001
 12
1.0
 22
0.0
 32
0.0
 13
1.0
 23
0.0
 33
0.0
 40
0.0
 40
0.0
 40
0.0
 40
0.0
 40
0.5
 40
0.5
 40
1.0
 40
1.0
 40
1.0
 40
1.0
 10
-38.92000000000263
 20
13.85500283473758
 30
0.0
 10
-38.92000000000263
 20
13.93921336969061
 30
0.0
 10
-38.87541014102383
 20
14.0234401010726
 30
0.0
 10
-38.71970326451248
 20
14.15029689979707
 30
0.0
 10
-38.60876748604776
 20
14.19338470740334
 30
0.0
 10
-38.48958655048266
 20
14.20523245363343
 30
0.0
  0
SPLINE
  5
155
330
1F
100
AcDbEntity
  8
SK1
  6
Continuous
100
AcDbSpline
210
0.0
220
0.0
230
1.0
 70
     8
 71
     3
 72
    11
 73
     7
 74
     0
 42
0.0000000002183684
 43
0.0000000001
 12
1.0
 22
0.0
 32
0.0
 13
1.0
 23
0.0
 33
0.0
 40
0.0
 40
0.0
 40
0.0
 40
0.0
 40
0.7476039056833147
 40
0.7476039056833147
 40
0.7476039056833147
 40
1.0
 40
1.0
 40
1.0
 40
1.0
 10
-38.48958655048266
 20
14.20523245363343
 30
0.0
 10
-27.13360391202705
 20
15.33412777460337
 30
0.0
 10
-15.7776044319005
 20
16.46293838779449
 30
0.0
 10
-4.421596407630155
 20
17.59170601867091
 30
0.0
 10
-0.5877319098218994
 20
17.97278554389169
 30
0.0
 10
3.246133619814119
 20
18.35385987876614
 30
0.0
 10
7.079999999997363
 20
18.73492993501578
 30
0.0
  0
LINE
  5
156
330
1F
100
AcDbEntity
  8
SK1
  6
Continuous
100
AcDbLine
 10
7.08
 20
18.734929935
 30
0.0
 11
7.08
 21
18.0278231538
 31
0.0
  0
SPLINE
  5
157
330
1F
100
AcDbEntity
  8
SK1
  6
Continuous
100
AcDbSpline
210
0.0
220
0.0
230
1.0
 70
     8
 71
     3
 72
    10
 73
     6
 74
     0
 42
0.0000000180494881
 43
0.0000000001
 12
1.0
 22
0.0
 32
0.0
 13
1.0
 23
0.0
 33
0.0
 40
0.0
 40
0.0
 40
0.0
 40
0.0
 40
0.5
 40
0.5
 40
1.0
 40
1.0
 40
1.0
 40
1.0
 10
7.079999999997363
 20
16.89607445906763
 30
0.0
 10
7.079999999997356
 20
16.82231673206647
 30
0.0
 10
7.122426651374012
 20
16.74893016873529
 30
0.0
 10
7.271636167946131
 20
16.64330442502215
 30
0.0
 10
7.374341814358059
 20
16.6131660318728
 30
0.0
 10
7.479999999997363
 20
16.61316603187307
 30
0.0
  0
LINE
  5
158
330
1F
100
AcDbEntity
  8
SK1
  6
Continuous
100
AcDbLine
 10
7.48
 20
16.6131660319
 30
0.0
 11
12.18
 21
16.6131660319
 31
0.0
  0
SPLINE
  5
159
330
1F
100
AcDbEntity
  8
SK1
  6
Continuous
100
AcDbSpline
210
0.0
220
0.0
230
1.0
 70
     8
 71
     3
 72
    10
 73
     6
 74
     0
 42
0.0000000180537409
 43
0.0000000001
 12
1.0
 22
0.0
 32
0.0
 13
1.0
 23
0.0
 33
0.0
 40
0.0
 40
0.0
 40
0.0
 40
0.0
 40
0.5
 40
0.5
 40
1.0
 40
1.0
 40
1.0
 40
1.0
 10
12.17999999999736
 20
16.61316603187307
 30
0.0
 10
12.28574349326614
 20
16.61316603187307
 30
0.0
 10
12.38916074250756
 20
16.64387224209698
 30
0.0
 10
12.53675651024682
 20
16.74834824514297
 30
0.0
 10
12.5799999999976
 20
16.8222528650864
 30
0.0
 10
12.58000000000239
 20
16.89607445906804
 30
0.0
  0
LINE
  5
15A
330
1F
100
AcDbEntity
  8
SK1
  6
Continuous
100
AcDbLine
 10
12.58
 20
17.8105736652
 30
0.0
 11
12.58
 21
18.5176804464
 31
0.0
  0
ARC
  5
15B
330
1F
100
AcDbEntity
  8
SK1
  6
Continuous
100
AcDbCircle
 10
20.9013713478
 20
14.5780671024
 30
0.0
 40
0.179555935682334
100
AcDbArc
 50
5.8254715452
 51
72.6220345853
  0
LINE
  5
15C
330
1F
100
AcDbEntity
  8
SK1
  6
Continuous
100
AcDbLine
 10
20.955
 20
14.7494272544
 30
0.0
 11
13.0192304845
 21
17.9899223922
 31
0.0
  0
LINE
  5
15D
330
1F
100
AcDbEntity
  8
SK1
  6
Continuous
100
AcDbLine
 10
13.0192304845
 20
17.9899223922
 30
0.0
 11
12.58
 21
17.8105736652
 31
0.0
  0
LINE
  5
15E
330
1F
100
AcDbEntity
  8
SK3
100
AcDbLine
 10
-38.92
 20
7.3217482692
 30
0.0
 11
-37.42
 21
6.7086701551
 31
0.0
  0
LINE
  5
15F
330
1F
100
AcDbEntity
  8
SK3
100
AcDbLine
 10
12.58
 20
-23.9239171865
 30
0.0
 11
13.0192304845
 21
-24.158247591
 31
0.0
  0
LINE
  5
160
330
1F
100
AcDbEntity
  8
SK3
100
AcDbLine
 10
12.58
 20
-23.5412337541
 30
0.0
 11
13.0192304845
 21
-23.7755641586
 31
0.0
  0
LINE
  5
161
330
1F
100
AcDbEntity
  8
SK3
100
AcDbLine
 10
-6.92
 20
0.5000000998
 30
0.0
 11
-6.92
 21
2.5935425131
 31
0.0
  0
LINE
  5
162
330
1F
100
AcDbEntity
  8
SK1
  6
Continuous
100
AcDbLine
 10
21.08
 20
0.5000000998
 30
0.0
 11
21.08
 21
7.6288581803
 31
0.0
  0
LINE
  5
163
330
1F
100
AcDbEntity
  8
SK1
  6
Continuous
100
AcDbLine
 10
20.955
 20
0.5000000998
 30
0.0
 11
20.955
 21
7.7117345052
 31
0.0
  0
LINE
  5
164
330
1F
100
AcDbEntity
  8
SK1
  6
Continuous
100
AcDbLine
 10
13.0192304845
 20
0.5000000998
 30
0.0
 11
13.0192304845
 21
9.4654778363
 31
0.0
  0
LINE
  5
165
330
1F
100
AcDbEntity
  8
SK1
  6
Continuous
100
AcDbLine
 10
12.58
 20
0.5000000998
 30
0.0
 11
12.58
 21
9.3684150047
 31
0.0
  0
LINE
  5
166
330
1F
100
AcDbEntity
  8
SK1
  6
Continuous
100
AcDbLine
 10
7.08
 20
0.5000000998
 30
0.0
 11
7.08
 21
9.4859895807
 31
0.0
  0
LINE
  5
167
330
1F
100
AcDbEntity
  8
SK1
  6
Continuous
100
AcDbLine
 10
7.48
 20
0.5000000998
 30
0.0
 11
7.48
 21
8.3376992309
 31
0.0
  0
LINE
  5
168
330
1F
100
AcDbEntity
  8
SK1
  6
Continuous
100
AcDbLine
 10
12.18
 20
0.5000000998
 30
0.0
 11
12.18
 21
8.3376992309
 31
0.0
  0
LINE
  5
169
330
1F
100
AcDbEntity
  8
SK3
100
AcDbLine
 10
-37.42
 20
0.5000000998
 30
0.0
 11
-37.42
 21
6.7086701551
 31
0.0
  0
LINE
  5
16A
330
1F
100
AcDbEntity
  8
SK1
  6
Continuous
100
AcDbLine
 10
-38.92
 20
0.5000000998
 30
0.0
 11
-38.92
 21
13.1478960536
 31
0.0
  0
LINE
  5
16B
330
1F
100
AcDbEntity
  8
SK1
  6
Continuous
100
AcDbLine
 10
-38.4895865505
 20
0.5000000998
 30
0.0
 11
-38.4895865505
 21
13.4981256724
 31
0.0
  0
LINE
  5
16C
330
1F
100
AcDbEntity
  8
SK1
  6
Continuous
100
AcDbLine
 10
21.08
 20
0.5000000998
 30
0.0
 11
20.955
 21
0.5000000998
 31
0.0
  0
LINE
  5
16D
330
1F
100
AcDbEntity
  8
SK1
  6
Continuous
100
AcDbLine
 10
20.955
 20
0.5000000998
 30
0.0
 11
13.0192304845
 21
0.5000000998
 31
0.0
  0
LINE
  5
16E
330
1F
100
AcDbEntity
  8
SK1
  6
Continuous
100
AcDbLine
 10
13.0192304845
 20
0.5000000998
 30
0.0
 11
12.58
 21
0.5000000998
 31
0.0
  0
LINE
  5
16F
330
1F
100
AcDbEntity
  8
SK1
  6
Continuous
100
AcDbLine
 10
-38.92
 20
-0.4999999002
 30
0.0
 11
-38.4895865505
 21
-0.4999999002
 31
0.0
  0
LINE
  5
170
330
1F
100
AcDbEntity
  8
SK1
  6
Continuous
100
AcDbLine
 10
-38.4895865505
 20
-0.4999999002
 30
0.0
 11
7.08
 21
-0.4999999002
 31
0.0
  0
LINE
  5
171
330
1F
100
AcDbEntity
  8
SK1
  6
Continuous
100
AcDbLine
 10
7.08
 20
-0.4999999002
 30
0.0
 11
7.48
 21
-0.4999999002
 31
0.0
  0
LINE
  5
172
330
1F
100
AcDbEntity
  8
SK1
  6
Continuous
100
AcDbLine
 10
7.48
 20
-0.4999999002
 30
0.0
 11
12.18
 21
-0.4999999002
 31
0.0
  0
LINE
  5
173
330
1F
100
AcDbEntity
  8
SK1
  6
Continuous
100
AcDbLine
 10
12.18
 20
-0.4999999002
 30
0.0
 11
12.58
 21
-0.4999999002
 31
0.0
  0
LINE
  5
174
330
1F
100
AcDbEntity
  8
SK1
  6
Continuous
100
AcDbLine
 10
-6.92
 20
0.5000000998
 30
0.0
 11
-6.92
 21
-0.4999999002
 31
0.0
  0
LINE
  5
175
330
1F
100
AcDbEntity
  8
SK1
  6
Continuous
100
AcDbLine
 10
21.08
 20
0.5000000998
 30
0.0
 11
21.08
 21
-0.4999999002
 31
0.0
  0
LINE
  5
176
330
1F
100
AcDbEntity
  8
SK1
  6
Continuous
100
AcDbLine
 10
-38.92
 20
0.5000000998
 30
0.0
 11
-38.4895865505
 21
0.5000000998
 31
0.0
  0
LINE
  5
177
330
1F
100
AcDbEntity
  8
SK1
  6
Continuous
100
AcDbLine
 10
-38.4895865505
 20
0.5000000998
 30
0.0
 11
7.08
 21
0.5000000998
 31
0.0
  0
LINE
  5
178
330
1F
100
AcDbEntity
  8
SK1
  6
Continuous
100
AcDbLine
 10
7.08
 20
0.5000000998
 30
0.0
 11
7.48
 21
0.5000000998
 31
0.0
  0
LINE
  5
179
330
1F
100
AcDbEntity
  8
SK1
  6
Continuous
100
AcDbLine
 10
7.48
 20
0.5000000998
 30
0.0
 11
12.18
 21
0.5000000998
 31
0.0
  0
LINE
  5
17A
330
1F
100
AcDbEntity
  8
SK1
  6
Continuous
100
AcDbLine
 10
12.18
 20
0.5000000998
 30
0.0
 11
12.58
 21
0.5000000998
 31
0.0
  0
LINE
  5
17B
330
1F
100
AcDbEntity
  8
SK1
  6
Continuous
100
AcDbLine
 10
21.08
 20
-0.4999999002
 30
0.0
 11
20.955
 21
-0.4999999002
 31
0.0
  0
LINE
  5
17C
330
1F
100
AcDbEntity
  8
SK1
  6
Continuous
100
AcDbLine
 10
20.955
 20
-0.4999999002
 30
0.0
 11
13.0192304845
 21
-0.4999999002
 31
0.0
  0
LINE
  5
17D
330
1F
100
AcDbEntity
  8
SK1
  6
Continuous
100
AcDbLine
 10
13.0192304845
 20
-0.4999999002
 30
0.0
 11
12.58
 21
-0.4999999002
 31
0.0
  0
LINE
  5
17E
330
1F
100
AcDbEntity
  8
SK3
100
AcDbLine
 10
-6.92
 20
-5.292241405
 30
0.0
 11
-6.92
 21
-3.5174218461
 31
0.0
  0
SPLINE
  5
17F
330
1F
100
AcDbEntity
  8
SK3
100
AcDbSpline
210
0.0
220
0.0
230
1.0
 70
     8
 71
     3
 72
    18
 73
    14
 74
     0
 42
0.0000000036856682
 43
0.0000000001
 12
1.0
 22
0.0
 32
0.0
 13
1.0
 23
0.0
 33
0.0
 40
0.0
 40
0.0
 40
0.0
 40
0.0
 40
0.1250000000000005
 40
0.1250000000000005
 40
0.250000000000001
 40
0.250000000000001
 40
0.5000000000000017
 40
0.5000000000000017
 40
0.7500000000000023
 40
0.7500000000000023
 40
0.8750000000000011
 40
0.8750000000000011
 40
1.0
 40
1.0
 40
1.0
 40
1.0
 10
-6.920000000002636
 20
-5.999348186140682
 30
0.0
 10
-6.920000000002625
 20
-6.092038211301918
 30
0.0
 10
-6.932714707005724
 20
-6.183766372959665
 30
0.0
 10
-6.983457367131348
 20
-6.365307757331518
 30
0.0
 10
-7.022000031180191
 20
-6.455468831700576
 30
0.0
 10
-7.171432045384667
 20
-6.711388452282738
 30
0.0
 10
-7.32033078514454
 20
-6.869421902199305
 30
0.0
 10
-7.688350922346769
 20
-7.130552930567656
 30
0.0
 10
-7.911305220696034
 20
-7.236380912773086
 30
0.0
 10
-8.272889694048535
 20
-7.342792364909334
 30
0.0
 10
-8.400232622754775
 20
-7.370270522415908
 30
0.0
 10
-8.657397046817248
 20
-7.40658388026984
 30
0.0
 10
-8.78777679233787
 20
-7.415776736738078
 30
0.0
 10
-8.920000000002638
 20
-7.415776736735342
 30
0.0
  0
SPLINE
  5
180
330
1F
100
AcDbEntity
  8
SK3
100
AcDbSpline
210
0.0
220
0.0
230
1.0
 70
     8
 71
     3
 72
    18
 73
    14
 74
     0
 42
0.0000000036856682
 43
0.0000000001
 12
1.0
 22
0.0
 32
0.0
 13
1.0
 23
0.0
 33
0.0
 40
0.0
 40
0.0
 40
0.0
 40
0.0
 40
0.1249999999999994
 40
0.1249999999999994
 40
0.249999999999998
 40
0.249999999999998
 40
0.4999999999999978
 40
0.4999999999999978
 40
0.7499999999999976
 40
0.7499999999999976
 40
0.8749999999999987
 40
0.8749999999999987
 40
1.0
 40
1.0
 40
1.0
 40
1.0
 10
-6.920000000002584
 20
-5.292241404954131
 30
0.0
 10
-6.920000000002618
 20
-5.384931430115368
 30
0.0
 10
-6.932714707005718
 20
-5.476659591773112
 30
0.0
 10
-6.983457367131344
 20
-5.65820097614496
 30
0.0
 10
-7.022000031180191
 20
-5.748362050514019
 30
0.0
 10
-7.17143204538466
 20
-6.00428167109619
 30
0.0
 10
-7.32033078514454
 20
-6.162315121012755
 30
0.0
 10
-7.688350922346761
 20
-6.423446149381104
 30
0.0
 10
-7.911305220696032
 20
-6.529274131586538
 30
0.0
 10
-8.272889694048528
 20
-6.635685583722786
 30
0.0
 10
-8.400232622754764
 20
-6.663163741229357
 30
0.0
 10
-8.657397046817245
 20
-6.699477099083293
 30
0.0
 10
-8.787776792337866
 20
-6.708669955551525
 30
0.0
 10
-8.920000000002638
 20
-6.708669955548794
 30
0.0
  0
LINE
  5
181
330
1F
100
AcDbEntity
  8
SK1
  6
Continuous
100
AcDbLine
 10
21.08
 20
-14.5962915742
 30
0.0
 11
21.08
 21
-8.5527375132
 31
0.0
  0
LINE
  5
182
330
1F
100
AcDbEntity
  8
SK1
  6
Continuous
100
AcDbLine
 10
20.955
 20
-14.7494270549
 30
0.0
 11
20.955
 21
-8.6356138381
 31
0.0
  0
LINE
  5
183
330
1F
100
AcDbEntity
  8
SK1
  6
Continuous
100
AcDbLine
 10
13.0192304845
 20
-17.9899221927
 30
0.0
 11
13.0192304845
 21
-10.3893571693
 31
0.0
  0
LINE
  5
184
330
1F
100
AcDbEntity
  8
SK1
  6
Continuous
100
AcDbLine
 10
12.58
 20
-17.8105734657
 30
0.0
 11
12.58
 21
-10.2922943377
 31
0.0
  0
LINE
  5
185
330
1F
100
AcDbEntity
  8
SK1
  6
Continuous
100
AcDbLine
 10
7.08
 20
-18.0278229543
 30
0.0
 11
7.08
 21
-10.4098689136
 31
0.0
  0
LINE
  5
186
330
1F
100
AcDbEntity
  8
SK1
  6
Continuous
100
AcDbLine
 10
7.48
 20
-15.9060590511
 30
0.0
 11
7.48
 21
-9.2615785638
 31
0.0
  0
LINE
  5
187
330
1F
100
AcDbEntity
  8
SK1
  6
Continuous
100
AcDbLine
 10
12.18
 20
-15.9060590511
 30
0.0
 11
12.18
 21
-9.2615785638
 31
0.0
  0
LINE
  5
188
330
1F
100
AcDbEntity
  8
SK3
100
AcDbLine
 10
-37.42
 20
-6.7086699555
 30
0.0
 11
-37.42
 21
-0.4999999002
 31
0.0
  0
LINE
  5
189
330
1F
100
AcDbEntity
  8
SK1
  6
Continuous
100
AcDbLine
 10
-38.92
 20
-13.147895854
 30
0.0
 11
-38.92
 21
-0.4999999002
 31
0.0
  0
LINE
  5
18A
330
1F
100
AcDbEntity
  8
SK1
  6
Continuous
100
AcDbLine
 10
-38.4895865505
 20
-13.4981254729
 30
0.0
 11
-38.4895865505
 21
-0.4999999002
 31
0.0
  0
ARC
  5
18B
330
1F
100
AcDbEntity
  8
SK1
  6
Continuous
100
AcDbCircle
 10
20.9013713478
 20
-14.5780669029
 30
0.0
 40
0.1795559356823384
100
AcDbArc
 50
287.3779654147
 51
354.1745284548
  0
LINE
  5
18C
330
1F
100
AcDbEntity
  8
SK1
  6
Continuous
100
AcDbLine
 10
20.955
 20
-14.7494270549
 30
0.0
 11
13.0192304845
 21
-17.9899221927
 31
0.0
  0
LINE
  5
18D
330
1F
100
AcDbEntity
  8
SK1
  6
Continuous
100
AcDbLine
 10
13.0192304845
 20
-17.9899221927
 30
0.0
 11
12.58
 21
-17.8105734657
 31
0.0
  0
LINE
  5
18E
330
1F
100
AcDbEntity
  8
SK3
100
AcDbLine
 10
-38.92
 20
-7.3217480697
 30
0.0
 11
-37.42
 21
-6.7086699555
 31
0.0
  0
LINE
  5
18F
330
1F
100
AcDbEntity
  8
SK3
100
AcDbLine
 10
-6.92
 20
-5.3033007591
 30
0.0
 11
-6.92
 21
-5.9993481861
 31
0.0
  0
LINE
  5
190
330
1F
100
AcDbEntity
  8
SK3
100
AcDbLine
 10
-8.92
 20
-7.4157767367
 30
0.0
 11
-37.42
 21
-7.4157767367
 31
0.0
  0
LINE
  5
191
330
1F
100
AcDbEntity
  8
SK1
  6
Continuous
100
AcDbLine
 10
-38.92
 20
-13.147895854
 30
0.0
 11
-38.92
 21
-13.8550026352
 31
0.0
  0
SPLINE
  5
192
330
1F
100
AcDbEntity
  8
SK1
  6
Continuous
100
AcDbSpline
210
0.0
220
0.0
230
1.0
 70
     8
 71
     3
 72
    10
 73
     6
 74
     0
 42
0.0000000161516538
 43
0.0000000001
 12
1.0
 22
0.0
 32
0.0
 13
1.0
 23
0.0
 33
0.0
 40
0.0
 40
0.0
 40
0.0
 40
0.0
 40
0.5
 40
0.5
 40
1.0
 40
1.0
 40
1.0
 40
1.0
 10
-38.92000000000263
 20
-13.85500263519618
 30
0.0
 10
-38.92000000000263
 20
-13.93921317014921
 30
0.0
 10
-38.87541014102383
 20
-14.0234399015312
 30
0.0
 10
-38.71970326451249
 20
-14.15029670025567
 30
0.0
 10
-38.60876748604776
 20
-14.19338450786194
 30
0.0
 10
-38.48958655048266
 20
-14.20523225409202
 30
0.0
  0
SPLINE
  5
193
330
1F
100
AcDbEntity
  8
SK1
  6
Continuous
100
AcDbSpline
210
0.0
220
0.0
230
1.0
 70
     8
 71
     3
 72
    11
 73
     7
 74
     0
 42
0.0000000002183684
 43
0.0000000001
 12
1.0
 22
0.0
 32
0.0
 13
1.0
 23
0.0
 33
0.0
 40
0.0
 40
0.0
 40
0.0
 40
0.0
 40
0.7476039056833147
 40
0.7476039056833147
 40
0.7476039056833147
 40
1.0
 40
1.0
 40
1.0
 40
1.0
 10
-38.48958655048266
 20
-14.20523225409202
 30
0.0
 10
-27.13360391202705
 20
-15.33412757506197
 30
0.0
 10
-15.7776044319005
 20
-16.4629381882531
 30
0.0
 10
-4.421596407630155
 20
-17.59170581912951
 30
0.0
 10
-0.5877319098218994
 20
-17.97278534435029
 30
0.0
 10
3.246133619814119
 20
-18.35385967922474
 30
0.0
 10
7.079999999997363
 20
-18.73492973547437
 30
0.0
  0
LINE
  5
194
330
1F
100
AcDbEntity
  8
SK1
  6
Continuous
100
AcDbLine
 10
7.08
 20
-18.7349297355
 30
0.0
 11
7.08
 21
-18.0278229543
 31
0.0
  0
SPLINE
  5
195
330
1F
100
AcDbEntity
  8
SK1
  6
Continuous
100
AcDbSpline
210
0.0
220
0.0
230
1.0
 70
     8
 71
     3
 72
    10
 73
     6
 74
     0
 42
0.0000000180494881
 43
0.0000000001
 12
1.0
 22
0.0
 32
0.0
 13
1.0
 23
0.0
 33
0.0
 40
0.0
 40
0.0
 40
0.0
 40
0.0
 40
0.5
 40
0.5
 40
1.0
 40
1.0
 40
1.0
 40
1.0
 10
7.079999999997363
 20
-16.89607425952623
 30
0.0
 10
7.079999999997352
 20
-16.82231653252508
 30
0.0
 10
7.122426651374012
 20
-16.74892996919389
 30
0.0
 10
7.271636167946127
 20
-16.64330422548076
 30
0.0
 10
7.374341814358059
 20
-16.6131658323314
 30
0.0
 10
7.479999999997363
 20
-16.61316583233168
 30
0.0
  0
LINE
  5
196
330
1F
100
AcDbEntity
  8
SK1
  6
Continuous
100
AcDbLine
 10
7.48
 20
-16.6131658323
 30
0.0
 11
12.18
 21
-16.6131658323
 31
0.0
  0
SPLINE
  5
197
330
1F
100
AcDbEntity
  8
SK1
  6
Continuous
100
AcDbSpline
210
0.0
220
0.0
230
1.0
 70
     8
 71
     3
 72
    10
 73
     6
 74
     0
 42
0.0000000180537409
 43
0.0000000001
 12
1.0
 22
0.0
 32
0.0
 13
1.0
 23
0.0
 33
0.0
 40
0.0
 40
0.0
 40
0.0
 40
0.0
 40
0.5
 40
0.5
 40
1.0
 40
1.0
 40
1.0
 40
1.0
 10
12.17999999999736
 20
-16.61316583233167
 30
0.0
 10
12.28574349326614
 20
-16.61316583233167
 30
0.0
 10
12.38916074250757
 20
-16.64387204255558
 30
0.0
 10
12.53675651024682
 20
-16.74834804560156
 30
0.0
 10
12.57999999999759
 20
-16.822252665545
 30
0.0
 10
12.58000000000239
 20
-16.89607425952664
 30
0.0
  0
LINE
  5
198
330
1F
100
AcDbEntity
  8
SK1
  6
Continuous
100
AcDbLine
 10
12.58
 20
-17.8105734657
 30
0.0
 11
12.58
 21
-18.5176802469
 31
0.0
  0
LINE
  5
199
330
1F
100
AcDbEntity
  8
SK3
100
AcDbLine
 10
-6.92
 20
-5.292241405
 30
0.0
 11
-6.92
 21
-5.3033007591
 31
0.0
  0
LINE
  5
19A
330
1F
100
AcDbEntity
  8
SK3
100
AcDbLine
 10
21.08
 20
-14.4956889146
 30
0.0
 11
-6.92
 21
-5.3033007591
 31
0.0
  0
LINE
  5
19B
330
1F
100
AcDbEntity
  8
SK3
100
AcDbLine
 10
21.08
 20
-13.7885821334
 30
0.0
 11
-6.92
 21
-4.5961939779
 31
0.0
  0
LINE
  5
19C
330
1F
100
AcDbEntity
  8
SK3
100
AcDbLine
 10
-8.92
 20
-6.7086699555
 30
0.0
 11
-37.42
 21
-6.7086699555
 31
0.0
  0
SPLINE
  5
19D
330
1F
100
AcDbEntity
  8
SK1
  6
Continuous
100
AcDbSpline
210
0.0
220
0.0
230
1.0
 70
     8
 71
     3
 72
    10
 73
     6
 74
     0
 42
0.0000000161516538
 43
0.0000000001
 12
1.0
 22
0.0
 32
0.0
 13
1.0
 23
0.0
 33
0.0
 40
0.0
 40
0.0
 40
0.0
 40
0.0
 40
0.5
 40
0.5
 40
1.0
 40
1.0
 40
1.0
 40
1.0
 10
-38.92000000000263
 20
-13.14789585400964
 30
0.0
 10
-38.92000000000263
 20
-13.23210638896266
 30
0.0
 10
-38.87541014102383
 20
-13.31633312034466
 30
0.0
 10
-38.71970326451249
 20
-13.44318991906913
 30
0.0
 10
-38.60876748604776
 20
-13.4862777266754
 30
0.0
 10
-38.48958655048266
 20
-13.49812547290548
 30
0.0
  0
SPLINE
  5
19E
330
1F
100
AcDbEntity
  8
SK1
  6
Continuous
100
AcDbSpline
210
0.0
220
0.0
230
1.0
 70
     8
 71
     3
 72
    11
 73
     7
 74
     0
 42
0.0000000002183684
 43
0.0000000001
 12
1.0
 22
0.0
 32
0.0
 13
1.0
 23
0.0
 33
0.0
 40
0.0
 40
0.0
 40
0.0
 40
0.0
 40
0.7476039056833147
 40
0.7476039056833147
 40
0.7476039056833147
 40
1.0
 40
1.0
 40
1.0
 40
1.0
 10
-38.48958655048266
 20
-13.49812547290548
 30
0.0
 10
-27.13360391202705
 20
-14.62702079387542
 30
0.0
 10
-15.7776044319005
 20
-15.75583140706655
 30
0.0
 10
-4.421596407630155
 20
-16.88459903794297
 30
0.0
 10
-0.5877319098218994
 20
-17.26567856316374
 30
0.0
 10
3.246133619814119
 20
-17.64675289803819
 30
0.0
 10
7.079999999997363
 20
-18.02782295428783
 30
0.0
  0
SPLINE
  5
19F
330
1F
100
AcDbEntity
  8
SK1
  6
Continuous
100
AcDbSpline
210
0.0
220
0.0
230
1.0
 70
     8
 71
     3
 72
    10
 73
     6
 74
     0
 42
0.0000000180494881
 43
0.0000000001
 12
1.0
 22
0.0
 32
0.0
 13
1.0
 23
0.0
 33
0.0
 40
0.0
 40
0.0
 40
0.0
 40
0.0
 40
0.5
 40
0.5
 40
1.0
 40
1.0
 40
1.0
 40
1.0
 10
7.079999999997363
 20
-16.18896747833968
 30
0.0
 10
7.079999999997352
 20
-16.11520975133853
 30
0.0
 10
7.122426651374012
 20
-16.04182318800734
 30
0.0
 10
7.271636167946134
 20
-15.9361974442942
 30
0.0
 10
7.374341814358059
 20
-15.90605905114485
 30
0.0
 10
7.479999999997363
 20
-15.90605905114513
 30
0.0
  0
LINE
  5
1A0
330
1F
100
AcDbEntity
  8
SK1
  6
Continuous
100
AcDbLine
 10
7.48
 20
-15.9060590511
 30
0.0
 11
12.18
 21
-15.9060590511
 31
0.0
  0
SPLINE
  5
1A1
330
1F
100
AcDbEntity
  8
SK1
  6
Continuous
100
AcDbSpline
210
0.0
220
0.0
230
1.0
 70
     8
 71
     3
 72
    10
 73
     6
 74
     0
 42
0.0000000180537409
 43
0.0000000001
 12
1.0
 22
0.0
 32
0.0
 13
1.0
 23
0.0
 33
0.0
 40
0.0
 40
0.0
 40
0.0
 40
0.0
 40
0.5
 40
0.5
 40
1.0
 40
1.0
 40
1.0
 40
1.0
 10
12.17999999999736
 20
-15.90605905114513
 30
0.0
 10
12.28574349326614
 20
-15.90605905114513
 30
0.0
 10
12.38916074250757
 20
-15.93676526136903
 30
0.0
 10
12.53675651024682
 20
-16.04124126441501
 30
0.0
 10
12.57999999999759
 20
-16.11514588435846
 30
0.0
 10
12.58000000000239
 20
-16.1889674783401
 30
0.0
  0
LINE
  5
1A2
330
1F
100
AcDbEntity
  8
SK1
  6
Continuous
100
AcDbLine
 10
21.08
 20
-14.5962915742
 30
0.0
 11
21.08
 21
-15.3033983554
 31
0.0
  0
ARC
  5
1A3
330
1F
100
AcDbEntity
  8
SK1
  6
Continuous
100
AcDbCircle
 10
20.9013713478
 20
-15.285173684
 30
0.0
 40
0.1795559356823326
100
AcDbArc
 50
287.3779654147
 51
354.1745284548
  0
LINE
  5
1A4
330
1F
100
AcDbEntity
  8
SK1
  6
Continuous
100
AcDbLine
 10
20.955
 20
-15.4565338361
 30
0.0
 11
13.0192304845
 21
-18.6970289739
 31
0.0
  0
LINE
  5
1A5
330
1F
100
AcDbEntity
  8
SK1
  6
Continuous
100
AcDbLine
 10
13.0192304845
 20
-18.6970289739
 30
0.0
 11
12.58
 21
-18.5176802469
 31
0.0
  0
LINE
  5
1A6
330
1F
100
AcDbEntity
  8
SK3
100
AcDbLine
 10
-38.92
 20
-8.0288548509
 30
0.0
 11
-37.42
 21
-7.4157767367
 31
0.0
  0
ARC
  5
1A7
330
1F
100
AcDbEntity
  8
SK3
100
AcDbCircle
 10
20.88
 20
4.2000000998
 30
0.0
 40
0.2000000000000013
100
AcDbArc
 50
270.0
 51
360.0
  0
ARC
  5
1A8
330
1F
100
AcDbEntity
  8
SK3
100
AcDbCircle
 10
-6.72
 20
4.2000000998
 30
0.0
 40
0.1999999999999994
100
AcDbArc
 50
180.0
 51
270.0
  0
LINE
  5
1A9
330
1F
100
AcDbEntity
  8
SK3
100
AcDbLine
 10
20.88
 20
4.0000000998
 30
0.0
 11
-6.72
 21
4.0000000998
 31
0.0
  0
ARC
  5
1AA
330
1F
100
AcDbEntity
  8
SK3
100
AcDbCircle
 10
20.88
 20
-4.1999999002
 30
0.0
 40
0.1999999999999994
100
AcDbArc
 50
0.0
 51
90.0
  0
ARC
  5
1AB
330
1F
100
AcDbEntity
  8
SK3
100
AcDbCircle
 10
-6.72
 20
-4.1999999002
 30
0.0
 40
0.2000000000000023
100
AcDbArc
 50
90.0
 51
180.0
  0
LINE
  5
1AC
330
1F
100
AcDbEntity
  8
SK3
100
AcDbLine
 10
-6.72
 20
-3.9999999002
 30
0.0
 11
20.88
 21
-3.9999999002
 31
0.0
  0
LINE
  5
1AD
330
1F
100
AcDbEntity
  8
SK1
  6
Continuous
100
AcDbLine
 10
0.0
 20
24.999971489
 30
0.0
 11
0.0
 21
-24.9999712895
 31
0.0
  0
LINE
  5
1AF
330
1F
100
AcDbEntity
  8
SK4
  6
Continuous
100
AcDbLine
 10
21.08
 20
0.0000000998
 30
0.0
 11
-38.92
 21
0.0000000998
 31
0.0
  0
DIMENSION
  5
1C4
330
1F
100
AcDbEntity
  8
SK2
  6
Continuous
 62
   136
100
AcDbDimension
  2
DMBLK1
 10
33.6369139004
 20
4.0000000998
 30
0.0
 11
33.6369139004
 21
10.5350347265
 31
0.0
 70
   161
  1
\A1;ø <>
 71
     5
 42
-1.0
  3
DIN
100
AcDbAlignedDimension
 13
20.88
 23
4.0000000998
 33
0.0
 14
20.88
 24
-3.9999999002
 34
0.0
  0
DIMENSION
  5
1CF
330
1F
100
AcDbEntity
  8
SK2
  6
Continuous
 62
   136
100
AcDbDimension
  2
DMBLK2
 10
21.08
 20
-33.9519779871
 30
0.0
 11
10.540000163
 21
-33.9519779871
 31
0.0
 70
   160
  1
\A1;<>
 71
     5
 42
-1.0
  3
DIN
100
AcDbAlignedDimension
 13
0.0
 23
-24.9999712895
 33
0.0
 14
21.08
 24
-14.9498449648
 34
0.0
100
AcDbRotatedDimension
  0
DIMENSION
  5
1D9
330
1F
100
AcDbEntity
  8
SK2
  6
Continuous
 62
   136
100
AcDbDimension
  2
DMBLK3
 10
-46.3630855083
 20
24.999971489
 30
0.0
 11
-46.3630855083
 21
0.0000009188
 31
0.0
 70
   161
  1
\A1;ø <>
 71
     5
 42
-1.0
  3
DIN
100
AcDbAlignedDimension
 13
0.0
 23
24.999971489
 33
0.0
 14
0.0
 24
-24.9999712895
 34
0.0
  0
DIMENSION
  5
1E4
330
1F
100
AcDbEntity
  8
SK2
  6
Continuous
 62
   136
100
AcDbDimension
  2
DMBLK4
 10
21.08
 20
34.0103519259
 30
0.0
 11
-8.9200006706
 21
34.0103519259
 31
0.0
 70
   160
  1
\A1;<>
 71
     5
 42
-1.0
  3
DIN
100
AcDbAlignedDimension
 13
-38.92
 23
19.0939328743
 33
0.0
 14
21.08
 24
19.724255708
 34
0.0
100
AcDbRotatedDimension
  0
ENDSEC
  0
SECTION
  2
OBJECTS
  0
DICTIONARY
  5
C
330
0
100
AcDbDictionary
281
     1
  3
ACAD_GROUP
350
D
  3
ACAD_LAYOUT
350
1A
  3
ACAD_MATERIAL
350
3B
  3
ACAD_MLEADERSTYLE
350
1F0
  3
ACAD_MLINESTYLE
350
17
  3
ACAD_PLOTSETTINGS
350
19
  3
ACAD_PLOTSTYLENAME
350
E
  3
ACAD_VISUALSTYLE
350
2A
  3
AcDbVariableDictionary
350
1EE
  0
DICTIONARY
  5
D
102
{ACAD_REACTORS
330
C
102
}
330
C
100
AcDbDictionary
281
     1
  0
DICTIONARY
  5
1A
102
{ACAD_REACTORS
330
C
102
}
330
C
100
AcDbDictionary
281
     1
  3
Layout1
350
1E
  3
Model
350
22
  0
DICTIONARY
  5
3B
102
{ACAD_REACTORS
330
C
102
}
330
C
100
AcDbDictionary
281
     1
  3
ByBlock
350
3D
  3
ByLayer
350
3C
  3
Global
350
3E
  0
DICTIONARY
  5
1F0
102
{ACAD_REACTORS
330
C
102
}
330
C
100
AcDbDictionary
281
     1
  0
DICTIONARY
  5
17
102
{ACAD_REACTORS
330
C
102
}
330
C
100
AcDbDictionary
281
     1
  3
Standard
350
18
  0
DICTIONARY
  5
19
102
{ACAD_REACTORS
330
C
102
}
330
C
100
AcDbDictionary
281
     1
  0
ACDBDICTIONARYWDFLT
  5
E
102
{ACAD_REACTORS
330
C
102
}
330
C
100
AcDbDictionary
281
     1
  3
Normal
350
F
100
AcDbDictionaryWithDefault
340
F
  0
DICTIONARY
  5
2A
102
{ACAD_REACTORS
330
C
102
}
330
C
100
AcDbDictionary
281
     1
  3
2dWireframe
350
2F
  3
3D Hidden
350
31
  3
3dWireframe
350
30
  3
Basic
350
32
  3
Brighten
350
36
  3
ColorChange
350
3A
  3
Conceptual
350
34
  3
Dim
350
35
  3
Facepattern
350
39
  3
Flat
350
2B
  3
FlatWithEdges
350
2C
  3
Gouraud
350
2D
  3
GouraudWithEdges
350
2E
  3
Linepattern
350
38
  3
Realistic
350
33
  3
Thicken
350
37
  0
DICTIONARY
  5
1EE
102
{ACAD_REACTORS
330
C
102
}
330
C
100
AcDbDictionary
281
     1
  3
DIMASSOC
350
1F3
  3
HIDETEXT
350
1F4
  3
PSOLHEIGHT
350
1F2
  3
PSOLWIDTH
350
1F1
  0
LAYOUT
  5
1E
102
{ACAD_REACTORS
330
1A
102
}
330
1A
100
AcDbPlotSettings
  1

  2
none_device
  4

  6

 40
0.0
 41
0.0
 42
0.0
 43
0.0
 44
0.0
 45
0.0
 46
0.0
 47
0.0
 48
0.0
 49
0.0
140
0.0
141
0.0
142
1.0
143
1.0
 70
   688
 72
     0
 73
     0
 74
     5
  7

 75
    16
147
1.0
148
0.0
149
0.0
100
AcDbLayout
  1
Layout1
 70
     1
 71
     1
 10
0.0
 20
0.0
 11
210.0
 21
297.0
 12
0.0
 22
0.0
 32
0.0
 14
0.0
 24
0.0
 34
0.0
 15
210.0
 25
297.0
 35
0.0
146
0.0
 13
0.0
 23
0.0
 33
0.0
 16
1.0
 26
0.0
 36
0.0
 17
0.0
 27
1.0
 37
0.0
 76
     0
330
1B
  0
LAYOUT
  5
22
102
{ACAD_REACTORS
330
1A
102
}
330
1A
100
AcDbPlotSettings
  1

  2
none_device
  4

  6

 40
0.0
 41
0.0
 42
0.0
 43
0.0
 44
0.0
 45
0.0
 46
0.0
 47
0.0
 48
0.0
 49
0.0
140
0.0
141
0.0
142
1.0
143
1.0
 70
  1712
 72
     0
 73
     0
 74
     0
  7

 75
     0
147
1.0
148
0.0
149
0.0
100
AcDbLayout
  1
Model
 70
     1
 71
     0
 10
0.0
 20
0.0
 11
210.0
 21
297.0
 12
0.0
 22
0.0
 32
0.0
 14
0.0
 24
0.0
 34
0.0
 15
210.0
 25
297.0
 35
0.0
146
0.0
 13
0.0
 23
0.0
 33
0.0
 16
1.0
 26
0.0
 36
0.0
 17
0.0
 27
1.0
 37
0.0
 76
     0
330
1F
331
29
  0
MATERIAL
  5
3D
102
{ACAD_REACTORS
330
3B
102
}
102
{ACAD_XDICTIONARY
360
217
102
}
330
3B
100
AcDbMaterial
  1
ByBlock
  0
MATERIAL
  5
3C
102
{ACAD_REACTORS
330
3B
102
}
102
{ACAD_XDICTIONARY
360
215
102
}
330
3B
100
AcDbMaterial
  1
ByLayer
  0
MATERIAL
  5
3E
102
{ACAD_REACTORS
330
3B
102
}
102
{ACAD_XDICTIONARY
360
219
102
}
330
3B
100
AcDbMaterial
  1
Global
  0
MLINESTYLE
  5
18
102
{ACAD_REACTORS
330
17
102
}
330
17
100
AcDbMlineStyle
  2
Standard
 70
     0
  3

 62
   256
 51
90.0
 52
90.0
 71
     2
 49
0.5
 62
   256
  6
BYLAYER
 49
-0.5
 62
   256
  6
BYLAYER
  0
ACDBPLACEHOLDER
  5
F
102
{ACAD_REACTORS
330
E
102
}
330
E
  0
VISUALSTYLE
  5
2F
102
{ACAD_REACTORS
330
2A
102
}
102
{ACAD_XDICTIONARY
360
1FD
102
}
330
2A
100
AcDbVisualStyle
  2
2dWireframe
 70
     4
 71
     0
 72
     2
 73
     0
 90
        0
 40
-0.6
 41
-30.0
 62
     5
 63
     7
 74
     1
 91
        4
 64
     7
 65
   257
 75
     1
175
     1
 42
1.0
 92
        0
 66
   257
 43
1.0
 76
     1
 77
     6
 78
     2
 67
     7
 79
     5
170
     0
171
     0
290
     0
174
     0
 93
        1
 44
0.0
173
     0
291
     0
 45
0.0
1001
ACAD
1000
AcDbSavedByObjectVersion
1070
     0
  0
VISUALSTYLE
  5
31
102
{ACAD_REACTORS
330
2A
102
}
102
{ACAD_XDICTIONARY
360
201
102
}
330
2A
100
AcDbVisualStyle
  2
3D Hidden
 70
     6
 71
     1
 72
     2
 73
     2
 90
        0
 40
-0.6
 41
-30.0
 62
     5
 63
     7
 74
     2
 91
        2
 64
     7
 65
   257
 75
     2
175
     1
 42
40.0
 92
        0
 66
   257
 43
1.0
 76
     1
 77
     6
 78
     2
 67
     7
 79
     3
170
     0
171
     0
290
     0
174
     0
 93
        1
 44
0.0
173
     0
291
     0
 45
0.0
1001
ACAD
1000
AcDbSavedByObjectVersion
1070
     0
  0
VISUALSTYLE
  5
30
102
{ACAD_REACTORS
330
2A
102
}
102
{ACAD_XDICTIONARY
360
1FF
102
}
330
2A
100
AcDbVisualStyle
  2
3dWireframe
 70
     5
 71
     0
 72
     2
 73
     0
 90
        0
 40
-0.6
 41
-30.0
 62
     5
 63
     7
 74
     1
 91
        4
 64
     7
 65
   257
 75
     1
175
     1
 42
1.0
 92
        0
 66
   257
 43
1.0
 76
     1
 77
     6
 78
     2
 67
     7
 79
     5
170
     0
171
     0
290
     0
174
     0
 93
        1
 44
0.0
173
     0
291
     0
 45
0.0
1001
ACAD
1000
AcDbSavedByObjectVersion
1070
     0
  0
VISUALSTYLE
  5
32
102
{ACAD_REACTORS
330
2A
102
}
102
{ACAD_XDICTIONARY
360
203
102
}
330
2A
100
AcDbVisualStyle
  2
Basic
 70
     7
 71
     1
 72
     0
 73
     1
 90
        0
 40
-0.6
 41
-30.0
 62
     5
 63
     7
 74
     0
 91
        4
 64
     7
 65
   257
 75
     1
175
     1
 42
1.0
 92
        8
 66
     7
 43
1.0
 76
     1
 77
     6
 78
     2
 67
     7
 79
     5
170
     0
171
     0
290
     0
174
     0
 93
        1
 44
0.0
173
     0
291
     1
 45
0.0
1001
ACAD
1000
AcDbSavedByObjectVersion
1070
     0
  0
VISUALSTYLE
  5
36
102
{ACAD_REACTORS
330
2A
102
}
102
{ACAD_XDICTIONARY
360
20B
102
}
330
2A
100
AcDbVisualStyle
  2
Brighten
 70
    12
 71
     2
 72
     2
 73
     0
 90
        0
 40
-0.6
 41
-30.0
 62
     5
 63
     7
 74
     1
 91
        4
 64
     7
 65
   257
 75
     1
175
     1
 42
1.0
 92
        8
 66
     7
 43
1.0
 76
     1
 77
     6
 78
     2
 67
     7
 79
     5
170
     0
171
     0
290
     0
174
     0
 93
        1
 44
50.0
173
     0
291
     1
 45
0.0
1001
ACAD
1000
AcDbSavedByObjectVersion
1070
     0
  0
VISUALSTYLE
  5
3A
102
{ACAD_REACTORS
330
2A
102
}
102
{ACAD_XDICTIONARY
360
213
102
}
330
2A
100
AcDbVisualStyle
  2
ColorChange
 70
    16
 71
     2
 72
     2
 73
     3
 90
        0
 40
-0.6
 41
-30.0
 62
     5
 63
     8
 74
     1
 91
        4
 64
     7
 65
   257
 75
     1
175
     1
 42
1.0
 92
        8
 66
     8
 43
1.0
 76
     1
 77
     6
 78
     2
 67
     7
 79
     5
170
     0
171
     0
290
     0
174
     0
 93
        1
 44
0.0
173
     0
291
     1
 45
0.0
1001
ACAD
1000
AcDbSavedByObjectVersion
1070
     0
  0
VISUALSTYLE
  5
34
102
{ACAD_REACTORS
330
2A
102
}
102
{ACAD_XDICTIONARY
360
207
102
}
330
2A
100
AcDbVisualStyle
  2
Conceptual
 70
     9
 71
     3
 72
     2
 73
     0
 90
        0
 40
-0.6
 41
-30.0
 62
     5
 63
     7
 74
     2
 91
        2
 64
     7
 65
   257
 75
     1
175
     1
 42
40.0
 92
        8
 66
     7
 43
1.0
 76
     1
 77
     6
 78
     2
 67
     7
 79
     3
170
     0
171
     0
290
     0
174
     0
 93
        1
 44
0.0
173
     0
291
     0
 45
0.0
1001
ACAD
1000
AcDbSavedByObjectVersion
1070
     0
  0
VISUALSTYLE
  5
35
102
{ACAD_REACTORS
330
2A
102
}
102
{ACAD_XDICTIONARY
360
209
102
}
330
2A
100
AcDbVisualStyle
  2
Dim
 70
    11
 71
     2
 72
     2
 73
     0
 90
        0
 40
-0.6
 41
-30.0
 62
     5
 63
     7
 74
     1
 91
        4
 64
     7
 65
   257
 75
     1
175
     1
 42
1.0
 92
        8
 66
     7
 43
1.0
 76
     1
 77
     6
 78
     2
 67
     7
 79
     5
170
     0
171
     0
290
     0
174
     0
 93
        1
 44
-50.0
173
     0
291
     1
 45
0.0
1001
ACAD
1000
AcDbSavedByObjectVersion
1070
     0
  0
VISUALSTYLE
  5
39
102
{ACAD_REACTORS
330
2A
102
}
102
{ACAD_XDICTIONARY
360
211
102
}
330
2A
100
AcDbVisualStyle
  2
Facepattern
 70
    15
 71
     2
 72
     2
 73
     0
 90
        0
 40
-0.6
 41
-30.0
 62
     5
 63
     7
 74
     1
 91
        4
 64
     7
 65
   257
 75
     1
175
     1
 42
1.0
 92
        8
 66
     7
 43
1.0
 76
     1
 77
     6
 78
     2
 67
     7
 79
     5
170
     0
171
     0
290
     0
174
     0
 93
        1
 44
0.0
173
     0
291
     1
 45
0.0
1001
ACAD
1000
AcDbSavedByObjectVersion
1070
     0
  0
VISUALSTYLE
  5
2B
102
{ACAD_REACTORS
330
2A
102
}
102
{ACAD_XDICTIONARY
360
1F5
102
}
330
2A
100
AcDbVisualStyle
  2
Flat
 70
     0
 71
     2
 72
     1
 73
     1
 90
        2
 40
-0.6
 41
30.0
 62
     5
 63
     7
 74
     0
 91
        4
 64
     7
 65
   257
 75
     1
175
     1
 42
1.0
 92
        8
 66
     7
 43
1.0
 76
     1
 77
     6
 78
     2
 67
     7
 79
     5
170
     0
171
     0
290
     0
174
     0
 93
       13
 44
0.0
173
     0
291
     1
 45
0.0
1001
ACAD
1000
AcDbSavedByObjectVersion
1070
     0
  0
VISUALSTYLE
  5
2C
102
{ACAD_REACTORS
330
2A
102
}
102
{ACAD_XDICTIONARY
360
1F7
102
}
330
2A
100
AcDbVisualStyle
  2
FlatWithEdges
 70
     1
 71
     2
 72
     1
 73
     1
 90
        2
 40
-0.6
 41
30.0
 62
     5
 63
     7
 74
     1
 91
        4
 64
     7
 65
   257
 75
     1
175
     1
 42
1.0
 92
        0
 66
   257
 43
1.0
 76
     1
 77
     6
 78
     2
 67
     7
 79
     5
170
     0
171
     0
290
     0
174
     0
 93
       13
 44
0.0
173
     0
291
     1
 45
0.0
1001
ACAD
1000
AcDbSavedByObjectVersion
1070
     0
  0
VISUALSTYLE
  5
2D
102
{ACAD_REACTORS
330
2A
102
}
102
{ACAD_XDICTIONARY
360
1F9
102
}
330
2A
100
AcDbVisualStyle
  2
Gouraud
 70
     2
 71
     2
 72
     2
 73
     1
 90
        2
 40
-0.6
 41
30.0
 62
     5
 63
     7
 74
     0
 91
        4
 64
     7
 65
   257
 75
     1
175
     1
 42
1.0
 92
        0
 66
     7
 43
1.0
 76
     1
 77
     6
 78
     2
 67
     7
 79
     5
170
     0
171
     0
290
     0
174
     0
 93
       13
 44
0.0
173
     0
291
     1
 45
0.0
1001
ACAD
1000
AcDbSavedByObjectVersion
1070
     0
  0
VISUALSTYLE
  5
2E
102
{ACAD_REACTORS
330
2A
102
}
102
{ACAD_XDICTIONARY
360
1FB
102
}
330
2A
100
AcDbVisualStyle
  2
GouraudWithEdges
 70
     3
 71
     2
 72
     2
 73
     1
 90
        2
 40
-0.6
 41
30.0
 62
     5
 63
     7
 74
     1
 91
        4
 64
     7
 65
   257
 75
     1
175
     1
 42
1.0
 92
        0
 66
   257
 43
1.0
 76
     1
 77
     6
 78
     2
 67
     7
 79
     5
170
     0
171
     0
290
     0
174
     0
 93
       13
 44
0.0
173
     0
291
     1
 45
0.0
1001
ACAD
1000
AcDbSavedByObjectVersion
1070
     0
  0
VISUALSTYLE
  5
38
102
{ACAD_REACTORS
330
2A
102
}
102
{ACAD_XDICTIONARY
360
20F
102
}
330
2A
100
AcDbVisualStyle
  2
Linepattern
 70
    14
 71
     2
 72
     2
 73
     0
 90
        0
 40
-0.6
 41
-30.0
 62
     5
 63
     7
 74
     1
 91
        4
 64
     7
 65
   257
 75
     7
175
     7
 42
1.0
 92
        8
 66
     7
 43
1.0
 76
     1
 77
     6
 78
     2
 67
     7
 79
     5
170
     0
171
     0
290
     0
174
     0
 93
        1
 44
0.0
173
     0
291
     1
 45
0.0
1001
ACAD
1000
AcDbSavedByObjectVersion
1070
     0
  0
VISUALSTYLE
  5
33
102
{ACAD_REACTORS
330
2A
102
}
102
{ACAD_XDICTIONARY
360
205
102
}
330
2A
100
AcDbVisualStyle
  2
Realistic
 70
     8
 71
     2
 72
     2
 73
     0
 90
        0
 40
-0.6
 41
-30.0
 62
     5
 63
     7
 74
     1
 91
        0
 64
     7
 65
   257
 75
     1
175
     1
 42
1.0
 92
        8
 66
     8
 43
1.0
 76
     1
 77
     6
 78
     2
 67
     7
 79
     5
170
     0
171
     0
290
     0
174
     0
 93
       13
 44
0.0
173
     0
291
     0
 45
0.0
1001
ACAD
1000
AcDbSavedByObjectVersion
1070
     0
  0
VISUALSTYLE
  5
37
102
{ACAD_REACTORS
330
2A
102
}
102
{ACAD_XDICTIONARY
360
20D
102
}
330
2A
100
AcDbVisualStyle
  2
Thicken
 70
    13
 71
     2
 72
     2
 73
     0
 90
        0
 40
-0.6
 41
-30.0
 62
     5
 63
     7
 74
     1
 91
        4
 64
     7
 65
   257
 75
     1
175
     1
 42
1.0
 92
       12
 66
     7
 43
1.0
 76
     1
 77
     6
 78
     2
 67
     7
 79
     5
170
     0
171
     0
290
     0
174
     0
 93
        1
 44
0.0
173
     0
291
     1
 45
0.0
1001
ACAD
1000
AcDbSavedByObjectVersion
1070
     0
  0
DICTIONARYVAR
  5
1F3
102
{ACAD_REACTORS
330
1EE
102
}
330
1EE
100
DictionaryVariables
280
     0
  1
2
  0
DICTIONARYVAR
  5
1F4
102
{ACAD_REACTORS
330
1EE
102
}
330
1EE
100
DictionaryVariables
280
     0
  1
1
  0
DICTIONARYVAR
  5
1F2
102
{ACAD_REACTORS
330
1EE
102
}
330
1EE
100
DictionaryVariables
280
     0
  1
80.000000
  0
DICTIONARYVAR
  5
1F1
102
{ACAD_REACTORS
330
1EE
102
}
330
1EE
100
DictionaryVariables
280
     0
  1
5.000000
  0
DICTIONARY
  5
217
330
3D
100
AcDbDictionary
280
     1
281
     1
  3
ACAD_XREC_ROUNDTRIP
360
218
  0
DICTIONARY
  5
215
330
3C
100
AcDbDictionary
280
     1
281
     1
  3
ACAD_XREC_ROUNDTRIP
360
216
  0
DICTIONARY
  5
219
330
3E
100
AcDbDictionary
280
     1
281
     1
  3
ACAD_XREC_ROUNDTRIP
360
21A
  0
DICTIONARY
  5
1FD
330
2F
100
AcDbDictionary
280
     1
281
     1
  3
ACAD_XREC_ROUNDTRIP
360
1FE
  0
DICTIONARY
  5
201
330
31
100
AcDbDictionary
280
     1
281
     1
  3
ACAD_XREC_ROUNDTRIP
360
202
  0
DICTIONARY
  5
1FF
330
30
100
AcDbDictionary
280
     1
281
     1
  3
ACAD_XREC_ROUNDTRIP
360
200
  0
DICTIONARY
  5
203
330
32
100
AcDbDictionary
280
     1
281
     1
  3
ACAD_XREC_ROUNDTRIP
360
204
  0
DICTIONARY
  5
20B
330
36
100
AcDbDictionary
280
     1
281
     1
  3
ACAD_XREC_ROUNDTRIP
360
20C
  0
DICTIONARY
  5
213
330
3A
100
AcDbDictionary
280
     1
281
     1
  3
ACAD_XREC_ROUNDTRIP
360
214
  0
DICTIONARY
  5
207
330
34
100
AcDbDictionary
280
     1
281
     1
  3
ACAD_XREC_ROUNDTRIP
360
208
  0
DICTIONARY
  5
209
330
35
100
AcDbDictionary
280
     1
281
     1
  3
ACAD_XREC_ROUNDTRIP
360
20A
  0
DICTIONARY
  5
211
330
39
100
AcDbDictionary
280
     1
281
     1
  3
ACAD_XREC_ROUNDTRIP
360
212
  0
DICTIONARY
  5
1F5
330
2B
100
AcDbDictionary
280
     1
281
     1
  3
ACAD_XREC_ROUNDTRIP
360
1F6
  0
DICTIONARY
  5
1F7
330
2C
100
AcDbDictionary
280
     1
281
     1
  3
ACAD_XREC_ROUNDTRIP
360
1F8
  0
DICTIONARY
  5
1F9
330
2D
100
AcDbDictionary
280
     1
281
     1
  3
ACAD_XREC_ROUNDTRIP
360
1FA
  0
DICTIONARY
  5
1FB
330
2E
100
AcDbDictionary
280
     1
281
     1
  3
ACAD_XREC_ROUNDTRIP
360
1FC
  0
DICTIONARY
  5
20F
330
38
100
AcDbDictionary
280
     1
281
     1
  3
ACAD_XREC_ROUNDTRIP
360
210
  0
DICTIONARY
  5
205
330
33
100
AcDbDictionary
280
     1
281
     1
  3
ACAD_XREC_ROUNDTRIP
360
206
  0
DICTIONARY
  5
20D
330
37
100
AcDbDictionary
280
     1
281
     1
  3
ACAD_XREC_ROUNDTRIP
360
20E
  0
XRECORD
  5
218
102
{ACAD_REACTORS
330
217
102
}
330
217
100
AcDbXrecord
280
     1
102
MATERIAL
148
0.0
149
0.0
149
0.0
 93
        0
 94
      127
282
     0
 72
     1
 77
     1
171
     1
175
     1
179
     1
273
     0
  0
XRECORD
  5
216
102
{ACAD_REACTORS
330
215
102
}
330
215
100
AcDbXrecord
280
     1
102
MATERIAL
148
0.0
149
0.0
149
0.0
 93
        0
 94
      127
282
     0
 72
     1
 77
     1
171
     1
175
     1
179
     1
273
     0
  0
XRECORD
  5
21A
102
{ACAD_REACTORS
330
219
102
}
330
219
100
AcDbXrecord
280
     1
102
MATERIAL
148
0.0
149
0.0
149
0.0
 93
        0
 94
      127
282
     0
 72
     1
 77
     1
171
     1
175
     1
179
     1
273
     0
  0
XRECORD
  5
1FE
102
{ACAD_REACTORS
330
1FD
102
}
330
1FD
100
AcDbXrecord
280
     1
102
RTVSPropertyOp0
 70
     1
102
RTVSPropertyOp1
 70
     1
102
RTVSPropertyOp2
 70
     1
102
RTVSPropertyOp3
 70
     1
102
RTVSPropertyOp4
 70
     1
102
RTVSPropertyOp5
 70
     1
102
RTVSPropertyOp6
 70
     1
102
RTVSPropertyOp7
 70
     1
102
RTVSPropertyOp8
 70
     1
102
RTVSPropertyOp9
 70
     1
102
RTVSPropertyOp10
 70
     1
102
RTVSPropertyOp11
 70
     1
102
RTVSPropertyOp12
 70
     1
102
RTVSPropertyOp13
 70
     1
102
RTVSPropertyOp14
 70
     1
102
RTVSPropertyOp15
 70
     1
102
RTVSPropertyOp16
 70
     1
102
RTVSPropertyOp17
 70
     1
102
RTVSPropertyOp18
 70
     1
102
RTVSPropertyOp19
 70
     1
102
RTVSPropertyOp20
 70
     1
102
RTVSPropertyOp21
 70
     1
102
RTVSPropertyOp22
 70
     1
102
RTVSPropertyOp23
 70
     1
102
RTVSPropertyOp24
 70
     1
102
RTVSPropertyOp25
 70
     1
102
RTVSPropertyOp26
 70
     1
102
RTVSPropertyOp27
 70
     1
102
RTVSPropertyOp28
 70
     1
102
RTVSPropertyOp29
 70
     1
102
RTVSPropertyOp30
 70
     1
102
RTVSPropertyOp31
 70
     1
102
RTVSPropertyOp32
 70
     1
  0
XRECORD
  5
202
102
{ACAD_REACTORS
330
201
102
}
330
201
100
AcDbXrecord
280
     1
102
RTVSPropertyOp0
 70
     1
102
RTVSPropertyOp1
 70
     1
102
RTVSPropertyOp2
 70
     1
102
RTVSPropertyOp3
 70
     1
102
RTVSPropertyOp4
 70
     1
102
RTVSPropertyOp5
 70
     1
102
RTVSPropertyOp6
 70
     1
102
RTVSPropertyOp7
 70
     1
102
RTVSPropertyOp8
 70
     1
102
RTVSPropertyOp9
 70
     1
102
RTVSPropertyOp10
 70
     1
102
RTVSPropertyOp11
 70
     1
102
RTVSPropertyOp12
 70
     1
102
RTVSPropertyOp13
 70
     1
102
RTVSPropertyOp14
 70
     1
102
RTVSPropertyOp15
 70
     1
102
RTVSPropertyOp16
 70
     1
102
RTVSPropertyOp17
 70
     1
102
RTVSPropertyOp18
 70
     1
102
RTVSPropertyOp19
 70
     1
102
RTVSPropertyOp20
 70
     1
102
RTVSPropertyOp21
 70
     1
102
RTVSPropertyOp22
 70
     1
102
RTVSPropertyOp23
 70
     1
102
RTVSPropertyOp24
 70
     1
102
RTVSPropertyOp25
 70
     1
102
RTVSPropertyOp26
 70
     1
102
RTVSPropertyOp27
 70
     1
102
RTVSPropertyOp28
 70
     1
102
RTVSPropertyOp29
 70
     1
102
RTVSPropertyOp30
 70
     1
102
RTVSPropertyOp31
 70
     1
102
RTVSPropertyOp32
 70
     1
  0
XRECORD
  5
200
102
{ACAD_REACTORS
330
1FF
102
}
330
1FF
100
AcDbXrecord
280
     1
102
RTVSPropertyOp0
 70
     1
102
RTVSPropertyOp1
 70
     1
102
RTVSPropertyOp2
 70
     1
102
RTVSPropertyOp3
 70
     1
102
RTVSPropertyOp4
 70
     1
102
RTVSPropertyOp5
 70
     1
102
RTVSPropertyOp6
 70
     1
102
RTVSPropertyOp7
 70
     1
102
RTVSPropertyOp8
 70
     1
102
RTVSPropertyOp9
 70
     1
102
RTVSPropertyOp10
 70
     1
102
RTVSPropertyOp11
 70
     1
102
RTVSPropertyOp12
 70
     1
102
RTVSPropertyOp13
 70
     1
102
RTVSPropertyOp14
 70
     1
102
RTVSPropertyOp15
 70
     1
102
RTVSPropertyOp16
 70
     1
102
RTVSPropertyOp17
 70
     1
102
RTVSPropertyOp18
 70
     1
102
RTVSPropertyOp19
 70
     1
102
RTVSPropertyOp20
 70
     1
102
RTVSPropertyOp21
 70
     1
102
RTVSPropertyOp22
 70
     1
102
RTVSPropertyOp23
 70
     1
102
RTVSPropertyOp24
 70
     1
102
RTVSPropertyOp25
 70
     1
102
RTVSPropertyOp26
 70
     1
102
RTVSPropertyOp27
 70
     1
102
RTVSPropertyOp28
 70
     1
102
RTVSPropertyOp29
 70
     1
102
RTVSPropertyOp30
 70
     1
102
RTVSPropertyOp31
 70
     1
102
RTVSPropertyOp32
 70
     1
  0
XRECORD
  5
204
102
{ACAD_REACTORS
330
203
102
}
330
203
100
AcDbXrecord
280
     1
102
RTVSPropertyOp0
 70
     1
102
RTVSPropertyOp1
 70
     1
102
RTVSPropertyOp2
 70
     1
102
RTVSPropertyOp3
 70
     1
102
RTVSPropertyOp4
 70
     1
102
RTVSPropertyOp5
 70
     1
102
RTVSPropertyOp6
 70
     1
102
RTVSPropertyOp7
 70
     1
102
RTVSPropertyOp8
 70
     1
102
RTVSPropertyOp9
 70
     1
102
RTVSPropertyOp10
 70
     1
102
RTVSPropertyOp11
 70
     1
102
RTVSPropertyOp12
 70
     1
102
RTVSPropertyOp13
 70
     1
102
RTVSPropertyOp14
 70
     1
102
RTVSPropertyOp15
 70
     1
102
RTVSPropertyOp16
 70
     1
102
RTVSPropertyOp17
 70
     1
102
RTVSPropertyOp18
 70
     1
102
RTVSPropertyOp19
 70
     1
102
RTVSPropertyOp20
 70
     1
102
RTVSPropertyOp21
 70
     1
102
RTVSPropertyOp22
 70
     1
102
RTVSPropertyOp23
 70
     1
102
RTVSPropertyOp24
 70
     1
102
RTVSPropertyOp25
 70
     1
102
RTVSPropertyOp26
 70
     1
102
RTVSPropertyOp27
 70
     1
102
RTVSPropertyOp28
 70
     1
102
RTVSPropertyOp29
 70
     1
102
RTVSPropertyOp30
 70
     1
102
RTVSPropertyOp31
 70
     1
102
RTVSPropertyOp32
 70
     1
  0
XRECORD
  5
20C
102
{ACAD_REACTORS
330
20B
102
}
330
20B
100
AcDbXrecord
280
     1
102
RTVSPropertyOp0
 70
     1
102
RTVSPropertyOp1
 70
     1
102
RTVSPropertyOp2
 70
     1
102
RTVSPropertyOp3
 70
     1
102
RTVSPropertyOp4
 70
     1
102
RTVSPropertyOp5
 70
     1
102
RTVSPropertyOp6
 70
     1
102
RTVSPropertyOp7
 70
     1
102
RTVSPropertyOp8
 70
     1
102
RTVSPropertyOp9
 70
     1
102
RTVSPropertyOp10
 70
     1
102
RTVSPropertyOp11
 70
     1
102
RTVSPropertyOp12
 70
     1
102
RTVSPropertyOp13
 70
     1
102
RTVSPropertyOp14
 70
     1
102
RTVSPropertyOp15
 70
     1
102
RTVSPropertyOp16
 70
     1
102
RTVSPropertyOp17
 70
     1
102
RTVSPropertyOp18
 70
     1
102
RTVSPropertyOp19
 70
     1
102
RTVSPropertyOp20
 70
     1
102
RTVSPropertyOp21
 70
     1
102
RTVSPropertyOp22
 70
     1
102
RTVSPropertyOp23
 70
     1
102
RTVSPropertyOp24
 70
     1
102
RTVSPropertyOp25
 70
     1
102
RTVSPropertyOp26
 70
     1
102
RTVSPropertyOp27
 70
     1
102
RTVSPropertyOp28
 70
     1
102
RTVSPropertyOp29
 70
     1
102
RTVSPropertyOp30
 70
     1
102
RTVSPropertyOp31
 70
     1
102
RTVSPropertyOp32
 70
     1
  0
XRECORD
  5
214
102
{ACAD_REACTORS
330
213
102
}
330
213
100
AcDbXrecord
280
     1
102
RTVSPropertyOp0
 70
     1
102
RTVSPropertyOp1
 70
     1
102
RTVSPropertyOp2
 70
     1
102
RTVSPropertyOp3
 70
     1
102
RTVSPropertyOp4
 70
     1
102
RTVSPropertyOp5
 70
     1
102
RTVSPropertyOp6
 70
     1
102
RTVSPropertyOp7
 70
     1
102
RTVSPropertyOp8
 70
     1
102
RTVSPropertyOp9
 70
     1
102
RTVSPropertyOp10
 70
     1
102
RTVSPropertyOp11
 70
     1
102
RTVSPropertyOp12
 70
     1
102
RTVSPropertyOp13
 70
     1
102
RTVSPropertyOp14
 70
     1
102
RTVSPropertyOp15
 70
     1
102
RTVSPropertyOp16
 70
     1
102
RTVSPropertyOp17
 70
     1
102
RTVSPropertyOp18
 70
     1
102
RTVSPropertyOp19
 70
     1
102
RTVSPropertyOp20
 70
     1
102
RTVSPropertyOp21
 70
     1
102
RTVSPropertyOp22
 70
     1
102
RTVSPropertyOp23
 70
     1
102
RTVSPropertyOp24
 70
     1
102
RTVSPropertyOp25
 70
     1
102
RTVSPropertyOp26
 70
     1
102
RTVSPropertyOp27
 70
     1
102
RTVSPropertyOp28
 70
     1
102
RTVSPropertyOp29
 70
     1
102
RTVSPropertyOp30
 70
     1
102
RTVSPropertyOp31
 70
     1
102
RTVSPropertyOp32
 70
     1
  0
XRECORD
  5
208
102
{ACAD_REACTORS
330
207
102
}
330
207
100
AcDbXrecord
280
     1
102
RTVSPropertyOp0
 70
     1
102
RTVSPropertyOp1
 70
     1
102
RTVSPropertyOp2
 70
     1
102
RTVSPropertyOp3
 70
     1
102
RTVSPropertyOp4
 70
     1
102
RTVSPropertyOp5
 70
     1
102
RTVSPropertyOp6
 70
     1
102
RTVSPropertyOp7
 70
     1
102
RTVSPropertyOp8
 70
     1
102
RTVSPropertyOp9
 70
     1
102
RTVSPropertyOp10
 70
     1
102
RTVSPropertyOp11
 70
     1
102
RTVSPropertyOp12
 70
     1
102
RTVSPropertyOp13
 70
     1
102
RTVSPropertyOp14
 70
     1
102
RTVSPropertyOp15
 70
     1
102
RTVSPropertyOp16
 70
     1
102
RTVSPropertyOp17
 70
     1
102
RTVSPropertyOp18
 70
     1
102
RTVSPropertyOp19
 70
     1
102
RTVSPropertyOp20
 70
     1
102
RTVSPropertyOp21
 70
     1
102
RTVSPropertyOp22
 70
     1
102
RTVSPropertyOp23
 70
     1
102
RTVSPropertyOp24
 70
     1
102
RTVSPropertyOp25
 70
     1
102
RTVSPropertyOp26
 70
     1
102
RTVSPropertyOp27
 70
     1
102
RTVSPropertyOp28
 70
     1
102
RTVSPropertyOp29
 70
     1
102
RTVSPropertyOp30
 70
     1
102
RTVSPropertyOp31
 70
     1
102
RTVSPropertyOp32
 70
     1
  0
XRECORD
  5
20A
102
{ACAD_REACTORS
330
209
102
}
330
209
100
AcDbXrecord
280
     1
102
RTVSPropertyOp0
 70
     1
102
RTVSPropertyOp1
 70
     1
102
RTVSPropertyOp2
 70
     1
102
RTVSPropertyOp3
 70
     1
102
RTVSPropertyOp4
 70
     1
102
RTVSPropertyOp5
 70
     1
102
RTVSPropertyOp6
 70
     1
102
RTVSPropertyOp7
 70
     1
102
RTVSPropertyOp8
 70
     1
102
RTVSPropertyOp9
 70
     1
102
RTVSPropertyOp10
 70
     1
102
RTVSPropertyOp11
 70
     1
102
RTVSPropertyOp12
 70
     1
102
RTVSPropertyOp13
 70
     1
102
RTVSPropertyOp14
 70
     1
102
RTVSPropertyOp15
 70
     1
102
RTVSPropertyOp16
 70
     1
102
RTVSPropertyOp17
 70
     1
102
RTVSPropertyOp18
 70
     1
102
RTVSPropertyOp19
 70
     1
102
RTVSPropertyOp20
 70
     1
102
RTVSPropertyOp21
 70
     1
102
RTVSPropertyOp22
 70
     1
102
RTVSPropertyOp23
 70
     1
102
RTVSPropertyOp24
 70
     1
102
RTVSPropertyOp25
 70
     1
102
RTVSPropertyOp26
 70
     1
102
RTVSPropertyOp27
 70
     1
102
RTVSPropertyOp28
 70
     1
102
RTVSPropertyOp29
 70
     1
102
RTVSPropertyOp30
 70
     1
102
RTVSPropertyOp31
 70
     1
102
RTVSPropertyOp32
 70
     1
  0
XRECORD
  5
212
102
{ACAD_REACTORS
330
211
102
}
330
211
100
AcDbXrecord
280
     1
102
RTVSPropertyOp0
 70
     1
102
RTVSPropertyOp1
 70
     1
102
RTVSPropertyOp2
 70
     1
102
RTVSPropertyOp3
 70
     1
102
RTVSPropertyOp4
 70
     1
102
RTVSPropertyOp5
 70
     1
102
RTVSPropertyOp6
 70
     1
102
RTVSPropertyOp7
 70
     1
102
RTVSPropertyOp8
 70
     1
102
RTVSPropertyOp9
 70
     1
102
RTVSPropertyOp10
 70
     1
102
RTVSPropertyOp11
 70
     1
102
RTVSPropertyOp12
 70
     1
102
RTVSPropertyOp13
 70
     1
102
RTVSPropertyOp14
 70
     1
102
RTVSPropertyOp15
 70
     1
102
RTVSPropertyOp16
 70
     1
102
RTVSPropertyOp17
 70
     1
102
RTVSPropertyOp18
 70
     1
102
RTVSPropertyOp19
 70
     1
102
RTVSPropertyOp20
 70
     1
102
RTVSPropertyOp21
 70
     1
102
RTVSPropertyOp22
 70
     1
102
RTVSPropertyOp23
 70
     1
102
RTVSPropertyOp24
 70
     1
102
RTVSPropertyOp25
 70
     1
102
RTVSPropertyOp26
 70
     1
102
RTVSPropertyOp27
 70
     1
102
RTVSPropertyOp28
 70
     1
102
RTVSPropertyOp29
 70
     1
102
RTVSPropertyOp30
 70
     1
102
RTVSPropertyOp31
 70
     1
102
RTVSPropertyOp32
 70
     1
  0
XRECORD
  5
1F6
102
{ACAD_REACTORS
330
1F5
102
}
330
1F5
100
AcDbXrecord
280
     1
102
RTVSPropertyOp0
 70
     1
102
RTVSPropertyOp1
 70
     1
102
RTVSPropertyOp2
 70
     1
102
RTVSPropertyOp3
 70
     1
102
RTVSPropertyOp4
 70
     1
102
RTVSPropertyOp5
 70
     1
102
RTVSPropertyOp6
 70
     1
102
RTVSPropertyOp7
 70
     1
102
RTVSPropertyOp8
 70
     1
102
RTVSPropertyOp9
 70
     1
102
RTVSPropertyOp10
 70
     1
102
RTVSPropertyOp11
 70
     1
102
RTVSPropertyOp12
 70
     1
102
RTVSPropertyOp13
 70
     1
102
RTVSPropertyOp14
 70
     1
102
RTVSPropertyOp15
 70
     1
102
RTVSPropertyOp16
 70
     1
102
RTVSPropertyOp17
 70
     1
102
RTVSPropertyOp18
 70
     1
102
RTVSPropertyOp19
 70
     1
102
RTVSPropertyOp20
 70
     1
102
RTVSPropertyOp21
 70
     1
102
RTVSPropertyOp22
 70
     1
102
RTVSPropertyOp23
 70
     1
102
RTVSPropertyOp24
 70
     1
102
RTVSPropertyOp25
 70
     1
102
RTVSPropertyOp26
 70
     1
102
RTVSPropertyOp27
 70
     1
102
RTVSPropertyOp28
 70
     1
102
RTVSPropertyOp29
 70
     1
102
RTVSPropertyOp30
 70
     1
102
RTVSPropertyOp31
 70
     1
102
RTVSPropertyOp32
 70
     1
  0
XRECORD
  5
1F8
102
{ACAD_REACTORS
330
1F7
102
}
330
1F7
100
AcDbXrecord
280
     1
102
RTVSPropertyOp0
 70
     1
102
RTVSPropertyOp1
 70
     1
102
RTVSPropertyOp2
 70
     1
102
RTVSPropertyOp3
 70
     1
102
RTVSPropertyOp4
 70
     1
102
RTVSPropertyOp5
 70
     1
102
RTVSPropertyOp6
 70
     1
102
RTVSPropertyOp7
 70
     1
102
RTVSPropertyOp8
 70
     1
102
RTVSPropertyOp9
 70
     1
102
RTVSPropertyOp10
 70
     1
102
RTVSPropertyOp11
 70
     1
102
RTVSPropertyOp12
 70
     1
102
RTVSPropertyOp13
 70
     1
102
RTVSPropertyOp14
 70
     1
102
RTVSPropertyOp15
 70
     1
102
RTVSPropertyOp16
 70
     1
102
RTVSPropertyOp17
 70
     1
102
RTVSPropertyOp18
 70
     1
102
RTVSPropertyOp19
 70
     1
102
RTVSPropertyOp20
 70
     1
102
RTVSPropertyOp21
 70
     1
102
RTVSPropertyOp22
 70
     1
102
RTVSPropertyOp23
 70
     1
102
RTVSPropertyOp24
 70
     1
102
RTVSPropertyOp25
 70
     1
102
RTVSPropertyOp26
 70
     1
102
RTVSPropertyOp27
 70
     1
102
RTVSPropertyOp28
 70
     1
102
RTVSPropertyOp29
 70
     1
102
RTVSPropertyOp30
 70
     1
102
RTVSPropertyOp31
 70
     1
102
RTVSPropertyOp32
 70
     1
  0
XRECORD
  5
1FA
102
{ACAD_REACTORS
330
1F9
102
}
330
1F9
100
AcDbXrecord
280
     1
102
RTVSPropertyOp0
 70
     1
102
RTVSPropertyOp1
 70
     1
102
RTVSPropertyOp2
 70
     1
102
RTVSPropertyOp3
 70
     1
102
RTVSPropertyOp4
 70
     1
102
RTVSPropertyOp5
 70
     1
102
RTVSPropertyOp6
 70
     1
102
RTVSPropertyOp7
 70
     1
102
RTVSPropertyOp8
 70
     1
102
RTVSPropertyOp9
 70
     1
102
RTVSPropertyOp10
 70
     1
102
RTVSPropertyOp11
 70
     1
102
RTVSPropertyOp12
 70
     1
102
RTVSPropertyOp13
 70
     1
102
RTVSPropertyOp14
 70
     1
102
RTVSPropertyOp15
 70
     1
102
RTVSPropertyOp16
 70
     1
102
RTVSPropertyOp17
 70
     1
102
RTVSPropertyOp18
 70
     1
102
RTVSPropertyOp19
 70
     1
102
RTVSPropertyOp20
 70
     1
102
RTVSPropertyOp21
 70
     1
102
RTVSPropertyOp22
 70
     1
102
RTVSPropertyOp23
 70
     1
102
RTVSPropertyOp24
 70
     1
102
RTVSPropertyOp25
 70
     1
102
RTVSPropertyOp26
 70
     1
102
RTVSPropertyOp27
 70
     1
102
RTVSPropertyOp28
 70
     1
102
RTVSPropertyOp29
 70
     1
102
RTVSPropertyOp30
 70
     1
102
RTVSPropertyOp31
 70
     1
102
RTVSPropertyOp32
 70
     1
  0
XRECORD
  5
1FC
102
{ACAD_REACTORS
330
1FB
102
}
330
1FB
100
AcDbXrecord
280
     1
102
RTVSPropertyOp0
 70
     1
102
RTVSPropertyOp1
 70
     1
102
RTVSPropertyOp2
 70
     1
102
RTVSPropertyOp3
 70
     1
102
RTVSPropertyOp4
 70
     1
102
RTVSPropertyOp5
 70
     1
102
RTVSPropertyOp6
 70
     1
102
RTVSPropertyOp7
 70
     1
102
RTVSPropertyOp8
 70
     1
102
RTVSPropertyOp9
 70
     1
102
RTVSPropertyOp10
 70
     1
102
RTVSPropertyOp11
 70
     1
102
RTVSPropertyOp12
 70
     1
102
RTVSPropertyOp13
 70
     1
102
RTVSPropertyOp14
 70
     1
102
RTVSPropertyOp15
 70
     1
102
RTVSPropertyOp16
 70
     1
102
RTVSPropertyOp17
 70
     1
102
RTVSPropertyOp18
 70
     1
102
RTVSPropertyOp19
 70
     1
102
RTVSPropertyOp20
 70
     1
102
RTVSPropertyOp21
 70
     1
102
RTVSPropertyOp22
 70
     1
102
RTVSPropertyOp23
 70
     1
102
RTVSPropertyOp24
 70
     1
102
RTVSPropertyOp25
 70
     1
102
RTVSPropertyOp26
 70
     1
102
RTVSPropertyOp27
 70
     1
102
RTVSPropertyOp28
 70
     1
102
RTVSPropertyOp29
 70
     1
102
RTVSPropertyOp30
 70
     1
102
RTVSPropertyOp31
 70
     1
102
RTVSPropertyOp32
 70
     1
  0
XRECORD
  5
210
102
{ACAD_REACTORS
330
20F
102
}
330
20F
100
AcDbXrecord
280
     1
102
RTVSPropertyOp0
 70
     1
102
RTVSPropertyOp1
 70
     1
102
RTVSPropertyOp2
 70
     1
102
RTVSPropertyOp3
 70
     1
102
RTVSPropertyOp4
 70
     1
102
RTVSPropertyOp5
 70
     1
102
RTVSPropertyOp6
 70
     1
102
RTVSPropertyOp7
 70
     1
102
RTVSPropertyOp8
 70
     1
102
RTVSPropertyOp9
 70
     1
102
RTVSPropertyOp10
 70
     1
102
RTVSPropertyOp11
 70
     1
102
RTVSPropertyOp12
 70
     1
102
RTVSPropertyOp13
 70
     1
102
RTVSPropertyOp14
 70
     1
102
RTVSPropertyOp15
 70
     1
102
RTVSPropertyOp16
 70
     1
102
RTVSPropertyOp17
 70
     1
102
RTVSPropertyOp18
 70
     1
102
RTVSPropertyOp19
 70
     1
102
RTVSPropertyOp20
 70
     1
102
RTVSPropertyOp21
 70
     1
102
RTVSPropertyOp22
 70
     1
102
RTVSPropertyOp23
 70
     1
102
RTVSPropertyOp24
 70
     1
102
RTVSPropertyOp25
 70
     1
102
RTVSPropertyOp26
 70
     1
102
RTVSPropertyOp27
 70
     1
102
RTVSPropertyOp28
 70
     1
102
RTVSPropertyOp29
 70
     1
102
RTVSPropertyOp30
 70
     1
102
RTVSPropertyOp31
 70
     1
102
RTVSPropertyOp32
 70
     1
  0
XRECORD
  5
206
102
{ACAD_REACTORS
330
205
102
}
330
205
100
AcDbXrecord
280
     1
102
RTVSPropertyOp0
 70
     1
102
RTVSPropertyOp1
 70
     1
102
RTVSPropertyOp2
 70
     1
102
RTVSPropertyOp3
 70
     1
102
RTVSPropertyOp4
 70
     1
102
RTVSPropertyOp5
 70
     1
102
RTVSPropertyOp6
 70
     1
102
RTVSPropertyOp7
 70
     1
102
RTVSPropertyOp8
 70
     1
102
RTVSPropertyOp9
 70
     1
102
RTVSPropertyOp10
 70
     1
102
RTVSPropertyOp11
 70
     1
102
RTVSPropertyOp12
 70
     1
102
RTVSPropertyOp13
 70
     1
102
RTVSPropertyOp14
 70
     1
102
RTVSPropertyOp15
 70
     1
102
RTVSPropertyOp16
 70
     1
102
RTVSPropertyOp17
 70
     1
102
RTVSPropertyOp18
 70
     1
102
RTVSPropertyOp19
 70
     1
102
RTVSPropertyOp20
 70
     1
102
RTVSPropertyOp21
 70
     1
102
RTVSPropertyOp22
 70
     1
102
RTVSPropertyOp23
 70
     1
102
RTVSPropertyOp24
 70
     1
102
RTVSPropertyOp25
 70
     1
102
RTVSPropertyOp26
 70
     1
102
RTVSPropertyOp27
 70
     1
102
RTVSPropertyOp28
 70
     1
102
RTVSPropertyOp29
 70
     1
102
RTVSPropertyOp30
 70
     1
102
RTVSPropertyOp31
 70
     1
102
RTVSPropertyOp32
 70
     1
  0
XRECORD
  5
20E
102
{ACAD_REACTORS
330
20D
102
}
330
20D
100
AcDbXrecord
280
     1
102
RTVSPropertyOp0
 70
     1
102
RTVSPropertyOp1
 70
     1
102
RTVSPropertyOp2
 70
     1
102
RTVSPropertyOp3
 70
     1
102
RTVSPropertyOp4
 70
     1
102
RTVSPropertyOp5
 70
     1
102
RTVSPropertyOp6
 70
     1
102
RTVSPropertyOp7
 70
     1
102
RTVSPropertyOp8
 70
     1
102
RTVSPropertyOp9
 70
     1
102
RTVSPropertyOp10
 70
     1
102
RTVSPropertyOp11
 70
     1
102
RTVSPropertyOp12
 70
     1
102
RTVSPropertyOp13
 70
     1
102
RTVSPropertyOp14
 70
     1
102
RTVSPropertyOp15
 70
     1
102
RTVSPropertyOp16
 70
     1
102
RTVSPropertyOp17
 70
     1
102
RTVSPropertyOp18
 70
     1
102
RTVSPropertyOp19
 70
     1
102
RTVSPropertyOp20
 70
     1
102
RTVSPropertyOp21
 70
     1
102
RTVSPropertyOp22
 70
     1
102
RTVSPropertyOp23
 70
     1
102
RTVSPropertyOp24
 70
     1
102
RTVSPropertyOp25
 70
     1
102
RTVSPropertyOp26
 70
     1
102
RTVSPropertyOp27
 70
     1
102
RTVSPropertyOp28
 70
     1
102
RTVSPropertyOp29
 70
     1
102
RTVSPropertyOp30
 70
     1
102
RTVSPropertyOp31
 70
     1
102
RTVSPropertyOp32
 70
     1
  0
ENDSEC
  0
EOF
