  0
SECTION
  2
HEADER
  9
$ACADVER
  1
AC1015
  9
$ACADMAINTVER
 70
     6
  9
$DWGCODEPAGE
  3
ANSI_1252
  9
$INSBASE
 10
0.0
 20
0.0
 30
0.0
  9
$EXTMIN
 10
0.0
 20
0.0
 30
0.0
  9
$EXTMAX
 10
210.0
 20
297.0
 30
0.0
  9
$LIMMIN
 10
0.0
 20
0.0
  9
$LIMMAX
 10
210.0
 20
297.0
  9
$ORTHOMODE
 70
     0
  9
$REGENMODE
 70
     1
  9
$FILLMODE
 70
     1
  9
$QTEXTMODE
 70
     0
  9
$MIRRTEXT
 70
     1
  9
$LTSCALE
 40
1.0
  9
$ATTMODE
 70
     1
  9
$TEXTSIZE
 40
2.5
  9
$TRACEWID
 40
1.0
  9
$TEXTSTYLE
  7
Standard
  9
$CLAYER
  8
0
  9
$CELTYPE
  6
ByLayer
  9
$CECOLOR
 62
   256
  9
$CELTSCALE
 40
1.0
  9
$DISPSILH
 70
     0
  9
$DIMSCALE
 40
1.0
  9
$DIMASZ
 40
2.5
  9
$DIMEXO
 40
0.625
  9
$DIMDLI
 40
3.75
  9
$DIMRND
 40
0.0
  9
$DIMDLE
 40
0.0
  9
$DIMEXE
 40
1.25
  9
$DIMTP
 40
0.0
  9
$DIMTM
 40
0.0
  9
$DIMTXT
 40
2.5
  9
$DIMCEN
 40
2.5
  9
$DIMTSZ
 40
0.0
  9
$DIMTOL
 70
     0
  9
$DIMLIM
 70
     0
  9
$DIMTIH
 70
     0
  9
$DIMTOH
 70
     0
  9
$DIMSE1
 70
     0
  9
$DIMSE2
 70
     0
  9
$DIMTAD
 70
     1
  9
$DIMZIN
 70
     8
  9
$DIMBLK
  1

  9
$DIMASO
 70
     1
  9
$DIMSHO
 70
     1
  9
$DIMPOST
  1

  9
$DIMAPOST
  1

  9
$DIMALT
 70
     0
  9
$DIMALTD
 70
     3
  9
$DIMALTF
 40
0.0393700787
  9
$DIMLFAC
 40
1.0
  9
$DIMTOFL
 70
     1
  9
$DIMTVP
 40
0.0
  9
$DIMTIX
 70
     0
  9
$DIMSOXD
 70
     0
  9
$DIMSAH
 70
     0
  9
$DIMBLK1
  1

  9
$DIMBLK2
  1

  9
$DIMSTYLE
  2
ISO-25
  9
$DIMCLRD
 70
     0
  9
$DIMCLRE
 70
     0
  9
$DIMCLRT
 70
     0
  9
$DIMTFAC
 40
1.0
  9
$DIMGAP
 40
0.625
  9
$DIMJUST
 70
     0
  9
$DIMSD1
 70
     0
  9
$DIMSD2
 70
     0
  9
$DIMTOLJ
 70
     0
  9
$DIMTZIN
 70
     8
  9
$DIMALTZ
 70
     0
  9
$DIMALTTZ
 70
     0
  9
$DIMUPT
 70
     0
  9
$DIMDEC
 70
     2
  9
$DIMTDEC
 70
     2
  9
$DIMALTU
 70
     2
  9
$DIMALTTD
 70
     3
  9
$DIMTXSTY
  7
Standard
  9
$DIMAUNIT
 70
     0
  9
$DIMADEC
 70
     0
  9
$DIMALTRND
 40
0.0
  9
$DIMAZIN
 70
     0
  9
$DIMDSEP
 70
    44
  9
$DIMATFIT
 70
     3
  9
$DIMFRAC
 70
     0
  9
$DIMLDRBLK
  1

  9
$DIMLUNIT
 70
     2
  9
$DIMLWD
 70
    -2
  9
$DIMLWE
 70
    -2
  9
$DIMTMOVE
 70
     0
  9
$LUNITS
 70
     2
  9
$LUPREC
 70
     4
  9
$SKETCHINC
 40
1.0
  9
$FILLETRAD
 40
10.0
  9
$AUNITS
 70
     0
  9
$AUPREC
 70
     0
  9
$MENU
  1
.
  9
$ELEVATION
 40
0.0
  9
$PELEVATION
 40
0.0
  9
$THICKNESS
 40
0.0
  9
$LIMCHECK
 70
     0
  9
$CHAMFERA
 40
10.0
  9
$CHAMFERB
 40
10.0
  9
$CHAMFERC
 40
20.0
  9
$CHAMFERD
 40
0.0
  9
$SKPOLY
 70
     0
  9
$TDCREATE
 40
2457569.607990382
  9
$TDUCREATE
 40
2457569.524657049
  9
$TDUPDATE
 40
2457569.60801765
  9
$TDUUPDATE
 40
2457569.524684317
  9
$TDINDWG
 40
0.0000000116
  9
$TDUSRTIMER
 40
0.0000000116
  9
$USRTIMER
 70
     1
  9
$ANGBASE
 50
0.0
  9
$ANGDIR
 70
     0
  9
$PDMODE
 70
     0
  9
$PDSIZE
 40
0.0
  9
$PLINEWID
 40
0.0
  9
$SPLFRAME
 70
     0
  9
$SPLINETYPE
 70
     6
  9
$SPLINESEGS
 70
     8
  9
$HANDSEED
  5
19D
  9
$SURFTAB1
 70
     6
  9
$SURFTAB2
 70
     6
  9
$SURFTYPE
 70
     6
  9
$SURFU
 70
     6
  9
$SURFV
 70
     6
  9
$UCSBASE
  2

  9
$UCSNAME
  2

  9
$UCSORG
 10
0.0
 20
0.0
 30
0.0
  9
$UCSXDIR
 10
1.0
 20
0.0
 30
0.0
  9
$UCSYDIR
 10
0.0
 20
1.0
 30
0.0
  9
$UCSORTHOREF
  2

  9
$UCSORTHOVIEW
 70
     0
  9
$UCSORGTOP
 10
0.0
 20
0.0
 30
0.0
  9
$UCSORGBOTTOM
 10
0.0
 20
0.0
 30
0.0
  9
$UCSORGLEFT
 10
0.0
 20
0.0
 30
0.0
  9
$UCSORGRIGHT
 10
0.0
 20
0.0
 30
0.0
  9
$UCSORGFRONT
 10
0.0
 20
0.0
 30
0.0
  9
$UCSORGBACK
 10
0.0
 20
0.0
 30
0.0
  9
$PUCSBASE
  2

  9
$PUCSNAME
  2

  9
$PUCSORG
 10
0.0
 20
0.0
 30
0.0
  9
$PUCSXDIR
 10
1.0
 20
0.0
 30
0.0
  9
$PUCSYDIR
 10
0.0
 20
1.0
 30
0.0
  9
$PUCSORTHOREF
  2

  9
$PUCSORTHOVIEW
 70
     0
  9
$PUCSORGTOP
 10
0.0
 20
0.0
 30
0.0
  9
$PUCSORGBOTTOM
 10
0.0
 20
0.0
 30
0.0
  9
$PUCSORGLEFT
 10
0.0
 20
0.0
 30
0.0
  9
$PUCSORGRIGHT
 10
0.0
 20
0.0
 30
0.0
  9
$PUCSORGFRONT
 10
0.0
 20
0.0
 30
0.0
  9
$PUCSORGBACK
 10
0.0
 20
0.0
 30
0.0
  9
$USERI1
 70
     0
  9
$USERI2
 70
     0
  9
$USERI3
 70
     0
  9
$USERI4
 70
     0
  9
$USERI5
 70
     0
  9
$USERR1
 40
0.0
  9
$USERR2
 40
0.0
  9
$USERR3
 40
0.0
  9
$USERR4
 40
0.0
  9
$USERR5
 40
0.0
  9
$WORLDVIEW
 70
     1
  9
$SHADEDGE
 70
     3
  9
$SHADEDIF
 70
    70
  9
$TILEMODE
 70
     1
  9
$MAXACTVP
 70
    64
  9
$PINSBASE
 10
0.0
 20
0.0
 30
0.0
  9
$PLIMCHECK
 70
     0
  9
$PEXTMIN
 10
0.0
 20
0.0
 30
0.0
  9
$PEXTMAX
 10
210.0
 20
297.0
 30
0.0
  9
$PLIMMIN
 10
0.0
 20
0.0
  9
$PLIMMAX
 10
210.0
 20
297.0
  9
$UNITMODE
 70
     0
  9
$VISRETAIN
 70
     1
  9
$PLINEGEN
 70
     0
  9
$PSLTSCALE
 70
     1
  9
$TREEDEPTH
 70
  3020
  9
$CMLSTYLE
  2
Standard
  9
$CMLJUST
 70
     0
  9
$CMLSCALE
 40
20.0
  9
$PROXYGRAPHICS
 70
     1
  9
$MEASUREMENT
 70
     1
  9
$CELWEIGHT
370
    -1
  9
$ENDCAPS
280
     0
  9
$JOINSTYLE
280
     0
  9
$LWDISPLAY
290
     0
  9
$INSUNITS
 70
     4
  9
$HYPERLINKBASE
  1

  9
$STYLESHEET
  1

  9
$XEDIT
290
     1
  9
$CEPSNTYPE
380
     0
  9
$PSTYLEMODE
290
     1
  9
$FINGERPRINTGUID
  2
{E636DF54-5475-4E9C-9E91-7E1A80C415FA}
  9
$VERSIONGUID
  2
{FAEB1C32-E019-11D5-929B-00C0DF256EC4}
  9
$EXTNAMES
290
     1
  9
$PSVPSCALE
 40
0.0
  9
$OLESTARTUP
290
     0
  0
ENDSEC
  0
SECTION
  2
CLASSES
  0
CLASS
  1
ACDBDICTIONARYWDFLT
  2
AcDbDictionaryWithDefault
  3
ObjectDBX Classes
 90
        0
280
     0
281
     0
  0
CLASS
  1
VISUALSTYLE
  2
AcDbVisualStyle
  3
ObjectDBX Classes
 90
     4095
280
     0
281
     0
  0
CLASS
  1
MATERIAL
  2
AcDbMaterial
  3
ObjectDBX Classes
 90
     1153
280
     0
281
     0
  0
CLASS
  1
DICTIONARYVAR
  2
AcDbDictionaryVar
  3
ObjectDBX Classes
 90
        0
280
     0
281
     0
  0
CLASS
  1
ACDBPLACEHOLDER
  2
AcDbPlaceHolder
  3
ObjectDBX Classes
 90
        0
280
     0
281
     0
  0
CLASS
  1
LAYOUT
  2
AcDbLayout
  3
ObjectDBX Classes
 90
        0
280
     0
281
     0
  0
ENDSEC
  0
SECTION
  2
TABLES
  0
TABLE
  2
VPORT
  5
8
330
0
100
AcDbSymbolTable
 70
     1
  0
VPORT
  5
29
330
8
100
AcDbSymbolTableRecord
100
AcDbViewportTableRecord
  2
*Active
 70
     0
 10
0.0
 20
0.0
 11
1.0
 21
1.0
 12
344.1869158879
 22
148.5
 13
0.0
 23
0.0
 14
10.0
 24
10.0
 15
10.0
 25
10.0
 16
0.0
 26
0.0
 36
1.0
 17
0.0
 27
0.0
 37
0.0
 40
297.0
 41
1.9729729729
 42
50.0
 43
0.0
 44
0.0
 50
0.0
 51
0.0
 71
     0
 72
   100
 73
     1
 74
     3
 75
     0
 76
     0
 77
     0
 78
     0
281
     0
 65
     1
110
0.0
120
0.0
130
0.0
111
1.0
121
0.0
131
0.0
112
0.0
122
1.0
132
0.0
 79
     0
146
0.0
  0
ENDTAB
  0
TABLE
  2
LTYPE
  5
5
330
0
100
AcDbSymbolTable
 70
     2
  0
LTYPE
  5
14
330
5
100
AcDbSymbolTableRecord
100
AcDbLinetypeTableRecord
  2
ByBlock
 70
     0
  3

 72
    65
 73
     0
 40
0.0
  0
LTYPE
  5
15
330
5
100
AcDbSymbolTableRecord
100
AcDbLinetypeTableRecord
  2
ByLayer
 70
     0
  3

 72
    65
 73
     0
 40
0.0
  0
LTYPE
  5
16
330
5
100
AcDbSymbolTableRecord
100
AcDbLinetypeTableRecord
  2
Continuous
 70
     0
  3
Solid line
 72
    65
 73
     0
 40
0.0
  0
LTYPE
  5
43
330
5
100
AcDbSymbolTableRecord
100
AcDbLinetypeTableRecord
  2
HIDDEN2
 70
     0
  3
Hidden (.5x) _ _ _ _ _ _ _ _ _ _ _ _ _ _ _ _ _ 
 72
    65
 73
     2
 40
4.7625
 49
3.175
 74
     4
 75
     0
340
0
 46
0.0
 50
0.0
 44
0.0
 45
0.0
 49
-1.5875
 74
     4
 75
     0
340
0
 46
0.0
 50
0.0
 44
0.0
 45
0.0
  0
ENDTAB
  0
TABLE
  2
LAYER
  5
2
330
0
100
AcDbSymbolTable
 70
     5
  0
LAYER
  5
10
330
2
100
AcDbSymbolTableRecord
100
AcDbLayerTableRecord
  2
0
 70
     0
 62
     7
  6
Continuous
370
    -3
390
F
  0
LAYER
  5
3F
330
2
100
AcDbSymbolTableRecord
100
AcDbLayerTableRecord
  2
SK1
 70
     0
 62
     4
  6
Continuous
370
    18
390
F
  0
LAYER
  5
42
330
2
100
AcDbSymbolTableRecord
100
AcDbLayerTableRecord
  2
SK3
 70
     0
 62
     1
  6
HIDDEN2
370
    15
390
F
  0
LAYER
  5
119
330
2
100
AcDbSymbolTableRecord
100
AcDbLayerTableRecord
  2
SK4
 70
     0
 62
     2
  6
Continuous
370
    13
390
F
  0
LAYER
  5
11B
330
2
100
AcDbSymbolTableRecord
100
AcDbLayerTableRecord
  2
SK2
 70
     0
 62
     7
  6
Continuous
370
    15
390
F
  0
ENDTAB
  0
TABLE
  2
STYLE
  5
3
330
0
100
AcDbSymbolTable
 70
     2
  0
STYLE
  5
11
330
3
100
AcDbSymbolTableRecord
100
AcDbTextStyleTableRecord
  2
Standard
 70
     0
 40
0.0
 41
1.0
 50
0.0
 71
     0
 42
2.5
  3
txt
  4

  0
STYLE
  5
12E
330
3
100
AcDbSymbolTableRecord
100
AcDbTextStyleTableRecord
  2
SEACAD_Solid_Edge_ISO
 70
     0
 40
0.0
 41
1.0
 50
0.0
 71
     0
 42
0.2
  3
seiso.ttf
  4

1001
ACAD
1000
Solid Edge ISO
1071
        0
  0
ENDTAB
  0
TABLE
  2
VIEW
  5
6
330
0
100
AcDbSymbolTable
 70
     0
  0
ENDTAB
  0
TABLE
  2
UCS
  5
7
330
0
100
AcDbSymbolTable
 70
     0
  0
ENDTAB
  0
TABLE
  2
APPID
  5
9
330
0
100
AcDbSymbolTable
 70
     1
  0
APPID
  5
12
330
9
100
AcDbSymbolTableRecord
100
AcDbRegAppTableRecord
  2
ACAD
 70
     0
  0
ENDTAB
  0
TABLE
  2
DIMSTYLE
  5
A
330
0
100
AcDbSymbolTable
 70
     3
100
AcDbDimStyleTable
  0
DIMSTYLE
105
27
330
A
100
AcDbSymbolTableRecord
100
AcDbDimStyleTableRecord
  2
ISO-25
 70
     0
 41
2.5
 42
0.625
 43
3.75
 44
1.25
 73
     0
 74
     0
 77
     1
 78
     8
140
2.5
141
2.5
143
0.0393700787
147
0.625
171
     3
172
     1
178
     0
271
     2
272
     2
274
     3
278
    44
283
     0
284
     8
340
11
  0
DIMSTYLE
105
11C
330
A
100
AcDbSymbolTableRecord
100
AcDbDimStyleTableRecord
  2
Standard
 70
     0
178
     0
340
11
  0
DIMSTYLE
105
12F
102
{ACAD_REACTORS
330
130
330
13A
330
15A
330
165
102
}
330
A
100
AcDbSymbolTableRecord
100
AcDbDimStyleTableRecord
  2
DIN
 70
     0
 41
3.5
 42
0.0
 44
1.75
 73
     0
 74
     0
 77
     1
 78
     8
140
3.5
141
1.75
147
1.75
172
     1
173
     1
178
     0
179
     3
271
     2
272
     2
278
    44
284
     8
340
12E
343
129
344
129
  0
ENDTAB
  0
TABLE
  2
BLOCK_RECORD
  5
1
330
0
100
AcDbSymbolTable
 70
    10
  0
BLOCK_RECORD
  5
1F
330
1
100
AcDbSymbolTableRecord
100
AcDbBlockTableRecord
  2
*Model_Space
340
22
  0
BLOCK_RECORD
  5
1B
330
1
100
AcDbSymbolTableRecord
100
AcDbBlockTableRecord
  2
*Paper_Space
340
1E
  0
BLOCK_RECORD
  5
11D
330
1
100
AcDbSymbolTableRecord
100
AcDbBlockTableRecord
  2
_OBLIQUE
340
0
  0
BLOCK_RECORD
  5
121
330
1
100
AcDbSymbolTableRecord
100
AcDbBlockTableRecord
  2
_DOT
340
0
  0
BLOCK_RECORD
  5
129
330
1
100
AcDbSymbolTableRecord
100
AcDbBlockTableRecord
  2
_SE_FILLED
340
0
  0
BLOCK_RECORD
  5
131
330
1
100
AcDbSymbolTableRecord
100
AcDbBlockTableRecord
  2
DMBLK207
340
0
  0
BLOCK_RECORD
  5
13B
330
1
100
AcDbSymbolTableRecord
100
AcDbBlockTableRecord
  2
DMBLK208
340
0
  0
BLOCK_RECORD
  5
144
330
1
100
AcDbSymbolTableRecord
100
AcDbBlockTableRecord
  2
Nullpunkt
340
0
102
{BLKREFS
331
14E
102
}
  0
BLOCK_RECORD
  5
14F
330
1
100
AcDbSymbolTableRecord
100
AcDbBlockTableRecord
  2
Einfügepunkt
340
0
102
{BLKREFS
331
159
102
}
  0
BLOCK_RECORD
  5
15B
330
1
100
AcDbSymbolTableRecord
100
AcDbBlockTableRecord
  2
DMBLK209
340
0
  0
BLOCK_RECORD
  5
166
330
1
100
AcDbSymbolTableRecord
100
AcDbBlockTableRecord
  2
DMBLK210
340
0
  0
ENDTAB
  0
ENDSEC
  0
SECTION
  2
BLOCKS
  0
BLOCK
  5
20
330
1F
100
AcDbEntity
  8
0
100
AcDbBlockBegin
  2
*Model_Space
 70
     0
 10
0.0
 20
0.0
 30
0.0
  3
*Model_Space
  1

  0
ENDBLK
  5
21
330
1F
100
AcDbEntity
  8
0
100
AcDbBlockEnd
  0
BLOCK
  5
1C
330
1B
100
AcDbEntity
 67
     1
  8
0
100
AcDbBlockBegin
  2
*Paper_Space
 70
     0
 10
0.0
 20
0.0
 30
0.0
  3
*Paper_Space
  1

  0
ENDBLK
  5
1D
330
1B
100
AcDbEntity
 67
     1
  8
0
100
AcDbBlockEnd
  0
BLOCK
  5
11E
330
11D
100
AcDbEntity
  8
0
100
AcDbBlockBegin
  2
_OBLIQUE
 70
     0
 10
0.0
 20
0.0
 30
0.0
  3
_OBLIQUE
  1

  0
LINE
  5
120
330
11D
100
AcDbEntity
  8
0
  6
ByBlock
 62
     0
370
    -2
100
AcDbLine
 10
-0.5
 20
-0.5
 30
0.0
 11
0.5
 21
0.5
 31
0.0
  0
ENDBLK
  5
11F
330
11D
100
AcDbEntity
  8
0
100
AcDbBlockEnd
  0
BLOCK
  5
122
330
121
100
AcDbEntity
  8
0
100
AcDbBlockBegin
  2
_DOT
 70
     0
 10
0.0
 20
0.0
 30
0.0
  3
_DOT
  1

  0
POLYLINE
  5
124
330
121
100
AcDbEntity
  8
0
  6
ByBlock
 62
     0
100
AcDb2dPolyline
 66
     1
 10
0.0
 20
0.0
 30
0.0
 70
     1
 40
0.5
 41
0.5
  0
VERTEX
  5
126
330
124
100
AcDbEntity
  8
0
  6
ByBlock
 62
     0
100
AcDbVertex
100
AcDb2dVertex
 10
-0.25
 20
0.0
 30
0.0
 42
1.0
  0
VERTEX
  5
127
330
124
100
AcDbEntity
  8
0
  6
ByBlock
 62
     0
100
AcDbVertex
100
AcDb2dVertex
 10
0.25
 20
0.0
 30
0.0
 42
1.0
  0
SEQEND
  5
128
330
124
100
AcDbEntity
  8
0
  6
ByBlock
 62
     0
  0
LINE
  5
125
330
121
100
AcDbEntity
  8
0
  6
ByBlock
 62
     0
370
    -2
100
AcDbLine
 10
-0.5
 20
0.0
 30
0.0
 11
-1.0
 21
0.0
 31
0.0
  0
ENDBLK
  5
123
330
121
100
AcDbEntity
  8
0
100
AcDbBlockEnd
  0
BLOCK
  5
12C
330
129
100
AcDbEntity
  8
0
100
AcDbBlockBegin
  2
_SE_FILLED
 70
     0
 10
0.0
 20
0.0
 30
0.0
  3
_SE_FILLED
  1

  0
SOLID
  5
12A
330
129
100
AcDbEntity
  8
0
 62
     0
100
AcDbTrace
 10
0.0
 20
0.0
 30
0.0
 11
-1.0
 21
-0.1665
 31
0.0
 12
-1.0
 22
0.1665
 32
0.0
 13
0.0
 23
0.0
 33
0.0
  0
LINE
  5
12B
330
129
100
AcDbEntity
  8
0
 62
     0
100
AcDbLine
 10
0.0
 20
0.0
 30
0.0
 11
-1.0
 21
0.0
 31
0.0
  0
ENDBLK
  5
12D
330
129
100
AcDbEntity
  8
0
100
AcDbBlockEnd
  0
BLOCK
  5
138
330
131
100
AcDbEntity
  8
0
100
AcDbBlockBegin
  2
DMBLK207
 70
     0
 10
0.0
 20
0.0
 30
0.0
  3
DMBLK207
  1

  0
HATCH
  5
132
330
131
100
AcDbEntity
  8
SK2
  6
Continuous
 62
   136
100
AcDbHatch
 10
0.0
 20
0.0
 30
0.0
210
0.0
220
0.0
230
1.0
  2
SOLID
 70
     1
 71
     0
 91
        1
 92
        1
 93
        3
 72
     1
 10
7.599999891993677
 20
28.89447563589096
 11
7.599999891993677
 21
27.72780893321315
 72
     1
 10
7.599999891993677
 20
27.72780893321315
 11
11.10000000002709
 21
28.31114228455206
 72
     1
 10
11.10000000002709
 20
28.31114228455206
 11
7.599999891993676
 21
28.89447563589096
 97
        0
 75
     0
 76
     1
 98
        0
  0
HATCH
  5
133
330
131
100
AcDbEntity
  8
SK2
  6
Continuous
 62
   136
100
AcDbHatch
 10
0.0
 20
0.0
 30
0.0
210
0.0
220
0.0
230
1.0
  2
SOLID
 70
     1
 71
     0
 91
        1
 92
        1
 93
        3
 72
     1
 10
-31.39999998134645
 20
28.89447563589096
 11
-34.90000008937987
 21
28.31114228455206
 72
     1
 10
-34.90000008937987
 20
28.31114228455206
 11
-31.39999998134645
 21
27.72780893321315
 72
     1
 10
-31.39999998134645
 20
27.72780893321315
 11
-31.39999998134645
 21
28.89447563589096
 97
        0
 75
     0
 76
     1
 98
        0
  0
LINE
  5
134
330
131
100
AcDbEntity
  8
SK2
  6
Continuous
 62
   136
100
AcDbLine
 10
11.1
 20
16.5142105484
 30
0.0
 11
11.1
 21
30.0611423386
 31
0.0
  0
LINE
  5
135
330
131
100
AcDbEntity
  8
SK2
  6
Continuous
 62
   136
100
AcDbLine
 10
-34.9
 20
14.8259100579
 30
0.0
 11
-34.9
 21
30.0611423386
 31
0.0
  0
LINE
  5
136
330
131
100
AcDbEntity
  8
SK2
  6
Continuous
 62
   136
100
AcDbLine
 10
11.1
 20
28.3111422846
 30
0.0
 11
-34.9000000894
 21
28.3111422846
 31
0.0
  0
TEXT
  5
137
330
131
100
AcDbEntity
  8
SK2
  6
Continuous
 62
   136
100
AcDbText
 10
-14.0079545901
 20
29.1861422846
 30
0.0
 40
3.5
  1
46
  7
SEACAD_Solid_Edge_ISO
 11
-14.0079545901
 21
32.6861422846
 31
0.0
100
AcDbText
 73
     3
  0
ENDBLK
  5
139
330
131
100
AcDbEntity
  8
0
100
AcDbBlockEnd
  0
BLOCK
  5
142
330
13B
100
AcDbEntity
  8
0
100
AcDbBlockBegin
  2
DMBLK208
 70
     0
 10
0.0
 20
0.0
 30
0.0
  3
DMBLK208
  1

  0
HATCH
  5
13C
330
13B
100
AcDbEntity
  8
SK2
  6
Continuous
 62
   136
100
AcDbHatch
 10
0.0
 20
0.0
 30
0.0
210
0.0
220
0.0
230
1.0
  2
SOLID
 70
     1
 71
     0
 91
        1
 92
        1
 93
        3
 72
     1
 10
-3.500000108033419
 20
-28.70234657205908
 11
0.0
 21
-28.11901322072018
 72
     1
 10
0.0
 20
-28.11901322072018
 11
-3.500000108033419
 21
-27.53567986938128
 72
     1
 10
-3.500000108033419
 20
-27.53567986938128
 11
-3.500000108033419
 21
-28.70234657205908
 97
        0
 75
     0
 76
     1
 98
        0
  0
HATCH
  5
13D
330
13B
100
AcDbEntity
  8
SK2
  6
Continuous
 62
   136
100
AcDbHatch
 10
0.0
 20
0.0
 30
0.0
210
0.0
220
0.0
230
1.0
  2
SOLID
 70
     1
 71
     0
 91
        1
 92
        1
 93
        3
 72
     1
 10
14.60000010803342
 20
-28.70234657205908
 11
14.60000010803342
 21
-27.53567986938128
 72
     1
 10
14.60000010803342
 20
-27.53567986938128
 11
11.1
 21
-28.11901322072018
 72
     1
 10
11.1
 20
-28.11901322072018
 11
14.60000010803342
 21
-28.70234657205908
 97
        0
 75
     0
 76
     1
 98
        0
  0
LINE
  5
13E
330
13B
100
AcDbEntity
  8
SK2
  6
Continuous
 62
   136
100
AcDbLine
 10
0.0
 20
-19.9937490231
 30
0.0
 11
0.0
 21
-29.8690132747
 31
0.0
  0
LINE
  5
13F
330
13B
100
AcDbEntity
  8
SK2
  6
Continuous
 62
   136
100
AcDbLine
 10
11.1
 20
-16.5142105484
 30
0.0
 11
11.1
 21
-29.8690132747
 31
0.0
  0
LINE
  5
140
330
13B
100
AcDbEntity
  8
SK2
  6
Continuous
 62
   136
100
AcDbLine
 10
-7.0000002161
 20
-28.1190132207
 30
0.0
 11
18.1000009179
 21
-28.1190132207
 31
0.0
  0
TEXT
  5
141
330
13B
100
AcDbEntity
  8
SK2
  6
Continuous
 62
   136
100
AcDbText
 10
3.0840907944
 20
-27.2440132207
 30
0.0
 40
3.5
  1
11,1
  7
SEACAD_Solid_Edge_ISO
 11
3.0840907944
 21
-23.7440132207
 31
0.0
100
AcDbText
 73
     3
  0
ENDBLK
  5
143
330
13B
100
AcDbEntity
  8
0
100
AcDbBlockEnd
  0
BLOCK
  5
14C
330
144
100
AcDbEntity
  8
0
100
AcDbBlockBegin
  2
Nullpunkt
 70
     0
 10
0.0
 20
0.0
 30
0.0
  3
Nullpunkt
  1

  0
HATCH
  5
145
330
144
100
AcDbEntity
  8
SK2
  6
Continuous
 62
     7
100
AcDbHatch
 10
0.0
 20
0.0
 30
0.0
210
0.0
220
0.0
230
1.0
  2
SOLID
 70
     1
 71
     0
 91
        1
 92
        1
 93
        3
 72
     1
 10
-1.0
 20
0.0
 11
0.0000000000000009
 21
0.0
 72
     1
 10
0.0
 20
0.0
 11
0.0
 21
1.000000000000001
 72
     2
 10
0.0
 20
0.0
 40
1.0
 50
90.0
 51
180.0
 73
     1
 97
        0
 75
     0
 76
     1
 98
        0
  0
HATCH
  5
146
330
144
100
AcDbEntity
  8
SK2
  6
Continuous
 62
     7
100
AcDbHatch
 10
0.0
 20
0.0
 30
0.0
210
0.0
220
0.0
230
1.0
  2
SOLID
 70
     1
 71
     0
 91
        1
 92
        1
 93
        3
 72
     2
 10
0.0
 20
0.0
 40
1.0
 50
270.0
 51
360.0
 73
     1
 72
     1
 10
1.0
 20
0.0
 11
-0.0000000000000009
 21
0.0
 72
     1
 10
0.0
 20
0.0
 11
0.0
 21
-1.000000000000001
 97
        0
 75
     0
 76
     1
 98
        0
  0
CIRCLE
  5
147
330
144
100
AcDbEntity
  8
SK2
  6
Continuous
 62
     7
100
AcDbCircle
 10
0.0
 20
0.0
 30
0.0
 40
1.0
  0
LINE
  5
148
330
144
100
AcDbEntity
  8
SK1
  6
Continuous
100
AcDbLine
 10
-1.0
 20
0.0
 30
0.0
 11
1.0
 21
0.0
 31
0.0
  0
LINE
  5
149
330
144
100
AcDbEntity
  8
SK1
  6
Continuous
100
AcDbLine
 10
0.0
 20
1.0
 30
0.0
 11
0.0
 21
-1.0
 31
0.0
  0
POINT
  5
14A
330
144
100
AcDbEntity
  8
SK1
  6
Continuous
100
AcDbPoint
 10
0.0
 20
0.0
 30
0.0
  0
POINT
  5
14B
330
144
100
AcDbEntity
  8
SK1
  6
Continuous
100
AcDbPoint
 10
0.0
 20
0.0
 30
0.0
  0
ENDBLK
  5
14D
330
144
100
AcDbEntity
  8
0
100
AcDbBlockEnd
  0
BLOCK
  5
157
330
14F
100
AcDbEntity
  8
0
100
AcDbBlockBegin
  2
Einfügepunkt
 70
     0
 10
0.0
 20
0.0
 30
0.0
  3
Einfügepunkt
  1

  0
HATCH
  5
150
330
14F
100
AcDbEntity
  8
SK2
  6
Continuous
 62
     7
100
AcDbHatch
 10
0.0
 20
0.0
 30
0.0
210
0.0
220
0.0
230
1.0
  2
SOLID
 70
     1
 71
     0
 91
        1
 92
        1
 93
        3
 72
     1
 10
-0.4502381196756744
 20
-0.0000000000000018
 11
0.0000000000000033
 21
-0.0000000000000018
 72
     1
 10
0.0
 20
-0.0000000000000018
 11
0.0
 21
0.4502381196756812
 72
     2
 10
0.0
 20
-0.0000000000000018
 40
0.4502381196756812
 50
90.0
 51
180.0
 73
     1
 97
        0
 75
     0
 76
     1
 98
        0
  0
HATCH
  5
151
330
14F
100
AcDbEntity
  8
SK2
  6
Continuous
 62
     7
100
AcDbHatch
 10
0.0
 20
0.0
 30
0.0
210
0.0
220
0.0
230
1.0
  2
SOLID
 70
     1
 71
     0
 91
        1
 92
        1
 93
        3
 72
     2
 10
0.0
 20
-0.0000000000000018
 40
0.4502381196756812
 50
270.0
 51
360.0
 73
     1
 72
     1
 10
0.4502381196756815
 20
-0.0000000000000018
 11
0.0000000000000038
 21
-0.0000000000000018
 72
     1
 10
0.0
 20
-0.0000000000000018
 11
0.0
 21
-0.4502381196756812
 97
        0
 75
     0
 76
     1
 98
        0
  0
CIRCLE
  5
152
330
14F
100
AcDbEntity
  8
SK2
  6
Continuous
 62
     7
100
AcDbCircle
 10
0.0
 20
0.0
 30
0.0
 40
0.4502381196756812
  0
LINE
  5
153
330
14F
100
AcDbEntity
  8
SK1
  6
Continuous
100
AcDbLine
 10
-0.4502381197
 20
0.0
 30
0.0
 11
0.4502381197
 21
0.0
 31
0.0
  0
LINE
  5
154
330
14F
100
AcDbEntity
  8
SK1
  6
Continuous
100
AcDbLine
 10
0.0
 20
0.4502381197
 30
0.0
 11
0.0
 21
-0.4502381197
 31
0.0
  0
POINT
  5
155
330
14F
100
AcDbEntity
  8
SK2
  6
Continuous
 62
     7
100
AcDbPoint
 10
0.0
 20
0.0
 30
0.0
  0
POINT
  5
156
330
14F
100
AcDbEntity
  8
SK2
  6
Continuous
 62
     7
100
AcDbPoint
 10
0.0
 20
0.0
 30
0.0
  0
ENDBLK
  5
158
330
14F
100
AcDbEntity
  8
0
100
AcDbBlockEnd
  0
BLOCK
  5
163
330
15B
100
AcDbEntity
  8
0
100
AcDbBlockBegin
  2
DMBLK209
 70
     0
 10
0.0
 20
0.0
 30
0.0
  3
DMBLK209
  1

  0
HATCH
  5
15C
330
15B
100
AcDbEntity
  8
SK2
  6
Continuous
 62
   136
100
AcDbHatch
 10
0.0
 20
0.0
 30
0.0
210
0.0
220
0.0
230
1.0
  2
SOLID
 70
     1
 71
     0
 91
        1
 92
        1
 93
        3
 72
     1
 10
21.63156025750919
 20
7.499999891966569
 11
21.04822690617029
 21
10.99999999999999
 72
     1
 10
21.04822690617029
 20
10.99999999999999
 11
20.46489355483138
 21
7.499999891966569
 72
     1
 10
20.46489355483138
 20
7.499999891966569
 11
21.63156025750919
 21
7.499999891966569
 97
        0
 75
     0
 76
     1
 98
        0
  0
HATCH
  5
15D
330
15B
100
AcDbEntity
  8
SK2
  6
Continuous
 62
   136
100
AcDbHatch
 10
0.0
 20
0.0
 30
0.0
210
0.0
220
0.0
230
1.0
  2
SOLID
 70
     1
 71
     0
 91
        1
 92
        1
 93
        3
 72
     1
 10
21.63156025750919
 20
-7.499999772757304
 11
20.46489355483138
 21
-7.499999772757304
 72
     1
 10
20.46489355483138
 20
-7.499999772757304
 11
21.04822690617029
 21
-10.99999988079072
 72
     1
 10
21.04822690617029
 20
-10.99999988079072
 11
21.63156025750919
 21
-7.499999772757304
 97
        0
 75
     0
 76
     1
 98
        0
  0
LINE
  5
15E
330
15B
100
AcDbEntity
  8
SK2
  6
Continuous
 62
   136
100
AcDbLine
 10
10.7000000311
 20
11.0
 30
0.0
 11
22.7982269602
 21
11.0
 31
0.0
  0
LINE
  5
15F
330
15B
100
AcDbEntity
  8
SK2
  6
Continuous
 62
   136
100
AcDbLine
 10
10.7
 20
-11.0
 30
0.0
 11
22.7982269602
 21
-11.0
 31
0.0
  0
LINE
  5
160
330
15B
100
AcDbEntity
  8
SK2
  6
Continuous
 62
   136
100
AcDbLine
 10
21.0482269062
 20
11.0
 30
0.0
 11
21.0482269062
 21
-10.9999998808
 31
0.0
  0
TEXT
  5
161
330
15B
100
AcDbEntity
  8
SK2
  6
Continuous
 62
   136
100
AcDbText
 10
20.1732269062
 20
-0.1113635768
 30
0.0
 40
3.5
  1
22
 50
90.0
  7
SEACAD_Solid_Edge_ISO
 11
16.6732269062
 21
-0.1113635768
 31
0.0
100
AcDbText
 73
     3
  0
TEXT
  5
162
330
15B
100
AcDbEntity
  8
SK2
  6
Continuous
 62
   136
100
AcDbText
 10
20.1732269062
 20
-4.1840908495
 30
0.0
 40
3.5
  1
ø
 50
90.0
  7
SEACAD_Solid_Edge_ISO
 11
16.6732269062
 21
-4.1840908495
 31
0.0
100
AcDbText
 73
     3
  0
ENDBLK
  5
164
330
15B
100
AcDbEntity
  8
0
100
AcDbBlockEnd
  0
BLOCK
  5
16E
330
166
100
AcDbEntity
  8
0
100
AcDbBlockBegin
  2
DMBLK210
 70
     0
 10
0.0
 20
0.0
 30
0.0
  3
DMBLK210
  1

  0
HATCH
  5
167
330
166
100
AcDbEntity
  8
SK2
  6
Continuous
 62
   136
100
AcDbHatch
 10
0.0
 20
0.0
 30
0.0
210
0.0
220
0.0
230
1.0
  2
SOLID
 70
     1
 71
     0
 91
        1
 92
        1
 93
        3
 72
     1
 10
-44.63333395930628
 20
16.49374891509878
 11
-43.46666725662848
 21
16.49374891509878
 72
     1
 10
-43.46666725662848
 20
16.49374891509878
 11
-44.05000060796738
 21
19.9937490231322
 72
     1
 10
-44.05000060796738
 20
19.9937490231322
 11
-44.63333395930628
 21
16.49374891509878
 97
        0
 75
     0
 76
     1
 98
        0
  0
HATCH
  5
168
330
166
100
AcDbEntity
  8
SK2
  6
Continuous
 62
   136
100
AcDbHatch
 10
0.0
 20
0.0
 30
0.0
210
0.0
220
0.0
230
1.0
  2
SOLID
 70
     1
 71
     0
 91
        1
 92
        1
 93
        3
 72
     1
 10
-44.63333395930628
 20
-16.49374790052307
 11
-44.05000060796738
 21
-19.99374800855649
 72
     1
 10
-44.05000060796738
 20
-19.99374800855649
 11
-43.46666725662848
 21
-16.49374790052307
 72
     1
 10
-43.46666725662848
 20
-16.49374790052307
 11
-44.63333395930628
 21
-16.49374790052307
 97
        0
 75
     0
 76
     1
 98
        0
  0
LINE
  5
169
330
166
100
AcDbEntity
  8
SK2
  6
Continuous
 62
   136
100
AcDbLine
 10
0.0
 20
19.9937490231
 30
0.0
 11
-45.800000662
 21
19.9937490231
 31
0.0
  0
LINE
  5
16A
330
166
100
AcDbEntity
  8
SK2
  6
Continuous
 62
   136
100
AcDbLine
 10
0.0
 20
-19.9937490231
 30
0.0
 11
-45.800000662
 21
-19.9937490231
 31
0.0
  0
LINE
  5
16B
330
166
100
AcDbEntity
  8
SK2
  6
Continuous
 62
   136
100
AcDbLine
 10
-44.050000608
 20
19.9937490231
 30
0.0
 11
-44.050000608
 21
-19.9937480086
 31
0.0
  0
TEXT
  5
16C
330
166
100
AcDbEntity
  8
SK2
  6
Continuous
 62
   136
100
AcDbText
 10
-44.925000608
 20
-0.0318176745
 30
0.0
 40
3.5
  1
40
 50
90.0
  7
SEACAD_Solid_Edge_ISO
 11
-48.425000608
 21
-0.0318176745
 31
0.0
100
AcDbText
 73
     3
  0
TEXT
  5
16D
330
166
100
AcDbEntity
  8
SK2
  6
Continuous
 62
   136
100
AcDbText
 10
-44.925000608
 20
-4.1045449473
 30
0.0
 40
3.5
  1
ø
 50
90.0
  7
SEACAD_Solid_Edge_ISO
 11
-48.425000608
 21
-4.1045449473
 31
0.0
100
AcDbText
 73
     3
  0
ENDBLK
  5
16F
330
166
100
AcDbEntity
  8
0
100
AcDbBlockEnd
  0
ENDSEC
  0
SECTION
  2
ENTITIES
  0
LINE
  5
40
330
1F
100
AcDbEntity
  8
SK1
  6
Continuous
100
AcDbLine
 10
0.2
 20
12.4401950828
 30
0.0
 11
0.2
 21
0.5
 31
0.0
  0
LINE
  5
41
330
1F
100
AcDbEntity
  8
SK1
  6
Continuous
100
AcDbLine
 10
3.9
 20
-18.1
 30
0.0
 11
3.9
 21
-13.147301864
 31
0.0
  0
LINE
  5
44
330
1F
100
AcDbEntity
  8
SK3
100
AcDbLine
 10
-12.7
 20
8.4775917952
 30
0.0
 11
-12.7
 21
11.4891252931
 31
0.0
  0
LINE
  5
45
330
1F
100
AcDbEntity
  8
SK3
100
AcDbLine
 10
-16.7
 20
8.4775917952
 30
0.0
 11
-16.7
 21
11.4891252931
 31
0.0
  0
LINE
  5
46
330
1F
100
AcDbEntity
  8
SK3
100
AcDbLine
 10
-31.3190524981
 20
8.6545322485
 30
0.0
 11
-31.3190524981
 21
11.7393568819
 31
0.0
  0
LINE
  5
47
330
1F
100
AcDbEntity
  8
SK3
100
AcDbLine
 10
-31.1
 20
8.6545322485
 30
0.0
 11
-31.1
 21
11.7393568819
 31
0.0
  0
LINE
  5
48
330
1F
100
AcDbEntity
  8
SK3
100
AcDbLine
 10
-29.6
 20
-9.6234279662
 30
0.0
 11
-29.6
 21
-7.5927695084
 31
0.0
  0
LINE
  5
49
330
1F
100
AcDbEntity
  8
SK3
100
AcDbLine
 10
-29.6
 20
3.5287581638
 30
0.0
 11
-29.6
 21
6.8856627272
 31
0.0
  0
ARC
  5
4A
330
1F
100
AcDbEntity
  8
SK3
100
AcDbCircle
 10
-41.0817221899
 20
-10.4890024745
 30
0.0
 40
13.42665056185598
100
AcDbArc
 50
31.2243323162
 51
39.6915602403
  0
LINE
  5
4B
330
1F
100
AcDbEntity
  8
SK3
100
AcDbLine
 10
-30.75
 20
-1.9140119847
 30
0.0
 11
-30.75
 21
-0.5
 31
0.0
  0
ARC
  5
4C
330
1F
100
AcDbEntity
  8
SK3
100
AcDbCircle
 10
-40.9787587777
 20
10.4156733497
 30
0.0
 40
13.30059217094134
100
AcDbArc
 50
320.2682408062
 51
328.8158666372
  0
ARC
  5
4D
330
1F
100
AcDbEntity
  8
SK3
100
AcDbCircle
 10
-40.9787587777
 20
-2.7365127804
 30
0.0
 40
13.30059217094126
100
AcDbArc
 50
320.2682408062
 51
328.8158666372
  0
LINE
  5
4E
330
1F
100
AcDbEntity
  8
SK3
100
AcDbLine
 10
-30.75
 20
11.2381741454
 30
0.0
 11
-30.75
 21
11.3890298094
 31
0.0
  0
ARC
  5
4F
330
1F
100
AcDbEntity
  8
SK3
100
AcDbCircle
 10
-41.0817221899
 20
2.6631836556
 30
0.0
 40
13.4266505618559
100
AcDbArc
 50
31.2243323162
 51
39.6915602403
  0
LINE
  5
50
330
1F
100
AcDbEntity
  8
SK3
100
AcDbLine
 10
-17.4216878365
 20
-9.6234279662
 30
0.0
 11
-17.4216878365
 21
-7.5927695084
 31
0.0
  0
LINE
  5
51
330
1F
100
AcDbEntity
  8
SK3
100
AcDbLine
 10
-17.4216878365
 20
3.5287581638
 30
0.0
 11
-17.4216878365
 21
6.8856627272
 31
0.0
  0
LINE
  5
52
330
1F
100
AcDbEntity
  8
SK3
100
AcDbLine
 10
-16.7577350269
 20
1.9140119847
 30
0.0
 11
-30.75
 21
1.9140119847
 31
0.0
  0
LINE
  5
53
330
1F
100
AcDbEntity
  8
SK3
100
AcDbLine
 10
-16.7577350269
 20
1.9140119847
 30
0.0
 11
-16.7577350269
 21
0.5
 31
0.0
  0
ARC
  5
54
330
1F
100
AcDbEntity
  8
SK3
100
AcDbCircle
 10
-2.4669789
 20
4.4182125307
 30
0.0
 40
15.83469567449026
100
AcDbArc
 50
154.4881755344
 51
160.8087655782
  0
LINE
  5
55
330
1F
100
AcDbEntity
  8
SK3
100
AcDbLine
 10
-17.4216878365
 20
9.6234279662
 30
0.0
 11
-29.6
 21
9.6234279662
 31
0.0
  0
LINE
  5
56
330
1F
100
AcDbEntity
  8
SK3
100
AcDbLine
 10
-29.6
 20
3.5287581638
 30
0.0
 11
-17.4216878365
 21
3.5287581638
 31
0.0
  0
ARC
  5
57
330
1F
100
AcDbEntity
  8
SK3
100
AcDbCircle
 10
-2.4974445434
 20
8.7214467083
 30
0.0
 40
15.80180534588546
100
AcDbArc
 50
199.1846497937
 51
205.5184090937
  0
LINE
  5
58
330
1F
100
AcDbEntity
  8
SK3
100
AcDbLine
 10
-16.7577350269
 20
11.2381741454
 30
0.0
 11
-30.75
 21
11.2381741454
 31
0.0
  0
LINE
  5
59
330
1F
100
AcDbEntity
  8
SK3
100
AcDbLine
 10
-16.7577350269
 20
-11.2381741454
 30
0.0
 11
-30.75
 21
-11.2381741454
 31
0.0
  0
LINE
  5
5A
330
1F
100
AcDbEntity
  8
SK3
100
AcDbLine
 10
-16.7577350269
 20
-11.2381741454
 30
0.0
 11
-16.7577350269
 21
-11.3890298094
 31
0.0
  0
ARC
  5
5B
330
1F
100
AcDbEntity
  8
SK3
100
AcDbCircle
 10
-2.4669789
 20
-8.7339735994
 30
0.0
 40
15.83469567449153
100
AcDbArc
 50
154.4881755344
 51
160.8087655782
  0
LINE
  5
5C
330
1F
100
AcDbEntity
  8
SK3
100
AcDbLine
 10
-17.4216878365
 20
-3.5287581638
 30
0.0
 11
-29.6
 21
-3.5287581638
 31
0.0
  0
LINE
  5
5D
330
1F
100
AcDbEntity
  8
SK3
100
AcDbLine
 10
-29.6
 20
-9.6234279662
 30
0.0
 11
-17.4216878365
 21
-9.6234279662
 31
0.0
  0
ARC
  5
5E
330
1F
100
AcDbEntity
  8
SK3
100
AcDbCircle
 10
-2.4974445434
 20
-4.4307394218
 30
0.0
 40
15.80180534588559
100
AcDbArc
 50
199.1846497937
 51
205.5184090937
  0
LINE
  5
5F
330
1F
100
AcDbEntity
  8
SK3
100
AcDbLine
 10
-16.7577350269
 20
-1.9140119847
 30
0.0
 11
-30.75
 21
-1.9140119847
 31
0.0
  0
LINE
  5
60
330
1F
100
AcDbEntity
  8
SK1
  6
Continuous
100
AcDbLine
 10
4.5392304845
 20
20.4464101615
 30
0.0
 11
4.5392304845
 21
14.8070250928
 31
0.0
  0
LINE
  5
61
330
1F
100
AcDbEntity
  8
SK1
  6
Continuous
100
AcDbLine
 10
4.1
 20
20.192820323
 30
0.0
 11
4.1
 21
14.6276556846
 31
0.0
  0
LINE
  5
62
330
1F
100
AcDbEntity
  8
SK1
  6
Continuous
100
AcDbLine
 10
0.0
 20
14.4912689062
 30
0.0
 11
0.0
 21
19.9937490231
 31
0.0
  0
LINE
  5
63
330
1F
100
AcDbEntity
  8
SK1
  6
Continuous
100
AcDbLine
 10
10.975
 20
-16.7307168993
 30
0.0
 11
10.975
 21
-12.1786725859
 31
0.0
  0
LINE
  5
64
330
1F
100
AcDbEntity
  8
SK1
  6
Continuous
100
AcDbLine
 10
11.1
 20
11.318403387
 30
0.0
 11
11.1
 21
-11.318403387
 31
0.0
  0
LINE
  5
65
330
1F
100
AcDbEntity
  8
SK1
  6
Continuous
100
AcDbLine
 10
10.975
 20
16.7307168993
 30
0.0
 11
10.975
 21
12.1786725859
 31
0.0
  0
SPLINE
  5
66
330
1F
100
AcDbEntity
  8
SK1
  6
Continuous
100
AcDbSpline
210
0.0
220
0.0
230
1.0
 70
     8
 71
     3
 72
    10
 73
     6
 74
     0
 42
0.000000047004811
 43
0.0000000001
 12
1.0
 22
0.0
 32
0.0
 13
1.0
 23
0.0
 33
0.0
 40
0.0
 40
0.0
 40
0.0
 40
0.0
 40
0.5
 40
0.5
 40
1.0
 40
1.0
 40
1.0
 40
1.0
 10
10.975
 20
11.47156580468835
 30
0.0
 10
11.01290713836796
 20
11.45608336485311
 30
0.0
 10
11.04484532892404
 20
11.43339387240772
 30
0.0
 10
11.08825160787026
 20
11.3801668151269
 30
0.0
 10
11.1
 20
11.34951530563131
 30
0.0
 10
11.1
 20
11.3184033870012
 30
0.0
  0
SPLINE
  5
67
330
1F
100
AcDbEntity
  8
SK1
  6
Continuous
100
AcDbSpline
210
0.0
220
0.0
230
1.0
 70
     8
 71
     3
 72
    38
 73
    34
 74
     0
 42
0.0000000071277598
 43
0.0000000001
 12
1.0
 22
0.0
 32
0.0
 13
1.0
 23
0.0
 33
0.0
 40
0.0
 40
0.0
 40
0.0
 40
0.0
 40
0.0205064371861673
 40
0.0205064371861673
 40
0.0205064371861673
 40
0.1388524512368108
 40
0.1388524512368108
 40
0.1388524512368108
 40
0.2551255488779066
 40
0.2551255488779066
 40
0.2551255488779066
 40
0.3656728430751403
 40
0.3656728430751403
 40
0.3656728430751403
 40
0.4700202743170935
 40
0.4700202743170935
 40
0.4700202743170935
 40
0.5002565309396735
 40
0.5002565309396735
 40
0.5002565309396735
 40
0.6005246413271011
 40
0.6005246413271011
 40
0.6005246413271011
 40
0.7006646003117811
 40
0.7006646003117811
 40
0.7006646003117811
 40
0.8027870070745335
 40
0.8027870070745335
 40
0.8027870070745335
 40
0.9098486170037363
 40
0.9098486170037363
 40
0.9098486170037363
 40
1.0
 40
1.0
 40
1.0
 40
1.0
 10
-31.37482550242866
 20
10.66496355253358
 30
0.0
 10
-31.38581937923542
 20
10.66387044760067
 30
0.0
 10
-31.39681947506611
 20
10.66301496315615
 30
0.0
 10
-31.40779718563788
 20
10.66239997600394
 30
0.0
 10
-31.47050607706787
 20
10.65888693361622
 30
0.0
 10
-31.5335598501593
 20
10.66337387712251
 30
0.0
 10
-31.59143035494255
 20
10.67571526545079
 30
0.0
 10
-31.64825862856994
 20
10.68783438892289
 30
0.0
 10
-31.70175239188399
 20
10.70792462937904
 30
0.0
 10
-31.74665015516846
 20
10.73443375495548
 30
0.0
 10
-31.78935350093356
 20
10.75964722379241
 30
0.0
 10
-31.82552573033948
 20
10.79144045211437
 30
0.0
 10
-31.85138053802825
 20
10.82700811495874
 30
0.0
 10
-31.87580937163469
 20
10.86061410916509
 30
0.0
 10
-31.89172624624204
 20
10.8985689348989
 30
0.0
 10
-31.89747265595433
 20
10.93748475334697
 30
0.0
 10
-31.89916172495467
 20
10.94892346131495
 30
0.0
 10
-31.90000684361279
 20
10.96050599350113
 30
0.0
 10
-31.89999995814404
 20
10.97213871400674
 30
0.0
 10
-31.89997742515108
 20
11.01020729280709
 30
0.0
 10
-31.89057321527215
 20
11.04952076704838
 30
0.0
 10
-31.87271163415087
 20
11.08681042242243
 30
0.0
 10
-31.85486277764977
 20
11.12407351258378
 30
0.0
 10
-31.82811779630102
 20
11.16032561456851
 30
0.0
 10
-31.79490912252935
 20
11.192852286938
 30
0.0
 10
-31.76103207317567
 20
11.22603360856345
 30
0.0
 10
-31.71958065994204
 20
11.25621592962931
 30
0.0
 10
-31.67398985807683
 20
11.28141910498506
 30
0.0
 10
-31.62620887702254
 20
11.30783303926376
 30
0.0
 10
-31.5726723562189
 20
11.3294754845804
 30
0.0
 10
-31.5175606449747
 20
11.34506153178788
 30
0.0
 10
-31.4711613344343
 20
11.35818364010481
 30
0.0
 10
-31.42277678208944
 20
11.36730260880763
 30
0.0
 10
-31.37482550242866
 20
11.37207033372012
 30
0.0
  0
LINE
  5
68
330
1F
100
AcDbEntity
  8
SK1
  6
Continuous
100
AcDbLine
 10
4.1
 20
-20.192820323
 30
0.0
 11
4.1
 21
-14.6276556846
 31
0.0
  0
LINE
  5
69
330
1F
100
AcDbEntity
  8
SK1
  6
Continuous
100
AcDbLine
 10
4.5392304845
 20
-20.4464101615
 30
0.0
 11
4.5392304845
 21
-14.8070250928
 31
0.0
  0
LINE
  5
6A
330
1F
100
AcDbEntity
  8
SK3
100
AcDbLine
 10
-29.6
 20
7.5927695084
 30
0.0
 11
-29.6
 21
9.6234279662
 31
0.0
  0
LINE
  5
6B
330
1F
100
AcDbEntity
  8
SK3
100
AcDbLine
 10
-17.4216878365
 20
7.5927695084
 30
0.0
 11
-17.4216878365
 21
9.6234279662
 31
0.0
  0
LINE
  5
6C
330
1F
100
AcDbEntity
  8
SK1
  6
Continuous
100
AcDbLine
 10
3.9
 20
18.1
 30
0.0
 11
3.9
 21
13.147301864
 31
0.0
  0
SPLINE
  5
6D
330
1F
100
AcDbEntity
  8
SK3
100
AcDbSpline
210
0.0
220
0.0
230
1.0
 70
     8
 71
     3
 72
    38
 73
    34
 74
     0
 42
0.000000007325913
 43
0.0000000001
 12
1.0
 22
0.0
 32
0.0
 13
1.0
 23
0.0
 33
0.0
 40
0.0
 40
0.0
 40
0.0
 40
0.0
 40
0.0119236777067165
 40
0.0119236777067165
 40
0.0119236777067165
 40
0.1216018185066652
 40
0.1216018185066652
 40
0.1216018185066652
 40
0.2306757318753998
 40
0.2306757318753998
 40
0.2306757318753998
 40
0.3385590645613887
 40
0.3385590645613887
 40
0.3385590645613887
 40
0.4454454483437051
 40
0.4454454483437051
 40
0.4454454483437051
 40
0.4996629307239554
 40
0.4996629307239554
 40
0.4996629307239554
 40
0.6058987610844463
 40
0.6058987610844463
 40
0.6058987610844463
 40
0.7121188889240235
 40
0.7121188889240235
 40
0.7121188889240235
 40
0.818591231294875
 40
0.818591231294875
 40
0.818591231294875
 40
0.9257987705094816
 40
0.9257987705094816
 40
0.9257987705094816
 40
1.0
 40
1.0
 40
1.0
 40
1.0
 10
-32.0515895562697
 20
8.831465869499848
 30
0.0
 10
-32.0579034138209
 20
8.831465869499851
 30
0.0
 10
-32.06421834945431
 20
8.831386903927653
 30
0.0
 10
-32.07052789710028
 20
8.831228981522141
 30
0.0
 10
-32.1279046192298
 20
8.829792892837585
 30
0.0
 10
-32.18572356981046
 20
8.821628556813476
 30
0.0
 10
-32.23912138258507
 20
8.807296347284488
 30
0.0
 10
-32.29222224529514
 20
8.793043840468469
 30
0.0
 10
-32.3424325095282
 20
8.772281694910031
 30
0.0
 10
-32.38545231486686
 20
8.74657969285857
 30
0.0
 10
-32.42800855585419
 20
8.721154645382219
 30
0.0
 10
-32.46471524412374
 20
8.690176643947025
 30
0.0
 10
-32.49242889519215
 20
8.656091437017885
 30
0.0
 10
-32.51989097826318
 20
8.622315635270548
 30
0.0
 10
-32.53928680700785
 20
8.58454439205359
 30
0.0
 10
-32.54896824573392
 20
8.545845374833613
 30
0.0
 10
-32.55393192158613
 20
8.526004379841623
 30
0.0
 10
-32.55644816058206
 20
8.505712987895476
 30
0.0
 10
-32.5564597109235
 20
8.485422794416285
 30
0.0
 10
-32.55648210552942
 20
8.446082755032412
 30
0.0
 10
-32.54689257962482
 20
8.40590888805795
 30
0.0
 10
-32.52849817889184
 20
8.368275540821125
 30
0.0
 10
-32.51010527849441
 20
8.330645263140646
 30
0.0
 10
-32.48240553902613
 20
8.294524568104363
 30
0.0
 10
-32.44771671939279
 20
8.262985916156499
 30
0.0
 10
-32.41294329287831
 20
8.231370340663677
 30
0.0
 10
-32.37020098606606
 20
8.203500185332551
 30
0.0
 10
-32.32303044063574
 20
8.181738846856025
 30
0.0
 10
-32.27553426702804
 20
8.159827285291746
 30
0.0
 10
-32.222261501765
 20
8.14351481411145
 30
0.0
 10
-32.16757255994987
 20
8.134151501311145
 30
0.0
 10
-32.12967184563566
 20
8.127662506795975
 30
0.0
 10
-32.0905043921037
 20
8.124359088313371
 30
0.0
 10
-32.0515895562697
 20
8.1243590883133
 30
0.0
  0
SPLINE
  5
6E
330
1F
100
AcDbEntity
  8
SK1
  6
Continuous
100
AcDbSpline
210
0.0
220
0.0
230
1.0
 70
     8
 71
     3
 72
    14
 73
    10
 74
     0
 42
0.0000000003171633
 43
0.0000000001
 12
1.0
 22
0.0
 32
0.0
 13
1.0
 23
0.0
 33
0.0
 40
0.0
 40
0.0
 40
0.0
 40
0.0
 40
0.0727105939112208
 40
0.0727105939112208
 40
0.0727105939112208
 40
0.9543894593590927
 40
0.9543894593590927
 40
0.9543894593590927
 40
1.0
 40
1.0
 40
1.0
 40
1.0
 10
-31.37482550242866
 20
10.66496355253358
 30
0.0
 10
-30.61439977657527
 20
10.74057155930462
 30
0.0
 10
-29.85397389470069
 20
10.81617878148958
 30
0.0
 10
-29.09354786606347
 20
10.89178526562446
 30
0.0
 10
-19.87272429600838
 20
11.80857930568287
 30
0.0
 10
-10.65187997076243
 20
12.72526897224824
 30
0.0
 10
-1.431025119057849
 20
13.64190568808851
 30
0.0
 10
-0.9540167757026118
 20
13.68932464959626
 30
0.0
 10
-0.4770084023847549
 20
13.73674346040062
 30
0.0
 10
0.0
 20
13.78416212500541
 30
0.0
  0
SPLINE
  5
6F
330
1F
100
AcDbEntity
  8
SK3
100
AcDbSpline
210
0.0
220
0.0
230
1.0
 70
     8
 71
     3
 72
    10
 73
     6
 74
     0
 42
0.0000000180495413
 43
0.0000000001
 12
1.0
 22
0.0
 32
0.0
 13
1.0
 23
0.0
 33
0.0
 40
0.0
 40
0.0
 40
0.0
 40
0.0
 40
0.5
 40
0.5
 40
1.0
 40
1.0
 40
1.0
 40
1.0
 10
11.1
 20
7.699706818787756
 30
0.0
 10
11.1
 20
7.626023684349478
 30
0.0
 10
11.05723480345935
 20
7.552278660573789
 30
0.0
 10
10.90905765870643
 20
7.4471700065706
 30
0.0
 10
10.80422095791008
 20
7.416581743366738
 30
0.0
 10
10.7
 20
7.416581743366738
 30
0.0
  0
LINE
  5
70
330
1F
100
AcDbEntity
  8
SK3
100
AcDbLine
 10
10.7
 20
7.4165817434
 30
0.0
 11
-12.7
 21
7.4165817434
 31
0.0
  0
LINE
  5
71
330
1F
100
AcDbEntity
  8
SK3
100
AcDbLine
 10
-12.7
 20
7.770485014
 30
0.0
 11
-16.7
 21
7.770485014
 31
0.0
  0
LINE
  5
72
330
1F
100
AcDbEntity
  8
SK3
100
AcDbLine
 10
-16.7
 20
7.770485014
 30
0.0
 11
-17.4216878365
 21
6.8856627272
 31
0.0
  0
LINE
  5
73
330
1F
100
AcDbEntity
  8
SK3
100
AcDbLine
 10
-17.4216878365
 20
6.8856627272
 30
0.0
 11
-29.6
 21
6.8856627272
 31
0.0
  0
LINE
  5
74
330
1F
100
AcDbEntity
  8
SK3
100
AcDbLine
 10
-29.6
 20
6.8856627272
 30
0.0
 11
-31.1
 21
7.9474254673
 31
0.0
  0
LINE
  5
75
330
1F
100
AcDbEntity
  8
SK3
100
AcDbLine
 10
-31.1
 20
7.9474254673
 30
0.0
 11
-31.3190524981
 21
7.9474254673
 31
0.0
  0
LINE
  5
76
330
1F
100
AcDbEntity
  8
SK3
100
AcDbLine
 10
-31.9
 20
8.1243590883
 30
0.0
 11
-32.0515895563
 21
8.1243590883
 31
0.0
  0
ARC
  5
77
330
1F
100
AcDbEntity
  8
SK3
100
AcDbCircle
 10
-31.8817503185
 20
7.1420661509
 30
0.0
 40
0.9824624500500817
100
AcDbArc
 50
55.0583218633
 51
91.0643560635
  0
LINE
  5
78
330
1F
100
AcDbEntity
  8
SK1
  6
Continuous
100
AcDbLine
 10
10.975
 20
11.4715658047
 30
0.0
 11
4.5392304845
 21
14.0999183116
 31
0.0
  0
LINE
  5
79
330
1F
100
AcDbEntity
  8
SK1
  6
Continuous
100
AcDbLine
 10
4.5392304845
 20
14.0999183116
 30
0.0
 11
4.1
 21
13.9205489034
 31
0.0
  0
SPLINE
  5
7A
330
1F
100
AcDbEntity
  8
SK1
  6
Continuous
100
AcDbSpline
210
0.0
220
0.0
230
1.0
 70
     8
 71
     3
 72
    10
 73
     6
 74
     0
 42
0.0000000361107625
 43
0.0000000001
 12
1.0
 22
0.0
 32
0.0
 13
1.0
 23
0.0
 33
0.0
 40
0.0
 40
0.0
 40
0.0
 40
0.0
 40
0.5
 40
0.5
 40
1.0
 40
1.0
 40
1.0
 40
1.0
 10
4.1
 20
12.58166983902282
 30
0.0
 10
4.100000000000007
 20
12.54475861062465
 30
0.0
 10
4.078394229249674
 20
12.50784607448606
 30
0.0
 10
4.004774091119802
 20
12.45564892064889
 30
0.0
 10
3.952166868815384
 20
12.44019508278236
 30
0.0
 10
3.900000000000209
 20
12.440195082781
 30
0.0
  0
LINE
  5
7B
330
1F
100
AcDbEntity
  8
SK1
  6
Continuous
100
AcDbLine
 10
3.9
 20
12.4401950828
 30
0.0
 11
0.2
 21
12.4401950828
 31
0.0
  0
SPLINE
  5
7C
330
1F
100
AcDbEntity
  8
SK1
  6
Continuous
100
AcDbSpline
210
0.0
220
0.0
230
1.0
 70
     8
 71
     3
 72
    10
 73
     6
 74
     0
 42
0.0000000361089013
 43
0.0000000001
 12
1.0
 22
0.0
 32
0.0
 13
1.0
 23
0.0
 33
0.0
 40
0.0
 40
0.0
 40
0.0
 40
0.0
 40
0.5
 40
0.5
 40
1.0
 40
1.0
 40
1.0
 40
1.0
 10
0.2000000000000005
 20
12.4401950827823
 30
0.0
 10
0.1477052099872166
 20
12.4401950827823
 30
0.0
 10
0.0952117781421839
 20
12.4556640593078
 30
0.0
 10
0.0216476327381462
 20
12.50781127612152
 30
0.0
 10
-0.0000000000000017
 20
12.54465228899172
 30
0.0
 10
-0.0000000000000104
 20
12.58166983902282
 30
0.0
  0
SPLINE
  5
7D
330
1F
100
AcDbEntity
  8
SK1
  6
Continuous
100
AcDbSpline
210
0.0
220
0.0
230
1.0
 70
     8
 71
     3
 72
    14
 73
    10
 74
     0
 42
0.0000000003171633
 43
0.0000000001
 12
1.0
 22
0.0
 32
0.0
 13
1.0
 23
0.0
 33
0.0
 40
0.0
 40
0.0
 40
0.0
 40
0.0
 40
0.0727105939112208
 40
0.0727105939112208
 40
0.0727105939112208
 40
0.9543894593590927
 40
0.9543894593590927
 40
0.9543894593590927
 40
1.0
 40
1.0
 40
1.0
 40
1.0
 10
-31.37482550242866
 20
11.37207033372012
 30
0.0
 10
-30.61439977657527
 20
11.44767834049116
 30
0.0
 10
-29.85397389470069
 20
11.52328556267613
 30
0.0
 10
-29.09354786606347
 20
11.59889204681101
 30
0.0
 10
-19.87272429600838
 20
12.51568608686942
 30
0.0
 10
-10.65187997076243
 20
13.43237575343479
 30
0.0
 10
-1.431025119057849
 20
14.34901246927506
 30
0.0
 10
-0.9540167757026118
 20
14.39643143078281
 30
0.0
 10
-0.4770084023847549
 20
14.44385024158717
 30
0.0
 10
0.0
 20
14.49126890619196
 30
0.0
  0
ARC
  5
7E
330
1F
100
AcDbEntity
  8
SK3
100
AcDbCircle
 10
-31.8817503185
 20
7.8491729321
 30
0.0
 40
0.9824624500500869
100
AcDbArc
 50
55.0583218633
 51
91.0643560635
  0
LINE
  5
7F
330
1F
100
AcDbEntity
  8
SK1
  6
Continuous
100
AcDbLine
 10
11.1
 20
11.318403387
 30
0.0
 11
11.1
 21
12.0255101682
 31
0.0
  0
LINE
  5
80
330
1F
100
AcDbEntity
  8
SK1
  6
Continuous
100
AcDbLine
 10
10.975
 20
12.1786725859
 30
0.0
 11
4.5392304845
 21
14.8070250928
 31
0.0
  0
LINE
  5
81
330
1F
100
AcDbEntity
  8
SK1
  6
Continuous
100
AcDbLine
 10
4.5392304845
 20
14.8070250928
 30
0.0
 11
4.1
 21
14.6276556846
 31
0.0
  0
LINE
  5
82
330
1F
100
AcDbEntity
  8
SK1
  6
Continuous
100
AcDbLine
 10
4.1
 20
14.6276556846
 30
0.0
 11
4.1
 21
13.9205489034
 31
0.0
  0
SPLINE
  5
83
330
1F
100
AcDbEntity
  8
SK1
  6
Continuous
100
AcDbSpline
210
0.0
220
0.0
230
1.0
 70
     8
 71
     3
 72
    10
 73
     6
 74
     0
 42
0.0000000361107625
 43
0.0000000001
 12
1.0
 22
0.0
 32
0.0
 13
1.0
 23
0.0
 33
0.0
 40
0.0
 40
0.0
 40
0.0
 40
0.0
 40
0.5
 40
0.5
 40
1.0
 40
1.0
 40
1.0
 40
1.0
 10
4.100000000000693
 20
13.28877662020941
 30
0.0
 10
4.100000000000034
 20
13.25186539181123
 30
0.0
 10
4.078394229249674
 20
13.21495285567258
 30
0.0
 10
4.004774091119667
 20
13.16275570183535
 30
0.0
 10
3.952166868815138
 20
13.14730186396884
 30
0.0
 10
3.900000000000001
 20
13.14730186396885
 30
0.0
  0
LINE
  5
84
330
1F
100
AcDbEntity
  8
SK1
  6
Continuous
100
AcDbLine
 10
3.9
 20
13.147301864
 30
0.0
 11
0.2
 21
13.147301864
 31
0.0
  0
SPLINE
  5
85
330
1F
100
AcDbEntity
  8
SK1
  6
Continuous
100
AcDbSpline
210
0.0
220
0.0
230
1.0
 70
     8
 71
     3
 72
    10
 73
     6
 74
     0
 42
0.0000000361089013
 43
0.0000000001
 12
1.0
 22
0.0
 32
0.0
 13
1.0
 23
0.0
 33
0.0
 40
0.0
 40
0.0
 40
0.0
 40
0.0
 40
0.5
 40
0.5
 40
1.0
 40
1.0
 40
1.0
 40
1.0
 10
0.1999999999999953
 20
13.14730186396881
 30
0.0
 10
0.1477052099872096
 20
13.14730186396884
 30
0.0
 10
0.095211778142177
 20
13.16277084049436
 30
0.0
 10
0.0216476327381428
 20
13.21491805730807
 30
0.0
 10
0.0
 20
13.25175907017826
 30
0.0
 10
0.0
 20
13.28877662020937
 30
0.0
  0
LINE
  5
86
330
1F
100
AcDbEntity
  8
SK1
  6
Continuous
100
AcDbLine
 10
0.0
 20
13.784162125
 30
0.0
 11
0.0
 21
14.4912689062
 31
0.0
  0
ELLIPSE
  5
87
330
1F
100
AcDbEntity
  8
SK1
  6
Continuous
100
AcDbEllipse
 10
41.4773164199
 20
0.3535533778
 30
0.0
 11
-74.50000009553078
 21
2.521399236052342E-8
 31
0.0
210
0.0
220
0.0
230
1.0
 40
0.7071067808
 41
-0.2107174741180051
 42
-0.1972197868337267
  0
LINE
  5
88
330
1F
100
AcDbEntity
  8
SK3
100
AcDbLine
 10
-31.9
 20
8.8314658695
 30
0.0
 11
-32.0515895563
 21
8.8314658695
 31
0.0
  0
SPLINE
  5
89
330
1F
100
AcDbEntity
  8
SK1
  6
Continuous
100
AcDbSpline
210
0.0
220
0.0
230
1.0
 70
     8
 71
     3
 72
    10
 73
     6
 74
     0
 42
0.000000047004811
 43
0.0000000001
 12
1.0
 22
0.0
 32
0.0
 13
1.0
 23
0.0
 33
0.0
 40
0.0
 40
0.0
 40
0.0
 40
0.0
 40
0.5
 40
0.5
 40
1.0
 40
1.0
 40
1.0
 40
1.0
 10
10.975
 20
12.1786725858749
 30
0.0
 10
11.01290713836796
 20
12.16319014603966
 30
0.0
 10
11.04484532892404
 20
12.14050065359427
 30
0.0
 10
11.08825160787026
 20
12.08727359631345
 30
0.0
 10
11.1
 20
12.05662208681786
 30
0.0
 10
11.1
 20
12.02551016818775
 30
0.0
  0
SPLINE
  5
8A
330
1F
100
AcDbEntity
  8
SK3
100
AcDbSpline
210
0.0
220
0.0
230
1.0
 70
     8
 71
     3
 72
    10
 73
     6
 74
     0
 42
0.0000000180495413
 43
0.0000000001
 12
1.0
 22
0.0
 32
0.0
 13
1.0
 23
0.0
 33
0.0
 40
0.0
 40
0.0
 40
0.0
 40
0.0
 40
0.5
 40
0.5
 40
1.0
 40
1.0
 40
1.0
 40
1.0
 10
11.1
 20
8.406813599974305
 30
0.0
 10
11.1
 20
8.333130465536028
 30
0.0
 10
11.05723480345935
 20
8.259385441760339
 30
0.0
 10
10.90905765870643
 20
8.154276787757148
 30
0.0
 10
10.80422095791008
 20
8.123688524553287
 30
0.0
 10
10.7
 20
8.123688524553287
 30
0.0
  0
LINE
  5
8B
330
1F
100
AcDbEntity
  8
SK3
100
AcDbLine
 10
10.7
 20
8.1236885246
 30
0.0
 11
-12.7
 21
8.1236885246
 31
0.0
  0
LINE
  5
8C
330
1F
100
AcDbEntity
  8
SK3
100
AcDbLine
 10
-12.7
 20
8.1236885246
 30
0.0
 11
-12.7
 21
8.4775917952
 31
0.0
  0
LINE
  5
8D
330
1F
100
AcDbEntity
  8
SK3
100
AcDbLine
 10
-12.7
 20
8.4775917952
 30
0.0
 11
-16.7
 21
8.4775917952
 31
0.0
  0
LINE
  5
8E
330
1F
100
AcDbEntity
  8
SK3
100
AcDbLine
 10
-16.7
 20
8.4775917952
 30
0.0
 11
-17.4216878365
 21
7.5927695084
 31
0.0
  0
LINE
  5
8F
330
1F
100
AcDbEntity
  8
SK3
100
AcDbLine
 10
-17.4216878365
 20
7.5927695084
 30
0.0
 11
-29.6
 21
7.5927695084
 31
0.0
  0
LINE
  5
90
330
1F
100
AcDbEntity
  8
SK3
100
AcDbLine
 10
-29.6
 20
7.5927695084
 30
0.0
 11
-31.1
 21
8.6545322485
 31
0.0
  0
LINE
  5
91
330
1F
100
AcDbEntity
  8
SK3
100
AcDbLine
 10
-31.1
 20
8.6545322485
 30
0.0
 11
-31.3190524981
 21
8.6545322485
 31
0.0
  0
SPLINE
  5
92
330
1F
100
AcDbEntity
  8
SK3
100
AcDbSpline
210
0.0
220
0.0
230
1.0
 70
     8
 71
     3
 72
    10
 73
     6
 74
     0
 42
0.0000000248270857
 43
0.0000000001
 12
1.0
 22
0.0
 32
0.0
 13
1.0
 23
0.0
 33
0.0
 40
0.0
 40
0.0
 40
0.0
 40
0.0
 40
0.5
 40
0.5
 40
1.0
 40
1.0
 40
1.0
 40
1.0
 10
-34.65
 20
-11.98957880828181
 30
0.0
 10
-34.7161071132531
 20
-11.98957880828181
 30
0.0
 10
-34.78076114358922
 20
-12.01675853234863
 30
0.0
 10
-34.87299060176981
 20
-12.10917084670438
 30
0.0
 10
-34.90000000000013
 20
-12.17451926389749
 30
0.0
 10
-34.90000000000292
 20
-12.23979166489399
 30
0.0
  0
SPLINE
  5
93
330
1F
100
AcDbEntity
  8
SK3
100
AcDbSpline
210
0.0
220
0.0
230
1.0
 70
     8
 71
     3
 72
    10
 73
     6
 74
     0
 42
0.0000000248208266
 43
0.0000000001
 12
1.0
 22
0.0
 32
0.0
 13
1.0
 23
0.0
 33
0.0
 40
0.0
 40
0.0
 40
0.0
 40
0.0
 40
0.5
 40
0.5
 40
1.0
 40
1.0
 40
1.0
 40
1.0
 10
-34.90000000000293
 20
12.2397916648933
 30
0.0
 10
-34.89999999999988
 20
12.17457521577105
 30
0.0
 10
-34.87350448863893
 20
12.10968911520028
 30
0.0
 10
-34.78025997354362
 20
12.01625300634749
 30
0.0
 10
-34.71605660063833
 20
11.98957880828116
 30
0.0
 10
-34.65
 20
11.98957880828179
 30
0.0
  0
LINE
  5
94
330
1F
100
AcDbEntity
  8
SK1
  6
Continuous
100
AcDbLine
 10
-34.6417519303
 20
15.1231560552
 30
0.0
 11
-34.6417519303
 21
0.5
 31
0.0
  0
LINE
  5
95
330
1F
100
AcDbEntity
  8
SK1
  6
Continuous
100
AcDbLine
 10
-34.9
 20
-14.8259100579
 30
0.0
 11
-34.9
 21
-0.5
 31
0.0
  0
LINE
  5
96
330
1F
100
AcDbEntity
  8
SK1
  6
Continuous
100
AcDbLine
 10
0.0
 20
-19.9937490231
 30
0.0
 11
0.0
 21
-14.4912689062
 31
0.0
  0
LINE
  5
97
330
1F
100
AcDbEntity
  8
SK3
100
AcDbLine
 10
-30.75
 20
-11.3890298094
 30
0.0
 11
-30.75
 21
-11.2381741454
 31
0.0
  0
LINE
  5
98
330
1F
100
AcDbEntity
  8
SK3
100
AcDbLine
 10
-16.7577350269
 20
11.3890298094
 30
0.0
 11
-16.7577350269
 21
11.2381741454
 31
0.0
  0
LINE
  5
99
330
1F
100
AcDbEntity
  8
SK3
100
AcDbLine
 10
-31.1
 20
-11.7393568819
 30
0.0
 11
-31.1
 21
-8.6545322485
 31
0.0
  0
LINE
  5
9A
330
1F
100
AcDbEntity
  8
SK3
100
AcDbLine
 10
-31.3190524981
 20
-11.7393568819
 30
0.0
 11
-31.3190524981
 21
-8.6545322485
 31
0.0
  0
LINE
  5
9B
330
1F
100
AcDbEntity
  8
SK3
100
AcDbLine
 10
-16.7
 20
-11.4891252931
 30
0.0
 11
-16.7
 21
-8.4775917952
 31
0.0
  0
LINE
  5
9C
330
1F
100
AcDbEntity
  8
SK3
100
AcDbLine
 10
-12.7
 20
-11.4891252931
 30
0.0
 11
-12.7
 21
-8.4775917952
 31
0.0
  0
ARC
  5
9D
330
1F
100
AcDbEntity
  8
SK3
100
AcDbCircle
 10
4.5026461729
 20
-22.1280740084
 30
0.0
 40
11.13944354101683
100
AcDbArc
 50
87.4114281566
 51
90.0034787227
  0
LINE
  5
9E
330
1F
100
AcDbEntity
  8
SK1
  6
Continuous
100
AcDbLine
 10
0.2
 20
18.0930926046
 30
0.0
 11
0.2
 21
13.147301864
 31
0.0
  0
ARC
  5
9F
330
1F
100
AcDbEntity
  8
SK1
  6
Continuous
100
AcDbCircle
 10
3.0872352538
 20
37.1304010841
 30
0.0
 40
19.03730849806286
100
AcDbArc
 50
269.997467191
 51
271.5433612554
  0
ARC
  5
A0
330
1F
100
AcDbEntity
  8
SK3
100
AcDbCircle
 10
4.5026669259
 20
22.1279208575
 30
0.0
 40
11.13929039140677
100
AcDbArc
 50
269.9964144851
 51
272.5884118725
  0
ARC
  5
A1
330
1F
100
AcDbEntity
  8
SK1
  6
Continuous
100
AcDbCircle
 10
3.0872058496
 20
-37.1312641593
 30
0.0
 40
19.03817157198092
100
AcDbArc
 50
88.4565603226
 51
90.0024442018
  0
SPLINE
  5
A2
330
1F
100
AcDbEntity
  8
SK1
  6
Continuous
100
AcDbSpline
210
0.0
220
0.0
230
1.0
 70
     8
 71
     3
 72
    11
 73
     7
 74
     0
 42
0.0000000002858574
 43
0.0000000001
 12
1.0
 22
0.0
 32
0.0
 13
1.0
 23
0.0
 33
0.0
 40
0.0
 40
0.0
 40
0.0
 40
0.0
 40
0.0147921764513963
 40
0.0147921764513963
 40
0.0147921764513963
 40
1.0
 40
1.0
 40
1.0
 40
1.0
 10
0.0
 20
19.9937490231322
 30
0.0
 10
-0.1708093022183034
 20
19.96973583592962
 30
0.0
 10
-0.3416186007091787
 20
19.94572262221328
 30
0.0
 10
-0.5124278954320299
 20
19.92170938169452
 30
0.0
 10
-11.88889125988448
 20
18.32234822592856
 30
0.0
 10
-23.26533959474973
 20
16.72288014422658
 30
0.0
 10
-34.64175193028803
 20
15.12315605516812
 30
0.0
  0
ARC
  5
A3
330
1F
100
AcDbEntity
  8
SK1
  6
Continuous
100
AcDbCircle
 10
-34.599888619
 20
14.8259788203
 30
0.0
 40
0.3001113888759441
100
AcDbArc
 50
98.0184849893
 51
180.0131277922
  0
LINE
  5
A4
330
1F
100
AcDbEntity
  8
SK3
100
AcDbLine
 10
-34.65
 20
11.9895788083
 30
0.0
 11
-31.9
 21
11.9895788083
 31
0.0
  0
LINE
  5
A5
330
1F
100
AcDbEntity
  8
SK3
100
AcDbLine
 10
-31.3190524981
 20
11.7393568819
 30
0.0
 11
-31.1
 21
11.7393568819
 31
0.0
  0
LINE
  5
A6
330
1F
100
AcDbEntity
  8
SK3
100
AcDbLine
 10
-31.1
 20
11.7393568819
 30
0.0
 11
-30.75
 21
11.3890298094
 31
0.0
  0
LINE
  5
A7
330
1F
100
AcDbEntity
  8
SK3
100
AcDbLine
 10
-16.7577350269
 20
11.3890298094
 30
0.0
 11
-16.7
 21
11.4891252931
 31
0.0
  0
LINE
  5
A8
330
1F
100
AcDbEntity
  8
SK3
100
AcDbLine
 10
-16.7
 20
11.4891252931
 30
0.0
 11
-12.7
 21
11.4891252931
 31
0.0
  0
LINE
  5
A9
330
1F
100
AcDbEntity
  8
SK3
100
AcDbLine
 10
-12.7
 20
10.9886304879
 30
0.0
 11
4.5019698398
 21
10.9886304879
 31
0.0
  0
LINE
  5
AA
330
1F
100
AcDbEntity
  8
SK3
100
AcDbLine
 10
4.5019698398
 20
-10.9886304879
 30
0.0
 11
-12.7
 21
-10.9886304879
 31
0.0
  0
LINE
  5
AB
330
1F
100
AcDbEntity
  8
SK3
100
AcDbLine
 10
-12.7
 20
-11.4891252931
 30
0.0
 11
-16.7
 21
-11.4891252931
 31
0.0
  0
LINE
  5
AC
330
1F
100
AcDbEntity
  8
SK3
100
AcDbLine
 10
-16.7
 20
-11.4891252931
 30
0.0
 11
-16.7577350269
 21
-11.3890298094
 31
0.0
  0
LINE
  5
AD
330
1F
100
AcDbEntity
  8
SK3
100
AcDbLine
 10
-30.75
 20
-11.3890298094
 30
0.0
 11
-31.1
 21
-11.7393568819
 31
0.0
  0
LINE
  5
AE
330
1F
100
AcDbEntity
  8
SK3
100
AcDbLine
 10
-31.1
 20
-11.7393568819
 30
0.0
 11
-31.3190524981
 21
-11.7393568819
 31
0.0
  0
LINE
  5
AF
330
1F
100
AcDbEntity
  8
SK3
100
AcDbLine
 10
-31.9
 20
-11.9895788083
 30
0.0
 11
-34.65
 21
-11.9895788083
 31
0.0
  0
ARC
  5
B0
330
1F
100
AcDbEntity
  8
SK1
  6
Continuous
100
AcDbCircle
 10
-34.5998885647
 20
-14.8259787731
 30
0.0
 40
0.3001114431960667
100
AcDbArc
 50
179.9868812219
 51
261.9815059966
  0
SPLINE
  5
B1
330
1F
100
AcDbEntity
  8
SK1
  6
Continuous
100
AcDbSpline
210
0.0
220
0.0
230
1.0
 70
     8
 71
     3
 72
    14
 73
    10
 74
     0
 42
0.0000000002858574
 43
0.0000000001
 12
1.0
 22
0.0
 32
0.0
 13
1.0
 23
0.0
 33
0.0
 40
0.0
 40
0.0
 40
0.0
 40
0.0
 40
0.7593907125152497
 40
0.7593907125152497
 40
0.7593907125152497
 40
0.9852078235482964
 40
0.9852078235482964
 40
0.9852078235482964
 40
1.0
 40
1.0
 40
1.0
 40
1.0
 10
-34.64175193028803
 20
-15.12315605516814
 30
0.0
 10
-25.87289965070863
 20
-16.35621124087178
 30
0.0
 10
-17.10402554243919
 20
-17.58911119395259
 30
0.0
 10
-8.335140364188769
 20
-18.82193239864355
 30
0.0
 10
-5.727570525064561
 20
-19.18853172398976
 30
0.0
 10
-3.119999647818738
 20
-19.55512366537508
 30
0.0
 10
-0.5124278954320299
 20
-19.92170938169454
 30
0.0
 10
-0.3416186007091787
 20
-19.9457226222133
 30
0.0
 10
-0.1708093022183034
 20
-19.96973583592964
 30
0.0
 10
0.0
 20
-19.99374902313221
 30
0.0
  0
SPLINE
  5
B2
330
1F
100
AcDbEntity
  8
SK1
  6
Continuous
100
AcDbSpline
210
0.0
220
0.0
230
1.0
 70
     8
 71
     3
 72
    10
 73
     6
 74
     0
 42
0.0000000310333413
 43
0.0000000001
 12
1.0
 22
0.0
 32
0.0
 13
1.0
 23
0.0
 33
0.0
 40
0.0
 40
0.0
 40
0.0
 40
0.0
 40
0.5
 40
0.5
 40
1.0
 40
1.0
 40
1.0
 40
1.0
 10
0.0
 20
18.29316812364659
 30
0.0
 10
-0.0000000000000035
 20
18.24100806022523
 30
0.0
 10
0.0212070447052175
 20
18.18911501712923
 30
0.0
 10
0.0958151616091852
 20
18.11440725942631
 30
0.0
 10
0.1471684159982563
 20
18.09309260463702
 30
0.0
 10
0.2000000000000005
 20
18.09309260463782
 30
0.0
  0
LINE
  5
B3
330
1F
100
AcDbEntity
  8
SK1
  6
Continuous
100
AcDbLine
 10
0.2
 20
18.0930926046
 30
0.0
 11
3.0863936932
 21
18.0930926046
 31
0.0
  0
LINE
  5
B4
330
1F
100
AcDbEntity
  8
SK1
  6
Continuous
100
AcDbLine
 10
3.0863936932
 20
-18.0930926046
 30
0.0
 11
0.2
 21
-18.0930926046
 31
0.0
  0
SPLINE
  5
B5
330
1F
100
AcDbEntity
  8
SK1
  6
Continuous
100
AcDbSpline
210
0.0
220
0.0
230
1.0
 70
     8
 71
     3
 72
    10
 73
     6
 74
     0
 42
0.0000000310411957
 43
0.0000000001
 12
1.0
 22
0.0
 32
0.0
 13
1.0
 23
0.0
 33
0.0
 40
0.0
 40
0.0
 40
0.0
 40
0.0
 40
0.5
 40
0.5
 40
1.0
 40
1.0
 40
1.0
 40
1.0
 10
0.2000000000000005
 20
-18.09309260463784
 30
0.0
 10
0.147128639963523
 20
-18.09309260463784
 30
0.0
 10
0.0954125877402831
 20
-18.11481291931435
 30
0.0
 10
0.0216193684523282
 20
-18.18869959467851
 30
0.0
 10
-0.0000000000000035
 20
-18.24096270703621
 30
0.0
 10
0.0
 20
-18.29316812364661
 30
0.0
  0
SPLINE
  5
B6
330
1F
100
AcDbEntity
  8
SK3
100
AcDbSpline
210
0.0
220
0.0
230
1.0
 70
     8
 71
     3
 72
     8
 73
     4
 74
     0
 42
0.0000000149660209
 43
0.0000000001
 12
1.0
 22
0.0
 32
0.0
 13
1.0
 23
0.0
 33
0.0
 40
0.0
 40
0.0
 40
0.0
 40
0.0
 40
1.0
 40
1.0
 40
1.0
 40
1.0
 10
-31.90000000000001
 20
-11.9895788082818
 30
0.0
 10
-31.68145155526817
 20
-11.9895788082818
 30
0.0
 10
-31.46923382181505
 20
-11.89813245466248
 30
0.0
 10
-31.31905249806889
 20
-11.7393568818739
 30
0.0
  0
LINE
  5
B7
330
1F
100
AcDbEntity
  8
SK3
100
AcDbLine
 10
-30.75
 20
-11.3890298094
 30
0.0
 11
-16.7577350269
 21
-11.3890298094
 31
0.0
  0
LINE
  5
B8
330
1F
100
AcDbEntity
  8
SK3
100
AcDbLine
 10
-16.7577350269
 20
11.3890298094
 30
0.0
 11
-30.75
 21
11.3890298094
 31
0.0
  0
SPLINE
  5
B9
330
1F
100
AcDbEntity
  8
SK3
100
AcDbSpline
210
0.0
220
0.0
230
1.0
 70
     8
 71
     3
 72
     8
 73
     4
 74
     0
 42
0.0000000149660207
 43
0.0000000001
 12
1.0
 22
0.0
 32
0.0
 13
1.0
 23
0.0
 33
0.0
 40
0.0
 40
0.0
 40
0.0
 40
0.0
 40
1.0
 40
1.0
 40
1.0
 40
1.0
 10
-31.31905249806889
 20
11.73935688187388
 30
0.0
 10
-31.46922902817506
 20
11.89812738670076
 30
0.0
 10
-31.68144446192589
 20
11.98957880828235
 30
0.0
 10
-31.90000000000001
 20
11.98957880828179
 30
0.0
  0
LINE
  5
BA
330
1F
100
AcDbEntity
  8
SK1
  6
Continuous
100
AcDbLine
 10
11.1
 20
-12.0255101682
 30
0.0
 11
11.1
 21
-16.5142105484
 31
0.0
  0
LINE
  5
BB
330
1F
100
AcDbEntity
  8
SK1
  6
Continuous
100
AcDbLine
 10
10.975
 20
-11.4715658047
 30
0.0
 11
10.975
 21
11.4715658047
 31
0.0
  0
SPLINE
  5
BC
330
1F
100
AcDbEntity
  8
SK1
  6
Continuous
100
AcDbSpline
210
0.0
220
0.0
230
1.0
 70
     8
 71
     3
 72
    10
 73
     6
 74
     0
 42
0.0000000470101661
 43
0.0000000001
 12
1.0
 22
0.0
 32
0.0
 13
1.0
 23
0.0
 33
0.0
 40
0.0
 40
0.0
 40
0.0
 40
0.0
 40
0.5
 40
0.5
 40
1.0
 40
1.0
 40
1.0
 40
1.0
 10
10.97500000000576
 20
-12.17867258588022
 30
0.0
 10
11.01258802011282
 20
-12.16332048373832
 30
0.0
 10
11.04491579498158
 20
-12.14042802546919
 30
0.0
 10
11.08823725599735
 20
-12.08727739642173
 30
0.0
 10
11.1
 20
-12.0564620588444
 30
0.0
 10
11.1
 20
-12.02551016818776
 30
0.0
  0
LINE
  5
BD
330
1F
100
AcDbEntity
  8
SK1
  6
Continuous
100
AcDbLine
 10
4.1
 20
-13.9205489034
 30
0.0
 11
4.1
 21
13.9205489034
 31
0.0
  0
LINE
  5
BE
330
1F
100
AcDbEntity
  8
SK1
  6
Continuous
100
AcDbLine
 10
4.5392304845
 20
-14.0999183116
 30
0.0
 11
4.5392304845
 21
14.0999183116
 31
0.0
  0
LINE
  5
BF
330
1F
100
AcDbEntity
  8
SK1
  6
Continuous
100
AcDbLine
 10
3.9
 20
-12.4401950828
 30
0.0
 11
3.9
 21
12.4401950828
 31
0.0
  0
LINE
  5
C0
330
1F
100
AcDbEntity
  8
SK3
100
AcDbLine
 10
-17.4216878365
 20
-6.8856627272
 30
0.0
 11
-17.4216878365
 21
-3.5287581638
 31
0.0
  0
LINE
  5
C1
330
1F
100
AcDbEntity
  8
SK3
100
AcDbLine
 10
-29.6
 20
-6.8856627272
 30
0.0
 11
-29.6
 21
-3.5287581638
 31
0.0
  0
LINE
  5
C2
330
1F
100
AcDbEntity
  8
SK1
  6
Continuous
100
AcDbLine
 10
11.1
 20
12.0255101682
 30
0.0
 11
11.1
 21
16.5142105484
 31
0.0
  0
LINE
  5
C3
330
1F
100
AcDbEntity
  8
SK1
  6
Continuous
100
AcDbLine
 10
0.0
 20
-13.784162125
 30
0.0
 11
0.0
 21
-0.5
 31
0.0
  0
LINE
  5
C4
330
1F
100
AcDbEntity
  8
SK3
100
AcDbLine
 10
-31.1
 20
-7.9474254673
 30
0.0
 11
-31.1
 21
-0.5
 31
0.0
  0
LINE
  5
C5
330
1F
100
AcDbEntity
  8
SK3
100
AcDbLine
 10
-31.3190524981
 20
-7.9474254673
 30
0.0
 11
-31.3190524981
 21
-0.5
 31
0.0
  0
LINE
  5
C6
330
1F
100
AcDbEntity
  8
SK3
100
AcDbLine
 10
-16.7
 20
-7.770485014
 30
0.0
 11
-16.7
 21
-0.5
 31
0.0
  0
LINE
  5
C7
330
1F
100
AcDbEntity
  8
SK3
100
AcDbLine
 10
-12.7
 20
-7.770485014
 30
0.0
 11
-12.7
 21
-0.5
 31
0.0
  0
LINE
  5
C8
330
1F
100
AcDbEntity
  8
SK1
  6
Continuous
100
AcDbLine
 10
0.2
 20
-13.147301864
 30
0.0
 11
0.2
 21
-18.0930926046
 31
0.0
  0
SPLINE
  5
C9
330
1F
100
AcDbEntity
  8
SK3
100
AcDbSpline
210
0.0
220
0.0
230
1.0
 70
     8
 71
     3
 72
    38
 73
    34
 74
     0
 42
0.0000000073257701
 43
0.0000000001
 12
1.0
 22
0.0
 32
0.0
 13
1.0
 23
0.0
 33
0.0
 40
0.0
 40
0.0
 40
0.0
 40
0.0
 40
0.0119236777067165
 40
0.0119236777067165
 40
0.0119236777067165
 40
0.1216018185066653
 40
0.1216018185066653
 40
0.1216018185066653
 40
0.2306757318754
 40
0.2306757318754
 40
0.2306757318754
 40
0.338559064561389
 40
0.338559064561389
 40
0.338559064561389
 40
0.4454454483437056
 40
0.4454454483437056
 40
0.4454454483437056
 40
0.4996629307239713
 40
0.4996629307239713
 40
0.4996629307239713
 40
0.6058987610844592
 40
0.6058987610844592
 40
0.6058987610844592
 40
0.7121188889240289
 40
0.7121188889240289
 40
0.7121188889240289
 40
0.8185912312948757
 40
0.8185912312948757
 40
0.8185912312948757
 40
0.9257987705094866
 40
0.9257987705094866
 40
0.9257987705094866
 40
1.0
 40
1.0
 40
1.0
 40
1.0
 10
-32.0515895562697
 20
-8.124359088313316
 30
0.0
 10
-32.0579034138209
 20
-8.124359088313318
 30
0.0
 10
-32.06421834945431
 20
-8.124444929196128
 30
0.0
 10
-32.07052789710028
 20
-8.12461658639491
 30
0.0
 10
-32.1279046192298
 20
-8.12617757427369
 30
0.0
 10
-32.18572356981046
 20
-8.135066985986036
 30
0.0
 10
-32.23912138258507
 20
-8.150554033383814
 30
0.0
 10
-32.29222224529514
 20
-8.165954955910827
 30
0.0
 10
-32.3424325095282
 20
-8.1883138182095
 30
0.0
 10
-32.38545231486686
 20
-8.215676702285332
 30
0.0
 10
-32.42800855585419
 20
-8.24274473478042
 30
0.0
 10
-32.46471524412374
 20
-8.275460832824436
 30
0.0
 10
-32.49242889519215
 20
-8.310961498766892
 30
0.0
 10
-32.51989097826318
 20
-8.346139910834726
 30
0.0
 10
-32.53928680700785
 20
-8.38502452841202
 30
0.0
 10
-32.54896824573392
 20
-8.424281977084743
 30
0.0
 10
-32.55393192158613
 20
-8.44440928001046
 30
0.0
 10
-32.55644816058206
 20
-8.464849081873593
 30
0.0
 10
-32.5564597109235
 20
-8.485139951703843
 30
0.0
 10
-32.55648210552942
 20
-8.524481302444219
 30
0.0
 10
-32.54689257962482
 20
-8.564079214531388
 30
0.0
 10
-32.52849817889183
 20
-8.600695580759442
 30
0.0
 10
-32.51010527849441
 20
-8.637308960381006
 30
0.0
 10
-32.48240553902613
 20
-8.671952130348528
 30
0.0
 10
-32.44771671939279
 20
-8.701900008009712
 30
0.0
 10
-32.41294329287832
 20
-8.731920929278392
 30
0.0
 10
-32.37020098606605
 20
-8.758051703456179
 30
0.0
 10
-32.32303044063574
 20
-8.778334092630956
 30
0.0
 10
-32.27553426702804
 20
-8.798756495395994
 30
0.0
 10
-32.222261501765
 20
-8.813814649149522
 30
0.0
 10
-32.16757255994986
 20
-8.822447469592413
 30
0.0
 10
-32.12967184563565
 20
-8.828430215838228
 30
0.0
 10
-32.0905043921037
 20
-8.83146586949996
 30
0.0
 10
-32.0515895562697
 20
-8.831465869499864
 30
0.0
  0
SPLINE
  5
CA
330
1F
100
AcDbEntity
  8
SK1
  6
Continuous
100
AcDbSpline
210
0.0
220
0.0
230
1.0
 70
     8
 71
     3
 72
    38
 73
    34
 74
     0
 42
0.000000007128242
 43
0.0000000001
 12
1.0
 22
0.0
 32
0.0
 13
1.0
 23
0.0
 33
0.0
 40
0.0
 40
0.0
 40
0.0
 40
0.0
 40
0.0205064371862546
 40
0.0205064371862546
 40
0.0205064371862546
 40
0.1388524512368747
 40
0.1388524512368747
 40
0.1388524512368747
 40
0.2551255488779722
 40
0.2551255488779722
 40
0.2551255488779722
 40
0.3656728430751975
 40
0.3656728430751975
 40
0.3656728430751975
 40
0.4700202743171495
 40
0.4700202743171495
 40
0.4700202743171495
 40
0.5002565309396506
 40
0.5002565309396506
 40
0.5002565309396506
 40
0.6005246413270828
 40
0.6005246413270828
 40
0.6005246413270828
 40
0.7006646003117656
 40
0.7006646003117656
 40
0.7006646003117656
 40
0.8027870070745246
 40
0.8027870070745246
 40
0.8027870070745246
 40
0.9098486170037182
 40
0.9098486170037182
 40
0.9098486170037182
 40
1.0
 40
1.0
 40
1.0
 40
1.0
 10
-31.37482550242866
 20
-11.37207033372014
 30
0.0
 10
-31.38581937923547
 20
-11.37097722878723
 30
0.0
 10
-31.39681947506621
 20
-11.36966009394325
 30
0.0
 10
-31.40779718563803
 20
-11.36812167090784
 30
0.0
 10
-31.47050607706801
 20
-11.35933360872768
 30
0.0
 10
-31.53355985015942
 20
-11.34298834390169
 30
0.0
 10
-31.59143035494266
 20
-11.32017011920429
 30
0.0
 10
-31.64825862857003
 20
-11.29776284417442
 30
0.0
 10
-31.70175239188409
 20
-11.26840937671002
 30
0.0
 10
-31.74665015516855
 20
-11.23435252828434
 30
0.0
 10
-31.78935350093363
 20
-11.20196023816564
 30
0.0
 10
-31.82552573033953
 20
-11.16431887636177
 30
0.0
 10
-31.85138053802829
 20
-11.12463228557063
 30
0.0
 10
-31.87580937163473
 20
-11.08713453526771
 30
0.0
 10
-31.89172624624207
 20
-11.04671126874365
 30
0.0
 10
-31.89747265595434
 20
-11.00690235158074
 30
0.0
 10
-31.89916172495467
 20
-10.99520113094331
 30
0.0
 10
-31.90000684361278
 20
-10.9834875231417
 30
0.0
 10
-31.89999995814404
 20
-10.97185587129431
 30
0.0
 10
-31.89997742515108
 20
-10.93379078972391
 30
0.0
 10
-31.89057321527216
 20
-10.8959271799426
 30
0.0
 10
-31.87271163415087
 20
-10.86145091047348
 30
0.0
 10
-31.85486277764978
 20
-10.82699920195625
 30
0.0
 10
-31.82811779630103
 20
-10.79499722197807
 30
0.0
 10
-31.79490912252936
 20
-10.76791882916348
 30
0.0
 10
-31.76103207317568
 20
-10.7402954420898
 30
0.0
 10
-31.71958065994204
 20
-10.71706495179251
 30
0.0
 10
-31.67398985807684
 20
-10.69980271472947
 30
0.0
 10
-31.62620887702255
 20
-10.68171120090828
 30
0.0
 10
-31.57267235621891
 20
-10.66969503035648
 30
0.0
 10
-31.51756064497472
 20
-10.6644228995619
 30
0.0
 10
-31.47116133443431
 20
-10.65998421986163
 30
0.0
 10
-31.42277678208944
 20
-10.66019582762109
 30
0.0
 10
-31.37482550242866
 20
-10.66496355253359
 30
0.0
  0
SPLINE
  5
CB
330
1F
100
AcDbEntity
  8
SK1
  6
Continuous
100
AcDbSpline
210
0.0
220
0.0
230
1.0
 70
     8
 71
     3
 72
    14
 73
    10
 74
     0
 42
0.0000000003171633
 43
0.0000000001
 12
1.0
 22
0.0
 32
0.0
 13
1.0
 23
0.0
 33
0.0
 40
0.0
 40
0.0
 40
0.0
 40
0.0
 40
0.0761139014928399
 40
0.0761139014928399
 40
0.0761139014928399
 40
0.9586243250933802
 40
0.9586243250933802
 40
0.9586243250933802
 40
1.0
 40
1.0
 40
1.0
 40
1.0
 10
-31.37482550242866
 20
-11.37207033372014
 30
0.0
 10
-30.57880712770784
 20
-11.45121726499764
 30
0.0
 10
-29.78278858202497
 20
-11.53036333655599
 30
0.0
 10
-28.98676987598049
 20
-11.60950860167564
 30
0.0
 10
-19.7572494910293
 20
-12.52716648112922
 30
0.0
 10
-10.5277083705177
 20
-13.44472008570806
 30
0.0
 10
-1.298156733486659
 20
-14.36222078953706
 30
0.0
 10
-0.8654378466896716
 20
-14.40523695097262
 30
0.0
 10
-0.4327189353049814
 20
-14.44825298873898
 30
0.0
 10
0.0
 20
-14.49126890619197
 30
0.0
  0
SPLINE
  5
CC
330
1F
100
AcDbEntity
  8
SK3
100
AcDbSpline
210
0.0
220
0.0
230
1.0
 70
     8
 71
     3
 72
    10
 73
     6
 74
     0
 42
0.0000000180465722
 43
0.0000000001
 12
1.0
 22
0.0
 32
0.0
 13
1.0
 23
0.0
 33
0.0
 40
0.0
 40
0.0
 40
0.0
 40
0.0
 40
0.5
 40
0.5
 40
1.0
 40
1.0
 40
1.0
 40
1.0
 10
11.1
 20
-8.40681359997432
 30
0.0
 10
11.1
 20
-8.332709203576323
 30
0.0
 10
11.05713716096936
 20
-8.25922360045115
 30
0.0
 10
10.90865709329134
 20
-8.154085539289154
 30
0.0
 10
10.80469516925846
 20
-8.123688524553303
 30
0.0
 10
10.7
 20
-8.123688524553277
 30
0.0
  0
LINE
  5
CD
330
1F
100
AcDbEntity
  8
SK3
100
AcDbLine
 10
10.7
 20
-8.1236885246
 30
0.0
 11
-12.7
 21
-8.1236885246
 31
0.0
  0
LINE
  5
CE
330
1F
100
AcDbEntity
  8
SK3
100
AcDbLine
 10
-12.7
 20
-8.1236885246
 30
0.0
 11
-12.7
 21
-8.4775917952
 31
0.0
  0
LINE
  5
CF
330
1F
100
AcDbEntity
  8
SK3
100
AcDbLine
 10
-12.7
 20
-8.4775917952
 30
0.0
 11
-16.7
 21
-8.4775917952
 31
0.0
  0
LINE
  5
D0
330
1F
100
AcDbEntity
  8
SK3
100
AcDbLine
 10
-16.7
 20
-8.4775917952
 30
0.0
 11
-17.4216878365
 21
-7.5927695084
 31
0.0
  0
LINE
  5
D1
330
1F
100
AcDbEntity
  8
SK3
100
AcDbLine
 10
-17.4216878365
 20
-7.5927695084
 30
0.0
 11
-29.6
 21
-7.5927695084
 31
0.0
  0
SPLINE
  5
D2
330
1F
100
AcDbEntity
  8
SK3
100
AcDbSpline
210
0.0
220
0.0
230
1.0
 70
     8
 71
     3
 72
     8
 73
     4
 74
     0
 42
0.0000000054414244
 43
0.0000000001
 12
1.0
 22
0.0
 32
0.0
 13
1.0
 23
0.0
 33
0.0
 40
0.0
 40
0.0
 40
0.0
 40
0.0
 40
1.0
 40
1.0
 40
1.0
 40
1.0
 10
-29.6
 20
-7.592769508378407
 30
0.0
 10
-30.09996190891905
 20
-7.946717331115058
 30
0.0
 10
-30.59996678083264
 20
-8.300634809102863
 30
0.0
 10
-31.1
 20
-8.654532248535276
 30
0.0
  0
LINE
  5
D3
330
1F
100
AcDbEntity
  8
SK3
100
AcDbLine
 10
-31.1
 20
-8.6545322485
 30
0.0
 11
-31.3190524981
 21
-8.6545322485
 31
0.0
  0
LINE
  5
D4
330
1F
100
AcDbEntity
  8
SK3
100
AcDbLine
 10
-31.9
 20
-8.8314658695
 30
0.0
 11
-32.0515895563
 21
-8.8314658695
 31
0.0
  0
ARC
  5
D5
330
1F
100
AcDbEntity
  8
SK3
100
AcDbCircle
 10
-31.8817617282
 20
-7.8491354695
 30
0.0
 40
0.9824996943273141
100
AcDbArc
 50
268.9363497707
 51
304.9409723025
  0
LINE
  5
D6
330
1F
100
AcDbEntity
  8
SK1
  6
Continuous
100
AcDbLine
 10
11.1
 20
-11.318403387
 30
0.0
 11
11.1
 21
-12.0255101682
 31
0.0
  0
LINE
  5
D7
330
1F
100
AcDbEntity
  8
SK1
  6
Continuous
100
AcDbLine
 10
10.975
 20
-12.1786725859
 30
0.0
 11
4.5392304845
 21
-14.8070250928
 31
0.0
  0
LINE
  5
D8
330
1F
100
AcDbEntity
  8
SK1
  6
Continuous
100
AcDbLine
 10
4.5392304845
 20
-14.8070250928
 30
0.0
 11
4.1
 21
-14.6276556846
 31
0.0
  0
LINE
  5
D9
330
1F
100
AcDbEntity
  8
SK1
  6
Continuous
100
AcDbLine
 10
4.1
 20
-14.6276556846
 30
0.0
 11
4.1
 21
-13.9205489034
 31
0.0
  0
SPLINE
  5
DA
330
1F
100
AcDbEntity
  8
SK1
  6
Continuous
100
AcDbSpline
210
0.0
220
0.0
230
1.0
 70
     8
 71
     3
 72
    10
 73
     6
 74
     0
 42
0.0000000360999878
 43
0.0000000001
 12
1.0
 22
0.0
 32
0.0
 13
1.0
 23
0.0
 33
0.0
 40
0.0
 40
0.0
 40
0.0
 40
0.0
 40
0.5
 40
0.5
 40
1.0
 40
1.0
 40
1.0
 40
1.0
 10
4.1
 20
-13.28877662020938
 30
0.0
 10
4.1
 20
-13.25149190872759
 30
0.0
 10
4.078265189854599
 20
-13.21478410278369
 30
0.0
 10
4.004483735122317
 20
-13.16262754144583
 30
0.0
 10
3.952819149946534
 20
-13.14730186396886
 30
0.0
 10
3.900000000000001
 20
-13.14730186396886
 30
0.0
  0
LINE
  5
DB
330
1F
100
AcDbEntity
  8
SK1
  6
Continuous
100
AcDbLine
 10
3.9
 20
-13.147301864
 30
0.0
 11
0.2
 21
-13.147301864
 31
0.0
  0
SPLINE
  5
DC
330
1F
100
AcDbEntity
  8
SK1
  6
Continuous
100
AcDbSpline
210
0.0
220
0.0
230
1.0
 70
     8
 71
     3
 72
    10
 73
     6
 74
     0
 42
0.000000036107368
 43
0.0000000001
 12
1.0
 22
0.0
 32
0.0
 13
1.0
 23
0.0
 33
0.0
 40
0.0
 40
0.0
 40
0.0
 40
0.0
 40
0.5
 40
0.5
 40
1.0
 40
1.0
 40
1.0
 40
1.0
 10
0.2000000000000005
 20
-13.14730186396886
 30
0.0
 10
0.1475322301114877
 20
-13.14730186396886
 30
0.0
 10
0.0955347317088736
 20
-13.16263640262607
 30
0.0
 10
0.0218353411054924
 20
-13.21469115670187
 30
0.0
 10
0.0
 20
-13.25172480026734
 30
0.0
 10
-0.0000000000000035
 20
-13.28877662020938
 30
0.0
  0
LINE
  5
DD
330
1F
100
AcDbEntity
  8
SK1
  6
Continuous
100
AcDbLine
 10
0.0
 20
-13.784162125
 30
0.0
 11
0.0
 21
-14.4912689062
 31
0.0
  0
ELLIPSE
  5
DE
330
1F
100
AcDbEntity
  8
SK1
  6
Continuous
100
AcDbEllipse
 10
41.4773164192
 20
-0.3535533779
 30
0.0
 11
-74.50000009482928
 21
-2.502487219394082E-8
 31
0.0
210
0.0
220
0.0
230
1.0
 40
0.7071067808
 41
0.1972394688311321
 42
0.2107174741207941
  0
ARC
  5
DF
330
1F
100
AcDbEntity
  8
SK3
100
AcDbCircle
 10
-31.8817617282
 20
-7.1420286883
 30
0.0
 40
0.9824996943272954
100
AcDbArc
 50
268.9363497707
 51
304.9409723025
  0
LINE
  5
E0
330
1F
100
AcDbEntity
  8
SK1
  6
Continuous
100
AcDbLine
 10
10.975
 20
-11.4715658047
 30
0.0
 11
4.5392304845
 21
-14.0999183116
 31
0.0
  0
LINE
  5
E1
330
1F
100
AcDbEntity
  8
SK1
  6
Continuous
100
AcDbLine
 10
4.5392304845
 20
-14.0999183116
 30
0.0
 11
4.1
 21
-13.9205489034
 31
0.0
  0
SPLINE
  5
E2
330
1F
100
AcDbEntity
  8
SK1
  6
Continuous
100
AcDbSpline
210
0.0
220
0.0
230
1.0
 70
     8
 71
     3
 72
    10
 73
     6
 74
     0
 42
0.0000000360999878
 43
0.0000000001
 12
1.0
 22
0.0
 32
0.0
 13
1.0
 23
0.0
 33
0.0
 40
0.0
 40
0.0
 40
0.0
 40
0.0
 40
0.5
 40
0.5
 40
1.0
 40
1.0
 40
1.0
 40
1.0
 10
4.1
 20
-12.58166983902283
 30
0.0
 10
4.1
 20
-12.54438512754104
 30
0.0
 10
4.078265189854599
 20
-12.50767732159714
 30
0.0
 10
4.004483735122317
 20
-12.45552076025927
 30
0.0
 10
3.952819149946534
 20
-12.44019508278231
 30
0.0
 10
3.900000000000001
 20
-12.44019508278231
 30
0.0
  0
LINE
  5
E3
330
1F
100
AcDbEntity
  8
SK1
  6
Continuous
100
AcDbLine
 10
3.9
 20
-12.4401950828
 30
0.0
 11
0.2
 21
-12.4401950828
 31
0.0
  0
SPLINE
  5
E4
330
1F
100
AcDbEntity
  8
SK1
  6
Continuous
100
AcDbSpline
210
0.0
220
0.0
230
1.0
 70
     8
 71
     3
 72
    10
 73
     6
 74
     0
 42
0.000000036107368
 43
0.0000000001
 12
1.0
 22
0.0
 32
0.0
 13
1.0
 23
0.0
 33
0.0
 40
0.0
 40
0.0
 40
0.0
 40
0.0
 40
0.5
 40
0.5
 40
1.0
 40
1.0
 40
1.0
 40
1.0
 10
0.2000000000000005
 20
-12.44019508278231
 30
0.0
 10
0.1475322301114877
 20
-12.44019508278232
 30
0.0
 10
0.0955347317088736
 20
-12.45552962143952
 30
0.0
 10
0.0218353411054924
 20
-12.50758437551533
 30
0.0
 10
0.0
 20
-12.54461801908079
 30
0.0
 10
0.0
 20
-12.58166983902283
 30
0.0
  0
LINE
  5
E5
330
1F
100
AcDbEntity
  8
SK3
100
AcDbLine
 10
-31.9
 20
-8.1243590883
 30
0.0
 11
-32.0515895563
 21
-8.1243590883
 31
0.0
  0
SPLINE
  5
E6
330
1F
100
AcDbEntity
  8
SK1
  6
Continuous
100
AcDbSpline
210
0.0
220
0.0
230
1.0
 70
     8
 71
     3
 72
    14
 73
    10
 74
     0
 42
0.0000000003171633
 43
0.0000000001
 12
1.0
 22
0.0
 32
0.0
 13
1.0
 23
0.0
 33
0.0
 40
0.0
 40
0.0
 40
0.0
 40
0.0
 40
0.0761139014928399
 40
0.0761139014928399
 40
0.0761139014928399
 40
0.9586243250933802
 40
0.9586243250933802
 40
0.9586243250933802
 40
1.0
 40
1.0
 40
1.0
 40
1.0
 10
-31.37482550242866
 20
-10.66496355253359
 30
0.0
 10
-30.57880712770784
 20
-10.7441104838111
 30
0.0
 10
-29.78278858202497
 20
-10.82325655536944
 30
0.0
 10
-28.98676987598049
 20
-10.90240182048909
 30
0.0
 10
-19.7572494910293
 20
-11.82005969994267
 30
0.0
 10
-10.5277083705177
 20
-12.73761330452151
 30
0.0
 10
-1.298156733486659
 20
-13.65511400835051
 30
0.0
 10
-0.8654378466896716
 20
-13.69813016978607
 30
0.0
 10
-0.4327189353049814
 20
-13.74114620755243
 30
0.0
 10
0.0
 20
-13.78416212500542
 30
0.0
  0
SPLINE
  5
E7
330
1F
100
AcDbEntity
  8
SK1
  6
Continuous
100
AcDbSpline
210
0.0
220
0.0
230
1.0
 70
     8
 71
     3
 72
    10
 73
     6
 74
     0
 42
0.0000000470101661
 43
0.0000000001
 12
1.0
 22
0.0
 32
0.0
 13
1.0
 23
0.0
 33
0.0
 40
0.0
 40
0.0
 40
0.0
 40
0.0
 40
0.5
 40
0.5
 40
1.0
 40
1.0
 40
1.0
 40
1.0
 10
10.975
 20
-11.47156580468837
 30
0.0
 10
11.01258802011179
 20
-11.45621370255241
 30
0.0
 10
11.04491579498092
 20
-11.43332124428325
 30
0.0
 10
11.0882372559972
 20
-11.38017061523557
 30
0.0
 10
11.1
 20
-11.34935527765804
 30
0.0
 10
11.1
 20
-11.31840338700122
 30
0.0
  0
SPLINE
  5
E8
330
1F
100
AcDbEntity
  8
SK3
100
AcDbSpline
210
0.0
220
0.0
230
1.0
 70
     8
 71
     3
 72
    10
 73
     6
 74
     0
 42
0.0000000180465722
 43
0.0000000001
 12
1.0
 22
0.0
 32
0.0
 13
1.0
 23
0.0
 33
0.0
 40
0.0
 40
0.0
 40
0.0
 40
0.0
 40
0.5
 40
0.5
 40
1.0
 40
1.0
 40
1.0
 40
1.0
 10
11.1
 20
-7.699706818787774
 30
0.0
 10
11.1
 20
-7.625602422389777
 30
0.0
 10
11.05713716096936
 20
-7.552116819264603
 30
0.0
 10
10.90865709329134
 20
-7.446978758102606
 30
0.0
 10
10.80469516925846
 20
-7.416581743366756
 30
0.0
 10
10.7
 20
-7.416581743366729
 30
0.0
  0
LINE
  5
E9
330
1F
100
AcDbEntity
  8
SK3
100
AcDbLine
 10
10.7
 20
-7.4165817434
 30
0.0
 11
-12.7
 21
-7.4165817434
 31
0.0
  0
LINE
  5
EA
330
1F
100
AcDbEntity
  8
SK3
100
AcDbLine
 10
-12.7
 20
-7.770485014
 30
0.0
 11
-16.7
 21
-7.770485014
 31
0.0
  0
LINE
  5
EB
330
1F
100
AcDbEntity
  8
SK3
100
AcDbLine
 10
-16.7
 20
-7.770485014
 30
0.0
 11
-17.4216878365
 21
-6.8856627272
 31
0.0
  0
LINE
  5
EC
330
1F
100
AcDbEntity
  8
SK3
100
AcDbLine
 10
-17.4216878365
 20
-6.8856627272
 30
0.0
 11
-29.6
 21
-6.8856627272
 31
0.0
  0
SPLINE
  5
ED
330
1F
100
AcDbEntity
  8
SK3
100
AcDbSpline
210
0.0
220
0.0
230
1.0
 70
     8
 71
     3
 72
     8
 73
     4
 74
     0
 42
0.0000000054414244
 43
0.0000000001
 12
1.0
 22
0.0
 32
0.0
 13
1.0
 23
0.0
 33
0.0
 40
0.0
 40
0.0
 40
0.0
 40
0.0
 40
1.0
 40
1.0
 40
1.0
 40
1.0
 10
-29.6
 20
-6.885662727191861
 30
0.0
 10
-30.09996190891905
 20
-7.239610549928511
 30
0.0
 10
-30.59996678083264
 20
-7.593528027916317
 30
0.0
 10
-31.1
 20
-7.947425467348727
 30
0.0
  0
LINE
  5
EE
330
1F
100
AcDbEntity
  8
SK3
100
AcDbLine
 10
-31.1
 20
-7.9474254673
 30
0.0
 11
-31.3190524981
 21
-7.9474254673
 31
0.0
  0
LINE
  5
EF
330
1F
100
AcDbEntity
  8
SK3
100
AcDbLine
 10
-16.7577350269
 20
-0.5
 30
0.0
 11
-16.7577350269
 21
-1.9140119847
 31
0.0
  0
LINE
  5
F0
330
1F
100
AcDbEntity
  8
SK3
100
AcDbLine
 10
-30.75
 20
0.5
 30
0.0
 11
-30.75
 21
1.9140119847
 31
0.0
  0
LINE
  5
F1
330
1F
100
AcDbEntity
  8
SK1
  6
Continuous
100
AcDbLine
 10
-34.6417519303
 20
-0.5
 30
0.0
 11
-34.6417519303
 21
-15.1231560552
 31
0.0
  0
LINE
  5
F2
330
1F
100
AcDbEntity
  8
SK1
  6
Continuous
100
AcDbLine
 10
-34.9
 20
0.5
 30
0.0
 11
-34.9
 21
14.8259100579
 31
0.0
  0
LINE
  5
F3
330
1F
100
AcDbEntity
  8
SK1
  6
Continuous
100
AcDbLine
 10
0.0
 20
0.5
 30
0.0
 11
0.0
 21
13.784162125
 31
0.0
  0
LINE
  5
F4
330
1F
100
AcDbEntity
  8
SK3
100
AcDbLine
 10
-31.1
 20
0.5
 30
0.0
 11
-31.1
 21
7.9474254673
 31
0.0
  0
LINE
  5
F5
330
1F
100
AcDbEntity
  8
SK3
100
AcDbLine
 10
-31.3190524981
 20
0.5
 30
0.0
 11
-31.3190524981
 21
7.9474254673
 31
0.0
  0
LINE
  5
F6
330
1F
100
AcDbEntity
  8
SK3
100
AcDbLine
 10
-16.7
 20
0.5
 30
0.0
 11
-16.7
 21
7.770485014
 31
0.0
  0
LINE
  5
F7
330
1F
100
AcDbEntity
  8
SK3
100
AcDbLine
 10
-12.7
 20
0.5
 30
0.0
 11
-12.7
 21
7.770485014
 31
0.0
  0
LINE
  5
F8
330
1F
100
AcDbEntity
  8
SK1
  6
Continuous
100
AcDbLine
 10
0.2
 20
-0.5
 30
0.0
 11
0.2
 21
-12.4401950828
 31
0.0
  0
ARC
  5
F9
330
1F
100
AcDbEntity
  8
SK1
  6
Continuous
100
AcDbCircle
 10
3.0993403196
 20
0.0
 30
0.0
 40
0.5001675870498734
100
AcDbArc
 50
268.516757322
 51
91.483242678
  0
LINE
  5
FA
330
1F
100
AcDbEntity
  8
SK3
100
AcDbLine
 10
3.0863936932
 20
-0.5
 30
0.0
 11
4.5019698398
 21
-0.5
 31
0.0
  0
ARC
  5
FB
330
1F
100
AcDbEntity
  8
SK3
100
AcDbCircle
 10
4.5056919036
 20
0.0
 30
0.0
 40
0.5000138535675418
100
AcDbArc
 50
269.5734907764
 51
90.4265092236
  0
LINE
  5
FC
330
1F
100
AcDbEntity
  8
SK1
  6
Continuous
100
AcDbLine
 10
0.0
 20
-0.5
 30
0.0
 11
-34.6417519303
 21
-0.5
 31
0.0
  0
LINE
  5
FD
330
1F
100
AcDbEntity
  8
SK1
  6
Continuous
100
AcDbLine
 10
-34.6417519303
 20
-0.5
 30
0.0
 11
-34.9
 21
-0.5
 31
0.0
  0
LINE
  5
FE
330
1F
100
AcDbEntity
  8
SK3
100
AcDbLine
 10
-34.6423869691
 20
-0.5
 30
0.0
 11
-34.65
 21
-0.5
 31
0.0
  0
LINE
  5
FF
330
1F
100
AcDbEntity
  8
SK1
  6
Continuous
100
AcDbLine
 10
0.0
 20
-0.5
 30
0.0
 11
0.2
 21
-0.5
 31
0.0
  0
LINE
  5
100
330
1F
100
AcDbEntity
  8
SK1
  6
Continuous
100
AcDbLine
 10
0.2
 20
-0.5
 30
0.0
 11
3.0863936932
 21
-0.5
 31
0.0
  0
LINE
  5
101
330
1F
100
AcDbEntity
  8
SK1
  6
Continuous
100
AcDbLine
 10
0.0
 20
0.5
 30
0.0
 11
0.2
 21
0.5
 31
0.0
  0
LINE
  5
102
330
1F
100
AcDbEntity
  8
SK1
  6
Continuous
100
AcDbLine
 10
0.2
 20
0.5
 30
0.0
 11
3.0863936932
 21
0.5
 31
0.0
  0
LINE
  5
103
330
1F
100
AcDbEntity
  8
SK3
100
AcDbLine
 10
3.0863936932
 20
0.5
 30
0.0
 11
4.5019698398
 21
0.5
 31
0.0
  0
LINE
  5
104
330
1F
100
AcDbEntity
  8
SK1
  6
Continuous
100
AcDbLine
 10
0.0
 20
0.5
 30
0.0
 11
-34.6417519303
 21
0.5
 31
0.0
  0
LINE
  5
105
330
1F
100
AcDbEntity
  8
SK1
  6
Continuous
100
AcDbLine
 10
-34.6417519303
 20
0.5
 30
0.0
 11
-34.9
 21
0.5
 31
0.0
  0
LINE
  5
106
330
1F
100
AcDbEntity
  8
SK3
100
AcDbLine
 10
-34.6423869691
 20
0.5
 30
0.0
 11
-34.65
 21
0.5
 31
0.0
  0
LINE
  5
107
330
1F
100
AcDbEntity
  8
SK1
  6
Continuous
100
AcDbLine
 10
3.5980387849
 20
-18.1
 30
0.0
 11
3.9
 21
-18.1
 31
0.0
  0
ARC
  5
108
330
1F
100
AcDbEntity
  8
SK1
  6
Continuous
100
AcDbCircle
 10
3.9
 20
-18.3
 30
0.0
 40
0.1999999999999991
100
AcDbArc
 50
0.0
 51
90.0
  0
LINE
  5
109
330
1F
100
AcDbEntity
  8
SK3
100
AcDbLine
 10
5.0001366255
 20
-11.0
 30
0.0
 11
10.7
 21
-11.0
 31
0.0
  0
LINE
  5
10A
330
1F
100
AcDbEntity
  8
SK1
  6
Continuous
100
AcDbLine
 10
4.5392304845
 20
-20.4464101615
 30
0.0
 11
10.975
 21
-16.7307168993
 31
0.0
  0
LINE
  5
10B
330
1F
100
AcDbEntity
  8
SK1
  6
Continuous
100
AcDbLine
 10
4.1
 20
-20.192820323
 30
0.0
 11
4.5392304845
 21
-20.4464101615
 31
0.0
  0
ARC
  5
10C
330
1F
100
AcDbEntity
  8
SK3
100
AcDbCircle
 10
10.7
 20
-11.4
 30
0.0
 40
0.3999999999999993
100
AcDbArc
 50
0.0
 51
90.0
  0
ARC
  5
10D
330
1F
100
AcDbEntity
  8
SK1
  6
Continuous
100
AcDbCircle
 10
10.85
 20
-16.5142105484
 30
0.0
 40
0.2500000000000001
100
AcDbArc
 50
300.0
 51
0.0
  0
ARC
  5
10E
330
1F
100
AcDbEntity
  8
SK3
100
AcDbCircle
 10
5.2377409367
 20
-0.1095274941
 30
0.0
 40
38.76538688178383
100
AcDbArc
 50
163.2758759386
 51
167.130677437
  0
ARC
  5
10F
330
1F
100
AcDbEntity
  8
SK3
100
AcDbCircle
 10
-69.1831711318
 20
0.0
 30
0.0
 40
74.99999999999999
100
AcDbArc
 50
8.4343266081
 51
13.9659844843
  0
ARC
  5
110
330
1F
100
AcDbEntity
  8
SK3
100
AcDbCircle
 10
-69.1831711318
 20
0.0
 30
0.0
 40
74.99999999999999
100
AcDbArc
 50
346.0344123537
 51
351.5657929534
  0
ARC
  5
111
330
1F
100
AcDbEntity
  8
SK1
  6
Continuous
100
AcDbCircle
 10
10.85
 20
16.5142105484
 30
0.0
 40
0.2500000000000002
100
AcDbArc
 50
0.0
 51
60.0
  0
ARC
  5
112
330
1F
100
AcDbEntity
  8
SK3
100
AcDbCircle
 10
10.7
 20
11.4
 30
0.0
 40
0.4000000000000002
100
AcDbArc
 50
270.0
 51
0.0
  0
LINE
  5
113
330
1F
100
AcDbEntity
  8
SK1
  6
Continuous
100
AcDbLine
 10
4.5392304845
 20
20.4464101615
 30
0.0
 11
4.1
 21
20.192820323
 31
0.0
  0
LINE
  5
114
330
1F
100
AcDbEntity
  8
SK1
  6
Continuous
100
AcDbLine
 10
10.975
 20
16.7307168993
 30
0.0
 11
4.5392304845
 21
20.4464101615
 31
0.0
  0
ARC
  5
115
330
1F
100
AcDbEntity
  8
SK1
  6
Continuous
100
AcDbCircle
 10
3.9
 20
18.3
 30
0.0
 40
0.1999999999999994
100
AcDbArc
 50
270.0
 51
0.0
  0
LINE
  5
116
330
1F
100
AcDbEntity
  8
SK3
100
AcDbLine
 10
10.7
 20
11.0
 30
0.0
 11
4.9988064451
 21
11.0
 31
0.0
  0
LINE
  5
117
330
1F
100
AcDbEntity
  8
SK1
  6
Continuous
100
AcDbLine
 10
3.9
 20
18.1
 30
0.0
 11
3.5952259474
 21
18.1
 31
0.0
  0
ARC
  5
118
330
1F
100
AcDbEntity
  8
SK3
100
AcDbCircle
 10
4.5188807861
 20
-0.0698441691
 30
0.0
 40
38.02463581561789
100
AcDbArc
 50
192.8470888101
 51
196.7770863518
  0
LINE
  5
11A
330
1F
100
AcDbEntity
  8
SK4
  6
Continuous
100
AcDbLine
 10
11.1
 20
0.0
 30
0.0
 11
-34.9
 21
0.0
 31
0.0
  0
DIMENSION
  5
130
330
1F
100
AcDbEntity
  8
SK2
  6
Continuous
 62
   136
100
AcDbDimension
  2
DMBLK207
 10
-34.9
 20
28.3111422846
 30
0.0
 11
-11.9000000447
 21
28.3111422846
 31
0.0
 70
   160
  1
\A1;<>
 71
     5
 42
-1.0
  3
DIN
100
AcDbAlignedDimension
 13
11.1
 23
16.5142105484
 33
0.0
 14
-34.9
 24
14.8259100579
 34
0.0
100
AcDbRotatedDimension
  0
DIMENSION
  5
13A
330
1F
100
AcDbEntity
  8
SK2
  6
Continuous
 62
   136
100
AcDbDimension
  2
DMBLK208
 10
11.1
 20
-28.1190132207
 30
0.0
 11
5.5499998853
 21
-28.1190132207
 31
0.0
 70
   160
  1
\A1;<>
 71
     5
 42
-1.0
  3
DIN
100
AcDbAlignedDimension
 13
0.0
 23
-19.9937490231
 33
0.0
 14
11.1
 24
-16.5142105484
 34
0.0
100
AcDbRotatedDimension
  0
INSERT
  5
14E
330
1F
100
AcDbEntity
  8
SK2
 62
     7
100
AcDbBlockReference
  2
Nullpunkt
 10
0.0
 20
0.0000000998
 30
0.0
  0
INSERT
  5
159
330
1F
100
AcDbEntity
  8
SK2
 62
     7
100
AcDbBlockReference
  2
Einfügepunkt
 10
11.1
 20
0.0
 30
0.0
  0
DIMENSION
  5
15A
330
1F
100
AcDbEntity
  8
SK2
  6
Continuous
 62
   136
100
AcDbDimension
  2
DMBLK209
 10
21.0482269062
 20
-11.0
 30
0.0
 11
21.0482269062
 21
0.0000000596
 31
0.0
 70
   160
  1
\A1;ø <>
 71
     5
 42
-1.0
  3
DIN
100
AcDbAlignedDimension
 13
4.9988064451
 23
11.0
 33
0.0
 14
10.7
 24
-11.0
 34
0.0
 50
90.0
100
AcDbRotatedDimension
  0
DIMENSION
  5
165
330
1F
100
AcDbEntity
  8
SK2
  6
Continuous
 62
   136
100
AcDbDimension
  2
DMBLK210
 10
-44.050000608
 20
19.9937490231
 30
0.0
 11
-44.050000608
 21
0.0000005073
 31
0.0
 70
   161
  1
\A1;ø <>
 71
     5
 42
-1.0
  3
DIN
100
AcDbAlignedDimension
 13
0.0
 23
19.9937490231
 33
0.0
 14
0.0
 24
-19.9937490231
 34
0.0
1001
ACAD
1000
DSTYLE
1002
{
1070
   271
1070
     1
1070
   272
1070
     1
1070
     0
1002
}
  0
ENDSEC
  0
SECTION
  2
OBJECTS
  0
DICTIONARY
  5
C
330
0
100
AcDbDictionary
281
     1
  3
ACAD_GROUP
350
D
  3
ACAD_LAYOUT
350
1A
  3
ACAD_MATERIAL
350
3B
  3
ACAD_MLEADERSTYLE
350
172
  3
ACAD_MLINESTYLE
350
17
  3
ACAD_PLOTSETTINGS
350
19
  3
ACAD_PLOTSTYLENAME
350
E
  3
ACAD_VISUALSTYLE
350
2A
  3
AcDbVariableDictionary
350
170
  0
DICTIONARY
  5
D
102
{ACAD_REACTORS
330
C
102
}
330
C
100
AcDbDictionary
281
     1
  0
DICTIONARY
  5
1A
102
{ACAD_REACTORS
330
C
102
}
330
C
100
AcDbDictionary
281
     1
  3
Layout1
350
1E
  3
Model
350
22
  0
DICTIONARY
  5
3B
102
{ACAD_REACTORS
330
C
102
}
330
C
100
AcDbDictionary
281
     1
  3
ByBlock
350
3D
  3
ByLayer
350
3C
  3
Global
350
3E
  0
DICTIONARY
  5
172
102
{ACAD_REACTORS
330
C
102
}
330
C
100
AcDbDictionary
281
     1
  0
DICTIONARY
  5
17
102
{ACAD_REACTORS
330
C
102
}
330
C
100
AcDbDictionary
281
     1
  3
Standard
350
18
  0
DICTIONARY
  5
19
102
{ACAD_REACTORS
330
C
102
}
330
C
100
AcDbDictionary
281
     1
  0
ACDBDICTIONARYWDFLT
  5
E
102
{ACAD_REACTORS
330
C
102
}
330
C
100
AcDbDictionary
281
     1
  3
Normal
350
F
100
AcDbDictionaryWithDefault
340
F
  0
DICTIONARY
  5
2A
102
{ACAD_REACTORS
330
C
102
}
330
C
100
AcDbDictionary
281
     1
  3
2dWireframe
350
2F
  3
3D Hidden
350
31
  3
3dWireframe
350
30
  3
Basic
350
32
  3
Brighten
350
36
  3
ColorChange
350
3A
  3
Conceptual
350
34
  3
Dim
350
35
  3
Facepattern
350
39
  3
Flat
350
2B
  3
FlatWithEdges
350
2C
  3
Gouraud
350
2D
  3
GouraudWithEdges
350
2E
  3
Linepattern
350
38
  3
Realistic
350
33
  3
Thicken
350
37
  0
DICTIONARY
  5
170
102
{ACAD_REACTORS
330
C
102
}
330
C
100
AcDbDictionary
281
     1
  3
DIMASSOC
350
175
  3
HIDETEXT
350
176
  3
PSOLHEIGHT
350
174
  3
PSOLWIDTH
350
173
  0
LAYOUT
  5
1E
102
{ACAD_REACTORS
330
1A
102
}
330
1A
100
AcDbPlotSettings
  1

  2
none_device
  4

  6

 40
0.0
 41
0.0
 42
0.0
 43
0.0
 44
0.0
 45
0.0
 46
0.0
 47
0.0
 48
0.0
 49
0.0
140
0.0
141
0.0
142
1.0
143
1.0
 70
   688
 72
     0
 73
     0
 74
     5
  7

 75
    16
147
1.0
148
0.0
149
0.0
100
AcDbLayout
  1
Layout1
 70
     1
 71
     1
 10
0.0
 20
0.0
 11
210.0
 21
297.0
 12
0.0
 22
0.0
 32
0.0
 14
0.0
 24
0.0
 34
0.0
 15
210.0
 25
297.0
 35
0.0
146
0.0
 13
0.0
 23
0.0
 33
0.0
 16
1.0
 26
0.0
 36
0.0
 17
0.0
 27
1.0
 37
0.0
 76
     0
330
1B
  0
LAYOUT
  5
22
102
{ACAD_REACTORS
330
1A
102
}
330
1A
100
AcDbPlotSettings
  1

  2
none_device
  4

  6

 40
0.0
 41
0.0
 42
0.0
 43
0.0
 44
0.0
 45
0.0
 46
0.0
 47
0.0
 48
0.0
 49
0.0
140
0.0
141
0.0
142
1.0
143
1.0
 70
  1712
 72
     0
 73
     0
 74
     0
  7

 75
     0
147
1.0
148
0.0
149
0.0
100
AcDbLayout
  1
Model
 70
     1
 71
     0
 10
0.0
 20
0.0
 11
210.0
 21
297.0
 12
0.0
 22
0.0
 32
0.0
 14
0.0
 24
0.0
 34
0.0
 15
210.0
 25
297.0
 35
0.0
146
0.0
 13
0.0
 23
0.0
 33
0.0
 16
1.0
 26
0.0
 36
0.0
 17
0.0
 27
1.0
 37
0.0
 76
     0
330
1F
331
29
  0
MATERIAL
  5
3D
102
{ACAD_REACTORS
330
3B
102
}
102
{ACAD_XDICTIONARY
360
199
102
}
330
3B
100
AcDbMaterial
  1
ByBlock
  0
MATERIAL
  5
3C
102
{ACAD_REACTORS
330
3B
102
}
102
{ACAD_XDICTIONARY
360
197
102
}
330
3B
100
AcDbMaterial
  1
ByLayer
  0
MATERIAL
  5
3E
102
{ACAD_REACTORS
330
3B
102
}
102
{ACAD_XDICTIONARY
360
19B
102
}
330
3B
100
AcDbMaterial
  1
Global
  0
MLINESTYLE
  5
18
102
{ACAD_REACTORS
330
17
102
}
330
17
100
AcDbMlineStyle
  2
Standard
 70
     0
  3

 62
   256
 51
90.0
 52
90.0
 71
     2
 49
0.5
 62
   256
  6
BYLAYER
 49
-0.5
 62
   256
  6
BYLAYER
  0
ACDBPLACEHOLDER
  5
F
102
{ACAD_REACTORS
330
E
102
}
330
E
  0
VISUALSTYLE
  5
2F
102
{ACAD_REACTORS
330
2A
102
}
102
{ACAD_XDICTIONARY
360
17F
102
}
330
2A
100
AcDbVisualStyle
  2
2dWireframe
 70
     4
 71
     0
 72
     2
 73
     0
 90
        0
 40
-0.6
 41
-30.0
 62
     5
 63
     7
 74
     1
 91
        4
 64
     7
 65
   257
 75
     1
175
     1
 42
1.0
 92
        0
 66
   257
 43
1.0
 76
     1
 77
     6
 78
     2
 67
     7
 79
     5
170
     0
171
     0
290
     0
174
     0
 93
        1
 44
0.0
173
     0
291
     0
 45
0.0
1001
ACAD
1000
AcDbSavedByObjectVersion
1070
     0
  0
VISUALSTYLE
  5
31
102
{ACAD_REACTORS
330
2A
102
}
102
{ACAD_XDICTIONARY
360
183
102
}
330
2A
100
AcDbVisualStyle
  2
3D Hidden
 70
     6
 71
     1
 72
     2
 73
     2
 90
        0
 40
-0.6
 41
-30.0
 62
     5
 63
     7
 74
     2
 91
        2
 64
     7
 65
   257
 75
     2
175
     1
 42
40.0
 92
        0
 66
   257
 43
1.0
 76
     1
 77
     6
 78
     2
 67
     7
 79
     3
170
     0
171
     0
290
     0
174
     0
 93
        1
 44
0.0
173
     0
291
     0
 45
0.0
1001
ACAD
1000
AcDbSavedByObjectVersion
1070
     0
  0
VISUALSTYLE
  5
30
102
{ACAD_REACTORS
330
2A
102
}
102
{ACAD_XDICTIONARY
360
181
102
}
330
2A
100
AcDbVisualStyle
  2
3dWireframe
 70
     5
 71
     0
 72
     2
 73
     0
 90
        0
 40
-0.6
 41
-30.0
 62
     5
 63
     7
 74
     1
 91
        4
 64
     7
 65
   257
 75
     1
175
     1
 42
1.0
 92
        0
 66
   257
 43
1.0
 76
     1
 77
     6
 78
     2
 67
     7
 79
     5
170
     0
171
     0
290
     0
174
     0
 93
        1
 44
0.0
173
     0
291
     0
 45
0.0
1001
ACAD
1000
AcDbSavedByObjectVersion
1070
     0
  0
VISUALSTYLE
  5
32
102
{ACAD_REACTORS
330
2A
102
}
102
{ACAD_XDICTIONARY
360
185
102
}
330
2A
100
AcDbVisualStyle
  2
Basic
 70
     7
 71
     1
 72
     0
 73
     1
 90
        0
 40
-0.6
 41
-30.0
 62
     5
 63
     7
 74
     0
 91
        4
 64
     7
 65
   257
 75
     1
175
     1
 42
1.0
 92
        8
 66
     7
 43
1.0
 76
     1
 77
     6
 78
     2
 67
     7
 79
     5
170
     0
171
     0
290
     0
174
     0
 93
        1
 44
0.0
173
     0
291
     1
 45
0.0
1001
ACAD
1000
AcDbSavedByObjectVersion
1070
     0
  0
VISUALSTYLE
  5
36
102
{ACAD_REACTORS
330
2A
102
}
102
{ACAD_XDICTIONARY
360
18D
102
}
330
2A
100
AcDbVisualStyle
  2
Brighten
 70
    12
 71
     2
 72
     2
 73
     0
 90
        0
 40
-0.6
 41
-30.0
 62
     5
 63
     7
 74
     1
 91
        4
 64
     7
 65
   257
 75
     1
175
     1
 42
1.0
 92
        8
 66
     7
 43
1.0
 76
     1
 77
     6
 78
     2
 67
     7
 79
     5
170
     0
171
     0
290
     0
174
     0
 93
        1
 44
50.0
173
     0
291
     1
 45
0.0
1001
ACAD
1000
AcDbSavedByObjectVersion
1070
     0
  0
VISUALSTYLE
  5
3A
102
{ACAD_REACTORS
330
2A
102
}
102
{ACAD_XDICTIONARY
360
195
102
}
330
2A
100
AcDbVisualStyle
  2
ColorChange
 70
    16
 71
     2
 72
     2
 73
     3
 90
        0
 40
-0.6
 41
-30.0
 62
     5
 63
     8
 74
     1
 91
        4
 64
     7
 65
   257
 75
     1
175
     1
 42
1.0
 92
        8
 66
     8
 43
1.0
 76
     1
 77
     6
 78
     2
 67
     7
 79
     5
170
     0
171
     0
290
     0
174
     0
 93
        1
 44
0.0
173
     0
291
     1
 45
0.0
1001
ACAD
1000
AcDbSavedByObjectVersion
1070
     0
  0
VISUALSTYLE
  5
34
102
{ACAD_REACTORS
330
2A
102
}
102
{ACAD_XDICTIONARY
360
189
102
}
330
2A
100
AcDbVisualStyle
  2
Conceptual
 70
     9
 71
     3
 72
     2
 73
     0
 90
        0
 40
-0.6
 41
-30.0
 62
     5
 63
     7
 74
     2
 91
        2
 64
     7
 65
   257
 75
     1
175
     1
 42
40.0
 92
        8
 66
     7
 43
1.0
 76
     1
 77
     6
 78
     2
 67
     7
 79
     3
170
     0
171
     0
290
     0
174
     0
 93
        1
 44
0.0
173
     0
291
     0
 45
0.0
1001
ACAD
1000
AcDbSavedByObjectVersion
1070
     0
  0
VISUALSTYLE
  5
35
102
{ACAD_REACTORS
330
2A
102
}
102
{ACAD_XDICTIONARY
360
18B
102
}
330
2A
100
AcDbVisualStyle
  2
Dim
 70
    11
 71
     2
 72
     2
 73
     0
 90
        0
 40
-0.6
 41
-30.0
 62
     5
 63
     7
 74
     1
 91
        4
 64
     7
 65
   257
 75
     1
175
     1
 42
1.0
 92
        8
 66
     7
 43
1.0
 76
     1
 77
     6
 78
     2
 67
     7
 79
     5
170
     0
171
     0
290
     0
174
     0
 93
        1
 44
-50.0
173
     0
291
     1
 45
0.0
1001
ACAD
1000
AcDbSavedByObjectVersion
1070
     0
  0
VISUALSTYLE
  5
39
102
{ACAD_REACTORS
330
2A
102
}
102
{ACAD_XDICTIONARY
360
193
102
}
330
2A
100
AcDbVisualStyle
  2
Facepattern
 70
    15
 71
     2
 72
     2
 73
     0
 90
        0
 40
-0.6
 41
-30.0
 62
     5
 63
     7
 74
     1
 91
        4
 64
     7
 65
   257
 75
     1
175
     1
 42
1.0
 92
        8
 66
     7
 43
1.0
 76
     1
 77
     6
 78
     2
 67
     7
 79
     5
170
     0
171
     0
290
     0
174
     0
 93
        1
 44
0.0
173
     0
291
     1
 45
0.0
1001
ACAD
1000
AcDbSavedByObjectVersion
1070
     0
  0
VISUALSTYLE
  5
2B
102
{ACAD_REACTORS
330
2A
102
}
102
{ACAD_XDICTIONARY
360
177
102
}
330
2A
100
AcDbVisualStyle
  2
Flat
 70
     0
 71
     2
 72
     1
 73
     1
 90
        2
 40
-0.6
 41
30.0
 62
     5
 63
     7
 74
     0
 91
        4
 64
     7
 65
   257
 75
     1
175
     1
 42
1.0
 92
        8
 66
     7
 43
1.0
 76
     1
 77
     6
 78
     2
 67
     7
 79
     5
170
     0
171
     0
290
     0
174
     0
 93
       13
 44
0.0
173
     0
291
     1
 45
0.0
1001
ACAD
1000
AcDbSavedByObjectVersion
1070
     0
  0
VISUALSTYLE
  5
2C
102
{ACAD_REACTORS
330
2A
102
}
102
{ACAD_XDICTIONARY
360
179
102
}
330
2A
100
AcDbVisualStyle
  2
FlatWithEdges
 70
     1
 71
     2
 72
     1
 73
     1
 90
        2
 40
-0.6
 41
30.0
 62
     5
 63
     7
 74
     1
 91
        4
 64
     7
 65
   257
 75
     1
175
     1
 42
1.0
 92
        0
 66
   257
 43
1.0
 76
     1
 77
     6
 78
     2
 67
     7
 79
     5
170
     0
171
     0
290
     0
174
     0
 93
       13
 44
0.0
173
     0
291
     1
 45
0.0
1001
ACAD
1000
AcDbSavedByObjectVersion
1070
     0
  0
VISUALSTYLE
  5
2D
102
{ACAD_REACTORS
330
2A
102
}
102
{ACAD_XDICTIONARY
360
17B
102
}
330
2A
100
AcDbVisualStyle
  2
Gouraud
 70
     2
 71
     2
 72
     2
 73
     1
 90
        2
 40
-0.6
 41
30.0
 62
     5
 63
     7
 74
     0
 91
        4
 64
     7
 65
   257
 75
     1
175
     1
 42
1.0
 92
        0
 66
     7
 43
1.0
 76
     1
 77
     6
 78
     2
 67
     7
 79
     5
170
     0
171
     0
290
     0
174
     0
 93
       13
 44
0.0
173
     0
291
     1
 45
0.0
1001
ACAD
1000
AcDbSavedByObjectVersion
1070
     0
  0
VISUALSTYLE
  5
2E
102
{ACAD_REACTORS
330
2A
102
}
102
{ACAD_XDICTIONARY
360
17D
102
}
330
2A
100
AcDbVisualStyle
  2
GouraudWithEdges
 70
     3
 71
     2
 72
     2
 73
     1
 90
        2
 40
-0.6
 41
30.0
 62
     5
 63
     7
 74
     1
 91
        4
 64
     7
 65
   257
 75
     1
175
     1
 42
1.0
 92
        0
 66
   257
 43
1.0
 76
     1
 77
     6
 78
     2
 67
     7
 79
     5
170
     0
171
     0
290
     0
174
     0
 93
       13
 44
0.0
173
     0
291
     1
 45
0.0
1001
ACAD
1000
AcDbSavedByObjectVersion
1070
     0
  0
VISUALSTYLE
  5
38
102
{ACAD_REACTORS
330
2A
102
}
102
{ACAD_XDICTIONARY
360
191
102
}
330
2A
100
AcDbVisualStyle
  2
Linepattern
 70
    14
 71
     2
 72
     2
 73
     0
 90
        0
 40
-0.6
 41
-30.0
 62
     5
 63
     7
 74
     1
 91
        4
 64
     7
 65
   257
 75
     7
175
     7
 42
1.0
 92
        8
 66
     7
 43
1.0
 76
     1
 77
     6
 78
     2
 67
     7
 79
     5
170
     0
171
     0
290
     0
174
     0
 93
        1
 44
0.0
173
     0
291
     1
 45
0.0
1001
ACAD
1000
AcDbSavedByObjectVersion
1070
     0
  0
VISUALSTYLE
  5
33
102
{ACAD_REACTORS
330
2A
102
}
102
{ACAD_XDICTIONARY
360
187
102
}
330
2A
100
AcDbVisualStyle
  2
Realistic
 70
     8
 71
     2
 72
     2
 73
     0
 90
        0
 40
-0.6
 41
-30.0
 62
     5
 63
     7
 74
     1
 91
        0
 64
     7
 65
   257
 75
     1
175
     1
 42
1.0
 92
        8
 66
     8
 43
1.0
 76
     1
 77
     6
 78
     2
 67
     7
 79
     5
170
     0
171
     0
290
     0
174
     0
 93
       13
 44
0.0
173
     0
291
     0
 45
0.0
1001
ACAD
1000
AcDbSavedByObjectVersion
1070
     0
  0
VISUALSTYLE
  5
37
102
{ACAD_REACTORS
330
2A
102
}
102
{ACAD_XDICTIONARY
360
18F
102
}
330
2A
100
AcDbVisualStyle
  2
Thicken
 70
    13
 71
     2
 72
     2
 73
     0
 90
        0
 40
-0.6
 41
-30.0
 62
     5
 63
     7
 74
     1
 91
        4
 64
     7
 65
   257
 75
     1
175
     1
 42
1.0
 92
       12
 66
     7
 43
1.0
 76
     1
 77
     6
 78
     2
 67
     7
 79
     5
170
     0
171
     0
290
     0
174
     0
 93
        1
 44
0.0
173
     0
291
     1
 45
0.0
1001
ACAD
1000
AcDbSavedByObjectVersion
1070
     0
  0
DICTIONARYVAR
  5
175
102
{ACAD_REACTORS
330
170
102
}
330
170
100
DictionaryVariables
280
     0
  1
2
  0
DICTIONARYVAR
  5
176
102
{ACAD_REACTORS
330
170
102
}
330
170
100
DictionaryVariables
280
     0
  1
1
  0
DICTIONARYVAR
  5
174
102
{ACAD_REACTORS
330
170
102
}
330
170
100
DictionaryVariables
280
     0
  1
80.000000
  0
DICTIONARYVAR
  5
173
102
{ACAD_REACTORS
330
170
102
}
330
170
100
DictionaryVariables
280
     0
  1
5.000000
  0
DICTIONARY
  5
199
330
3D
100
AcDbDictionary
280
     1
281
     1
  3
ACAD_XREC_ROUNDTRIP
360
19A
  0
DICTIONARY
  5
197
330
3C
100
AcDbDictionary
280
     1
281
     1
  3
ACAD_XREC_ROUNDTRIP
360
198
  0
DICTIONARY
  5
19B
330
3E
100
AcDbDictionary
280
     1
281
     1
  3
ACAD_XREC_ROUNDTRIP
360
19C
  0
DICTIONARY
  5
17F
330
2F
100
AcDbDictionary
280
     1
281
     1
  3
ACAD_XREC_ROUNDTRIP
360
180
  0
DICTIONARY
  5
183
330
31
100
AcDbDictionary
280
     1
281
     1
  3
ACAD_XREC_ROUNDTRIP
360
184
  0
DICTIONARY
  5
181
330
30
100
AcDbDictionary
280
     1
281
     1
  3
ACAD_XREC_ROUNDTRIP
360
182
  0
DICTIONARY
  5
185
330
32
100
AcDbDictionary
280
     1
281
     1
  3
ACAD_XREC_ROUNDTRIP
360
186
  0
DICTIONARY
  5
18D
330
36
100
AcDbDictionary
280
     1
281
     1
  3
ACAD_XREC_ROUNDTRIP
360
18E
  0
DICTIONARY
  5
195
330
3A
100
AcDbDictionary
280
     1
281
     1
  3
ACAD_XREC_ROUNDTRIP
360
196
  0
DICTIONARY
  5
189
330
34
100
AcDbDictionary
280
     1
281
     1
  3
ACAD_XREC_ROUNDTRIP
360
18A
  0
DICTIONARY
  5
18B
330
35
100
AcDbDictionary
280
     1
281
     1
  3
ACAD_XREC_ROUNDTRIP
360
18C
  0
DICTIONARY
  5
193
330
39
100
AcDbDictionary
280
     1
281
     1
  3
ACAD_XREC_ROUNDTRIP
360
194
  0
DICTIONARY
  5
177
330
2B
100
AcDbDictionary
280
     1
281
     1
  3
ACAD_XREC_ROUNDTRIP
360
178
  0
DICTIONARY
  5
179
330
2C
100
AcDbDictionary
280
     1
281
     1
  3
ACAD_XREC_ROUNDTRIP
360
17A
  0
DICTIONARY
  5
17B
330
2D
100
AcDbDictionary
280
     1
281
     1
  3
ACAD_XREC_ROUNDTRIP
360
17C
  0
DICTIONARY
  5
17D
330
2E
100
AcDbDictionary
280
     1
281
     1
  3
ACAD_XREC_ROUNDTRIP
360
17E
  0
DICTIONARY
  5
191
330
38
100
AcDbDictionary
280
     1
281
     1
  3
ACAD_XREC_ROUNDTRIP
360
192
  0
DICTIONARY
  5
187
330
33
100
AcDbDictionary
280
     1
281
     1
  3
ACAD_XREC_ROUNDTRIP
360
188
  0
DICTIONARY
  5
18F
330
37
100
AcDbDictionary
280
     1
281
     1
  3
ACAD_XREC_ROUNDTRIP
360
190
  0
XRECORD
  5
19A
102
{ACAD_REACTORS
330
199
102
}
330
199
100
AcDbXrecord
280
     1
102
MATERIAL
148
0.0
149
0.0
149
0.0
 93
        0
 94
      127
282
     0
 72
     1
 77
     1
171
     1
175
     1
179
     1
273
     0
  0
XRECORD
  5
198
102
{ACAD_REACTORS
330
197
102
}
330
197
100
AcDbXrecord
280
     1
102
MATERIAL
148
0.0
149
0.0
149
0.0
 93
        0
 94
      127
282
     0
 72
     1
 77
     1
171
     1
175
     1
179
     1
273
     0
  0
XRECORD
  5
19C
102
{ACAD_REACTORS
330
19B
102
}
330
19B
100
AcDbXrecord
280
     1
102
MATERIAL
148
0.0
149
0.0
149
0.0
 93
        0
 94
      127
282
     0
 72
     1
 77
     1
171
     1
175
     1
179
     1
273
     0
  0
XRECORD
  5
180
102
{ACAD_REACTORS
330
17F
102
}
330
17F
100
AcDbXrecord
280
     1
102
RTVSPropertyOp0
 70
     1
102
RTVSPropertyOp1
 70
     1
102
RTVSPropertyOp2
 70
     1
102
RTVSPropertyOp3
 70
     1
102
RTVSPropertyOp4
 70
     1
102
RTVSPropertyOp5
 70
     1
102
RTVSPropertyOp6
 70
     1
102
RTVSPropertyOp7
 70
     1
102
RTVSPropertyOp8
 70
     1
102
RTVSPropertyOp9
 70
     1
102
RTVSPropertyOp10
 70
     1
102
RTVSPropertyOp11
 70
     1
102
RTVSPropertyOp12
 70
     1
102
RTVSPropertyOp13
 70
     1
102
RTVSPropertyOp14
 70
     1
102
RTVSPropertyOp15
 70
     1
102
RTVSPropertyOp16
 70
     1
102
RTVSPropertyOp17
 70
     1
102
RTVSPropertyOp18
 70
     1
102
RTVSPropertyOp19
 70
     1
102
RTVSPropertyOp20
 70
     1
102
RTVSPropertyOp21
 70
     1
102
RTVSPropertyOp22
 70
     1
102
RTVSPropertyOp23
 70
     1
102
RTVSPropertyOp24
 70
     1
102
RTVSPropertyOp25
 70
     1
102
RTVSPropertyOp26
 70
     1
102
RTVSPropertyOp27
 70
     1
102
RTVSPropertyOp28
 70
     1
102
RTVSPropertyOp29
 70
     1
102
RTVSPropertyOp30
 70
     1
102
RTVSPropertyOp31
 70
     1
102
RTVSPropertyOp32
 70
     1
  0
XRECORD
  5
184
102
{ACAD_REACTORS
330
183
102
}
330
183
100
AcDbXrecord
280
     1
102
RTVSPropertyOp0
 70
     1
102
RTVSPropertyOp1
 70
     1
102
RTVSPropertyOp2
 70
     1
102
RTVSPropertyOp3
 70
     1
102
RTVSPropertyOp4
 70
     1
102
RTVSPropertyOp5
 70
     1
102
RTVSPropertyOp6
 70
     1
102
RTVSPropertyOp7
 70
     1
102
RTVSPropertyOp8
 70
     1
102
RTVSPropertyOp9
 70
     1
102
RTVSPropertyOp10
 70
     1
102
RTVSPropertyOp11
 70
     1
102
RTVSPropertyOp12
 70
     1
102
RTVSPropertyOp13
 70
     1
102
RTVSPropertyOp14
 70
     1
102
RTVSPropertyOp15
 70
     1
102
RTVSPropertyOp16
 70
     1
102
RTVSPropertyOp17
 70
     1
102
RTVSPropertyOp18
 70
     1
102
RTVSPropertyOp19
 70
     1
102
RTVSPropertyOp20
 70
     1
102
RTVSPropertyOp21
 70
     1
102
RTVSPropertyOp22
 70
     1
102
RTVSPropertyOp23
 70
     1
102
RTVSPropertyOp24
 70
     1
102
RTVSPropertyOp25
 70
     1
102
RTVSPropertyOp26
 70
     1
102
RTVSPropertyOp27
 70
     1
102
RTVSPropertyOp28
 70
     1
102
RTVSPropertyOp29
 70
     1
102
RTVSPropertyOp30
 70
     1
102
RTVSPropertyOp31
 70
     1
102
RTVSPropertyOp32
 70
     1
  0
XRECORD
  5
182
102
{ACAD_REACTORS
330
181
102
}
330
181
100
AcDbXrecord
280
     1
102
RTVSPropertyOp0
 70
     1
102
RTVSPropertyOp1
 70
     1
102
RTVSPropertyOp2
 70
     1
102
RTVSPropertyOp3
 70
     1
102
RTVSPropertyOp4
 70
     1
102
RTVSPropertyOp5
 70
     1
102
RTVSPropertyOp6
 70
     1
102
RTVSPropertyOp7
 70
     1
102
RTVSPropertyOp8
 70
     1
102
RTVSPropertyOp9
 70
     1
102
RTVSPropertyOp10
 70
     1
102
RTVSPropertyOp11
 70
     1
102
RTVSPropertyOp12
 70
     1
102
RTVSPropertyOp13
 70
     1
102
RTVSPropertyOp14
 70
     1
102
RTVSPropertyOp15
 70
     1
102
RTVSPropertyOp16
 70
     1
102
RTVSPropertyOp17
 70
     1
102
RTVSPropertyOp18
 70
     1
102
RTVSPropertyOp19
 70
     1
102
RTVSPropertyOp20
 70
     1
102
RTVSPropertyOp21
 70
     1
102
RTVSPropertyOp22
 70
     1
102
RTVSPropertyOp23
 70
     1
102
RTVSPropertyOp24
 70
     1
102
RTVSPropertyOp25
 70
     1
102
RTVSPropertyOp26
 70
     1
102
RTVSPropertyOp27
 70
     1
102
RTVSPropertyOp28
 70
     1
102
RTVSPropertyOp29
 70
     1
102
RTVSPropertyOp30
 70
     1
102
RTVSPropertyOp31
 70
     1
102
RTVSPropertyOp32
 70
     1
  0
XRECORD
  5
186
102
{ACAD_REACTORS
330
185
102
}
330
185
100
AcDbXrecord
280
     1
102
RTVSPropertyOp0
 70
     1
102
RTVSPropertyOp1
 70
     1
102
RTVSPropertyOp2
 70
     1
102
RTVSPropertyOp3
 70
     1
102
RTVSPropertyOp4
 70
     1
102
RTVSPropertyOp5
 70
     1
102
RTVSPropertyOp6
 70
     1
102
RTVSPropertyOp7
 70
     1
102
RTVSPropertyOp8
 70
     1
102
RTVSPropertyOp9
 70
     1
102
RTVSPropertyOp10
 70
     1
102
RTVSPropertyOp11
 70
     1
102
RTVSPropertyOp12
 70
     1
102
RTVSPropertyOp13
 70
     1
102
RTVSPropertyOp14
 70
     1
102
RTVSPropertyOp15
 70
     1
102
RTVSPropertyOp16
 70
     1
102
RTVSPropertyOp17
 70
     1
102
RTVSPropertyOp18
 70
     1
102
RTVSPropertyOp19
 70
     1
102
RTVSPropertyOp20
 70
     1
102
RTVSPropertyOp21
 70
     1
102
RTVSPropertyOp22
 70
     1
102
RTVSPropertyOp23
 70
     1
102
RTVSPropertyOp24
 70
     1
102
RTVSPropertyOp25
 70
     1
102
RTVSPropertyOp26
 70
     1
102
RTVSPropertyOp27
 70
     1
102
RTVSPropertyOp28
 70
     1
102
RTVSPropertyOp29
 70
     1
102
RTVSPropertyOp30
 70
     1
102
RTVSPropertyOp31
 70
     1
102
RTVSPropertyOp32
 70
     1
  0
XRECORD
  5
18E
102
{ACAD_REACTORS
330
18D
102
}
330
18D
100
AcDbXrecord
280
     1
102
RTVSPropertyOp0
 70
     1
102
RTVSPropertyOp1
 70
     1
102
RTVSPropertyOp2
 70
     1
102
RTVSPropertyOp3
 70
     1
102
RTVSPropertyOp4
 70
     1
102
RTVSPropertyOp5
 70
     1
102
RTVSPropertyOp6
 70
     1
102
RTVSPropertyOp7
 70
     1
102
RTVSPropertyOp8
 70
     1
102
RTVSPropertyOp9
 70
     1
102
RTVSPropertyOp10
 70
     1
102
RTVSPropertyOp11
 70
     1
102
RTVSPropertyOp12
 70
     1
102
RTVSPropertyOp13
 70
     1
102
RTVSPropertyOp14
 70
     1
102
RTVSPropertyOp15
 70
     1
102
RTVSPropertyOp16
 70
     1
102
RTVSPropertyOp17
 70
     1
102
RTVSPropertyOp18
 70
     1
102
RTVSPropertyOp19
 70
     1
102
RTVSPropertyOp20
 70
     1
102
RTVSPropertyOp21
 70
     1
102
RTVSPropertyOp22
 70
     1
102
RTVSPropertyOp23
 70
     1
102
RTVSPropertyOp24
 70
     1
102
RTVSPropertyOp25
 70
     1
102
RTVSPropertyOp26
 70
     1
102
RTVSPropertyOp27
 70
     1
102
RTVSPropertyOp28
 70
     1
102
RTVSPropertyOp29
 70
     1
102
RTVSPropertyOp30
 70
     1
102
RTVSPropertyOp31
 70
     1
102
RTVSPropertyOp32
 70
     1
  0
XRECORD
  5
196
102
{ACAD_REACTORS
330
195
102
}
330
195
100
AcDbXrecord
280
     1
102
RTVSPropertyOp0
 70
     1
102
RTVSPropertyOp1
 70
     1
102
RTVSPropertyOp2
 70
     1
102
RTVSPropertyOp3
 70
     1
102
RTVSPropertyOp4
 70
     1
102
RTVSPropertyOp5
 70
     1
102
RTVSPropertyOp6
 70
     1
102
RTVSPropertyOp7
 70
     1
102
RTVSPropertyOp8
 70
     1
102
RTVSPropertyOp9
 70
     1
102
RTVSPropertyOp10
 70
     1
102
RTVSPropertyOp11
 70
     1
102
RTVSPropertyOp12
 70
     1
102
RTVSPropertyOp13
 70
     1
102
RTVSPropertyOp14
 70
     1
102
RTVSPropertyOp15
 70
     1
102
RTVSPropertyOp16
 70
     1
102
RTVSPropertyOp17
 70
     1
102
RTVSPropertyOp18
 70
     1
102
RTVSPropertyOp19
 70
     1
102
RTVSPropertyOp20
 70
     1
102
RTVSPropertyOp21
 70
     1
102
RTVSPropertyOp22
 70
     1
102
RTVSPropertyOp23
 70
     1
102
RTVSPropertyOp24
 70
     1
102
RTVSPropertyOp25
 70
     1
102
RTVSPropertyOp26
 70
     1
102
RTVSPropertyOp27
 70
     1
102
RTVSPropertyOp28
 70
     1
102
RTVSPropertyOp29
 70
     1
102
RTVSPropertyOp30
 70
     1
102
RTVSPropertyOp31
 70
     1
102
RTVSPropertyOp32
 70
     1
  0
XRECORD
  5
18A
102
{ACAD_REACTORS
330
189
102
}
330
189
100
AcDbXrecord
280
     1
102
RTVSPropertyOp0
 70
     1
102
RTVSPropertyOp1
 70
     1
102
RTVSPropertyOp2
 70
     1
102
RTVSPropertyOp3
 70
     1
102
RTVSPropertyOp4
 70
     1
102
RTVSPropertyOp5
 70
     1
102
RTVSPropertyOp6
 70
     1
102
RTVSPropertyOp7
 70
     1
102
RTVSPropertyOp8
 70
     1
102
RTVSPropertyOp9
 70
     1
102
RTVSPropertyOp10
 70
     1
102
RTVSPropertyOp11
 70
     1
102
RTVSPropertyOp12
 70
     1
102
RTVSPropertyOp13
 70
     1
102
RTVSPropertyOp14
 70
     1
102
RTVSPropertyOp15
 70
     1
102
RTVSPropertyOp16
 70
     1
102
RTVSPropertyOp17
 70
     1
102
RTVSPropertyOp18
 70
     1
102
RTVSPropertyOp19
 70
     1
102
RTVSPropertyOp20
 70
     1
102
RTVSPropertyOp21
 70
     1
102
RTVSPropertyOp22
 70
     1
102
RTVSPropertyOp23
 70
     1
102
RTVSPropertyOp24
 70
     1
102
RTVSPropertyOp25
 70
     1
102
RTVSPropertyOp26
 70
     1
102
RTVSPropertyOp27
 70
     1
102
RTVSPropertyOp28
 70
     1
102
RTVSPropertyOp29
 70
     1
102
RTVSPropertyOp30
 70
     1
102
RTVSPropertyOp31
 70
     1
102
RTVSPropertyOp32
 70
     1
  0
XRECORD
  5
18C
102
{ACAD_REACTORS
330
18B
102
}
330
18B
100
AcDbXrecord
280
     1
102
RTVSPropertyOp0
 70
     1
102
RTVSPropertyOp1
 70
     1
102
RTVSPropertyOp2
 70
     1
102
RTVSPropertyOp3
 70
     1
102
RTVSPropertyOp4
 70
     1
102
RTVSPropertyOp5
 70
     1
102
RTVSPropertyOp6
 70
     1
102
RTVSPropertyOp7
 70
     1
102
RTVSPropertyOp8
 70
     1
102
RTVSPropertyOp9
 70
     1
102
RTVSPropertyOp10
 70
     1
102
RTVSPropertyOp11
 70
     1
102
RTVSPropertyOp12
 70
     1
102
RTVSPropertyOp13
 70
     1
102
RTVSPropertyOp14
 70
     1
102
RTVSPropertyOp15
 70
     1
102
RTVSPropertyOp16
 70
     1
102
RTVSPropertyOp17
 70
     1
102
RTVSPropertyOp18
 70
     1
102
RTVSPropertyOp19
 70
     1
102
RTVSPropertyOp20
 70
     1
102
RTVSPropertyOp21
 70
     1
102
RTVSPropertyOp22
 70
     1
102
RTVSPropertyOp23
 70
     1
102
RTVSPropertyOp24
 70
     1
102
RTVSPropertyOp25
 70
     1
102
RTVSPropertyOp26
 70
     1
102
RTVSPropertyOp27
 70
     1
102
RTVSPropertyOp28
 70
     1
102
RTVSPropertyOp29
 70
     1
102
RTVSPropertyOp30
 70
     1
102
RTVSPropertyOp31
 70
     1
102
RTVSPropertyOp32
 70
     1
  0
XRECORD
  5
194
102
{ACAD_REACTORS
330
193
102
}
330
193
100
AcDbXrecord
280
     1
102
RTVSPropertyOp0
 70
     1
102
RTVSPropertyOp1
 70
     1
102
RTVSPropertyOp2
 70
     1
102
RTVSPropertyOp3
 70
     1
102
RTVSPropertyOp4
 70
     1
102
RTVSPropertyOp5
 70
     1
102
RTVSPropertyOp6
 70
     1
102
RTVSPropertyOp7
 70
     1
102
RTVSPropertyOp8
 70
     1
102
RTVSPropertyOp9
 70
     1
102
RTVSPropertyOp10
 70
     1
102
RTVSPropertyOp11
 70
     1
102
RTVSPropertyOp12
 70
     1
102
RTVSPropertyOp13
 70
     1
102
RTVSPropertyOp14
 70
     1
102
RTVSPropertyOp15
 70
     1
102
RTVSPropertyOp16
 70
     1
102
RTVSPropertyOp17
 70
     1
102
RTVSPropertyOp18
 70
     1
102
RTVSPropertyOp19
 70
     1
102
RTVSPropertyOp20
 70
     1
102
RTVSPropertyOp21
 70
     1
102
RTVSPropertyOp22
 70
     1
102
RTVSPropertyOp23
 70
     1
102
RTVSPropertyOp24
 70
     1
102
RTVSPropertyOp25
 70
     1
102
RTVSPropertyOp26
 70
     1
102
RTVSPropertyOp27
 70
     1
102
RTVSPropertyOp28
 70
     1
102
RTVSPropertyOp29
 70
     1
102
RTVSPropertyOp30
 70
     1
102
RTVSPropertyOp31
 70
     1
102
RTVSPropertyOp32
 70
     1
  0
XRECORD
  5
178
102
{ACAD_REACTORS
330
177
102
}
330
177
100
AcDbXrecord
280
     1
102
RTVSPropertyOp0
 70
     1
102
RTVSPropertyOp1
 70
     1
102
RTVSPropertyOp2
 70
     1
102
RTVSPropertyOp3
 70
     1
102
RTVSPropertyOp4
 70
     1
102
RTVSPropertyOp5
 70
     1
102
RTVSPropertyOp6
 70
     1
102
RTVSPropertyOp7
 70
     1
102
RTVSPropertyOp8
 70
     1
102
RTVSPropertyOp9
 70
     1
102
RTVSPropertyOp10
 70
     1
102
RTVSPropertyOp11
 70
     1
102
RTVSPropertyOp12
 70
     1
102
RTVSPropertyOp13
 70
     1
102
RTVSPropertyOp14
 70
     1
102
RTVSPropertyOp15
 70
     1
102
RTVSPropertyOp16
 70
     1
102
RTVSPropertyOp17
 70
     1
102
RTVSPropertyOp18
 70
     1
102
RTVSPropertyOp19
 70
     1
102
RTVSPropertyOp20
 70
     1
102
RTVSPropertyOp21
 70
     1
102
RTVSPropertyOp22
 70
     1
102
RTVSPropertyOp23
 70
     1
102
RTVSPropertyOp24
 70
     1
102
RTVSPropertyOp25
 70
     1
102
RTVSPropertyOp26
 70
     1
102
RTVSPropertyOp27
 70
     1
102
RTVSPropertyOp28
 70
     1
102
RTVSPropertyOp29
 70
     1
102
RTVSPropertyOp30
 70
     1
102
RTVSPropertyOp31
 70
     1
102
RTVSPropertyOp32
 70
     1
  0
XRECORD
  5
17A
102
{ACAD_REACTORS
330
179
102
}
330
179
100
AcDbXrecord
280
     1
102
RTVSPropertyOp0
 70
     1
102
RTVSPropertyOp1
 70
     1
102
RTVSPropertyOp2
 70
     1
102
RTVSPropertyOp3
 70
     1
102
RTVSPropertyOp4
 70
     1
102
RTVSPropertyOp5
 70
     1
102
RTVSPropertyOp6
 70
     1
102
RTVSPropertyOp7
 70
     1
102
RTVSPropertyOp8
 70
     1
102
RTVSPropertyOp9
 70
     1
102
RTVSPropertyOp10
 70
     1
102
RTVSPropertyOp11
 70
     1
102
RTVSPropertyOp12
 70
     1
102
RTVSPropertyOp13
 70
     1
102
RTVSPropertyOp14
 70
     1
102
RTVSPropertyOp15
 70
     1
102
RTVSPropertyOp16
 70
     1
102
RTVSPropertyOp17
 70
     1
102
RTVSPropertyOp18
 70
     1
102
RTVSPropertyOp19
 70
     1
102
RTVSPropertyOp20
 70
     1
102
RTVSPropertyOp21
 70
     1
102
RTVSPropertyOp22
 70
     1
102
RTVSPropertyOp23
 70
     1
102
RTVSPropertyOp24
 70
     1
102
RTVSPropertyOp25
 70
     1
102
RTVSPropertyOp26
 70
     1
102
RTVSPropertyOp27
 70
     1
102
RTVSPropertyOp28
 70
     1
102
RTVSPropertyOp29
 70
     1
102
RTVSPropertyOp30
 70
     1
102
RTVSPropertyOp31
 70
     1
102
RTVSPropertyOp32
 70
     1
  0
XRECORD
  5
17C
102
{ACAD_REACTORS
330
17B
102
}
330
17B
100
AcDbXrecord
280
     1
102
RTVSPropertyOp0
 70
     1
102
RTVSPropertyOp1
 70
     1
102
RTVSPropertyOp2
 70
     1
102
RTVSPropertyOp3
 70
     1
102
RTVSPropertyOp4
 70
     1
102
RTVSPropertyOp5
 70
     1
102
RTVSPropertyOp6
 70
     1
102
RTVSPropertyOp7
 70
     1
102
RTVSPropertyOp8
 70
     1
102
RTVSPropertyOp9
 70
     1
102
RTVSPropertyOp10
 70
     1
102
RTVSPropertyOp11
 70
     1
102
RTVSPropertyOp12
 70
     1
102
RTVSPropertyOp13
 70
     1
102
RTVSPropertyOp14
 70
     1
102
RTVSPropertyOp15
 70
     1
102
RTVSPropertyOp16
 70
     1
102
RTVSPropertyOp17
 70
     1
102
RTVSPropertyOp18
 70
     1
102
RTVSPropertyOp19
 70
     1
102
RTVSPropertyOp20
 70
     1
102
RTVSPropertyOp21
 70
     1
102
RTVSPropertyOp22
 70
     1
102
RTVSPropertyOp23
 70
     1
102
RTVSPropertyOp24
 70
     1
102
RTVSPropertyOp25
 70
     1
102
RTVSPropertyOp26
 70
     1
102
RTVSPropertyOp27
 70
     1
102
RTVSPropertyOp28
 70
     1
102
RTVSPropertyOp29
 70
     1
102
RTVSPropertyOp30
 70
     1
102
RTVSPropertyOp31
 70
     1
102
RTVSPropertyOp32
 70
     1
  0
XRECORD
  5
17E
102
{ACAD_REACTORS
330
17D
102
}
330
17D
100
AcDbXrecord
280
     1
102
RTVSPropertyOp0
 70
     1
102
RTVSPropertyOp1
 70
     1
102
RTVSPropertyOp2
 70
     1
102
RTVSPropertyOp3
 70
     1
102
RTVSPropertyOp4
 70
     1
102
RTVSPropertyOp5
 70
     1
102
RTVSPropertyOp6
 70
     1
102
RTVSPropertyOp7
 70
     1
102
RTVSPropertyOp8
 70
     1
102
RTVSPropertyOp9
 70
     1
102
RTVSPropertyOp10
 70
     1
102
RTVSPropertyOp11
 70
     1
102
RTVSPropertyOp12
 70
     1
102
RTVSPropertyOp13
 70
     1
102
RTVSPropertyOp14
 70
     1
102
RTVSPropertyOp15
 70
     1
102
RTVSPropertyOp16
 70
     1
102
RTVSPropertyOp17
 70
     1
102
RTVSPropertyOp18
 70
     1
102
RTVSPropertyOp19
 70
     1
102
RTVSPropertyOp20
 70
     1
102
RTVSPropertyOp21
 70
     1
102
RTVSPropertyOp22
 70
     1
102
RTVSPropertyOp23
 70
     1
102
RTVSPropertyOp24
 70
     1
102
RTVSPropertyOp25
 70
     1
102
RTVSPropertyOp26
 70
     1
102
RTVSPropertyOp27
 70
     1
102
RTVSPropertyOp28
 70
     1
102
RTVSPropertyOp29
 70
     1
102
RTVSPropertyOp30
 70
     1
102
RTVSPropertyOp31
 70
     1
102
RTVSPropertyOp32
 70
     1
  0
XRECORD
  5
192
102
{ACAD_REACTORS
330
191
102
}
330
191
100
AcDbXrecord
280
     1
102
RTVSPropertyOp0
 70
     1
102
RTVSPropertyOp1
 70
     1
102
RTVSPropertyOp2
 70
     1
102
RTVSPropertyOp3
 70
     1
102
RTVSPropertyOp4
 70
     1
102
RTVSPropertyOp5
 70
     1
102
RTVSPropertyOp6
 70
     1
102
RTVSPropertyOp7
 70
     1
102
RTVSPropertyOp8
 70
     1
102
RTVSPropertyOp9
 70
     1
102
RTVSPropertyOp10
 70
     1
102
RTVSPropertyOp11
 70
     1
102
RTVSPropertyOp12
 70
     1
102
RTVSPropertyOp13
 70
     1
102
RTVSPropertyOp14
 70
     1
102
RTVSPropertyOp15
 70
     1
102
RTVSPropertyOp16
 70
     1
102
RTVSPropertyOp17
 70
     1
102
RTVSPropertyOp18
 70
     1
102
RTVSPropertyOp19
 70
     1
102
RTVSPropertyOp20
 70
     1
102
RTVSPropertyOp21
 70
     1
102
RTVSPropertyOp22
 70
     1
102
RTVSPropertyOp23
 70
     1
102
RTVSPropertyOp24
 70
     1
102
RTVSPropertyOp25
 70
     1
102
RTVSPropertyOp26
 70
     1
102
RTVSPropertyOp27
 70
     1
102
RTVSPropertyOp28
 70
     1
102
RTVSPropertyOp29
 70
     1
102
RTVSPropertyOp30
 70
     1
102
RTVSPropertyOp31
 70
     1
102
RTVSPropertyOp32
 70
     1
  0
XRECORD
  5
188
102
{ACAD_REACTORS
330
187
102
}
330
187
100
AcDbXrecord
280
     1
102
RTVSPropertyOp0
 70
     1
102
RTVSPropertyOp1
 70
     1
102
RTVSPropertyOp2
 70
     1
102
RTVSPropertyOp3
 70
     1
102
RTVSPropertyOp4
 70
     1
102
RTVSPropertyOp5
 70
     1
102
RTVSPropertyOp6
 70
     1
102
RTVSPropertyOp7
 70
     1
102
RTVSPropertyOp8
 70
     1
102
RTVSPropertyOp9
 70
     1
102
RTVSPropertyOp10
 70
     1
102
RTVSPropertyOp11
 70
     1
102
RTVSPropertyOp12
 70
     1
102
RTVSPropertyOp13
 70
     1
102
RTVSPropertyOp14
 70
     1
102
RTVSPropertyOp15
 70
     1
102
RTVSPropertyOp16
 70
     1
102
RTVSPropertyOp17
 70
     1
102
RTVSPropertyOp18
 70
     1
102
RTVSPropertyOp19
 70
     1
102
RTVSPropertyOp20
 70
     1
102
RTVSPropertyOp21
 70
     1
102
RTVSPropertyOp22
 70
     1
102
RTVSPropertyOp23
 70
     1
102
RTVSPropertyOp24
 70
     1
102
RTVSPropertyOp25
 70
     1
102
RTVSPropertyOp26
 70
     1
102
RTVSPropertyOp27
 70
     1
102
RTVSPropertyOp28
 70
     1
102
RTVSPropertyOp29
 70
     1
102
RTVSPropertyOp30
 70
     1
102
RTVSPropertyOp31
 70
     1
102
RTVSPropertyOp32
 70
     1
  0
XRECORD
  5
190
102
{ACAD_REACTORS
330
18F
102
}
330
18F
100
AcDbXrecord
280
     1
102
RTVSPropertyOp0
 70
     1
102
RTVSPropertyOp1
 70
     1
102
RTVSPropertyOp2
 70
     1
102
RTVSPropertyOp3
 70
     1
102
RTVSPropertyOp4
 70
     1
102
RTVSPropertyOp5
 70
     1
102
RTVSPropertyOp6
 70
     1
102
RTVSPropertyOp7
 70
     1
102
RTVSPropertyOp8
 70
     1
102
RTVSPropertyOp9
 70
     1
102
RTVSPropertyOp10
 70
     1
102
RTVSPropertyOp11
 70
     1
102
RTVSPropertyOp12
 70
     1
102
RTVSPropertyOp13
 70
     1
102
RTVSPropertyOp14
 70
     1
102
RTVSPropertyOp15
 70
     1
102
RTVSPropertyOp16
 70
     1
102
RTVSPropertyOp17
 70
     1
102
RTVSPropertyOp18
 70
     1
102
RTVSPropertyOp19
 70
     1
102
RTVSPropertyOp20
 70
     1
102
RTVSPropertyOp21
 70
     1
102
RTVSPropertyOp22
 70
     1
102
RTVSPropertyOp23
 70
     1
102
RTVSPropertyOp24
 70
     1
102
RTVSPropertyOp25
 70
     1
102
RTVSPropertyOp26
 70
     1
102
RTVSPropertyOp27
 70
     1
102
RTVSPropertyOp28
 70
     1
102
RTVSPropertyOp29
 70
     1
102
RTVSPropertyOp30
 70
     1
102
RTVSPropertyOp31
 70
     1
102
RTVSPropertyOp32
 70
     1
  0
ENDSEC
  0
EOF
