  0
SECTION
  2
HEADER
  9
$ACADVER
  1
AC1015
  9
$ACADMAINTVER
 70
     6
  9
$DWGCODEPAGE
  3
ANSI_1252
  9
$INSBASE
 10
0.0
 20
0.0
 30
0.0
  9
$EXTMIN
 10
0.0
 20
0.0
 30
0.0
  9
$EXTMAX
 10
210.0
 20
297.0
 30
0.0
  9
$LIMMIN
 10
0.0
 20
0.0
  9
$LIMMAX
 10
210.0
 20
297.0
  9
$ORTHOMODE
 70
     0
  9
$REGENMODE
 70
     1
  9
$FILLMODE
 70
     1
  9
$QTEXTMODE
 70
     0
  9
$MIRRTEXT
 70
     1
  9
$LTSCALE
 40
1.0
  9
$ATTMODE
 70
     1
  9
$TEXTSIZE
 40
2.5
  9
$TRACEWID
 40
1.0
  9
$TEXTSTYLE
  7
Standard
  9
$CLAYER
  8
0
  9
$CELTYPE
  6
ByLayer
  9
$CECOLOR
 62
   256
  9
$CELTSCALE
 40
1.0
  9
$DISPSILH
 70
     0
  9
$DIMSCALE
 40
1.0
  9
$DIMASZ
 40
2.5
  9
$DIMEXO
 40
0.625
  9
$DIMDLI
 40
3.75
  9
$DIMRND
 40
0.0
  9
$DIMDLE
 40
0.0
  9
$DIMEXE
 40
1.25
  9
$DIMTP
 40
0.0
  9
$DIMTM
 40
0.0
  9
$DIMTXT
 40
2.5
  9
$DIMCEN
 40
2.5
  9
$DIMTSZ
 40
0.0
  9
$DIMTOL
 70
     0
  9
$DIMLIM
 70
     0
  9
$DIMTIH
 70
     0
  9
$DIMTOH
 70
     0
  9
$DIMSE1
 70
     0
  9
$DIMSE2
 70
     0
  9
$DIMTAD
 70
     1
  9
$DIMZIN
 70
     8
  9
$DIMBLK
  1

  9
$DIMASO
 70
     1
  9
$DIMSHO
 70
     1
  9
$DIMPOST
  1

  9
$DIMAPOST
  1

  9
$DIMALT
 70
     0
  9
$DIMALTD
 70
     3
  9
$DIMALTF
 40
0.0393700787
  9
$DIMLFAC
 40
1.0
  9
$DIMTOFL
 70
     1
  9
$DIMTVP
 40
0.0
  9
$DIMTIX
 70
     0
  9
$DIMSOXD
 70
     0
  9
$DIMSAH
 70
     0
  9
$DIMBLK1
  1

  9
$DIMBLK2
  1

  9
$DIMSTYLE
  2
ISO-25
  9
$DIMCLRD
 70
     0
  9
$DIMCLRE
 70
     0
  9
$DIMCLRT
 70
     0
  9
$DIMTFAC
 40
1.0
  9
$DIMGAP
 40
0.625
  9
$DIMJUST
 70
     0
  9
$DIMSD1
 70
     0
  9
$DIMSD2
 70
     0
  9
$DIMTOLJ
 70
     0
  9
$DIMTZIN
 70
     8
  9
$DIMALTZ
 70
     0
  9
$DIMALTTZ
 70
     0
  9
$DIMUPT
 70
     0
  9
$DIMDEC
 70
     2
  9
$DIMTDEC
 70
     2
  9
$DIMALTU
 70
     2
  9
$DIMALTTD
 70
     3
  9
$DIMTXSTY
  7
Standard
  9
$DIMAUNIT
 70
     0
  9
$DIMADEC
 70
     0
  9
$DIMALTRND
 40
0.0
  9
$DIMAZIN
 70
     0
  9
$DIMDSEP
 70
    44
  9
$DIMATFIT
 70
     3
  9
$DIMFRAC
 70
     0
  9
$DIMLDRBLK
  1

  9
$DIMLUNIT
 70
     2
  9
$DIMLWD
 70
    -2
  9
$DIMLWE
 70
    -2
  9
$DIMTMOVE
 70
     0
  9
$LUNITS
 70
     2
  9
$LUPREC
 70
     4
  9
$SKETCHINC
 40
1.0
  9
$FILLETRAD
 40
10.0
  9
$AUNITS
 70
     0
  9
$AUPREC
 70
     0
  9
$MENU
  1
.
  9
$ELEVATION
 40
0.0
  9
$PELEVATION
 40
0.0
  9
$THICKNESS
 40
0.0
  9
$LIMCHECK
 70
     0
  9
$CHAMFERA
 40
10.0
  9
$CHAMFERB
 40
10.0
  9
$CHAMFERC
 40
20.0
  9
$CHAMFERD
 40
0.0
  9
$SKPOLY
 70
     0
  9
$TDCREATE
 40
2457562.550059167
  9
$TDUCREATE
 40
2457562.466725833
  9
$TDUPDATE
 40
2457562.550061204
  9
$TDUUPDATE
 40
2457562.466727871
  9
$TDINDWG
 40
0.0000000116
  9
$TDUSRTIMER
 40
0.0000000116
  9
$USRTIMER
 70
     1
  9
$ANGBASE
 50
0.0
  9
$ANGDIR
 70
     0
  9
$PDMODE
 70
     0
  9
$PDSIZE
 40
0.0
  9
$PLINEWID
 40
0.0
  9
$SPLFRAME
 70
     0
  9
$SPLINETYPE
 70
     6
  9
$SPLINESEGS
 70
     8
  9
$HANDSEED
  5
1AB
  9
$SURFTAB1
 70
     6
  9
$SURFTAB2
 70
     6
  9
$SURFTYPE
 70
     6
  9
$SURFU
 70
     6
  9
$SURFV
 70
     6
  9
$UCSBASE
  2

  9
$UCSNAME
  2

  9
$UCSORG
 10
0.0
 20
0.0
 30
0.0
  9
$UCSXDIR
 10
1.0
 20
0.0
 30
0.0
  9
$UCSYDIR
 10
0.0
 20
1.0
 30
0.0
  9
$UCSORTHOREF
  2

  9
$UCSORTHOVIEW
 70
     0
  9
$UCSORGTOP
 10
0.0
 20
0.0
 30
0.0
  9
$UCSORGBOTTOM
 10
0.0
 20
0.0
 30
0.0
  9
$UCSORGLEFT
 10
0.0
 20
0.0
 30
0.0
  9
$UCSORGRIGHT
 10
0.0
 20
0.0
 30
0.0
  9
$UCSORGFRONT
 10
0.0
 20
0.0
 30
0.0
  9
$UCSORGBACK
 10
0.0
 20
0.0
 30
0.0
  9
$PUCSBASE
  2

  9
$PUCSNAME
  2

  9
$PUCSORG
 10
0.0
 20
0.0
 30
0.0
  9
$PUCSXDIR
 10
1.0
 20
0.0
 30
0.0
  9
$PUCSYDIR
 10
0.0
 20
1.0
 30
0.0
  9
$PUCSORTHOREF
  2

  9
$PUCSORTHOVIEW
 70
     0
  9
$PUCSORGTOP
 10
0.0
 20
0.0
 30
0.0
  9
$PUCSORGBOTTOM
 10
0.0
 20
0.0
 30
0.0
  9
$PUCSORGLEFT
 10
0.0
 20
0.0
 30
0.0
  9
$PUCSORGRIGHT
 10
0.0
 20
0.0
 30
0.0
  9
$PUCSORGFRONT
 10
0.0
 20
0.0
 30
0.0
  9
$PUCSORGBACK
 10
0.0
 20
0.0
 30
0.0
  9
$USERI1
 70
     0
  9
$USERI2
 70
     0
  9
$USERI3
 70
     0
  9
$USERI4
 70
     0
  9
$USERI5
 70
     0
  9
$USERR1
 40
0.0
  9
$USERR2
 40
0.0
  9
$USERR3
 40
0.0
  9
$USERR4
 40
0.0
  9
$USERR5
 40
0.0
  9
$WORLDVIEW
 70
     1
  9
$SHADEDGE
 70
     3
  9
$SHADEDIF
 70
    70
  9
$TILEMODE
 70
     1
  9
$MAXACTVP
 70
    64
  9
$PINSBASE
 10
0.0
 20
0.0
 30
0.0
  9
$PLIMCHECK
 70
     0
  9
$PEXTMIN
 10
0.0
 20
0.0
 30
0.0
  9
$PEXTMAX
 10
210.0
 20
297.0
 30
0.0
  9
$PLIMMIN
 10
0.0
 20
0.0
  9
$PLIMMAX
 10
210.0
 20
297.0
  9
$UNITMODE
 70
     0
  9
$VISRETAIN
 70
     1
  9
$PLINEGEN
 70
     0
  9
$PSLTSCALE
 70
     1
  9
$TREEDEPTH
 70
  3020
  9
$CMLSTYLE
  2
Standard
  9
$CMLJUST
 70
     0
  9
$CMLSCALE
 40
20.0
  9
$PROXYGRAPHICS
 70
     1
  9
$MEASUREMENT
 70
     1
  9
$CELWEIGHT
370
    -1
  9
$ENDCAPS
280
     0
  9
$JOINSTYLE
280
     0
  9
$LWDISPLAY
290
     0
  9
$INSUNITS
 70
     4
  9
$HYPERLINKBASE
  1

  9
$STYLESHEET
  1

  9
$XEDIT
290
     1
  9
$CEPSNTYPE
380
     0
  9
$PSTYLEMODE
290
     1
  9
$FINGERPRINTGUID
  2
{386D5BB6-B7CF-4E3F-B07E-D9402D3462D1}
  9
$VERSIONGUID
  2
{FAEB1C32-E019-11D5-929B-00C0DF256EC4}
  9
$EXTNAMES
290
     1
  9
$PSVPSCALE
 40
0.0
  9
$OLESTARTUP
290
     0
  0
ENDSEC
  0
SECTION
  2
CLASSES
  0
CLASS
  1
ACDBDICTIONARYWDFLT
  2
AcDbDictionaryWithDefault
  3
ObjectDBX Classes
 90
        0
280
     0
281
     0
  0
CLASS
  1
VISUALSTYLE
  2
AcDbVisualStyle
  3
ObjectDBX Classes
 90
     4095
280
     0
281
     0
  0
CLASS
  1
MATERIAL
  2
AcDbMaterial
  3
ObjectDBX Classes
 90
     1153
280
     0
281
     0
  0
CLASS
  1
DICTIONARYVAR
  2
AcDbDictionaryVar
  3
ObjectDBX Classes
 90
        0
280
     0
281
     0
  0
CLASS
  1
ACDBPLACEHOLDER
  2
AcDbPlaceHolder
  3
ObjectDBX Classes
 90
        0
280
     0
281
     0
  0
CLASS
  1
LAYOUT
  2
AcDbLayout
  3
ObjectDBX Classes
 90
        0
280
     0
281
     0
  0
ENDSEC
  0
SECTION
  2
TABLES
  0
TABLE
  2
VPORT
  5
8
330
0
100
AcDbSymbolTable
 70
     1
  0
VPORT
  5
29
330
8
100
AcDbSymbolTableRecord
100
AcDbViewportTableRecord
  2
*Active
 70
     0
 10
0.0
 20
0.0
 11
1.0
 21
1.0
 12
344.1869158879
 22
148.5
 13
0.0
 23
0.0
 14
10.0
 24
10.0
 15
10.0
 25
10.0
 16
0.0
 26
0.0
 36
1.0
 17
0.0
 27
0.0
 37
0.0
 40
297.0
 41
1.9729729729
 42
50.0
 43
0.0
 44
0.0
 50
0.0
 51
0.0
 71
     0
 72
   100
 73
     1
 74
     3
 75
     0
 76
     0
 77
     0
 78
     0
281
     0
 65
     1
110
0.0
120
0.0
130
0.0
111
1.0
121
0.0
131
0.0
112
0.0
122
1.0
132
0.0
 79
     0
146
0.0
  0
ENDTAB
  0
TABLE
  2
LTYPE
  5
5
330
0
100
AcDbSymbolTable
 70
     2
  0
LTYPE
  5
14
330
5
100
AcDbSymbolTableRecord
100
AcDbLinetypeTableRecord
  2
ByBlock
 70
     0
  3

 72
    65
 73
     0
 40
0.0
  0
LTYPE
  5
15
330
5
100
AcDbSymbolTableRecord
100
AcDbLinetypeTableRecord
  2
ByLayer
 70
     0
  3

 72
    65
 73
     0
 40
0.0
  0
LTYPE
  5
16
330
5
100
AcDbSymbolTableRecord
100
AcDbLinetypeTableRecord
  2
Continuous
 70
     0
  3
Solid line
 72
    65
 73
     0
 40
0.0
  0
LTYPE
  5
5A
330
5
100
AcDbSymbolTableRecord
100
AcDbLinetypeTableRecord
  2
HIDDEN2
 70
     0
  3
Hidden (.5x) _ _ _ _ _ _ _ _ _ _ _ _ _ _ _ _ _ 
 72
    65
 73
     2
 40
4.7625
 49
3.175
 74
     4
 75
     0
340
0
 46
0.0
 50
0.0
 44
0.0
 45
0.0
 49
-1.5875
 74
     4
 75
     0
340
0
 46
0.0
 50
0.0
 44
0.0
 45
0.0
  0
ENDTAB
  0
TABLE
  2
LAYER
  5
2
330
0
100
AcDbSymbolTable
 70
     5
  0
LAYER
  5
10
330
2
100
AcDbSymbolTableRecord
100
AcDbLayerTableRecord
  2
0
 70
     0
 62
     7
  6
Continuous
370
    -3
390
F
  0
LAYER
  5
3F
330
2
100
AcDbSymbolTableRecord
100
AcDbLayerTableRecord
  2
SK2
 70
     0
 62
     7
  6
Continuous
370
    15
390
F
  0
LAYER
  5
40
330
2
100
AcDbSymbolTableRecord
100
AcDbLayerTableRecord
  2
SK1
 70
     0
 62
     4
  6
Continuous
370
    18
390
F
  0
LAYER
  5
59
330
2
100
AcDbSymbolTableRecord
100
AcDbLayerTableRecord
  2
SK3
 70
     0
 62
     1
  6
HIDDEN2
370
    15
390
F
  0
LAYER
  5
13E
330
2
100
AcDbSymbolTableRecord
100
AcDbLayerTableRecord
  2
SK4
 70
     0
 62
     2
  6
Continuous
370
    13
390
F
  0
ENDTAB
  0
TABLE
  2
STYLE
  5
3
330
0
100
AcDbSymbolTable
 70
     2
  0
STYLE
  5
11
330
3
100
AcDbSymbolTableRecord
100
AcDbTextStyleTableRecord
  2
Standard
 70
     0
 40
0.0
 41
1.0
 50
0.0
 71
     0
 42
2.5
  3
txt
  4

  0
STYLE
  5
152
330
3
100
AcDbSymbolTableRecord
100
AcDbTextStyleTableRecord
  2
SEACAD_Solid_Edge_ISO
 70
     0
 40
0.0
 41
1.0
 50
0.0
 71
     0
 42
0.2
  3
seiso.ttf
  4

1001
ACAD
1000
Solid Edge ISO
1071
        0
  0
ENDTAB
  0
TABLE
  2
VIEW
  5
6
330
0
100
AcDbSymbolTable
 70
     0
  0
ENDTAB
  0
TABLE
  2
UCS
  5
7
330
0
100
AcDbSymbolTable
 70
     0
  0
ENDTAB
  0
TABLE
  2
APPID
  5
9
330
0
100
AcDbSymbolTable
 70
     1
  0
APPID
  5
12
330
9
100
AcDbSymbolTableRecord
100
AcDbRegAppTableRecord
  2
ACAD
 70
     0
  0
ENDTAB
  0
TABLE
  2
DIMSTYLE
  5
A
330
0
100
AcDbSymbolTable
 70
     3
100
AcDbDimStyleTable
  0
DIMSTYLE
105
27
330
A
100
AcDbSymbolTableRecord
100
AcDbDimStyleTableRecord
  2
ISO-25
 70
     0
 41
2.5
 42
0.625
 43
3.75
 44
1.25
 73
     0
 74
     0
 77
     1
 78
     8
140
2.5
141
2.5
143
0.0393700787
147
0.625
171
     3
172
     1
178
     0
271
     2
272
     2
274
     3
278
    44
283
     0
284
     8
340
11
  0
DIMSTYLE
105
140
330
A
100
AcDbSymbolTableRecord
100
AcDbDimStyleTableRecord
  2
Standard
 70
     0
178
     0
340
11
  0
DIMSTYLE
105
153
102
{ACAD_REACTORS
330
154
330
15F
330
169
330
174
102
}
330
A
100
AcDbSymbolTableRecord
100
AcDbDimStyleTableRecord
  2
DIN
 70
     0
 41
3.5
 42
0.0
 44
1.75
 73
     0
 74
     0
 77
     1
 78
     8
140
3.5
141
1.75
147
1.75
172
     1
173
     1
178
     0
179
     3
271
     2
272
     2
278
    44
284
     8
340
152
343
14D
344
14D
  0
ENDTAB
  0
TABLE
  2
BLOCK_RECORD
  5
1
330
0
100
AcDbSymbolTable
 70
    10
  0
BLOCK_RECORD
  5
1F
330
1
100
AcDbSymbolTableRecord
100
AcDbBlockTableRecord
  2
*Model_Space
340
22
  0
BLOCK_RECORD
  5
1B
330
1
100
AcDbSymbolTableRecord
100
AcDbBlockTableRecord
  2
*Paper_Space
340
1E
  0
BLOCK_RECORD
  5
41
330
1
100
AcDbSymbolTableRecord
100
AcDbBlockTableRecord
  2
Nullpunkt
340
0
102
{BLKREFS
331
4B
102
}
  0
BLOCK_RECORD
  5
4C
330
1
100
AcDbSymbolTableRecord
100
AcDbBlockTableRecord
  2
Einfügepunkt
340
0
102
{BLKREFS
331
56
102
}
  0
BLOCK_RECORD
  5
141
330
1
100
AcDbSymbolTableRecord
100
AcDbBlockTableRecord
  2
_OBLIQUE
340
0
  0
BLOCK_RECORD
  5
145
330
1
100
AcDbSymbolTableRecord
100
AcDbBlockTableRecord
  2
_DOT
340
0
  0
BLOCK_RECORD
  5
14D
330
1
100
AcDbSymbolTableRecord
100
AcDbBlockTableRecord
  2
_SE_FILLED
340
0
  0
BLOCK_RECORD
  5
155
330
1
100
AcDbSymbolTableRecord
100
AcDbBlockTableRecord
  2
DMBLK77
340
0
  0
BLOCK_RECORD
  5
160
330
1
100
AcDbSymbolTableRecord
100
AcDbBlockTableRecord
  2
DMBLK78
340
0
  0
BLOCK_RECORD
  5
16A
330
1
100
AcDbSymbolTableRecord
100
AcDbBlockTableRecord
  2
DMBLK79
340
0
  0
BLOCK_RECORD
  5
175
330
1
100
AcDbSymbolTableRecord
100
AcDbBlockTableRecord
  2
DMBLK80
340
0
  0
ENDTAB
  0
ENDSEC
  0
SECTION
  2
BLOCKS
  0
BLOCK
  5
20
330
1F
100
AcDbEntity
  8
0
100
AcDbBlockBegin
  2
*Model_Space
 70
     0
 10
0.0
 20
0.0
 30
0.0
  3
*Model_Space
  1

  0
ENDBLK
  5
21
330
1F
100
AcDbEntity
  8
0
100
AcDbBlockEnd
  0
BLOCK
  5
1C
330
1B
100
AcDbEntity
 67
     1
  8
0
100
AcDbBlockBegin
  2
*Paper_Space
 70
     0
 10
0.0
 20
0.0
 30
0.0
  3
*Paper_Space
  1

  0
ENDBLK
  5
1D
330
1B
100
AcDbEntity
 67
     1
  8
0
100
AcDbBlockEnd
  0
BLOCK
  5
49
330
41
100
AcDbEntity
  8
0
100
AcDbBlockBegin
  2
Nullpunkt
 70
     0
 10
0.0
 20
0.0
 30
0.0
  3
Nullpunkt
  1

  0
HATCH
  5
42
330
41
100
AcDbEntity
  8
SK2
  6
Continuous
 62
     7
100
AcDbHatch
 10
0.0
 20
0.0
 30
0.0
210
0.0
220
0.0
230
1.0
  2
SOLID
 70
     1
 71
     0
 91
        1
 92
        1
 93
        3
 72
     1
 10
-1.0
 20
0.0
 11
0.0000000000000009
 21
0.0
 72
     1
 10
0.0
 20
0.0
 11
0.0
 21
1.000000000000001
 72
     2
 10
0.0
 20
0.0
 40
1.0
 50
90.0
 51
180.0
 73
     1
 97
        0
 75
     0
 76
     1
 98
        0
  0
HATCH
  5
43
330
41
100
AcDbEntity
  8
SK2
  6
Continuous
 62
     7
100
AcDbHatch
 10
0.0
 20
0.0
 30
0.0
210
0.0
220
0.0
230
1.0
  2
SOLID
 70
     1
 71
     0
 91
        1
 92
        1
 93
        3
 72
     2
 10
0.0
 20
0.0
 40
1.0
 50
270.0
 51
360.0
 73
     1
 72
     1
 10
1.0
 20
0.0
 11
-0.0000000000000009
 21
0.0
 72
     1
 10
0.0
 20
0.0
 11
0.0
 21
-1.000000000000001
 97
        0
 75
     0
 76
     1
 98
        0
  0
CIRCLE
  5
44
330
41
100
AcDbEntity
  8
SK2
  6
Continuous
 62
     7
100
AcDbCircle
 10
0.0
 20
0.0
 30
0.0
 40
1.0
  0
LINE
  5
45
330
41
100
AcDbEntity
  8
SK1
  6
Continuous
100
AcDbLine
 10
-1.0
 20
0.0
 30
0.0
 11
1.0
 21
0.0
 31
0.0
  0
LINE
  5
46
330
41
100
AcDbEntity
  8
SK1
  6
Continuous
100
AcDbLine
 10
0.0
 20
1.0
 30
0.0
 11
0.0
 21
-1.0
 31
0.0
  0
POINT
  5
47
330
41
100
AcDbEntity
  8
SK1
  6
Continuous
100
AcDbPoint
 10
0.0
 20
0.0
 30
0.0
  0
POINT
  5
48
330
41
100
AcDbEntity
  8
SK1
  6
Continuous
100
AcDbPoint
 10
0.0
 20
0.0
 30
0.0
  0
ENDBLK
  5
4A
330
41
100
AcDbEntity
  8
0
100
AcDbBlockEnd
  0
BLOCK
  5
54
330
4C
100
AcDbEntity
  8
0
100
AcDbBlockBegin
  2
Einfügepunkt
 70
     0
 10
0.0
 20
0.0
 30
0.0
  3
Einfügepunkt
  1

  0
HATCH
  5
4D
330
4C
100
AcDbEntity
  8
SK2
  6
Continuous
 62
     7
100
AcDbHatch
 10
0.0
 20
0.0
 30
0.0
210
0.0
220
0.0
230
1.0
  2
SOLID
 70
     1
 71
     0
 91
        1
 92
        1
 93
        3
 72
     1
 10
-0.4502381196756744
 20
-0.0000000000000018
 11
0.0000000000000033
 21
-0.0000000000000018
 72
     1
 10
0.0
 20
-0.0000000000000018
 11
0.0
 21
0.4502381196756812
 72
     2
 10
0.0
 20
-0.0000000000000018
 40
0.4502381196756812
 50
90.0
 51
180.0
 73
     1
 97
        0
 75
     0
 76
     1
 98
        0
  0
HATCH
  5
4E
330
4C
100
AcDbEntity
  8
SK2
  6
Continuous
 62
     7
100
AcDbHatch
 10
0.0
 20
0.0
 30
0.0
210
0.0
220
0.0
230
1.0
  2
SOLID
 70
     1
 71
     0
 91
        1
 92
        1
 93
        3
 72
     2
 10
0.0
 20
-0.0000000000000018
 40
0.4502381196756812
 50
270.0
 51
360.0
 73
     1
 72
     1
 10
0.4502381196756815
 20
-0.0000000000000018
 11
0.0000000000000038
 21
-0.0000000000000018
 72
     1
 10
0.0
 20
-0.0000000000000018
 11
0.0
 21
-0.4502381196756812
 97
        0
 75
     0
 76
     1
 98
        0
  0
CIRCLE
  5
4F
330
4C
100
AcDbEntity
  8
SK2
  6
Continuous
 62
     7
100
AcDbCircle
 10
0.0
 20
0.0
 30
0.0
 40
0.4502381196756812
  0
LINE
  5
50
330
4C
100
AcDbEntity
  8
SK1
  6
Continuous
100
AcDbLine
 10
-0.4502381197
 20
0.0
 30
0.0
 11
0.4502381197
 21
0.0
 31
0.0
  0
LINE
  5
51
330
4C
100
AcDbEntity
  8
SK1
  6
Continuous
100
AcDbLine
 10
0.0
 20
0.4502381197
 30
0.0
 11
0.0
 21
-0.4502381197
 31
0.0
  0
POINT
  5
52
330
4C
100
AcDbEntity
  8
SK2
  6
Continuous
 62
     7
100
AcDbPoint
 10
0.0
 20
0.0
 30
0.0
  0
POINT
  5
53
330
4C
100
AcDbEntity
  8
SK2
  6
Continuous
 62
     7
100
AcDbPoint
 10
0.0
 20
0.0
 30
0.0
  0
ENDBLK
  5
55
330
4C
100
AcDbEntity
  8
0
100
AcDbBlockEnd
  0
BLOCK
  5
142
330
141
100
AcDbEntity
  8
0
100
AcDbBlockBegin
  2
_OBLIQUE
 70
     0
 10
0.0
 20
0.0
 30
0.0
  3
_OBLIQUE
  1

  0
LINE
  5
144
330
141
100
AcDbEntity
  8
0
  6
ByBlock
 62
     0
370
    -2
100
AcDbLine
 10
-0.5
 20
-0.5
 30
0.0
 11
0.5
 21
0.5
 31
0.0
  0
ENDBLK
  5
143
330
141
100
AcDbEntity
  8
0
100
AcDbBlockEnd
  0
BLOCK
  5
146
330
145
100
AcDbEntity
  8
0
100
AcDbBlockBegin
  2
_DOT
 70
     0
 10
0.0
 20
0.0
 30
0.0
  3
_DOT
  1

  0
POLYLINE
  5
148
330
145
100
AcDbEntity
  8
0
  6
ByBlock
 62
     0
100
AcDb2dPolyline
 66
     1
 10
0.0
 20
0.0
 30
0.0
 70
     1
 40
0.5
 41
0.5
  0
VERTEX
  5
14A
330
148
100
AcDbEntity
  8
0
  6
ByBlock
 62
     0
100
AcDbVertex
100
AcDb2dVertex
 10
-0.25
 20
0.0
 30
0.0
 42
1.0
  0
VERTEX
  5
14B
330
148
100
AcDbEntity
  8
0
  6
ByBlock
 62
     0
100
AcDbVertex
100
AcDb2dVertex
 10
0.25
 20
0.0
 30
0.0
 42
1.0
  0
SEQEND
  5
14C
330
148
100
AcDbEntity
  8
0
  6
ByBlock
 62
     0
  0
LINE
  5
149
330
145
100
AcDbEntity
  8
0
  6
ByBlock
 62
     0
370
    -2
100
AcDbLine
 10
-0.5
 20
0.0
 30
0.0
 11
-1.0
 21
0.0
 31
0.0
  0
ENDBLK
  5
147
330
145
100
AcDbEntity
  8
0
100
AcDbBlockEnd
  0
BLOCK
  5
150
330
14D
100
AcDbEntity
  8
0
100
AcDbBlockBegin
  2
_SE_FILLED
 70
     0
 10
0.0
 20
0.0
 30
0.0
  3
_SE_FILLED
  1

  0
SOLID
  5
14E
330
14D
100
AcDbEntity
  8
0
 62
     0
100
AcDbTrace
 10
0.0
 20
0.0
 30
0.0
 11
-1.0
 21
-0.1665
 31
0.0
 12
-1.0
 22
0.1665
 32
0.0
 13
0.0
 23
0.0
 33
0.0
  0
LINE
  5
14F
330
14D
100
AcDbEntity
  8
0
 62
     0
100
AcDbLine
 10
0.0
 20
0.0
 30
0.0
 11
-1.0
 21
0.0
 31
0.0
  0
ENDBLK
  5
151
330
14D
100
AcDbEntity
  8
0
100
AcDbBlockEnd
  0
BLOCK
  5
15D
330
155
100
AcDbEntity
  8
0
100
AcDbBlockBegin
  2
DMBLK77
 70
     0
 10
0.0
 20
0.0
 30
0.0
  3
DMBLK77
  1

  0
HATCH
  5
156
330
155
100
AcDbEntity
  8
SK2
  6
Continuous
 62
   136
100
AcDbHatch
 10
0.0
 20
0.0
 30
0.0
210
0.0
220
0.0
230
1.0
  2
SOLID
 70
     1
 71
     0
 91
        1
 92
        1
 93
        3
 72
     1
 10
23.75187868598119
 20
7.500000207804116
 11
22.58521198330338
 21
7.500000207804116
 72
     1
 10
22.58521198330338
 20
7.500000207804116
 11
23.16854533464229
 21
4.000000099770697
 72
     1
 10
23.16854533464229
 20
4.000000099770697
 11
23.75187868598119
 21
7.500000207804116
 97
        0
 75
     0
 76
     1
 98
        0
  0
HATCH
  5
157
330
155
100
AcDbEntity
  8
SK2
  6
Continuous
 62
   136
100
AcDbHatch
 10
0.0
 20
0.0
 30
0.0
210
0.0
220
0.0
230
1.0
  2
SOLID
 70
     1
 71
     0
 91
        1
 92
        1
 93
        3
 72
     1
 10
23.75187868598119
 20
-7.500000008262733
 11
23.16854533464229
 21
-3.999999900229314
 72
     1
 10
23.16854533464229
 20
-3.999999900229315
 11
22.58521198330338
 21
-7.500000008262733
 72
     1
 10
22.58521198330338
 20
-7.500000008262733
 11
23.75187868598119
 21
-7.500000008262733
 97
        0
 75
     0
 76
     1
 98
        0
  0
LINE
  5
158
330
155
100
AcDbEntity
  8
SK2
  6
Continuous
 62
   136
100
AcDbLine
 10
12.46
 20
4.0000000998
 30
0.0
 11
24.9185453887
 21
4.0000000998
 31
0.0
  0
LINE
  5
159
330
155
100
AcDbEntity
  8
SK2
  6
Continuous
 62
   136
100
AcDbLine
 10
12.46
 20
-3.9999999002
 30
0.0
 11
24.9185453887
 21
-3.9999999002
 31
0.0
  0
LINE
  5
15A
330
155
100
AcDbEntity
  8
SK2
  6
Continuous
 62
   136
100
AcDbLine
 10
23.1685453346
 20
17.3759138241
 30
0.0
 11
23.1685453346
 21
-10.999999565
 31
0.0
  0
TEXT
  5
15B
330
155
100
AcDbEntity
  8
SK2
  6
Continuous
 62
   136
100
AcDbText
 10
22.2935453346
 20
13.9236410595
 30
0.0
 40
3.5
  1
8
 50
90.0
  7
SEACAD_Solid_Edge_ISO
 11
18.7935453346
 21
13.9236410595
 31
0.0
100
AcDbText
 73
     3
  0
TEXT
  5
15C
330
155
100
AcDbEntity
  8
SK2
  6
Continuous
 62
   136
100
AcDbText
 10
22.2935453346
 20
9.8509137868
 30
0.0
 40
3.5
  1
ø
 50
90.0
  7
SEACAD_Solid_Edge_ISO
 11
18.7935453346
 21
9.8509137868
 31
0.0
100
AcDbText
 73
     3
  0
ENDBLK
  5
15E
330
155
100
AcDbEntity
  8
0
100
AcDbBlockEnd
  0
BLOCK
  5
167
330
160
100
AcDbEntity
  8
0
100
AcDbBlockBegin
  2
DMBLK78
 70
     0
 10
0.0
 20
0.0
 30
0.0
  3
DMBLK78
  1

  0
HATCH
  5
161
330
160
100
AcDbEntity
  8
SK2
  6
Continuous
 62
   136
100
AcDbHatch
 10
0.0
 20
0.0
 30
0.0
210
0.0
220
0.0
230
1.0
  2
SOLID
 70
     1
 71
     0
 91
        1
 92
        1
 93
        3
 72
     1
 10
9.159999891971728
 20
-24.87555464946843
 11
12.66000000000515
 21
-24.29222129812953
 72
     1
 10
12.66000000000515
 20
-24.29222129812953
 11
9.159999891971728
 21
-23.70888794679062
 72
     1
 10
9.159999891971728
 20
-23.70888794679062
 11
9.159999891971728
 21
-24.87555464946843
 97
        0
 75
     0
 76
     1
 98
        0
  0
HATCH
  5
162
330
160
100
AcDbEntity
  8
SK2
  6
Continuous
 62
   136
100
AcDbHatch
 10
0.0
 20
0.0
 30
0.0
210
0.0
220
0.0
230
1.0
  2
SOLID
 70
     1
 71
     0
 91
        1
 92
        1
 93
        3
 72
     1
 10
3.50000056610026
 20
-24.87555464946843
 11
3.50000056610026
 21
-23.70888794679062
 72
     1
 10
3.50000056610026
 20
-23.70888794679062
 11
0.0000004580668413
 21
-24.29222129812953
 72
     1
 10
0.0000004580668414
 20
-24.29222129812953
 11
3.50000056610026
 21
-24.87555464946843
 97
        0
 75
     0
 76
     1
 98
        0
  0
LINE
  5
163
330
160
100
AcDbEntity
  8
SK2
  6
Continuous
 62
   136
100
AcDbLine
 10
12.66
 20
-5.478086421
 30
0.0
 11
12.66
 21
-26.0422213521
 31
0.0
  0
LINE
  5
164
330
160
100
AcDbEntity
  8
SK2
  6
Continuous
 62
   136
100
AcDbLine
 10
0.0
 20
-15.9946736591
 30
0.0
 11
0.0
 21
-26.0422213521
 31
0.0
  0
LINE
  5
165
330
160
100
AcDbEntity
  8
SK2
  6
Continuous
 62
   136
100
AcDbLine
 10
12.66
 20
-24.2922212981
 30
0.0
 11
0.0000004581
 21
-24.2922212981
 31
0.0
  0
TEXT
  5
166
330
160
100
AcDbEntity
  8
SK2
  6
Continuous
 62
   136
100
AcDbText
 10
2.0743184109
 20
-23.4172212981
 30
0.0
 40
3.5
  1
12,66
  7
SEACAD_Solid_Edge_ISO
 11
2.0743184109
 21
-19.9172212981
 31
0.0
100
AcDbText
 73
     3
  0
ENDBLK
  5
168
330
160
100
AcDbEntity
  8
0
100
AcDbBlockEnd
  0
BLOCK
  5
172
330
16A
100
AcDbEntity
  8
0
100
AcDbBlockBegin
  2
DMBLK79
 70
     0
 10
0.0
 20
0.0
 30
0.0
  3
DMBLK79
  1

  0
HATCH
  5
16B
330
16A
100
AcDbEntity
  8
SK2
  6
Continuous
 62
   136
100
AcDbHatch
 10
0.0
 20
0.0
 30
0.0
210
0.0
220
0.0
230
1.0
  2
SOLID
 70
     1
 71
     0
 91
        1
 92
        1
 93
        3
 72
     1
 10
-33.69778154107431
 20
12.49467375065599
 11
-32.53111483839651
 21
12.49467375065599
 72
     1
 10
-32.53111483839651
 20
12.49467375065599
 11
-33.11444818973541
 21
15.99467385868941
 72
     1
 10
-33.11444818973541
 20
15.99467385868941
 11
-33.69778154107431
 21
12.49467375065599
 97
        0
 75
     0
 76
     1
 98
        0
  0
HATCH
  5
16C
330
16A
100
AcDbEntity
  8
SK2
  6
Continuous
 62
   136
100
AcDbHatch
 10
0.0
 20
0.0
 30
0.0
210
0.0
220
0.0
230
1.0
  2
SOLID
 70
     1
 71
     0
 91
        1
 92
        1
 93
        3
 72
     1
 10
-33.69778154107431
 20
-12.49467322294201
 11
-33.11444818973541
 21
-15.99467333097543
 72
     1
 10
-33.11444818973541
 20
-15.99467333097543
 11
-32.53111483839651
 21
-12.49467322294201
 72
     1
 10
-32.53111483839651
 20
-12.49467322294201
 11
-33.69778154107431
 21
-12.49467322294201
 97
        0
 75
     0
 76
     1
 98
        0
  0
LINE
  5
16D
330
16A
100
AcDbEntity
  8
SK2
  6
Continuous
 62
   136
100
AcDbLine
 10
0.0
 20
15.9946738587
 30
0.0
 11
-34.8644482438
 21
15.9946738587
 31
0.0
  0
LINE
  5
16E
330
16A
100
AcDbEntity
  8
SK2
  6
Continuous
 62
   136
100
AcDbLine
 10
0.0
 20
-15.9946736591
 30
0.0
 11
-34.8644482438
 21
-15.9946736591
 31
0.0
  0
LINE
  5
16F
330
16A
100
AcDbEntity
  8
SK2
  6
Continuous
 62
   136
100
AcDbLine
 10
-33.1144481897
 20
15.9946738587
 30
0.0
 11
-33.1144481897
 21
-15.994673331
 31
0.0
  0
TEXT
  5
170
330
16A
100
AcDbEntity
  8
SK2
  6
Continuous
 62
   136
100
AcDbText
 10
-33.9894481897
 20
0.0477275366
 30
0.0
 40
3.5
  1
32
 50
90.0
  7
SEACAD_Solid_Edge_ISO
 11
-37.4894481897
 21
0.0477275366
 31
0.0
100
AcDbText
 73
     3
  0
TEXT
  5
171
330
16A
100
AcDbEntity
  8
SK2
  6
Continuous
 62
   136
100
AcDbText
 10
-33.9894481897
 20
-4.0249997361
 30
0.0
 40
3.5
  1
ø
 50
90.0
  7
SEACAD_Solid_Edge_ISO
 11
-37.4894481897
 21
-4.0249997361
 31
0.0
100
AcDbText
 73
     3
  0
ENDBLK
  5
173
330
16A
100
AcDbEntity
  8
0
100
AcDbBlockEnd
  0
BLOCK
  5
17C
330
175
100
AcDbEntity
  8
0
100
AcDbBlockBegin
  2
DMBLK80
 70
     0
 10
0.0
 20
0.0
 30
0.0
  3
DMBLK80
  1

  0
HATCH
  5
176
330
175
100
AcDbEntity
  8
SK2
  6
Continuous
 62
   136
100
AcDbHatch
 10
0.0
 20
0.0
 30
0.0
210
0.0
220
0.0
230
1.0
  2
SOLID
 70
     1
 71
     0
 91
        1
 92
        1
 93
        3
 72
     1
 10
-23.83999989196146
 20
22.72038802865565
 11
-27.33999999999488
 21
22.13705467731675
 72
     1
 10
-27.33999999999488
 20
22.13705467731675
 11
-23.83999989196146
 21
21.55372132597784
 72
     1
 10
-23.83999989196146
 20
21.55372132597784
 11
-23.83999989196146
 21
22.72038802865565
 97
        0
 75
     0
 76
     1
 98
        0
  0
HATCH
  5
177
330
175
100
AcDbEntity
  8
SK2
  6
Continuous
 62
   136
100
AcDbHatch
 10
0.0
 20
0.0
 30
0.0
210
0.0
220
0.0
230
1.0
  2
SOLID
 70
     1
 71
     0
 91
        1
 92
        1
 93
        3
 72
     1
 10
9.159998997902035
 20
22.72038802865565
 11
9.159998997902035
 21
21.55372132597784
 72
     1
 10
9.159998997902035
 20
21.55372132597784
 11
12.65999910593545
 21
22.13705467731675
 72
     1
 10
12.65999910593545
 20
22.13705467731675
 11
9.159998997902035
 21
22.72038802865565
 97
        0
 75
     0
 76
     1
 98
        0
  0
LINE
  5
178
330
175
100
AcDbEntity
  8
SK2
  6
Continuous
 62
   136
100
AcDbLine
 10
-27.34
 20
11.8897757188
 30
0.0
 11
-27.34
 21
23.8870547313
 31
0.0
  0
LINE
  5
179
330
175
100
AcDbEntity
  8
SK2
  6
Continuous
 62
   136
100
AcDbLine
 10
12.66
 20
12.4861671929
 30
0.0
 11
12.66
 21
23.8870547313
 31
0.0
  0
LINE
  5
17A
330
175
100
AcDbEntity
  8
SK2
  6
Continuous
 62
   136
100
AcDbLine
 10
-27.34
 20
22.1370546773
 30
0.0
 11
12.6599991059
 21
22.1370546773
 31
0.0
  0
TEXT
  5
17B
330
175
100
AcDbEntity
  8
SK2
  6
Continuous
 62
   136
100
AcDbText
 10
-9.4081822652
 20
23.0120546773
 30
0.0
 40
3.5
  1
40
  7
SEACAD_Solid_Edge_ISO
 11
-9.4081822652
 21
26.5120546773
 31
0.0
100
AcDbText
 73
     3
  0
ENDBLK
  5
17D
330
175
100
AcDbEntity
  8
0
100
AcDbBlockEnd
  0
ENDSEC
  0
SECTION
  2
ENTITIES
  0
INSERT
  5
4B
330
1F
100
AcDbEntity
  8
SK2
 62
     7
100
AcDbBlockReference
  2
Nullpunkt
 10
0.0
 20
0.0000000998
 30
0.0
  0
INSERT
  5
56
330
1F
100
AcDbEntity
  8
SK2
 62
     7
100
AcDbBlockReference
  2
Einfügepunkt
 10
12.66
 20
0.0000000998
 30
0.0
  0
LINE
  5
57
330
1F
100
AcDbEntity
  8
SK1
  6
Continuous
100
AcDbLine
 10
-27.0817519303
 20
-8.3346816813
 30
0.0
 11
-27.0817519303
 21
-0.3999999002
 31
0.0
  0
LINE
  5
58
330
1F
100
AcDbEntity
  8
SK1
  6
Continuous
100
AcDbLine
 10
-27.34
 20
-8.1244981547
 30
0.0
 11
-27.34
 21
-0.3999999002
 31
0.0
  0
SPLINE
  5
5B
330
1F
100
AcDbEntity
  8
SK3
100
AcDbSpline
210
0.0
220
0.0
230
1.0
 70
     8
 71
     3
 72
    10
 73
     6
 74
     0
 42
0.0000000360387632
 43
0.0000000001
 12
1.0
 22
0.0
 32
0.0
 13
1.0
 23
0.0
 33
0.0
 40
0.0
 40
0.0
 40
0.0
 40
0.0
 40
0.5
 40
0.5
 40
1.0
 40
1.0
 40
1.0
 40
1.0
 10
-27.33999999999662
 20
-3.239191712522691
 30
0.0
 10
-27.33999999999481
 20
-3.20221941430172
 30
0.0
 10
-27.318898168884
 20
-3.165431571521399
 30
0.0
 10
-27.24438434488244
 20
-3.112319550585544
 30
0.0
 10
-27.19295330752572
 20
-3.097092068597429
 30
0.0
 10
-27.13999999999488
 20
-3.09709206859799
 30
0.0
  0
SPLINE
  5
5C
330
1F
100
AcDbEntity
  8
SK3
100
AcDbSpline
210
0.0
220
0.0
230
1.0
 70
     8
 71
     3
 72
    10
 73
     6
 74
     0
 42
0.0000000360477753
 43
0.0000000001
 12
1.0
 22
0.0
 32
0.0
 13
1.0
 23
0.0
 33
0.0
 40
0.0
 40
0.0
 40
0.0
 40
0.0
 40
0.5
 40
0.5
 40
1.0
 40
1.0
 40
1.0
 40
1.0
 10
-27.33999999999727
 20
-2.673506287573786
 30
0.0
 10
-27.33999999999499
 20
-2.636511490300851
 30
0.0
 10
-27.3184800703852
 20
-2.599447991136267
 30
0.0
 10
-27.24480167500214
 20
-2.546931733387837
 30
0.0
 10
-27.19299099105719
 20
-2.531406643648753
 30
0.0
 10
-27.13999999999488
 20
-2.53140664364875
 30
0.0
  0
LINE
  5
5D
330
1F
100
AcDbEntity
  8
SK1
  6
Continuous
100
AcDbLine
 10
3.56
 20
-11.380990177
 30
0.0
 11
3.56
 21
-6.6819726397
 31
0.0
  0
LINE
  5
5E
330
1F
100
AcDbEntity
  8
SK1
  6
Continuous
100
AcDbLine
 10
3.76
 20
-10.037040908
 30
0.0
 11
3.76
 21
-5.9546325366
 31
0.0
  0
SPLINE
  5
5F
330
1F
100
AcDbEntity
  8
SK1
  6
Continuous
100
AcDbSpline
210
0.0
220
0.0
230
1.0
 70
     8
 71
     3
 72
    10
 73
     6
 74
     0
 42
0.000000036097062
 43
0.0000000001
 12
1.0
 22
0.0
 32
0.0
 13
1.0
 23
0.0
 33
0.0
 40
0.0
 40
0.0
 40
0.0
 40
0.0
 40
0.5
 40
0.5
 40
1.0
 40
1.0
 40
1.0
 40
1.0
 10
3.560000000005122
 20
-10.17851465225231
 30
0.0
 10
3.560000000005116
 20
-10.14163206754096
 30
0.0
 10
3.581207253655183
 20
-10.10493830569599
 30
0.0
 10
3.655815507225805
 20
-10.05211241267181
 30
0.0
 10
3.707168617517145
 20
-10.03704090802927
 30
0.0
 10
3.760000000005124
 20
-10.03704090802984
 30
0.0
  0
LINE
  5
60
330
1F
100
AcDbEntity
  8
SK1
  6
Continuous
100
AcDbLine
 10
3.76
 20
-10.037040908
 30
0.0
 11
6.26
 21
-10.037040908
 31
0.0
  0
SPLINE
  5
61
330
1F
100
AcDbEntity
  8
SK1
  6
Continuous
100
AcDbSpline
210
0.0
220
0.0
230
1.0
 70
     8
 71
     3
 72
    10
 73
     6
 74
     0
 42
0.0000000269170392
 43
0.0000000001
 12
1.0
 22
0.0
 32
0.0
 13
1.0
 23
0.0
 33
0.0
 40
0.0
 40
0.0
 40
0.0
 40
0.0
 40
0.5
 40
0.5
 40
1.0
 40
1.0
 40
1.0
 40
1.0
 10
-27.33999999999488
 20
-8.124498154726892
 30
0.0
 10
-27.33999999999487
 20
-8.17502880142478
 30
0.0
 10
-27.31325218559973
 20
-8.225574189734418
 30
0.0
 10
-27.21983457327844
 20
-8.301706724728819
 30
0.0
 10
-27.15326761691808
 20
-8.327570812840056
 30
0.0
 10
-27.08175193028289
 20
-8.334681681282113
 30
0.0
  0
SPLINE
  5
62
330
1F
100
AcDbEntity
  8
SK1
  6
Continuous
100
AcDbSpline
210
0.0
220
0.0
230
1.0
 70
     8
 71
     3
 72
    11
 73
     7
 74
     0
 42
0.0000000003247512
 43
0.0000000001
 12
1.0
 22
0.0
 32
0.0
 13
1.0
 23
0.0
 33
0.0
 40
0.0
 40
0.0
 40
0.0
 40
0.0
 40
0.6918346925192713
 40
0.6918346925192713
 40
0.6918346925192713
 40
1.0
 40
1.0
 40
1.0
 40
1.0
 10
-27.08175193028289
 20
-8.334681681282113
 30
0.0
 10
-20.01542884373524
 20
-9.03729248202933
 30
0.0
 10
-12.94908842150298
 20
-9.739816109208414
 30
0.0
 10
-5.882739207694509
 20
-10.442295513404
 30
0.0
 10
-2.735161177973051
 20
-10.75520231606486
 30
0.0
 10
0.4124186952781765
 20
-11.06809984663202
 30
0.0
 10
3.560000000005122
 20
-11.38099017695682
 30
0.0
  0
SPLINE
  5
63
330
1F
100
AcDbEntity
  8
SK1
  6
Continuous
100
AcDbSpline
210
0.0
220
0.0
230
1.0
 70
     8
 71
     3
 72
    10
 73
     6
 74
     0
 42
0.000000036097062
 43
0.0000000001
 12
1.0
 22
0.0
 32
0.0
 13
1.0
 23
0.0
 33
0.0
 40
0.0
 40
0.0
 40
0.0
 40
0.0
 40
0.5
 40
0.5
 40
1.0
 40
1.0
 40
1.0
 40
1.0
 10
3.560000000005122
 20
-10.74420007720155
 30
0.0
 10
3.560000000005116
 20
-10.7073174924902
 30
0.0
 10
3.581207253655185
 20
-10.67062373064523
 30
0.0
 10
3.655815507225808
 20
-10.61779783762104
 30
0.0
 10
3.707168617517143
 20
-10.60272633297851
 30
0.0
 10
3.760000000005124
 20
-10.60272633297907
 30
0.0
  0
LINE
  5
64
330
1F
100
AcDbEntity
  8
SK1
  6
Continuous
100
AcDbLine
 10
3.76
 20
-10.602726333
 30
0.0
 11
6.26
 21
-10.602726333
 31
0.0
  0
LINE
  5
65
330
1F
100
AcDbEntity
  8
SK1
  6
Continuous
100
AcDbLine
 10
-27.34
 20
-8.1244981547
 30
0.0
 11
-27.34
 21
-8.6901835797
 31
0.0
  0
SPLINE
  5
66
330
1F
100
AcDbEntity
  8
SK1
  6
Continuous
100
AcDbSpline
210
0.0
220
0.0
230
1.0
 70
     8
 71
     3
 72
    10
 73
     6
 74
     0
 42
0.0000000269170392
 43
0.0000000001
 12
1.0
 22
0.0
 32
0.0
 13
1.0
 23
0.0
 33
0.0
 40
0.0
 40
0.0
 40
0.0
 40
0.0
 40
0.5
 40
0.5
 40
1.0
 40
1.0
 40
1.0
 40
1.0
 10
-27.33999999999488
 20
-8.69018357967613
 30
0.0
 10
-27.33999999999487
 20
-8.74071422637402
 30
0.0
 10
-27.31325218559973
 20
-8.79125961468365
 30
0.0
 10
-27.21983457327844
 20
-8.867392149678059
 30
0.0
 10
-27.15326761691808
 20
-8.893256237789295
 30
0.0
 10
-27.08175193028289
 20
-8.90036710623135
 30
0.0
  0
SPLINE
  5
67
330
1F
100
AcDbEntity
  8
SK1
  6
Continuous
100
AcDbSpline
210
0.0
220
0.0
230
1.0
 70
     8
 71
     3
 72
    11
 73
     7
 74
     0
 42
0.0000000003247512
 43
0.0000000001
 12
1.0
 22
0.0
 32
0.0
 13
1.0
 23
0.0
 33
0.0
 40
0.0
 40
0.0
 40
0.0
 40
0.0
 40
0.6918346925192713
 40
0.6918346925192713
 40
0.6918346925192713
 40
1.0
 40
1.0
 40
1.0
 40
1.0
 10
-27.08175193028289
 20
-8.90036710623135
 30
0.0
 10
-20.01542884373524
 20
-9.602977906978566
 30
0.0
 10
-12.94908842150298
 20
-10.30550153415765
 30
0.0
 10
-5.882739207694509
 20
-11.00798093835324
 30
0.0
 10
-2.735161177973049
 20
-11.3208877410141
 30
0.0
 10
0.4124186952781783
 20
-11.63378527158126
 30
0.0
 10
3.560000000005122
 20
-11.94667560190606
 30
0.0
  0
LINE
  5
68
330
1F
100
AcDbEntity
  8
SK1
  6
Continuous
100
AcDbLine
 10
3.56
 20
-11.9466756019
 30
0.0
 11
3.56
 21
-11.380990177
 31
0.0
  0
SPLINE
  5
69
330
1F
100
AcDbEntity
  8
SK3
100
AcDbSpline
210
0.0
220
0.0
230
1.0
 70
     8
 71
     3
 72
    10
 73
     6
 74
     0
 42
0.0000000309652977
 43
0.0000000001
 12
1.0
 22
0.0
 32
0.0
 13
1.0
 23
0.0
 33
0.0
 40
0.0
 40
0.0
 40
0.0
 40
0.0
 40
0.5
 40
0.5
 40
1.0
 40
1.0
 40
1.0
 40
1.0
 10
-27.33999999999662
 20
-4.180908892302493
 30
0.0
 10
-27.33999999999481
 20
-4.128622166726292
 30
0.0
 10
-27.318898168884
 20
-4.076596300535916
 30
0.0
 10
-27.24438434488244
 20
-4.001484560203386
 30
0.0
 10
-27.19295330752572
 20
-3.979949648655003
 30
0.0
 10
-27.13999999999488
 20
-3.979949648655793
 30
0.0
  0
LINE
  5
6A
330
1F
100
AcDbEntity
  8
SK1
  6
Continuous
100
AcDbLine
 10
-27.34
 20
-11.8897755192
 30
0.0
 11
-27.34
 21
-8.6901835797
 31
0.0
  0
LINE
  5
6B
330
1F
100
AcDbEntity
  8
SK1
  6
Continuous
100
AcDbLine
 10
-27.0817519303
 20
-12.1870199131
 30
0.0
 11
-27.0817519303
 21
-8.9003671062
 31
0.0
  0
LINE
  5
6C
330
1F
100
AcDbEntity
  8
SK1
  6
Continuous
100
AcDbLine
 10
3.56
 20
-16.4951507028
 30
0.0
 11
3.56
 21
-15.3926054854
 31
0.0
  0
LINE
  5
6D
330
1F
100
AcDbEntity
  8
SK1
  6
Continuous
100
AcDbLine
 10
3.76
 20
-14.5945194196
 30
0.0
 11
3.76
 21
-13.6366511439
 31
0.0
  0
SPLINE
  5
6E
330
1F
100
AcDbEntity
  8
SK1
  6
Continuous
100
AcDbSpline
210
0.0
220
0.0
230
1.0
 70
     8
 71
     3
 72
    10
 73
     6
 74
     0
 42
0.0000000310334546
 43
0.0000000001
 12
1.0
 22
0.0
 32
0.0
 13
1.0
 23
0.0
 33
0.0
 40
0.0
 40
0.0
 40
0.0
 40
0.0
 40
0.5
 40
0.5
 40
1.0
 40
1.0
 40
1.0
 40
1.0
 10
3.560000000005122
 20
-14.79459350735485
 30
0.0
 10
3.560000000005116
 20
-14.74243365584068
 30
0.0
 10
3.581207253655185
 20
-14.69054084018505
 30
0.0
 10
3.655815507225808
 20
-14.61583374582577
 30
0.0
 10
3.707168617517143
 20
-14.59451941955494
 30
0.0
 10
3.760000000005124
 20
-14.59451941955573
 30
0.0
  0
LINE
  5
6F
330
1F
100
AcDbEntity
  8
SK1
  6
Continuous
100
AcDbLine
 10
3.76
 20
-14.5945194196
 30
0.0
 11
6.26
 21
-14.5945194196
 31
0.0
  0
SPLINE
  5
70
330
1F
100
AcDbEntity
  8
SK1
  6
Continuous
100
AcDbSpline
210
0.0
220
0.0
230
1.0
 70
     8
 71
     3
 72
    10
 73
     6
 74
     0
 42
0.000000022804885
 43
0.0000000001
 12
1.0
 22
0.0
 32
0.0
 13
1.0
 23
0.0
 33
0.0
 40
0.0
 40
0.0
 40
0.0
 40
0.0
 40
0.5
 40
0.5
 40
1.0
 40
1.0
 40
1.0
 40
1.0
 10
-27.33999999999488
 20
-11.88977551921633
 30
0.0
 10
-27.33999999999487
 20
-11.96123664509197
 30
0.0
 10
-27.31325218559973
 20
-12.03271861875486
 30
0.0
 10
-27.21983457327844
 20
-12.1403862822818
 30
0.0
 10
-27.15326761691808
 20
-12.17696362646712
 30
0.0
 10
-27.08175193028289
 20
-12.18701991305813
 30
0.0
  0
SPLINE
  5
71
330
1F
100
AcDbEntity
  8
SK1
  6
Continuous
100
AcDbSpline
210
0.0
220
0.0
230
1.0
 70
     8
 71
     3
 72
    11
 73
     7
 74
     0
 42
0.0000000003231736
 43
0.0000000001
 12
1.0
 22
0.0
 32
0.0
 13
1.0
 23
0.0
 33
0.0
 40
0.0
 40
0.0
 40
0.0
 40
0.0
 40
0.6918346925192713
 40
0.6918346925192713
 40
0.6918346925192713
 40
1.0
 40
1.0
 40
1.0
 40
1.0
 10
-27.08175193028289
 20
-12.18701991305813
 30
0.0
 10
-20.01542884373524
 20
-13.18066163654466
 30
0.0
 10
-12.94908842150298
 20
-14.17418007798886
 30
0.0
 10
-5.882739207694509
 20
-15.16763597869004
 30
0.0
 10
-2.735161177973049
 20
-15.61015302277182
 30
0.0
 10
0.4124186952781765
 20
-16.05265695413295
 30
0.0
 10
3.560000000005122
 20
-16.49515070281369
 30
0.0
  0
ARC
  5
72
330
1F
100
AcDbEntity
  8
SK3
100
AcDbCircle
 10
12.4669088045
 20
4.0231788699
 30
0.0
 40
0.1932348303344087
100
AcDbArc
 50
267.9510437051
 51
357.7907152791
  0
ARC
  5
73
330
1F
100
AcDbEntity
  8
SK3
100
AcDbCircle
 10
12.4669088045
 20
3.717032124
 30
0.0
 40
0.1932348303344159
100
AcDbArc
 50
267.9510437051
 51
357.7907152791
  0
LINE
  5
74
330
1F
100
AcDbEntity
  8
SK1
  6
Continuous
100
AcDbLine
 10
12.535
 20
12.6862813231
 30
0.0
 11
12.535
 21
13.5717424029
 31
0.0
  0
LINE
  5
75
330
1F
100
AcDbEntity
  8
SK1
  6
Continuous
100
AcDbLine
 10
12.66
 20
12.4861671929
 30
0.0
 11
12.66
 21
13.3552360519
 31
0.0
  0
LINE
  5
76
330
1F
100
AcDbEntity
  8
SK1
  6
Continuous
100
AcDbLine
 10
7.5559292144
 20
15.3430805276
 30
0.0
 11
7.5559292144
 21
16.4464102613
 31
0.0
  0
LINE
  5
77
330
1F
100
AcDbEntity
  8
SK1
  6
Continuous
100
AcDbLine
 10
7.16
 20
15.1318276829
 30
0.0
 11
7.16
 21
16.2178204228
 31
0.0
  0
LINE
  5
78
330
1F
100
AcDbEntity
  8
SK1
  6
Continuous
100
AcDbLine
 10
3.56
 20
15.3926056849
 30
0.0
 11
3.56
 21
16.4951509024
 31
0.0
  0
LINE
  5
79
330
1F
100
AcDbEntity
  8
SK1
  6
Continuous
100
AcDbLine
 10
3.76
 20
13.6366513435
 30
0.0
 11
3.76
 21
14.5945196191
 31
0.0
  0
LINE
  5
7A
330
1F
100
AcDbEntity
  8
SK1
  6
Continuous
100
AcDbLine
 10
6.96
 20
14.6000000998
 30
0.0
 11
6.96
 21
13.6366513434
 31
0.0
  0
SPLINE
  5
7B
330
1F
100
AcDbEntity
  8
SK1
  6
Continuous
100
AcDbSpline
210
0.0
220
0.0
230
1.0
 70
     8
 71
     3
 72
    14
 73
    10
 74
     0
 42
0.000000000360607
 43
0.0000000001
 12
1.0
 22
0.0
 32
0.0
 13
1.0
 23
0.0
 33
0.0
 40
0.0
 40
0.0
 40
0.0
 40
0.0
 40
0.0657890341504487
 40
0.0657890341504487
 40
0.0657890341504487
 40
0.891176384405277
 40
0.891176384405277
 40
0.891176384405277
 40
1.0
 40
1.0
 40
1.0
 40
1.0
 10
3.560000000005122
 20
15.08645893901948
 30
0.0
 10
2.956932802211347
 20
15.00813198550229
 30
0.0
 10
2.353865657359773
 20
14.92980468405798
 30
0.0
 10
1.750798567978043
 20
14.85147701808043
 30
0.0
 10
-5.81526397325044
 20
13.86878034978404
 30
0.0
 10
-13.38131830451086
 20
12.8860297222229
 30
0.0
 10
-20.94735644872305
 20
11.90317273613297
 30
0.0
 10
-21.94490460158454
 20
11.77358745618681
 30
0.0
 10
-22.94245246209042
 20
11.64400025525414
 30
0.0
 10
-23.93999999999488
 20
11.51441093469968
 30
0.0
  0
ARC
  5
7C
330
1F
100
AcDbEntity
  8
SK1
  6
Continuous
100
AcDbCircle
 10
6.9672990315
 20
13.5232284245
 30
0.0
 40
0.1928619955938841
100
AcDbArc
 50
267.831072962
 51
357.658500876
  0
LINE
  5
7D
330
1F
100
AcDbEntity
  8
SK1
  6
Continuous
100
AcDbLine
 10
6.96
 20
13.3305045976
 30
0.0
 11
3.76
 21
13.3305045976
 31
0.0
  0
ARC
  5
7E
330
1F
100
AcDbEntity
  8
SK1
  6
Continuous
100
AcDbCircle
 10
3.752699591
 20
13.5232269341
 30
0.0
 40
0.1928605583225355
100
AcDbArc
 50
182.3410734203
 51
272.1693527452
  0
LINE
  5
7F
330
1F
100
AcDbEntity
  8
SK1
  6
Continuous
100
AcDbLine
 10
7.16
 20
15.1318276829
 30
0.0
 11
7.5559292144
 21
15.3430805276
 31
0.0
  0
SPLINE
  5
80
330
1F
100
AcDbEntity
  8
SK1
  6
Continuous
100
AcDbSpline
210
0.0
220
0.0
230
1.0
 70
     8
 71
     3
 72
     8
 73
     4
 74
     0
 42
0.0000000017719323
 43
0.0000000001
 12
1.0
 22
0.0
 32
0.0
 13
1.0
 23
0.0
 33
0.0
 40
0.0
 40
0.0
 40
0.0
 40
0.0
 40
1.0
 40
1.0
 40
1.0
 40
1.0
 10
7.555929214357236
 20
15.34308052756405
 30
0.0
 10
9.215645502862108
 20
14.45752242276762
 30
0.0
 10
10.8753412910983
 20
13.57193150545735
 30
0.0
 10
12.53500000000512
 20
12.68628132307893
 30
0.0
  0
ARC
  5
81
330
1F
100
AcDbEntity
  8
SK1
  6
Continuous
100
AcDbCircle
 10
12.4315486951
 20
12.4825638464
 30
0.0
 40
0.2284797207611791
100
AcDbArc
 50
0.9036474123
 51
63.0777414979
  0
LINE
  5
82
330
1F
100
AcDbEntity
  8
SK1
  6
Continuous
100
AcDbLine
 10
12.66
 20
12.4861671929
 30
0.0
 11
12.66
 21
12.180020447
 31
0.0
  0
LINE
  5
83
330
1F
100
AcDbEntity
  8
SK1
  6
Continuous
100
AcDbLine
 10
7.16
 20
14.825680937
 30
0.0
 11
7.5559292144
 21
15.0369337817
 31
0.0
  0
SPLINE
  5
84
330
1F
100
AcDbEntity
  8
SK1
  6
Continuous
100
AcDbSpline
210
0.0
220
0.0
230
1.0
 70
     8
 71
     3
 72
     8
 73
     4
 74
     0
 42
0.0000000017719323
 43
0.0000000001
 12
1.0
 22
0.0
 32
0.0
 13
1.0
 23
0.0
 33
0.0
 40
0.0
 40
0.0
 40
0.0
 40
0.0
 40
1.0
 40
1.0
 40
1.0
 40
1.0
 10
7.555929214357236
 20
15.03693378167198
 30
0.0
 10
9.215645502862108
 20
14.15137567687554
 30
0.0
 10
10.8753412910983
 20
13.26578475956528
 30
0.0
 10
12.53500000000512
 20
12.38013457718686
 30
0.0
  0
ARC
  5
85
330
1F
100
AcDbEntity
  8
SK1
  6
Continuous
100
AcDbCircle
 10
12.4315486951
 20
12.1764171005
 30
0.0
 40
0.2284797207611742
100
AcDbArc
 50
0.9036474123
 51
63.0777414979
  0
LINE
  5
86
330
1F
100
AcDbEntity
  8
SK1
  6
Continuous
100
AcDbLine
 10
3.56
 20
15.086458939
 30
0.0
 11
3.56
 21
15.3926056849
 31
0.0
  0
SPLINE
  5
87
330
1F
100
AcDbEntity
  8
SK1
  6
Continuous
100
AcDbSpline
210
0.0
220
0.0
230
1.0
 70
     8
 71
     3
 72
    14
 73
    10
 74
     0
 42
0.000000000360607
 43
0.0000000001
 12
1.0
 22
0.0
 32
0.0
 13
1.0
 23
0.0
 33
0.0
 40
0.0
 40
0.0
 40
0.0
 40
0.0
 40
0.0657890341504487
 40
0.0657890341504487
 40
0.0657890341504487
 40
0.891176384405277
 40
0.891176384405277
 40
0.891176384405277
 40
1.0
 40
1.0
 40
1.0
 40
1.0
 10
3.560000000005122
 20
15.39260568491156
 30
0.0
 10
2.956932802211347
 20
15.31427873139436
 30
0.0
 10
2.353865657359773
 20
15.23595142995005
 30
0.0
 10
1.750798567978043
 20
15.1576237639725
 30
0.0
 10
-5.81526397325044
 20
14.17492709567612
 30
0.0
 10
-13.38131830451086
 20
13.19217646811497
 30
0.0
 10
-20.94735644872305
 20
12.20931948202504
 30
0.0
 10
-21.94490460158454
 20
12.07973420207888
 30
0.0
 10
-22.94245246209042
 20
11.95014700114621
 30
0.0
 10
-23.93999999999488
 20
11.82055768059175
 30
0.0
  0
LINE
  5
88
330
1F
100
AcDbEntity
  8
SK1
  6
Continuous
100
AcDbLine
 10
7.16
 20
15.1318276829
 30
0.0
 11
7.16
 21
14.825680937
 31
0.0
  0
ARC
  5
89
330
1F
100
AcDbEntity
  8
SK1
  6
Continuous
100
AcDbCircle
 10
6.9672990315
 20
13.8293751704
 30
0.0
 40
0.1928619955938841
100
AcDbArc
 50
267.831072962
 51
357.658500876
  0
LINE
  5
8A
330
1F
100
AcDbEntity
  8
SK1
  6
Continuous
100
AcDbLine
 10
6.96
 20
13.6366513434
 30
0.0
 11
3.76
 21
13.6366513435
 31
0.0
  0
ARC
  5
8B
330
1F
100
AcDbEntity
  8
SK1
  6
Continuous
100
AcDbCircle
 10
3.752699591
 20
13.82937368
 30
0.0
 40
0.1928605583225342
100
AcDbArc
 50
182.3410734203
 51
272.1693527452
  0
SPLINE
  5
8C
330
1F
100
AcDbEntity
  8
SK3
100
AcDbSpline
210
0.0
220
0.0
230
1.0
 70
     8
 71
     3
 72
    10
 73
     6
 74
     0
 42
0.0000000427483846
 43
0.0000000001
 12
1.0
 22
0.0
 32
0.0
 13
1.0
 23
0.0
 33
0.0
 40
0.0
 40
0.0
 40
0.0
 40
0.0
 40
0.4999999999999999
 40
0.4999999999999999
 40
1.0
 40
1.0
 40
1.0
 40
1.0
 10
12.66000000000686
 20
1.969516516267838
 30
0.0
 10
12.66000000000505
 20
1.949507252657207
 30
0.0
 10
12.63889816889423
 20
1.929597815611707
 30
0.0
 10
12.56438434489268
 20
1.900853797010337
 30
0.0
 10
12.51295330753595
 20
1.892612743143325
 30
0.0
 10
12.46000000000512
 20
1.892612743143627
 30
0.0
  0
SPLINE
  5
8D
330
1F
100
AcDbEntity
  8
SK3
100
AcDbSpline
210
0.0
220
0.0
230
1.0
 70
     8
 71
     3
 72
    10
 73
     6
 74
     0
 42
0.0000000427483846
 43
0.0000000001
 12
1.0
 22
0.0
 32
0.0
 13
1.0
 23
0.0
 33
0.0
 40
0.0
 40
0.0
 40
0.0
 40
0.0
 40
0.5
 40
0.5
 40
1.0
 40
1.0
 40
1.0
 40
1.0
 10
12.66000000000686
 20
1.230412890258809
 30
0.0
 10
12.66000000000505
 20
1.210403626648177
 30
0.0
 10
12.63889816889423
 20
1.190494189602676
 30
0.0
 10
12.56438434489268
 20
1.161750171001308
 30
0.0
 10
12.51295330753595
 20
1.153509117134294
 30
0.0
 10
12.46000000000512
 20
1.153509117134597
 30
0.0
  0
LINE
  5
8E
330
1F
100
AcDbEntity
  8
SK1
  6
Continuous
100
AcDbLine
 10
12.535
 20
5.5609765844
 30
0.0
 11
12.535
 21
12.3801345772
 31
0.0
  0
LINE
  5
8F
330
1F
100
AcDbEntity
  8
SK1
  6
Continuous
100
AcDbLine
 10
12.66
 20
5.4780865977
 30
0.0
 11
12.66
 21
12.180020447
 31
0.0
  0
LINE
  5
90
330
1F
100
AcDbEntity
  8
SK1
  6
Continuous
100
AcDbLine
 10
7.5559292144
 20
6.6614588474
 30
0.0
 11
7.5559292144
 21
15.0369337817
 31
0.0
  0
LINE
  5
91
330
1F
100
AcDbEntity
  8
SK1
  6
Continuous
100
AcDbLine
 10
7.16
 20
6.5739550541
 30
0.0
 11
7.16
 21
14.825680937
 31
0.0
  0
LINE
  5
92
330
1F
100
AcDbEntity
  8
SK1
  6
Continuous
100
AcDbLine
 10
3.56
 20
6.6819728393
 30
0.0
 11
3.56
 21
11.3809903765
 31
0.0
  0
LINE
  5
93
330
1F
100
AcDbEntity
  8
SK1
  6
Continuous
100
AcDbLine
 10
3.76
 20
5.9546327362
 30
0.0
 11
3.76
 21
10.0370411076
 31
0.0
  0
LINE
  5
94
330
1F
100
AcDbEntity
  8
SK1
  6
Continuous
100
AcDbLine
 10
6.96
 20
5.9546327362
 30
0.0
 11
6.96
 21
13.3305045976
 31
0.0
  0
LINE
  5
95
330
1F
100
AcDbEntity
  8
SK1
  6
Continuous
100
AcDbLine
 10
3.56
 20
5.9428692133
 30
0.0
 11
-23.94
 21
4.4632784844
 31
0.0
  0
SPLINE
  5
96
330
1F
100
AcDbEntity
  8
SK1
  6
Continuous
100
AcDbSpline
210
0.0
220
0.0
230
1.0
 70
     8
 71
     3
 72
    10
 73
     6
 74
     0
 42
0.0000000427824414
 43
0.0000000001
 12
1.0
 22
0.0
 32
0.0
 13
1.0
 23
0.0
 33
0.0
 40
0.0
 40
0.0
 40
0.0
 40
0.0
 40
0.5
 40
0.5
 40
1.0
 40
1.0
 40
1.0
 40
1.0
 10
7.16000000000512
 20
5.292094148787593
 30
0.0
 10
7.160000000005128
 20
5.272133437778501
 30
0.0
 10
7.138792746355061
 20
5.252274916968311
 30
0.0
 10
7.064184492784439
 20
5.22368574967688
 30
0.0
 10
7.012831382493101
 20
5.215529110141004
 30
0.0
 10
6.960000000005122
 20
5.215529110141312
 30
0.0
  0
LINE
  5
97
330
1F
100
AcDbEntity
  8
SK1
  6
Continuous
100
AcDbLine
 10
6.96
 20
5.2155291101
 30
0.0
 11
3.76
 21
5.2155291101
 31
0.0
  0
SPLINE
  5
98
330
1F
100
AcDbEntity
  8
SK1
  6
Continuous
100
AcDbSpline
210
0.0
220
0.0
230
1.0
 70
     8
 71
     3
 72
    10
 73
     6
 74
     0
 42
0.0000000427888826
 43
0.0000000001
 12
1.0
 22
0.0
 32
0.0
 13
1.0
 23
0.0
 33
0.0
 40
0.0
 40
0.0
 40
0.0
 40
0.0
 40
0.5
 40
0.5
 40
1.0
 40
1.0
 40
1.0
 40
1.0
 10
3.760000000005127
 20
5.215529110141312
 30
0.0
 10
3.707128834293449
 20
5.215529110141312
 30
0.0
 10
3.655412931726571
 20
5.223840986901908
 30
0.0
 10
3.581619568488986
 20
5.252115947852234
 30
0.0
 10
3.560000000005012
 20
5.272116079355217
 30
0.0
 10
3.56000000000274
 20
5.292094148787701
 30
0.0
  0
LINE
  5
99
330
1F
100
AcDbEntity
  8
SK1
  6
Continuous
100
AcDbLine
 10
7.16
 20
6.5739550541
 30
0.0
 11
7.5559292144
 21
6.6614588474
 31
0.0
  0
LINE
  5
9A
330
1F
100
AcDbEntity
  8
SK1
  6
Continuous
100
AcDbLine
 10
7.5559292144
 20
6.6614588474
 30
0.0
 11
12.535
 21
5.5609765844
 31
0.0
  0
SPLINE
  5
9B
330
1F
100
AcDbEntity
  8
SK1
  6
Continuous
100
AcDbSpline
210
0.0
220
0.0
230
1.0
 70
     8
 71
     3
 72
     8
 73
     4
 74
     0
 42
0.0000000587479703
 43
0.0000000001
 12
1.0
 22
0.0
 32
0.0
 13
1.0
 23
0.0
 33
0.0
 40
0.0
 40
0.0
 40
0.0
 40
0.0
 40
1.0
 40
1.0
 40
1.0
 40
1.0
 10
12.53500000000512
 20
5.560976584436175
 30
0.0
 10
12.61128692078467
 20
5.544114244997695
 30
0.0
 10
12.66000000000512
 20
5.511621430538879
 30
0.0
 10
12.66000000000512
 20
5.478086597693854
 30
0.0
  0
LINE
  5
9C
330
1F
100
AcDbEntity
  8
SK1
  6
Continuous
100
AcDbLine
 10
12.66
 20
5.4780865977
 30
0.0
 11
12.66
 21
4.7389829717
 31
0.0
  0
LINE
  5
9D
330
1F
100
AcDbEntity
  8
SK1
  6
Continuous
100
AcDbLine
 10
7.16
 20
5.8348514281
 30
0.0
 11
7.5559292144
 21
5.9223552214
 31
0.0
  0
LINE
  5
9E
330
1F
100
AcDbEntity
  8
SK1
  6
Continuous
100
AcDbLine
 10
7.5559292144
 20
5.9223552214
 30
0.0
 11
12.535
 21
4.8218729584
 31
0.0
  0
SPLINE
  5
9F
330
1F
100
AcDbEntity
  8
SK1
  6
Continuous
100
AcDbSpline
210
0.0
220
0.0
230
1.0
 70
     8
 71
     3
 72
     8
 73
     4
 74
     0
 42
0.0000000587479703
 43
0.0000000001
 12
1.0
 22
0.0
 32
0.0
 13
1.0
 23
0.0
 33
0.0
 40
0.0
 40
0.0
 40
0.0
 40
0.0
 40
1.0
 40
1.0
 40
1.0
 40
1.0
 10
12.53500000000512
 20
4.821872958427146
 30
0.0
 10
12.61128692078527
 20
4.805010618988534
 30
0.0
 10
12.66000000000512
 20
4.772517804530056
 30
0.0
 10
12.66000000000512
 20
4.738982971684827
 30
0.0
  0
LINE
  5
A0
330
1F
100
AcDbEntity
  8
SK1
  6
Continuous
100
AcDbLine
 10
3.56
 20
6.0311977748
 30
0.0
 11
3.56
 21
6.6819728393
 31
0.0
  0
LINE
  5
A1
330
1F
100
AcDbEntity
  8
SK1
  6
Continuous
100
AcDbLine
 10
3.56
 20
6.6819728393
 30
0.0
 11
-23.94
 21
5.2023821105
 31
0.0
  0
LINE
  5
A2
330
1F
100
AcDbEntity
  8
SK1
  6
Continuous
100
AcDbLine
 10
7.16
 20
6.5739550541
 30
0.0
 11
7.16
 21
6.0311977748
 31
0.0
  0
SPLINE
  5
A3
330
1F
100
AcDbEntity
  8
SK1
  6
Continuous
100
AcDbSpline
210
0.0
220
0.0
230
1.0
 70
     8
 71
     3
 72
    10
 73
     6
 74
     0
 42
0.0000000427824414
 43
0.0000000001
 12
1.0
 22
0.0
 32
0.0
 13
1.0
 23
0.0
 33
0.0
 40
0.0
 40
0.0
 40
0.0
 40
0.0
 40
0.5
 40
0.5
 40
1.0
 40
1.0
 40
1.0
 40
1.0
 10
7.16000000000512
 20
6.031197774796624
 30
0.0
 10
7.160000000005128
 20
6.011237063787531
 30
0.0
 10
7.138792746355059
 20
5.991378542977341
 30
0.0
 10
7.064184492784435
 20
5.962789375685907
 30
0.0
 10
7.012831382493101
 20
5.954632736150034
 30
0.0
 10
6.960000000005122
 20
5.95463273615034
 30
0.0
  0
LINE
  5
A4
330
1F
100
AcDbEntity
  8
SK1
  6
Continuous
100
AcDbLine
 10
6.96
 20
5.9546327362
 30
0.0
 11
3.76
 21
5.9546327362
 31
0.0
  0
SPLINE
  5
A5
330
1F
100
AcDbEntity
  8
SK1
  6
Continuous
100
AcDbSpline
210
0.0
220
0.0
230
1.0
 70
     8
 71
     3
 72
    10
 73
     6
 74
     0
 42
0.0000000427888826
 43
0.0000000001
 12
1.0
 22
0.0
 32
0.0
 13
1.0
 23
0.0
 33
0.0
 40
0.0
 40
0.0
 40
0.0
 40
0.0
 40
0.5
 40
0.5
 40
1.0
 40
1.0
 40
1.0
 40
1.0
 10
3.760000000005127
 20
5.954632736150342
 30
0.0
 10
3.707128834293449
 20
5.95463273615034
 30
0.0
 10
3.655412931726571
 20
5.962944612910939
 30
0.0
 10
3.581619568488988
 20
5.991219573861261
 30
0.0
 10
3.560000000005012
 20
6.011219705364245
 30
0.0
 10
3.56000000000274
 20
6.031197774796728
 30
0.0
  0
SPLINE
  5
A6
330
1F
100
AcDbEntity
  8
SK3
100
AcDbSpline
210
0.0
220
0.0
230
1.0
 70
     8
 71
     3
 72
    10
 73
     6
 74
     0
 42
0.000000042756896
 43
0.0000000001
 12
1.0
 22
0.0
 32
0.0
 13
1.0
 23
0.0
 33
0.0
 40
0.0
 40
0.0
 40
0.0
 40
0.0
 40
0.5
 40
0.5
 40
1.0
 40
1.0
 40
1.0
 40
1.0
 10
12.66000000000525
 20
-1.230412690717501
 30
0.0
 10
12.66000000000512
 20
-1.210369103879217
 30
0.0
 10
12.63825984263546
 20
-1.190207875672907
 30
0.0
 10
12.56462422840974
 20
-1.161882601412983
 30
0.0
 10
12.51240669648374
 20
-1.153508917593218
 30
0.0
 10
12.46000000000512
 20
-1.15350891759322
 30
0.0
  0
SPLINE
  5
A7
330
1F
100
AcDbEntity
  8
SK3
100
AcDbSpline
210
0.0
220
0.0
230
1.0
 70
     8
 71
     3
 72
    10
 73
     6
 74
     0
 42
0.000000042756896
 43
0.0000000001
 12
1.0
 22
0.0
 32
0.0
 13
1.0
 23
0.0
 33
0.0
 40
0.0
 40
0.0
 40
0.0
 40
0.0
 40
0.5
 40
0.5
 40
1.0
 40
1.0
 40
1.0
 40
1.0
 10
12.66000000000525
 20
-1.969516316726531
 30
0.0
 10
12.66000000000512
 20
-1.949472729888245
 30
0.0
 10
12.63825984263546
 20
-1.929311501681935
 30
0.0
 10
12.56462422840974
 20
-1.900986227422011
 30
0.0
 10
12.51240669648373
 20
-1.892612543602247
 30
0.0
 10
12.46000000000512
 20
-1.892612543602225
 30
0.0
  0
LINE
  5
A8
330
1F
100
AcDbEntity
  8
SK1
  6
Continuous
100
AcDbLine
 10
12.535
 20
-4.8218727589
 30
0.0
 11
12.535
 21
4.8218729584
 31
0.0
  0
LINE
  5
A9
330
1F
100
AcDbEntity
  8
SK1
  6
Continuous
100
AcDbLine
 10
12.66
 20
-4.7389827721
 30
0.0
 11
12.66
 21
4.7389829717
 31
0.0
  0
LINE
  5
AA
330
1F
100
AcDbEntity
  8
SK1
  6
Continuous
100
AcDbLine
 10
7.5559292144
 20
-5.9223550219
 30
0.0
 11
7.5559292144
 21
5.9223552214
 31
0.0
  0
LINE
  5
AB
330
1F
100
AcDbEntity
  8
SK1
  6
Continuous
100
AcDbLine
 10
7.16
 20
-5.8348512285
 30
0.0
 11
7.16
 21
5.8348514281
 31
0.0
  0
LINE
  5
AC
330
1F
100
AcDbEntity
  8
SK1
  6
Continuous
100
AcDbLine
 10
3.56
 20
-5.9428690137
 30
0.0
 11
3.56
 21
-0.3999999002
 31
0.0
  0
LINE
  5
AD
330
1F
100
AcDbEntity
  8
SK1
  6
Continuous
100
AcDbLine
 10
3.76
 20
-5.2155289106
 30
0.0
 11
3.76
 21
-0.3999999002
 31
0.0
  0
LINE
  5
AE
330
1F
100
AcDbEntity
  8
SK1
  6
Continuous
100
AcDbLine
 10
6.96
 20
-5.2155289106
 30
0.0
 11
6.96
 21
5.2155291101
 31
0.0
  0
LINE
  5
AF
330
1F
100
AcDbEntity
  8
SK1
  6
Continuous
100
AcDbLine
 10
3.56
 20
-6.0311975753
 30
0.0
 11
3.56
 21
-6.6819726397
 31
0.0
  0
LINE
  5
B0
330
1F
100
AcDbEntity
  8
SK1
  6
Continuous
100
AcDbLine
 10
3.56
 20
-6.6819726397
 30
0.0
 11
-23.94
 21
-5.2023819109
 31
0.0
  0
LINE
  5
B1
330
1F
100
AcDbEntity
  8
SK1
  6
Continuous
100
AcDbLine
 10
7.16
 20
-6.5739548546
 30
0.0
 11
7.16
 21
-6.0311975753
 31
0.0
  0
SPLINE
  5
B2
330
1F
100
AcDbEntity
  8
SK1
  6
Continuous
100
AcDbSpline
210
0.0
220
0.0
230
1.0
 70
     8
 71
     3
 72
    10
 73
     6
 74
     0
 42
0.0000000427823746
 43
0.0000000001
 12
1.0
 22
0.0
 32
0.0
 13
1.0
 23
0.0
 33
0.0
 40
0.0
 40
0.0
 40
0.0
 40
0.0
 40
0.5
 40
0.5
 40
1.0
 40
1.0
 40
1.0
 40
1.0
 10
7.16000000000512
 20
-6.031197575255245
 30
0.0
 10
7.160000000005126
 20
-6.011161205125167
 30
0.0
 10
7.138577689023326
 20
-5.991282975811187
 30
0.0
 10
7.064270676300624
 20
-5.962835183060286
 30
0.0
 10
7.012304475732364
 20
-5.954632536608964
 30
0.0
 10
6.960000000005126
 20
-5.954632536608947
 30
0.0
  0
LINE
  5
B3
330
1F
100
AcDbEntity
  8
SK1
  6
Continuous
100
AcDbLine
 10
6.96
 20
-5.9546325366
 30
0.0
 11
3.76
 21
-5.9546325366
 31
0.0
  0
SPLINE
  5
B4
330
1F
100
AcDbEntity
  8
SK1
  6
Continuous
100
AcDbSpline
210
0.0
220
0.0
230
1.0
 70
     8
 71
     3
 72
    10
 73
     6
 74
     0
 42
0.0000000427849596
 43
0.0000000001
 12
1.0
 22
0.0
 32
0.0
 13
1.0
 23
0.0
 33
0.0
 40
0.0
 40
0.0
 40
0.0
 40
0.0
 40
0.5
 40
0.5
 40
1.0
 40
1.0
 40
1.0
 40
1.0
 10
3.760000000005127
 20
-5.954632536608962
 30
0.0
 10
3.707442428038402
 20
-5.95463253660896
 30
0.0
 10
3.65552587975628
 20
-5.962932141760448
 30
0.0
 10
3.581816859320455
 20
-5.991112903863442
 30
0.0
 10
3.560000000005124
 20
-6.011113984734114
 30
0.0
 10
3.560000000005124
 20
-6.031197575255244
 30
0.0
  0
LINE
  5
B5
330
1F
100
AcDbEntity
  8
SK1
  6
Continuous
100
AcDbLine
 10
7.16
 20
-5.8348512285
 30
0.0
 11
7.5559292144
 21
-5.9223550219
 31
0.0
  0
SPLINE
  5
B6
330
1F
100
AcDbEntity
  8
SK1
  6
Continuous
100
AcDbSpline
210
0.0
220
0.0
230
1.0
 70
     8
 71
     3
 72
     8
 73
     4
 74
     0
 42
0.0000000019610781
 43
0.0000000001
 12
1.0
 22
0.0
 32
0.0
 13
1.0
 23
0.0
 33
0.0
 40
0.0
 40
0.0
 40
0.0
 40
0.0
 40
1.0
 40
1.0
 40
1.0
 40
1.0
 10
7.555929214357236
 20
-5.922355021885551
 30
0.0
 10
9.215645502862108
 20
-5.555544844609454
 30
0.0
 10
10.8753412910983
 20
-5.188721075945112
 30
0.0
 10
12.53500000000512
 20
-4.821872758885767
 30
0.0
  0
SPLINE
  5
B7
330
1F
100
AcDbEntity
  8
SK1
  6
Continuous
100
AcDbSpline
210
0.0
220
0.0
230
1.0
 70
     8
 71
     3
 72
    10
 73
     6
 74
     0
 42
0.0000000616211725
 43
0.0000000001
 12
1.0
 22
0.0
 32
0.0
 13
1.0
 23
0.0
 33
0.0
 40
0.0
 40
0.0
 40
0.0
 40
0.0
 40
0.4999999999999999
 40
0.4999999999999999
 40
1.0
 40
1.0
 40
1.0
 40
1.0
 10
12.53500000000512
 20
-4.821872758885767
 30
0.0
 10
12.57283106457768
 20
-4.813510640640295
 30
0.0
 10
12.60474525034361
 20
-4.801298157470518
 30
0.0
 10
12.64848013413693
 20
-4.772239613514917
 30
0.0
 10
12.66000000000513
 20
-4.755615446635692
 30
0.0
 10
12.66000000000512
 20
-4.738982772143445
 30
0.0
  0
LINE
  5
B8
330
1F
100
AcDbEntity
  8
SK1
  6
Continuous
100
AcDbLine
 10
7.16
 20
-6.5739548546
 30
0.0
 11
7.5559292144
 21
-6.6614586479
 31
0.0
  0
SPLINE
  5
B9
330
1F
100
AcDbEntity
  8
SK1
  6
Continuous
100
AcDbSpline
210
0.0
220
0.0
230
1.0
 70
     8
 71
     3
 72
     8
 73
     4
 74
     0
 42
0.0000000019610781
 43
0.0000000001
 12
1.0
 22
0.0
 32
0.0
 13
1.0
 23
0.0
 33
0.0
 40
0.0
 40
0.0
 40
0.0
 40
0.0
 40
1.0
 40
1.0
 40
1.0
 40
1.0
 10
7.555929214357236
 20
-6.661458647894579
 30
0.0
 10
9.215645502862108
 20
-6.294648470618482
 30
0.0
 10
10.8753412910983
 20
-5.927824701954142
 30
0.0
 10
12.53500000000512
 20
-5.560976384894795
 30
0.0
  0
SPLINE
  5
BA
330
1F
100
AcDbEntity
  8
SK1
  6
Continuous
100
AcDbSpline
210
0.0
220
0.0
230
1.0
 70
     8
 71
     3
 72
    10
 73
     6
 74
     0
 42
0.0000000616211725
 43
0.0000000001
 12
1.0
 22
0.0
 32
0.0
 13
1.0
 23
0.0
 33
0.0
 40
0.0
 40
0.0
 40
0.0
 40
0.0
 40
0.4999999999999999
 40
0.4999999999999999
 40
1.0
 40
1.0
 40
1.0
 40
1.0
 10
12.53500000000512
 20
-5.560976384894795
 30
0.0
 10
12.57283106457768
 20
-5.552614266649325
 30
0.0
 10
12.60474525034361
 20
-5.540401783479547
 30
0.0
 10
12.64848013413693
 20
-5.511343239523946
 30
0.0
 10
12.66000000000513
 20
-5.494719072644722
 30
0.0
 10
12.66000000000512
 20
-5.478086398152476
 30
0.0
  0
LINE
  5
BB
330
1F
100
AcDbEntity
  8
SK1
  6
Continuous
100
AcDbLine
 10
12.66
 20
-5.4780863982
 30
0.0
 11
12.66
 21
-4.7389827721
 31
0.0
  0
LINE
  5
BC
330
1F
100
AcDbEntity
  8
SK1
  6
Continuous
100
AcDbLine
 10
3.56
 20
-5.9428690137
 30
0.0
 11
-23.94
 21
-4.4632782849
 31
0.0
  0
SPLINE
  5
BD
330
1F
100
AcDbEntity
  8
SK1
  6
Continuous
100
AcDbSpline
210
0.0
220
0.0
230
1.0
 70
     8
 71
     3
 72
    10
 73
     6
 74
     0
 42
0.0000000427823746
 43
0.0000000001
 12
1.0
 22
0.0
 32
0.0
 13
1.0
 23
0.0
 33
0.0
 40
0.0
 40
0.0
 40
0.0
 40
0.0
 40
0.5
 40
0.5
 40
1.0
 40
1.0
 40
1.0
 40
1.0
 10
7.16000000000512
 20
-5.292093949246213
 30
0.0
 10
7.160000000005126
 20
-5.272057579116138
 30
0.0
 10
7.138577689023326
 20
-5.252179349802159
 30
0.0
 10
7.064270676300624
 20
-5.223731557051257
 30
0.0
 10
7.012304475732364
 20
-5.215528910599934
 30
0.0
 10
6.960000000005126
 20
-5.215528910599917
 30
0.0
  0
LINE
  5
BE
330
1F
100
AcDbEntity
  8
SK1
  6
Continuous
100
AcDbLine
 10
6.96
 20
-5.2155289106
 30
0.0
 11
3.76
 21
-5.2155289106
 31
0.0
  0
SPLINE
  5
BF
330
1F
100
AcDbEntity
  8
SK1
  6
Continuous
100
AcDbSpline
210
0.0
220
0.0
230
1.0
 70
     8
 71
     3
 72
    10
 73
     6
 74
     0
 42
0.0000000427849596
 43
0.0000000001
 12
1.0
 22
0.0
 32
0.0
 13
1.0
 23
0.0
 33
0.0
 40
0.0
 40
0.0
 40
0.0
 40
0.0
 40
0.5
 40
0.5
 40
1.0
 40
1.0
 40
1.0
 40
1.0
 10
3.760000000005127
 20
-5.215528910599933
 30
0.0
 10
3.707442428038402
 20
-5.215528910599931
 30
0.0
 10
3.65552587975628
 20
-5.223828515751418
 30
0.0
 10
3.581816859320455
 20
-5.252009277854413
 30
0.0
 10
3.560000000005124
 20
-5.272010358725084
 30
0.0
 10
3.560000000005124
 20
-5.292093949246214
 30
0.0
  0
ARC
  5
C0
330
1F
100
AcDbEntity
  8
SK3
100
AcDbCircle
 10
12.4669119106
 20
-3.7170285785
 30
0.0
 40
0.1932315976136485
100
AcDbArc
 50
2.2083288461
 51
92.0499121702
  0
ARC
  5
C1
330
1F
100
AcDbEntity
  8
SK3
100
AcDbCircle
 10
12.4669119106
 20
-4.0231753244
 30
0.0
 40
0.193231597613649
100
AcDbArc
 50
2.2083288461
 51
92.0499121702
  0
LINE
  5
C2
330
1F
100
AcDbEntity
  8
SK1
  6
Continuous
100
AcDbLine
 10
3.56
 20
-15.0864587395
 30
0.0
 11
3.56
 21
-11.9466756019
 31
0.0
  0
LINE
  5
C3
330
1F
100
AcDbEntity
  8
SK1
  6
Continuous
100
AcDbLine
 10
12.535
 20
-12.3801343776
 30
0.0
 11
12.535
 21
-5.5609763849
 31
0.0
  0
LINE
  5
C4
330
1F
100
AcDbEntity
  8
SK1
  6
Continuous
100
AcDbLine
 10
12.66
 20
-12.1800202475
 30
0.0
 11
12.66
 21
-5.4780863982
 31
0.0
  0
LINE
  5
C5
330
1F
100
AcDbEntity
  8
SK1
  6
Continuous
100
AcDbLine
 10
7.5559292144
 20
-15.0369335821
 30
0.0
 11
7.5559292144
 21
-6.6614586479
 31
0.0
  0
LINE
  5
C6
330
1F
100
AcDbEntity
  8
SK1
  6
Continuous
100
AcDbLine
 10
7.16
 20
-14.8256807375
 30
0.0
 11
7.16
 21
-6.5739548546
 31
0.0
  0
LINE
  5
C7
330
1F
100
AcDbEntity
  8
SK1
  6
Continuous
100
AcDbLine
 10
6.96
 20
-13.330504398
 30
0.0
 11
6.96
 21
-5.9546325366
 31
0.0
  0
LINE
  5
C8
330
1F
100
AcDbEntity
  8
SK1
  6
Continuous
100
AcDbLine
 10
3.76
 20
-13.330504398
 30
0.0
 11
3.76
 21
-10.602726333
 31
0.0
  0
LINE
  5
C9
330
1F
100
AcDbEntity
  8
SK1
  6
Continuous
100
AcDbLine
 10
3.56
 20
-15.0864587395
 30
0.0
 11
3.56
 21
-15.3926054854
 31
0.0
  0
LINE
  5
CA
330
1F
100
AcDbEntity
  8
SK1
  6
Continuous
100
AcDbLine
 10
3.56
 20
-15.3926054854
 30
0.0
 11
-23.94
 21
-11.8205574811
 31
0.0
  0
LINE
  5
CB
330
1F
100
AcDbEntity
  8
SK1
  6
Continuous
100
AcDbLine
 10
7.16
 20
-15.1318274834
 30
0.0
 11
7.16
 21
-14.8256807375
 31
0.0
  0
ARC
  5
CC
330
1F
100
AcDbEntity
  8
SK1
  6
Continuous
100
AcDbCircle
 10
6.967295287
 20
-13.8293790224
 30
0.0
 40
0.1928659025472771
100
AcDbArc
 50
2.3426562868
 51
92.1677698787
  0
LINE
  5
CD
330
1F
100
AcDbEntity
  8
SK1
  6
Continuous
100
AcDbLine
 10
6.96
 20
-13.6366511439
 30
0.0
 11
3.76
 21
-13.6366511439
 31
0.0
  0
ARC
  5
CE
330
1F
100
AcDbEntity
  8
SK1
  6
Continuous
100
AcDbCircle
 10
3.7527050682
 20
-13.8293794067
 30
0.0
 40
0.1928662731557818
100
AcDbArc
 50
87.8323398835
 51
177.6572339504
  0
LINE
  5
CF
330
1F
100
AcDbEntity
  8
SK1
  6
Continuous
100
AcDbLine
 10
7.16
 20
-14.8256807375
 30
0.0
 11
7.5559292144
 21
-15.0369335821
 31
0.0
  0
LINE
  5
D0
330
1F
100
AcDbEntity
  8
SK1
  6
Continuous
100
AcDbLine
 10
7.5559292144
 20
-15.0369335821
 30
0.0
 11
12.535
 21
-12.3801343776
 31
0.0
  0
ARC
  5
D1
330
1F
100
AcDbEntity
  8
SK1
  6
Continuous
100
AcDbCircle
 10
12.4286867999
 20
-12.1746292365
 30
0.0
 40
0.2313760133480985
100
AcDbArc
 50
297.3537111502
 51
358.6648999397
  0
LINE
  5
D2
330
1F
100
AcDbEntity
  8
SK1
  6
Continuous
100
AcDbLine
 10
7.16
 20
-15.1318274834
 30
0.0
 11
7.5559292144
 21
-15.343080328
 31
0.0
  0
LINE
  5
D3
330
1F
100
AcDbEntity
  8
SK1
  6
Continuous
100
AcDbLine
 10
7.5559292144
 20
-15.343080328
 30
0.0
 11
12.535
 21
-12.6862811235
 31
0.0
  0
ARC
  5
D4
330
1F
100
AcDbEntity
  8
SK1
  6
Continuous
100
AcDbCircle
 10
12.4286867999
 20
-12.4807759824
 30
0.0
 40
0.2313760133481293
100
AcDbArc
 50
297.3537111502
 51
358.6648999396
  0
LINE
  5
D5
330
1F
100
AcDbEntity
  8
SK1
  6
Continuous
100
AcDbLine
 10
12.66
 20
-12.4861669934
 30
0.0
 11
12.66
 21
-12.1800202475
 31
0.0
  0
LINE
  5
D6
330
1F
100
AcDbEntity
  8
SK1
  6
Continuous
100
AcDbLine
 10
3.56
 20
-15.0864587395
 30
0.0
 11
-23.94
 21
-11.5144107352
 31
0.0
  0
ARC
  5
D7
330
1F
100
AcDbEntity
  8
SK1
  6
Continuous
100
AcDbCircle
 10
6.967295287
 20
-13.5232322765
 30
0.0
 40
0.1928659025472738
100
AcDbArc
 50
2.3426562868
 51
92.1677698787
  0
LINE
  5
D8
330
1F
100
AcDbEntity
  8
SK1
  6
Continuous
100
AcDbLine
 10
6.96
 20
-13.330504398
 30
0.0
 11
3.76
 21
-13.330504398
 31
0.0
  0
ARC
  5
D9
330
1F
100
AcDbEntity
  8
SK1
  6
Continuous
100
AcDbCircle
 10
3.7527050682
 20
-13.5232326608
 30
0.0
 40
0.1928662731557809
100
AcDbArc
 50
87.8323398835
 51
177.6572339504
  0
SPLINE
  5
DA
330
1F
100
AcDbEntity
  8
SK3
100
AcDbSpline
210
0.0
220
0.0
230
1.0
 70
     8
 71
     3
 72
    10
 73
     6
 74
     0
 42
0.0000000309734344
 43
0.0000000001
 12
1.0
 22
0.0
 32
0.0
 13
1.0
 23
0.0
 33
0.0
 40
0.0
 40
0.0
 40
0.0
 40
0.0
 40
0.4999999999999987
 40
0.4999999999999987
 40
1.0
 40
1.0
 40
1.0
 40
1.0
 10
-27.33999999999727
 20
4.180909091844349
 30
0.0
 10
-27.33999999999498
 20
4.128590547803054
 30
0.0
 10
-27.31848007038474
 20
4.076174844615875
 30
0.0
 10
-27.24480167500321
 20
4.001905640664152
 30
0.0
 10
-27.19299099105705
 20
3.979949848197179
 30
0.0
 10
-27.13999999999488
 20
3.979949848197179
 30
0.0
  0
SPLINE
  5
DB
330
1F
100
AcDbEntity
  8
SK1
  6
Continuous
100
AcDbSpline
210
0.0
220
0.0
230
1.0
 70
     8
 71
     3
 72
    10
 73
     6
 74
     0
 42
0.0000000310334546
 43
0.0000000001
 12
1.0
 22
0.0
 32
0.0
 13
1.0
 23
0.0
 33
0.0
 40
0.0
 40
0.0
 40
0.0
 40
0.0
 40
0.5
 40
0.5
 40
1.0
 40
1.0
 40
1.0
 40
1.0
 10
3.560000000005122
 20
14.79459370689624
 30
0.0
 10
3.560000000005116
 20
14.74243385538207
 30
0.0
 10
3.581207253655185
 20
14.69054103972643
 30
0.0
 10
3.655815507225805
 20
14.61583394536716
 30
0.0
 10
3.707168617517142
 20
14.59451961909632
 30
0.0
 10
3.760000000005124
 20
14.59451961909712
 30
0.0
  0
LINE
  5
DC
330
1F
100
AcDbEntity
  8
SK1
  6
Continuous
100
AcDbLine
 10
3.76
 20
14.5945196191
 30
0.0
 11
6.26
 21
14.5945196191
 31
0.0
  0
SPLINE
  5
DD
330
1F
100
AcDbEntity
  8
SK1
  6
Continuous
100
AcDbSpline
210
0.0
220
0.0
230
1.0
 70
     8
 71
     3
 72
    10
 73
     6
 74
     0
 42
0.000000022804885
 43
0.0000000001
 12
1.0
 22
0.0
 32
0.0
 13
1.0
 23
0.0
 33
0.0
 40
0.0
 40
0.0
 40
0.0
 40
0.0
 40
0.5
 40
0.5
 40
1.0
 40
1.0
 40
1.0
 40
1.0
 10
-27.33999999999488
 20
11.88977571875771
 30
0.0
 10
-27.33999999999487
 20
11.96123684463335
 30
0.0
 10
-27.31325218559973
 20
12.03271881829625
 30
0.0
 10
-27.21983457327844
 20
12.14038648182318
 30
0.0
 10
-27.15326761691807
 20
12.17696382600851
 30
0.0
 10
-27.08175193028289
 20
12.18702011259951
 30
0.0
  0
SPLINE
  5
DE
330
1F
100
AcDbEntity
  8
SK1
  6
Continuous
100
AcDbSpline
210
0.0
220
0.0
230
1.0
 70
     8
 71
     3
 72
    11
 73
     7
 74
     0
 42
0.0000000003231736
 43
0.0000000001
 12
1.0
 22
0.0
 32
0.0
 13
1.0
 23
0.0
 33
0.0
 40
0.0
 40
0.0
 40
0.0
 40
0.0
 40
0.6918346925192713
 40
0.6918346925192713
 40
0.6918346925192713
 40
1.0
 40
1.0
 40
1.0
 40
1.0
 10
-27.08175193028289
 20
12.18702011259951
 30
0.0
 10
-20.01542884373524
 20
13.18066183608604
 30
0.0
 10
-12.94908842150298
 20
14.17418027753025
 30
0.0
 10
-5.882739207694509
 20
15.16763617823142
 30
0.0
 10
-2.735161177973049
 20
15.6101532223132
 30
0.0
 10
0.4124186952781783
 20
16.05265715367434
 30
0.0
 10
3.560000000005122
 20
16.49515090235507
 30
0.0
  0
LINE
  5
DF
330
1F
100
AcDbEntity
  8
SK1
  6
Continuous
100
AcDbLine
 10
12.535
 20
-13.5717422033
 30
0.0
 11
12.535
 21
-12.6862811235
 31
0.0
  0
LINE
  5
E0
330
1F
100
AcDbEntity
  8
SK1
  6
Continuous
100
AcDbLine
 10
12.66
 20
-13.3552358524
 30
0.0
 11
12.66
 21
-12.4861669934
 31
0.0
  0
LINE
  5
E1
330
1F
100
AcDbEntity
  8
SK1
  6
Continuous
100
AcDbLine
 10
7.5559292144
 20
-16.4464100617
 30
0.0
 11
7.5559292144
 21
-15.343080328
 31
0.0
  0
LINE
  5
E2
330
1F
100
AcDbEntity
  8
SK1
  6
Continuous
100
AcDbLine
 10
7.16
 20
-16.2178202233
 30
0.0
 11
7.16
 21
-15.1318274834
 31
0.0
  0
LINE
  5
E3
330
1F
100
AcDbEntity
  8
SK1
  6
Continuous
100
AcDbLine
 10
6.96
 20
-14.5999999002
 30
0.0
 11
6.96
 21
-13.6366511439
 31
0.0
  0
LINE
  5
E4
330
1F
100
AcDbEntity
  8
SK1
  6
Continuous
100
AcDbLine
 10
3.56
 20
11.9466758014
 30
0.0
 11
3.56
 21
15.086458939
 31
0.0
  0
LINE
  5
E5
330
1F
100
AcDbEntity
  8
SK1
  6
Continuous
100
AcDbLine
 10
3.76
 20
10.6027265325
 30
0.0
 11
3.76
 21
13.3305045976
 31
0.0
  0
LINE
  5
E6
330
1F
100
AcDbEntity
  8
SK1
  6
Continuous
100
AcDbLine
 10
-27.34
 20
8.6901837792
 30
0.0
 11
-27.34
 21
11.8897757188
 31
0.0
  0
LINE
  5
E7
330
1F
100
AcDbEntity
  8
SK1
  6
Continuous
100
AcDbLine
 10
-27.0817519303
 20
8.9003673058
 30
0.0
 11
-27.0817519303
 21
12.1870201126
 31
0.0
  0
SPLINE
  5
E8
330
1F
100
AcDbEntity
  8
SK1
  6
Continuous
100
AcDbSpline
210
0.0
220
0.0
230
1.0
 70
     8
 71
     3
 72
    10
 73
     6
 74
     0
 42
0.000000036097062
 43
0.0000000001
 12
1.0
 22
0.0
 32
0.0
 13
1.0
 23
0.0
 33
0.0
 40
0.0
 40
0.0
 40
0.0
 40
0.0
 40
0.5
 40
0.5
 40
1.0
 40
1.0
 40
1.0
 40
1.0
 10
3.560000000005122
 20
10.74420027674293
 30
0.0
 10
3.560000000005116
 20
10.70731769203158
 30
0.0
 10
3.581207253655185
 20
10.67062393018661
 30
0.0
 10
3.655815507225808
 20
10.61779803716243
 30
0.0
 10
3.707168617517143
 20
10.6027265325199
 30
0.0
 10
3.760000000005124
 20
10.60272653252046
 30
0.0
  0
LINE
  5
E9
330
1F
100
AcDbEntity
  8
SK1
  6
Continuous
100
AcDbLine
 10
3.76
 20
10.6027265325
 30
0.0
 11
6.26
 21
10.6027265325
 31
0.0
  0
LINE
  5
EA
330
1F
100
AcDbEntity
  8
SK1
  6
Continuous
100
AcDbLine
 10
-27.34
 20
8.1244983543
 30
0.0
 11
-27.34
 21
8.6901837792
 31
0.0
  0
SPLINE
  5
EB
330
1F
100
AcDbEntity
  8
SK1
  6
Continuous
100
AcDbSpline
210
0.0
220
0.0
230
1.0
 70
     8
 71
     3
 72
    10
 73
     6
 74
     0
 42
0.0000000269170392
 43
0.0000000001
 12
1.0
 22
0.0
 32
0.0
 13
1.0
 23
0.0
 33
0.0
 40
0.0
 40
0.0
 40
0.0
 40
0.0
 40
0.5
 40
0.5
 40
1.0
 40
1.0
 40
1.0
 40
1.0
 10
-27.33999999999488
 20
8.690183779217513
 30
0.0
 10
-27.33999999999487
 20
8.740714425915401
 30
0.0
 10
-27.31325218559973
 20
8.791259814225036
 30
0.0
 10
-27.21983457327844
 20
8.867392349219443
 30
0.0
 10
-27.15326761691808
 20
8.89325643733068
 30
0.0
 10
-27.08175193028289
 20
8.900367305772734
 30
0.0
  0
SPLINE
  5
EC
330
1F
100
AcDbEntity
  8
SK1
  6
Continuous
100
AcDbSpline
210
0.0
220
0.0
230
1.0
 70
     8
 71
     3
 72
    11
 73
     7
 74
     0
 42
0.0000000003247512
 43
0.0000000001
 12
1.0
 22
0.0
 32
0.0
 13
1.0
 23
0.0
 33
0.0
 40
0.0
 40
0.0
 40
0.0
 40
0.0
 40
0.6918346925192713
 40
0.6918346925192713
 40
0.6918346925192713
 40
1.0
 40
1.0
 40
1.0
 40
1.0
 10
-27.08175193028289
 20
8.900367305772734
 30
0.0
 10
-20.01542884373524
 20
9.60297810651995
 30
0.0
 10
-12.94908842150298
 20
10.30550173369904
 30
0.0
 10
-5.882739207694509
 20
11.00798113789463
 30
0.0
 10
-2.735161177973049
 20
11.32088794055548
 30
0.0
 10
0.4124186952781765
 20
11.63378547112264
 30
0.0
 10
3.560000000005122
 20
11.94667580144745
 30
0.0
  0
LINE
  5
ED
330
1F
100
AcDbEntity
  8
SK1
  6
Continuous
100
AcDbLine
 10
3.56
 20
11.9466758014
 30
0.0
 11
3.56
 21
11.3809903765
 31
0.0
  0
SPLINE
  5
EE
330
1F
100
AcDbEntity
  8
SK3
100
AcDbSpline
210
0.0
220
0.0
230
1.0
 70
     8
 71
     3
 72
    10
 73
     6
 74
     0
 42
0.0000000360387632
 43
0.0000000001
 12
1.0
 22
0.0
 32
0.0
 13
1.0
 23
0.0
 33
0.0
 40
0.0
 40
0.0
 40
0.0
 40
0.0
 40
0.5
 40
0.5
 40
1.0
 40
1.0
 40
1.0
 40
1.0
 10
-27.33999999999662
 20
2.673506487114837
 30
0.0
 10
-27.33999999999481
 20
2.636534188893866
 30
0.0
 10
-27.318898168884
 20
2.599746346113545
 30
0.0
 10
-27.24438434488244
 20
2.54663432517769
 30
0.0
 10
-27.19295330752572
 20
2.531406843189577
 30
0.0
 10
-27.13999999999488
 20
2.531406843190136
 30
0.0
  0
SPLINE
  5
EF
330
1F
100
AcDbEntity
  8
SK3
100
AcDbSpline
210
0.0
220
0.0
230
1.0
 70
     8
 71
     3
 72
    10
 73
     6
 74
     0
 42
0.0000000360477753
 43
0.0000000001
 12
1.0
 22
0.0
 32
0.0
 13
1.0
 23
0.0
 33
0.0
 40
0.0
 40
0.0
 40
0.0
 40
0.0
 40
0.4999999999999987
 40
0.4999999999999987
 40
1.0
 40
1.0
 40
1.0
 40
1.0
 10
-27.33999999999727
 20
3.239191912064408
 30
0.0
 10
-27.33999999999499
 20
3.202197114791473
 30
0.0
 10
-27.31848007038519
 20
3.165133615626891
 30
0.0
 10
-27.24480167500215
 20
3.11261735787846
 30
0.0
 10
-27.19299099105719
 20
3.097092268139374
 30
0.0
 10
-27.13999999999488
 20
3.097092268139374
 30
0.0
  0
SPLINE
  5
F0
330
1F
100
AcDbEntity
  8
SK1
  6
Continuous
100
AcDbSpline
210
0.0
220
0.0
230
1.0
 70
     8
 71
     3
 72
    10
 73
     6
 74
     0
 42
0.000000036097062
 43
0.0000000001
 12
1.0
 22
0.0
 32
0.0
 13
1.0
 23
0.0
 33
0.0
 40
0.0
 40
0.0
 40
0.0
 40
0.0
 40
0.5
 40
0.5
 40
1.0
 40
1.0
 40
1.0
 40
1.0
 10
3.560000000005122
 20
10.17851485179369
 30
0.0
 10
3.560000000005116
 20
10.14163226708235
 30
0.0
 10
3.581207253655185
 20
10.10493850523738
 30
0.0
 10
3.655815507225808
 20
10.05211261221319
 30
0.0
 10
3.707168617517143
 20
10.03704110757066
 30
0.0
 10
3.760000000005124
 20
10.03704110757123
 30
0.0
  0
LINE
  5
F1
330
1F
100
AcDbEntity
  8
SK1
  6
Continuous
100
AcDbLine
 10
3.76
 20
10.0370411076
 30
0.0
 11
6.26
 21
10.0370411076
 31
0.0
  0
SPLINE
  5
F2
330
1F
100
AcDbEntity
  8
SK1
  6
Continuous
100
AcDbSpline
210
0.0
220
0.0
230
1.0
 70
     8
 71
     3
 72
    10
 73
     6
 74
     0
 42
0.0000000269170392
 43
0.0000000001
 12
1.0
 22
0.0
 32
0.0
 13
1.0
 23
0.0
 33
0.0
 40
0.0
 40
0.0
 40
0.0
 40
0.0
 40
0.5
 40
0.5
 40
1.0
 40
1.0
 40
1.0
 40
1.0
 10
-27.33999999999488
 20
8.124498354268276
 30
0.0
 10
-27.33999999999487
 20
8.175029000966164
 30
0.0
 10
-27.31325218559973
 20
8.225574389275799
 30
0.0
 10
-27.21983457327844
 20
8.301706924270203
 30
0.0
 10
-27.15326761691808
 20
8.327571012381442
 30
0.0
 10
-27.08175193028289
 20
8.334681880823497
 30
0.0
  0
SPLINE
  5
F3
330
1F
100
AcDbEntity
  8
SK1
  6
Continuous
100
AcDbSpline
210
0.0
220
0.0
230
1.0
 70
     8
 71
     3
 72
    11
 73
     7
 74
     0
 42
0.0000000003247512
 43
0.0000000001
 12
1.0
 22
0.0
 32
0.0
 13
1.0
 23
0.0
 33
0.0
 40
0.0
 40
0.0
 40
0.0
 40
0.0
 40
0.6918346925192713
 40
0.6918346925192713
 40
0.6918346925192713
 40
1.0
 40
1.0
 40
1.0
 40
1.0
 10
-27.08175193028289
 20
8.334681880823497
 30
0.0
 10
-20.01542884373523
 20
9.037292681570712
 30
0.0
 10
-12.94908842150299
 20
9.7398163087498
 30
0.0
 10
-5.882739207694509
 20
10.44229571294539
 30
0.0
 10
-2.735161177973051
 20
10.75520251560624
 30
0.0
 10
0.4124186952781765
 20
11.06810004617341
 30
0.0
 10
3.560000000005122
 20
11.38099037649821
 30
0.0
  0
LINE
  5
F4
330
1F
100
AcDbEntity
  8
SK1
  6
Continuous
100
AcDbLine
 10
3.56
 20
0.4000000998
 30
0.0
 11
3.56
 21
5.9428692133
 31
0.0
  0
LINE
  5
F5
330
1F
100
AcDbEntity
  8
SK1
  6
Continuous
100
AcDbLine
 10
3.76
 20
0.4000000998
 30
0.0
 11
3.76
 21
5.2155291101
 31
0.0
  0
LINE
  5
F6
330
1F
100
AcDbEntity
  8
SK1
  6
Continuous
100
AcDbLine
 10
-27.34
 20
0.4000000998
 30
0.0
 11
-27.34
 21
8.1244983543
 31
0.0
  0
LINE
  5
F7
330
1F
100
AcDbEntity
  8
SK1
  6
Continuous
100
AcDbLine
 10
-27.0817519303
 20
0.4000000998
 30
0.0
 11
-27.0817519303
 21
8.3346818808
 31
0.0
  0
LINE
  5
F8
330
1F
100
AcDbEntity
  8
SK1
  6
Continuous
100
AcDbLine
 10
3.56
 20
0.4000000998
 30
0.0
 11
3.76
 21
0.4000000998
 31
0.0
  0
LINE
  5
F9
330
1F
100
AcDbEntity
  8
SK1
  6
Continuous
100
AcDbLine
 10
3.76
 20
0.4000000998
 30
0.0
 11
6.26
 21
0.4000000998
 31
0.0
  0
LINE
  5
FA
330
1F
100
AcDbEntity
  8
SK1
  6
Continuous
100
AcDbLine
 10
-27.34
 20
0.4000000998
 30
0.0
 11
-27.0817519303
 21
0.4000000998
 31
0.0
  0
LINE
  5
FB
330
1F
100
AcDbEntity
  8
SK1
  6
Continuous
100
AcDbLine
 10
-27.0817519303
 20
0.4000000998
 30
0.0
 11
3.56
 21
0.4000000998
 31
0.0
  0
LINE
  5
FC
330
1F
100
AcDbEntity
  8
SK1
  6
Continuous
100
AcDbLine
 10
3.56
 20
-0.3999999002
 30
0.0
 11
3.76
 21
-0.3999999002
 31
0.0
  0
LINE
  5
FD
330
1F
100
AcDbEntity
  8
SK1
  6
Continuous
100
AcDbLine
 10
3.76
 20
-0.3999999002
 30
0.0
 11
6.26
 21
-0.3999999002
 31
0.0
  0
LINE
  5
FE
330
1F
100
AcDbEntity
  8
SK1
  6
Continuous
100
AcDbLine
 10
-27.34
 20
-0.3999999002
 30
0.0
 11
-27.0817519303
 21
-0.3999999002
 31
0.0
  0
LINE
  5
FF
330
1F
100
AcDbEntity
  8
SK1
  6
Continuous
100
AcDbLine
 10
-27.0817519303
 20
-0.3999999002
 30
0.0
 11
3.56
 21
-0.3999999002
 31
0.0
  0
LINE
  5
100
330
1F
100
AcDbEntity
  8
SK3
100
AcDbLine
 10
-23.94
 20
-1.8926125436
 30
0.0
 11
12.46
 21
-1.8926125436
 31
0.0
  0
LINE
  5
101
330
1F
100
AcDbEntity
  8
SK1
  6
Continuous
100
AcDbLine
 10
-23.94
 20
-4.4632782849
 30
0.0
 11
-23.94
 21
-5.2023819109
 31
0.0
  0
SPLINE
  5
102
330
1F
100
AcDbEntity
  8
SK3
100
AcDbSpline
210
0.0
220
0.0
230
1.0
 70
     8
 71
     3
 72
    35
 73
    31
 74
     0
 42
0.0000000082334283
 43
0.0000000001
 12
1.0
 22
0.0
 32
0.0
 13
1.0
 23
0.0
 33
0.0
 40
0.0
 40
0.0
 40
0.0
 40
0.0
 40
0.1071035123572646
 40
0.1071035123572646
 40
0.1071035123572646
 40
0.2141841601951855
 40
0.2141841601951855
 40
0.2141841601951855
 40
0.3216074859528444
 40
0.3216074859528444
 40
0.3216074859528444
 40
0.4292669728237792
 40
0.4292669728237792
 40
0.4292669728237792
 40
0.4999981648485399
 40
0.4999981648485399
 40
0.4999981648485399
 40
0.6071039464097373
 40
0.6071039464097373
 40
0.6071039464097373
 40
0.7141871564798576
 40
0.7141871564798576
 40
0.7141871564798576
 40
0.8216092652918257
 40
0.8216092652918257
 40
0.8216092652918257
 40
0.9292702400870833
 40
0.9292702400870833
 40
0.9292702400870833
 40
1.0
 40
1.0
 40
1.0
 40
1.0
 10
-23.93999999999487
 20
-1.15350891759322
 30
0.0
 10
-23.98464473778083
 20
-1.15350891759322
 30
0.0
 10
-24.02990462524817
 20
-1.160915466282971
 30
0.0
 10
-24.07202673916413
 20
-1.175057295186078
 30
0.0
 10
-24.11414373920117
 20
-1.189197407185784
 30
0.0
 10
-24.15428410796753
 20
-1.21045123059246
 30
0.0
 10
-24.18916355359709
 20
-1.23694420230464
 30
0.0
 10
-24.2241528140528
 20
-1.263520584777234
 30
0.0
 10
-24.25481331490041
 20
-1.296094778173279
 30
0.0
 10
-24.27862493656992
 20
-1.33185497958465
 30
0.0
 10
-24.30248577886308
 20
-1.367689100338439
 30
0.0
 10
-24.32012647964424
 20
-1.407711916613873
 30
0.0
 10
-24.33006364918137
 20
-1.44850030102338
 30
0.0
 10
-24.33664547935711
 20
-1.475516265511408
 30
0.0
 10
-24.33999999999487
 20
-1.50327500048194
 30
0.0
 10
-24.33999999999487
 20
-1.530733629689673
 30
0.0
 10
-24.33999999999487
 20
-1.571980570459937
 30
0.0
 10
-24.33231135794643
 20
-1.613494137978817
 30
0.0
 10
-24.31758233907892
 20
-1.651878167670463
 30
0.0
 10
-24.30285508446135
 20
-1.690257599702053
 30
0.0
 10
-24.280688764173
 20
-1.726569885156167
 30
0.0
 10
-24.25291476513535
 20
-1.757961492087176
 30
0.0
 10
-24.22505426115563
 20
-1.789450871367618
 30
0.0
 10
-24.19078367013077
 20
-1.816864100190002
 30
0.0
 10
-24.15291398357509
 20
-1.838088314036359
 30
0.0
 10
-24.11496508859281
 20
-1.859356920554995
 30
0.0
 10
-24.07234754386935
 20
-1.875002482949059
 30
0.0
 10
-24.02859974567643
 20
-1.883810416221042
 30
0.0
 10
-23.99962461310677
 20
-1.889644104881095
 30
0.0
 10
-23.96972019000081
 20
-1.892612543602249
 30
0.0
 10
-23.93999999999487
 20
-1.892612543602249
 30
0.0
  0
SPLINE
  5
103
330
1F
100
AcDbEntity
  8
SK1
  6
Continuous
100
AcDbSpline
210
0.0
220
0.0
230
1.0
 70
     8
 71
     3
 72
    35
 73
    31
 74
     0
 42
0.0000000082298691
 43
0.0000000001
 12
1.0
 22
0.0
 32
0.0
 13
1.0
 23
0.0
 33
0.0
 40
0.0
 40
0.0
 40
0.0
 40
0.0
 40
0.1085617262068008
 40
0.1085617262068008
 40
0.1085617262068008
 40
0.2171652345959403
 40
0.2171652345959403
 40
0.2171652345959403
 40
0.3251417158833597
 40
0.3251417158833597
 40
0.3251417158833597
 40
0.4323051015154588
 40
0.4323051015154588
 40
0.4323051015154588
 40
0.5000331971706647
 40
0.5000331971706647
 40
0.5000331971706647
 40
0.6065583020798204
 40
0.6065583020798204
 40
0.6065583020798204
 40
0.7130695633915699
 40
0.7130695633915699
 40
0.7130695633915699
 40
0.8198028630678502
 40
0.8198028630678502
 40
0.8198028630678502
 40
0.9271474329773717
 40
0.9271474329773717
 40
0.9271474329773717
 40
1.0
 40
1.0
 40
1.0
 40
1.0
 10
-23.93999999999488
 20
-5.20238191090957
 30
0.0
 10
-23.98496226902523
 20
-5.199962508291235
 30
0.0
 10
-24.03058143726428
 20
-5.190404577151856
 30
0.0
 10
-24.07308097668934
 20
-5.174436915842825
 30
0.0
 10
-24.11559006533179
 20
-5.158465666761519
 30
0.0
 10
-24.15615324480308
 20
-5.135631106336792
 30
0.0
 10
-24.19132923302548
 20
-5.107759546199927
 30
0.0
 10
-24.22630294663713
 20
-5.080048257579578
 30
0.0
 10
-24.25692189093259
 20
-5.046581282559396
 30
0.0
 10
-24.28056327969978
 20
-5.010099412552368
 30
0.0
 10
-24.30402953674981
 20
-4.973887794542913
 30
0.0
 10
-24.32127219644992
 20
-4.933697863985714
 30
0.0
 10
-24.33081770763739
 20
-4.892852005546582
 30
0.0
 10
-24.33690276451166
 20
-4.866813654451613
 30
0.0
 10
-24.33999999999618
 20
-4.840137003222336
 30
0.0
 10
-24.33999999999621
 20
-4.813740626836377
 30
0.0
 10
-24.33999999999624
 20
-4.772574114015807
 30
0.0
 10
-24.3323406162743
 20
-4.731156314791651
 30
0.0
 10
-24.31767125504873
 20
-4.692934021072057
 30
0.0
 10
-24.30300294772085
 20
-4.654714473374397
 30
0.0
 10
-24.28092454434467
 20
-4.618639809805426
 30
0.0
 10
-24.25329499014921
 20
-4.587705174665145
 30
0.0
 10
-24.2256064502257
 20
-4.556704497852127
 30
0.0
 10
-24.19158902303899
 20
-4.530017793704829
 30
0.0
 10
-24.15407544179761
 20
-4.509834267426053
 30
0.0
 10
-24.116347503703
 20
-4.489535410191479
 30
0.0
 10
-24.0740573690905
 20
-4.475258818090215
 30
0.0
 10
-24.03068593443009
 20
-4.468145926409181
 30
0.0
 10
-24.00102692264675
 20
-4.463281864617515
 30
0.0
 10
-23.97040882910984
 20
-4.461641997356163
 30
0.0
 10
-23.93999999999488
 20
-4.46327828490054
 30
0.0
  0
LINE
  5
104
330
1F
100
AcDbEntity
  8
SK3
100
AcDbLine
 10
6.26
 20
-3.0970920686
 30
0.0
 11
-27.14
 21
-3.0970920686
 31
0.0
  0
LINE
  5
105
330
1F
100
AcDbEntity
  8
SK1
  6
Continuous
100
AcDbLine
 10
6.26
 20
-10.602726333
 30
0.0
 11
6.26
 21
-10.037040908
 31
0.0
  0
SPLINE
  5
106
330
1F
100
AcDbEntity
  8
SK3
100
AcDbSpline
210
0.0
220
0.0
230
1.0
 70
     8
 71
     3
 72
    35
 73
    31
 74
     0
 42
0.0000000092134047
 43
0.0000000001
 12
1.0
 22
0.0
 32
0.0
 13
1.0
 23
0.0
 33
0.0
 40
0.0
 40
0.0
 40
0.0
 40
0.0
 40
0.1071035123572617
 40
0.1071035123572617
 40
0.1071035123572617
 40
0.2141841601951776
 40
0.2141841601951776
 40
0.2141841601951776
 40
0.3216074859528394
 40
0.3216074859528394
 40
0.3216074859528394
 40
0.4292669728237727
 40
0.4292669728237727
 40
0.4292669728237727
 40
0.49999816484854
 40
0.49999816484854
 40
0.49999816484854
 40
0.6071039464097355
 40
0.6071039464097355
 40
0.6071039464097355
 40
0.7141871564798561
 40
0.7141871564798561
 40
0.7141871564798561
 40
0.8216092652918224
 40
0.8216092652918224
 40
0.8216092652918224
 40
0.9292702400870768
 40
0.9292702400870768
 40
0.9292702400870768
 40
1.0
 40
1.0
 40
1.0
 40
1.0
 10
6.260000000005116
 20
-3.09709206859799
 30
0.0
 10
6.304644737791068
 20
-3.09709206859799
 30
0.0
 10
6.349904625258407
 20
-3.092216051546623
 30
0.0
 10
6.392026739174366
 20
-3.082788911565045
 30
0.0
 10
6.434143739211407
 20
-3.073362916095172
 30
0.0
 10
6.474284107977766
 20
-3.059122735849223
 30
0.0
 10
6.509163553607325
 20
-3.041025243685754
 30
0.0
 10
6.544152814063037
 20
-3.022870773181033
 30
0.0
 10
6.574813314910645
 20
-3.00032249949958
 30
0.0
 10
6.598624936580155
 20
-2.974971490273764
 30
0.0
 10
6.622485778873322
 20
-2.949568078380803
 30
0.0
 10
6.640126479654479
 20
-2.92063308374459
 30
0.0
 10
6.650063649191605
 20
-2.890384275818537
 30
0.0
 10
6.656645479367352
 20
-2.870349142469518
 30
0.0
 10
6.660000000005117
 20
-2.849442949922015
 30
0.0
 10
6.660000000005117
 20
-2.828427024975503
 30
0.0
 10
6.660000000005117
 20
-2.796857983238454
 30
0.0
 10
6.652311357956676
 20
-2.764296445617125
 30
0.0
 10
6.637582339089168
 20
-2.733527468810637
 30
0.0
 10
6.62285508447159
 20
-2.702762177529007
 30
0.0
 10
6.600688764183239
 20
-2.672949308795769
 30
0.0
 10
6.572914765145596
 20
-2.64674626173714
 30
0.0
 10
6.54505426116588
 20
-2.620461602626002
 30
0.0
 10
6.510783670141011
 20
-2.597096024653224
 30
0.0
 10
6.472913983585332
 20
-2.57882870597929
 30
0.0
 10
6.434965088603051
 20
-2.560523179289871
 30
0.0
 10
6.392347543879597
 20
-2.546844512494059
 30
0.0
 10
6.348599745686675
 20
-2.539129560803261
 30
0.0
 10
6.319624613117019
 20
-2.534019777974339
 30
0.0
 10
6.28972019001105
 20
-2.531406643648752
 30
0.0
 10
6.260000000005116
 20
-2.531406643648752
 30
0.0
  0
SPLINE
  5
107
330
1F
100
AcDbEntity
  8
SK1
  6
Continuous
100
AcDbSpline
210
0.0
220
0.0
230
1.0
 70
     8
 71
     3
 72
    35
 73
    31
 74
     0
 42
0.0000000092152388
 43
0.0000000001
 12
1.0
 22
0.0
 32
0.0
 13
1.0
 23
0.0
 33
0.0
 40
0.0
 40
0.0
 40
0.0
 40
0.0
 40
0.1074427730547413
 40
0.1074427730547413
 40
0.1074427730547413
 40
0.214883827468101
 40
0.214883827468101
 40
0.214883827468101
 40
0.3223506534575468
 40
0.3223506534575468
 40
0.3223506534575468
 40
0.4298350414964713
 40
0.4298350414964713
 40
0.4298350414964713
 40
0.4999998513865776
 40
0.4999998513865776
 40
0.4999998513865776
 40
0.6074426966945985
 40
0.6074426966945985
 40
0.6074426966945985
 40
0.7148838250229255
 40
0.7148838250229255
 40
0.7148838250229255
 40
0.822350703561476
 40
0.822350703561476
 40
0.822350703561476
 40
0.9298351595780835
 40
0.9298351595780835
 40
0.9298351595780835
 40
1.0
 40
1.0
 40
1.0
 40
1.0
 10
6.260000000005119
 20
-10.03704090802984
 30
0.0
 10
6.304760161798954
 20
-10.03704090802984
 30
0.0
 10
6.350137553673214
 20
-10.0426579354479
 30
0.0
 10
6.392374088924846
 20
-10.05340259723005
 30
0.0
 10
6.434610240156281
 20
-10.0641471613203
 30
0.0
 10
6.474870418433705
 20
-10.0803131470497
 30
0.0
 10
6.509823658088679
 20
-10.10050164416351
 30
0.0
 10
6.544785144715664
 20
-10.12069490461177
 30
0.0
 10
6.575401493364375
 20
-10.14546613907691
 30
0.0
 10
6.599138755201476
 20
-10.17269465516924
 30
0.0
 10
6.622879663171252
 20
-10.19992735366402
 30
0.0
 10
6.640394094947523
 20
-10.2303665299815
 30
0.0
 10
6.650229986288572
 20
-10.26144080016724
 30
0.0
 10
6.656703351809474
 20
-10.28189193186773
 30
0.0
 10
6.660000000005119
 20
-10.30292079825552
 30
0.0
 10
6.660000000005119
 20
-10.3237589055529
 30
0.0
 10
6.660000000005119
 20
-10.35540912199763
 30
0.0
 10
6.652273559980021
 20
-10.38734223847422
 30
0.0
 10
6.637461385650266
 20
-10.41693718623287
 30
0.0
 10
6.622649345858843
 20
-10.44653186518191
 30
0.0
 10
6.600343610344176
 20
-10.47460675070405
 30
0.0
 10
6.572390987821846
 20
-10.49889944766332
 30
0.0
 10
6.544431775389941
 20
-10.52319787169439
 30
0.0
 10
6.510051930209629
 20
-10.5443858615124
 30
0.0
 10
6.472096441032853
 20
-10.56078064392036
 30
0.0
 10
6.434135116454846
 20
-10.57717794691587
 30
0.0
 10
6.391549447305418
 20
-10.58923585799208
 30
0.0
 10
6.347866690731221
 20
-10.59600492163153
 30
0.0
 10
6.319117451347982
 20
-10.60045989302603
 30
0.0
 10
6.289469529288025
 20
-10.60272633297907
 30
0.0
 10
6.260000000005116
 20
-10.60272633297907
 30
0.0
  0
LINE
  5
108
330
1F
100
AcDbEntity
  8
SK3
100
AcDbLine
 10
6.26
 20
-2.5314066436
 30
0.0
 11
-27.14
 21
-2.5314066436
 31
0.0
  0
LINE
  5
109
330
1F
100
AcDbEntity
  8
SK3
100
AcDbLine
 10
-23.94
 20
-3.8300673862
 30
0.0
 11
12.46
 21
-3.8300673862
 31
0.0
  0
LINE
  5
10A
330
1F
100
AcDbEntity
  8
SK1
  6
Continuous
100
AcDbLine
 10
-23.94
 20
-11.5144107352
 30
0.0
 11
-23.94
 21
-11.8205574811
 31
0.0
  0
SPLINE
  5
10B
330
1F
100
AcDbEntity
  8
SK3
100
AcDbSpline
210
0.0
220
0.0
230
1.0
 70
     8
 71
     3
 72
    35
 73
    31
 74
     0
 42
0.0000000109038011
 43
0.0000000001
 12
1.0
 22
0.0
 32
0.0
 13
1.0
 23
0.0
 33
0.0
 40
0.0
 40
0.0
 40
0.0
 40
0.0
 40
0.1071035123572646
 40
0.1071035123572646
 40
0.1071035123572646
 40
0.2141841601951855
 40
0.2141841601951855
 40
0.2141841601951855
 40
0.3216074859528443
 40
0.3216074859528443
 40
0.3216074859528443
 40
0.4292669728237793
 40
0.4292669728237793
 40
0.4292669728237793
 40
0.4999981648485401
 40
0.4999981648485401
 40
0.4999981648485401
 40
0.6071039464097375
 40
0.6071039464097375
 40
0.6071039464097375
 40
0.7141871564798573
 40
0.7141871564798573
 40
0.7141871564798573
 40
0.8216092652918255
 40
0.8216092652918255
 40
0.8216092652918255
 40
0.929270240087083
 40
0.929270240087083
 40
0.929270240087083
 40
1.0
 40
1.0
 40
1.0
 40
1.0
 10
-23.93999999999487
 20
-3.523920640277947
 30
0.0
 10
-23.98464473778083
 20
-3.523920640277947
 30
0.0
 10
-24.02990462524817
 20
-3.527595247084722
 30
0.0
 10
-24.07202673916413
 20
-3.534521855416757
 30
0.0
 10
-24.11414373920117
 20
-3.541447622816725
 30
0.0
 10
-24.15428410796753
 20
-3.551802484115367
 30
0.0
 10
-24.18916355359709
 20
-3.564444234990912
 30
0.0
 10
-24.2241528140528
 20
-3.577125787292472
 30
0.0
 10
-24.25481331490041
 20
-3.592442279155864
 30
0.0
 10
-24.27862493656992
 20
-3.608799658118326
 30
0.0
 10
-24.30248577886308
 20
-3.62519084915815
 30
0.0
 10
-24.32012647964424
 20
-3.643067779307881
 30
0.0
 10
-24.33006364918137
 20
-3.660704728433199
 30
0.0
 10
-24.33664547935711
 20
-3.672386465725439
 30
0.0
 10
-24.33999999999487
 20
-3.684144293652445
 30
0.0
 10
-24.33999999999487
 20
-3.695518030274461
 30
0.0
 10
-24.33999999999487
 20
-3.712603072547905
 30
0.0
 10
-24.33231135794643
 20
-3.729195118106755
 30
0.0
 10
-24.31758233907892
 20
-3.744029592489063
 30
0.0
 10
-24.30285508446135
 20
-3.758862289989922
 30
0.0
 10
-24.280688764173
 20
-3.772356793573064
 30
0.0
 10
-24.25291476513535
 20
-3.783693456530433
 30
0.0
 10
-24.22505426115563
 20
-3.795065428676481
 30
0.0
 10
-24.19078367013077
 20
-3.804595418343232
 30
0.0
 10
-24.15291398357509
 20
-3.811838431769093
 30
0.0
 10
-24.11496508859281
 20
-3.819096594718213
 30
0.0
 10
-24.07234754386935
 20
-3.824272958793077
 30
0.0
 10
-24.02859974567643
 20
-3.82717612367793
 30
0.0
 10
-23.99962461310677
 20
-3.82909895387476
 30
0.0
 10
-23.96972019000081
 20
-3.830067386170019
 30
0.0
 10
-23.93999999999487
 20
-3.830067386170019
 30
0.0
  0
SPLINE
  5
10C
330
1F
100
AcDbEntity
  8
SK1
  6
Continuous
100
AcDbSpline
210
0.0
220
0.0
230
1.0
 70
     8
 71
     3
 72
    35
 73
    31
 74
     0
 42
0.000000010858855
 43
0.0000000001
 12
1.0
 22
0.0
 32
0.0
 13
1.0
 23
0.0
 33
0.0
 40
0.0
 40
0.0
 40
0.0
 40
0.0
 40
0.1085617262068103
 40
0.1085617262068103
 40
0.1085617262068103
 40
0.2171652345959531
 40
0.2171652345959531
 40
0.2171652345959531
 40
0.3251417158834052
 40
0.3251417158834052
 40
0.3251417158834052
 40
0.4323051015155385
 40
0.4323051015155385
 40
0.4323051015155385
 40
0.500033197170779
 40
0.500033197170779
 40
0.500033197170779
 40
0.6065583020799666
 40
0.6065583020799666
 40
0.6065583020799666
 40
0.7130695633917503
 40
0.7130695633917503
 40
0.7130695633917503
 40
0.8198028630680619
 40
0.8198028630680619
 40
0.8198028630680619
 40
0.9271474329776074
 40
0.9271474329776074
 40
0.9271474329776074
 40
1.0
 40
1.0
 40
1.0
 40
1.0
 10
-23.93999999999492
 20
-11.82055748105037
 30
0.0
 10
-23.98496226902522
 20
-11.81471652643608
 30
0.0
 10
-24.0305814372643
 20
-11.80604193376681
 30
0.0
 10
-24.07308097668934
 20
-11.79519765525552
 30
0.0
 10
-24.11559006533179
 20
-11.78435094014434
 30
0.0
 10
-24.15615324480306
 20
-11.77102745042817
 30
0.0
 10
-24.19132923302546
 20
-11.7562349917289
 30
0.0
 10
-24.22630294663712
 20
-11.74152759499878
 30
0.0
 10
-24.25692189093257
 20
-11.72495254265691
 30
0.0
 10
-24.28056327969977
 20
-11.70778754259543
 30
0.0
 10
-24.30402953674979
 20
-11.69074969817466
 30
0.0
 10
-24.32127219644991
 20
-11.67265258525351
 30
0.0
 10
-24.33081770763738
 20
-11.65493385584096
 30
0.0
 10
-24.33690276451165
 20
-11.64363854916775
 30
0.0
 10
-24.33999999999618
 20
-11.63233178524783
 30
0.0
 10
-24.33999999999621
 20
-11.62139804815126
 30
0.0
 10
-24.33999999999624
 20
-11.60434632022537
 30
0.0
 10
-24.3323406162743
 20
-11.58782317840011
 30
0.0
 10
-24.31767125504873
 20
-11.57323195773546
 30
0.0
 10
-24.30300294772085
 20
-11.55864178535462
 30
0.0
 10
-24.28092454434466
 20
-11.54558492698424
 30
0.0
 10
-24.25329499014921
 20
-11.53521766108642
 30
0.0
 10
-24.22560645022569
 20
-11.52482826234047
 30
0.0
 10
-24.19158902303899
 20
-11.5168595924714
 30
0.0
 10
-24.1540754417976
 20
-11.51204811778536
 30
0.0
 10
-24.116347503703
 20
-11.50720914978785
 30
0.0
 10
-24.07405736909049
 20
-11.50543425206071
 30
0.0
 10
-24.03068593443009
 20
-11.50691687614578
 30
0.0
 10
-24.00102692264676
 20
-11.50793075003659
 30
0.0
 10
-23.97040882910984
 20
-11.51046038757673
 30
0.0
 10
-23.93999999999521
 20
-11.51441073515826
 30
0.0
  0
LINE
  5
10D
330
1F
100
AcDbEntity
  8
SK3
100
AcDbLine
 10
-23.94
 20
-3.5239206403
 30
0.0
 11
12.46
 21
-3.5239206403
 31
0.0
  0
ARC
  5
10E
330
1F
100
AcDbEntity
  8
SK3
100
AcDbCircle
 10
6.2592463162
 20
-7.994985545
 30
0.0
 40
4.015035967101072
100
AcDbArc
 50
84.2715848184
 51
89.9892447043
  0
ARC
  5
10F
330
1F
100
AcDbEntity
  8
SK1
  6
Continuous
100
AcDbCircle
 10
6.2599437689
 20
-29.1986235179
 30
0.0
 40
14.60410409845314
100
AcDbArc
 50
88.4572693857
 51
89.9997793905
  0
LINE
  5
110
330
1F
100
AcDbEntity
  8
SK3
100
AcDbLine
 10
6.26
 20
-3.9799496487
 30
0.0
 11
-27.14
 21
-3.9799496487
 31
0.0
  0
LINE
  5
111
330
1F
100
AcDbEntity
  8
SK3
100
AcDbLine
 10
-27.0820740831
 20
0.4000000998
 30
0.0
 11
-27.14
 21
0.4000000998
 31
0.0
  0
LINE
  5
112
330
1F
100
AcDbEntity
  8
SK3
100
AcDbLine
 10
-27.0820740831
 20
-0.3999999002
 30
0.0
 11
-27.14
 21
-0.3999999002
 31
0.0
  0
LINE
  5
113
330
1F
100
AcDbEntity
  8
SK3
100
AcDbLine
 10
6.26
 20
3.9799498482
 30
0.0
 11
-27.14
 21
3.9799498482
 31
0.0
  0
ARC
  5
114
330
1F
100
AcDbEntity
  8
SK3
100
AcDbCircle
 10
6.2592463162
 20
7.9949857446
 30
0.0
 40
4.015035967101356
100
AcDbArc
 50
270.0107552957
 51
275.7284151816
  0
ARC
  5
115
330
1F
100
AcDbEntity
  8
SK1
  6
Continuous
100
AcDbCircle
 10
6.2599437689
 20
29.1986237174
 30
0.0
 40
14.60410409844685
100
AcDbArc
 50
270.0002206095
 51
271.5697232188
  0
LINE
  5
116
330
1F
100
AcDbEntity
  8
SK3
100
AcDbLine
 10
-23.94
 20
3.5239208398
 30
0.0
 11
12.46
 21
3.5239208398
 31
0.0
  0
SPLINE
  5
117
330
1F
100
AcDbEntity
  8
SK3
100
AcDbSpline
210
0.0
220
0.0
230
1.0
 70
     8
 71
     3
 72
    35
 73
    31
 74
     0
 42
0.0000000109051133
 43
0.0000000001
 12
1.0
 22
0.0
 32
0.0
 13
1.0
 23
0.0
 33
0.0
 40
0.0
 40
0.0
 40
0.0
 40
0.0
 40
0.1071035123572646
 40
0.1071035123572646
 40
0.1071035123572646
 40
0.2141841601951855
 40
0.2141841601951855
 40
0.2141841601951855
 40
0.3216074859528444
 40
0.3216074859528444
 40
0.3216074859528444
 40
0.4292669728237792
 40
0.4292669728237792
 40
0.4292669728237792
 40
0.4999981648485399
 40
0.4999981648485399
 40
0.4999981648485399
 40
0.6071039464097371
 40
0.6071039464097371
 40
0.6071039464097371
 40
0.7141871564798574
 40
0.7141871564798574
 40
0.7141871564798574
 40
0.8216092652918254
 40
0.8216092652918254
 40
0.8216092652918254
 40
0.9292702400870831
 40
0.9292702400870831
 40
0.9292702400870831
 40
1.0
 40
1.0
 40
1.0
 40
1.0
 10
-23.93999999999487
 20
3.830067585711403
 30
0.0
 10
-23.98464473778083
 20
3.830067585711403
 30
0.0
 10
-24.02990462524817
 20
3.827857715804181
 30
0.0
 10
-24.07202673916413
 20
3.823511590345483
 30
0.0
 10
-24.11414373920117
 20
3.819165992532653
 30
0.0
 10
-24.15428410796753
 20
3.812556154411007
 30
0.0
 10
-24.18916355359709
 20
3.803941318239166
 30
0.0
 10
-24.2241528140528
 20
3.79529935902338
 30
0.0
 10
-24.25481331490041
 20
3.784385956148524
 30
0.0
 10
-24.27862493656992
 20
3.771758581910744
 30
0.0
 10
-24.30248577886308
 20
3.759105105828922
 30
0.0
 10
-24.32012647964424
 20
3.744364086624833
 30
0.0
 10
-24.33006364918137
 20
3.728518114867235
 30
0.0
 10
-24.33664547935711
 20
3.718022621689972
 30
0.0
 10
-24.33999999999487
 20
3.70689196643786
 30
0.0
 10
-24.33999999999487
 20
3.695518229815844
 30
0.0
 10
-24.33999999999487
 20
3.6784331875424
 30
0.0
 10
-24.33231135794643
 20
3.660384315880358
 30
0.0
 10
-24.31758233907892
 20
3.642979401050849
 30
0.0
 10
-24.30285508446135
 20
3.625576570991552
 30
0.0
 10
-24.280688764173
 20
3.60834839552221
 30
0.0
 10
-24.25291476513535
 20
3.592989251097565
 30
0.0
 10
-24.22505426115563
 20
3.577582269056994
 30
0.0
 10
-24.19078367013077
 20
3.563646480870601
 30
0.0
 10
-24.15291398357509
 20
3.552665434843548
 30
0.0
 10
-24.11496508859281
 20
3.541661420805472
 30
0.0
 10
-24.07234754386935
 20
3.533336342689862
 30
0.0
 10
-24.02859974567643
 20
3.528634104571843
 30
0.0
 10
-23.99962461310677
 20
3.525519708454285
 30
0.0
 10
-23.96972019000081
 20
3.523920839819329
 30
0.0
 10
-23.93999999999487
 20
3.52392083981933
 30
0.0
  0
SPLINE
  5
118
330
1F
100
AcDbEntity
  8
SK1
  6
Continuous
100
AcDbSpline
210
0.0
220
0.0
230
1.0
 70
     8
 71
     3
 72
    35
 73
    31
 74
     0
 42
0.0000000108597211
 43
0.0000000001
 12
1.0
 22
0.0
 32
0.0
 13
1.0
 23
0.0
 33
0.0
 40
0.0
 40
0.0
 40
0.0
 40
0.0
 40
0.1085617262068008
 40
0.1085617262068008
 40
0.1085617262068008
 40
0.2171652345959403
 40
0.2171652345959403
 40
0.2171652345959403
 40
0.3251417158833597
 40
0.3251417158833597
 40
0.3251417158833597
 40
0.4323051015154589
 40
0.4323051015154589
 40
0.4323051015154589
 40
0.5000331971706647
 40
0.5000331971706647
 40
0.5000331971706647
 40
0.6065583020798202
 40
0.6065583020798202
 40
0.6065583020798202
 40
0.7130695633915698
 40
0.7130695633915698
 40
0.7130695633915698
 40
0.8198028630678501
 40
0.8198028630678501
 40
0.8198028630678501
 40
0.9271474329773717
 40
0.9271474329773717
 40
0.9271474329773717
 40
1.0
 40
1.0
 40
1.0
 40
1.0
 10
-23.93999999999488
 20
11.51441093469968
 30
0.0
 10
-23.98496226902523
 20
11.50856998008566
 30
0.0
 10
-24.03058143726428
 20
11.50586018462372
 30
0.0
 10
-24.07308097668934
 20
11.50649172018793
 30
0.0
 10
-24.11559006533179
 20
11.5071233976518
 30
0.0
 10
-24.15615324480308
 20
11.51111569822179
 30
0.0
 10
-24.19132923302548
 20
11.51806756264529
 30
0.0
 10
-24.22630294663713
 20
11.52497945134271
 30
0.0
 10
-24.25692189093259
 20
11.53500576254396
 30
0.0
 10
-24.28056327969978
 20
11.54721265666592
 30
0.0
 10
-24.30402953674981
 20
11.55932912402191
 30
0.0
 10
-24.32127219644992
 20
11.57392587204622
 30
0.0
 10
-24.33081770763739
 20
11.58971366304211
 30
0.0
 10
-24.33690276451166
 20
11.59977803824866
 30
0.0
 10
-24.33999999999618
 20
11.61046451059585
 30
0.0
 10
-24.33999999999621
 20
11.62139824769242
 30
0.0
 10
-24.33999999999624
 20
11.6384499756183
 30
0.0
 10
-24.3323406162743
 20
11.65650052358016
 30
0.0
 10
-24.31767125504873
 20
11.67408771514422
 30
0.0
 10
-24.30300294772085
 20
11.69167364318355
 30
0.0
 10
-24.28092454434467
 20
11.70928312056314
 30
0.0
 10
-24.25329499014921
 20
11.72555622766599
 30
0.0
 10
-24.2256064502257
 20
11.74186407586757
 30
0.0
 10
-24.19158902303899
 20
11.75728137901198
 30
0.0
 10
-24.15407544179761
 20
11.77066045253473
 30
0.0
 10
-24.116347503703
 20
11.78411597559934
 30
0.0
 10
-24.0740573690905
 20
11.79588248326305
 30
0.0
 10
-24.03068593443009
 20
11.8050921220331
 30
0.0
 10
-24.00102692264675
 20
11.81139001803169
 30
0.0
 10
-23.97040882910984
 20
11.81660733301018
 30
0.0
 10
-23.93999999999488
 20
11.82055768059175
 30
0.0
  0
LINE
  5
119
330
1F
100
AcDbEntity
  8
SK3
100
AcDbLine
 10
-23.94
 20
3.8300675857
 30
0.0
 11
12.46
 21
3.8300675857
 31
0.0
  0
LINE
  5
11A
330
1F
100
AcDbEntity
  8
SK1
  6
Continuous
100
AcDbLine
 10
-23.94
 20
11.8205576806
 30
0.0
 11
-23.94
 21
11.5144109347
 31
0.0
  0
LINE
  5
11B
330
1F
100
AcDbEntity
  8
SK3
100
AcDbLine
 10
6.26
 20
2.5314068432
 30
0.0
 11
-27.14
 21
2.5314068432
 31
0.0
  0
SPLINE
  5
11C
330
1F
100
AcDbEntity
  8
SK3
100
AcDbSpline
210
0.0
220
0.0
230
1.0
 70
     8
 71
     3
 72
    35
 73
    31
 74
     0
 42
0.0000000092128685
 43
0.0000000001
 12
1.0
 22
0.0
 32
0.0
 13
1.0
 23
0.0
 33
0.0
 40
0.0
 40
0.0
 40
0.0
 40
0.0
 40
0.1071035123572617
 40
0.1071035123572617
 40
0.1071035123572617
 40
0.2141841601951778
 40
0.2141841601951778
 40
0.2141841601951778
 40
0.3216074859528397
 40
0.3216074859528397
 40
0.3216074859528397
 40
0.429266972823773
 40
0.429266972823773
 40
0.429266972823773
 40
0.4999981648485406
 40
0.4999981648485406
 40
0.4999981648485406
 40
0.6071039464097363
 40
0.6071039464097363
 40
0.6071039464097363
 40
0.7141871564798572
 40
0.7141871564798572
 40
0.7141871564798572
 40
0.8216092652918234
 40
0.8216092652918234
 40
0.8216092652918234
 40
0.9292702400870778
 40
0.9292702400870778
 40
0.9292702400870778
 40
1.0
 40
1.0
 40
1.0
 40
1.0
 10
6.260000000005116
 20
2.531406843190136
 30
0.0
 10
6.304644737791068
 20
2.531406843190136
 30
0.0
 10
6.349904625258407
 20
2.537403921329969
 30
0.0
 10
6.392026739174366
 20
2.548806077397802
 30
0.0
 10
6.434143739211407
 20
2.560206849175055
 30
0.0
 10
6.474284107977766
 20
2.577313346068323
 30
0.0
 10
6.509163553607325
 20
2.598492905313101
 30
0.0
 10
6.544152814063037
 20
2.619739146512667
 30
0.0
 10
6.574813314910645
 20
2.645657398608404
 30
0.0
 10
6.598624936580155
 20
2.673863229855779
 30
0.0
 10
6.622485778873322
 20
2.702127364927401
 30
0.0
 10
6.640126479654479
 20
2.733462481892152
 30
0.0
 10
6.650063649191605
 20
2.76508204455094
 30
0.0
 10
6.656645479367352
 20
2.786025089839043
 30
0.0
 10
6.660000000005117
 20
2.807411299570375
 30
0.0
 10
6.660000000005117
 20
2.828427224516888
 30
0.0
 10
6.660000000005117
 20
2.859996266253936
 30
0.0
 10
6.652311357956676
 20
2.891442797448208
 30
0.0
 10
6.637582339089168
 20
2.920244444308646
 30
0.0
 10
6.62285508447159
 20
2.949042641292081
 30
0.0
 10
6.600688764183237
 20
2.97599788127985
 30
0.0
 10
6.572914765145594
 20
2.999122254309435
 30
0.0
 10
6.545054261165879
 20
3.022318650548446
 30
0.0
 10
6.510783670141011
 20
3.042312176321613
 30
0.0
 10
6.472913983585332
 20
3.057718528703313
 30
0.0
 10
6.434965088603049
 20
3.073157105089032
 30
0.0
 10
6.392347543879597
 20
3.084425850491547
 30
0.0
 10
6.348599745686675
 20
3.090763851142456
 30
0.0
 10
6.319624613117019
 20
3.094961648898512
 30
0.0
 10
6.28972019001105
 20
3.097092268139374
 30
0.0
 10
6.260000000005116
 20
3.097092268139374
 30
0.0
  0
SPLINE
  5
11D
330
1F
100
AcDbEntity
  8
SK1
  6
Continuous
100
AcDbSpline
210
0.0
220
0.0
230
1.0
 70
     8
 71
     3
 72
    35
 73
    31
 74
     0
 42
0.000000009215392
 43
0.0000000001
 12
1.0
 22
0.0
 32
0.0
 13
1.0
 23
0.0
 33
0.0
 40
0.0
 40
0.0
 40
0.0
 40
0.0
 40
0.1074427730547405
 40
0.1074427730547405
 40
0.1074427730547405
 40
0.2148838274681008
 40
0.2148838274681008
 40
0.2148838274681008
 40
0.3223506534575454
 40
0.3223506534575454
 40
0.3223506534575454
 40
0.4298350414964708
 40
0.4298350414964708
 40
0.4298350414964708
 40
0.4999998513865776
 40
0.4999998513865776
 40
0.4999998513865776
 40
0.6074426966945985
 40
0.6074426966945985
 40
0.6074426966945985
 40
0.7148838250229256
 40
0.7148838250229256
 40
0.7148838250229256
 40
0.8223507035614757
 40
0.8223507035614757
 40
0.8223507035614757
 40
0.9298351595780829
 40
0.9298351595780829
 40
0.9298351595780829
 40
1.0
 40
1.0
 40
1.0
 40
1.0
 10
6.260000000005119
 20
10.60272653252046
 30
0.0
 10
6.304760161798952
 20
10.60272653252046
 30
0.0
 10
6.350137553673214
 20
10.59741672529001
 30
0.0
 10
6.392374088924846
 20
10.58721381311087
 30
0.0
 10
6.434610240156279
 20
10.57701099369797
 30
0.0
 10
6.474870418433705
 20
10.56163191273726
 30
0.0
 10
6.509823658088679
 20
10.5422894394152
 30
0.0
 10
6.544785144715664
 20
10.52294240237209
 30
0.0
 10
6.575401493364375
 20
10.49909319012669
 30
0.0
 10
6.599138755201476
 20
10.47264453290303
 30
0.0
 10
6.622879663171252
 20
10.44619181306617
 30
0.0
 10
6.640394094947523
 20
10.41640575974091
 30
0.0
 10
6.650229986288572
 20
10.38570328525993
 30
0.0
 10
6.656703351809474
 20
10.36549684612591
 30
0.0
 10
6.660000000005119
 20
10.34459721239168
 30
0.0
 10
6.660000000005119
 20
10.32375910509429
 30
0.0
 10
6.660000000005119
 20
10.29210888864956
 30
0.0
 10
6.652273559980021
 20
10.25986867690161
 30
0.0
 10
6.637461385650266
 20
10.22973213826852
 30
0.0
 10
6.622649345858843
 20
10.19959587336428
 30
0.0
 10
6.600343610344176
 20
10.17073426279399
 30
0.0
 10
6.572390987821846
 20
10.14559561175963
 30
0.0
 10
6.544431775389941
 20
10.12045103421741
 30
0.0
 10
6.510051930209631
 20
10.09834097642401
 30
0.0
 10
6.472096441032853
 20
10.08116620710591
 30
0.0
 10
6.434135116454846
 20
10.06398879728252
 30
0.0
 10
6.391549447305418
 20
10.05127756309443
 30
0.0
 10
6.347866690731223
 20
10.04413657765763
 30
0.0
 10
6.319117451347984
 20
10.0394368307585
 30
0.0
 10
6.289469529288025
 20
10.03704110757122
 30
0.0
 10
6.260000000005116
 20
10.03704110757122
 30
0.0
  0
LINE
  5
11E
330
1F
100
AcDbEntity
  8
SK3
100
AcDbLine
 10
6.26
 20
3.0970922681
 30
0.0
 11
-27.14
 21
3.0970922681
 31
0.0
  0
LINE
  5
11F
330
1F
100
AcDbEntity
  8
SK1
  6
Continuous
100
AcDbLine
 10
6.26
 20
10.0370411076
 30
0.0
 11
6.26
 21
10.6027265325
 31
0.0
  0
LINE
  5
120
330
1F
100
AcDbEntity
  8
SK3
100
AcDbLine
 10
-23.94
 20
1.1535091171
 30
0.0
 11
12.46
 21
1.1535091171
 31
0.0
  0
SPLINE
  5
121
330
1F
100
AcDbEntity
  8
SK3
100
AcDbSpline
210
0.0
220
0.0
230
1.0
 70
     8
 71
     3
 72
    35
 73
    31
 74
     0
 42
0.0000000082336781
 43
0.0000000001
 12
1.0
 22
0.0
 32
0.0
 13
1.0
 23
0.0
 33
0.0
 40
0.0
 40
0.0
 40
0.0
 40
0.0
 40
0.1071035123572646
 40
0.1071035123572646
 40
0.1071035123572646
 40
0.2141841601951854
 40
0.2141841601951854
 40
0.2141841601951854
 40
0.3216074859528444
 40
0.3216074859528444
 40
0.3216074859528444
 40
0.4292669728237767
 40
0.4292669728237767
 40
0.4292669728237767
 40
0.4999981648485397
 40
0.4999981648485397
 40
0.4999981648485397
 40
0.6071039464097373
 40
0.6071039464097373
 40
0.6071039464097373
 40
0.7141871564798574
 40
0.7141871564798574
 40
0.7141871564798574
 40
0.8216092652918254
 40
0.8216092652918254
 40
0.8216092652918254
 40
0.9292702400870831
 40
0.9292702400870831
 40
0.9292702400870831
 40
1.0
 40
1.0
 40
1.0
 40
1.0
 10
-23.93999999999487
 20
1.892612743143627
 30
0.0
 10
-23.98464473778083
 20
1.892612743143627
 30
0.0
 10
-24.02990462524817
 20
1.885812908342979
 30
0.0
 10
-24.07202673916413
 20
1.87273995044348
 30
0.0
 10
-24.11414373920117
 20
1.859668579679989
 30
0.0
 10
-24.15428410796753
 20
1.839965995664626
 30
0.0
 10
-24.18916355359709
 20
1.81514102663724
 30
0.0
 10
-24.2241528140528
 20
1.790237898407242
 30
0.0
 10
-24.25481331490041
 20
1.759487524186585
 30
0.0
 10
-24.27862493656992
 20
1.725272341319892
 30
0.0
 10
-24.30248577886308
 20
1.690986432793993
 30
0.0
 10
-24.32012647964424
 20
1.65226255336264
 30
0.0
 10
-24.33006364918137
 20
1.612216016068747
 30
0.0
 10
-24.33664547935711
 20
1.585691409981427
 30
0.0
 10
-24.33999999999487
 20
1.558192458438784
 30
0.0
 10
-24.33999999999487
 20
1.530733829231051
 30
0.0
 10
-24.33999999999487
 20
1.489486888460786
 30
0.0
 10
-24.33231135794643
 20
1.447369883811944
 30
0.0
 10
-24.31758233907892
 20
1.407921142825795
 30
0.0
 10
-24.30285508446135
 20
1.368477127031404
 30
0.0
 10
-24.280688764173
 20
1.330618304044575
 30
0.0
 10
-24.25291476513535
 20
1.297560530735426
 30
0.0
 10
-24.22505426115563
 20
1.264399795632362
 30
0.0
 10
-24.19078367013077
 20
1.235161625310059
 30
0.0
 10
-24.15291398357509
 20
1.212389067663696
 30
0.0
 10
-24.11496508859281
 20
1.189568878821384
 30
0.0
 10
-24.07234754386935
 20
1.172619076367609
 30
0.0
 10
-24.02859974567643
 20
1.163065942562746
 30
0.0
 10
-23.99962461310677
 20
1.156738691137865
 30
0.0
 10
-23.96972019000081
 20
1.153509117134597
 30
0.0
 10
-23.93999999999487
 20
1.153509117134597
 30
0.0
  0
SPLINE
  5
122
330
1F
100
AcDbEntity
  8
SK1
  6
Continuous
100
AcDbSpline
210
0.0
220
0.0
230
1.0
 70
     8
 71
     3
 72
    35
 73
    31
 74
     0
 42
0.0000000082297667
 43
0.0000000001
 12
1.0
 22
0.0
 32
0.0
 13
1.0
 23
0.0
 33
0.0
 40
0.0
 40
0.0
 40
0.0
 40
0.0
 40
0.1085617262068105
 40
0.1085617262068105
 40
0.1085617262068105
 40
0.2171652345959533
 40
0.2171652345959533
 40
0.2171652345959533
 40
0.3251417158834045
 40
0.3251417158834045
 40
0.3251417158834045
 40
0.4323051015155387
 40
0.4323051015155387
 40
0.4323051015155387
 40
0.500033197170782
 40
0.500033197170782
 40
0.500033197170782
 40
0.606558302079965
 40
0.606558302079965
 40
0.606558302079965
 40
0.7130695633917453
 40
0.7130695633917453
 40
0.7130695633917453
 40
0.8198028630680558
 40
0.8198028630680558
 40
0.8198028630680558
 40
0.9271474329776074
 40
0.9271474329776074
 40
0.9271474329776074
 40
1.0
 40
1.0
 40
1.0
 40
1.0
 10
-23.93999999999492
 20
4.463278484441918
 30
0.0
 10
-23.98496226902522
 20
4.460859081823473
 30
0.0
 10
-24.0305814372643
 20
4.465701444999596
 30
0.0
 10
-24.07308097668934
 20
4.47743884967091
 30
0.0
 10
-24.11559006533179
 20
4.489178891618547
 30
0.0
 10
-24.15615324480306
 20
4.508148346945848
 30
0.0
 10
-24.19132923302546
 20
4.532772226596617
 30
0.0
 10
-24.22630294663712
 20
4.557254510064228
 30
0.0
 10
-24.25692189093257
 20
4.588008907687494
 30
0.0
 10
-24.28056327969977
 20
4.622437062970688
 30
0.0
 10
-24.30402953674979
 20
4.656610179854363
 30
0.0
 10
-24.32127219644991
 20
4.695350211798035
 30
0.0
 10
-24.33081770763738
 20
4.73539624935688
 30
0.0
 10
-24.33690276451165
 20
4.76092473194401
 30
0.0
 10
-24.33999999999618
 20
4.787344449991251
 30
0.0
 10
-24.33999999999621
 20
4.813740826377217
 30
0.0
 10
-24.33999999999624
 20
4.854907339197782
 30
0.0
 10
-24.3323406162743
 20
4.896957810758968
 30
0.0
 10
-24.31767125504873
 20
4.936421076257572
 30
0.0
 10
-24.30300294772085
 20
4.975881506578533
 30
0.0
 10
-24.28092454434467
 20
5.013841926685434
 30
0.0
 10
-24.25329499014921
 20
5.047222841350063
 30
0.0
 10
-24.2256064502257
 20
5.080675020195823
 30
0.0
 10
-24.19158902303899
 20
5.110447049266911
 30
0.0
 10
-24.15407544179761
 20
5.134179391180822
 30
0.0
 10
-24.116347503703
 20
5.158047342385126
 30
0.0
 10
-24.0740573690905
 20
5.176462594832056
 30
0.0
 10
-24.03068593443009
 20
5.188004366800136
 30
0.0
 10
-24.00102692264676
 20
5.195897062844944
 30
0.0
 10
-23.97040882910984
 20
5.200745822906573
 30
0.0
 10
-23.93999999999521
 20
5.20238211045093
 30
0.0
  0
LINE
  5
123
330
1F
100
AcDbEntity
  8
SK3
100
AcDbLine
 10
-23.94
 20
1.8926127431
 30
0.0
 11
12.46
 21
1.8926127431
 31
0.0
  0
LINE
  5
124
330
1F
100
AcDbEntity
  8
SK1
  6
Continuous
100
AcDbLine
 10
-23.94
 20
5.2023821105
 30
0.0
 11
-23.94
 21
4.4632784844
 31
0.0
  0
ARC
  5
125
330
1F
100
AcDbEntity
  8
SK1
  6
Continuous
100
AcDbCircle
 10
6.26
 20
0.0000000998
 30
0.0
 40
0.3999999999999995
100
AcDbArc
 50
270.0
 51
90.0
  0
LINE
  5
126
330
1F
100
AcDbEntity
  8
SK3
100
AcDbLine
 10
-23.94
 20
-1.1535089176
 30
0.0
 11
12.46
 21
-1.1535089176
 31
0.0
  0
LINE
  5
127
330
1F
100
AcDbEntity
  8
SK3
100
AcDbLine
 10
6.66
 20
-3.9999999002
 30
0.0
 11
12.46
 21
-3.9999999002
 31
0.0
  0
LINE
  5
128
330
1F
100
AcDbEntity
  8
SK3
100
AcDbLine
 10
12.46
 20
4.0000000998
 30
0.0
 11
6.66
 21
4.0000000998
 31
0.0
  0
ARC
  5
129
330
1F
100
AcDbEntity
  8
SK3
100
AcDbCircle
 10
12.46
 20
4.2000000998
 30
0.0
 40
0.2000000000000015
100
AcDbArc
 50
270.0
 51
0.0
  0
ARC
  5
12A
330
1F
100
AcDbEntity
  8
SK1
  6
Continuous
100
AcDbCircle
 10
12.41
 20
13.3552360519
 30
0.0
 40
0.2499999999999984
100
AcDbArc
 50
0.0
 51
60.0
  0
LINE
  5
12B
330
1F
100
AcDbEntity
  8
SK1
  6
Continuous
100
AcDbLine
 10
12.535
 20
13.5717424029
 30
0.0
 11
7.5559292144
 21
16.4464102613
 31
0.0
  0
LINE
  5
12C
330
1F
100
AcDbEntity
  8
SK1
  6
Continuous
100
AcDbLine
 10
7.5559292144
 20
16.4464102613
 30
0.0
 11
7.16
 21
16.2178204228
 31
0.0
  0
LINE
  5
12D
330
1F
100
AcDbEntity
  8
SK1
  6
Continuous
100
AcDbLine
 10
6.96
 20
14.6000000998
 30
0.0
 11
6.66
 21
14.6000000998
 31
0.0
  0
ARC
  5
12E
330
1F
100
AcDbEntity
  8
SK1
  6
Continuous
100
AcDbCircle
 10
6.96
 20
14.8000000998
 30
0.0
 40
0.1999999999999988
100
AcDbArc
 50
270.0
 51
0.0
  0
ARC
  5
12F
330
1F
100
AcDbEntity
  8
SK3
100
AcDbCircle
 10
12.46
 20
-4.1999999002
 30
0.0
 40
0.1999999999999999
100
AcDbArc
 50
0.0
 51
90.0
  0
ARC
  5
130
330
1F
100
AcDbEntity
  8
SK1
  6
Continuous
100
AcDbCircle
 10
12.41
 20
-13.3552358524
 30
0.0
 40
0.2499999999999999
100
AcDbArc
 50
300.0
 51
360.0
  0
LINE
  5
131
330
1F
100
AcDbEntity
  8
SK1
  6
Continuous
100
AcDbLine
 10
7.5559292144
 20
-16.4464100617
 30
0.0
 11
12.535
 21
-13.5717422033
 31
0.0
  0
LINE
  5
132
330
1F
100
AcDbEntity
  8
SK1
  6
Continuous
100
AcDbLine
 10
7.16
 20
-16.2178202233
 30
0.0
 11
7.5559292144
 21
-16.4464100617
 31
0.0
  0
LINE
  5
133
330
1F
100
AcDbEntity
  8
SK1
  6
Continuous
100
AcDbLine
 10
6.66
 20
-14.5999999002
 30
0.0
 11
6.96
 21
-14.5999999002
 31
0.0
  0
ARC
  5
134
330
1F
100
AcDbEntity
  8
SK1
  6
Continuous
100
AcDbCircle
 10
6.96
 20
-14.7999999002
 30
0.0
 40
0.1999999999999997
100
AcDbArc
 50
0.0
 51
90.0
  0
LINE
  5
135
330
1F
100
AcDbEntity
  8
SK3
100
AcDbLine
 10
-24.34
 20
-1.5307336297
 30
0.0
 11
-24.34
 21
-4.8137406268
 31
0.0
  0
LINE
  5
136
330
1F
100
AcDbEntity
  8
SK3
100
AcDbLine
 10
6.66
 20
-10.3237589056
 30
0.0
 11
6.66
 21
-2.828427025
 31
0.0
  0
LINE
  5
137
330
1F
100
AcDbEntity
  8
SK3
100
AcDbLine
 10
-24.34
 20
-4.8137406268
 30
0.0
 11
-24.34
 21
-11.6213980482
 31
0.0
  0
LINE
  5
138
330
1F
100
AcDbEntity
  8
SK3
100
AcDbLine
 10
6.66
 20
-14.5999999002
 30
0.0
 11
6.66
 21
-10.3237589056
 31
0.0
  0
LINE
  5
139
330
1F
100
AcDbEntity
  8
SK3
100
AcDbLine
 10
6.66
 20
10.3237591051
 30
0.0
 11
6.66
 21
14.6000000998
 31
0.0
  0
LINE
  5
13A
330
1F
100
AcDbEntity
  8
SK3
100
AcDbLine
 10
-24.34
 20
11.6213982477
 30
0.0
 11
-24.34
 21
4.8137408264
 31
0.0
  0
LINE
  5
13B
330
1F
100
AcDbEntity
  8
SK3
100
AcDbLine
 10
6.66
 20
2.8284272245
 30
0.0
 11
6.66
 21
10.3237591051
 31
0.0
  0
LINE
  5
13C
330
1F
100
AcDbEntity
  8
SK3
100
AcDbLine
 10
-24.34
 20
4.8137408264
 30
0.0
 11
-24.34
 21
1.5307338292
 31
0.0
  0
LINE
  5
13D
330
1F
100
AcDbEntity
  8
SK1
  6
Continuous
100
AcDbLine
 10
0.0
 20
15.9946738587
 30
0.0
 11
0.0
 21
-15.9946736591
 31
0.0
  0
LINE
  5
13F
330
1F
100
AcDbEntity
  8
SK4
  6
Continuous
100
AcDbLine
 10
12.66
 20
0.0000000998
 30
0.0
 11
-27.34
 21
0.0000000998
 31
0.0
  0
DIMENSION
  5
154
330
1F
100
AcDbEntity
  8
SK2
  6
Continuous
 62
   136
100
AcDbDimension
  2
DMBLK77
 10
23.1685453346
 20
4.0000000998
 30
0.0
 11
23.1685453346
 21
8.6259137868
 31
0.0
 70
   161
  1
\A1;ø <>
 71
     5
 42
-1.0
  3
DIN
100
AcDbAlignedDimension
 13
12.46
 23
4.0000000998
 33
0.0
 14
12.46
 24
-3.9999999002
 34
0.0
  0
DIMENSION
  5
15F
330
1F
100
AcDbEntity
  8
SK2
  6
Continuous
 62
   136
100
AcDbDimension
  2
DMBLK78
 10
0.0
 20
-24.2922212981
 30
0.0
 11
6.330000229
 21
-24.2922212981
 31
0.0
 70
   160
  1
\A1;<>
 71
     5
 42
-1.0
  3
DIN
100
AcDbAlignedDimension
 13
12.66
 23
-4.7389827721
 33
0.0
 14
0.0
 24
-15.9946736591
 34
0.0
100
AcDbRotatedDimension
  0
DIMENSION
  5
169
330
1F
100
AcDbEntity
  8
SK2
  6
Continuous
 62
   136
100
AcDbDimension
  2
DMBLK79
 10
-33.1144481897
 20
15.9946738587
 30
0.0
 11
-33.1144481897
 21
0.0000002639
 31
0.0
 70
   161
  1
\A1;ø <>
 71
     5
 42
-1.0
  3
DIN
100
AcDbAlignedDimension
 13
0.0
 23
15.9946738587
 33
0.0
 14
0.0
 24
-15.9946736591
 34
0.0
1001
ACAD
1000
DSTYLE
1002
{
1070
   271
1070
     1
1070
   272
1070
     1
1070
     0
1002
}
  0
DIMENSION
  5
174
330
1F
100
AcDbEntity
  8
SK2
  6
Continuous
 62
   136
100
AcDbDimension
  2
DMBLK80
 10
12.66
 20
22.1370546773
 30
0.0
 11
-7.340000447
 21
22.1370546773
 31
0.0
 70
   160
  1
\A1;<>
 71
     5
 42
-1.0
  3
DIN
100
AcDbAlignedDimension
 13
-27.34
 23
11.8897757188
 33
0.0
 14
12.66
 24
12.4861671929
 34
0.0
100
AcDbRotatedDimension
  0
ENDSEC
  0
SECTION
  2
OBJECTS
  0
DICTIONARY
  5
C
330
0
100
AcDbDictionary
281
     1
  3
ACAD_GROUP
350
D
  3
ACAD_LAYOUT
350
1A
  3
ACAD_MATERIAL
350
3B
  3
ACAD_MLEADERSTYLE
350
180
  3
ACAD_MLINESTYLE
350
17
  3
ACAD_PLOTSETTINGS
350
19
  3
ACAD_PLOTSTYLENAME
350
E
  3
ACAD_VISUALSTYLE
350
2A
  3
AcDbVariableDictionary
350
17E
  0
DICTIONARY
  5
D
102
{ACAD_REACTORS
330
C
102
}
330
C
100
AcDbDictionary
281
     1
  0
DICTIONARY
  5
1A
102
{ACAD_REACTORS
330
C
102
}
330
C
100
AcDbDictionary
281
     1
  3
Layout1
350
1E
  3
Model
350
22
  0
DICTIONARY
  5
3B
102
{ACAD_REACTORS
330
C
102
}
330
C
100
AcDbDictionary
281
     1
  3
ByBlock
350
3D
  3
ByLayer
350
3C
  3
Global
350
3E
  0
DICTIONARY
  5
180
102
{ACAD_REACTORS
330
C
102
}
330
C
100
AcDbDictionary
281
     1
  0
DICTIONARY
  5
17
102
{ACAD_REACTORS
330
C
102
}
330
C
100
AcDbDictionary
281
     1
  3
Standard
350
18
  0
DICTIONARY
  5
19
102
{ACAD_REACTORS
330
C
102
}
330
C
100
AcDbDictionary
281
     1
  0
ACDBDICTIONARYWDFLT
  5
E
102
{ACAD_REACTORS
330
C
102
}
330
C
100
AcDbDictionary
281
     1
  3
Normal
350
F
100
AcDbDictionaryWithDefault
340
F
  0
DICTIONARY
  5
2A
102
{ACAD_REACTORS
330
C
102
}
330
C
100
AcDbDictionary
281
     1
  3
2dWireframe
350
2F
  3
3D Hidden
350
31
  3
3dWireframe
350
30
  3
Basic
350
32
  3
Brighten
350
36
  3
ColorChange
350
3A
  3
Conceptual
350
34
  3
Dim
350
35
  3
Facepattern
350
39
  3
Flat
350
2B
  3
FlatWithEdges
350
2C
  3
Gouraud
350
2D
  3
GouraudWithEdges
350
2E
  3
Linepattern
350
38
  3
Realistic
350
33
  3
Thicken
350
37
  0
DICTIONARY
  5
17E
102
{ACAD_REACTORS
330
C
102
}
330
C
100
AcDbDictionary
281
     1
  3
DIMASSOC
350
183
  3
HIDETEXT
350
184
  3
PSOLHEIGHT
350
182
  3
PSOLWIDTH
350
181
  0
LAYOUT
  5
1E
102
{ACAD_REACTORS
330
1A
102
}
330
1A
100
AcDbPlotSettings
  1

  2
none_device
  4

  6

 40
0.0
 41
0.0
 42
0.0
 43
0.0
 44
0.0
 45
0.0
 46
0.0
 47
0.0
 48
0.0
 49
0.0
140
0.0
141
0.0
142
1.0
143
1.0
 70
   688
 72
     0
 73
     0
 74
     5
  7

 75
    16
147
1.0
148
0.0
149
0.0
100
AcDbLayout
  1
Layout1
 70
     1
 71
     1
 10
0.0
 20
0.0
 11
210.0
 21
297.0
 12
0.0
 22
0.0
 32
0.0
 14
0.0
 24
0.0
 34
0.0
 15
210.0
 25
297.0
 35
0.0
146
0.0
 13
0.0
 23
0.0
 33
0.0
 16
1.0
 26
0.0
 36
0.0
 17
0.0
 27
1.0
 37
0.0
 76
     0
330
1B
  0
LAYOUT
  5
22
102
{ACAD_REACTORS
330
1A
102
}
330
1A
100
AcDbPlotSettings
  1

  2
none_device
  4

  6

 40
0.0
 41
0.0
 42
0.0
 43
0.0
 44
0.0
 45
0.0
 46
0.0
 47
0.0
 48
0.0
 49
0.0
140
0.0
141
0.0
142
1.0
143
1.0
 70
  1712
 72
     0
 73
     0
 74
     0
  7

 75
     0
147
1.0
148
0.0
149
0.0
100
AcDbLayout
  1
Model
 70
     1
 71
     0
 10
0.0
 20
0.0
 11
210.0
 21
297.0
 12
0.0
 22
0.0
 32
0.0
 14
0.0
 24
0.0
 34
0.0
 15
210.0
 25
297.0
 35
0.0
146
0.0
 13
0.0
 23
0.0
 33
0.0
 16
1.0
 26
0.0
 36
0.0
 17
0.0
 27
1.0
 37
0.0
 76
     0
330
1F
331
29
  0
MATERIAL
  5
3D
102
{ACAD_REACTORS
330
3B
102
}
102
{ACAD_XDICTIONARY
360
1A7
102
}
330
3B
100
AcDbMaterial
  1
ByBlock
  0
MATERIAL
  5
3C
102
{ACAD_REACTORS
330
3B
102
}
102
{ACAD_XDICTIONARY
360
1A5
102
}
330
3B
100
AcDbMaterial
  1
ByLayer
  0
MATERIAL
  5
3E
102
{ACAD_REACTORS
330
3B
102
}
102
{ACAD_XDICTIONARY
360
1A9
102
}
330
3B
100
AcDbMaterial
  1
Global
  0
MLINESTYLE
  5
18
102
{ACAD_REACTORS
330
17
102
}
330
17
100
AcDbMlineStyle
  2
Standard
 70
     0
  3

 62
   256
 51
90.0
 52
90.0
 71
     2
 49
0.5
 62
   256
  6
BYLAYER
 49
-0.5
 62
   256
  6
BYLAYER
  0
ACDBPLACEHOLDER
  5
F
102
{ACAD_REACTORS
330
E
102
}
330
E
  0
VISUALSTYLE
  5
2F
102
{ACAD_REACTORS
330
2A
102
}
102
{ACAD_XDICTIONARY
360
18D
102
}
330
2A
100
AcDbVisualStyle
  2
2dWireframe
 70
     4
 71
     0
 72
     2
 73
     0
 90
        0
 40
-0.6
 41
-30.0
 62
     5
 63
     7
 74
     1
 91
        4
 64
     7
 65
   257
 75
     1
175
     1
 42
1.0
 92
        0
 66
   257
 43
1.0
 76
     1
 77
     6
 78
     2
 67
     7
 79
     5
170
     0
171
     0
290
     0
174
     0
 93
        1
 44
0.0
173
     0
291
     0
 45
0.0
1001
ACAD
1000
AcDbSavedByObjectVersion
1070
     0
  0
VISUALSTYLE
  5
31
102
{ACAD_REACTORS
330
2A
102
}
102
{ACAD_XDICTIONARY
360
191
102
}
330
2A
100
AcDbVisualStyle
  2
3D Hidden
 70
     6
 71
     1
 72
     2
 73
     2
 90
        0
 40
-0.6
 41
-30.0
 62
     5
 63
     7
 74
     2
 91
        2
 64
     7
 65
   257
 75
     2
175
     1
 42
40.0
 92
        0
 66
   257
 43
1.0
 76
     1
 77
     6
 78
     2
 67
     7
 79
     3
170
     0
171
     0
290
     0
174
     0
 93
        1
 44
0.0
173
     0
291
     0
 45
0.0
1001
ACAD
1000
AcDbSavedByObjectVersion
1070
     0
  0
VISUALSTYLE
  5
30
102
{ACAD_REACTORS
330
2A
102
}
102
{ACAD_XDICTIONARY
360
18F
102
}
330
2A
100
AcDbVisualStyle
  2
3dWireframe
 70
     5
 71
     0
 72
     2
 73
     0
 90
        0
 40
-0.6
 41
-30.0
 62
     5
 63
     7
 74
     1
 91
        4
 64
     7
 65
   257
 75
     1
175
     1
 42
1.0
 92
        0
 66
   257
 43
1.0
 76
     1
 77
     6
 78
     2
 67
     7
 79
     5
170
     0
171
     0
290
     0
174
     0
 93
        1
 44
0.0
173
     0
291
     0
 45
0.0
1001
ACAD
1000
AcDbSavedByObjectVersion
1070
     0
  0
VISUALSTYLE
  5
32
102
{ACAD_REACTORS
330
2A
102
}
102
{ACAD_XDICTIONARY
360
193
102
}
330
2A
100
AcDbVisualStyle
  2
Basic
 70
     7
 71
     1
 72
     0
 73
     1
 90
        0
 40
-0.6
 41
-30.0
 62
     5
 63
     7
 74
     0
 91
        4
 64
     7
 65
   257
 75
     1
175
     1
 42
1.0
 92
        8
 66
     7
 43
1.0
 76
     1
 77
     6
 78
     2
 67
     7
 79
     5
170
     0
171
     0
290
     0
174
     0
 93
        1
 44
0.0
173
     0
291
     1
 45
0.0
1001
ACAD
1000
AcDbSavedByObjectVersion
1070
     0
  0
VISUALSTYLE
  5
36
102
{ACAD_REACTORS
330
2A
102
}
102
{ACAD_XDICTIONARY
360
19B
102
}
330
2A
100
AcDbVisualStyle
  2
Brighten
 70
    12
 71
     2
 72
     2
 73
     0
 90
        0
 40
-0.6
 41
-30.0
 62
     5
 63
     7
 74
     1
 91
        4
 64
     7
 65
   257
 75
     1
175
     1
 42
1.0
 92
        8
 66
     7
 43
1.0
 76
     1
 77
     6
 78
     2
 67
     7
 79
     5
170
     0
171
     0
290
     0
174
     0
 93
        1
 44
50.0
173
     0
291
     1
 45
0.0
1001
ACAD
1000
AcDbSavedByObjectVersion
1070
     0
  0
VISUALSTYLE
  5
3A
102
{ACAD_REACTORS
330
2A
102
}
102
{ACAD_XDICTIONARY
360
1A3
102
}
330
2A
100
AcDbVisualStyle
  2
ColorChange
 70
    16
 71
     2
 72
     2
 73
     3
 90
        0
 40
-0.6
 41
-30.0
 62
     5
 63
     8
 74
     1
 91
        4
 64
     7
 65
   257
 75
     1
175
     1
 42
1.0
 92
        8
 66
     8
 43
1.0
 76
     1
 77
     6
 78
     2
 67
     7
 79
     5
170
     0
171
     0
290
     0
174
     0
 93
        1
 44
0.0
173
     0
291
     1
 45
0.0
1001
ACAD
1000
AcDbSavedByObjectVersion
1070
     0
  0
VISUALSTYLE
  5
34
102
{ACAD_REACTORS
330
2A
102
}
102
{ACAD_XDICTIONARY
360
197
102
}
330
2A
100
AcDbVisualStyle
  2
Conceptual
 70
     9
 71
     3
 72
     2
 73
     0
 90
        0
 40
-0.6
 41
-30.0
 62
     5
 63
     7
 74
     2
 91
        2
 64
     7
 65
   257
 75
     1
175
     1
 42
40.0
 92
        8
 66
     7
 43
1.0
 76
     1
 77
     6
 78
     2
 67
     7
 79
     3
170
     0
171
     0
290
     0
174
     0
 93
        1
 44
0.0
173
     0
291
     0
 45
0.0
1001
ACAD
1000
AcDbSavedByObjectVersion
1070
     0
  0
VISUALSTYLE
  5
35
102
{ACAD_REACTORS
330
2A
102
}
102
{ACAD_XDICTIONARY
360
199
102
}
330
2A
100
AcDbVisualStyle
  2
Dim
 70
    11
 71
     2
 72
     2
 73
     0
 90
        0
 40
-0.6
 41
-30.0
 62
     5
 63
     7
 74
     1
 91
        4
 64
     7
 65
   257
 75
     1
175
     1
 42
1.0
 92
        8
 66
     7
 43
1.0
 76
     1
 77
     6
 78
     2
 67
     7
 79
     5
170
     0
171
     0
290
     0
174
     0
 93
        1
 44
-50.0
173
     0
291
     1
 45
0.0
1001
ACAD
1000
AcDbSavedByObjectVersion
1070
     0
  0
VISUALSTYLE
  5
39
102
{ACAD_REACTORS
330
2A
102
}
102
{ACAD_XDICTIONARY
360
1A1
102
}
330
2A
100
AcDbVisualStyle
  2
Facepattern
 70
    15
 71
     2
 72
     2
 73
     0
 90
        0
 40
-0.6
 41
-30.0
 62
     5
 63
     7
 74
     1
 91
        4
 64
     7
 65
   257
 75
     1
175
     1
 42
1.0
 92
        8
 66
     7
 43
1.0
 76
     1
 77
     6
 78
     2
 67
     7
 79
     5
170
     0
171
     0
290
     0
174
     0
 93
        1
 44
0.0
173
     0
291
     1
 45
0.0
1001
ACAD
1000
AcDbSavedByObjectVersion
1070
     0
  0
VISUALSTYLE
  5
2B
102
{ACAD_REACTORS
330
2A
102
}
102
{ACAD_XDICTIONARY
360
185
102
}
330
2A
100
AcDbVisualStyle
  2
Flat
 70
     0
 71
     2
 72
     1
 73
     1
 90
        2
 40
-0.6
 41
30.0
 62
     5
 63
     7
 74
     0
 91
        4
 64
     7
 65
   257
 75
     1
175
     1
 42
1.0
 92
        8
 66
     7
 43
1.0
 76
     1
 77
     6
 78
     2
 67
     7
 79
     5
170
     0
171
     0
290
     0
174
     0
 93
       13
 44
0.0
173
     0
291
     1
 45
0.0
1001
ACAD
1000
AcDbSavedByObjectVersion
1070
     0
  0
VISUALSTYLE
  5
2C
102
{ACAD_REACTORS
330
2A
102
}
102
{ACAD_XDICTIONARY
360
187
102
}
330
2A
100
AcDbVisualStyle
  2
FlatWithEdges
 70
     1
 71
     2
 72
     1
 73
     1
 90
        2
 40
-0.6
 41
30.0
 62
     5
 63
     7
 74
     1
 91
        4
 64
     7
 65
   257
 75
     1
175
     1
 42
1.0
 92
        0
 66
   257
 43
1.0
 76
     1
 77
     6
 78
     2
 67
     7
 79
     5
170
     0
171
     0
290
     0
174
     0
 93
       13
 44
0.0
173
     0
291
     1
 45
0.0
1001
ACAD
1000
AcDbSavedByObjectVersion
1070
     0
  0
VISUALSTYLE
  5
2D
102
{ACAD_REACTORS
330
2A
102
}
102
{ACAD_XDICTIONARY
360
189
102
}
330
2A
100
AcDbVisualStyle
  2
Gouraud
 70
     2
 71
     2
 72
     2
 73
     1
 90
        2
 40
-0.6
 41
30.0
 62
     5
 63
     7
 74
     0
 91
        4
 64
     7
 65
   257
 75
     1
175
     1
 42
1.0
 92
        0
 66
     7
 43
1.0
 76
     1
 77
     6
 78
     2
 67
     7
 79
     5
170
     0
171
     0
290
     0
174
     0
 93
       13
 44
0.0
173
     0
291
     1
 45
0.0
1001
ACAD
1000
AcDbSavedByObjectVersion
1070
     0
  0
VISUALSTYLE
  5
2E
102
{ACAD_REACTORS
330
2A
102
}
102
{ACAD_XDICTIONARY
360
18B
102
}
330
2A
100
AcDbVisualStyle
  2
GouraudWithEdges
 70
     3
 71
     2
 72
     2
 73
     1
 90
        2
 40
-0.6
 41
30.0
 62
     5
 63
     7
 74
     1
 91
        4
 64
     7
 65
   257
 75
     1
175
     1
 42
1.0
 92
        0
 66
   257
 43
1.0
 76
     1
 77
     6
 78
     2
 67
     7
 79
     5
170
     0
171
     0
290
     0
174
     0
 93
       13
 44
0.0
173
     0
291
     1
 45
0.0
1001
ACAD
1000
AcDbSavedByObjectVersion
1070
     0
  0
VISUALSTYLE
  5
38
102
{ACAD_REACTORS
330
2A
102
}
102
{ACAD_XDICTIONARY
360
19F
102
}
330
2A
100
AcDbVisualStyle
  2
Linepattern
 70
    14
 71
     2
 72
     2
 73
     0
 90
        0
 40
-0.6
 41
-30.0
 62
     5
 63
     7
 74
     1
 91
        4
 64
     7
 65
   257
 75
     7
175
     7
 42
1.0
 92
        8
 66
     7
 43
1.0
 76
     1
 77
     6
 78
     2
 67
     7
 79
     5
170
     0
171
     0
290
     0
174
     0
 93
        1
 44
0.0
173
     0
291
     1
 45
0.0
1001
ACAD
1000
AcDbSavedByObjectVersion
1070
     0
  0
VISUALSTYLE
  5
33
102
{ACAD_REACTORS
330
2A
102
}
102
{ACAD_XDICTIONARY
360
195
102
}
330
2A
100
AcDbVisualStyle
  2
Realistic
 70
     8
 71
     2
 72
     2
 73
     0
 90
        0
 40
-0.6
 41
-30.0
 62
     5
 63
     7
 74
     1
 91
        0
 64
     7
 65
   257
 75
     1
175
     1
 42
1.0
 92
        8
 66
     8
 43
1.0
 76
     1
 77
     6
 78
     2
 67
     7
 79
     5
170
     0
171
     0
290
     0
174
     0
 93
       13
 44
0.0
173
     0
291
     0
 45
0.0
1001
ACAD
1000
AcDbSavedByObjectVersion
1070
     0
  0
VISUALSTYLE
  5
37
102
{ACAD_REACTORS
330
2A
102
}
102
{ACAD_XDICTIONARY
360
19D
102
}
330
2A
100
AcDbVisualStyle
  2
Thicken
 70
    13
 71
     2
 72
     2
 73
     0
 90
        0
 40
-0.6
 41
-30.0
 62
     5
 63
     7
 74
     1
 91
        4
 64
     7
 65
   257
 75
     1
175
     1
 42
1.0
 92
       12
 66
     7
 43
1.0
 76
     1
 77
     6
 78
     2
 67
     7
 79
     5
170
     0
171
     0
290
     0
174
     0
 93
        1
 44
0.0
173
     0
291
     1
 45
0.0
1001
ACAD
1000
AcDbSavedByObjectVersion
1070
     0
  0
DICTIONARYVAR
  5
183
102
{ACAD_REACTORS
330
17E
102
}
330
17E
100
DictionaryVariables
280
     0
  1
2
  0
DICTIONARYVAR
  5
184
102
{ACAD_REACTORS
330
17E
102
}
330
17E
100
DictionaryVariables
280
     0
  1
1
  0
DICTIONARYVAR
  5
182
102
{ACAD_REACTORS
330
17E
102
}
330
17E
100
DictionaryVariables
280
     0
  1
80.000000
  0
DICTIONARYVAR
  5
181
102
{ACAD_REACTORS
330
17E
102
}
330
17E
100
DictionaryVariables
280
     0
  1
5.000000
  0
DICTIONARY
  5
1A7
330
3D
100
AcDbDictionary
280
     1
281
     1
  3
ACAD_XREC_ROUNDTRIP
360
1A8
  0
DICTIONARY
  5
1A5
330
3C
100
AcDbDictionary
280
     1
281
     1
  3
ACAD_XREC_ROUNDTRIP
360
1A6
  0
DICTIONARY
  5
1A9
330
3E
100
AcDbDictionary
280
     1
281
     1
  3
ACAD_XREC_ROUNDTRIP
360
1AA
  0
DICTIONARY
  5
18D
330
2F
100
AcDbDictionary
280
     1
281
     1
  3
ACAD_XREC_ROUNDTRIP
360
18E
  0
DICTIONARY
  5
191
330
31
100
AcDbDictionary
280
     1
281
     1
  3
ACAD_XREC_ROUNDTRIP
360
192
  0
DICTIONARY
  5
18F
330
30
100
AcDbDictionary
280
     1
281
     1
  3
ACAD_XREC_ROUNDTRIP
360
190
  0
DICTIONARY
  5
193
330
32
100
AcDbDictionary
280
     1
281
     1
  3
ACAD_XREC_ROUNDTRIP
360
194
  0
DICTIONARY
  5
19B
330
36
100
AcDbDictionary
280
     1
281
     1
  3
ACAD_XREC_ROUNDTRIP
360
19C
  0
DICTIONARY
  5
1A3
330
3A
100
AcDbDictionary
280
     1
281
     1
  3
ACAD_XREC_ROUNDTRIP
360
1A4
  0
DICTIONARY
  5
197
330
34
100
AcDbDictionary
280
     1
281
     1
  3
ACAD_XREC_ROUNDTRIP
360
198
  0
DICTIONARY
  5
199
330
35
100
AcDbDictionary
280
     1
281
     1
  3
ACAD_XREC_ROUNDTRIP
360
19A
  0
DICTIONARY
  5
1A1
330
39
100
AcDbDictionary
280
     1
281
     1
  3
ACAD_XREC_ROUNDTRIP
360
1A2
  0
DICTIONARY
  5
185
330
2B
100
AcDbDictionary
280
     1
281
     1
  3
ACAD_XREC_ROUNDTRIP
360
186
  0
DICTIONARY
  5
187
330
2C
100
AcDbDictionary
280
     1
281
     1
  3
ACAD_XREC_ROUNDTRIP
360
188
  0
DICTIONARY
  5
189
330
2D
100
AcDbDictionary
280
     1
281
     1
  3
ACAD_XREC_ROUNDTRIP
360
18A
  0
DICTIONARY
  5
18B
330
2E
100
AcDbDictionary
280
     1
281
     1
  3
ACAD_XREC_ROUNDTRIP
360
18C
  0
DICTIONARY
  5
19F
330
38
100
AcDbDictionary
280
     1
281
     1
  3
ACAD_XREC_ROUNDTRIP
360
1A0
  0
DICTIONARY
  5
195
330
33
100
AcDbDictionary
280
     1
281
     1
  3
ACAD_XREC_ROUNDTRIP
360
196
  0
DICTIONARY
  5
19D
330
37
100
AcDbDictionary
280
     1
281
     1
  3
ACAD_XREC_ROUNDTRIP
360
19E
  0
XRECORD
  5
1A8
102
{ACAD_REACTORS
330
1A7
102
}
330
1A7
100
AcDbXrecord
280
     1
102
MATERIAL
148
0.0
149
0.0
149
0.0
 93
        0
 94
      127
282
     0
 72
     1
 77
     1
171
     1
175
     1
179
     1
273
     0
  0
XRECORD
  5
1A6
102
{ACAD_REACTORS
330
1A5
102
}
330
1A5
100
AcDbXrecord
280
     1
102
MATERIAL
148
0.0
149
0.0
149
0.0
 93
        0
 94
      127
282
     0
 72
     1
 77
     1
171
     1
175
     1
179
     1
273
     0
  0
XRECORD
  5
1AA
102
{ACAD_REACTORS
330
1A9
102
}
330
1A9
100
AcDbXrecord
280
     1
102
MATERIAL
148
0.0
149
0.0
149
0.0
 93
        0
 94
      127
282
     0
 72
     1
 77
     1
171
     1
175
     1
179
     1
273
     0
  0
XRECORD
  5
18E
102
{ACAD_REACTORS
330
18D
102
}
330
18D
100
AcDbXrecord
280
     1
102
RTVSPropertyOp0
 70
     1
102
RTVSPropertyOp1
 70
     1
102
RTVSPropertyOp2
 70
     1
102
RTVSPropertyOp3
 70
     1
102
RTVSPropertyOp4
 70
     1
102
RTVSPropertyOp5
 70
     1
102
RTVSPropertyOp6
 70
     1
102
RTVSPropertyOp7
 70
     1
102
RTVSPropertyOp8
 70
     1
102
RTVSPropertyOp9
 70
     1
102
RTVSPropertyOp10
 70
     1
102
RTVSPropertyOp11
 70
     1
102
RTVSPropertyOp12
 70
     1
102
RTVSPropertyOp13
 70
     1
102
RTVSPropertyOp14
 70
     1
102
RTVSPropertyOp15
 70
     1
102
RTVSPropertyOp16
 70
     1
102
RTVSPropertyOp17
 70
     1
102
RTVSPropertyOp18
 70
     1
102
RTVSPropertyOp19
 70
     1
102
RTVSPropertyOp20
 70
     1
102
RTVSPropertyOp21
 70
     1
102
RTVSPropertyOp22
 70
     1
102
RTVSPropertyOp23
 70
     1
102
RTVSPropertyOp24
 70
     1
102
RTVSPropertyOp25
 70
     1
102
RTVSPropertyOp26
 70
     1
102
RTVSPropertyOp27
 70
     1
102
RTVSPropertyOp28
 70
     1
102
RTVSPropertyOp29
 70
     1
102
RTVSPropertyOp30
 70
     1
102
RTVSPropertyOp31
 70
     1
102
RTVSPropertyOp32
 70
     1
  0
XRECORD
  5
192
102
{ACAD_REACTORS
330
191
102
}
330
191
100
AcDbXrecord
280
     1
102
RTVSPropertyOp0
 70
     1
102
RTVSPropertyOp1
 70
     1
102
RTVSPropertyOp2
 70
     1
102
RTVSPropertyOp3
 70
     1
102
RTVSPropertyOp4
 70
     1
102
RTVSPropertyOp5
 70
     1
102
RTVSPropertyOp6
 70
     1
102
RTVSPropertyOp7
 70
     1
102
RTVSPropertyOp8
 70
     1
102
RTVSPropertyOp9
 70
     1
102
RTVSPropertyOp10
 70
     1
102
RTVSPropertyOp11
 70
     1
102
RTVSPropertyOp12
 70
     1
102
RTVSPropertyOp13
 70
     1
102
RTVSPropertyOp14
 70
     1
102
RTVSPropertyOp15
 70
     1
102
RTVSPropertyOp16
 70
     1
102
RTVSPropertyOp17
 70
     1
102
RTVSPropertyOp18
 70
     1
102
RTVSPropertyOp19
 70
     1
102
RTVSPropertyOp20
 70
     1
102
RTVSPropertyOp21
 70
     1
102
RTVSPropertyOp22
 70
     1
102
RTVSPropertyOp23
 70
     1
102
RTVSPropertyOp24
 70
     1
102
RTVSPropertyOp25
 70
     1
102
RTVSPropertyOp26
 70
     1
102
RTVSPropertyOp27
 70
     1
102
RTVSPropertyOp28
 70
     1
102
RTVSPropertyOp29
 70
     1
102
RTVSPropertyOp30
 70
     1
102
RTVSPropertyOp31
 70
     1
102
RTVSPropertyOp32
 70
     1
  0
XRECORD
  5
190
102
{ACAD_REACTORS
330
18F
102
}
330
18F
100
AcDbXrecord
280
     1
102
RTVSPropertyOp0
 70
     1
102
RTVSPropertyOp1
 70
     1
102
RTVSPropertyOp2
 70
     1
102
RTVSPropertyOp3
 70
     1
102
RTVSPropertyOp4
 70
     1
102
RTVSPropertyOp5
 70
     1
102
RTVSPropertyOp6
 70
     1
102
RTVSPropertyOp7
 70
     1
102
RTVSPropertyOp8
 70
     1
102
RTVSPropertyOp9
 70
     1
102
RTVSPropertyOp10
 70
     1
102
RTVSPropertyOp11
 70
     1
102
RTVSPropertyOp12
 70
     1
102
RTVSPropertyOp13
 70
     1
102
RTVSPropertyOp14
 70
     1
102
RTVSPropertyOp15
 70
     1
102
RTVSPropertyOp16
 70
     1
102
RTVSPropertyOp17
 70
     1
102
RTVSPropertyOp18
 70
     1
102
RTVSPropertyOp19
 70
     1
102
RTVSPropertyOp20
 70
     1
102
RTVSPropertyOp21
 70
     1
102
RTVSPropertyOp22
 70
     1
102
RTVSPropertyOp23
 70
     1
102
RTVSPropertyOp24
 70
     1
102
RTVSPropertyOp25
 70
     1
102
RTVSPropertyOp26
 70
     1
102
RTVSPropertyOp27
 70
     1
102
RTVSPropertyOp28
 70
     1
102
RTVSPropertyOp29
 70
     1
102
RTVSPropertyOp30
 70
     1
102
RTVSPropertyOp31
 70
     1
102
RTVSPropertyOp32
 70
     1
  0
XRECORD
  5
194
102
{ACAD_REACTORS
330
193
102
}
330
193
100
AcDbXrecord
280
     1
102
RTVSPropertyOp0
 70
     1
102
RTVSPropertyOp1
 70
     1
102
RTVSPropertyOp2
 70
     1
102
RTVSPropertyOp3
 70
     1
102
RTVSPropertyOp4
 70
     1
102
RTVSPropertyOp5
 70
     1
102
RTVSPropertyOp6
 70
     1
102
RTVSPropertyOp7
 70
     1
102
RTVSPropertyOp8
 70
     1
102
RTVSPropertyOp9
 70
     1
102
RTVSPropertyOp10
 70
     1
102
RTVSPropertyOp11
 70
     1
102
RTVSPropertyOp12
 70
     1
102
RTVSPropertyOp13
 70
     1
102
RTVSPropertyOp14
 70
     1
102
RTVSPropertyOp15
 70
     1
102
RTVSPropertyOp16
 70
     1
102
RTVSPropertyOp17
 70
     1
102
RTVSPropertyOp18
 70
     1
102
RTVSPropertyOp19
 70
     1
102
RTVSPropertyOp20
 70
     1
102
RTVSPropertyOp21
 70
     1
102
RTVSPropertyOp22
 70
     1
102
RTVSPropertyOp23
 70
     1
102
RTVSPropertyOp24
 70
     1
102
RTVSPropertyOp25
 70
     1
102
RTVSPropertyOp26
 70
     1
102
RTVSPropertyOp27
 70
     1
102
RTVSPropertyOp28
 70
     1
102
RTVSPropertyOp29
 70
     1
102
RTVSPropertyOp30
 70
     1
102
RTVSPropertyOp31
 70
     1
102
RTVSPropertyOp32
 70
     1
  0
XRECORD
  5
19C
102
{ACAD_REACTORS
330
19B
102
}
330
19B
100
AcDbXrecord
280
     1
102
RTVSPropertyOp0
 70
     1
102
RTVSPropertyOp1
 70
     1
102
RTVSPropertyOp2
 70
     1
102
RTVSPropertyOp3
 70
     1
102
RTVSPropertyOp4
 70
     1
102
RTVSPropertyOp5
 70
     1
102
RTVSPropertyOp6
 70
     1
102
RTVSPropertyOp7
 70
     1
102
RTVSPropertyOp8
 70
     1
102
RTVSPropertyOp9
 70
     1
102
RTVSPropertyOp10
 70
     1
102
RTVSPropertyOp11
 70
     1
102
RTVSPropertyOp12
 70
     1
102
RTVSPropertyOp13
 70
     1
102
RTVSPropertyOp14
 70
     1
102
RTVSPropertyOp15
 70
     1
102
RTVSPropertyOp16
 70
     1
102
RTVSPropertyOp17
 70
     1
102
RTVSPropertyOp18
 70
     1
102
RTVSPropertyOp19
 70
     1
102
RTVSPropertyOp20
 70
     1
102
RTVSPropertyOp21
 70
     1
102
RTVSPropertyOp22
 70
     1
102
RTVSPropertyOp23
 70
     1
102
RTVSPropertyOp24
 70
     1
102
RTVSPropertyOp25
 70
     1
102
RTVSPropertyOp26
 70
     1
102
RTVSPropertyOp27
 70
     1
102
RTVSPropertyOp28
 70
     1
102
RTVSPropertyOp29
 70
     1
102
RTVSPropertyOp30
 70
     1
102
RTVSPropertyOp31
 70
     1
102
RTVSPropertyOp32
 70
     1
  0
XRECORD
  5
1A4
102
{ACAD_REACTORS
330
1A3
102
}
330
1A3
100
AcDbXrecord
280
     1
102
RTVSPropertyOp0
 70
     1
102
RTVSPropertyOp1
 70
     1
102
RTVSPropertyOp2
 70
     1
102
RTVSPropertyOp3
 70
     1
102
RTVSPropertyOp4
 70
     1
102
RTVSPropertyOp5
 70
     1
102
RTVSPropertyOp6
 70
     1
102
RTVSPropertyOp7
 70
     1
102
RTVSPropertyOp8
 70
     1
102
RTVSPropertyOp9
 70
     1
102
RTVSPropertyOp10
 70
     1
102
RTVSPropertyOp11
 70
     1
102
RTVSPropertyOp12
 70
     1
102
RTVSPropertyOp13
 70
     1
102
RTVSPropertyOp14
 70
     1
102
RTVSPropertyOp15
 70
     1
102
RTVSPropertyOp16
 70
     1
102
RTVSPropertyOp17
 70
     1
102
RTVSPropertyOp18
 70
     1
102
RTVSPropertyOp19
 70
     1
102
RTVSPropertyOp20
 70
     1
102
RTVSPropertyOp21
 70
     1
102
RTVSPropertyOp22
 70
     1
102
RTVSPropertyOp23
 70
     1
102
RTVSPropertyOp24
 70
     1
102
RTVSPropertyOp25
 70
     1
102
RTVSPropertyOp26
 70
     1
102
RTVSPropertyOp27
 70
     1
102
RTVSPropertyOp28
 70
     1
102
RTVSPropertyOp29
 70
     1
102
RTVSPropertyOp30
 70
     1
102
RTVSPropertyOp31
 70
     1
102
RTVSPropertyOp32
 70
     1
  0
XRECORD
  5
198
102
{ACAD_REACTORS
330
197
102
}
330
197
100
AcDbXrecord
280
     1
102
RTVSPropertyOp0
 70
     1
102
RTVSPropertyOp1
 70
     1
102
RTVSPropertyOp2
 70
     1
102
RTVSPropertyOp3
 70
     1
102
RTVSPropertyOp4
 70
     1
102
RTVSPropertyOp5
 70
     1
102
RTVSPropertyOp6
 70
     1
102
RTVSPropertyOp7
 70
     1
102
RTVSPropertyOp8
 70
     1
102
RTVSPropertyOp9
 70
     1
102
RTVSPropertyOp10
 70
     1
102
RTVSPropertyOp11
 70
     1
102
RTVSPropertyOp12
 70
     1
102
RTVSPropertyOp13
 70
     1
102
RTVSPropertyOp14
 70
     1
102
RTVSPropertyOp15
 70
     1
102
RTVSPropertyOp16
 70
     1
102
RTVSPropertyOp17
 70
     1
102
RTVSPropertyOp18
 70
     1
102
RTVSPropertyOp19
 70
     1
102
RTVSPropertyOp20
 70
     1
102
RTVSPropertyOp21
 70
     1
102
RTVSPropertyOp22
 70
     1
102
RTVSPropertyOp23
 70
     1
102
RTVSPropertyOp24
 70
     1
102
RTVSPropertyOp25
 70
     1
102
RTVSPropertyOp26
 70
     1
102
RTVSPropertyOp27
 70
     1
102
RTVSPropertyOp28
 70
     1
102
RTVSPropertyOp29
 70
     1
102
RTVSPropertyOp30
 70
     1
102
RTVSPropertyOp31
 70
     1
102
RTVSPropertyOp32
 70
     1
  0
XRECORD
  5
19A
102
{ACAD_REACTORS
330
199
102
}
330
199
100
AcDbXrecord
280
     1
102
RTVSPropertyOp0
 70
     1
102
RTVSPropertyOp1
 70
     1
102
RTVSPropertyOp2
 70
     1
102
RTVSPropertyOp3
 70
     1
102
RTVSPropertyOp4
 70
     1
102
RTVSPropertyOp5
 70
     1
102
RTVSPropertyOp6
 70
     1
102
RTVSPropertyOp7
 70
     1
102
RTVSPropertyOp8
 70
     1
102
RTVSPropertyOp9
 70
     1
102
RTVSPropertyOp10
 70
     1
102
RTVSPropertyOp11
 70
     1
102
RTVSPropertyOp12
 70
     1
102
RTVSPropertyOp13
 70
     1
102
RTVSPropertyOp14
 70
     1
102
RTVSPropertyOp15
 70
     1
102
RTVSPropertyOp16
 70
     1
102
RTVSPropertyOp17
 70
     1
102
RTVSPropertyOp18
 70
     1
102
RTVSPropertyOp19
 70
     1
102
RTVSPropertyOp20
 70
     1
102
RTVSPropertyOp21
 70
     1
102
RTVSPropertyOp22
 70
     1
102
RTVSPropertyOp23
 70
     1
102
RTVSPropertyOp24
 70
     1
102
RTVSPropertyOp25
 70
     1
102
RTVSPropertyOp26
 70
     1
102
RTVSPropertyOp27
 70
     1
102
RTVSPropertyOp28
 70
     1
102
RTVSPropertyOp29
 70
     1
102
RTVSPropertyOp30
 70
     1
102
RTVSPropertyOp31
 70
     1
102
RTVSPropertyOp32
 70
     1
  0
XRECORD
  5
1A2
102
{ACAD_REACTORS
330
1A1
102
}
330
1A1
100
AcDbXrecord
280
     1
102
RTVSPropertyOp0
 70
     1
102
RTVSPropertyOp1
 70
     1
102
RTVSPropertyOp2
 70
     1
102
RTVSPropertyOp3
 70
     1
102
RTVSPropertyOp4
 70
     1
102
RTVSPropertyOp5
 70
     1
102
RTVSPropertyOp6
 70
     1
102
RTVSPropertyOp7
 70
     1
102
RTVSPropertyOp8
 70
     1
102
RTVSPropertyOp9
 70
     1
102
RTVSPropertyOp10
 70
     1
102
RTVSPropertyOp11
 70
     1
102
RTVSPropertyOp12
 70
     1
102
RTVSPropertyOp13
 70
     1
102
RTVSPropertyOp14
 70
     1
102
RTVSPropertyOp15
 70
     1
102
RTVSPropertyOp16
 70
     1
102
RTVSPropertyOp17
 70
     1
102
RTVSPropertyOp18
 70
     1
102
RTVSPropertyOp19
 70
     1
102
RTVSPropertyOp20
 70
     1
102
RTVSPropertyOp21
 70
     1
102
RTVSPropertyOp22
 70
     1
102
RTVSPropertyOp23
 70
     1
102
RTVSPropertyOp24
 70
     1
102
RTVSPropertyOp25
 70
     1
102
RTVSPropertyOp26
 70
     1
102
RTVSPropertyOp27
 70
     1
102
RTVSPropertyOp28
 70
     1
102
RTVSPropertyOp29
 70
     1
102
RTVSPropertyOp30
 70
     1
102
RTVSPropertyOp31
 70
     1
102
RTVSPropertyOp32
 70
     1
  0
XRECORD
  5
186
102
{ACAD_REACTORS
330
185
102
}
330
185
100
AcDbXrecord
280
     1
102
RTVSPropertyOp0
 70
     1
102
RTVSPropertyOp1
 70
     1
102
RTVSPropertyOp2
 70
     1
102
RTVSPropertyOp3
 70
     1
102
RTVSPropertyOp4
 70
     1
102
RTVSPropertyOp5
 70
     1
102
RTVSPropertyOp6
 70
     1
102
RTVSPropertyOp7
 70
     1
102
RTVSPropertyOp8
 70
     1
102
RTVSPropertyOp9
 70
     1
102
RTVSPropertyOp10
 70
     1
102
RTVSPropertyOp11
 70
     1
102
RTVSPropertyOp12
 70
     1
102
RTVSPropertyOp13
 70
     1
102
RTVSPropertyOp14
 70
     1
102
RTVSPropertyOp15
 70
     1
102
RTVSPropertyOp16
 70
     1
102
RTVSPropertyOp17
 70
     1
102
RTVSPropertyOp18
 70
     1
102
RTVSPropertyOp19
 70
     1
102
RTVSPropertyOp20
 70
     1
102
RTVSPropertyOp21
 70
     1
102
RTVSPropertyOp22
 70
     1
102
RTVSPropertyOp23
 70
     1
102
RTVSPropertyOp24
 70
     1
102
RTVSPropertyOp25
 70
     1
102
RTVSPropertyOp26
 70
     1
102
RTVSPropertyOp27
 70
     1
102
RTVSPropertyOp28
 70
     1
102
RTVSPropertyOp29
 70
     1
102
RTVSPropertyOp30
 70
     1
102
RTVSPropertyOp31
 70
     1
102
RTVSPropertyOp32
 70
     1
  0
XRECORD
  5
188
102
{ACAD_REACTORS
330
187
102
}
330
187
100
AcDbXrecord
280
     1
102
RTVSPropertyOp0
 70
     1
102
RTVSPropertyOp1
 70
     1
102
RTVSPropertyOp2
 70
     1
102
RTVSPropertyOp3
 70
     1
102
RTVSPropertyOp4
 70
     1
102
RTVSPropertyOp5
 70
     1
102
RTVSPropertyOp6
 70
     1
102
RTVSPropertyOp7
 70
     1
102
RTVSPropertyOp8
 70
     1
102
RTVSPropertyOp9
 70
     1
102
RTVSPropertyOp10
 70
     1
102
RTVSPropertyOp11
 70
     1
102
RTVSPropertyOp12
 70
     1
102
RTVSPropertyOp13
 70
     1
102
RTVSPropertyOp14
 70
     1
102
RTVSPropertyOp15
 70
     1
102
RTVSPropertyOp16
 70
     1
102
RTVSPropertyOp17
 70
     1
102
RTVSPropertyOp18
 70
     1
102
RTVSPropertyOp19
 70
     1
102
RTVSPropertyOp20
 70
     1
102
RTVSPropertyOp21
 70
     1
102
RTVSPropertyOp22
 70
     1
102
RTVSPropertyOp23
 70
     1
102
RTVSPropertyOp24
 70
     1
102
RTVSPropertyOp25
 70
     1
102
RTVSPropertyOp26
 70
     1
102
RTVSPropertyOp27
 70
     1
102
RTVSPropertyOp28
 70
     1
102
RTVSPropertyOp29
 70
     1
102
RTVSPropertyOp30
 70
     1
102
RTVSPropertyOp31
 70
     1
102
RTVSPropertyOp32
 70
     1
  0
XRECORD
  5
18A
102
{ACAD_REACTORS
330
189
102
}
330
189
100
AcDbXrecord
280
     1
102
RTVSPropertyOp0
 70
     1
102
RTVSPropertyOp1
 70
     1
102
RTVSPropertyOp2
 70
     1
102
RTVSPropertyOp3
 70
     1
102
RTVSPropertyOp4
 70
     1
102
RTVSPropertyOp5
 70
     1
102
RTVSPropertyOp6
 70
     1
102
RTVSPropertyOp7
 70
     1
102
RTVSPropertyOp8
 70
     1
102
RTVSPropertyOp9
 70
     1
102
RTVSPropertyOp10
 70
     1
102
RTVSPropertyOp11
 70
     1
102
RTVSPropertyOp12
 70
     1
102
RTVSPropertyOp13
 70
     1
102
RTVSPropertyOp14
 70
     1
102
RTVSPropertyOp15
 70
     1
102
RTVSPropertyOp16
 70
     1
102
RTVSPropertyOp17
 70
     1
102
RTVSPropertyOp18
 70
     1
102
RTVSPropertyOp19
 70
     1
102
RTVSPropertyOp20
 70
     1
102
RTVSPropertyOp21
 70
     1
102
RTVSPropertyOp22
 70
     1
102
RTVSPropertyOp23
 70
     1
102
RTVSPropertyOp24
 70
     1
102
RTVSPropertyOp25
 70
     1
102
RTVSPropertyOp26
 70
     1
102
RTVSPropertyOp27
 70
     1
102
RTVSPropertyOp28
 70
     1
102
RTVSPropertyOp29
 70
     1
102
RTVSPropertyOp30
 70
     1
102
RTVSPropertyOp31
 70
     1
102
RTVSPropertyOp32
 70
     1
  0
XRECORD
  5
18C
102
{ACAD_REACTORS
330
18B
102
}
330
18B
100
AcDbXrecord
280
     1
102
RTVSPropertyOp0
 70
     1
102
RTVSPropertyOp1
 70
     1
102
RTVSPropertyOp2
 70
     1
102
RTVSPropertyOp3
 70
     1
102
RTVSPropertyOp4
 70
     1
102
RTVSPropertyOp5
 70
     1
102
RTVSPropertyOp6
 70
     1
102
RTVSPropertyOp7
 70
     1
102
RTVSPropertyOp8
 70
     1
102
RTVSPropertyOp9
 70
     1
102
RTVSPropertyOp10
 70
     1
102
RTVSPropertyOp11
 70
     1
102
RTVSPropertyOp12
 70
     1
102
RTVSPropertyOp13
 70
     1
102
RTVSPropertyOp14
 70
     1
102
RTVSPropertyOp15
 70
     1
102
RTVSPropertyOp16
 70
     1
102
RTVSPropertyOp17
 70
     1
102
RTVSPropertyOp18
 70
     1
102
RTVSPropertyOp19
 70
     1
102
RTVSPropertyOp20
 70
     1
102
RTVSPropertyOp21
 70
     1
102
RTVSPropertyOp22
 70
     1
102
RTVSPropertyOp23
 70
     1
102
RTVSPropertyOp24
 70
     1
102
RTVSPropertyOp25
 70
     1
102
RTVSPropertyOp26
 70
     1
102
RTVSPropertyOp27
 70
     1
102
RTVSPropertyOp28
 70
     1
102
RTVSPropertyOp29
 70
     1
102
RTVSPropertyOp30
 70
     1
102
RTVSPropertyOp31
 70
     1
102
RTVSPropertyOp32
 70
     1
  0
XRECORD
  5
1A0
102
{ACAD_REACTORS
330
19F
102
}
330
19F
100
AcDbXrecord
280
     1
102
RTVSPropertyOp0
 70
     1
102
RTVSPropertyOp1
 70
     1
102
RTVSPropertyOp2
 70
     1
102
RTVSPropertyOp3
 70
     1
102
RTVSPropertyOp4
 70
     1
102
RTVSPropertyOp5
 70
     1
102
RTVSPropertyOp6
 70
     1
102
RTVSPropertyOp7
 70
     1
102
RTVSPropertyOp8
 70
     1
102
RTVSPropertyOp9
 70
     1
102
RTVSPropertyOp10
 70
     1
102
RTVSPropertyOp11
 70
     1
102
RTVSPropertyOp12
 70
     1
102
RTVSPropertyOp13
 70
     1
102
RTVSPropertyOp14
 70
     1
102
RTVSPropertyOp15
 70
     1
102
RTVSPropertyOp16
 70
     1
102
RTVSPropertyOp17
 70
     1
102
RTVSPropertyOp18
 70
     1
102
RTVSPropertyOp19
 70
     1
102
RTVSPropertyOp20
 70
     1
102
RTVSPropertyOp21
 70
     1
102
RTVSPropertyOp22
 70
     1
102
RTVSPropertyOp23
 70
     1
102
RTVSPropertyOp24
 70
     1
102
RTVSPropertyOp25
 70
     1
102
RTVSPropertyOp26
 70
     1
102
RTVSPropertyOp27
 70
     1
102
RTVSPropertyOp28
 70
     1
102
RTVSPropertyOp29
 70
     1
102
RTVSPropertyOp30
 70
     1
102
RTVSPropertyOp31
 70
     1
102
RTVSPropertyOp32
 70
     1
  0
XRECORD
  5
196
102
{ACAD_REACTORS
330
195
102
}
330
195
100
AcDbXrecord
280
     1
102
RTVSPropertyOp0
 70
     1
102
RTVSPropertyOp1
 70
     1
102
RTVSPropertyOp2
 70
     1
102
RTVSPropertyOp3
 70
     1
102
RTVSPropertyOp4
 70
     1
102
RTVSPropertyOp5
 70
     1
102
RTVSPropertyOp6
 70
     1
102
RTVSPropertyOp7
 70
     1
102
RTVSPropertyOp8
 70
     1
102
RTVSPropertyOp9
 70
     1
102
RTVSPropertyOp10
 70
     1
102
RTVSPropertyOp11
 70
     1
102
RTVSPropertyOp12
 70
     1
102
RTVSPropertyOp13
 70
     1
102
RTVSPropertyOp14
 70
     1
102
RTVSPropertyOp15
 70
     1
102
RTVSPropertyOp16
 70
     1
102
RTVSPropertyOp17
 70
     1
102
RTVSPropertyOp18
 70
     1
102
RTVSPropertyOp19
 70
     1
102
RTVSPropertyOp20
 70
     1
102
RTVSPropertyOp21
 70
     1
102
RTVSPropertyOp22
 70
     1
102
RTVSPropertyOp23
 70
     1
102
RTVSPropertyOp24
 70
     1
102
RTVSPropertyOp25
 70
     1
102
RTVSPropertyOp26
 70
     1
102
RTVSPropertyOp27
 70
     1
102
RTVSPropertyOp28
 70
     1
102
RTVSPropertyOp29
 70
     1
102
RTVSPropertyOp30
 70
     1
102
RTVSPropertyOp31
 70
     1
102
RTVSPropertyOp32
 70
     1
  0
XRECORD
  5
19E
102
{ACAD_REACTORS
330
19D
102
}
330
19D
100
AcDbXrecord
280
     1
102
RTVSPropertyOp0
 70
     1
102
RTVSPropertyOp1
 70
     1
102
RTVSPropertyOp2
 70
     1
102
RTVSPropertyOp3
 70
     1
102
RTVSPropertyOp4
 70
     1
102
RTVSPropertyOp5
 70
     1
102
RTVSPropertyOp6
 70
     1
102
RTVSPropertyOp7
 70
     1
102
RTVSPropertyOp8
 70
     1
102
RTVSPropertyOp9
 70
     1
102
RTVSPropertyOp10
 70
     1
102
RTVSPropertyOp11
 70
     1
102
RTVSPropertyOp12
 70
     1
102
RTVSPropertyOp13
 70
     1
102
RTVSPropertyOp14
 70
     1
102
RTVSPropertyOp15
 70
     1
102
RTVSPropertyOp16
 70
     1
102
RTVSPropertyOp17
 70
     1
102
RTVSPropertyOp18
 70
     1
102
RTVSPropertyOp19
 70
     1
102
RTVSPropertyOp20
 70
     1
102
RTVSPropertyOp21
 70
     1
102
RTVSPropertyOp22
 70
     1
102
RTVSPropertyOp23
 70
     1
102
RTVSPropertyOp24
 70
     1
102
RTVSPropertyOp25
 70
     1
102
RTVSPropertyOp26
 70
     1
102
RTVSPropertyOp27
 70
     1
102
RTVSPropertyOp28
 70
     1
102
RTVSPropertyOp29
 70
     1
102
RTVSPropertyOp30
 70
     1
102
RTVSPropertyOp31
 70
     1
102
RTVSPropertyOp32
 70
     1
  0
ENDSEC
  0
EOF
