  0
SECTION
  2
HEADER
  9
$ACADVER
  1
AC1015
  9
$ACADMAINTVER
 70
     6
  9
$DWGCODEPAGE
  3
ANSI_1252
  9
$INSBASE
 10
0.0
 20
0.0
 30
0.0
  9
$EXTMIN
 10
0.0
 20
0.0
 30
0.0
  9
$EXTMAX
 10
210.0
 20
297.0
 30
0.0
  9
$LIMMIN
 10
0.0
 20
0.0
  9
$LIMMAX
 10
210.0
 20
297.0
  9
$ORTHOMODE
 70
     0
  9
$REGENMODE
 70
     1
  9
$FILLMODE
 70
     1
  9
$QTEXTMODE
 70
     0
  9
$MIRRTEXT
 70
     1
  9
$LTSCALE
 40
1.0
  9
$ATTMODE
 70
     1
  9
$TEXTSIZE
 40
2.5
  9
$TRACEWID
 40
1.0
  9
$TEXTSTYLE
  7
Standard
  9
$CLAYER
  8
0
  9
$CELTYPE
  6
ByLayer
  9
$CECOLOR
 62
   256
  9
$CELTSCALE
 40
1.0
  9
$DISPSILH
 70
     0
  9
$DIMSCALE
 40
1.0
  9
$DIMASZ
 40
2.5
  9
$DIMEXO
 40
0.625
  9
$DIMDLI
 40
3.75
  9
$DIMRND
 40
0.0
  9
$DIMDLE
 40
0.0
  9
$DIMEXE
 40
1.25
  9
$DIMTP
 40
0.0
  9
$DIMTM
 40
0.0
  9
$DIMTXT
 40
2.5
  9
$DIMCEN
 40
2.5
  9
$DIMTSZ
 40
0.0
  9
$DIMTOL
 70
     0
  9
$DIMLIM
 70
     0
  9
$DIMTIH
 70
     0
  9
$DIMTOH
 70
     0
  9
$DIMSE1
 70
     0
  9
$DIMSE2
 70
     0
  9
$DIMTAD
 70
     1
  9
$DIMZIN
 70
     8
  9
$DIMBLK
  1

  9
$DIMASO
 70
     1
  9
$DIMSHO
 70
     1
  9
$DIMPOST
  1

  9
$DIMAPOST
  1

  9
$DIMALT
 70
     0
  9
$DIMALTD
 70
     3
  9
$DIMALTF
 40
0.0393700787
  9
$DIMLFAC
 40
1.0
  9
$DIMTOFL
 70
     1
  9
$DIMTVP
 40
0.0
  9
$DIMTIX
 70
     0
  9
$DIMSOXD
 70
     0
  9
$DIMSAH
 70
     0
  9
$DIMBLK1
  1

  9
$DIMBLK2
  1

  9
$DIMSTYLE
  2
ISO-25
  9
$DIMCLRD
 70
     0
  9
$DIMCLRE
 70
     0
  9
$DIMCLRT
 70
     0
  9
$DIMTFAC
 40
1.0
  9
$DIMGAP
 40
0.625
  9
$DIMJUST
 70
     0
  9
$DIMSD1
 70
     0
  9
$DIMSD2
 70
     0
  9
$DIMTOLJ
 70
     0
  9
$DIMTZIN
 70
     8
  9
$DIMALTZ
 70
     0
  9
$DIMALTTZ
 70
     0
  9
$DIMUPT
 70
     0
  9
$DIMDEC
 70
     2
  9
$DIMTDEC
 70
     2
  9
$DIMALTU
 70
     2
  9
$DIMALTTD
 70
     3
  9
$DIMTXSTY
  7
Standard
  9
$DIMAUNIT
 70
     0
  9
$DIMADEC
 70
     0
  9
$DIMALTRND
 40
0.0
  9
$DIMAZIN
 70
     0
  9
$DIMDSEP
 70
    44
  9
$DIMATFIT
 70
     3
  9
$DIMFRAC
 70
     0
  9
$DIMLDRBLK
  1

  9
$DIMLUNIT
 70
     2
  9
$DIMLWD
 70
    -2
  9
$DIMLWE
 70
    -2
  9
$DIMTMOVE
 70
     0
  9
$LUNITS
 70
     2
  9
$LUPREC
 70
     4
  9
$SKETCHINC
 40
1.0
  9
$FILLETRAD
 40
10.0
  9
$AUNITS
 70
     0
  9
$AUPREC
 70
     0
  9
$MENU
  1
.
  9
$ELEVATION
 40
0.0
  9
$PELEVATION
 40
0.0
  9
$THICKNESS
 40
0.0
  9
$LIMCHECK
 70
     0
  9
$CHAMFERA
 40
10.0
  9
$CHAMFERB
 40
10.0
  9
$CHAMFERC
 40
20.0
  9
$CHAMFERD
 40
0.0
  9
$SKPOLY
 70
     0
  9
$TDCREATE
 40
2457562.54329228
  9
$TDUCREATE
 40
2457562.459958947
  9
$TDUPDATE
 40
2457562.543295011
  9
$TDUUPDATE
 40
2457562.459961678
  9
$TDINDWG
 40
0.0000000116
  9
$TDUSRTIMER
 40
0.0000000116
  9
$USRTIMER
 70
     1
  9
$ANGBASE
 50
0.0
  9
$ANGDIR
 70
     0
  9
$PDMODE
 70
     0
  9
$PDSIZE
 40
0.0
  9
$PLINEWID
 40
0.0
  9
$SPLFRAME
 70
     0
  9
$SPLINETYPE
 70
     6
  9
$SPLINESEGS
 70
     8
  9
$HANDSEED
  5
203
  9
$SURFTAB1
 70
     6
  9
$SURFTAB2
 70
     6
  9
$SURFTYPE
 70
     6
  9
$SURFU
 70
     6
  9
$SURFV
 70
     6
  9
$UCSBASE
  2

  9
$UCSNAME
  2

  9
$UCSORG
 10
0.0
 20
0.0
 30
0.0
  9
$UCSXDIR
 10
1.0
 20
0.0
 30
0.0
  9
$UCSYDIR
 10
0.0
 20
1.0
 30
0.0
  9
$UCSORTHOREF
  2

  9
$UCSORTHOVIEW
 70
     0
  9
$UCSORGTOP
 10
0.0
 20
0.0
 30
0.0
  9
$UCSORGBOTTOM
 10
0.0
 20
0.0
 30
0.0
  9
$UCSORGLEFT
 10
0.0
 20
0.0
 30
0.0
  9
$UCSORGRIGHT
 10
0.0
 20
0.0
 30
0.0
  9
$UCSORGFRONT
 10
0.0
 20
0.0
 30
0.0
  9
$UCSORGBACK
 10
0.0
 20
0.0
 30
0.0
  9
$PUCSBASE
  2

  9
$PUCSNAME
  2

  9
$PUCSORG
 10
0.0
 20
0.0
 30
0.0
  9
$PUCSXDIR
 10
1.0
 20
0.0
 30
0.0
  9
$PUCSYDIR
 10
0.0
 20
1.0
 30
0.0
  9
$PUCSORTHOREF
  2

  9
$PUCSORTHOVIEW
 70
     0
  9
$PUCSORGTOP
 10
0.0
 20
0.0
 30
0.0
  9
$PUCSORGBOTTOM
 10
0.0
 20
0.0
 30
0.0
  9
$PUCSORGLEFT
 10
0.0
 20
0.0
 30
0.0
  9
$PUCSORGRIGHT
 10
0.0
 20
0.0
 30
0.0
  9
$PUCSORGFRONT
 10
0.0
 20
0.0
 30
0.0
  9
$PUCSORGBACK
 10
0.0
 20
0.0
 30
0.0
  9
$USERI1
 70
     0
  9
$USERI2
 70
     0
  9
$USERI3
 70
     0
  9
$USERI4
 70
     0
  9
$USERI5
 70
     0
  9
$USERR1
 40
0.0
  9
$USERR2
 40
0.0
  9
$USERR3
 40
0.0
  9
$USERR4
 40
0.0
  9
$USERR5
 40
0.0
  9
$WORLDVIEW
 70
     1
  9
$SHADEDGE
 70
     3
  9
$SHADEDIF
 70
    70
  9
$TILEMODE
 70
     1
  9
$MAXACTVP
 70
    64
  9
$PINSBASE
 10
0.0
 20
0.0
 30
0.0
  9
$PLIMCHECK
 70
     0
  9
$PEXTMIN
 10
0.0
 20
0.0
 30
0.0
  9
$PEXTMAX
 10
210.0
 20
297.0
 30
0.0
  9
$PLIMMIN
 10
0.0
 20
0.0
  9
$PLIMMAX
 10
210.0
 20
297.0
  9
$UNITMODE
 70
     0
  9
$VISRETAIN
 70
     1
  9
$PLINEGEN
 70
     0
  9
$PSLTSCALE
 70
     1
  9
$TREEDEPTH
 70
  3020
  9
$CMLSTYLE
  2
Standard
  9
$CMLJUST
 70
     0
  9
$CMLSCALE
 40
20.0
  9
$PROXYGRAPHICS
 70
     1
  9
$MEASUREMENT
 70
     1
  9
$CELWEIGHT
370
    -1
  9
$ENDCAPS
280
     0
  9
$JOINSTYLE
280
     0
  9
$LWDISPLAY
290
     0
  9
$INSUNITS
 70
     4
  9
$HYPERLINKBASE
  1

  9
$STYLESHEET
  1

  9
$XEDIT
290
     1
  9
$CEPSNTYPE
380
     0
  9
$PSTYLEMODE
290
     1
  9
$FINGERPRINTGUID
  2
{52600488-45B3-4B29-8BDD-E1033F736B30}
  9
$VERSIONGUID
  2
{FAEB1C32-E019-11D5-929B-00C0DF256EC4}
  9
$EXTNAMES
290
     1
  9
$PSVPSCALE
 40
0.0
  9
$OLESTARTUP
290
     0
  0
ENDSEC
  0
SECTION
  2
CLASSES
  0
CLASS
  1
ACDBDICTIONARYWDFLT
  2
AcDbDictionaryWithDefault
  3
ObjectDBX Classes
 90
        0
280
     0
281
     0
  0
CLASS
  1
VISUALSTYLE
  2
AcDbVisualStyle
  3
ObjectDBX Classes
 90
     4095
280
     0
281
     0
  0
CLASS
  1
MATERIAL
  2
AcDbMaterial
  3
ObjectDBX Classes
 90
     1153
280
     0
281
     0
  0
CLASS
  1
DICTIONARYVAR
  2
AcDbDictionaryVar
  3
ObjectDBX Classes
 90
        0
280
     0
281
     0
  0
CLASS
  1
ACDBPLACEHOLDER
  2
AcDbPlaceHolder
  3
ObjectDBX Classes
 90
        0
280
     0
281
     0
  0
CLASS
  1
LAYOUT
  2
AcDbLayout
  3
ObjectDBX Classes
 90
        0
280
     0
281
     0
  0
ENDSEC
  0
SECTION
  2
TABLES
  0
TABLE
  2
VPORT
  5
8
330
0
100
AcDbSymbolTable
 70
     1
  0
VPORT
  5
29
330
8
100
AcDbSymbolTableRecord
100
AcDbViewportTableRecord
  2
*Active
 70
     0
 10
0.0
 20
0.0
 11
1.0
 21
1.0
 12
344.1869158879
 22
148.5
 13
0.0
 23
0.0
 14
10.0
 24
10.0
 15
10.0
 25
10.0
 16
0.0
 26
0.0
 36
1.0
 17
0.0
 27
0.0
 37
0.0
 40
297.0
 41
1.9729729729
 42
50.0
 43
0.0
 44
0.0
 50
0.0
 51
0.0
 71
     0
 72
   100
 73
     1
 74
     3
 75
     0
 76
     0
 77
     0
 78
     0
281
     0
 65
     1
110
0.0
120
0.0
130
0.0
111
1.0
121
0.0
131
0.0
112
0.0
122
1.0
132
0.0
 79
     0
146
0.0
  0
ENDTAB
  0
TABLE
  2
LTYPE
  5
5
330
0
100
AcDbSymbolTable
 70
     2
  0
LTYPE
  5
14
330
5
100
AcDbSymbolTableRecord
100
AcDbLinetypeTableRecord
  2
ByBlock
 70
     0
  3

 72
    65
 73
     0
 40
0.0
  0
LTYPE
  5
15
330
5
100
AcDbSymbolTableRecord
100
AcDbLinetypeTableRecord
  2
ByLayer
 70
     0
  3

 72
    65
 73
     0
 40
0.0
  0
LTYPE
  5
16
330
5
100
AcDbSymbolTableRecord
100
AcDbLinetypeTableRecord
  2
Continuous
 70
     0
  3
Solid line
 72
    65
 73
     0
 40
0.0
  0
LTYPE
  5
58
330
5
100
AcDbSymbolTableRecord
100
AcDbLinetypeTableRecord
  2
HIDDEN2
 70
     0
  3
Hidden (.5x) _ _ _ _ _ _ _ _ _ _ _ _ _ _ _ _ _ 
 72
    65
 73
     2
 40
4.7625
 49
3.175
 74
     4
 75
     0
340
0
 46
0.0
 50
0.0
 44
0.0
 45
0.0
 49
-1.5875
 74
     4
 75
     0
340
0
 46
0.0
 50
0.0
 44
0.0
 45
0.0
  0
ENDTAB
  0
TABLE
  2
LAYER
  5
2
330
0
100
AcDbSymbolTable
 70
     5
  0
LAYER
  5
10
330
2
100
AcDbSymbolTableRecord
100
AcDbLayerTableRecord
  2
0
 70
     0
 62
     7
  6
Continuous
370
    -3
390
F
  0
LAYER
  5
3F
330
2
100
AcDbSymbolTableRecord
100
AcDbLayerTableRecord
  2
SK2
 70
     0
 62
     7
  6
Continuous
370
    15
390
F
  0
LAYER
  5
40
330
2
100
AcDbSymbolTableRecord
100
AcDbLayerTableRecord
  2
SK1
 70
     0
 62
     4
  6
Continuous
370
    18
390
F
  0
LAYER
  5
57
330
2
100
AcDbSymbolTableRecord
100
AcDbLayerTableRecord
  2
SK3
 70
     0
 62
     1
  6
HIDDEN2
370
    15
390
F
  0
LAYER
  5
196
330
2
100
AcDbSymbolTableRecord
100
AcDbLayerTableRecord
  2
SK4
 70
     0
 62
     2
  6
Continuous
370
    13
390
F
  0
ENDTAB
  0
TABLE
  2
STYLE
  5
3
330
0
100
AcDbSymbolTable
 70
     2
  0
STYLE
  5
11
330
3
100
AcDbSymbolTableRecord
100
AcDbTextStyleTableRecord
  2
Standard
 70
     0
 40
0.0
 41
1.0
 50
0.0
 71
     0
 42
2.5
  3
txt
  4

  0
STYLE
  5
1AA
330
3
100
AcDbSymbolTableRecord
100
AcDbTextStyleTableRecord
  2
SEACAD_Solid_Edge_ISO
 70
     0
 40
0.0
 41
1.0
 50
0.0
 71
     0
 42
0.2
  3
seiso.ttf
  4

1001
ACAD
1000
Solid Edge ISO
1071
        0
  0
ENDTAB
  0
TABLE
  2
VIEW
  5
6
330
0
100
AcDbSymbolTable
 70
     0
  0
ENDTAB
  0
TABLE
  2
UCS
  5
7
330
0
100
AcDbSymbolTable
 70
     0
  0
ENDTAB
  0
TABLE
  2
APPID
  5
9
330
0
100
AcDbSymbolTable
 70
     1
  0
APPID
  5
12
330
9
100
AcDbSymbolTableRecord
100
AcDbRegAppTableRecord
  2
ACAD
 70
     0
  0
ENDTAB
  0
TABLE
  2
DIMSTYLE
  5
A
330
0
100
AcDbSymbolTable
 70
     3
100
AcDbDimStyleTable
  0
DIMSTYLE
105
27
330
A
100
AcDbSymbolTableRecord
100
AcDbDimStyleTableRecord
  2
ISO-25
 70
     0
 41
2.5
 42
0.625
 43
3.75
 44
1.25
 73
     0
 74
     0
 77
     1
 78
     8
140
2.5
141
2.5
143
0.0393700787
147
0.625
171
     3
172
     1
178
     0
271
     2
272
     2
274
     3
278
    44
283
     0
284
     8
340
11
  0
DIMSTYLE
105
198
330
A
100
AcDbSymbolTableRecord
100
AcDbDimStyleTableRecord
  2
Standard
 70
     0
178
     0
340
11
  0
DIMSTYLE
105
1AB
102
{ACAD_REACTORS
330
1AC
330
1B7
330
1C1
330
1CC
102
}
330
A
100
AcDbSymbolTableRecord
100
AcDbDimStyleTableRecord
  2
DIN
 70
     0
 41
3.5
 42
0.0
 44
1.75
 73
     0
 74
     0
 77
     1
 78
     8
140
3.5
141
1.75
147
1.75
172
     1
173
     1
178
     0
179
     3
271
     2
272
     2
278
    44
284
     8
340
1AA
343
1A5
344
1A5
  0
ENDTAB
  0
TABLE
  2
BLOCK_RECORD
  5
1
330
0
100
AcDbSymbolTable
 70
    10
  0
BLOCK_RECORD
  5
1F
330
1
100
AcDbSymbolTableRecord
100
AcDbBlockTableRecord
  2
*Model_Space
340
22
  0
BLOCK_RECORD
  5
1B
330
1
100
AcDbSymbolTableRecord
100
AcDbBlockTableRecord
  2
*Paper_Space
340
1E
  0
BLOCK_RECORD
  5
41
330
1
100
AcDbSymbolTableRecord
100
AcDbBlockTableRecord
  2
Nullpunkt
340
0
102
{BLKREFS
331
4B
102
}
  0
BLOCK_RECORD
  5
4C
330
1
100
AcDbSymbolTableRecord
100
AcDbBlockTableRecord
  2
Einfügepunkt
340
0
102
{BLKREFS
331
56
102
}
  0
BLOCK_RECORD
  5
199
330
1
100
AcDbSymbolTableRecord
100
AcDbBlockTableRecord
  2
_OBLIQUE
340
0
  0
BLOCK_RECORD
  5
19D
330
1
100
AcDbSymbolTableRecord
100
AcDbBlockTableRecord
  2
_DOT
340
0
  0
BLOCK_RECORD
  5
1A5
330
1
100
AcDbSymbolTableRecord
100
AcDbBlockTableRecord
  2
_SE_FILLED
340
0
  0
BLOCK_RECORD
  5
1AD
330
1
100
AcDbSymbolTableRecord
100
AcDbBlockTableRecord
  2
DMBLK69
340
0
  0
BLOCK_RECORD
  5
1B8
330
1
100
AcDbSymbolTableRecord
100
AcDbBlockTableRecord
  2
DMBLK70
340
0
  0
BLOCK_RECORD
  5
1C2
330
1
100
AcDbSymbolTableRecord
100
AcDbBlockTableRecord
  2
DMBLK71
340
0
  0
BLOCK_RECORD
  5
1CD
330
1
100
AcDbSymbolTableRecord
100
AcDbBlockTableRecord
  2
DMBLK72
340
0
  0
ENDTAB
  0
ENDSEC
  0
SECTION
  2
BLOCKS
  0
BLOCK
  5
20
330
1F
100
AcDbEntity
  8
0
100
AcDbBlockBegin
  2
*Model_Space
 70
     0
 10
0.0
 20
0.0
 30
0.0
  3
*Model_Space
  1

  0
ENDBLK
  5
21
330
1F
100
AcDbEntity
  8
0
100
AcDbBlockEnd
  0
BLOCK
  5
1C
330
1B
100
AcDbEntity
 67
     1
  8
0
100
AcDbBlockBegin
  2
*Paper_Space
 70
     0
 10
0.0
 20
0.0
 30
0.0
  3
*Paper_Space
  1

  0
ENDBLK
  5
1D
330
1B
100
AcDbEntity
 67
     1
  8
0
100
AcDbBlockEnd
  0
BLOCK
  5
49
330
41
100
AcDbEntity
  8
0
100
AcDbBlockBegin
  2
Nullpunkt
 70
     0
 10
0.0
 20
0.0
 30
0.0
  3
Nullpunkt
  1

  0
HATCH
  5
42
330
41
100
AcDbEntity
  8
SK2
  6
Continuous
 62
     7
100
AcDbHatch
 10
0.0
 20
0.0
 30
0.0
210
0.0
220
0.0
230
1.0
  2
SOLID
 70
     1
 71
     0
 91
        1
 92
        1
 93
        3
 72
     1
 10
-1.0
 20
0.0
 11
0.0000000000000009
 21
0.0
 72
     1
 10
0.0
 20
0.0
 11
0.0
 21
1.000000000000001
 72
     2
 10
0.0
 20
0.0
 40
1.0
 50
90.0
 51
180.0
 73
     1
 97
        0
 75
     0
 76
     1
 98
        0
  0
HATCH
  5
43
330
41
100
AcDbEntity
  8
SK2
  6
Continuous
 62
     7
100
AcDbHatch
 10
0.0
 20
0.0
 30
0.0
210
0.0
220
0.0
230
1.0
  2
SOLID
 70
     1
 71
     0
 91
        1
 92
        1
 93
        3
 72
     2
 10
0.0
 20
0.0
 40
1.0
 50
270.0
 51
360.0
 73
     1
 72
     1
 10
1.0
 20
0.0
 11
-0.0000000000000009
 21
0.0
 72
     1
 10
0.0
 20
0.0
 11
0.0
 21
-1.000000000000001
 97
        0
 75
     0
 76
     1
 98
        0
  0
CIRCLE
  5
44
330
41
100
AcDbEntity
  8
SK2
  6
Continuous
 62
     7
100
AcDbCircle
 10
0.0
 20
0.0
 30
0.0
 40
1.0
  0
LINE
  5
45
330
41
100
AcDbEntity
  8
SK1
  6
Continuous
100
AcDbLine
 10
-1.0
 20
0.0
 30
0.0
 11
1.0
 21
0.0
 31
0.0
  0
LINE
  5
46
330
41
100
AcDbEntity
  8
SK1
  6
Continuous
100
AcDbLine
 10
0.0
 20
1.0
 30
0.0
 11
0.0
 21
-1.0
 31
0.0
  0
POINT
  5
47
330
41
100
AcDbEntity
  8
SK1
  6
Continuous
100
AcDbPoint
 10
0.0
 20
0.0
 30
0.0
  0
POINT
  5
48
330
41
100
AcDbEntity
  8
SK1
  6
Continuous
100
AcDbPoint
 10
0.0
 20
0.0
 30
0.0
  0
ENDBLK
  5
4A
330
41
100
AcDbEntity
  8
0
100
AcDbBlockEnd
  0
BLOCK
  5
54
330
4C
100
AcDbEntity
  8
0
100
AcDbBlockBegin
  2
Einfügepunkt
 70
     0
 10
0.0
 20
0.0
 30
0.0
  3
Einfügepunkt
  1

  0
HATCH
  5
4D
330
4C
100
AcDbEntity
  8
SK2
  6
Continuous
 62
     7
100
AcDbHatch
 10
0.0
 20
0.0
 30
0.0
210
0.0
220
0.0
230
1.0
  2
SOLID
 70
     1
 71
     0
 91
        1
 92
        1
 93
        3
 72
     1
 10
-0.4502381196756744
 20
-0.0000000000000018
 11
0.0000000000000033
 21
-0.0000000000000018
 72
     1
 10
0.0
 20
-0.0000000000000018
 11
0.0
 21
0.4502381196756812
 72
     2
 10
0.0
 20
-0.0000000000000018
 40
0.4502381196756812
 50
90.0
 51
180.0
 73
     1
 97
        0
 75
     0
 76
     1
 98
        0
  0
HATCH
  5
4E
330
4C
100
AcDbEntity
  8
SK2
  6
Continuous
 62
     7
100
AcDbHatch
 10
0.0
 20
0.0
 30
0.0
210
0.0
220
0.0
230
1.0
  2
SOLID
 70
     1
 71
     0
 91
        1
 92
        1
 93
        3
 72
     2
 10
0.0
 20
-0.0000000000000018
 40
0.4502381196756812
 50
270.0
 51
360.0
 73
     1
 72
     1
 10
0.4502381196756815
 20
-0.0000000000000018
 11
0.0000000000000038
 21
-0.0000000000000018
 72
     1
 10
0.0
 20
-0.0000000000000018
 11
0.0
 21
-0.4502381196756812
 97
        0
 75
     0
 76
     1
 98
        0
  0
CIRCLE
  5
4F
330
4C
100
AcDbEntity
  8
SK2
  6
Continuous
 62
     7
100
AcDbCircle
 10
0.0
 20
0.0
 30
0.0
 40
0.4502381196756812
  0
LINE
  5
50
330
4C
100
AcDbEntity
  8
SK1
  6
Continuous
100
AcDbLine
 10
-0.4502381197
 20
0.0
 30
0.0
 11
0.4502381197
 21
0.0
 31
0.0
  0
LINE
  5
51
330
4C
100
AcDbEntity
  8
SK1
  6
Continuous
100
AcDbLine
 10
0.0
 20
0.4502381197
 30
0.0
 11
0.0
 21
-0.4502381197
 31
0.0
  0
POINT
  5
52
330
4C
100
AcDbEntity
  8
SK2
  6
Continuous
 62
     7
100
AcDbPoint
 10
0.0
 20
0.0
 30
0.0
  0
POINT
  5
53
330
4C
100
AcDbEntity
  8
SK2
  6
Continuous
 62
     7
100
AcDbPoint
 10
0.0
 20
0.0
 30
0.0
  0
ENDBLK
  5
55
330
4C
100
AcDbEntity
  8
0
100
AcDbBlockEnd
  0
BLOCK
  5
19A
330
199
100
AcDbEntity
  8
0
100
AcDbBlockBegin
  2
_OBLIQUE
 70
     0
 10
0.0
 20
0.0
 30
0.0
  3
_OBLIQUE
  1

  0
LINE
  5
19C
330
199
100
AcDbEntity
  8
0
  6
ByBlock
 62
     0
370
    -2
100
AcDbLine
 10
-0.5
 20
-0.5
 30
0.0
 11
0.5
 21
0.5
 31
0.0
  0
ENDBLK
  5
19B
330
199
100
AcDbEntity
  8
0
100
AcDbBlockEnd
  0
BLOCK
  5
19E
330
19D
100
AcDbEntity
  8
0
100
AcDbBlockBegin
  2
_DOT
 70
     0
 10
0.0
 20
0.0
 30
0.0
  3
_DOT
  1

  0
POLYLINE
  5
1A0
330
19D
100
AcDbEntity
  8
0
  6
ByBlock
 62
     0
100
AcDb2dPolyline
 66
     1
 10
0.0
 20
0.0
 30
0.0
 70
     1
 40
0.5
 41
0.5
  0
VERTEX
  5
1A2
330
1A0
100
AcDbEntity
  8
0
  6
ByBlock
 62
     0
100
AcDbVertex
100
AcDb2dVertex
 10
-0.25
 20
0.0
 30
0.0
 42
1.0
  0
VERTEX
  5
1A3
330
1A0
100
AcDbEntity
  8
0
  6
ByBlock
 62
     0
100
AcDbVertex
100
AcDb2dVertex
 10
0.25
 20
0.0
 30
0.0
 42
1.0
  0
SEQEND
  5
1A4
330
1A0
100
AcDbEntity
  8
0
  6
ByBlock
 62
     0
  0
LINE
  5
1A1
330
19D
100
AcDbEntity
  8
0
  6
ByBlock
 62
     0
370
    -2
100
AcDbLine
 10
-0.5
 20
0.0
 30
0.0
 11
-1.0
 21
0.0
 31
0.0
  0
ENDBLK
  5
19F
330
19D
100
AcDbEntity
  8
0
100
AcDbBlockEnd
  0
BLOCK
  5
1A8
330
1A5
100
AcDbEntity
  8
0
100
AcDbBlockBegin
  2
_SE_FILLED
 70
     0
 10
0.0
 20
0.0
 30
0.0
  3
_SE_FILLED
  1

  0
SOLID
  5
1A6
330
1A5
100
AcDbEntity
  8
0
 62
     0
100
AcDbTrace
 10
0.0
 20
0.0
 30
0.0
 11
-1.0
 21
-0.1665
 31
0.0
 12
-1.0
 22
0.1665
 32
0.0
 13
0.0
 23
0.0
 33
0.0
  0
LINE
  5
1A7
330
1A5
100
AcDbEntity
  8
0
 62
     0
100
AcDbLine
 10
0.0
 20
0.0
 30
0.0
 11
-1.0
 21
0.0
 31
0.0
  0
ENDBLK
  5
1A9
330
1A5
100
AcDbEntity
  8
0
100
AcDbBlockEnd
  0
BLOCK
  5
1B5
330
1AD
100
AcDbEntity
  8
0
100
AcDbBlockBegin
  2
DMBLK69
 70
     0
 10
0.0
 20
0.0
 30
0.0
  3
DMBLK69
  1

  0
HATCH
  5
1AE
330
1AD
100
AcDbEntity
  8
SK2
  6
Continuous
 62
   136
100
AcDbHatch
 10
0.0
 20
0.0
 30
0.0
210
0.0
220
0.0
230
1.0
  2
SOLID
 70
     1
 71
     0
 91
        1
 92
        1
 93
        3
 72
     1
 10
23.31225531521307
 20
6.500000207804112
 11
22.14558861253526
 21
6.500000207804112
 72
     1
 10
22.14558861253526
 20
6.500000207804112
 11
22.72892196387417
 21
3.000000099770693
 72
     1
 10
22.72892196387417
 20
3.000000099770692
 11
23.31225531521307
 21
6.500000207804112
 97
        0
 75
     0
 76
     1
 98
        0
  0
HATCH
  5
1AF
330
1AD
100
AcDbEntity
  8
SK2
  6
Continuous
 62
   136
100
AcDbHatch
 10
0.0
 20
0.0
 30
0.0
210
0.0
220
0.0
230
1.0
  2
SOLID
 70
     1
 71
     0
 91
        1
 92
        1
 93
        3
 72
     1
 10
23.31225531521307
 20
-6.500000008262728
 11
22.72892196387417
 21
-2.999999900229309
 72
     1
 10
22.72892196387417
 20
-2.999999900229309
 11
22.14558861253526
 21
-6.500000008262727
 72
     1
 10
22.14558861253526
 20
-6.500000008262728
 11
23.31225531521307
 21
-6.500000008262728
 97
        0
 75
     0
 76
     1
 98
        0
  0
LINE
  5
1B0
330
1AD
100
AcDbEntity
  8
SK2
  6
Continuous
 62
   136
100
AcDbLine
 10
12.46
 20
3.0000000998
 30
0.0
 11
24.4789220179
 21
3.0000000998
 31
0.0
  0
LINE
  5
1B1
330
1AD
100
AcDbEntity
  8
SK2
  6
Continuous
 62
   136
100
AcDbLine
 10
12.46
 20
-2.9999999002
 30
0.0
 11
24.4789220179
 21
-2.9999999002
 31
0.0
  0
LINE
  5
1B2
330
1AD
100
AcDbEntity
  8
SK2
  6
Continuous
 62
   136
100
AcDbLine
 10
22.7289219639
 20
17.3831037983
 30
0.0
 11
22.7289219639
 21
-10.0000001685
 31
0.0
  0
TEXT
  5
1B3
330
1AD
100
AcDbEntity
  8
SK2
  6
Continuous
 62
   136
100
AcDbText
 10
21.8539219639
 20
14.0103762262
 30
0.0
 40
3.5
  1
6
 50
90.0
  7
SEACAD_Solid_Edge_ISO
 11
18.3539219639
 21
14.0103762262
 31
0.0
100
AcDbText
 73
     3
  0
TEXT
  5
1B4
330
1AD
100
AcDbEntity
  8
SK2
  6
Continuous
 62
   136
100
AcDbText
 10
21.8539219639
 20
9.9376489534
 30
0.0
 40
3.5
  1
ø
 50
90.0
  7
SEACAD_Solid_Edge_ISO
 11
18.3539219639
 21
9.9376489534
 31
0.0
100
AcDbText
 73
     3
  0
ENDBLK
  5
1B6
330
1AD
100
AcDbEntity
  8
0
100
AcDbBlockEnd
  0
BLOCK
  5
1BF
330
1B8
100
AcDbEntity
  8
0
100
AcDbBlockBegin
  2
DMBLK70
 70
     0
 10
0.0
 20
0.0
 30
0.0
  3
DMBLK70
  1

  0
HATCH
  5
1B9
330
1B8
100
AcDbEntity
  8
SK2
  6
Continuous
 62
   136
100
AcDbHatch
 10
0.0
 20
0.0
 30
0.0
210
0.0
220
0.0
230
1.0
  2
SOLID
 70
     1
 71
     0
 91
        1
 92
        1
 93
        3
 72
     1
 10
3.500000108033424
 20
-24.82319585819974
 11
3.500000108033424
 21
-23.65652915552193
 72
     1
 10
3.500000108033424
 20
-23.65652915552193
 11
0.0000000000000053
 21
-24.23986250686083
 72
     1
 10
0.0000000000000052
 20
-24.23986250686083
 11
3.500000108033424
 21
-24.82319585819974
 97
        0
 75
     0
 76
     1
 98
        0
  0
HATCH
  5
1BA
330
1B8
100
AcDbEntity
  8
SK2
  6
Continuous
 62
   136
100
AcDbHatch
 10
0.0
 20
0.0
 30
0.0
210
0.0
220
0.0
230
1.0
  2
SOLID
 70
     1
 71
     0
 91
        1
 92
        1
 93
        3
 72
     1
 10
9.159999433904892
 20
-24.82319585819974
 11
12.65999954193831
 21
-24.23986250686083
 72
     1
 10
12.65999954193831
 20
-24.23986250686083
 11
9.159999433904892
 21
-23.65652915552193
 72
     1
 10
9.159999433904892
 20
-23.65652915552193
 11
9.159999433904892
 21
-24.82319585819974
 97
        0
 75
     0
 76
     1
 98
        0
  0
LINE
  5
1BB
330
1B8
100
AcDbEntity
  8
SK2
  6
Continuous
 62
   136
100
AcDbLine
 10
0.0
 20
-15.9946262665
 30
0.0
 11
0.0
 21
-25.9898625609
 31
0.0
  0
LINE
  5
1BC
330
1B8
100
AcDbEntity
  8
SK2
  6
Continuous
 62
   136
100
AcDbLine
 10
12.66
 20
-12.3330936204
 30
0.0
 11
12.66
 21
-25.9898625609
 31
0.0
  0
LINE
  5
1BD
330
1B8
100
AcDbEntity
  8
SK2
  6
Continuous
 62
   136
100
AcDbLine
 10
0.0
 20
-24.2398625069
 30
0.0
 11
12.6599995419
 21
-24.2398625069
 31
0.0
  0
TEXT
  5
1BE
330
1B8
100
AcDbEntity
  8
SK2
  6
Continuous
 62
   136
100
AcDbText
 10
2.0743179528
 20
-23.3648625069
 30
0.0
 40
3.5
  1
12,66
  7
SEACAD_Solid_Edge_ISO
 11
2.0743179528
 21
-19.8648625069
 31
0.0
100
AcDbText
 73
     3
  0
ENDBLK
  5
1C0
330
1B8
100
AcDbEntity
  8
0
100
AcDbBlockEnd
  0
BLOCK
  5
1CA
330
1C2
100
AcDbEntity
  8
0
100
AcDbBlockBegin
  2
DMBLK71
 70
     0
 10
0.0
 20
0.0
 30
0.0
  3
DMBLK71
  1

  0
HATCH
  5
1C3
330
1C2
100
AcDbEntity
  8
SK2
  6
Continuous
 62
   136
100
AcDbHatch
 10
0.0
 20
0.0
 30
0.0
210
0.0
220
0.0
230
1.0
  2
SOLID
 70
     1
 71
     0
 91
        1
 92
        1
 93
        3
 72
     1
 10
-35.05713997098307
 20
12.49462635804144
 11
-33.89047326830526
 21
12.49462635804144
 72
     1
 10
-33.89047326830526
 20
12.49462635804144
 11
-34.47380661964417
 21
15.99462646607486
 72
     1
 10
-34.47380661964417
 20
15.99462646607486
 11
-35.05713997098307
 21
12.49462635804144
 97
        0
 75
     0
 76
     1
 98
        0
  0
HATCH
  5
1C4
330
1C2
100
AcDbEntity
  8
SK2
  6
Continuous
 62
   136
100
AcDbHatch
 10
0.0
 20
0.0
 30
0.0
210
0.0
220
0.0
230
1.0
  2
SOLID
 70
     1
 71
     0
 91
        1
 92
        1
 93
        3
 72
     1
 10
-35.05713997098307
 20
-12.4946274832991
 11
-34.47380661964417
 21
-15.99462759133252
 72
     1
 10
-34.47380661964417
 20
-15.99462759133252
 11
-33.89047326830526
 21
-12.4946274832991
 72
     1
 10
-33.89047326830526
 20
-12.4946274832991
 11
-35.05713997098307
 21
-12.4946274832991
 97
        0
 75
     0
 76
     1
 98
        0
  0
LINE
  5
1C5
330
1C2
100
AcDbEntity
  8
SK2
  6
Continuous
 62
   136
100
AcDbLine
 10
0.0
 20
15.9946264661
 30
0.0
 11
-36.2238066737
 21
15.9946264661
 31
0.0
  0
LINE
  5
1C6
330
1C2
100
AcDbEntity
  8
SK2
  6
Continuous
 62
   136
100
AcDbLine
 10
0.0
 20
-15.9946262665
 30
0.0
 11
-36.2238066737
 21
-15.9946262665
 31
0.0
  0
LINE
  5
1C7
330
1C2
100
AcDbEntity
  8
SK2
  6
Continuous
 62
   136
100
AcDbLine
 10
-34.4738066196
 20
15.9946264661
 30
0.0
 11
-34.4738066196
 21
-15.9946275913
 31
0.0
  0
TEXT
  5
1C8
330
1C2
100
AcDbEntity
  8
SK2
  6
Continuous
 62
   136
100
AcDbText
 10
-35.3488066196
 20
0.0477267101
 30
0.0
 40
3.5
  1
32
 50
90.0
  7
SEACAD_Solid_Edge_ISO
 11
-38.8488066196
 21
0.0477267101
 31
0.0
100
AcDbText
 73
     3
  0
TEXT
  5
1C9
330
1C2
100
AcDbEntity
  8
SK2
  6
Continuous
 62
   136
100
AcDbText
 10
-35.3488066196
 20
-4.0250005626
 30
0.0
 40
3.5
  1
ø
 50
90.0
  7
SEACAD_Solid_Edge_ISO
 11
-38.8488066196
 21
-4.0250005626
 31
0.0
100
AcDbText
 73
     3
  0
ENDBLK
  5
1CB
330
1C2
100
AcDbEntity
  8
0
100
AcDbBlockEnd
  0
BLOCK
  5
1D4
330
1CD
100
AcDbEntity
  8
0
100
AcDbBlockBegin
  2
DMBLK72
 70
     0
 10
0.0
 20
0.0
 30
0.0
  3
DMBLK72
  1

  0
HATCH
  5
1CE
330
1CD
100
AcDbEntity
  8
SK2
  6
Continuous
 62
   136
100
AcDbHatch
 10
0.0
 20
0.0
 30
0.0
210
0.0
220
0.0
230
1.0
  2
SOLID
 70
     1
 71
     0
 91
        1
 92
        1
 93
        3
 72
     1
 10
9.159999891970228
 20
23.94240009890946
 11
9.159999891970228
 21
22.77573339623165
 72
     1
 10
9.159999891970228
 20
22.77573339623165
 11
12.66000000000365
 21
23.35906674757055
 72
     1
 10
12.66000000000365
 20
23.35906674757055
 11
9.159999891970228
 21
23.94240009890946
 97
        0
 75
     0
 76
     1
 98
        0
  0
HATCH
  5
1CF
330
1CD
100
AcDbEntity
  8
SK2
  6
Continuous
 62
   136
100
AcDbHatch
 10
0.0
 20
0.0
 30
0.0
210
0.0
220
0.0
230
1.0
  2
SOLID
 70
     1
 71
     0
 91
        1
 92
        1
 93
        3
 72
     1
 10
-23.83999899789326
 20
23.94240009890946
 11
-27.33999910592668
 21
23.35906674757055
 72
     1
 10
-27.33999910592668
 20
23.35906674757055
 11
-23.83999899789326
 21
22.77573339623165
 72
     1
 10
-23.83999899789326
 20
22.77573339623165
 11
-23.83999899789326
 21
23.94240009890946
 97
        0
 75
     0
 76
     1
 98
        0
  0
LINE
  5
1D0
330
1CD
100
AcDbEntity
  8
SK2
  6
Continuous
 62
   136
100
AcDbLine
 10
12.66
 20
12.4861671929
 30
0.0
 11
12.66
 21
25.1090668016
 31
0.0
  0
LINE
  5
1D1
330
1CD
100
AcDbEntity
  8
SK2
  6
Continuous
 62
   136
100
AcDbLine
 10
-27.34
 20
10.289979749
 30
0.0
 11
-27.34
 21
25.1090668016
 31
0.0
  0
LINE
  5
1D2
330
1CD
100
AcDbEntity
  8
SK2
  6
Continuous
 62
   136
100
AcDbLine
 10
12.66
 20
23.3590667476
 30
0.0
 11
-27.3399991059
 21
23.3590667476
 31
0.0
  0
TEXT
  5
1D3
330
1CD
100
AcDbEntity
  8
SK2
  6
Continuous
 62
   136
100
AcDbText
 10
-9.4081813711
 20
24.2340667476
 30
0.0
 40
3.5
  1
40
  7
SEACAD_Solid_Edge_ISO
 11
-9.4081813711
 21
27.7340667476
 31
0.0
100
AcDbText
 73
     3
  0
ENDBLK
  5
1D5
330
1CD
100
AcDbEntity
  8
0
100
AcDbBlockEnd
  0
ENDSEC
  0
SECTION
  2
ENTITIES
  0
INSERT
  5
4B
330
1F
100
AcDbEntity
  8
SK2
 62
     7
100
AcDbBlockReference
  2
Nullpunkt
 10
0.0
 20
0.0000000998
 30
0.0
  0
INSERT
  5
56
330
1F
100
AcDbEntity
  8
SK2
 62
     7
100
AcDbBlockReference
  2
Einfügepunkt
 10
12.66
 20
0.0000000998
 30
0.0
  0
LINE
  5
59
330
1F
100
AcDbEntity
  8
SK3
100
AcDbLine
 10
-26.34
 20
7.4893258371
 30
0.0
 11
-27.34
 21
8.0674400513
 31
0.0
  0
LINE
  5
5A
330
1F
100
AcDbEntity
  8
SK1
  6
Continuous
100
AcDbLine
 10
7.16
 20
16.212886827
 30
0.0
 11
7.5559292144
 21
16.4415452583
 31
0.0
  0
LINE
  5
5B
330
1F
100
AcDbEntity
  8
SK1
  6
Continuous
100
AcDbLine
 10
7.5559292144
 20
16.4415452583
 30
0.0
 11
10.7131573125
 21
14.61811213
 31
0.0
  0
SPLINE
  5
5C
330
1F
100
AcDbEntity
  8
SK1
  6
Continuous
100
AcDbSpline
210
0.0
220
0.0
230
1.0
 70
     8
 71
     3
 72
    10
 73
     6
 74
     0
 42
0.0000000310334546
 43
0.0000000001
 12
1.0
 22
0.0
 32
0.0
 13
1.0
 23
0.0
 33
0.0
 40
0.0
 40
0.0
 40
0.0
 40
0.0
 40
0.5
 40
0.5
 40
1.0
 40
1.0
 40
1.0
 40
1.0
 10
7.160000000006033
 20
14.79459370689596
 30
0.0
 10
7.160000000003549
 20
14.74243385538172
 30
0.0
 10
7.138792746353437
 20
14.69054103972621
 30
0.0
 10
7.064184492782823
 20
14.61583394536709
 30
0.0
 10
7.012831382491556
 20
14.59451961909632
 30
0.0
 10
6.960000000003644
 20
14.59451961909712
 30
0.0
  0
LINE
  5
5D
330
1F
100
AcDbEntity
  8
SK1
  6
Continuous
100
AcDbLine
 10
6.96
 20
14.5945196191
 30
0.0
 11
3.76
 21
14.5945196191
 31
0.0
  0
SPLINE
  5
5E
330
1F
100
AcDbEntity
  8
SK1
  6
Continuous
100
AcDbSpline
210
0.0
220
0.0
230
1.0
 70
     8
 71
     3
 72
    10
 73
     6
 74
     0
 42
0.0000000310413088
 43
0.0000000001
 12
1.0
 22
0.0
 32
0.0
 13
1.0
 23
0.0
 33
0.0
 40
0.0
 40
0.0
 40
0.0
 40
0.0
 40
0.5
 40
0.5
 40
1.0
 40
1.0
 40
1.0
 40
1.0
 10
3.760000000003639
 20
14.59451961909712
 30
0.0
 10
3.70712883429203
 20
14.59451961909712
 30
0.0
 10
3.655412931725222
 20
14.61623959978508
 30
0.0
 10
3.581619568487656
 20
14.69012563340696
 30
0.0
 10
3.560000000003637
 20
14.74238849563576
 30
0.0
 10
3.560000000003644
 20
14.79459370689624
 30
0.0
  0
LINE
  5
5F
330
1F
100
AcDbEntity
  8
SK1
  6
Continuous
100
AcDbLine
 10
3.56
 20
16.4951509024
 30
0.0
 11
-27.0817519303
 21
12.1870201126
 31
0.0
  0
SPLINE
  5
60
330
1F
100
AcDbEntity
  8
SK1
  6
Continuous
100
AcDbSpline
210
0.0
220
0.0
230
1.0
 70
     8
 71
     3
 72
    10
 73
     6
 74
     0
 42
0.0000000228012562
 43
0.0000000001
 12
1.0
 22
0.0
 32
0.0
 13
1.0
 23
0.0
 33
0.0
 40
0.0
 40
0.0
 40
0.0
 40
0.0
 40
0.5
 40
0.5
 40
1.0
 40
1.0
 40
1.0
 40
1.0
 10
-27.08175193028437
 20
12.18702011259952
 30
0.0
 10
-27.15329203370893
 20
12.17696039260164
 30
0.0
 10
-27.21937890303489
 20
12.14086400426045
 30
0.0
 10
-27.31353686662632
 20
12.03243828152367
 30
0.0
 10
-27.33999999999635
 20
11.96126551611524
 30
0.0
 10
-27.33999999999635
 20
11.88977571875772
 30
0.0
  0
LINE
  5
61
330
1F
100
AcDbEntity
  8
SK3
100
AcDbLine
 10
-26.34
 20
7.4893258371
 30
0.0
 11
-13.04
 21
7.4893258371
 31
0.0
  0
LINE
  5
62
330
1F
100
AcDbEntity
  8
SK3
100
AcDbLine
 10
-13.04
 20
7.4893258371
 30
0.0
 11
-12.34
 21
7.0845717528
 31
0.0
  0
ARC
  5
63
330
1F
100
AcDbEntity
  8
SK3
100
AcDbCircle
 10
12.4665871819
 20
3.0933956007
 30
0.0
 40
0.1935429280591582
100
AcDbArc
 50
268.0495767723
 51
357.898988049
  0
ARC
  5
64
330
1F
100
AcDbEntity
  8
SK3
100
AcDbCircle
 10
12.4665871819
 20
2.7872488548
 30
0.0
 40
0.1935429280631202
100
AcDbArc
 50
268.0495767734
 51
357.8989880486
  0
LINE
  5
65
330
1F
100
AcDbEntity
  8
SK3
100
AcDbLine
 10
-11.9935898385
 20
2.8999648016
 30
0.0
 11
-11.9935898385
 21
3.0000000998
 31
0.0
  0
LINE
  5
66
330
1F
100
AcDbEntity
  8
SK3
100
AcDbLine
 10
-12.34
 20
6.6983642196
 30
0.0
 11
-12.34
 21
7.0845717528
 31
0.0
  0
LINE
  5
67
330
1F
100
AcDbEntity
  8
SK3
100
AcDbLine
 10
-13.04
 20
7.0723082338
 30
0.0
 11
-13.04
 21
7.4893258371
 31
0.0
  0
LINE
  5
68
330
1F
100
AcDbEntity
  8
SK1
  6
Continuous
100
AcDbLine
 10
3.56
 20
15.3926056849
 30
0.0
 11
3.56
 21
16.4951509024
 31
0.0
  0
LINE
  5
69
330
1F
100
AcDbEntity
  8
SK1
  6
Continuous
100
AcDbLine
 10
12.66
 20
12.4861671929
 30
0.0
 11
12.66
 21
13.3552360519
 31
0.0
  0
LINE
  5
6A
330
1F
100
AcDbEntity
  8
SK1
  6
Continuous
100
AcDbLine
 10
12.535
 20
12.6862813231
 30
0.0
 11
12.535
 21
13.5717424029
 31
0.0
  0
LINE
  5
6B
330
1F
100
AcDbEntity
  8
SK1
  6
Continuous
100
AcDbLine
 10
7.5559292144
 20
15.3430805276
 30
0.0
 11
7.5559292144
 21
16.4415452583
 31
0.0
  0
LINE
  5
6C
330
1F
100
AcDbEntity
  8
SK1
  6
Continuous
100
AcDbLine
 10
7.16
 20
15.1318276829
 30
0.0
 11
7.16
 21
16.212886827
 31
0.0
  0
LINE
  5
6D
330
1F
100
AcDbEntity
  8
SK1
  6
Continuous
100
AcDbLine
 10
3.76
 20
13.6366513435
 30
0.0
 11
3.76
 21
14.5945196191
 31
0.0
  0
LINE
  5
6E
330
1F
100
AcDbEntity
  8
SK1
  6
Continuous
100
AcDbLine
 10
6.96
 20
13.6366513435
 30
0.0
 11
6.96
 21
14.5945196191
 31
0.0
  0
SPLINE
  5
6F
330
1F
100
AcDbEntity
  8
SK1
  6
Continuous
100
AcDbSpline
210
0.0
220
0.0
230
1.0
 70
     8
 71
     3
 72
    11
 73
     7
 74
     0
 42
0.0000000003966678
 43
0.0000000001
 12
1.0
 22
0.0
 32
0.0
 13
1.0
 23
0.0
 33
0.0
 40
0.0
 40
0.0
 40
0.0
 40
0.0
 40
0.8944905076126839
 40
0.8944905076126839
 40
0.8944905076126839
 40
1.0
 40
1.0
 40
1.0
 40
1.0
 10
3.560000000003644
 20
15.08645893901949
 30
0.0
 10
-3.894099057539044
 20
14.11831331191745
 30
0.0
 10
-11.34819047405357
 20
13.15011746487211
 30
0.0
 10
-18.80226718542666
 20
12.18182499429
 30
0.0
 10
-19.68151167532726
 20
12.06761020252745
 30
0.0
 10
-20.56075595309284
 20
11.95339401685861
 30
0.0
 10
-21.43999999999636
 20
11.83917631429039
 30
0.0
  0
LINE
  5
70
330
1F
100
AcDbEntity
  8
SK3
100
AcDbLine
 10
-13.04
 20
6.7661614879
 30
0.0
 11
-12.34
 21
6.3922174737
 31
0.0
  0
ARC
  5
71
330
1F
100
AcDbEntity
  8
SK3
100
AcDbCircle
 10
-420.0371243487
 20
-755.5722534634
 30
0.0
 40
860.9967003759426
100
AcDbArc
 50
61.7109470378
 51
61.7371225711
  0
LINE
  5
72
330
1F
100
AcDbEntity
  8
SK3
100
AcDbLine
 10
-11.9935898385
 20
2.5938180557
 30
0.0
 11
12.46
 21
2.5938180557
 31
0.0
  0
ARC
  5
73
330
1F
100
AcDbEntity
  8
SK1
  6
Continuous
100
AcDbCircle
 10
6.9672917024
 20
13.5232363546
 30
0.0
 40
0.1928696427173473
100
AcDbArc
 50
267.8333378165
 51
357.6562360179
  0
LINE
  5
74
330
1F
100
AcDbEntity
  8
SK1
  6
Continuous
100
AcDbLine
 10
6.96
 20
13.3305045976
 30
0.0
 11
3.76
 21
13.3305045976
 31
0.0
  0
ARC
  5
75
330
1F
100
AcDbEntity
  8
SK1
  6
Continuous
100
AcDbCircle
 10
3.7527067147
 20
13.5232346419
 30
0.0
 40
0.1928679911219384
100
AcDbArc
 50
182.3432748506
 51
272.1671513149
  0
LINE
  5
76
330
1F
100
AcDbEntity
  8
SK1
  6
Continuous
100
AcDbLine
 10
7.16
 20
15.1318276829
 30
0.0
 11
7.5559292144
 21
15.3430805276
 31
0.0
  0
SPLINE
  5
77
330
1F
100
AcDbEntity
  8
SK1
  6
Continuous
100
AcDbSpline
210
0.0
220
0.0
230
1.0
 70
     8
 71
     3
 72
     8
 73
     4
 74
     0
 42
0.0000000017719323
 43
0.0000000001
 12
1.0
 22
0.0
 32
0.0
 13
1.0
 23
0.0
 33
0.0
 40
0.0
 40
0.0
 40
0.0
 40
0.0
 40
1.0
 40
1.0
 40
1.0
 40
1.0
 10
7.555929214355779
 20
15.34308052756404
 30
0.0
 10
9.21564550286064
 20
14.45752242276761
 30
0.0
 10
10.87534129109683
 20
13.57193150545734
 30
0.0
 10
12.53500000000364
 20
12.68628132307892
 30
0.0
  0
ARC
  5
78
330
1F
100
AcDbEntity
  8
SK1
  6
Continuous
100
AcDbCircle
 10
12.4315486951
 20
12.4825638464
 30
0.0
 40
0.2284797207612091
100
AcDbArc
 50
0.9036474123
 51
63.0777414979
  0
LINE
  5
79
330
1F
100
AcDbEntity
  8
SK1
  6
Continuous
100
AcDbLine
 10
12.66
 20
12.4861671929
 30
0.0
 11
12.66
 21
12.180020447
 31
0.0
  0
LINE
  5
7A
330
1F
100
AcDbEntity
  8
SK1
  6
Continuous
100
AcDbLine
 10
7.16
 20
14.825680937
 30
0.0
 11
7.5559292144
 21
15.0369337817
 31
0.0
  0
SPLINE
  5
7B
330
1F
100
AcDbEntity
  8
SK1
  6
Continuous
100
AcDbSpline
210
0.0
220
0.0
230
1.0
 70
     8
 71
     3
 72
     8
 73
     4
 74
     0
 42
0.0000000017719323
 43
0.0000000001
 12
1.0
 22
0.0
 32
0.0
 13
1.0
 23
0.0
 33
0.0
 40
0.0
 40
0.0
 40
0.0
 40
0.0
 40
1.0
 40
1.0
 40
1.0
 40
1.0
 10
7.555929214355777
 20
15.03693378167197
 30
0.0
 10
9.21564550286064
 20
14.15137567687553
 30
0.0
 10
10.87534129109683
 20
13.26578475956527
 30
0.0
 10
12.53500000000364
 20
12.38013457718685
 30
0.0
  0
ARC
  5
7C
330
1F
100
AcDbEntity
  8
SK1
  6
Continuous
100
AcDbCircle
 10
12.4315486951
 20
12.1764171005
 30
0.0
 40
0.2284797207612091
100
AcDbArc
 50
0.9036474123
 51
63.0777414979
  0
LINE
  5
7D
330
1F
100
AcDbEntity
  8
SK1
  6
Continuous
100
AcDbLine
 10
3.56
 20
15.086458939
 30
0.0
 11
3.56
 21
15.3926056849
 31
0.0
  0
SPLINE
  5
7E
330
1F
100
AcDbEntity
  8
SK1
  6
Continuous
100
AcDbSpline
210
0.0
220
0.0
230
1.0
 70
     8
 71
     3
 72
    11
 73
     7
 74
     0
 42
0.0000000003966678
 43
0.0000000001
 12
1.0
 22
0.0
 32
0.0
 13
1.0
 23
0.0
 33
0.0
 40
0.0
 40
0.0
 40
0.0
 40
0.0
 40
0.8944905076126841
 40
0.8944905076126841
 40
0.8944905076126841
 40
1.0
 40
1.0
 40
1.0
 40
1.0
 10
3.560000000003644
 20
15.39260568491156
 30
0.0
 10
-3.894099057539044
 20
14.42446005780952
 30
0.0
 10
-11.34819047405357
 20
13.45626421076418
 30
0.0
 10
-18.80226718542666
 20
12.48797174018207
 30
0.0
 10
-19.68151167532726
 20
12.37375694841952
 30
0.0
 10
-20.56075595309283
 20
12.25954076275067
 30
0.0
 10
-21.43999999999636
 20
12.14532306018246
 30
0.0
  0
LINE
  5
7F
330
1F
100
AcDbEntity
  8
SK3
100
AcDbLine
 10
-13.04
 20
7.0723082338
 30
0.0
 11
-12.34
 21
6.6983642196
 31
0.0
  0
LINE
  5
80
330
1F
100
AcDbEntity
  8
SK3
100
AcDbLine
 10
-12.34
 20
6.6983642196
 30
0.0
 11
-12.34
 21
6.3922174737
 31
0.0
  0
ARC
  5
81
330
1F
100
AcDbEntity
  8
SK3
100
AcDbCircle
 10
-420.0371243518
 20
-755.2661067233
 30
0.0
 40
860.9967003825496
100
AcDbArc
 50
61.7109470378
 51
61.7371225711
  0
LINE
  5
82
330
1F
100
AcDbEntity
  8
SK3
100
AcDbLine
 10
-11.9935898385
 20
2.8999648016
 30
0.0
 11
12.46
 21
2.8999648016
 31
0.0
  0
LINE
  5
83
330
1F
100
AcDbEntity
  8
SK1
  6
Continuous
100
AcDbLine
 10
7.16
 20
15.1318276829
 30
0.0
 11
7.16
 21
14.825680937
 31
0.0
  0
ARC
  5
84
330
1F
100
AcDbEntity
  8
SK1
  6
Continuous
100
AcDbCircle
 10
6.9672917024
 20
13.8293831005
 30
0.0
 40
0.1928696427173467
100
AcDbArc
 50
267.8333378165
 51
357.6562360179
  0
LINE
  5
85
330
1F
100
AcDbEntity
  8
SK1
  6
Continuous
100
AcDbLine
 10
6.96
 20
13.6366513435
 30
0.0
 11
3.76
 21
13.6366513435
 31
0.0
  0
ARC
  5
86
330
1F
100
AcDbEntity
  8
SK1
  6
Continuous
100
AcDbCircle
 10
3.7527067147
 20
13.8293813878
 30
0.0
 40
0.1928679911219363
100
AcDbArc
 50
182.3432748506
 51
272.1671513149
  0
LINE
  5
87
330
1F
100
AcDbEntity
  8
SK3
100
AcDbLine
 10
-26.34
 20
5.5785958276
 30
0.0
 11
-26.34
 21
7.4893258371
 31
0.0
  0
LINE
  5
88
330
1F
100
AcDbEntity
  8
SK3
100
AcDbLine
 10
-26.34
 20
5.5785958276
 30
0.0
 11
-27.34
 21
5.9873843088
 31
0.0
  0
LINE
  5
89
330
1F
100
AcDbEntity
  8
SK3
100
AcDbLine
 10
-26.34
 20
5.0129104027
 30
0.0
 11
-27.34
 21
5.4216988838
 31
0.0
  0
LINE
  5
8A
330
1F
100
AcDbEntity
  8
SK3
100
AcDbLine
 10
-12.34
 20
5.2923914699
 30
0.0
 11
-12.34
 21
6.3922174737
 31
0.0
  0
LINE
  5
8B
330
1F
100
AcDbEntity
  8
SK3
100
AcDbLine
 10
-13.04
 20
5.5785958276
 30
0.0
 11
-13.04
 21
6.7661614879
 31
0.0
  0
LINE
  5
8C
330
1F
100
AcDbEntity
  8
SK1
  6
Continuous
100
AcDbLine
 10
-27.34
 20
8.6901837792
 30
0.0
 11
-27.34
 21
11.8897757188
 31
0.0
  0
LINE
  5
8D
330
1F
100
AcDbEntity
  8
SK1
  6
Continuous
100
AcDbLine
 10
-27.0817519303
 20
8.9003673058
 30
0.0
 11
-27.0817519303
 21
12.1870201126
 31
0.0
  0
LINE
  5
8E
330
1F
100
AcDbEntity
  8
SK1
  6
Continuous
100
AcDbLine
 10
3.56
 20
11.9466758014
 30
0.0
 11
3.56
 21
15.086458939
 31
0.0
  0
LINE
  5
8F
330
1F
100
AcDbEntity
  8
SK1
  6
Continuous
100
AcDbLine
 10
7.5559292144
 20
11.908770887
 30
0.0
 11
7.5559292144
 21
15.0369337817
 31
0.0
  0
LINE
  5
90
330
1F
100
AcDbEntity
  8
SK1
  6
Continuous
100
AcDbLine
 10
7.16
 20
11.7470849597
 30
0.0
 11
7.16
 21
14.825680937
 31
0.0
  0
LINE
  5
91
330
1F
100
AcDbEntity
  8
SK1
  6
Continuous
100
AcDbLine
 10
3.76
 20
10.6027265325
 30
0.0
 11
3.76
 21
13.3305045976
 31
0.0
  0
LINE
  5
92
330
1F
100
AcDbEntity
  8
SK1
  6
Continuous
100
AcDbLine
 10
6.96
 20
10.6027265325
 30
0.0
 11
6.96
 21
13.3305045976
 31
0.0
  0
LINE
  5
93
330
1F
100
AcDbEntity
  8
SK1
  6
Continuous
100
AcDbLine
 10
7.16
 20
11.1813995347
 30
0.0
 11
7.5559292144
 21
11.3430854621
 31
0.0
  0
LINE
  5
94
330
1F
100
AcDbEntity
  8
SK1
  6
Continuous
100
AcDbLine
 10
7.5559292144
 20
11.3430854621
 30
0.0
 11
10.7131573125
 21
10.053723532
 31
0.0
  0
LINE
  5
95
330
1F
100
AcDbEntity
  8
SK1
  6
Continuous
100
AcDbLine
 10
7.16
 20
11.7470849597
 30
0.0
 11
7.16
 21
11.1813995347
 31
0.0
  0
SPLINE
  5
96
330
1F
100
AcDbEntity
  8
SK1
  6
Continuous
100
AcDbSpline
210
0.0
220
0.0
230
1.0
 70
     8
 71
     3
 72
    10
 73
     6
 74
     0
 42
0.000000036097062
 43
0.0000000001
 12
1.0
 22
0.0
 32
0.0
 13
1.0
 23
0.0
 33
0.0
 40
0.0
 40
0.0
 40
0.0
 40
0.0
 40
0.5
 40
0.5
 40
1.0
 40
1.0
 40
1.0
 40
1.0
 10
7.160000000006033
 20
10.74420027674273
 30
0.0
 10
7.160000000003549
 20
10.70731769203133
 30
0.0
 10
7.138792746353439
 20
10.67062393018645
 30
0.0
 10
7.064184492782819
 20
10.61779803716238
 30
0.0
 10
7.012831382491554
 20
10.60272653251989
 30
0.0
 10
6.960000000003644
 20
10.60272653252045
 30
0.0
  0
LINE
  5
97
330
1F
100
AcDbEntity
  8
SK1
  6
Continuous
100
AcDbLine
 10
6.96
 20
10.6027265325
 30
0.0
 11
3.76
 21
10.6027265325
 31
0.0
  0
SPLINE
  5
98
330
1F
100
AcDbEntity
  8
SK1
  6
Continuous
100
AcDbSpline
210
0.0
220
0.0
230
1.0
 70
     8
 71
     3
 72
    10
 73
     6
 74
     0
 42
0.0000000361056729
 43
0.0000000001
 12
1.0
 22
0.0
 32
0.0
 13
1.0
 23
0.0
 33
0.0
 40
0.0
 40
0.0
 40
0.0
 40
0.0
 40
0.5
 40
0.5
 40
1.0
 40
1.0
 40
1.0
 40
1.0
 10
3.760000000003639
 20
10.60272653252045
 30
0.0
 10
3.70712883429203
 20
10.60272653252045
 30
0.0
 10
3.65541293172522
 20
10.61808487815216
 30
0.0
 10
3.581619568487656
 20
10.67033019356116
 30
0.0
 10
3.560000000003637
 20
10.70728561784736
 30
0.0
 10
3.560000000003644
 20
10.74420027674293
 30
0.0
  0
LINE
  5
99
330
1F
100
AcDbEntity
  8
SK1
  6
Continuous
100
AcDbLine
 10
3.56
 20
11.3809903765
 30
0.0
 11
3.56
 21
11.9466758014
 31
0.0
  0
LINE
  5
9A
330
1F
100
AcDbEntity
  8
SK1
  6
Continuous
100
AcDbLine
 10
3.56
 20
11.9466758014
 30
0.0
 11
-27.0817519303
 21
8.9003673058
 31
0.0
  0
SPLINE
  5
9B
330
1F
100
AcDbEntity
  8
SK1
  6
Continuous
100
AcDbSpline
210
0.0
220
0.0
230
1.0
 70
     8
 71
     3
 72
    10
 73
     6
 74
     0
 42
0.0000000269126471
 43
0.0000000001
 12
1.0
 22
0.0
 32
0.0
 13
1.0
 23
0.0
 33
0.0
 40
0.0
 40
0.0
 40
0.0
 40
0.0
 40
0.5
 40
0.5
 40
1.0
 40
1.0
 40
1.0
 40
1.0
 10
-27.08175193028437
 20
8.900367305772733
 30
0.0
 10
-27.15329203370893
 20
8.8932540095454
 30
0.0
 10
-27.21937890303489
 20
8.867730008572995
 30
0.0
 10
-27.31353686662632
 20
8.791061444770772
 30
0.0
 10
-27.33999999999635
 20
8.740734699714665
 30
0.0
 10
-27.33999999999635
 20
8.690183779217517
 30
0.0
  0
LINE
  5
9C
330
1F
100
AcDbEntity
  8
SK1
  6
Continuous
100
AcDbLine
 10
-27.34
 20
8.6901837792
 30
0.0
 11
-27.34
 21
8.1244983543
 31
0.0
  0
LINE
  5
9D
330
1F
100
AcDbEntity
  8
SK3
100
AcDbLine
 10
-26.34
 20
5.5785958276
 30
0.0
 11
-13.04
 21
5.5785958276
 31
0.0
  0
LINE
  5
9E
330
1F
100
AcDbEntity
  8
SK3
100
AcDbLine
 10
-13.04
 20
5.5785958276
 30
0.0
 11
-12.34
 21
5.2923914699
 31
0.0
  0
LINE
  5
9F
330
1F
100
AcDbEntity
  8
SK3
100
AcDbLine
 10
-12.34
 20
5.2923914699
 30
0.0
 11
-12.34
 21
4.726706045
 31
0.0
  0
SPLINE
  5
A0
330
1F
100
AcDbEntity
  8
SK1
  6
Continuous
100
AcDbSpline
210
0.0
220
0.0
230
1.0
 70
     8
 71
     3
 72
    10
 73
     6
 74
     0
 42
0.000000036097062
 43
0.0000000001
 12
1.0
 22
0.0
 32
0.0
 13
1.0
 23
0.0
 33
0.0
 40
0.0
 40
0.0
 40
0.0
 40
0.0
 40
0.5
 40
0.5
 40
1.0
 40
1.0
 40
1.0
 40
1.0
 10
7.160000000006033
 20
10.17851485179349
 30
0.0
 10
7.160000000003549
 20
10.14163226708209
 30
0.0
 10
7.138792746353437
 20
10.10493850523721
 30
0.0
 10
7.064184492782819
 20
10.05211261221314
 30
0.0
 10
7.012831382491554
 20
10.03704110757065
 30
0.0
 10
6.960000000003644
 20
10.03704110757121
 30
0.0
  0
LINE
  5
A1
330
1F
100
AcDbEntity
  8
SK1
  6
Continuous
100
AcDbLine
 10
6.96
 20
10.0370411076
 30
0.0
 11
3.76
 21
10.0370411076
 31
0.0
  0
SPLINE
  5
A2
330
1F
100
AcDbEntity
  8
SK1
  6
Continuous
100
AcDbSpline
210
0.0
220
0.0
230
1.0
 70
     8
 71
     3
 72
    10
 73
     6
 74
     0
 42
0.0000000361056729
 43
0.0000000001
 12
1.0
 22
0.0
 32
0.0
 13
1.0
 23
0.0
 33
0.0
 40
0.0
 40
0.0
 40
0.0
 40
0.0
 40
0.5
 40
0.5
 40
1.0
 40
1.0
 40
1.0
 40
1.0
 10
3.760000000003639
 20
10.03704110757121
 30
0.0
 10
3.70712883429203
 20
10.03704110757121
 30
0.0
 10
3.655412931725222
 20
10.05239945320292
 30
0.0
 10
3.581619568487656
 20
10.10464476861192
 30
0.0
 10
3.560000000003637
 20
10.14160019289812
 30
0.0
 10
3.560000000003644
 20
10.17851485179369
 30
0.0
  0
LINE
  5
A3
330
1F
100
AcDbEntity
  8
SK1
  6
Continuous
100
AcDbLine
 10
3.56
 20
11.3809903765
 30
0.0
 11
-27.0817519303
 21
8.3346818808
 31
0.0
  0
SPLINE
  5
A4
330
1F
100
AcDbEntity
  8
SK1
  6
Continuous
100
AcDbSpline
210
0.0
220
0.0
230
1.0
 70
     8
 71
     3
 72
    10
 73
     6
 74
     0
 42
0.0000000269126471
 43
0.0000000001
 12
1.0
 22
0.0
 32
0.0
 13
1.0
 23
0.0
 33
0.0
 40
0.0
 40
0.0
 40
0.0
 40
0.0
 40
0.5
 40
0.5
 40
1.0
 40
1.0
 40
1.0
 40
1.0
 10
-27.08175193028437
 20
8.334681880823494
 30
0.0
 10
-27.15329203370893
 20
8.327568584596158
 30
0.0
 10
-27.21937890303489
 20
8.302044583623758
 30
0.0
 10
-27.31353686662632
 20
8.225376019821537
 30
0.0
 10
-27.33999999999635
 20
8.175049274765426
 30
0.0
 10
-27.33999999999635
 20
8.124498354268272
 30
0.0
  0
LINE
  5
A5
330
1F
100
AcDbEntity
  8
SK3
100
AcDbLine
 10
-26.34
 20
5.0129104027
 30
0.0
 11
-13.04
 21
5.0129104027
 31
0.0
  0
LINE
  5
A6
330
1F
100
AcDbEntity
  8
SK3
100
AcDbLine
 10
-13.04
 20
5.0129104027
 30
0.0
 11
-12.34
 21
4.726706045
 31
0.0
  0
LINE
  5
A7
330
1F
100
AcDbEntity
  8
SK1
  6
Continuous
100
AcDbLine
 10
7.16
 20
11.7470849597
 30
0.0
 11
7.5559292144
 21
11.908770887
 31
0.0
  0
LINE
  5
A8
330
1F
100
AcDbEntity
  8
SK1
  6
Continuous
100
AcDbLine
 10
7.5559292144
 20
11.908770887
 30
0.0
 11
10.7131573125
 21
10.619408957
 31
0.0
  0
SPLINE
  5
A9
330
1F
100
AcDbEntity
  8
SK3
100
AcDbSpline
210
0.0
220
0.0
230
1.0
 70
     8
 71
     3
 72
    10
 73
     6
 74
     0
 42
0.0000000427205758
 43
0.0000000001
 12
1.0
 22
0.0
 32
0.0
 13
1.0
 23
0.0
 33
0.0
 40
0.0
 40
0.0
 40
0.0
 40
0.0
 40
0.5
 40
0.5
 40
1.0
 40
1.0
 40
1.0
 40
1.0
 10
12.66000000000499
 20
1.584534144258313
 30
0.0
 10
12.66000000000359
 20
1.564485017212865
 30
0.0
 10
12.6389804631175
 20
1.544534443094137
 30
0.0
 10
12.56454606557478
 20
1.5156634938386
 30
0.0
 10
12.51305341015094
 20
1.507351555574754
 30
0.0
 10
12.46000000000364
 20
1.507351555575055
 30
0.0
  0
SPLINE
  5
AA
330
1F
100
AcDbEntity
  8
SK3
100
AcDbSpline
210
0.0
220
0.0
230
1.0
 70
     8
 71
     3
 72
    10
 73
     6
 74
     0
 42
0.0000000427205758
 43
0.0000000001
 12
1.0
 22
0.0
 32
0.0
 13
1.0
 23
0.0
 33
0.0
 40
0.0
 40
0.0
 40
0.0
 40
0.0
 40
0.5
 40
0.5
 40
1.0
 40
1.0
 40
1.0
 40
1.0
 10
12.66000000000499
 20
0.8454305182492816
 30
0.0
 10
12.66000000000359
 20
0.825381391203837
 30
0.0
 10
12.6389804631175
 20
0.805430817085106
 30
0.0
 10
12.56454606557478
 20
0.7765598678295704
 30
0.0
 10
12.51305341015093
 20
0.7682479295657222
 30
0.0
 10
12.46000000000364
 20
0.7682479295660257
 30
0.0
  0
LINE
  5
AB
330
1F
100
AcDbEntity
  8
SK3
100
AcDbLine
 10
-11.9935898385
 20
1.5073515556
 30
0.0
 11
-11.9935898385
 21
2.5938180557
 31
0.0
  0
LINE
  5
AC
330
1F
100
AcDbEntity
  8
SK3
100
AcDbLine
 10
-12.34
 20
3.0807001098
 30
0.0
 11
-12.34
 21
4.726706045
 31
0.0
  0
LINE
  5
AD
330
1F
100
AcDbEntity
  8
SK3
100
AcDbLine
 10
-13.04
 20
3.235592792
 30
0.0
 11
-13.04
 21
5.0129104027
 31
0.0
  0
LINE
  5
AE
330
1F
100
AcDbEntity
  8
SK1
  6
Continuous
100
AcDbLine
 10
3.56
 20
6.6819728393
 30
0.0
 11
3.56
 21
11.3809903765
 31
0.0
  0
LINE
  5
AF
330
1F
100
AcDbEntity
  8
SK1
  6
Continuous
100
AcDbLine
 10
12.66
 20
5.4780865977
 30
0.0
 11
12.66
 21
12.180020447
 31
0.0
  0
LINE
  5
B0
330
1F
100
AcDbEntity
  8
SK1
  6
Continuous
100
AcDbLine
 10
12.535
 20
5.5609765844
 30
0.0
 11
12.535
 21
12.3801345772
 31
0.0
  0
LINE
  5
B1
330
1F
100
AcDbEntity
  8
SK1
  6
Continuous
100
AcDbLine
 10
7.5559292144
 20
6.6614588474
 30
0.0
 11
7.5559292144
 21
11.3430854621
 31
0.0
  0
LINE
  5
B2
330
1F
100
AcDbEntity
  8
SK1
  6
Continuous
100
AcDbLine
 10
7.16
 20
6.5739550541
 30
0.0
 11
7.16
 21
11.1813995347
 31
0.0
  0
LINE
  5
B3
330
1F
100
AcDbEntity
  8
SK1
  6
Continuous
100
AcDbLine
 10
3.76
 20
5.9546327362
 30
0.0
 11
3.76
 21
10.0370411076
 31
0.0
  0
LINE
  5
B4
330
1F
100
AcDbEntity
  8
SK1
  6
Continuous
100
AcDbLine
 10
6.96
 20
5.9546327362
 30
0.0
 11
6.96
 21
10.0370411076
 31
0.0
  0
LINE
  5
B5
330
1F
100
AcDbEntity
  8
SK1
  6
Continuous
100
AcDbLine
 10
3.56
 20
5.9428692133
 30
0.0
 11
-21.44
 21
4.5978007093
 31
0.0
  0
LINE
  5
B6
330
1F
100
AcDbEntity
  8
SK3
100
AcDbLine
 10
-13.04
 20
2.496489166
 30
0.0
 11
-12.34
 21
2.3415964838
 31
0.0
  0
LINE
  5
B7
330
1F
100
AcDbEntity
  8
SK3
100
AcDbLine
 10
-12.34
 20
0.8454305182
 30
0.0
 11
-11.9935898385
 21
0.7682479296
 31
0.0
  0
LINE
  5
B8
330
1F
100
AcDbEntity
  8
SK3
100
AcDbLine
 10
-11.9935898385
 20
0.7682479296
 30
0.0
 11
12.46
 21
0.7682479296
 31
0.0
  0
SPLINE
  5
B9
330
1F
100
AcDbEntity
  8
SK1
  6
Continuous
100
AcDbSpline
210
0.0
220
0.0
230
1.0
 70
     8
 71
     3
 72
    10
 73
     6
 74
     0
 42
0.0000000427824414
 43
0.0000000001
 12
1.0
 22
0.0
 32
0.0
 13
1.0
 23
0.0
 33
0.0
 40
0.0
 40
0.0
 40
0.0
 40
0.0
 40
0.5
 40
0.5
 40
1.0
 40
1.0
 40
1.0
 40
1.0
 10
7.16000000000365
 20
5.292094148787594
 30
0.0
 10
7.160000000003653
 20
5.2721334377785
 30
0.0
 10
7.138792746353587
 20
5.252274916968311
 30
0.0
 10
7.064184492782961
 20
5.223685749676881
 30
0.0
 10
7.012831382491626
 20
5.215529110141007
 30
0.0
 10
6.960000000003648
 20
5.215529110141313
 30
0.0
  0
LINE
  5
BA
330
1F
100
AcDbEntity
  8
SK1
  6
Continuous
100
AcDbLine
 10
6.96
 20
5.2155291101
 30
0.0
 11
3.76
 21
5.2155291101
 31
0.0
  0
SPLINE
  5
BB
330
1F
100
AcDbEntity
  8
SK1
  6
Continuous
100
AcDbSpline
210
0.0
220
0.0
230
1.0
 70
     8
 71
     3
 72
    10
 73
     6
 74
     0
 42
0.0000000427888826
 43
0.0000000001
 12
1.0
 22
0.0
 32
0.0
 13
1.0
 23
0.0
 33
0.0
 40
0.0
 40
0.0
 40
0.0
 40
0.0
 40
0.5
 40
0.5
 40
1.0
 40
1.0
 40
1.0
 40
1.0
 10
3.760000000003642
 20
5.215529110141313
 30
0.0
 10
3.707128834291967
 20
5.215529110141315
 30
0.0
 10
3.655412931725088
 20
5.22384098690191
 30
0.0
 10
3.581619568487506
 20
5.252115947852236
 30
0.0
 10
3.560000000003534
 20
5.272116079355216
 30
0.0
 10
3.560000000001258
 20
5.2920941487877
 30
0.0
  0
LINE
  5
BC
330
1F
100
AcDbEntity
  8
SK1
  6
Continuous
100
AcDbLine
 10
7.16
 20
6.5739550541
 30
0.0
 11
7.5559292144
 21
6.6614588474
 31
0.0
  0
LINE
  5
BD
330
1F
100
AcDbEntity
  8
SK1
  6
Continuous
100
AcDbLine
 10
7.5559292144
 20
6.6614588474
 30
0.0
 11
12.535
 21
5.5609765844
 31
0.0
  0
SPLINE
  5
BE
330
1F
100
AcDbEntity
  8
SK1
  6
Continuous
100
AcDbSpline
210
0.0
220
0.0
230
1.0
 70
     8
 71
     3
 72
     8
 73
     4
 74
     0
 42
0.0000000587479703
 43
0.0000000001
 12
1.0
 22
0.0
 32
0.0
 13
1.0
 23
0.0
 33
0.0
 40
0.0
 40
0.0
 40
0.0
 40
0.0
 40
1.0
 40
1.0
 40
1.0
 40
1.0
 10
12.53500000000364
 20
5.560976584436173
 30
0.0
 10
12.6112869207832
 20
5.544114244997693
 30
0.0
 10
12.66000000000364
 20
5.511621430538879
 30
0.0
 10
12.66000000000365
 20
5.478086597693855
 30
0.0
  0
LINE
  5
BF
330
1F
100
AcDbEntity
  8
SK1
  6
Continuous
100
AcDbLine
 10
12.66
 20
5.4780865977
 30
0.0
 11
12.66
 21
4.7389829717
 31
0.0
  0
LINE
  5
C0
330
1F
100
AcDbEntity
  8
SK1
  6
Continuous
100
AcDbLine
 10
7.16
 20
5.8348514281
 30
0.0
 11
7.5559292144
 21
5.9223552214
 31
0.0
  0
LINE
  5
C1
330
1F
100
AcDbEntity
  8
SK1
  6
Continuous
100
AcDbLine
 10
7.5559292144
 20
5.9223552214
 30
0.0
 11
12.535
 21
4.8218729584
 31
0.0
  0
SPLINE
  5
C2
330
1F
100
AcDbEntity
  8
SK1
  6
Continuous
100
AcDbSpline
210
0.0
220
0.0
230
1.0
 70
     8
 71
     3
 72
     8
 73
     4
 74
     0
 42
0.0000000587479703
 43
0.0000000001
 12
1.0
 22
0.0
 32
0.0
 13
1.0
 23
0.0
 33
0.0
 40
0.0
 40
0.0
 40
0.0
 40
0.0
 40
1.0
 40
1.0
 40
1.0
 40
1.0
 10
12.53500000000364
 20
4.821872958427143
 30
0.0
 10
12.61128692078379
 20
4.805010618988534
 30
0.0
 10
12.66000000000364
 20
4.772517804530058
 30
0.0
 10
12.66000000000365
 20
4.738982971684824
 30
0.0
  0
LINE
  5
C3
330
1F
100
AcDbEntity
  8
SK1
  6
Continuous
100
AcDbLine
 10
3.56
 20
6.0311977748
 30
0.0
 11
3.56
 21
6.6819728393
 31
0.0
  0
LINE
  5
C4
330
1F
100
AcDbEntity
  8
SK1
  6
Continuous
100
AcDbLine
 10
3.56
 20
6.6819728393
 30
0.0
 11
-21.44
 21
5.3369043353
 31
0.0
  0
LINE
  5
C5
330
1F
100
AcDbEntity
  8
SK3
100
AcDbLine
 10
-13.04
 20
3.235592792
 30
0.0
 11
-12.34
 21
3.0807001098
 31
0.0
  0
LINE
  5
C6
330
1F
100
AcDbEntity
  8
SK3
100
AcDbLine
 10
-12.34
 20
3.0807001098
 30
0.0
 11
-12.34
 21
2.3415964838
 31
0.0
  0
LINE
  5
C7
330
1F
100
AcDbEntity
  8
SK3
100
AcDbLine
 10
-12.34
 20
1.5845341443
 30
0.0
 11
-11.9935898385
 21
1.5073515556
 31
0.0
  0
LINE
  5
C8
330
1F
100
AcDbEntity
  8
SK3
100
AcDbLine
 10
-11.9935898385
 20
1.5073515556
 30
0.0
 11
12.46
 21
1.5073515556
 31
0.0
  0
LINE
  5
C9
330
1F
100
AcDbEntity
  8
SK1
  6
Continuous
100
AcDbLine
 10
7.16
 20
6.5739550541
 30
0.0
 11
7.16
 21
6.0311977748
 31
0.0
  0
SPLINE
  5
CA
330
1F
100
AcDbEntity
  8
SK1
  6
Continuous
100
AcDbSpline
210
0.0
220
0.0
230
1.0
 70
     8
 71
     3
 72
    10
 73
     6
 74
     0
 42
0.0000000427824414
 43
0.0000000001
 12
1.0
 22
0.0
 32
0.0
 13
1.0
 23
0.0
 33
0.0
 40
0.0
 40
0.0
 40
0.0
 40
0.0
 40
0.5
 40
0.5
 40
1.0
 40
1.0
 40
1.0
 40
1.0
 10
7.16000000000365
 20
6.031197774796626
 30
0.0
 10
7.160000000003651
 20
6.011237063787528
 30
0.0
 10
7.138792746353588
 20
5.991378542977342
 30
0.0
 10
7.064184492782965
 20
5.962789375685908
 30
0.0
 10
7.012831382491626
 20
5.954632736150036
 30
0.0
 10
6.960000000003648
 20
5.954632736150343
 30
0.0
  0
LINE
  5
CB
330
1F
100
AcDbEntity
  8
SK1
  6
Continuous
100
AcDbLine
 10
6.96
 20
5.9546327362
 30
0.0
 11
3.76
 21
5.9546327362
 31
0.0
  0
SPLINE
  5
CC
330
1F
100
AcDbEntity
  8
SK1
  6
Continuous
100
AcDbSpline
210
0.0
220
0.0
230
1.0
 70
     8
 71
     3
 72
    10
 73
     6
 74
     0
 42
0.0000000427888826
 43
0.0000000001
 12
1.0
 22
0.0
 32
0.0
 13
1.0
 23
0.0
 33
0.0
 40
0.0
 40
0.0
 40
0.0
 40
0.0
 40
0.5
 40
0.5
 40
1.0
 40
1.0
 40
1.0
 40
1.0
 10
3.760000000003642
 20
5.954632736150343
 30
0.0
 10
3.707128834291967
 20
5.954632736150344
 30
0.0
 10
3.655412931725088
 20
5.962944612910942
 30
0.0
 10
3.581619568487503
 20
5.991219573861271
 30
0.0
 10
3.560000000003531
 20
6.011219705364247
 30
0.0
 10
3.560000000001258
 20
6.03119777479673
 30
0.0
  0
LINE
  5
CD
330
1F
100
AcDbEntity
  8
SK3
100
AcDbLine
 10
-26.34
 20
0.4000000998
 30
0.0
 11
-26.34
 21
5.0129104027
 31
0.0
  0
LINE
  5
CE
330
1F
100
AcDbEntity
  8
SK3
100
AcDbLine
 10
-12.34
 20
0.4000000998
 30
0.0
 11
-12.34
 21
2.3415964838
 31
0.0
  0
LINE
  5
CF
330
1F
100
AcDbEntity
  8
SK3
100
AcDbLine
 10
-13.04
 20
0.4000000998
 30
0.0
 11
-13.04
 21
2.496489166
 31
0.0
  0
LINE
  5
D0
330
1F
100
AcDbEntity
  8
SK1
  6
Continuous
100
AcDbLine
 10
-27.34
 20
0.4000000998
 30
0.0
 11
-27.34
 21
8.1244983543
 31
0.0
  0
LINE
  5
D1
330
1F
100
AcDbEntity
  8
SK1
  6
Continuous
100
AcDbLine
 10
-27.0817519303
 20
0.4000000998
 30
0.0
 11
-27.0817519303
 21
8.3346818808
 31
0.0
  0
LINE
  5
D2
330
1F
100
AcDbEntity
  8
SK1
  6
Continuous
100
AcDbLine
 10
3.56
 20
0.4000000998
 30
0.0
 11
3.56
 21
5.9428692133
 31
0.0
  0
LINE
  5
D3
330
1F
100
AcDbEntity
  8
SK1
  6
Continuous
100
AcDbLine
 10
7.5559292144
 20
0.4000000998
 30
0.0
 11
7.5559292144
 21
5.9223552214
 31
0.0
  0
LINE
  5
D4
330
1F
100
AcDbEntity
  8
SK1
  6
Continuous
100
AcDbLine
 10
7.16
 20
0.4000000998
 30
0.0
 11
7.16
 21
5.8348514281
 31
0.0
  0
LINE
  5
D5
330
1F
100
AcDbEntity
  8
SK1
  6
Continuous
100
AcDbLine
 10
3.76
 20
0.4000000998
 30
0.0
 11
3.76
 21
5.2155291101
 31
0.0
  0
LINE
  5
D6
330
1F
100
AcDbEntity
  8
SK1
  6
Continuous
100
AcDbLine
 10
6.96
 20
0.4000000998
 30
0.0
 11
6.96
 21
5.2155291101
 31
0.0
  0
LINE
  5
D7
330
1F
100
AcDbEntity
  8
SK1
  6
Continuous
100
AcDbLine
 10
7.16
 20
-0.3999999002
 30
0.0
 11
7.5559292144
 21
-0.3999999002
 31
0.0
  0
LINE
  5
D8
330
1F
100
AcDbEntity
  8
SK1
  6
Continuous
100
AcDbLine
 10
7.5559292144
 20
-0.3999999002
 30
0.0
 11
10.7131573125
 21
-0.3999999002
 31
0.0
  0
LINE
  5
D9
330
1F
100
AcDbEntity
  8
SK1
  6
Continuous
100
AcDbLine
 10
7.16
 20
0.4000000998
 30
0.0
 11
6.96
 21
0.4000000998
 31
0.0
  0
LINE
  5
DA
330
1F
100
AcDbEntity
  8
SK1
  6
Continuous
100
AcDbLine
 10
6.96
 20
0.4000000998
 30
0.0
 11
3.76
 21
0.4000000998
 31
0.0
  0
LINE
  5
DB
330
1F
100
AcDbEntity
  8
SK1
  6
Continuous
100
AcDbLine
 10
3.76
 20
0.4000000998
 30
0.0
 11
3.56
 21
0.4000000998
 31
0.0
  0
LINE
  5
DC
330
1F
100
AcDbEntity
  8
SK1
  6
Continuous
100
AcDbLine
 10
3.56
 20
0.4000000998
 30
0.0
 11
-27.0817519303
 21
0.4000000998
 31
0.0
  0
LINE
  5
DD
330
1F
100
AcDbEntity
  8
SK1
  6
Continuous
100
AcDbLine
 10
-27.0817519303
 20
0.4000000998
 30
0.0
 11
-27.34
 21
0.4000000998
 31
0.0
  0
LINE
  5
DE
330
1F
100
AcDbEntity
  8
SK1
  6
Continuous
100
AcDbLine
 10
7.16
 20
-0.3999999002
 30
0.0
 11
6.96
 21
-0.3999999002
 31
0.0
  0
LINE
  5
DF
330
1F
100
AcDbEntity
  8
SK1
  6
Continuous
100
AcDbLine
 10
6.96
 20
-0.3999999002
 30
0.0
 11
3.76
 21
-0.3999999002
 31
0.0
  0
LINE
  5
E0
330
1F
100
AcDbEntity
  8
SK1
  6
Continuous
100
AcDbLine
 10
3.76
 20
-0.3999999002
 30
0.0
 11
3.56
 21
-0.3999999002
 31
0.0
  0
LINE
  5
E1
330
1F
100
AcDbEntity
  8
SK1
  6
Continuous
100
AcDbLine
 10
3.56
 20
-0.3999999002
 30
0.0
 11
-27.0817519303
 21
-0.3999999002
 31
0.0
  0
LINE
  5
E2
330
1F
100
AcDbEntity
  8
SK1
  6
Continuous
100
AcDbLine
 10
-27.0817519303
 20
-0.3999999002
 30
0.0
 11
-27.34
 21
-0.3999999002
 31
0.0
  0
LINE
  5
E3
330
1F
100
AcDbEntity
  8
SK1
  6
Continuous
100
AcDbLine
 10
7.16
 20
0.4000000998
 30
0.0
 11
7.5559292144
 21
0.4000000998
 31
0.0
  0
LINE
  5
E4
330
1F
100
AcDbEntity
  8
SK1
  6
Continuous
100
AcDbLine
 10
7.5559292144
 20
0.4000000998
 30
0.0
 11
10.7131573125
 21
0.4000000998
 31
0.0
  0
SPLINE
  5
E5
330
1F
100
AcDbEntity
  8
SK3
100
AcDbSpline
210
0.0
220
0.0
230
1.0
 70
     8
 71
     3
 72
    10
 73
     6
 74
     0
 42
0.0000000427245108
 43
0.0000000001
 12
1.0
 22
0.0
 32
0.0
 13
1.0
 23
0.0
 33
0.0
 40
0.0
 40
0.0
 40
0.0
 40
0.0
 40
0.5000000000000001
 40
0.5000000000000001
 40
1.0
 40
1.0
 40
1.0
 40
1.0
 10
12.66000000000364
 20
-0.8454303187079573
 30
0.0
 10
12.66000000000364
 20
-0.8252748118644927
 30
0.0
 10
12.63853465492592
 20
-0.8052706664959971
 30
0.0
 10
12.56512019230591
 20
-0.7767694130210732
 30
0.0
 10
12.5126593807982
 20
-0.768247730024644
 30
0.0
 10
12.46000000000364
 20
-0.7682477300246441
 30
0.0
  0
SPLINE
  5
E6
330
1F
100
AcDbEntity
  8
SK3
100
AcDbSpline
210
0.0
220
0.0
230
1.0
 70
     8
 71
     3
 72
    10
 73
     6
 74
     0
 42
0.0000000427245108
 43
0.0000000001
 12
1.0
 22
0.0
 32
0.0
 13
1.0
 23
0.0
 33
0.0
 40
0.0
 40
0.0
 40
0.0
 40
0.0
 40
0.5
 40
0.5
 40
1.0
 40
1.0
 40
1.0
 40
1.0
 10
12.66000000000364
 20
-1.584533944716986
 30
0.0
 10
12.66000000000364
 20
-1.564378437873522
 30
0.0
 10
12.63853465492592
 20
-1.544374292505027
 30
0.0
 10
12.56512019230591
 20
-1.515873039030102
 30
0.0
 10
12.5126593807982
 20
-1.507351356033673
 30
0.0
 10
12.46000000000364
 20
-1.507351356033673
 30
0.0
  0
LINE
  5
E7
330
1F
100
AcDbEntity
  8
SK3
100
AcDbLine
 10
-11.9935898385
 20
-0.76824773
 30
0.0
 11
-11.9935898385
 21
0.7682479296
 31
0.0
  0
LINE
  5
E8
330
1F
100
AcDbEntity
  8
SK3
100
AcDbLine
 10
-12.34
 20
-2.3415962842
 30
0.0
 11
-12.34
 21
-0.3999999002
 31
0.0
  0
LINE
  5
E9
330
1F
100
AcDbEntity
  8
SK3
100
AcDbLine
 10
-13.04
 20
-2.4964889665
 30
0.0
 11
-13.04
 21
-0.3999999002
 31
0.0
  0
LINE
  5
EA
330
1F
100
AcDbEntity
  8
SK1
  6
Continuous
100
AcDbLine
 10
3.56
 20
-5.9428690137
 30
0.0
 11
3.56
 21
-0.3999999002
 31
0.0
  0
LINE
  5
EB
330
1F
100
AcDbEntity
  8
SK1
  6
Continuous
100
AcDbLine
 10
12.66
 20
-4.7389827721
 30
0.0
 11
12.66
 21
4.7389829717
 31
0.0
  0
LINE
  5
EC
330
1F
100
AcDbEntity
  8
SK1
  6
Continuous
100
AcDbLine
 10
12.535
 20
-4.8218727589
 30
0.0
 11
12.535
 21
4.8218729584
 31
0.0
  0
LINE
  5
ED
330
1F
100
AcDbEntity
  8
SK1
  6
Continuous
100
AcDbLine
 10
7.5559292144
 20
-5.9223550219
 30
0.0
 11
7.5559292144
 21
-0.3999999002
 31
0.0
  0
LINE
  5
EE
330
1F
100
AcDbEntity
  8
SK1
  6
Continuous
100
AcDbLine
 10
7.16
 20
-5.8348512285
 30
0.0
 11
7.16
 21
-0.3999999002
 31
0.0
  0
LINE
  5
EF
330
1F
100
AcDbEntity
  8
SK1
  6
Continuous
100
AcDbLine
 10
3.76
 20
-5.2155289106
 30
0.0
 11
3.76
 21
-0.3999999002
 31
0.0
  0
LINE
  5
F0
330
1F
100
AcDbEntity
  8
SK1
  6
Continuous
100
AcDbLine
 10
6.96
 20
-5.2155289106
 30
0.0
 11
6.96
 21
-0.3999999002
 31
0.0
  0
LINE
  5
F1
330
1F
100
AcDbEntity
  8
SK1
  6
Continuous
100
AcDbLine
 10
3.56
 20
-6.0311975753
 30
0.0
 11
3.56
 21
-6.6819726397
 31
0.0
  0
LINE
  5
F2
330
1F
100
AcDbEntity
  8
SK1
  6
Continuous
100
AcDbLine
 10
3.56
 20
-6.6819726397
 30
0.0
 11
-21.44
 21
-5.3369041357
 31
0.0
  0
LINE
  5
F3
330
1F
100
AcDbEntity
  8
SK3
100
AcDbLine
 10
-13.04
 20
-3.2355925925
 30
0.0
 11
-12.34
 21
-3.0806999102
 31
0.0
  0
LINE
  5
F4
330
1F
100
AcDbEntity
  8
SK3
100
AcDbLine
 10
-12.34
 20
-3.0806999102
 30
0.0
 11
-12.34
 21
-2.3415962842
 31
0.0
  0
LINE
  5
F5
330
1F
100
AcDbEntity
  8
SK3
100
AcDbLine
 10
-12.34
 20
-1.5845339447
 30
0.0
 11
-11.9935898385
 21
-1.507351356
 31
0.0
  0
LINE
  5
F6
330
1F
100
AcDbEntity
  8
SK3
100
AcDbLine
 10
-11.9935898385
 20
-1.507351356
 30
0.0
 11
12.46
 21
-1.507351356
 31
0.0
  0
LINE
  5
F7
330
1F
100
AcDbEntity
  8
SK1
  6
Continuous
100
AcDbLine
 10
7.16
 20
-6.5739548546
 30
0.0
 11
7.16
 21
-6.0311975753
 31
0.0
  0
SPLINE
  5
F8
330
1F
100
AcDbEntity
  8
SK1
  6
Continuous
100
AcDbSpline
210
0.0
220
0.0
230
1.0
 70
     8
 71
     3
 72
    10
 73
     6
 74
     0
 42
0.0000000427929422
 43
0.0000000001
 12
1.0
 22
0.0
 32
0.0
 13
1.0
 23
0.0
 33
0.0
 40
0.0
 40
0.0
 40
0.0
 40
0.0
 40
0.5
 40
0.5
 40
1.0
 40
1.0
 40
1.0
 40
1.0
 10
7.16000000000365
 20
-6.03119757525524
 30
0.0
 10
7.160000000003657
 20
-6.011247717813174
 30
0.0
 10
7.138197681279877
 20
-5.991109602586651
 30
0.0
 10
7.064370637548251
 20
-5.962901448973907
 30
0.0
 10
7.012158114673613
 20
-5.954632536608921
 30
0.0
 10
6.96000000000337
 20
-5.954632536608048
 30
0.0
  0
LINE
  5
F9
330
1F
100
AcDbEntity
  8
SK1
  6
Continuous
100
AcDbLine
 10
6.96
 20
-5.9546325366
 30
0.0
 11
3.76
 21
-5.9546325366
 31
0.0
  0
SPLINE
  5
FA
330
1F
100
AcDbEntity
  8
SK1
  6
Continuous
100
AcDbSpline
210
0.0
220
0.0
230
1.0
 70
     8
 71
     3
 72
    10
 73
     6
 74
     0
 42
0.0000000427929459
 43
0.0000000001
 12
1.0
 22
0.0
 32
0.0
 13
1.0
 23
0.0
 33
0.0
 40
0.0
 40
0.0
 40
0.0
 40
0.0
 40
0.5
 40
0.5
 40
1.0
 40
1.0
 40
1.0
 40
1.0
 10
3.760000000003642
 20
-5.954632536608962
 30
0.0
 10
3.707885847141924
 20
-5.954632536608961
 30
0.0
 10
3.655671639122376
 20
-5.962884449457731
 30
0.0
 10
3.581751558900989
 20
-5.991129843483298
 30
0.0
 10
3.560000000004716
 20
-6.011260969930987
 30
0.0
 10
3.559999999979484
 20
-6.031197575253881
 30
0.0
  0
LINE
  5
FB
330
1F
100
AcDbEntity
  8
SK1
  6
Continuous
100
AcDbLine
 10
7.16
 20
-5.8348512285
 30
0.0
 11
7.5559292144
 21
-5.9223550219
 31
0.0
  0
SPLINE
  5
FC
330
1F
100
AcDbEntity
  8
SK1
  6
Continuous
100
AcDbSpline
210
0.0
220
0.0
230
1.0
 70
     8
 71
     3
 72
     8
 73
     4
 74
     0
 42
0.0000000019610781
 43
0.0000000001
 12
1.0
 22
0.0
 32
0.0
 13
1.0
 23
0.0
 33
0.0
 40
0.0
 40
0.0
 40
0.0
 40
0.0
 40
1.0
 40
1.0
 40
1.0
 40
1.0
 10
7.555929214355777
 20
-5.922355021885547
 30
0.0
 10
9.21564550286064
 20
-5.555544844609452
 30
0.0
 10
10.87534129109683
 20
-5.188721075945111
 30
0.0
 10
12.53500000000364
 20
-4.821872758885764
 30
0.0
  0
SPLINE
  5
FD
330
1F
100
AcDbEntity
  8
SK1
  6
Continuous
100
AcDbSpline
210
0.0
220
0.0
230
1.0
 70
     8
 71
     3
 72
    10
 73
     6
 74
     0
 42
0.0000000616211725
 43
0.0000000001
 12
1.0
 22
0.0
 32
0.0
 13
1.0
 23
0.0
 33
0.0
 40
0.0
 40
0.0
 40
0.0
 40
0.0
 40
0.5
 40
0.5
 40
1.0
 40
1.0
 40
1.0
 40
1.0
 10
12.53500000000364
 20
-4.821872758885764
 30
0.0
 10
12.5728310645762
 20
-4.813510640640291
 30
0.0
 10
12.60474525034214
 20
-4.801298157470513
 30
0.0
 10
12.64848013413546
 20
-4.772239613514915
 30
0.0
 10
12.66000000000365
 20
-4.755615446635693
 30
0.0
 10
12.66000000000365
 20
-4.738982772143444
 30
0.0
  0
LINE
  5
FE
330
1F
100
AcDbEntity
  8
SK1
  6
Continuous
100
AcDbLine
 10
7.16
 20
-6.5739548546
 30
0.0
 11
7.5559292144
 21
-6.6614586479
 31
0.0
  0
SPLINE
  5
FF
330
1F
100
AcDbEntity
  8
SK1
  6
Continuous
100
AcDbSpline
210
0.0
220
0.0
230
1.0
 70
     8
 71
     3
 72
     8
 73
     4
 74
     0
 42
0.0000000019610781
 43
0.0000000001
 12
1.0
 22
0.0
 32
0.0
 13
1.0
 23
0.0
 33
0.0
 40
0.0
 40
0.0
 40
0.0
 40
0.0
 40
1.0
 40
1.0
 40
1.0
 40
1.0
 10
7.555929214355777
 20
-6.661458647894576
 30
0.0
 10
9.21564550286064
 20
-6.294648470618481
 30
0.0
 10
10.87534129109683
 20
-5.927824701954139
 30
0.0
 10
12.53500000000364
 20
-5.560976384894794
 30
0.0
  0
SPLINE
  5
100
330
1F
100
AcDbEntity
  8
SK1
  6
Continuous
100
AcDbSpline
210
0.0
220
0.0
230
1.0
 70
     8
 71
     3
 72
    10
 73
     6
 74
     0
 42
0.0000000616211725
 43
0.0000000001
 12
1.0
 22
0.0
 32
0.0
 13
1.0
 23
0.0
 33
0.0
 40
0.0
 40
0.0
 40
0.0
 40
0.0
 40
0.5
 40
0.5
 40
1.0
 40
1.0
 40
1.0
 40
1.0
 10
12.53500000000364
 20
-5.560976384894794
 30
0.0
 10
12.5728310645762
 20
-5.552614266649321
 30
0.0
 10
12.60474525034214
 20
-5.540401783479544
 30
0.0
 10
12.64848013413546
 20
-5.511343239523946
 30
0.0
 10
12.66000000000365
 20
-5.494719072644722
 30
0.0
 10
12.66000000000365
 20
-5.478086398152474
 30
0.0
  0
LINE
  5
101
330
1F
100
AcDbEntity
  8
SK1
  6
Continuous
100
AcDbLine
 10
12.66
 20
-5.4780863982
 30
0.0
 11
12.66
 21
-4.7389827721
 31
0.0
  0
LINE
  5
102
330
1F
100
AcDbEntity
  8
SK1
  6
Continuous
100
AcDbLine
 10
3.56
 20
-5.9428690137
 30
0.0
 11
-21.44
 21
-4.5978005097
 31
0.0
  0
LINE
  5
103
330
1F
100
AcDbEntity
  8
SK3
100
AcDbLine
 10
-13.04
 20
-2.4964889665
 30
0.0
 11
-12.34
 21
-2.3415962842
 31
0.0
  0
LINE
  5
104
330
1F
100
AcDbEntity
  8
SK3
100
AcDbLine
 10
-12.34
 20
-0.8454303187
 30
0.0
 11
-11.9935898385
 21
-0.76824773
 31
0.0
  0
LINE
  5
105
330
1F
100
AcDbEntity
  8
SK3
100
AcDbLine
 10
-11.9935898385
 20
-0.76824773
 30
0.0
 11
12.46
 21
-0.76824773
 31
0.0
  0
SPLINE
  5
106
330
1F
100
AcDbEntity
  8
SK1
  6
Continuous
100
AcDbSpline
210
0.0
220
0.0
230
1.0
 70
     8
 71
     3
 72
    10
 73
     6
 74
     0
 42
0.0000000427929422
 43
0.0000000001
 12
1.0
 22
0.0
 32
0.0
 13
1.0
 23
0.0
 33
0.0
 40
0.0
 40
0.0
 40
0.0
 40
0.0
 40
0.5
 40
0.5
 40
1.0
 40
1.0
 40
1.0
 40
1.0
 10
7.16000000000365
 20
-5.292093949246214
 30
0.0
 10
7.160000000003657
 20
-5.272144091804144
 30
0.0
 10
7.138197681279877
 20
-5.252005976577621
 30
0.0
 10
7.064370637548251
 20
-5.223797822964876
 30
0.0
 10
7.012158114673613
 20
-5.215528910599891
 30
0.0
 10
6.96000000000337
 20
-5.215528910599017
 30
0.0
  0
LINE
  5
107
330
1F
100
AcDbEntity
  8
SK1
  6
Continuous
100
AcDbLine
 10
6.96
 20
-5.2155289106
 30
0.0
 11
3.76
 21
-5.2155289106
 31
0.0
  0
SPLINE
  5
108
330
1F
100
AcDbEntity
  8
SK1
  6
Continuous
100
AcDbSpline
210
0.0
220
0.0
230
1.0
 70
     8
 71
     3
 72
    10
 73
     6
 74
     0
 42
0.0000000427929459
 43
0.0000000001
 12
1.0
 22
0.0
 32
0.0
 13
1.0
 23
0.0
 33
0.0
 40
0.0
 40
0.0
 40
0.0
 40
0.0
 40
0.5
 40
0.5
 40
1.0
 40
1.0
 40
1.0
 40
1.0
 10
3.760000000003642
 20
-5.215528910599933
 30
0.0
 10
3.707885847141924
 20
-5.215528910599931
 30
0.0
 10
3.655671639122376
 20
-5.223780823448702
 30
0.0
 10
3.581751558900989
 20
-5.25202621747427
 30
0.0
 10
3.560000000004716
 20
-5.272157343921957
 30
0.0
 10
3.559999999979484
 20
-5.29209394924485
 30
0.0
  0
LINE
  5
109
330
1F
100
AcDbEntity
  8
SK3
100
AcDbLine
 10
-26.34
 20
-5.0129102031
 30
0.0
 11
-26.34
 21
-0.3999999002
 31
0.0
  0
LINE
  5
10A
330
1F
100
AcDbEntity
  8
SK3
100
AcDbLine
 10
-26.34
 20
-5.0129102031
 30
0.0
 11
-27.34
 21
-5.4216986843
 31
0.0
  0
LINE
  5
10B
330
1F
100
AcDbEntity
  8
SK3
100
AcDbLine
 10
-26.34
 20
-5.5785956281
 30
0.0
 11
-27.34
 21
-5.9873841092
 31
0.0
  0
LINE
  5
10C
330
1F
100
AcDbEntity
  8
SK3
100
AcDbLine
 10
-12.34
 20
-4.7267058454
 30
0.0
 11
-12.34
 21
-3.0806999102
 31
0.0
  0
LINE
  5
10D
330
1F
100
AcDbEntity
  8
SK3
100
AcDbLine
 10
-13.04
 20
-5.0129102031
 30
0.0
 11
-13.04
 21
-3.2355925925
 31
0.0
  0
LINE
  5
10E
330
1F
100
AcDbEntity
  8
SK1
  6
Continuous
100
AcDbLine
 10
-27.34
 20
-8.1244981547
 30
0.0
 11
-27.34
 21
-0.3999999002
 31
0.0
  0
LINE
  5
10F
330
1F
100
AcDbEntity
  8
SK1
  6
Continuous
100
AcDbLine
 10
-27.0817519303
 20
-8.3346816813
 30
0.0
 11
-27.0817519303
 21
-0.3999999002
 31
0.0
  0
LINE
  5
110
330
1F
100
AcDbEntity
  8
SK1
  6
Continuous
100
AcDbLine
 10
3.56
 20
-11.380990177
 30
0.0
 11
3.56
 21
-6.6819726397
 31
0.0
  0
LINE
  5
111
330
1F
100
AcDbEntity
  8
SK1
  6
Continuous
100
AcDbLine
 10
7.5559292144
 20
-11.3430852626
 30
0.0
 11
7.5559292144
 21
-6.6614586479
 31
0.0
  0
LINE
  5
112
330
1F
100
AcDbEntity
  8
SK1
  6
Continuous
100
AcDbLine
 10
7.16
 20
-11.1813993352
 30
0.0
 11
7.16
 21
-6.5739548546
 31
0.0
  0
LINE
  5
113
330
1F
100
AcDbEntity
  8
SK1
  6
Continuous
100
AcDbLine
 10
3.76
 20
-10.037040908
 30
0.0
 11
3.76
 21
-5.9546325366
 31
0.0
  0
LINE
  5
114
330
1F
100
AcDbEntity
  8
SK1
  6
Continuous
100
AcDbLine
 10
6.96
 20
-10.037040908
 30
0.0
 11
6.96
 21
-5.9546325366
 31
0.0
  0
LINE
  5
115
330
1F
100
AcDbEntity
  8
SK1
  6
Continuous
100
AcDbLine
 10
7.16
 20
-11.7470847601
 30
0.0
 11
7.5559292144
 21
-11.9087706875
 31
0.0
  0
LINE
  5
116
330
1F
100
AcDbEntity
  8
SK1
  6
Continuous
100
AcDbLine
 10
7.5559292144
 20
-11.9087706875
 30
0.0
 11
10.7131573125
 21
-10.6194087574
 31
0.0
  0
SPLINE
  5
117
330
1F
100
AcDbEntity
  8
SK1
  6
Continuous
100
AcDbSpline
210
0.0
220
0.0
230
1.0
 70
     8
 71
     3
 72
    10
 73
     6
 74
     0
 42
0.000000036097062
 43
0.0000000001
 12
1.0
 22
0.0
 32
0.0
 13
1.0
 23
0.0
 33
0.0
 40
0.0
 40
0.0
 40
0.0
 40
0.0
 40
0.5
 40
0.5
 40
1.0
 40
1.0
 40
1.0
 40
1.0
 10
7.160000000006033
 20
-10.17851465225212
 30
0.0
 10
7.160000000003549
 20
-10.14163206754072
 30
0.0
 10
7.138792746353439
 20
-10.10493830569583
 30
0.0
 10
7.064184492782819
 20
-10.05211241267176
 30
0.0
 10
7.012831382491556
 20
-10.03704090802927
 30
0.0
 10
6.960000000003644
 20
-10.03704090802984
 30
0.0
  0
LINE
  5
118
330
1F
100
AcDbEntity
  8
SK1
  6
Continuous
100
AcDbLine
 10
6.96
 20
-10.037040908
 30
0.0
 11
3.76
 21
-10.037040908
 31
0.0
  0
SPLINE
  5
119
330
1F
100
AcDbEntity
  8
SK1
  6
Continuous
100
AcDbSpline
210
0.0
220
0.0
230
1.0
 70
     8
 71
     3
 72
    10
 73
     6
 74
     0
 42
0.0000000361056729
 43
0.0000000001
 12
1.0
 22
0.0
 32
0.0
 13
1.0
 23
0.0
 33
0.0
 40
0.0
 40
0.0
 40
0.0
 40
0.0
 40
0.5
 40
0.5
 40
1.0
 40
1.0
 40
1.0
 40
1.0
 10
3.760000000003639
 20
-10.03704090802984
 30
0.0
 10
3.70712883429203
 20
-10.03704090802984
 30
0.0
 10
3.655412931725222
 20
-10.05239925366154
 30
0.0
 10
3.581619568487656
 20
-10.10464456907055
 30
0.0
 10
3.560000000003637
 20
-10.14159999335675
 30
0.0
 10
3.560000000003644
 20
-10.17851465225231
 30
0.0
  0
LINE
  5
11A
330
1F
100
AcDbEntity
  8
SK1
  6
Continuous
100
AcDbLine
 10
3.56
 20
-11.380990177
 30
0.0
 11
-27.0817519303
 21
-8.3346816813
 31
0.0
  0
SPLINE
  5
11B
330
1F
100
AcDbEntity
  8
SK1
  6
Continuous
100
AcDbSpline
210
0.0
220
0.0
230
1.0
 70
     8
 71
     3
 72
    10
 73
     6
 74
     0
 42
0.0000000269126471
 43
0.0000000001
 12
1.0
 22
0.0
 32
0.0
 13
1.0
 23
0.0
 33
0.0
 40
0.0
 40
0.0
 40
0.0
 40
0.0
 40
0.5
 40
0.5
 40
1.0
 40
1.0
 40
1.0
 40
1.0
 10
-27.08175193028437
 20
-8.334681681282119
 30
0.0
 10
-27.15329203370893
 20
-8.327568385054784
 30
0.0
 10
-27.21937890303489
 20
-8.302044384082384
 30
0.0
 10
-27.31353686662632
 20
-8.22537582028016
 30
0.0
 10
-27.33999999999635
 20
-8.175049075224049
 30
0.0
 10
-27.33999999999635
 20
-8.1244981547269
 30
0.0
  0
LINE
  5
11C
330
1F
100
AcDbEntity
  8
SK3
100
AcDbLine
 10
-26.34
 20
-5.0129102031
 30
0.0
 11
-13.04
 21
-5.0129102031
 31
0.0
  0
LINE
  5
11D
330
1F
100
AcDbEntity
  8
SK3
100
AcDbLine
 10
-13.04
 20
-5.0129102031
 30
0.0
 11
-12.34
 21
-4.7267058454
 31
0.0
  0
LINE
  5
11E
330
1F
100
AcDbEntity
  8
SK1
  6
Continuous
100
AcDbLine
 10
7.16
 20
-11.7470847601
 30
0.0
 11
7.16
 21
-11.1813993352
 31
0.0
  0
SPLINE
  5
11F
330
1F
100
AcDbEntity
  8
SK1
  6
Continuous
100
AcDbSpline
210
0.0
220
0.0
230
1.0
 70
     8
 71
     3
 72
    10
 73
     6
 74
     0
 42
0.000000036097062
 43
0.0000000001
 12
1.0
 22
0.0
 32
0.0
 13
1.0
 23
0.0
 33
0.0
 40
0.0
 40
0.0
 40
0.0
 40
0.0
 40
0.5
 40
0.5
 40
1.0
 40
1.0
 40
1.0
 40
1.0
 10
7.160000000006033
 20
-10.74420007720135
 30
0.0
 10
7.160000000003549
 20
-10.70731749248995
 30
0.0
 10
7.138792746353436
 20
-10.67062373064507
 30
0.0
 10
7.064184492782819
 20
-10.617797837621
 30
0.0
 10
7.012831382491554
 20
-10.60272633297851
 30
0.0
 10
6.960000000003644
 20
-10.60272633297908
 30
0.0
  0
LINE
  5
120
330
1F
100
AcDbEntity
  8
SK1
  6
Continuous
100
AcDbLine
 10
6.96
 20
-10.602726333
 30
0.0
 11
3.76
 21
-10.602726333
 31
0.0
  0
SPLINE
  5
121
330
1F
100
AcDbEntity
  8
SK1
  6
Continuous
100
AcDbSpline
210
0.0
220
0.0
230
1.0
 70
     8
 71
     3
 72
    10
 73
     6
 74
     0
 42
0.0000000361056729
 43
0.0000000001
 12
1.0
 22
0.0
 32
0.0
 13
1.0
 23
0.0
 33
0.0
 40
0.0
 40
0.0
 40
0.0
 40
0.0
 40
0.5
 40
0.5
 40
1.0
 40
1.0
 40
1.0
 40
1.0
 10
3.760000000003639
 20
-10.60272633297908
 30
0.0
 10
3.70712883429203
 20
-10.60272633297908
 30
0.0
 10
3.655412931725222
 20
-10.61808467861078
 30
0.0
 10
3.581619568487654
 20
-10.67032999401978
 30
0.0
 10
3.560000000003637
 20
-10.70728541830599
 30
0.0
 10
3.560000000003644
 20
-10.74420007720155
 30
0.0
  0
LINE
  5
122
330
1F
100
AcDbEntity
  8
SK1
  6
Continuous
100
AcDbLine
 10
3.56
 20
-11.380990177
 30
0.0
 11
3.56
 21
-11.9466756019
 31
0.0
  0
LINE
  5
123
330
1F
100
AcDbEntity
  8
SK1
  6
Continuous
100
AcDbLine
 10
3.56
 20
-11.9466756019
 30
0.0
 11
-27.0817519303
 21
-8.9003671062
 31
0.0
  0
SPLINE
  5
124
330
1F
100
AcDbEntity
  8
SK1
  6
Continuous
100
AcDbSpline
210
0.0
220
0.0
230
1.0
 70
     8
 71
     3
 72
    10
 73
     6
 74
     0
 42
0.0000000269126471
 43
0.0000000001
 12
1.0
 22
0.0
 32
0.0
 13
1.0
 23
0.0
 33
0.0
 40
0.0
 40
0.0
 40
0.0
 40
0.0
 40
0.5
 40
0.5
 40
1.0
 40
1.0
 40
1.0
 40
1.0
 10
-27.08175193028437
 20
-8.900367106231357
 30
0.0
 10
-27.15329203370893
 20
-8.893253810004023
 30
0.0
 10
-27.21937890303489
 20
-8.867729809031621
 30
0.0
 10
-27.31353686662632
 20
-8.791061245229399
 30
0.0
 10
-27.33999999999635
 20
-8.74073450017329
 30
0.0
 10
-27.33999999999635
 20
-8.69018357967614
 30
0.0
  0
LINE
  5
125
330
1F
100
AcDbEntity
  8
SK1
  6
Continuous
100
AcDbLine
 10
-27.34
 20
-8.6901835797
 30
0.0
 11
-27.34
 21
-8.1244981547
 31
0.0
  0
LINE
  5
126
330
1F
100
AcDbEntity
  8
SK3
100
AcDbLine
 10
-26.34
 20
-5.5785956281
 30
0.0
 11
-13.04
 21
-5.5785956281
 31
0.0
  0
LINE
  5
127
330
1F
100
AcDbEntity
  8
SK3
100
AcDbLine
 10
-13.04
 20
-5.5785956281
 30
0.0
 11
-12.34
 21
-5.2923912704
 31
0.0
  0
LINE
  5
128
330
1F
100
AcDbEntity
  8
SK3
100
AcDbLine
 10
-12.34
 20
-5.2923912704
 30
0.0
 11
-12.34
 21
-4.7267058454
 31
0.0
  0
LINE
  5
129
330
1F
100
AcDbEntity
  8
SK1
  6
Continuous
100
AcDbLine
 10
7.16
 20
-11.1813993352
 30
0.0
 11
7.5559292144
 21
-11.3430852626
 31
0.0
  0
LINE
  5
12A
330
1F
100
AcDbEntity
  8
SK1
  6
Continuous
100
AcDbLine
 10
7.5559292144
 20
-11.3430852626
 30
0.0
 11
10.7131573125
 21
-10.0537233325
 31
0.0
  0
ARC
  5
12B
330
1F
100
AcDbEntity
  8
SK3
100
AcDbCircle
 10
12.4665856701
 20
-2.787250278
 30
0.0
 40
0.1935444983565653
100
AcDbArc
 50
2.1014755905
 51
91.9499595876
  0
ARC
  5
12C
330
1F
100
AcDbEntity
  8
SK3
100
AcDbCircle
 10
12.4665856701
 20
-3.0933970239
 30
0.0
 40
0.1935444983565676
100
AcDbArc
 50
2.1014755905
 51
91.9499595876
  0
LINE
  5
12D
330
1F
100
AcDbEntity
  8
SK3
100
AcDbLine
 10
-11.9935898385
 20
-2.5938178562
 30
0.0
 11
-11.9935898385
 21
-1.507351356
 31
0.0
  0
LINE
  5
12E
330
1F
100
AcDbEntity
  8
SK3
100
AcDbLine
 10
-12.34
 20
-6.3922172741
 30
0.0
 11
-12.34
 21
-5.2923912704
 31
0.0
  0
LINE
  5
12F
330
1F
100
AcDbEntity
  8
SK3
100
AcDbLine
 10
-13.04
 20
-6.7661612883
 30
0.0
 11
-13.04
 21
-5.5785956281
 31
0.0
  0
LINE
  5
130
330
1F
100
AcDbEntity
  8
SK1
  6
Continuous
100
AcDbLine
 10
3.56
 20
-15.0864587395
 30
0.0
 11
3.56
 21
-11.9466756019
 31
0.0
  0
LINE
  5
131
330
1F
100
AcDbEntity
  8
SK1
  6
Continuous
100
AcDbLine
 10
12.66
 20
-12.1800202475
 30
0.0
 11
12.66
 21
-5.4780863982
 31
0.0
  0
LINE
  5
132
330
1F
100
AcDbEntity
  8
SK1
  6
Continuous
100
AcDbLine
 10
12.535
 20
-12.3801343776
 30
0.0
 11
12.535
 21
-5.5609763849
 31
0.0
  0
LINE
  5
133
330
1F
100
AcDbEntity
  8
SK1
  6
Continuous
100
AcDbLine
 10
7.5559292144
 20
-15.0369335821
 30
0.0
 11
7.5559292144
 21
-11.9087706875
 31
0.0
  0
LINE
  5
134
330
1F
100
AcDbEntity
  8
SK1
  6
Continuous
100
AcDbLine
 10
7.16
 20
-14.8256807375
 30
0.0
 11
7.16
 21
-11.7470847601
 31
0.0
  0
LINE
  5
135
330
1F
100
AcDbEntity
  8
SK1
  6
Continuous
100
AcDbLine
 10
3.76
 20
-13.330504398
 30
0.0
 11
3.76
 21
-10.602726333
 31
0.0
  0
LINE
  5
136
330
1F
100
AcDbEntity
  8
SK1
  6
Continuous
100
AcDbLine
 10
6.96
 20
-13.330504398
 30
0.0
 11
6.96
 21
-10.602726333
 31
0.0
  0
LINE
  5
137
330
1F
100
AcDbEntity
  8
SK1
  6
Continuous
100
AcDbLine
 10
3.56
 20
-15.0864587395
 30
0.0
 11
3.56
 21
-15.3926054854
 31
0.0
  0
LINE
  5
138
330
1F
100
AcDbEntity
  8
SK1
  6
Continuous
100
AcDbLine
 10
3.56
 20
-15.3926054854
 30
0.0
 11
-21.44
 21
-12.1453228606
 31
0.0
  0
LINE
  5
139
330
1F
100
AcDbEntity
  8
SK3
100
AcDbLine
 10
-13.04
 20
-7.0723080342
 30
0.0
 11
-12.34
 21
-6.69836402
 31
0.0
  0
LINE
  5
13A
330
1F
100
AcDbEntity
  8
SK3
100
AcDbLine
 10
-12.34
 20
-6.69836402
 30
0.0
 11
-12.34
 21
-6.3922172741
 31
0.0
  0
LINE
  5
13B
330
1F
100
AcDbEntity
  8
SK3
100
AcDbLine
 10
-12.34
 20
-3.0862998545
 30
0.0
 11
-11.9935898385
 21
-2.8999646021
 31
0.0
  0
LINE
  5
13C
330
1F
100
AcDbEntity
  8
SK3
100
AcDbLine
 10
-11.9935898385
 20
-2.8999646021
 30
0.0
 11
12.46
 21
-2.8999646021
 31
0.0
  0
LINE
  5
13D
330
1F
100
AcDbEntity
  8
SK1
  6
Continuous
100
AcDbLine
 10
7.16
 20
-15.1318274834
 30
0.0
 11
7.16
 21
-14.8256807375
 31
0.0
  0
ARC
  5
13E
330
1F
100
AcDbEntity
  8
SK1
  6
Continuous
100
AcDbCircle
 10
6.967295287
 20
-13.8293790224
 30
0.0
 40
0.1928659025472779
100
AcDbArc
 50
2.3426562868
 51
92.1677698787
  0
LINE
  5
13F
330
1F
100
AcDbEntity
  8
SK1
  6
Continuous
100
AcDbLine
 10
6.96
 20
-13.6366511439
 30
0.0
 11
3.76
 21
-13.6366511439
 31
0.0
  0
ARC
  5
140
330
1F
100
AcDbEntity
  8
SK1
  6
Continuous
100
AcDbCircle
 10
3.7527050682
 20
-13.8293794067
 30
0.0
 40
0.1928662731557781
100
AcDbArc
 50
87.8323398835
 51
177.6572339504
  0
LINE
  5
141
330
1F
100
AcDbEntity
  8
SK1
  6
Continuous
100
AcDbLine
 10
7.16
 20
-14.8256807375
 30
0.0
 11
7.5559292144
 21
-15.0369335821
 31
0.0
  0
LINE
  5
142
330
1F
100
AcDbEntity
  8
SK1
  6
Continuous
100
AcDbLine
 10
7.5559292144
 20
-15.0369335821
 30
0.0
 11
12.535
 21
-12.3801343776
 31
0.0
  0
ARC
  5
143
330
1F
100
AcDbEntity
  8
SK1
  6
Continuous
100
AcDbCircle
 10
12.4286867999
 20
-12.1746292365
 30
0.0
 40
0.2313760133481221
100
AcDbArc
 50
297.3537111502
 51
358.6648999396
  0
LINE
  5
144
330
1F
100
AcDbEntity
  8
SK1
  6
Continuous
100
AcDbLine
 10
7.16
 20
-15.1318274834
 30
0.0
 11
7.5559292144
 21
-15.343080328
 31
0.0
  0
LINE
  5
145
330
1F
100
AcDbEntity
  8
SK1
  6
Continuous
100
AcDbLine
 10
7.5559292144
 20
-15.343080328
 30
0.0
 11
12.535
 21
-12.6862811235
 31
0.0
  0
ARC
  5
146
330
1F
100
AcDbEntity
  8
SK1
  6
Continuous
100
AcDbCircle
 10
12.4286867999
 20
-12.4807759824
 30
0.0
 40
0.2313760133481448
100
AcDbArc
 50
297.3537111502
 51
358.6648999396
  0
LINE
  5
147
330
1F
100
AcDbEntity
  8
SK1
  6
Continuous
100
AcDbLine
 10
12.66
 20
-12.4861669934
 30
0.0
 11
12.66
 21
-12.1800202475
 31
0.0
  0
LINE
  5
148
330
1F
100
AcDbEntity
  8
SK1
  6
Continuous
100
AcDbLine
 10
3.56
 20
-15.0864587395
 30
0.0
 11
-21.44
 21
-11.8391761147
 31
0.0
  0
LINE
  5
149
330
1F
100
AcDbEntity
  8
SK3
100
AcDbLine
 10
-13.04
 20
-6.7661612883
 30
0.0
 11
-12.34
 21
-6.3922172741
 31
0.0
  0
LINE
  5
14A
330
1F
100
AcDbEntity
  8
SK3
100
AcDbLine
 10
-12.34
 20
-2.7801531086
 30
0.0
 11
-11.9935898385
 21
-2.5938178562
 31
0.0
  0
LINE
  5
14B
330
1F
100
AcDbEntity
  8
SK3
100
AcDbLine
 10
-11.9935898385
 20
-2.5938178562
 30
0.0
 11
12.46
 21
-2.5938178562
 31
0.0
  0
ARC
  5
14C
330
1F
100
AcDbEntity
  8
SK1
  6
Continuous
100
AcDbCircle
 10
6.967295287
 20
-13.5232322765
 30
0.0
 40
0.1928659025472771
100
AcDbArc
 50
2.3426562868
 51
92.1677698787
  0
LINE
  5
14D
330
1F
100
AcDbEntity
  8
SK1
  6
Continuous
100
AcDbLine
 10
6.96
 20
-13.330504398
 30
0.0
 11
3.76
 21
-13.330504398
 31
0.0
  0
ARC
  5
14E
330
1F
100
AcDbEntity
  8
SK1
  6
Continuous
100
AcDbCircle
 10
3.7527050682
 20
-13.5232326608
 30
0.0
 40
0.1928662731557819
100
AcDbArc
 50
87.8323398835
 51
177.6572339504
  0
LINE
  5
14F
330
1F
100
AcDbEntity
  8
SK3
100
AcDbLine
 10
-26.34
 20
-7.4893256376
 30
0.0
 11
-26.34
 21
-5.5785956281
 31
0.0
  0
LINE
  5
150
330
1F
100
AcDbEntity
  8
SK3
100
AcDbLine
 10
-26.34
 20
-7.4893256376
 30
0.0
 11
-27.34
 21
-8.0674398517
 31
0.0
  0
LINE
  5
151
330
1F
100
AcDbEntity
  8
SK3
100
AcDbLine
 10
-12.34
 20
-7.0845715533
 30
0.0
 11
-12.34
 21
-6.69836402
 31
0.0
  0
LINE
  5
152
330
1F
100
AcDbEntity
  8
SK3
100
AcDbLine
 10
-13.04
 20
-7.4893256376
 30
0.0
 11
-13.04
 21
-7.0723080342
 31
0.0
  0
LINE
  5
153
330
1F
100
AcDbEntity
  8
SK1
  6
Continuous
100
AcDbLine
 10
-27.34
 20
-11.8897755192
 30
0.0
 11
-27.34
 21
-8.6901835797
 31
0.0
  0
LINE
  5
154
330
1F
100
AcDbEntity
  8
SK1
  6
Continuous
100
AcDbLine
 10
-27.0817519303
 20
-12.1870199131
 30
0.0
 11
-27.0817519303
 21
-8.9003671062
 31
0.0
  0
LINE
  5
155
330
1F
100
AcDbEntity
  8
SK1
  6
Continuous
100
AcDbLine
 10
3.56
 20
-16.4951507028
 30
0.0
 11
3.56
 21
-15.3926054854
 31
0.0
  0
LINE
  5
156
330
1F
100
AcDbEntity
  8
SK1
  6
Continuous
100
AcDbLine
 10
7.5559292144
 20
-16.4415450588
 30
0.0
 11
7.5559292144
 21
-15.343080328
 31
0.0
  0
LINE
  5
157
330
1F
100
AcDbEntity
  8
SK1
  6
Continuous
100
AcDbLine
 10
7.16
 20
-16.2128866275
 30
0.0
 11
7.16
 21
-15.1318274834
 31
0.0
  0
LINE
  5
158
330
1F
100
AcDbEntity
  8
SK1
  6
Continuous
100
AcDbLine
 10
3.76
 20
-14.5945194196
 30
0.0
 11
3.76
 21
-13.6366511439
 31
0.0
  0
LINE
  5
159
330
1F
100
AcDbEntity
  8
SK1
  6
Continuous
100
AcDbLine
 10
6.96
 20
-14.5945194196
 30
0.0
 11
6.96
 21
-13.6366511439
 31
0.0
  0
SPLINE
  5
15A
330
1F
100
AcDbEntity
  8
SK1
  6
Continuous
100
AcDbSpline
210
0.0
220
0.0
230
1.0
 70
     8
 71
     3
 72
    10
 73
     6
 74
     0
 42
0.0000000310334546
 43
0.0000000001
 12
1.0
 22
0.0
 32
0.0
 13
1.0
 23
0.0
 33
0.0
 40
0.0
 40
0.0
 40
0.0
 40
0.0
 40
0.5
 40
0.5
 40
1.0
 40
1.0
 40
1.0
 40
1.0
 10
7.160000000006033
 20
-14.79459350735458
 30
0.0
 10
7.160000000003549
 20
-14.74243365584034
 30
0.0
 10
7.138792746353437
 20
-14.69054084018482
 30
0.0
 10
7.064184492782819
 20
-14.61583374582571
 30
0.0
 10
7.012831382491554
 20
-14.59451941955493
 30
0.0
 10
6.960000000003644
 20
-14.59451941955573
 30
0.0
  0
LINE
  5
15B
330
1F
100
AcDbEntity
  8
SK1
  6
Continuous
100
AcDbLine
 10
6.96
 20
-14.5945194196
 30
0.0
 11
3.76
 21
-14.5945194196
 31
0.0
  0
SPLINE
  5
15C
330
1F
100
AcDbEntity
  8
SK1
  6
Continuous
100
AcDbSpline
210
0.0
220
0.0
230
1.0
 70
     8
 71
     3
 72
    10
 73
     6
 74
     0
 42
0.0000000310413088
 43
0.0000000001
 12
1.0
 22
0.0
 32
0.0
 13
1.0
 23
0.0
 33
0.0
 40
0.0
 40
0.0
 40
0.0
 40
0.0
 40
0.5
 40
0.5
 40
1.0
 40
1.0
 40
1.0
 40
1.0
 10
3.760000000003639
 20
-14.59451941955573
 30
0.0
 10
3.70712883429203
 20
-14.59451941955573
 30
0.0
 10
3.65541293172522
 20
-14.6162394002437
 30
0.0
 10
3.581619568487654
 20
-14.69012543386558
 30
0.0
 10
3.560000000003635
 20
-14.74238829609438
 30
0.0
 10
3.560000000003644
 20
-14.79459350735485
 30
0.0
  0
LINE
  5
15D
330
1F
100
AcDbEntity
  8
SK1
  6
Continuous
100
AcDbLine
 10
3.56
 20
-16.4951507028
 30
0.0
 11
-27.0817519303
 21
-12.1870199131
 31
0.0
  0
SPLINE
  5
15E
330
1F
100
AcDbEntity
  8
SK1
  6
Continuous
100
AcDbSpline
210
0.0
220
0.0
230
1.0
 70
     8
 71
     3
 72
    10
 73
     6
 74
     0
 42
0.0000000228012562
 43
0.0000000001
 12
1.0
 22
0.0
 32
0.0
 13
1.0
 23
0.0
 33
0.0
 40
0.0
 40
0.0
 40
0.0
 40
0.0
 40
0.5
 40
0.5
 40
1.0
 40
1.0
 40
1.0
 40
1.0
 10
-27.08175193028437
 20
-12.18701991305814
 30
0.0
 10
-27.15329203370893
 20
-12.17696019306025
 30
0.0
 10
-27.21937890303489
 20
-12.14086380471906
 30
0.0
 10
-27.31353686662632
 20
-12.0324380819823
 30
0.0
 10
-27.33999999999635
 20
-11.96126531657385
 30
0.0
 10
-27.33999999999635
 20
-11.88977551921634
 30
0.0
  0
LINE
  5
15F
330
1F
100
AcDbEntity
  8
SK3
100
AcDbLine
 10
-26.34
 20
-7.4893256376
 30
0.0
 11
-13.04
 21
-7.4893256376
 31
0.0
  0
LINE
  5
160
330
1F
100
AcDbEntity
  8
SK3
100
AcDbLine
 10
-13.04
 20
-7.4893256376
 30
0.0
 11
-12.34
 21
-7.0845715533
 31
0.0
  0
LINE
  5
161
330
1F
100
AcDbEntity
  8
SK1
  6
Continuous
100
AcDbLine
 10
7.16
 20
-16.2128866275
 30
0.0
 11
7.5559292144
 21
-16.4415450588
 31
0.0
  0
LINE
  5
162
330
1F
100
AcDbEntity
  8
SK1
  6
Continuous
100
AcDbLine
 10
7.5559292144
 20
-16.4415450588
 30
0.0
 11
10.7131573125
 21
-14.6181119305
 31
0.0
  0
LINE
  5
163
330
1F
100
AcDbEntity
  8
SK3
100
AcDbLine
 10
-11.9935898385
 20
-2.8999646021
 30
0.0
 11
-11.9935898385
 21
-2.9999999002
 31
0.0
  0
LINE
  5
164
330
1F
100
AcDbEntity
  8
SK1
  6
Continuous
100
AcDbLine
 10
12.66
 20
-13.3552358524
 30
0.0
 11
12.66
 21
-12.4861669934
 31
0.0
  0
LINE
  5
165
330
1F
100
AcDbEntity
  8
SK1
  6
Continuous
100
AcDbLine
 10
12.535
 20
-13.5717422033
 30
0.0
 11
12.535
 21
-12.6862811235
 31
0.0
  0
LINE
  5
166
330
1F
100
AcDbEntity
  8
SK3
100
AcDbLine
 10
-21.44
 20
-2.4964889665
 30
0.0
 11
-13.04
 21
-2.4964889665
 31
0.0
  0
SPLINE
  5
167
330
1F
100
AcDbEntity
  8
SK3
100
AcDbSpline
210
0.0
220
0.0
230
1.0
 70
     8
 71
     3
 72
    35
 73
    31
 74
     0
 42
0.0000000082337412
 43
0.0000000001
 12
1.0
 22
0.0
 32
0.0
 13
1.0
 23
0.0
 33
0.0
 40
0.0
 40
0.0
 40
0.0
 40
0.0
 40
0.1073660377437345
 40
0.1073660377437345
 40
0.1073660377437345
 40
0.2147255647765019
 40
0.2147255647765019
 40
0.2147255647765019
 40
0.3221827107303767
 40
0.3221827107303767
 40
0.3221827107303767
 40
0.429706549186594
 40
0.429706549186594
 40
0.429706549186594
 40
0.4999994461104703
 40
0.4999994461104703
 40
0.4999994461104703
 40
0.6073658420290233
 40
0.6073658420290233
 40
0.6073658420290233
 40
0.7147257510639443
 40
0.7147257510639443
 40
0.7147257510639443
 40
0.822182972435231
 40
0.822182972435231
 40
0.822182972435231
 40
0.9297071072602205
 40
0.9297071072602205
 40
0.9297071072602205
 40
1.0
 40
1.0
 40
1.0
 40
1.0
 10
-21.43999999999635
 20
-2.4964889664907
 30
0.0
 10
-21.48473405752196
 20
-2.4964889664907
 30
0.0
 10
-21.53008487346336
 20
-2.503781140565546
 30
0.0
 10
-21.5722955389556
 20
-2.517733604999671
 30
0.0
 10
-21.6145047493507
 20
-2.531685588460778
 30
0.0
 10
-21.65473783769556
 20
-2.552678362894131
 30
0.0
 10
-21.68967443070691
 20
-2.578911111301222
 30
0.0
 10
-21.72464227216605
 20
-2.605167323148738
 30
0.0
 10
-21.75526868569041
 20
-2.637393316405483
 30
0.0
 10
-21.77902281798503
 20
-2.672853004806169
 30
0.0
 10
-21.8027908087549
 20
-2.708333380858504
 30
0.0
 10
-21.82033374842043
 20
-2.748028615818995
 30
0.0
 10
-21.83019250179759
 20
-2.788596021454896
 30
0.0
 10
-21.83669031697746
 20
-2.815333631583107
 30
0.0
 10
-21.83999999999635
 20
-2.842846822268422
 30
0.0
 10
-21.83999999999635
 20
-2.870125642967482
 30
0.0
 10
-21.83999999999635
 20
-2.911454570249654
 30
0.0
 10
-21.83228214687558
 20
-2.953191736145972
 30
0.0
 10
-21.81748887181953
 20
-2.991904376743998
 30
0.0
 10
-21.80269610477253
 20
-3.030615687929078
 30
0.0
 10
-21.78042207596491
 20
-3.067372308223516
 30
0.0
 10
-21.75251004248979
 20
-3.099204211750925
 30
0.0
 10
-21.72457311982189
 20
-3.131064499823809
 30
0.0
 10
-21.69021785866716
 20
-3.158873613659299
 30
0.0
 10
-21.65228157071882
 20
-3.180408185636311
 30
0.0
 10
-21.61432307439926
 20
-3.201955364217559
 30
0.0
 10
-21.57173020967249
 20
-3.217817940758842
 30
0.0
 10
-21.52803281308083
 20
-3.226729676528107
 30
0.0
 10
-21.49923233498761
 20
-3.232603304497152
 30
0.0
 10
-21.46952631591155
 20
-3.23559259249973
 30
0.0
 10
-21.43999999999635
 20
-3.23559259249973
 30
0.0
  0
SPLINE
  5
168
330
1F
100
AcDbEntity
  8
SK1
  6
Continuous
100
AcDbSpline
210
0.0
220
0.0
230
1.0
 70
     8
 71
     3
 72
    35
 73
    31
 74
     0
 42
0.0000000082298495
 43
0.0000000001
 12
1.0
 22
0.0
 32
0.0
 13
1.0
 23
0.0
 33
0.0
 40
0.0
 40
0.0
 40
0.0
 40
0.0
 40
0.1085691522563264
 40
0.1085691522563264
 40
0.1085691522563264
 40
0.2171798304537887
 40
0.2171798304537887
 40
0.2171798304537887
 40
0.3251663674677316
 40
0.3251663674677316
 40
0.3251663674677316
 40
0.4323335716310455
 40
0.4323335716310455
 40
0.4323335716310455
 40
0.5000334811549745
 40
0.5000334811549745
 40
0.5000334811549745
 40
0.6065496263152286
 40
0.6065496263152286
 40
0.6065496263152286
 40
0.7130515738339938
 40
0.7130515738339938
 40
0.7130515738339938
 40
0.8197811402778545
 40
0.8197811402778545
 40
0.8197811402778545
 40
0.9271318666138088
 40
0.9271318666138088
 40
0.9271318666138088
 40
1.0
 40
1.0
 40
1.0
 40
1.0
 10
-21.43999999999636
 20
-5.336904135725287
 30
0.0
 10
-21.48496632145049
 20
-5.334484579830729
 30
0.0
 10
-21.53058861924038
 20
-5.324922679093148
 30
0.0
 10
-21.57309023686659
 20
-5.308948564913605
 30
0.0
 10
-21.61560133579599
 20
-5.292970887212761
 30
0.0
 10
-21.65616561674601
 20
-5.270127311605062
 30
0.0
 10
-21.69134215732813
 20
-5.242245836751861
 30
0.0
 10
-21.72631730002819
 20
-5.214523993001969
 30
0.0
 10
-21.75693695468022
 20
-5.181044962959817
 30
0.0
 10
-21.78057782619154
 20
-5.14455175557716
 30
0.0
 10
-21.8040422170338
 20
-5.108330972400683
 30
0.0
 10
-21.82128256044016
 20
-5.068132566312492
 30
0.0
 10
-21.83082487846815
 20
-5.027280936104961
 30
0.0
 10
-21.83690519276633
 20
-5.001250494599417
 30
0.0
 10
-21.83999999999635
 20
-4.974583343618126
 30
0.0
 10
-21.83999999999635
 20
-4.948197249364579
 30
0.0
 10
-21.83999999999635
 20
-4.907033276046951
 30
0.0
 10
-21.83234152244358
 20
-4.86562061660227
 30
0.0
 10
-21.8176741239514
 20
-4.82740529250353
 30
0.0
 10
-21.80300780657423
 20
-4.789192785207014
 30
0.0
 10
-21.78093262723287
 20
-4.753127173054652
 30
0.0
 10
-21.75330738472767
 20
-4.722201193646164
 30
0.0
 10
-21.72562170636763
 20
-4.691207557347365
 30
0.0
 10
-21.69160785049128
 20
-4.664528214426373
 30
0.0
 10
-21.65409772343271
 20
-4.644349898230386
 30
0.0
 10
-21.61636985080132
 20
-4.624054447293383
 30
0.0
 10
-21.57407903579094
 20
-4.609780337052396
 30
0.0
 10
-21.53070568105859
 20
-4.602668138546835
 30
0.0
 10
-21.50104080554741
 20
-4.597803804566212
 30
0.0
 10
-21.47041592852867
 20
-4.59616388397528
 30
0.0
 10
-21.43999999999636
 20
-4.597800509716257
 30
0.0
  0
LINE
  5
169
330
1F
100
AcDbEntity
  8
SK1
  6
Continuous
100
AcDbLine
 10
10.7131573125
 20
-10.6194087574
 30
0.0
 11
9.8935511324
 21
-10.3884375101
 31
0.0
  0
SPLINE
  5
16A
330
1F
100
AcDbEntity
  8
SK1
  6
Continuous
100
AcDbSpline
210
0.0
220
0.0
230
1.0
 70
     8
 71
     3
 72
    35
 73
    31
 74
     0
 42
0.0000000082307835
 43
0.0000000001
 12
1.0
 22
0.0
 32
0.0
 13
1.0
 23
0.0
 33
0.0
 40
0.0
 40
0.0
 40
0.0
 40
0.0
 40
0.1416945451950145
 40
0.1416945451950145
 40
0.1416945451950145
 40
0.26590335516811
 40
0.26590335516811
 40
0.26590335516811
 40
0.3625711725960195
 40
0.3625711725960195
 40
0.3625711725960195
 40
0.4426387927629714
 40
0.4426387927629714
 40
0.4426387927629714
 40
0.5000240687936582
 40
0.5000240687936582
 40
0.5000240687936582
 40
0.5786149238267727
 40
0.5786149238267727
 40
0.5786149238267727
 40
0.6567115380662901
 40
0.6567115380662901
 40
0.6567115380662901
 40
0.7604030275286379
 40
0.7604030275286379
 40
0.7604030275286379
 40
0.8920654429150604
 40
0.8920654429150604
 40
0.8920654429150604
 40
1.0
 40
1.0
 40
1.0
 40
1.0
 10
10.71315731251577
 20
-10.05372333248026
 30
0.0
 10
10.77161806161911
 20
-10.02984789824764
 30
0.0
 10
10.83099761542203
 20
-10.01333872781113
 30
0.0
 10
10.8867117848053
 20
-10.00601309742246
 30
0.0
 10
10.93558467579149
 20
-9.999586999010626
 30
0.0
 10
10.98289817231972
 20
-10.00010082751099
 30
0.0
 10
11.02406320417207
 20
-10.00909898124029
 30
0.0
 10
11.05617544329178
 20
-10.01611830932504
 30
0.0
 10
11.08526032135441
 20
-10.02853641865793
 30
0.0
 10
11.10795741555004
 20
-10.04663813906582
 30
0.0
 10
11.12678069342842
 20
-10.06165035650555
 30
0.0
 10
11.14158321093203
 20
-10.08099115020935
 30
0.0
 10
11.1503574989643
 20
-10.10370528997906
 30
0.0
 10
11.1566837111481
 20
-10.12008205664403
 30
0.0
 10
11.16000000000365
 20
-10.138479683302
 30
0.0
 10
11.16000000000365
 20
-10.15801231465954
 30
0.0
 10
11.16000000000365
 20
-10.1845633767571
 30
0.0
 10
11.15376075183757
 20
-10.21392602430011
 30
0.0
 10
11.14229231747033
 20
-10.24329672292437
 30
0.0
 10
11.1308647647026
 20
-10.2725627236361
 30
0.0
 10
11.11405548404946
 20
-10.30259114967711
 30
0.0
 10
11.09382705990511
 20
-10.33133436931947
 30
0.0
 10
11.0670619041444
 20
-10.36936584153412
 30
0.0
 10
11.03363876842569
 20
-10.40623693461516
 30
0.0
 10
10.99738631502511
 20
-10.43963455484923
 30
0.0
 10
10.95145416878873
 20
-10.48194960480152
 30
0.0
 10
10.89960535681564
 20
-10.52008233195707
 30
0.0
 10
10.84670718987936
 20
-10.5520518435472
 30
0.0
 10
10.80310682635004
 20
-10.57840213899058
 30
0.0
 10
10.75792581151478
 20
-10.60112525319161
 30
0.0
 10
10.71315731251403
 20
-10.61940875743021
 30
0.0
  0
LINE
  5
16B
330
1F
100
AcDbEntity
  8
SK3
100
AcDbLine
 10
-21.44
 20
-6.7661612883
 30
0.0
 11
-13.04
 21
-6.7661612883
 31
0.0
  0
SPLINE
  5
16C
330
1F
100
AcDbEntity
  8
SK3
100
AcDbSpline
210
0.0
220
0.0
230
1.0
 70
     8
 71
     3
 72
    35
 73
    31
 74
     0
 42
0.0000000109104664
 43
0.0000000001
 12
1.0
 22
0.0
 32
0.0
 13
1.0
 23
0.0
 33
0.0
 40
0.0
 40
0.0
 40
0.0
 40
0.0
 40
0.1073660377437344
 40
0.1073660377437344
 40
0.1073660377437344
 40
0.2147255647765033
 40
0.2147255647765033
 40
0.2147255647765033
 40
0.3221827107303769
 40
0.3221827107303769
 40
0.3221827107303769
 40
0.4297065491865938
 40
0.4297065491865938
 40
0.4297065491865938
 40
0.4999994461104732
 40
0.4999994461104732
 40
0.4999994461104732
 40
0.6073658420290258
 40
0.6073658420290258
 40
0.6073658420290258
 40
0.7147257510639462
 40
0.7147257510639462
 40
0.7147257510639462
 40
0.8221829724352312
 40
0.8221829724352312
 40
0.8221829724352312
 40
0.9297071072602205
 40
0.9297071072602205
 40
0.9297071072602205
 40
1.0
 40
1.0
 40
1.0
 40
1.0
 10
-21.43999999999635
 20
-6.766161288322727
 30
0.0
 10
-21.48473405752196
 20
-6.766161288322726
 30
0.0
 10
-21.53008487346336
 20
-6.769505451237635
 30
0.0
 10
-21.5722955389556
 20
-6.775855344430214
 30
0.0
 10
-21.61450474935071
 20
-6.782205018727609
 30
0.0
 10
-21.65473783769556
 20
-6.791729151865558
 30
0.0
 10
-21.68967443070691
 20
-6.803486035414129
 30
0.0
 10
-21.72464227216605
 20
-6.815253434709371
 30
0.0
 10
-21.75526868569041
 20
-6.829573556189287
 30
0.0
 10
-21.77902281798503
 20
-6.845083589029225
 30
0.0
 10
-21.8027908087549
 20
-6.860602670627653
 30
0.0
 10
-21.82033374842043
 20
-6.877734115940961
 30
0.0
 10
-21.83019250179759
 20
-6.894930275546717
 30
0.0
 10
-21.83669031697746
 20
-6.906264108806055
 30
0.0
 10
-21.83999999999635
 20
-6.917797136564865
 30
0.0
 10
-21.83999999999635
 20
-6.929096394063959
 30
0.0
 10
-21.83999999999635
 20
-6.946215396262565
 30
0.0
 10
-21.83228214687558
 20
-6.963180349258746
 30
0.0
 10
-21.81748887181953
 20
-6.97864568992936
 30
0.0
 10
-21.80269610477253
 20
-6.994110499511838
 30
0.0
 10
-21.78042207596491
 20
-7.008507665437749
 30
0.0
 10
-21.75251004248979
 20
-7.020802226605895
 30
0.0
 10
-21.72457311982189
 20
-7.033107750848564
 30
0.0
 10
-21.69021785866716
 20
-7.043654805082003
 30
0.0
 10
-21.65228157071882
 20
-7.051752058196799
 30
0.0
 10
-21.61432307439926
 20
-7.059854051543514
 30
0.0
 10
-21.57173020967249
 20
-7.065734605036732
 30
0.0
 10
-21.52803281308083
 20
-7.069032872255636
 30
0.0
 10
-21.49923233498761
 20
-7.071206724251243
 30
0.0
 10
-21.46952631591155
 20
-7.072308034214799
 30
0.0
 10
-21.43999999999635
 20
-7.072308034214799
 30
0.0
  0
SPLINE
  5
16D
330
1F
100
AcDbEntity
  8
SK1
  6
Continuous
100
AcDbSpline
210
0.0
220
0.0
230
1.0
 70
     8
 71
     3
 72
    35
 73
    31
 74
     0
 42
0.0000000108585508
 43
0.0000000001
 12
1.0
 22
0.0
 32
0.0
 13
1.0
 23
0.0
 33
0.0
 40
0.0
 40
0.0
 40
0.0
 40
0.0
 40
0.1085691522563366
 40
0.1085691522563366
 40
0.1085691522563366
 40
0.2171798304538012
 40
0.2171798304538012
 40
0.2171798304538012
 40
0.3251663674677705
 40
0.3251663674677705
 40
0.3251663674677705
 40
0.4323335716311028
 40
0.4323335716311028
 40
0.4323335716311028
 40
0.5000334811550593
 40
0.5000334811550593
 40
0.5000334811550593
 40
0.606549626315336
 40
0.606549626315336
 40
0.606549626315336
 40
0.7130515738341229
 40
0.7130515738341229
 40
0.7130515738341229
 40
0.8197811402780061
 40
0.8197811402780061
 40
0.8197811402780061
 40
0.9271318666139832
 40
0.9271318666139832
 40
0.9271318666139832
 40
1.0
 40
1.0
 40
1.0
 40
1.0
 10
-21.43999999999638
 20
-12.14532286064107
 30
0.0
 10
-21.48496632145048
 20
-12.13948153598532
 30
0.0
 10
-21.5305886192404
 20
-12.130799874072
 30
0.0
 10
-21.5730902368666
 20
-12.1199435396005
 30
0.0
 10
-21.61560133579599
 20
-12.1090847832871
 30
0.0
 10
-21.65616561674601
 20
-12.0957440168029
 30
0.0
 10
-21.69134215732811
 20
-12.08093290693638
 30
0.0
 10
-21.72631730002818
 20
-12.06620659580528
 30
0.0
 10
-21.75693695468021
 20
-12.04961075793703
 30
0.0
 10
-21.78057782619154
 20
-12.03242784677608
 30
0.0
 10
-21.8040422170338
 20
-12.01537320718315
 30
0.0
 10
-21.82128256044016
 20
-11.99726179572658
 30
0.0
 10
-21.83082487846815
 20
-11.97953478349577
 30
0.0
 10
-21.83690519276633
 20
-11.9682392255805
 30
0.0
 10
-21.83999999999635
 20
-11.95693452790814
 30
0.0
 10
-21.83999999999635
 20
-11.94600504981027
 30
0.0
 10
-21.83999999999635
 20
-11.92895437378094
 30
0.0
 10
-21.83234152244358
 20
-11.91243848278824
 30
0.0
 10
-21.8176741239514
 20
-11.89785913140299
 30
0.0
 10
-21.80300780657423
 20
-11.88328085464292
 30
0.0
 10
-21.78093262723287
 20
-11.87024074439786
 30
0.0
 10
-21.75330738472767
 20
-11.8598909208589
 30
0.0
 10
-21.72562170636763
 20
-11.8495184549691
 30
0.0
 10
-21.69160785049128
 20
-11.8415680264411
 30
0.0
 10
-21.65409772343271
 20
-11.83677149177452
 30
0.0
 10
-21.61636985080132
 20
-11.83194711331559
 30
0.0
 10
-21.57407903579094
 20
-11.83018432507521
 30
0.0
 10
-21.53070568105859
 20
-11.83167373085229
 30
0.0
 10
-21.50104080554741
 20
-11.83269239858587
 30
0.0
 10
-21.47041592852868
 20
-11.83522495068861
 30
0.0
 10
-21.43999999999659
 20
-11.83917611474897
 30
0.0
  0
LINE
  5
16E
330
1F
100
AcDbEntity
  8
SK3
100
AcDbLine
 10
-21.44
 20
-7.0723080342
 30
0.0
 11
-13.04
 21
-7.0723080342
 31
0.0
  0
LINE
  5
16F
330
1F
100
AcDbEntity
  8
SK1
  6
Continuous
100
AcDbLine
 10
-21.44
 20
-11.8391761147
 30
0.0
 11
-21.44
 21
-12.1453228606
 31
0.0
  0
SPLINE
  5
170
330
1F
100
AcDbEntity
  8
SK1
  6
Continuous
100
AcDbSpline
210
0.0
220
0.0
230
1.0
 70
     8
 71
     3
 72
    20
 73
    16
 74
     0
 42
0.0000000194831573
 43
0.0000000001
 12
1.0
 22
0.0
 32
0.0
 13
1.0
 23
0.0
 33
0.0
 40
0.0
 40
0.0
 40
0.0
 40
0.0
 40
0.2833754493754042
 40
0.2833754493754042
 40
0.2833754493754042
 40
0.5317811116703121
 40
0.5317811116703121
 40
0.5317811116703121
 40
0.7251074402634002
 40
0.7251074402634002
 40
0.7251074402634002
 40
0.8852349724434556
 40
0.8852349724434556
 40
0.8852349724434556
 40
1.0
 40
1.0
 40
1.0
 40
1.0
 10
10.71315731250802
 20
-14.61811193047125
 30
0.0
 10
10.77161806160556
 20
-14.58434696756219
 30
0.0
 10
10.83099761541408
 20
-14.55035436335161
 30
0.0
 10
10.88671178479751
 20
-14.51871686267462
 30
0.0
 10
10.93558467578417
 20
-14.49096420767162
 30
0.0
 10
10.98289817231297
 20
-14.46430739463546
 30
0.0
 10
11.02406320416606
 20
-14.44124542859451
 30
0.0
 10
11.05617544328665
 20
-14.42325512627333
 30
0.0
 10
11.08526032135021
 20
-14.40705007405532
 30
0.0
 10
11.10795741554674
 20
-14.39443946549796
 30
0.0
 10
11.12678069342575
 20
-14.38398116686981
 30
0.0
 10
11.14158321093004
 20
-14.37578580004978
 30
0.0
 10
11.15035749896295
 20
-14.37093121555639
 30
0.0
 10
11.15668371114762
 20
-14.36743108751656
 30
0.0
 10
11.16000000000365
 20
-14.36559882347081
 30
0.0
 10
11.16000000000365
 20
-14.36559882347081
 30
0.0
  0
SPLINE
  5
171
330
1F
100
AcDbEntity
  8
SK1
  6
Continuous
100
AcDbSpline
210
0.0
220
0.0
230
1.0
 70
     8
 71
     3
 72
    20
 73
    16
 74
     0
 42
0.0000000194831625
 43
0.0000000001
 12
1.0
 22
0.0
 32
0.0
 13
1.0
 23
0.0
 33
0.0
 40
0.0
 40
0.0
 40
0.0
 40
0.0
 40
0.1571892767772257
 40
0.1571892767772257
 40
0.1571892767772257
 40
0.3133900243818551
 40
0.3133900243818551
 40
0.3133900243818551
 40
0.52078298670135
 40
0.52078298670135
 40
0.52078298670135
 40
0.78412049390387
 40
0.78412049390387
 40
0.78412049390387
 40
1.0
 40
1.0
 40
1.0
 40
1.0
 10
11.16000000000365
 20
14.3655990230122
 30
0.0
 10
11.16000000000365
 20
14.3655990230122
 30
0.0
 10
11.15376075183757
 20
14.36904519058179
 30
0.0
 10
11.14229231747033
 20
14.37539545540491
 30
0.0
 10
11.1308647647026
 20
14.38172308339942
 30
0.0
 10
11.11405548404946
 20
14.39104130989888
 30
0.0
 10
11.09382705990511
 20
14.40229605017757
 30
0.0
 10
11.0670619041444
 20
14.41718771323822
 30
0.0
 10
11.03363876842569
 20
14.43584726808988
 30
0.0
 10
10.99738631502511
 20
14.45621055486681
 30
0.0
 10
10.95145416878873
 20
14.48201100086025
 30
0.0
 10
10.89960535681564
 20
14.51132200351977
 30
0.0
 10
10.84670718987935
 20
14.54147842384448
 30
0.0
 10
10.80310682634808
 20
14.56633431139428
 30
0.0
 10
10.75792581151073
 20
14.59225535035012
 30
0.0
 10
10.71315731250802
 20
14.61811213001264
 30
0.0
  0
LINE
  5
172
330
1F
100
AcDbEntity
  8
SK3
100
AcDbLine
 10
-21.44
 20
6.7661614879
 30
0.0
 11
-13.04
 21
6.7661614879
 31
0.0
  0
SPLINE
  5
173
330
1F
100
AcDbEntity
  8
SK3
100
AcDbSpline
210
0.0
220
0.0
230
1.0
 70
     8
 71
     3
 72
    35
 73
    31
 74
     0
 42
0.000000010911183
 43
0.0000000001
 12
1.0
 22
0.0
 32
0.0
 13
1.0
 23
0.0
 33
0.0
 40
0.0
 40
0.0
 40
0.0
 40
0.0
 40
0.1073660377437345
 40
0.1073660377437345
 40
0.1073660377437345
 40
0.2147255647765019
 40
0.2147255647765019
 40
0.2147255647765019
 40
0.3221827107303767
 40
0.3221827107303767
 40
0.3221827107303767
 40
0.4297065491865939
 40
0.4297065491865939
 40
0.4297065491865939
 40
0.4999994461104709
 40
0.4999994461104709
 40
0.4999994461104709
 40
0.607365842029025
 40
0.607365842029025
 40
0.607365842029025
 40
0.7147257510639458
 40
0.7147257510639458
 40
0.7147257510639458
 40
0.8221829724352312
 40
0.8221829724352312
 40
0.8221829724352312
 40
0.9297071072602204
 40
0.9297071072602204
 40
0.9297071072602204
 40
1.0
 40
1.0
 40
1.0
 40
1.0
 10
-21.43999999999635
 20
7.072308233756181
 30
0.0
 10
-21.48473405752196
 20
7.072308233756181
 30
0.0
 10
-21.53008487346336
 20
7.069745420230386
 30
0.0
 10
-21.5722955389556
 20
7.064773060868827
 30
0.0
 10
-21.6145047493507
 20
7.059800872915745
 30
0.0
 10
-21.65473783769556
 20
7.052277256735925
 30
0.0
 10
-21.68967443070691
 20
7.042671252494465
 30
0.0
 10
-21.72464227216605
 20
7.033056656324138
 30
0.0
 10
-21.75526868569041
 20
7.021082373079124
 30
0.0
 10
-21.77902281798503
 20
7.00755718347353
 30
0.0
 10
-21.8027908087549
 20
6.994024103093266
 30
0.0
 10
-21.82033374842043
 20
6.978556390437907
 30
0.0
 10
-21.83019250179759
 20
6.962308026937199
 30
0.0
 10
-21.83669031697746
 20
6.951598877518019
 30
0.0
 10
-21.83999999999636
 20
6.940395851104434
 30
0.0
 10
-21.83999999999636
 20
6.929096593605339
 30
0.0
 10
-21.83999999999636
 20
6.911977591406733
 30
0.0
 10
-21.83228214687558
 20
6.894232492122638
 30
0.0
 10
-21.81748887181953
 20
6.877391146047714
 30
0.0
 10
-21.80269610477253
 20
6.860550378313692
 30
0.0
 10
-21.78042207596491
 20
6.844154425331413
 30
0.0
 10
-21.75251004248979
 20
6.829709656951422
 30
0.0
 10
-21.72457311982189
 20
6.815252008154633
 30
0.0
 10
-21.69021785866716
 20
6.802358681459155
 30
0.0
 10
-21.65228157071882
 20
6.792275354655057
 30
0.0
 10
-21.61432307439926
 20
6.782186124946991
 30
0.0
 10
-21.57173020967249
 20
6.774639906910075
 30
0.0
 10
-21.52803281308083
 20
6.770392625374114
 30
0.0
 10
-21.49923233498761
 20
6.76759328837985
 30
0.0
 10
-21.46952631591155
 20
6.766161487864109
 30
0.0
 10
-21.43999999999635
 20
6.76616148786411
 30
0.0
  0
SPLINE
  5
174
330
1F
100
AcDbEntity
  8
SK1
  6
Continuous
100
AcDbSpline
210
0.0
220
0.0
230
1.0
 70
     8
 71
     3
 72
    35
 73
    31
 74
     0
 42
0.0000000108594273
 43
0.0000000001
 12
1.0
 22
0.0
 32
0.0
 13
1.0
 23
0.0
 33
0.0
 40
0.0
 40
0.0
 40
0.0
 40
0.0
 40
0.1085691522563261
 40
0.1085691522563261
 40
0.1085691522563261
 40
0.2171798304537879
 40
0.2171798304537879
 40
0.2171798304537879
 40
0.3251663674677303
 40
0.3251663674677303
 40
0.3251663674677303
 40
0.4323335716310439
 40
0.4323335716310439
 40
0.4323335716310439
 40
0.5000334811547403
 40
0.5000334811547403
 40
0.5000334811547403
 40
0.6065496263152305
 40
0.6065496263152305
 40
0.6065496263152305
 40
0.7130515738339953
 40
0.7130515738339953
 40
0.7130515738339953
 40
0.8197811402778556
 40
0.8197811402778556
 40
0.8197811402778556
 40
0.9271318666138095
 40
0.9271318666138095
 40
0.9271318666138095
 40
1.0
 40
1.0
 40
1.0
 40
1.0
 10
-21.43999999999636
 20
11.83917631429039
 30
0.0
 10
-21.48496632145049
 20
11.83333498963482
 30
0.0
 10
-21.53058861924038
 20
11.83061916635038
 30
0.0
 10
-21.57309023686659
 20
11.83124010508267
 30
0.0
 10
-21.61560133579599
 20
11.8318611823346
 30
0.0
 10
-21.65616561674601
 20
11.83583806504789
 30
0.0
 10
-21.69134215732813
 20
11.84277346745405
 30
0.0
 10
-21.72631730002819
 20
11.84966916227861
 30
0.0
 10
-21.75693695468022
 20
11.85967813332854
 30
0.0
 10
-21.78057782619154
 20
11.87187103470634
 30
0.0
 10
-21.8040422170338
 20
11.8839729152691
 30
0.0
 10
-21.82128256044016
 20
11.89855791764169
 30
0.0
 10
-21.83082487846815
 20
11.91433976673205
 30
0.0
 10
-21.83690519276633
 20
11.92439587703924
 30
0.0
 10
-21.83999999999766
 20
11.93507577125355
 30
0.0
 10
-21.83999999999768
 20
11.94600524935141
 30
0.0
 10
-21.83999999999772
 20
11.96305592538079
 30
0.0
 10
-21.83234152244364
 20
11.98111158778904
 30
0.0
 10
-21.8176741239514
 20
11.99870859542822
 30
0.0
 10
-21.80300780657423
 20
12.01630430601462
 30
0.0
 10
-21.78093262723287
 20
12.03392841740358
 30
0.0
 10
-21.75330738472767
 20
12.0502175359951
 30
0.0
 10
-21.72562170636763
 20
12.06654229035728
 30
0.0
 10
-21.69160785049128
 20
12.08197802942731
 30
0.0
 10
-21.65409772343271
 20
12.09537302124542
 30
0.0
 10
-21.61636985080132
 20
12.10884577073579
 30
0.0
 10
-21.57407903579094
 20
12.12062692193964
 30
0.0
 10
-21.53070568105859
 20
12.12984545829502
 30
0.0
 10
-21.50104080554741
 20
12.13615040600002
 30
0.0
 10
-21.47041592852867
 20
12.14137189612206
 30
0.0
 10
-21.43999999999636
 20
12.14532306018246
 30
0.0
  0
LINE
  5
175
330
1F
100
AcDbEntity
  8
SK3
100
AcDbLine
 10
-21.44
 20
7.0723082338
 30
0.0
 11
-13.04
 21
7.0723082338
 31
0.0
  0
LINE
  5
176
330
1F
100
AcDbEntity
  8
SK1
  6
Continuous
100
AcDbLine
 10
-21.44
 20
12.1453230602
 30
0.0
 11
-21.44
 21
11.8391763143
 31
0.0
  0
SPLINE
  5
177
330
1F
100
AcDbEntity
  8
SK1
  6
Continuous
100
AcDbSpline
210
0.0
220
0.0
230
1.0
 70
     8
 71
     3
 72
    35
 73
    31
 74
     0
 42
0.0000000082306935
 43
0.0000000001
 12
1.0
 22
0.0
 32
0.0
 13
1.0
 23
0.0
 33
0.0
 40
0.0
 40
0.0
 40
0.0
 40
0.0
 40
0.1416945451938097
 40
0.1416945451938097
 40
0.1416945451938097
 40
0.2659033551666752
 40
0.2659033551666752
 40
0.2659033551666752
 40
0.3625711725953381
 40
0.3625711725953381
 40
0.3625711725953381
 40
0.4426387927623993
 40
0.4426387927623993
 40
0.4426387927623993
 40
0.5000240687967994
 40
0.5000240687967994
 40
0.5000240687967994
 40
0.5786149238294209
 40
0.5786149238294209
 40
0.5786149238294209
 40
0.6567115380684467
 40
0.6567115380684467
 40
0.6567115380684467
 40
0.7604030275301472
 40
0.7604030275301472
 40
0.7604030275301472
 40
0.8920654429157463
 40
0.8920654429157463
 40
0.8920654429157463
 40
1.0
 40
1.0
 40
1.0
 40
1.0
 10
10.71315731250802
 20
10.61940895697403
 30
0.0
 10
10.77161806160557
 20
10.59553352273453
 30
0.0
 10
10.83099761541409
 20
10.56396989127047
 30
0.0
 10
10.88671178479752
 20
10.52655333912297
 30
0.0
 10
10.93558467578417
 20
10.49373125643847
 30
0.0
 10
10.98289817231298
 20
10.45551900141352
 30
0.0
 10
11.02406320416607
 20
10.4139063025349
 30
0.0
 10
11.05617544328666
 20
10.38144484491689
 30
0.0
 10
11.08526032135022
 20
10.3461093309588
 30
0.0
 10
11.10795741554674
 20
10.31017351689961
 30
0.0
 10
11.12678069342576
 20
10.28037103170095
 30
0.0
 10
11.14158321093005
 20
10.24944023909194
 30
0.0
 10
11.15035749896296
 20
10.21986068009218
 30
0.0
 10
11.15668371114763
 20
10.19853398488235
 30
0.0
 10
11.16000000000365
 20
10.17754514555983
 30
0.0
 10
11.16000000000365
 20
10.15801251420092
 30
0.0
 10
11.16000000000365
 20
10.13146145210336
 30
0.0
 10
11.15376075183757
 20
10.10697242147548
 30
0.0
 10
11.14229231747034
 20
10.08658235348874
 30
0.0
 10
11.1308647647026
 20
10.06626497010449
 30
0.0
 10
11.11405548404947
 20
10.04941450635628
 30
0.0
 10
11.09382705990512
 20
10.03658789305704
 30
0.0
 10
11.06706190414441
 20
10.01961641270906
 30
0.0
 10
11.03363876842569
 20
10.00913391516707
 30
0.0
 10
10.99738631502511
 20
10.00453433126743
 30
0.0
 10
10.95145416878873
 20
9.998706621954339
 30
0.0
 10
10.89960535681564
 20
10.00202591228664
 30
0.0
 10
10.84670718987935
 20
10.01270401931233
 30
0.0
 10
10.80310682635003
 20
10.02150525714512
 30
0.0
 10
10.75792581151478
 20
10.03544002778454
 30
0.0
 10
10.71315731251403
 20
10.05372353202234
 30
0.0
  0
LINE
  5
178
330
1F
100
AcDbEntity
  8
SK1
  6
Continuous
100
AcDbLine
 10
9.8935511324
 20
10.3884377096
 30
0.0
 11
10.7131573125
 21
10.619408957
 31
0.0
  0
LINE
  5
179
330
1F
100
AcDbEntity
  8
SK3
100
AcDbLine
 10
-21.44
 20
2.496489166
 30
0.0
 11
-13.04
 21
2.496489166
 31
0.0
  0
SPLINE
  5
17A
330
1F
100
AcDbEntity
  8
SK3
100
AcDbSpline
210
0.0
220
0.0
230
1.0
 70
     8
 71
     3
 72
    35
 73
    31
 74
     0
 42
0.0000000082338785
 43
0.0000000001
 12
1.0
 22
0.0
 32
0.0
 13
1.0
 23
0.0
 33
0.0
 40
0.0
 40
0.0
 40
0.0
 40
0.0
 40
0.1073660377437344
 40
0.1073660377437344
 40
0.1073660377437344
 40
0.2147255647765018
 40
0.2147255647765018
 40
0.2147255647765018
 40
0.322182710730377
 40
0.322182710730377
 40
0.322182710730377
 40
0.4297065491865933
 40
0.4297065491865933
 40
0.4297065491865933
 40
0.4999994461104723
 40
0.4999994461104723
 40
0.4999994461104723
 40
0.6073658420290264
 40
0.6073658420290264
 40
0.6073658420290264
 40
0.7147257510639475
 40
0.7147257510639475
 40
0.7147257510639475
 40
0.8221829724352377
 40
0.8221829724352377
 40
0.8221829724352377
 40
0.9297071072602207
 40
0.9297071072602207
 40
0.9297071072602207
 40
1.0
 40
1.0
 40
1.0
 40
1.0
 10
-21.43999999999635
 20
3.23559279204111
 30
0.0
 10
-21.48473405752196
 20
3.23559279204111
 30
0.0
 10
-21.53008487346336
 20
3.228624263480186
 30
0.0
 10
-21.5722955389556
 20
3.215242392241498
 30
0.0
 10
-21.6145047493507
 20
3.201860982306187
 30
0.0
 10
-21.65473783769556
 20
3.18169684912865
 30
0.0
 10
-21.68967443070691
 20
3.156355024101591
 30
0.0
 10
-21.72464227216605
 20
3.130990532505535
 30
0.0
 10
-21.75526868569041
 20
3.09973621726082
 30
0.0
 10
-21.77902281798503
 20
3.065098677846983
 30
0.0
 10
-21.8027908087549
 20
3.030440930434102
 30
0.0
 10
-21.82033374842043
 20
2.991434836104696
 30
0.0
 10
-21.83019250179759
 20
2.951260020469872
 30
0.0
 10
-21.83669031697746
 20
2.924781162860447
 30
0.0
 10
-21.83999999999636
 20
2.897404663207924
 30
0.0
 10
-21.83999999999636
 20
2.870125842508864
 30
0.0
 10
-21.83999999999636
 20
2.828796915226691
 30
0.0
 10
-21.83228214687558
 20
2.786736602157284
 30
0.0
 10
-21.81748887181953
 20
2.747454001458895
 30
0.0
 10
-21.80269610477253
 20
2.708172749746187
 30
0.0
 10
-21.78042207596491
 20
2.670588204744705
 30
0.0
 10
-21.75251004248979
 20
2.637865656228237
 30
0.0
 10
-21.72457311982189
 20
2.605113928977119
 30
0.0
 10
-21.69021785866716
 20
2.576332957266831
 30
0.0
 10
-21.65228157071881
 20
2.553975726631839
 30
0.0
 10
-21.61432307439926
 20
2.531605407798081
 30
0.0
 10
-21.57173020967249
 20
2.515052890412434
 30
0.0
 10
-21.52803281308083
 20
2.505748060042158
 30
0.0
 10
-21.49923233498761
 20
2.499615347703608
 30
0.0
 10
-21.46952631591155
 20
2.49648916603208
 30
0.0
 10
-21.43999999999635
 20
2.49648916603208
 30
0.0
  0
SPLINE
  5
17B
330
1F
100
AcDbEntity
  8
SK1
  6
Continuous
100
AcDbSpline
210
0.0
220
0.0
230
1.0
 70
     8
 71
     3
 72
    35
 73
    31
 74
     0
 42
0.000000008229749
 43
0.0000000001
 12
1.0
 22
0.0
 32
0.0
 13
1.0
 23
0.0
 33
0.0
 40
0.0
 40
0.0
 40
0.0
 40
0.0
 40
0.1085691522563361
 40
0.1085691522563361
 40
0.1085691522563361
 40
0.2171798304538
 40
0.2171798304538
 40
0.2171798304538
 40
0.3251663674677688
 40
0.3251663674677688
 40
0.3251663674677688
 40
0.4323335716311008
 40
0.4323335716311008
 40
0.4323335716311008
 40
0.5000334811548249
 40
0.5000334811548249
 40
0.5000334811548249
 40
0.6065496263153373
 40
0.6065496263153373
 40
0.6065496263153373
 40
0.7130515738341253
 40
0.7130515738341253
 40
0.7130515738341253
 40
0.8197811402780071
 40
0.8197811402780071
 40
0.8197811402780071
 40
0.9271318666139835
 40
0.9271318666139835
 40
0.9271318666139835
 40
1.0
 40
1.0
 40
1.0
 40
1.0
 10
-21.43999999999638
 20
4.597800709257634
 30
0.0
 10
-21.48496632145048
 20
4.595381153362994
 30
0.0
 10
-21.5305886192404
 20
4.600222061154721
 30
0.0
 10
-21.5730902368666
 20
4.611956535602828
 30
0.0
 10
-21.61560133579599
 20
4.623693627789184
 30
0.0
 10
-21.65616561674601
 20
4.642658555742482
 30
0.0
 10
-21.69134215732811
 20
4.667277805752313
 30
0.0
 10
-21.72631730002818
 20
4.691756102026296
 30
0.0
 10
-21.75693695468021
 20
4.722506762498758
 30
0.0
 10
-21.78057782619154
 20
4.756933040152854
 30
0.0
 10
-21.8040422170338
 20
4.791102323367869
 30
0.0
 10
-21.82128256044016
 20
4.829840042986994
 30
0.0
 10
-21.83082487846815
 20
4.869885960240723
 30
0.0
 10
-21.83690519276633
 20
4.895403005737118
 30
0.0
 10
-21.83999999999766
 20
4.921811354652128
 30
0.0
 10
-21.83999999999768
 20
4.948197448905633
 30
0.0
 10
-21.83999999999772
 20
4.989361422223418
 30
0.0
 10
-21.83234152244364
 20
5.03141187587134
 30
0.0
 10
-21.8176741239514
 20
5.070877154117166
 30
0.0
 10
-21.80300780657423
 20
5.110339523428107
 30
0.0
 10
-21.78093262723287
 20
5.148303891024208
 30
0.0
 10
-21.75330738472767
 20
5.181690006994403
 30
0.0
 10
-21.72562170636763
 20
5.215149161905616
 30
0.0
 10
-21.69160785049128
 20
5.244929021971693
 30
0.0
 10
-21.65409772343271
 20
5.268668935735326
 30
0.0
 10
-21.61636985080132
 20
5.29254665924599
 30
0.0
 10
-21.57407903579094
 20
5.310970511299218
 30
0.0
 10
-21.53070568105859
 20
5.322518084661154
 30
0.0
 10
-21.50104080554741
 20
5.330415959482041
 30
0.0
 10
-21.47041592852868
 20
5.335267709525692
 30
0.0
 10
-21.43999999999659
 20
5.336904335266653
 30
0.0
  0
LINE
  5
17C
330
1F
100
AcDbEntity
  8
SK3
100
AcDbLine
 10
-21.44
 20
3.235592792
 30
0.0
 11
-13.04
 21
3.235592792
 31
0.0
  0
LINE
  5
17D
330
1F
100
AcDbEntity
  8
SK1
  6
Continuous
100
AcDbLine
 10
-21.44
 20
5.3369043353
 30
0.0
 11
-21.44
 21
4.5978007093
 31
0.0
  0
SPLINE
  5
17E
330
1F
100
AcDbEntity
  8
SK1
  6
Continuous
100
AcDbSpline
210
0.0
220
0.0
230
1.0
 70
     8
 71
     3
 72
    35
 73
    31
 74
     0
 42
0.0000000074864766
 43
0.0000000001
 12
1.0
 22
0.0
 32
0.0
 13
1.0
 23
0.0
 33
0.0
 40
0.0
 40
0.0
 40
0.0
 40
0.0
 40
0.1416945451940205
 40
0.1416945451940205
 40
0.1416945451940205
 40
0.2659033551664506
 40
0.2659033551664506
 40
0.2659033551664506
 40
0.3625711725940712
 40
0.3625711725940712
 40
0.3625711725940712
 40
0.4426387927606572
 40
0.4426387927606572
 40
0.4426387927606572
 40
0.500024068791986
 40
0.500024068791986
 40
0.500024068791986
 40
0.5786149238245933
 40
0.5786149238245933
 40
0.5786149238245933
 40
0.6567115380636047
 40
0.6567115380636047
 40
0.6567115380636047
 40
0.7604030275252834
 40
0.7604030275252834
 40
0.7604030275252834
 40
0.8920654429108608
 40
0.8920654429108608
 40
0.8920654429108608
 40
1.0
 40
1.0
 40
1.0
 40
1.0
 10
10.71315731251385
 20
0.400000099770685
 30
0.0
 10
10.77161806161575
 20
0.4000000997706851
 30
0.0
 10
10.83099761542006
 20
0.3893549882856134
 30
0.0
 10
10.88671178480337
 20
0.3680774934575845
 30
0.0
 10
10.93558467578968
 20
0.3494127139822304
 30
0.0
 10
10.98289817231805
 20
0.32202923771266
 30
0.0
 10
11.02406320417058
 20
0.2862419606320147
 30
0.0
 10
11.05617544329051
 20
0.2583248293352031
 30
0.0
 10
11.08526032135337
 20
0.2245579184801537
 30
0.0
 10
11.10795741554922
 20
0.1863476114201498
 30
0.0
 10
11.12678069342776
 20
0.1546588312878301
 30
0.0
 10
11.14158321093154
 20
0.1191114517052114
 30
0.0
 10
11.15035749896397
 20
0.0821342226922025
 30
0.0
 10
11.15668371114799
 20
0.0554738491269987
 30
0.0
 10
11.16000000000365
 20
0.0276234119458439
 30
0.0
 10
11.16000000000365
 20
0.0000000997706877
 30
0.0
 10
11.16000000000365
 20
-0.0375487723430868
 30
0.0
 10
11.15376075183757
 20
-0.0756276591559985
 30
0.0
 10
11.14229231747034
 20
-0.1108138346636806
 30
0.0
 10
11.1308647647026
 20
-0.1458745817921253
 30
0.0
 10
11.11405548404947
 20
-0.1790229626565802
 30
0.0
 10
11.09382705990512
 20
-0.2084172734223763
 30
0.0
 10
11.06706190414441
 20
-0.2473102341646913
 30
0.0
 10
11.03363876842569
 20
-0.280794279207769
 30
0.0
 10
10.99738631502511
 20
-0.3076623599168457
 30
0.0
 10
10.95145416878873
 20
-0.3417044314584246
 30
0.0
 10
10.89960535681564
 20
-0.3663212487125533
 30
0.0
 10
10.84670718987935
 20
-0.3813765452610605
 30
0.0
 10
10.80310682634808
 20
-0.3937856029015015
 30
0.0
 10
10.75792581151073
 20
-0.399999900229314
 30
0.0
 10
10.71315731250802
 20
-0.3999999002293148
 30
0.0
  0
LINE
  5
17F
330
1F
100
AcDbEntity
  8
SK1
  6
Continuous
100
AcDbLine
 10
-12.34
 20
-0.3999999002
 30
0.0
 11
-12.34
 21
0.4000000998
 31
0.0
  0
LINE
  5
180
330
1F
100
AcDbEntity
  8
SK3
100
AcDbLine
 10
-21.44
 20
-3.2355925925
 30
0.0
 11
-13.04
 21
-3.2355925925
 31
0.0
  0
LINE
  5
181
330
1F
100
AcDbEntity
  8
SK1
  6
Continuous
100
AcDbLine
 10
-21.44
 20
-4.5978005097
 30
0.0
 11
-21.44
 21
-5.3369041357
 31
0.0
  0
ARC
  5
182
330
1F
100
AcDbEntity
  8
SK3
100
AcDbCircle
 10
12.46
 20
3.2000000998
 30
0.0
 40
0.2000000000000016
100
AcDbArc
 50
270.0
 51
0.0
  0
LINE
  5
183
330
1F
100
AcDbEntity
  8
SK3
100
AcDbLine
 10
12.46
 20
3.0000000998
 30
0.0
 11
-11.9935898385
 21
3.0000000998
 31
0.0
  0
LINE
  5
184
330
1F
100
AcDbEntity
  8
SK3
100
AcDbLine
 10
-11.9935898385
 20
3.0000000998
 30
0.0
 11
-12.34
 21
3.2000000998
 31
0.0
  0
ARC
  5
185
330
1F
100
AcDbEntity
  8
SK1
  6
Continuous
100
AcDbCircle
 10
12.41
 20
13.3552360519
 30
0.0
 40
0.2500000000000017
100
AcDbArc
 50
0.0
 51
60.0
  0
LINE
  5
186
330
1F
100
AcDbEntity
  8
SK1
  6
Continuous
100
AcDbLine
 10
12.535
 20
13.5717424029
 30
0.0
 11
11.16
 21
14.365599023
 31
0.0
  0
ARC
  5
187
330
1F
100
AcDbEntity
  8
SK3
100
AcDbCircle
 10
12.46
 20
-3.1999999002
 30
0.0
 40
0.1999999999999995
100
AcDbArc
 50
0.0
 51
90.0
  0
LINE
  5
188
330
1F
100
AcDbEntity
  8
SK3
100
AcDbLine
 10
-11.9935898385
 20
-2.9999999002
 30
0.0
 11
12.46
 21
-2.9999999002
 31
0.0
  0
LINE
  5
189
330
1F
100
AcDbEntity
  8
SK3
100
AcDbLine
 10
-12.34
 20
-3.1999999002
 30
0.0
 11
-11.9935898385
 21
-2.9999999002
 31
0.0
  0
ARC
  5
18A
330
1F
100
AcDbEntity
  8
SK1
  6
Continuous
100
AcDbCircle
 10
12.41
 20
-13.3552358524
 30
0.0
 40
0.2499999999999995
100
AcDbArc
 50
300.0
 51
0.0
  0
LINE
  5
18B
330
1F
100
AcDbEntity
  8
SK1
  6
Continuous
100
AcDbLine
 10
11.16
 20
-14.3655988235
 30
0.0
 11
12.535
 21
-13.5717422033
 31
0.0
  0
LINE
  5
18C
330
1F
100
AcDbEntity
  8
SK3
100
AcDbLine
 10
-21.84
 20
-2.870125643
 30
0.0
 11
-21.84
 21
-4.9481972494
 31
0.0
  0
LINE
  5
18D
330
1F
100
AcDbEntity
  8
SK3
100
AcDbLine
 10
11.0378798942
 20
-10.0124956395
 30
0.0
 11
-12.34
 21
-3.4244315045
 31
0.0
  0
LINE
  5
18E
330
1F
100
AcDbEntity
  8
SK3
100
AcDbLine
 10
-21.84
 20
-6.9290963941
 30
0.0
 11
-21.84
 21
-11.9460050498
 31
0.0
  0
LINE
  5
18F
330
1F
100
AcDbEntity
  8
SK3
100
AcDbLine
 10
11.16
 20
-14.3655988235
 30
0.0
 11
-12.34
 21
-4.9999999002
 31
0.0
  0
LINE
  5
190
330
1F
100
AcDbEntity
  8
SK3
100
AcDbLine
 10
11.0365314793
 20
10.0121158455
 30
0.0
 11
11.0378798942
 21
10.012495839
 31
0.0
  0
LINE
  5
191
330
1F
100
AcDbEntity
  8
SK3
100
AcDbLine
 10
-12.34
 20
5.0000000998
 30
0.0
 11
11.16
 21
14.365599023
 31
0.0
  0
LINE
  5
192
330
1F
100
AcDbEntity
  8
SK3
100
AcDbLine
 10
-21.84
 20
11.9460052494
 30
0.0
 11
-21.84
 21
6.9290965936
 31
0.0
  0
LINE
  5
193
330
1F
100
AcDbEntity
  8
SK3
100
AcDbLine
 10
-12.34
 20
3.424431704
 30
0.0
 11
11.0365314793
 21
10.0121158455
 31
0.0
  0
LINE
  5
194
330
1F
100
AcDbEntity
  8
SK3
100
AcDbLine
 10
-21.84
 20
4.9481974489
 30
0.0
 11
-21.84
 21
2.8701258425
 31
0.0
  0
LINE
  5
195
330
1F
100
AcDbEntity
  8
SK1
  6
Continuous
100
AcDbLine
 10
0.0
 20
15.9946264661
 30
0.0
 11
0.0
 21
-15.9946262665
 31
0.0
  0
LINE
  5
197
330
1F
100
AcDbEntity
  8
SK4
  6
Continuous
100
AcDbLine
 10
12.66
 20
0.0000000998
 30
0.0
 11
-27.34
 21
0.0000000998
 31
0.0
  0
DIMENSION
  5
1AC
330
1F
100
AcDbEntity
  8
SK2
  6
Continuous
 62
   136
100
AcDbDimension
  2
DMBLK69
 10
22.7289219639
 20
3.0000000998
 30
0.0
 11
22.7289219639
 21
8.7126489534
 31
0.0
 70
   161
  1
\A1;ø <>
 71
     5
 42
-1.0
  3
DIN
100
AcDbAlignedDimension
 13
12.46
 23
3.0000000998
 33
0.0
 14
12.46
 24
-2.9999999002
 34
0.0
  0
DIMENSION
  5
1B7
330
1F
100
AcDbEntity
  8
SK2
  6
Continuous
 62
   136
100
AcDbDimension
  2
DMBLK70
 10
12.66
 20
-24.2398625069
 30
0.0
 11
6.329999771
 21
-24.2398625069
 31
0.0
 70
   160
  1
\A1;<>
 71
     5
 42
-1.0
  3
DIN
100
AcDbAlignedDimension
 13
0.0
 23
-15.9946262665
 33
0.0
 14
12.66
 24
-12.3330936204
 34
0.0
100
AcDbRotatedDimension
  0
DIMENSION
  5
1C1
330
1F
100
AcDbEntity
  8
SK2
  6
Continuous
 62
   136
100
AcDbDimension
  2
DMBLK71
 10
-34.4738066196
 20
15.9946264661
 30
0.0
 11
-34.4738066196
 21
-0.0000005626
 31
0.0
 70
   161
  1
\A1;ø <>
 71
     5
 42
-1.0
  3
DIN
100
AcDbAlignedDimension
 13
0.0
 23
15.9946264661
 33
0.0
 14
0.0
 24
-15.9946262665
 34
0.0
1001
ACAD
1000
DSTYLE
1002
{
1070
   271
1070
     1
1070
   272
1070
     1
1070
     0
1002
}
  0
DIMENSION
  5
1CC
330
1F
100
AcDbEntity
  8
SK2
  6
Continuous
 62
   136
100
AcDbDimension
  2
DMBLK72
 10
-27.34
 20
23.3590667476
 30
0.0
 11
-7.339999553
 21
23.3590667476
 31
0.0
 70
   160
  1
\A1;<>
 71
     5
 42
-1.0
  3
DIN
100
AcDbAlignedDimension
 13
12.66
 23
12.4861671929
 33
0.0
 14
-27.34
 24
10.289979749
 34
0.0
100
AcDbRotatedDimension
  0
ENDSEC
  0
SECTION
  2
OBJECTS
  0
DICTIONARY
  5
C
330
0
100
AcDbDictionary
281
     1
  3
ACAD_GROUP
350
D
  3
ACAD_LAYOUT
350
1A
  3
ACAD_MATERIAL
350
3B
  3
ACAD_MLEADERSTYLE
350
1D8
  3
ACAD_MLINESTYLE
350
17
  3
ACAD_PLOTSETTINGS
350
19
  3
ACAD_PLOTSTYLENAME
350
E
  3
ACAD_VISUALSTYLE
350
2A
  3
AcDbVariableDictionary
350
1D6
  0
DICTIONARY
  5
D
102
{ACAD_REACTORS
330
C
102
}
330
C
100
AcDbDictionary
281
     1
  0
DICTIONARY
  5
1A
102
{ACAD_REACTORS
330
C
102
}
330
C
100
AcDbDictionary
281
     1
  3
Layout1
350
1E
  3
Model
350
22
  0
DICTIONARY
  5
3B
102
{ACAD_REACTORS
330
C
102
}
330
C
100
AcDbDictionary
281
     1
  3
ByBlock
350
3D
  3
ByLayer
350
3C
  3
Global
350
3E
  0
DICTIONARY
  5
1D8
102
{ACAD_REACTORS
330
C
102
}
330
C
100
AcDbDictionary
281
     1
  0
DICTIONARY
  5
17
102
{ACAD_REACTORS
330
C
102
}
330
C
100
AcDbDictionary
281
     1
  3
Standard
350
18
  0
DICTIONARY
  5
19
102
{ACAD_REACTORS
330
C
102
}
330
C
100
AcDbDictionary
281
     1
  0
ACDBDICTIONARYWDFLT
  5
E
102
{ACAD_REACTORS
330
C
102
}
330
C
100
AcDbDictionary
281
     1
  3
Normal
350
F
100
AcDbDictionaryWithDefault
340
F
  0
DICTIONARY
  5
2A
102
{ACAD_REACTORS
330
C
102
}
330
C
100
AcDbDictionary
281
     1
  3
2dWireframe
350
2F
  3
3D Hidden
350
31
  3
3dWireframe
350
30
  3
Basic
350
32
  3
Brighten
350
36
  3
ColorChange
350
3A
  3
Conceptual
350
34
  3
Dim
350
35
  3
Facepattern
350
39
  3
Flat
350
2B
  3
FlatWithEdges
350
2C
  3
Gouraud
350
2D
  3
GouraudWithEdges
350
2E
  3
Linepattern
350
38
  3
Realistic
350
33
  3
Thicken
350
37
  0
DICTIONARY
  5
1D6
102
{ACAD_REACTORS
330
C
102
}
330
C
100
AcDbDictionary
281
     1
  3
DIMASSOC
350
1DB
  3
HIDETEXT
350
1DC
  3
PSOLHEIGHT
350
1DA
  3
PSOLWIDTH
350
1D9
  0
LAYOUT
  5
1E
102
{ACAD_REACTORS
330
1A
102
}
330
1A
100
AcDbPlotSettings
  1

  2
none_device
  4

  6

 40
0.0
 41
0.0
 42
0.0
 43
0.0
 44
0.0
 45
0.0
 46
0.0
 47
0.0
 48
0.0
 49
0.0
140
0.0
141
0.0
142
1.0
143
1.0
 70
   688
 72
     0
 73
     0
 74
     5
  7

 75
    16
147
1.0
148
0.0
149
0.0
100
AcDbLayout
  1
Layout1
 70
     1
 71
     1
 10
0.0
 20
0.0
 11
210.0
 21
297.0
 12
0.0
 22
0.0
 32
0.0
 14
0.0
 24
0.0
 34
0.0
 15
210.0
 25
297.0
 35
0.0
146
0.0
 13
0.0
 23
0.0
 33
0.0
 16
1.0
 26
0.0
 36
0.0
 17
0.0
 27
1.0
 37
0.0
 76
     0
330
1B
  0
LAYOUT
  5
22
102
{ACAD_REACTORS
330
1A
102
}
330
1A
100
AcDbPlotSettings
  1

  2
none_device
  4

  6

 40
0.0
 41
0.0
 42
0.0
 43
0.0
 44
0.0
 45
0.0
 46
0.0
 47
0.0
 48
0.0
 49
0.0
140
0.0
141
0.0
142
1.0
143
1.0
 70
  1712
 72
     0
 73
     0
 74
     0
  7

 75
     0
147
1.0
148
0.0
149
0.0
100
AcDbLayout
  1
Model
 70
     1
 71
     0
 10
0.0
 20
0.0
 11
210.0
 21
297.0
 12
0.0
 22
0.0
 32
0.0
 14
0.0
 24
0.0
 34
0.0
 15
210.0
 25
297.0
 35
0.0
146
0.0
 13
0.0
 23
0.0
 33
0.0
 16
1.0
 26
0.0
 36
0.0
 17
0.0
 27
1.0
 37
0.0
 76
     0
330
1F
331
29
  0
MATERIAL
  5
3D
102
{ACAD_REACTORS
330
3B
102
}
102
{ACAD_XDICTIONARY
360
1FF
102
}
330
3B
100
AcDbMaterial
  1
ByBlock
  0
MATERIAL
  5
3C
102
{ACAD_REACTORS
330
3B
102
}
102
{ACAD_XDICTIONARY
360
1FD
102
}
330
3B
100
AcDbMaterial
  1
ByLayer
  0
MATERIAL
  5
3E
102
{ACAD_REACTORS
330
3B
102
}
102
{ACAD_XDICTIONARY
360
201
102
}
330
3B
100
AcDbMaterial
  1
Global
  0
MLINESTYLE
  5
18
102
{ACAD_REACTORS
330
17
102
}
330
17
100
AcDbMlineStyle
  2
Standard
 70
     0
  3

 62
   256
 51
90.0
 52
90.0
 71
     2
 49
0.5
 62
   256
  6
BYLAYER
 49
-0.5
 62
   256
  6
BYLAYER
  0
ACDBPLACEHOLDER
  5
F
102
{ACAD_REACTORS
330
E
102
}
330
E
  0
VISUALSTYLE
  5
2F
102
{ACAD_REACTORS
330
2A
102
}
102
{ACAD_XDICTIONARY
360
1E5
102
}
330
2A
100
AcDbVisualStyle
  2
2dWireframe
 70
     4
 71
     0
 72
     2
 73
     0
 90
        0
 40
-0.6
 41
-30.0
 62
     5
 63
     7
 74
     1
 91
        4
 64
     7
 65
   257
 75
     1
175
     1
 42
1.0
 92
        0
 66
   257
 43
1.0
 76
     1
 77
     6
 78
     2
 67
     7
 79
     5
170
     0
171
     0
290
     0
174
     0
 93
        1
 44
0.0
173
     0
291
     0
 45
0.0
1001
ACAD
1000
AcDbSavedByObjectVersion
1070
     0
  0
VISUALSTYLE
  5
31
102
{ACAD_REACTORS
330
2A
102
}
102
{ACAD_XDICTIONARY
360
1E9
102
}
330
2A
100
AcDbVisualStyle
  2
3D Hidden
 70
     6
 71
     1
 72
     2
 73
     2
 90
        0
 40
-0.6
 41
-30.0
 62
     5
 63
     7
 74
     2
 91
        2
 64
     7
 65
   257
 75
     2
175
     1
 42
40.0
 92
        0
 66
   257
 43
1.0
 76
     1
 77
     6
 78
     2
 67
     7
 79
     3
170
     0
171
     0
290
     0
174
     0
 93
        1
 44
0.0
173
     0
291
     0
 45
0.0
1001
ACAD
1000
AcDbSavedByObjectVersion
1070
     0
  0
VISUALSTYLE
  5
30
102
{ACAD_REACTORS
330
2A
102
}
102
{ACAD_XDICTIONARY
360
1E7
102
}
330
2A
100
AcDbVisualStyle
  2
3dWireframe
 70
     5
 71
     0
 72
     2
 73
     0
 90
        0
 40
-0.6
 41
-30.0
 62
     5
 63
     7
 74
     1
 91
        4
 64
     7
 65
   257
 75
     1
175
     1
 42
1.0
 92
        0
 66
   257
 43
1.0
 76
     1
 77
     6
 78
     2
 67
     7
 79
     5
170
     0
171
     0
290
     0
174
     0
 93
        1
 44
0.0
173
     0
291
     0
 45
0.0
1001
ACAD
1000
AcDbSavedByObjectVersion
1070
     0
  0
VISUALSTYLE
  5
32
102
{ACAD_REACTORS
330
2A
102
}
102
{ACAD_XDICTIONARY
360
1EB
102
}
330
2A
100
AcDbVisualStyle
  2
Basic
 70
     7
 71
     1
 72
     0
 73
     1
 90
        0
 40
-0.6
 41
-30.0
 62
     5
 63
     7
 74
     0
 91
        4
 64
     7
 65
   257
 75
     1
175
     1
 42
1.0
 92
        8
 66
     7
 43
1.0
 76
     1
 77
     6
 78
     2
 67
     7
 79
     5
170
     0
171
     0
290
     0
174
     0
 93
        1
 44
0.0
173
     0
291
     1
 45
0.0
1001
ACAD
1000
AcDbSavedByObjectVersion
1070
     0
  0
VISUALSTYLE
  5
36
102
{ACAD_REACTORS
330
2A
102
}
102
{ACAD_XDICTIONARY
360
1F3
102
}
330
2A
100
AcDbVisualStyle
  2
Brighten
 70
    12
 71
     2
 72
     2
 73
     0
 90
        0
 40
-0.6
 41
-30.0
 62
     5
 63
     7
 74
     1
 91
        4
 64
     7
 65
   257
 75
     1
175
     1
 42
1.0
 92
        8
 66
     7
 43
1.0
 76
     1
 77
     6
 78
     2
 67
     7
 79
     5
170
     0
171
     0
290
     0
174
     0
 93
        1
 44
50.0
173
     0
291
     1
 45
0.0
1001
ACAD
1000
AcDbSavedByObjectVersion
1070
     0
  0
VISUALSTYLE
  5
3A
102
{ACAD_REACTORS
330
2A
102
}
102
{ACAD_XDICTIONARY
360
1FB
102
}
330
2A
100
AcDbVisualStyle
  2
ColorChange
 70
    16
 71
     2
 72
     2
 73
     3
 90
        0
 40
-0.6
 41
-30.0
 62
     5
 63
     8
 74
     1
 91
        4
 64
     7
 65
   257
 75
     1
175
     1
 42
1.0
 92
        8
 66
     8
 43
1.0
 76
     1
 77
     6
 78
     2
 67
     7
 79
     5
170
     0
171
     0
290
     0
174
     0
 93
        1
 44
0.0
173
     0
291
     1
 45
0.0
1001
ACAD
1000
AcDbSavedByObjectVersion
1070
     0
  0
VISUALSTYLE
  5
34
102
{ACAD_REACTORS
330
2A
102
}
102
{ACAD_XDICTIONARY
360
1EF
102
}
330
2A
100
AcDbVisualStyle
  2
Conceptual
 70
     9
 71
     3
 72
     2
 73
     0
 90
        0
 40
-0.6
 41
-30.0
 62
     5
 63
     7
 74
     2
 91
        2
 64
     7
 65
   257
 75
     1
175
     1
 42
40.0
 92
        8
 66
     7
 43
1.0
 76
     1
 77
     6
 78
     2
 67
     7
 79
     3
170
     0
171
     0
290
     0
174
     0
 93
        1
 44
0.0
173
     0
291
     0
 45
0.0
1001
ACAD
1000
AcDbSavedByObjectVersion
1070
     0
  0
VISUALSTYLE
  5
35
102
{ACAD_REACTORS
330
2A
102
}
102
{ACAD_XDICTIONARY
360
1F1
102
}
330
2A
100
AcDbVisualStyle
  2
Dim
 70
    11
 71
     2
 72
     2
 73
     0
 90
        0
 40
-0.6
 41
-30.0
 62
     5
 63
     7
 74
     1
 91
        4
 64
     7
 65
   257
 75
     1
175
     1
 42
1.0
 92
        8
 66
     7
 43
1.0
 76
     1
 77
     6
 78
     2
 67
     7
 79
     5
170
     0
171
     0
290
     0
174
     0
 93
        1
 44
-50.0
173
     0
291
     1
 45
0.0
1001
ACAD
1000
AcDbSavedByObjectVersion
1070
     0
  0
VISUALSTYLE
  5
39
102
{ACAD_REACTORS
330
2A
102
}
102
{ACAD_XDICTIONARY
360
1F9
102
}
330
2A
100
AcDbVisualStyle
  2
Facepattern
 70
    15
 71
     2
 72
     2
 73
     0
 90
        0
 40
-0.6
 41
-30.0
 62
     5
 63
     7
 74
     1
 91
        4
 64
     7
 65
   257
 75
     1
175
     1
 42
1.0
 92
        8
 66
     7
 43
1.0
 76
     1
 77
     6
 78
     2
 67
     7
 79
     5
170
     0
171
     0
290
     0
174
     0
 93
        1
 44
0.0
173
     0
291
     1
 45
0.0
1001
ACAD
1000
AcDbSavedByObjectVersion
1070
     0
  0
VISUALSTYLE
  5
2B
102
{ACAD_REACTORS
330
2A
102
}
102
{ACAD_XDICTIONARY
360
1DD
102
}
330
2A
100
AcDbVisualStyle
  2
Flat
 70
     0
 71
     2
 72
     1
 73
     1
 90
        2
 40
-0.6
 41
30.0
 62
     5
 63
     7
 74
     0
 91
        4
 64
     7
 65
   257
 75
     1
175
     1
 42
1.0
 92
        8
 66
     7
 43
1.0
 76
     1
 77
     6
 78
     2
 67
     7
 79
     5
170
     0
171
     0
290
     0
174
     0
 93
       13
 44
0.0
173
     0
291
     1
 45
0.0
1001
ACAD
1000
AcDbSavedByObjectVersion
1070
     0
  0
VISUALSTYLE
  5
2C
102
{ACAD_REACTORS
330
2A
102
}
102
{ACAD_XDICTIONARY
360
1DF
102
}
330
2A
100
AcDbVisualStyle
  2
FlatWithEdges
 70
     1
 71
     2
 72
     1
 73
     1
 90
        2
 40
-0.6
 41
30.0
 62
     5
 63
     7
 74
     1
 91
        4
 64
     7
 65
   257
 75
     1
175
     1
 42
1.0
 92
        0
 66
   257
 43
1.0
 76
     1
 77
     6
 78
     2
 67
     7
 79
     5
170
     0
171
     0
290
     0
174
     0
 93
       13
 44
0.0
173
     0
291
     1
 45
0.0
1001
ACAD
1000
AcDbSavedByObjectVersion
1070
     0
  0
VISUALSTYLE
  5
2D
102
{ACAD_REACTORS
330
2A
102
}
102
{ACAD_XDICTIONARY
360
1E1
102
}
330
2A
100
AcDbVisualStyle
  2
Gouraud
 70
     2
 71
     2
 72
     2
 73
     1
 90
        2
 40
-0.6
 41
30.0
 62
     5
 63
     7
 74
     0
 91
        4
 64
     7
 65
   257
 75
     1
175
     1
 42
1.0
 92
        0
 66
     7
 43
1.0
 76
     1
 77
     6
 78
     2
 67
     7
 79
     5
170
     0
171
     0
290
     0
174
     0
 93
       13
 44
0.0
173
     0
291
     1
 45
0.0
1001
ACAD
1000
AcDbSavedByObjectVersion
1070
     0
  0
VISUALSTYLE
  5
2E
102
{ACAD_REACTORS
330
2A
102
}
102
{ACAD_XDICTIONARY
360
1E3
102
}
330
2A
100
AcDbVisualStyle
  2
GouraudWithEdges
 70
     3
 71
     2
 72
     2
 73
     1
 90
        2
 40
-0.6
 41
30.0
 62
     5
 63
     7
 74
     1
 91
        4
 64
     7
 65
   257
 75
     1
175
     1
 42
1.0
 92
        0
 66
   257
 43
1.0
 76
     1
 77
     6
 78
     2
 67
     7
 79
     5
170
     0
171
     0
290
     0
174
     0
 93
       13
 44
0.0
173
     0
291
     1
 45
0.0
1001
ACAD
1000
AcDbSavedByObjectVersion
1070
     0
  0
VISUALSTYLE
  5
38
102
{ACAD_REACTORS
330
2A
102
}
102
{ACAD_XDICTIONARY
360
1F7
102
}
330
2A
100
AcDbVisualStyle
  2
Linepattern
 70
    14
 71
     2
 72
     2
 73
     0
 90
        0
 40
-0.6
 41
-30.0
 62
     5
 63
     7
 74
     1
 91
        4
 64
     7
 65
   257
 75
     7
175
     7
 42
1.0
 92
        8
 66
     7
 43
1.0
 76
     1
 77
     6
 78
     2
 67
     7
 79
     5
170
     0
171
     0
290
     0
174
     0
 93
        1
 44
0.0
173
     0
291
     1
 45
0.0
1001
ACAD
1000
AcDbSavedByObjectVersion
1070
     0
  0
VISUALSTYLE
  5
33
102
{ACAD_REACTORS
330
2A
102
}
102
{ACAD_XDICTIONARY
360
1ED
102
}
330
2A
100
AcDbVisualStyle
  2
Realistic
 70
     8
 71
     2
 72
     2
 73
     0
 90
        0
 40
-0.6
 41
-30.0
 62
     5
 63
     7
 74
     1
 91
        0
 64
     7
 65
   257
 75
     1
175
     1
 42
1.0
 92
        8
 66
     8
 43
1.0
 76
     1
 77
     6
 78
     2
 67
     7
 79
     5
170
     0
171
     0
290
     0
174
     0
 93
       13
 44
0.0
173
     0
291
     0
 45
0.0
1001
ACAD
1000
AcDbSavedByObjectVersion
1070
     0
  0
VISUALSTYLE
  5
37
102
{ACAD_REACTORS
330
2A
102
}
102
{ACAD_XDICTIONARY
360
1F5
102
}
330
2A
100
AcDbVisualStyle
  2
Thicken
 70
    13
 71
     2
 72
     2
 73
     0
 90
        0
 40
-0.6
 41
-30.0
 62
     5
 63
     7
 74
     1
 91
        4
 64
     7
 65
   257
 75
     1
175
     1
 42
1.0
 92
       12
 66
     7
 43
1.0
 76
     1
 77
     6
 78
     2
 67
     7
 79
     5
170
     0
171
     0
290
     0
174
     0
 93
        1
 44
0.0
173
     0
291
     1
 45
0.0
1001
ACAD
1000
AcDbSavedByObjectVersion
1070
     0
  0
DICTIONARYVAR
  5
1DB
102
{ACAD_REACTORS
330
1D6
102
}
330
1D6
100
DictionaryVariables
280
     0
  1
2
  0
DICTIONARYVAR
  5
1DC
102
{ACAD_REACTORS
330
1D6
102
}
330
1D6
100
DictionaryVariables
280
     0
  1
1
  0
DICTIONARYVAR
  5
1DA
102
{ACAD_REACTORS
330
1D6
102
}
330
1D6
100
DictionaryVariables
280
     0
  1
80.000000
  0
DICTIONARYVAR
  5
1D9
102
{ACAD_REACTORS
330
1D6
102
}
330
1D6
100
DictionaryVariables
280
     0
  1
5.000000
  0
DICTIONARY
  5
1FF
330
3D
100
AcDbDictionary
280
     1
281
     1
  3
ACAD_XREC_ROUNDTRIP
360
200
  0
DICTIONARY
  5
1FD
330
3C
100
AcDbDictionary
280
     1
281
     1
  3
ACAD_XREC_ROUNDTRIP
360
1FE
  0
DICTIONARY
  5
201
330
3E
100
AcDbDictionary
280
     1
281
     1
  3
ACAD_XREC_ROUNDTRIP
360
202
  0
DICTIONARY
  5
1E5
330
2F
100
AcDbDictionary
280
     1
281
     1
  3
ACAD_XREC_ROUNDTRIP
360
1E6
  0
DICTIONARY
  5
1E9
330
31
100
AcDbDictionary
280
     1
281
     1
  3
ACAD_XREC_ROUNDTRIP
360
1EA
  0
DICTIONARY
  5
1E7
330
30
100
AcDbDictionary
280
     1
281
     1
  3
ACAD_XREC_ROUNDTRIP
360
1E8
  0
DICTIONARY
  5
1EB
330
32
100
AcDbDictionary
280
     1
281
     1
  3
ACAD_XREC_ROUNDTRIP
360
1EC
  0
DICTIONARY
  5
1F3
330
36
100
AcDbDictionary
280
     1
281
     1
  3
ACAD_XREC_ROUNDTRIP
360
1F4
  0
DICTIONARY
  5
1FB
330
3A
100
AcDbDictionary
280
     1
281
     1
  3
ACAD_XREC_ROUNDTRIP
360
1FC
  0
DICTIONARY
  5
1EF
330
34
100
AcDbDictionary
280
     1
281
     1
  3
ACAD_XREC_ROUNDTRIP
360
1F0
  0
DICTIONARY
  5
1F1
330
35
100
AcDbDictionary
280
     1
281
     1
  3
ACAD_XREC_ROUNDTRIP
360
1F2
  0
DICTIONARY
  5
1F9
330
39
100
AcDbDictionary
280
     1
281
     1
  3
ACAD_XREC_ROUNDTRIP
360
1FA
  0
DICTIONARY
  5
1DD
330
2B
100
AcDbDictionary
280
     1
281
     1
  3
ACAD_XREC_ROUNDTRIP
360
1DE
  0
DICTIONARY
  5
1DF
330
2C
100
AcDbDictionary
280
     1
281
     1
  3
ACAD_XREC_ROUNDTRIP
360
1E0
  0
DICTIONARY
  5
1E1
330
2D
100
AcDbDictionary
280
     1
281
     1
  3
ACAD_XREC_ROUNDTRIP
360
1E2
  0
DICTIONARY
  5
1E3
330
2E
100
AcDbDictionary
280
     1
281
     1
  3
ACAD_XREC_ROUNDTRIP
360
1E4
  0
DICTIONARY
  5
1F7
330
38
100
AcDbDictionary
280
     1
281
     1
  3
ACAD_XREC_ROUNDTRIP
360
1F8
  0
DICTIONARY
  5
1ED
330
33
100
AcDbDictionary
280
     1
281
     1
  3
ACAD_XREC_ROUNDTRIP
360
1EE
  0
DICTIONARY
  5
1F5
330
37
100
AcDbDictionary
280
     1
281
     1
  3
ACAD_XREC_ROUNDTRIP
360
1F6
  0
XRECORD
  5
200
102
{ACAD_REACTORS
330
1FF
102
}
330
1FF
100
AcDbXrecord
280
     1
102
MATERIAL
148
0.0
149
0.0
149
0.0
 93
        0
 94
      127
282
     0
 72
     1
 77
     1
171
     1
175
     1
179
     1
273
     0
  0
XRECORD
  5
1FE
102
{ACAD_REACTORS
330
1FD
102
}
330
1FD
100
AcDbXrecord
280
     1
102
MATERIAL
148
0.0
149
0.0
149
0.0
 93
        0
 94
      127
282
     0
 72
     1
 77
     1
171
     1
175
     1
179
     1
273
     0
  0
XRECORD
  5
202
102
{ACAD_REACTORS
330
201
102
}
330
201
100
AcDbXrecord
280
     1
102
MATERIAL
148
0.0
149
0.0
149
0.0
 93
        0
 94
      127
282
     0
 72
     1
 77
     1
171
     1
175
     1
179
     1
273
     0
  0
XRECORD
  5
1E6
102
{ACAD_REACTORS
330
1E5
102
}
330
1E5
100
AcDbXrecord
280
     1
102
RTVSPropertyOp0
 70
     1
102
RTVSPropertyOp1
 70
     1
102
RTVSPropertyOp2
 70
     1
102
RTVSPropertyOp3
 70
     1
102
RTVSPropertyOp4
 70
     1
102
RTVSPropertyOp5
 70
     1
102
RTVSPropertyOp6
 70
     1
102
RTVSPropertyOp7
 70
     1
102
RTVSPropertyOp8
 70
     1
102
RTVSPropertyOp9
 70
     1
102
RTVSPropertyOp10
 70
     1
102
RTVSPropertyOp11
 70
     1
102
RTVSPropertyOp12
 70
     1
102
RTVSPropertyOp13
 70
     1
102
RTVSPropertyOp14
 70
     1
102
RTVSPropertyOp15
 70
     1
102
RTVSPropertyOp16
 70
     1
102
RTVSPropertyOp17
 70
     1
102
RTVSPropertyOp18
 70
     1
102
RTVSPropertyOp19
 70
     1
102
RTVSPropertyOp20
 70
     1
102
RTVSPropertyOp21
 70
     1
102
RTVSPropertyOp22
 70
     1
102
RTVSPropertyOp23
 70
     1
102
RTVSPropertyOp24
 70
     1
102
RTVSPropertyOp25
 70
     1
102
RTVSPropertyOp26
 70
     1
102
RTVSPropertyOp27
 70
     1
102
RTVSPropertyOp28
 70
     1
102
RTVSPropertyOp29
 70
     1
102
RTVSPropertyOp30
 70
     1
102
RTVSPropertyOp31
 70
     1
102
RTVSPropertyOp32
 70
     1
  0
XRECORD
  5
1EA
102
{ACAD_REACTORS
330
1E9
102
}
330
1E9
100
AcDbXrecord
280
     1
102
RTVSPropertyOp0
 70
     1
102
RTVSPropertyOp1
 70
     1
102
RTVSPropertyOp2
 70
     1
102
RTVSPropertyOp3
 70
     1
102
RTVSPropertyOp4
 70
     1
102
RTVSPropertyOp5
 70
     1
102
RTVSPropertyOp6
 70
     1
102
RTVSPropertyOp7
 70
     1
102
RTVSPropertyOp8
 70
     1
102
RTVSPropertyOp9
 70
     1
102
RTVSPropertyOp10
 70
     1
102
RTVSPropertyOp11
 70
     1
102
RTVSPropertyOp12
 70
     1
102
RTVSPropertyOp13
 70
     1
102
RTVSPropertyOp14
 70
     1
102
RTVSPropertyOp15
 70
     1
102
RTVSPropertyOp16
 70
     1
102
RTVSPropertyOp17
 70
     1
102
RTVSPropertyOp18
 70
     1
102
RTVSPropertyOp19
 70
     1
102
RTVSPropertyOp20
 70
     1
102
RTVSPropertyOp21
 70
     1
102
RTVSPropertyOp22
 70
     1
102
RTVSPropertyOp23
 70
     1
102
RTVSPropertyOp24
 70
     1
102
RTVSPropertyOp25
 70
     1
102
RTVSPropertyOp26
 70
     1
102
RTVSPropertyOp27
 70
     1
102
RTVSPropertyOp28
 70
     1
102
RTVSPropertyOp29
 70
     1
102
RTVSPropertyOp30
 70
     1
102
RTVSPropertyOp31
 70
     1
102
RTVSPropertyOp32
 70
     1
  0
XRECORD
  5
1E8
102
{ACAD_REACTORS
330
1E7
102
}
330
1E7
100
AcDbXrecord
280
     1
102
RTVSPropertyOp0
 70
     1
102
RTVSPropertyOp1
 70
     1
102
RTVSPropertyOp2
 70
     1
102
RTVSPropertyOp3
 70
     1
102
RTVSPropertyOp4
 70
     1
102
RTVSPropertyOp5
 70
     1
102
RTVSPropertyOp6
 70
     1
102
RTVSPropertyOp7
 70
     1
102
RTVSPropertyOp8
 70
     1
102
RTVSPropertyOp9
 70
     1
102
RTVSPropertyOp10
 70
     1
102
RTVSPropertyOp11
 70
     1
102
RTVSPropertyOp12
 70
     1
102
RTVSPropertyOp13
 70
     1
102
RTVSPropertyOp14
 70
     1
102
RTVSPropertyOp15
 70
     1
102
RTVSPropertyOp16
 70
     1
102
RTVSPropertyOp17
 70
     1
102
RTVSPropertyOp18
 70
     1
102
RTVSPropertyOp19
 70
     1
102
RTVSPropertyOp20
 70
     1
102
RTVSPropertyOp21
 70
     1
102
RTVSPropertyOp22
 70
     1
102
RTVSPropertyOp23
 70
     1
102
RTVSPropertyOp24
 70
     1
102
RTVSPropertyOp25
 70
     1
102
RTVSPropertyOp26
 70
     1
102
RTVSPropertyOp27
 70
     1
102
RTVSPropertyOp28
 70
     1
102
RTVSPropertyOp29
 70
     1
102
RTVSPropertyOp30
 70
     1
102
RTVSPropertyOp31
 70
     1
102
RTVSPropertyOp32
 70
     1
  0
XRECORD
  5
1EC
102
{ACAD_REACTORS
330
1EB
102
}
330
1EB
100
AcDbXrecord
280
     1
102
RTVSPropertyOp0
 70
     1
102
RTVSPropertyOp1
 70
     1
102
RTVSPropertyOp2
 70
     1
102
RTVSPropertyOp3
 70
     1
102
RTVSPropertyOp4
 70
     1
102
RTVSPropertyOp5
 70
     1
102
RTVSPropertyOp6
 70
     1
102
RTVSPropertyOp7
 70
     1
102
RTVSPropertyOp8
 70
     1
102
RTVSPropertyOp9
 70
     1
102
RTVSPropertyOp10
 70
     1
102
RTVSPropertyOp11
 70
     1
102
RTVSPropertyOp12
 70
     1
102
RTVSPropertyOp13
 70
     1
102
RTVSPropertyOp14
 70
     1
102
RTVSPropertyOp15
 70
     1
102
RTVSPropertyOp16
 70
     1
102
RTVSPropertyOp17
 70
     1
102
RTVSPropertyOp18
 70
     1
102
RTVSPropertyOp19
 70
     1
102
RTVSPropertyOp20
 70
     1
102
RTVSPropertyOp21
 70
     1
102
RTVSPropertyOp22
 70
     1
102
RTVSPropertyOp23
 70
     1
102
RTVSPropertyOp24
 70
     1
102
RTVSPropertyOp25
 70
     1
102
RTVSPropertyOp26
 70
     1
102
RTVSPropertyOp27
 70
     1
102
RTVSPropertyOp28
 70
     1
102
RTVSPropertyOp29
 70
     1
102
RTVSPropertyOp30
 70
     1
102
RTVSPropertyOp31
 70
     1
102
RTVSPropertyOp32
 70
     1
  0
XRECORD
  5
1F4
102
{ACAD_REACTORS
330
1F3
102
}
330
1F3
100
AcDbXrecord
280
     1
102
RTVSPropertyOp0
 70
     1
102
RTVSPropertyOp1
 70
     1
102
RTVSPropertyOp2
 70
     1
102
RTVSPropertyOp3
 70
     1
102
RTVSPropertyOp4
 70
     1
102
RTVSPropertyOp5
 70
     1
102
RTVSPropertyOp6
 70
     1
102
RTVSPropertyOp7
 70
     1
102
RTVSPropertyOp8
 70
     1
102
RTVSPropertyOp9
 70
     1
102
RTVSPropertyOp10
 70
     1
102
RTVSPropertyOp11
 70
     1
102
RTVSPropertyOp12
 70
     1
102
RTVSPropertyOp13
 70
     1
102
RTVSPropertyOp14
 70
     1
102
RTVSPropertyOp15
 70
     1
102
RTVSPropertyOp16
 70
     1
102
RTVSPropertyOp17
 70
     1
102
RTVSPropertyOp18
 70
     1
102
RTVSPropertyOp19
 70
     1
102
RTVSPropertyOp20
 70
     1
102
RTVSPropertyOp21
 70
     1
102
RTVSPropertyOp22
 70
     1
102
RTVSPropertyOp23
 70
     1
102
RTVSPropertyOp24
 70
     1
102
RTVSPropertyOp25
 70
     1
102
RTVSPropertyOp26
 70
     1
102
RTVSPropertyOp27
 70
     1
102
RTVSPropertyOp28
 70
     1
102
RTVSPropertyOp29
 70
     1
102
RTVSPropertyOp30
 70
     1
102
RTVSPropertyOp31
 70
     1
102
RTVSPropertyOp32
 70
     1
  0
XRECORD
  5
1FC
102
{ACAD_REACTORS
330
1FB
102
}
330
1FB
100
AcDbXrecord
280
     1
102
RTVSPropertyOp0
 70
     1
102
RTVSPropertyOp1
 70
     1
102
RTVSPropertyOp2
 70
     1
102
RTVSPropertyOp3
 70
     1
102
RTVSPropertyOp4
 70
     1
102
RTVSPropertyOp5
 70
     1
102
RTVSPropertyOp6
 70
     1
102
RTVSPropertyOp7
 70
     1
102
RTVSPropertyOp8
 70
     1
102
RTVSPropertyOp9
 70
     1
102
RTVSPropertyOp10
 70
     1
102
RTVSPropertyOp11
 70
     1
102
RTVSPropertyOp12
 70
     1
102
RTVSPropertyOp13
 70
     1
102
RTVSPropertyOp14
 70
     1
102
RTVSPropertyOp15
 70
     1
102
RTVSPropertyOp16
 70
     1
102
RTVSPropertyOp17
 70
     1
102
RTVSPropertyOp18
 70
     1
102
RTVSPropertyOp19
 70
     1
102
RTVSPropertyOp20
 70
     1
102
RTVSPropertyOp21
 70
     1
102
RTVSPropertyOp22
 70
     1
102
RTVSPropertyOp23
 70
     1
102
RTVSPropertyOp24
 70
     1
102
RTVSPropertyOp25
 70
     1
102
RTVSPropertyOp26
 70
     1
102
RTVSPropertyOp27
 70
     1
102
RTVSPropertyOp28
 70
     1
102
RTVSPropertyOp29
 70
     1
102
RTVSPropertyOp30
 70
     1
102
RTVSPropertyOp31
 70
     1
102
RTVSPropertyOp32
 70
     1
  0
XRECORD
  5
1F0
102
{ACAD_REACTORS
330
1EF
102
}
330
1EF
100
AcDbXrecord
280
     1
102
RTVSPropertyOp0
 70
     1
102
RTVSPropertyOp1
 70
     1
102
RTVSPropertyOp2
 70
     1
102
RTVSPropertyOp3
 70
     1
102
RTVSPropertyOp4
 70
     1
102
RTVSPropertyOp5
 70
     1
102
RTVSPropertyOp6
 70
     1
102
RTVSPropertyOp7
 70
     1
102
RTVSPropertyOp8
 70
     1
102
RTVSPropertyOp9
 70
     1
102
RTVSPropertyOp10
 70
     1
102
RTVSPropertyOp11
 70
     1
102
RTVSPropertyOp12
 70
     1
102
RTVSPropertyOp13
 70
     1
102
RTVSPropertyOp14
 70
     1
102
RTVSPropertyOp15
 70
     1
102
RTVSPropertyOp16
 70
     1
102
RTVSPropertyOp17
 70
     1
102
RTVSPropertyOp18
 70
     1
102
RTVSPropertyOp19
 70
     1
102
RTVSPropertyOp20
 70
     1
102
RTVSPropertyOp21
 70
     1
102
RTVSPropertyOp22
 70
     1
102
RTVSPropertyOp23
 70
     1
102
RTVSPropertyOp24
 70
     1
102
RTVSPropertyOp25
 70
     1
102
RTVSPropertyOp26
 70
     1
102
RTVSPropertyOp27
 70
     1
102
RTVSPropertyOp28
 70
     1
102
RTVSPropertyOp29
 70
     1
102
RTVSPropertyOp30
 70
     1
102
RTVSPropertyOp31
 70
     1
102
RTVSPropertyOp32
 70
     1
  0
XRECORD
  5
1F2
102
{ACAD_REACTORS
330
1F1
102
}
330
1F1
100
AcDbXrecord
280
     1
102
RTVSPropertyOp0
 70
     1
102
RTVSPropertyOp1
 70
     1
102
RTVSPropertyOp2
 70
     1
102
RTVSPropertyOp3
 70
     1
102
RTVSPropertyOp4
 70
     1
102
RTVSPropertyOp5
 70
     1
102
RTVSPropertyOp6
 70
     1
102
RTVSPropertyOp7
 70
     1
102
RTVSPropertyOp8
 70
     1
102
RTVSPropertyOp9
 70
     1
102
RTVSPropertyOp10
 70
     1
102
RTVSPropertyOp11
 70
     1
102
RTVSPropertyOp12
 70
     1
102
RTVSPropertyOp13
 70
     1
102
RTVSPropertyOp14
 70
     1
102
RTVSPropertyOp15
 70
     1
102
RTVSPropertyOp16
 70
     1
102
RTVSPropertyOp17
 70
     1
102
RTVSPropertyOp18
 70
     1
102
RTVSPropertyOp19
 70
     1
102
RTVSPropertyOp20
 70
     1
102
RTVSPropertyOp21
 70
     1
102
RTVSPropertyOp22
 70
     1
102
RTVSPropertyOp23
 70
     1
102
RTVSPropertyOp24
 70
     1
102
RTVSPropertyOp25
 70
     1
102
RTVSPropertyOp26
 70
     1
102
RTVSPropertyOp27
 70
     1
102
RTVSPropertyOp28
 70
     1
102
RTVSPropertyOp29
 70
     1
102
RTVSPropertyOp30
 70
     1
102
RTVSPropertyOp31
 70
     1
102
RTVSPropertyOp32
 70
     1
  0
XRECORD
  5
1FA
102
{ACAD_REACTORS
330
1F9
102
}
330
1F9
100
AcDbXrecord
280
     1
102
RTVSPropertyOp0
 70
     1
102
RTVSPropertyOp1
 70
     1
102
RTVSPropertyOp2
 70
     1
102
RTVSPropertyOp3
 70
     1
102
RTVSPropertyOp4
 70
     1
102
RTVSPropertyOp5
 70
     1
102
RTVSPropertyOp6
 70
     1
102
RTVSPropertyOp7
 70
     1
102
RTVSPropertyOp8
 70
     1
102
RTVSPropertyOp9
 70
     1
102
RTVSPropertyOp10
 70
     1
102
RTVSPropertyOp11
 70
     1
102
RTVSPropertyOp12
 70
     1
102
RTVSPropertyOp13
 70
     1
102
RTVSPropertyOp14
 70
     1
102
RTVSPropertyOp15
 70
     1
102
RTVSPropertyOp16
 70
     1
102
RTVSPropertyOp17
 70
     1
102
RTVSPropertyOp18
 70
     1
102
RTVSPropertyOp19
 70
     1
102
RTVSPropertyOp20
 70
     1
102
RTVSPropertyOp21
 70
     1
102
RTVSPropertyOp22
 70
     1
102
RTVSPropertyOp23
 70
     1
102
RTVSPropertyOp24
 70
     1
102
RTVSPropertyOp25
 70
     1
102
RTVSPropertyOp26
 70
     1
102
RTVSPropertyOp27
 70
     1
102
RTVSPropertyOp28
 70
     1
102
RTVSPropertyOp29
 70
     1
102
RTVSPropertyOp30
 70
     1
102
RTVSPropertyOp31
 70
     1
102
RTVSPropertyOp32
 70
     1
  0
XRECORD
  5
1DE
102
{ACAD_REACTORS
330
1DD
102
}
330
1DD
100
AcDbXrecord
280
     1
102
RTVSPropertyOp0
 70
     1
102
RTVSPropertyOp1
 70
     1
102
RTVSPropertyOp2
 70
     1
102
RTVSPropertyOp3
 70
     1
102
RTVSPropertyOp4
 70
     1
102
RTVSPropertyOp5
 70
     1
102
RTVSPropertyOp6
 70
     1
102
RTVSPropertyOp7
 70
     1
102
RTVSPropertyOp8
 70
     1
102
RTVSPropertyOp9
 70
     1
102
RTVSPropertyOp10
 70
     1
102
RTVSPropertyOp11
 70
     1
102
RTVSPropertyOp12
 70
     1
102
RTVSPropertyOp13
 70
     1
102
RTVSPropertyOp14
 70
     1
102
RTVSPropertyOp15
 70
     1
102
RTVSPropertyOp16
 70
     1
102
RTVSPropertyOp17
 70
     1
102
RTVSPropertyOp18
 70
     1
102
RTVSPropertyOp19
 70
     1
102
RTVSPropertyOp20
 70
     1
102
RTVSPropertyOp21
 70
     1
102
RTVSPropertyOp22
 70
     1
102
RTVSPropertyOp23
 70
     1
102
RTVSPropertyOp24
 70
     1
102
RTVSPropertyOp25
 70
     1
102
RTVSPropertyOp26
 70
     1
102
RTVSPropertyOp27
 70
     1
102
RTVSPropertyOp28
 70
     1
102
RTVSPropertyOp29
 70
     1
102
RTVSPropertyOp30
 70
     1
102
RTVSPropertyOp31
 70
     1
102
RTVSPropertyOp32
 70
     1
  0
XRECORD
  5
1E0
102
{ACAD_REACTORS
330
1DF
102
}
330
1DF
100
AcDbXrecord
280
     1
102
RTVSPropertyOp0
 70
     1
102
RTVSPropertyOp1
 70
     1
102
RTVSPropertyOp2
 70
     1
102
RTVSPropertyOp3
 70
     1
102
RTVSPropertyOp4
 70
     1
102
RTVSPropertyOp5
 70
     1
102
RTVSPropertyOp6
 70
     1
102
RTVSPropertyOp7
 70
     1
102
RTVSPropertyOp8
 70
     1
102
RTVSPropertyOp9
 70
     1
102
RTVSPropertyOp10
 70
     1
102
RTVSPropertyOp11
 70
     1
102
RTVSPropertyOp12
 70
     1
102
RTVSPropertyOp13
 70
     1
102
RTVSPropertyOp14
 70
     1
102
RTVSPropertyOp15
 70
     1
102
RTVSPropertyOp16
 70
     1
102
RTVSPropertyOp17
 70
     1
102
RTVSPropertyOp18
 70
     1
102
RTVSPropertyOp19
 70
     1
102
RTVSPropertyOp20
 70
     1
102
RTVSPropertyOp21
 70
     1
102
RTVSPropertyOp22
 70
     1
102
RTVSPropertyOp23
 70
     1
102
RTVSPropertyOp24
 70
     1
102
RTVSPropertyOp25
 70
     1
102
RTVSPropertyOp26
 70
     1
102
RTVSPropertyOp27
 70
     1
102
RTVSPropertyOp28
 70
     1
102
RTVSPropertyOp29
 70
     1
102
RTVSPropertyOp30
 70
     1
102
RTVSPropertyOp31
 70
     1
102
RTVSPropertyOp32
 70
     1
  0
XRECORD
  5
1E2
102
{ACAD_REACTORS
330
1E1
102
}
330
1E1
100
AcDbXrecord
280
     1
102
RTVSPropertyOp0
 70
     1
102
RTVSPropertyOp1
 70
     1
102
RTVSPropertyOp2
 70
     1
102
RTVSPropertyOp3
 70
     1
102
RTVSPropertyOp4
 70
     1
102
RTVSPropertyOp5
 70
     1
102
RTVSPropertyOp6
 70
     1
102
RTVSPropertyOp7
 70
     1
102
RTVSPropertyOp8
 70
     1
102
RTVSPropertyOp9
 70
     1
102
RTVSPropertyOp10
 70
     1
102
RTVSPropertyOp11
 70
     1
102
RTVSPropertyOp12
 70
     1
102
RTVSPropertyOp13
 70
     1
102
RTVSPropertyOp14
 70
     1
102
RTVSPropertyOp15
 70
     1
102
RTVSPropertyOp16
 70
     1
102
RTVSPropertyOp17
 70
     1
102
RTVSPropertyOp18
 70
     1
102
RTVSPropertyOp19
 70
     1
102
RTVSPropertyOp20
 70
     1
102
RTVSPropertyOp21
 70
     1
102
RTVSPropertyOp22
 70
     1
102
RTVSPropertyOp23
 70
     1
102
RTVSPropertyOp24
 70
     1
102
RTVSPropertyOp25
 70
     1
102
RTVSPropertyOp26
 70
     1
102
RTVSPropertyOp27
 70
     1
102
RTVSPropertyOp28
 70
     1
102
RTVSPropertyOp29
 70
     1
102
RTVSPropertyOp30
 70
     1
102
RTVSPropertyOp31
 70
     1
102
RTVSPropertyOp32
 70
     1
  0
XRECORD
  5
1E4
102
{ACAD_REACTORS
330
1E3
102
}
330
1E3
100
AcDbXrecord
280
     1
102
RTVSPropertyOp0
 70
     1
102
RTVSPropertyOp1
 70
     1
102
RTVSPropertyOp2
 70
     1
102
RTVSPropertyOp3
 70
     1
102
RTVSPropertyOp4
 70
     1
102
RTVSPropertyOp5
 70
     1
102
RTVSPropertyOp6
 70
     1
102
RTVSPropertyOp7
 70
     1
102
RTVSPropertyOp8
 70
     1
102
RTVSPropertyOp9
 70
     1
102
RTVSPropertyOp10
 70
     1
102
RTVSPropertyOp11
 70
     1
102
RTVSPropertyOp12
 70
     1
102
RTVSPropertyOp13
 70
     1
102
RTVSPropertyOp14
 70
     1
102
RTVSPropertyOp15
 70
     1
102
RTVSPropertyOp16
 70
     1
102
RTVSPropertyOp17
 70
     1
102
RTVSPropertyOp18
 70
     1
102
RTVSPropertyOp19
 70
     1
102
RTVSPropertyOp20
 70
     1
102
RTVSPropertyOp21
 70
     1
102
RTVSPropertyOp22
 70
     1
102
RTVSPropertyOp23
 70
     1
102
RTVSPropertyOp24
 70
     1
102
RTVSPropertyOp25
 70
     1
102
RTVSPropertyOp26
 70
     1
102
RTVSPropertyOp27
 70
     1
102
RTVSPropertyOp28
 70
     1
102
RTVSPropertyOp29
 70
     1
102
RTVSPropertyOp30
 70
     1
102
RTVSPropertyOp31
 70
     1
102
RTVSPropertyOp32
 70
     1
  0
XRECORD
  5
1F8
102
{ACAD_REACTORS
330
1F7
102
}
330
1F7
100
AcDbXrecord
280
     1
102
RTVSPropertyOp0
 70
     1
102
RTVSPropertyOp1
 70
     1
102
RTVSPropertyOp2
 70
     1
102
RTVSPropertyOp3
 70
     1
102
RTVSPropertyOp4
 70
     1
102
RTVSPropertyOp5
 70
     1
102
RTVSPropertyOp6
 70
     1
102
RTVSPropertyOp7
 70
     1
102
RTVSPropertyOp8
 70
     1
102
RTVSPropertyOp9
 70
     1
102
RTVSPropertyOp10
 70
     1
102
RTVSPropertyOp11
 70
     1
102
RTVSPropertyOp12
 70
     1
102
RTVSPropertyOp13
 70
     1
102
RTVSPropertyOp14
 70
     1
102
RTVSPropertyOp15
 70
     1
102
RTVSPropertyOp16
 70
     1
102
RTVSPropertyOp17
 70
     1
102
RTVSPropertyOp18
 70
     1
102
RTVSPropertyOp19
 70
     1
102
RTVSPropertyOp20
 70
     1
102
RTVSPropertyOp21
 70
     1
102
RTVSPropertyOp22
 70
     1
102
RTVSPropertyOp23
 70
     1
102
RTVSPropertyOp24
 70
     1
102
RTVSPropertyOp25
 70
     1
102
RTVSPropertyOp26
 70
     1
102
RTVSPropertyOp27
 70
     1
102
RTVSPropertyOp28
 70
     1
102
RTVSPropertyOp29
 70
     1
102
RTVSPropertyOp30
 70
     1
102
RTVSPropertyOp31
 70
     1
102
RTVSPropertyOp32
 70
     1
  0
XRECORD
  5
1EE
102
{ACAD_REACTORS
330
1ED
102
}
330
1ED
100
AcDbXrecord
280
     1
102
RTVSPropertyOp0
 70
     1
102
RTVSPropertyOp1
 70
     1
102
RTVSPropertyOp2
 70
     1
102
RTVSPropertyOp3
 70
     1
102
RTVSPropertyOp4
 70
     1
102
RTVSPropertyOp5
 70
     1
102
RTVSPropertyOp6
 70
     1
102
RTVSPropertyOp7
 70
     1
102
RTVSPropertyOp8
 70
     1
102
RTVSPropertyOp9
 70
     1
102
RTVSPropertyOp10
 70
     1
102
RTVSPropertyOp11
 70
     1
102
RTVSPropertyOp12
 70
     1
102
RTVSPropertyOp13
 70
     1
102
RTVSPropertyOp14
 70
     1
102
RTVSPropertyOp15
 70
     1
102
RTVSPropertyOp16
 70
     1
102
RTVSPropertyOp17
 70
     1
102
RTVSPropertyOp18
 70
     1
102
RTVSPropertyOp19
 70
     1
102
RTVSPropertyOp20
 70
     1
102
RTVSPropertyOp21
 70
     1
102
RTVSPropertyOp22
 70
     1
102
RTVSPropertyOp23
 70
     1
102
RTVSPropertyOp24
 70
     1
102
RTVSPropertyOp25
 70
     1
102
RTVSPropertyOp26
 70
     1
102
RTVSPropertyOp27
 70
     1
102
RTVSPropertyOp28
 70
     1
102
RTVSPropertyOp29
 70
     1
102
RTVSPropertyOp30
 70
     1
102
RTVSPropertyOp31
 70
     1
102
RTVSPropertyOp32
 70
     1
  0
XRECORD
  5
1F6
102
{ACAD_REACTORS
330
1F5
102
}
330
1F5
100
AcDbXrecord
280
     1
102
RTVSPropertyOp0
 70
     1
102
RTVSPropertyOp1
 70
     1
102
RTVSPropertyOp2
 70
     1
102
RTVSPropertyOp3
 70
     1
102
RTVSPropertyOp4
 70
     1
102
RTVSPropertyOp5
 70
     1
102
RTVSPropertyOp6
 70
     1
102
RTVSPropertyOp7
 70
     1
102
RTVSPropertyOp8
 70
     1
102
RTVSPropertyOp9
 70
     1
102
RTVSPropertyOp10
 70
     1
102
RTVSPropertyOp11
 70
     1
102
RTVSPropertyOp12
 70
     1
102
RTVSPropertyOp13
 70
     1
102
RTVSPropertyOp14
 70
     1
102
RTVSPropertyOp15
 70
     1
102
RTVSPropertyOp16
 70
     1
102
RTVSPropertyOp17
 70
     1
102
RTVSPropertyOp18
 70
     1
102
RTVSPropertyOp19
 70
     1
102
RTVSPropertyOp20
 70
     1
102
RTVSPropertyOp21
 70
     1
102
RTVSPropertyOp22
 70
     1
102
RTVSPropertyOp23
 70
     1
102
RTVSPropertyOp24
 70
     1
102
RTVSPropertyOp25
 70
     1
102
RTVSPropertyOp26
 70
     1
102
RTVSPropertyOp27
 70
     1
102
RTVSPropertyOp28
 70
     1
102
RTVSPropertyOp29
 70
     1
102
RTVSPropertyOp30
 70
     1
102
RTVSPropertyOp31
 70
     1
102
RTVSPropertyOp32
 70
     1
  0
ENDSEC
  0
EOF
