  0
SECTION
  2
HEADER
  9
$ACADVER
  1
AC1015
  9
$ACADMAINTVER
 70
     6
  9
$DWGCODEPAGE
  3
ANSI_1252
  9
$INSBASE
 10
0.0
 20
0.0
 30
0.0
  9
$EXTMIN
 10
0.0
 20
0.0
 30
0.0
  9
$EXTMAX
 10
210.0
 20
297.0
 30
0.0
  9
$LIMMIN
 10
0.0
 20
0.0
  9
$LIMMAX
 10
210.0
 20
297.0
  9
$ORTHOMODE
 70
     0
  9
$REGENMODE
 70
     1
  9
$FILLMODE
 70
     1
  9
$QTEXTMODE
 70
     0
  9
$MIRRTEXT
 70
     1
  9
$LTSCALE
 40
1.0
  9
$ATTMODE
 70
     1
  9
$TEXTSIZE
 40
2.5
  9
$TRACEWID
 40
1.0
  9
$TEXTSTYLE
  7
Standard
  9
$CLAYER
  8
0
  9
$CELTYPE
  6
ByLayer
  9
$CECOLOR
 62
   256
  9
$CELTSCALE
 40
1.0
  9
$DISPSILH
 70
     0
  9
$DIMSCALE
 40
1.0
  9
$DIMASZ
 40
2.5
  9
$DIMEXO
 40
0.625
  9
$DIMDLI
 40
3.75
  9
$DIMRND
 40
0.0
  9
$DIMDLE
 40
0.0
  9
$DIMEXE
 40
1.25
  9
$DIMTP
 40
0.0
  9
$DIMTM
 40
0.0
  9
$DIMTXT
 40
2.5
  9
$DIMCEN
 40
2.5
  9
$DIMTSZ
 40
0.0
  9
$DIMTOL
 70
     0
  9
$DIMLIM
 70
     0
  9
$DIMTIH
 70
     0
  9
$DIMTOH
 70
     0
  9
$DIMSE1
 70
     0
  9
$DIMSE2
 70
     0
  9
$DIMTAD
 70
     1
  9
$DIMZIN
 70
     8
  9
$DIMBLK
  1

  9
$DIMASO
 70
     1
  9
$DIMSHO
 70
     1
  9
$DIMPOST
  1

  9
$DIMAPOST
  1

  9
$DIMALT
 70
     0
  9
$DIMALTD
 70
     3
  9
$DIMALTF
 40
0.0393700787
  9
$DIMLFAC
 40
1.0
  9
$DIMTOFL
 70
     1
  9
$DIMTVP
 40
0.0
  9
$DIMTIX
 70
     0
  9
$DIMSOXD
 70
     0
  9
$DIMSAH
 70
     0
  9
$DIMBLK1
  1

  9
$DIMBLK2
  1

  9
$DIMSTYLE
  2
ISO-25
  9
$DIMCLRD
 70
     0
  9
$DIMCLRE
 70
     0
  9
$DIMCLRT
 70
     0
  9
$DIMTFAC
 40
1.0
  9
$DIMGAP
 40
0.625
  9
$DIMJUST
 70
     0
  9
$DIMSD1
 70
     0
  9
$DIMSD2
 70
     0
  9
$DIMTOLJ
 70
     0
  9
$DIMTZIN
 70
     8
  9
$DIMALTZ
 70
     0
  9
$DIMALTTZ
 70
     0
  9
$DIMUPT
 70
     0
  9
$DIMDEC
 70
     2
  9
$DIMTDEC
 70
     2
  9
$DIMALTU
 70
     2
  9
$DIMALTTD
 70
     3
  9
$DIMTXSTY
  7
Standard
  9
$DIMAUNIT
 70
     0
  9
$DIMADEC
 70
     0
  9
$DIMALTRND
 40
0.0
  9
$DIMAZIN
 70
     0
  9
$DIMDSEP
 70
    44
  9
$DIMATFIT
 70
     3
  9
$DIMFRAC
 70
     0
  9
$DIMLDRBLK
  1

  9
$DIMLUNIT
 70
     2
  9
$DIMLWD
 70
    -2
  9
$DIMLWE
 70
    -2
  9
$DIMTMOVE
 70
     0
  9
$LUNITS
 70
     2
  9
$LUPREC
 70
     4
  9
$SKETCHINC
 40
1.0
  9
$FILLETRAD
 40
10.0
  9
$AUNITS
 70
     0
  9
$AUPREC
 70
     0
  9
$MENU
  1
.
  9
$ELEVATION
 40
0.0
  9
$PELEVATION
 40
0.0
  9
$THICKNESS
 40
0.0
  9
$LIMCHECK
 70
     0
  9
$CHAMFERA
 40
10.0
  9
$CHAMFERB
 40
10.0
  9
$CHAMFERC
 40
20.0
  9
$CHAMFERD
 40
0.0
  9
$SKPOLY
 70
     0
  9
$TDCREATE
 40
2457562.360780243
  9
$TDUCREATE
 40
2457562.27744691
  9
$TDUPDATE
 40
2457562.360783287
  9
$TDUUPDATE
 40
2457562.277449954
  9
$TDINDWG
 40
0.0000000116
  9
$TDUSRTIMER
 40
0.0000000116
  9
$USRTIMER
 70
     1
  9
$ANGBASE
 50
0.0
  9
$ANGDIR
 70
     0
  9
$PDMODE
 70
     0
  9
$PDSIZE
 40
0.0
  9
$PLINEWID
 40
0.0
  9
$SPLFRAME
 70
     0
  9
$SPLINETYPE
 70
     6
  9
$SPLINESEGS
 70
     8
  9
$HANDSEED
  5
238
  9
$SURFTAB1
 70
     6
  9
$SURFTAB2
 70
     6
  9
$SURFTYPE
 70
     6
  9
$SURFU
 70
     6
  9
$SURFV
 70
     6
  9
$UCSBASE
  2

  9
$UCSNAME
  2

  9
$UCSORG
 10
0.0
 20
0.0
 30
0.0
  9
$UCSXDIR
 10
1.0
 20
0.0
 30
0.0
  9
$UCSYDIR
 10
0.0
 20
1.0
 30
0.0
  9
$UCSORTHOREF
  2

  9
$UCSORTHOVIEW
 70
     0
  9
$UCSORGTOP
 10
0.0
 20
0.0
 30
0.0
  9
$UCSORGBOTTOM
 10
0.0
 20
0.0
 30
0.0
  9
$UCSORGLEFT
 10
0.0
 20
0.0
 30
0.0
  9
$UCSORGRIGHT
 10
0.0
 20
0.0
 30
0.0
  9
$UCSORGFRONT
 10
0.0
 20
0.0
 30
0.0
  9
$UCSORGBACK
 10
0.0
 20
0.0
 30
0.0
  9
$PUCSBASE
  2

  9
$PUCSNAME
  2

  9
$PUCSORG
 10
0.0
 20
0.0
 30
0.0
  9
$PUCSXDIR
 10
1.0
 20
0.0
 30
0.0
  9
$PUCSYDIR
 10
0.0
 20
1.0
 30
0.0
  9
$PUCSORTHOREF
  2

  9
$PUCSORTHOVIEW
 70
     0
  9
$PUCSORGTOP
 10
0.0
 20
0.0
 30
0.0
  9
$PUCSORGBOTTOM
 10
0.0
 20
0.0
 30
0.0
  9
$PUCSORGLEFT
 10
0.0
 20
0.0
 30
0.0
  9
$PUCSORGRIGHT
 10
0.0
 20
0.0
 30
0.0
  9
$PUCSORGFRONT
 10
0.0
 20
0.0
 30
0.0
  9
$PUCSORGBACK
 10
0.0
 20
0.0
 30
0.0
  9
$USERI1
 70
     0
  9
$USERI2
 70
     0
  9
$USERI3
 70
     0
  9
$USERI4
 70
     0
  9
$USERI5
 70
     0
  9
$USERR1
 40
0.0
  9
$USERR2
 40
0.0
  9
$USERR3
 40
0.0
  9
$USERR4
 40
0.0
  9
$USERR5
 40
0.0
  9
$WORLDVIEW
 70
     1
  9
$SHADEDGE
 70
     3
  9
$SHADEDIF
 70
    70
  9
$TILEMODE
 70
     1
  9
$MAXACTVP
 70
    64
  9
$PINSBASE
 10
0.0
 20
0.0
 30
0.0
  9
$PLIMCHECK
 70
     0
  9
$PEXTMIN
 10
0.0
 20
0.0
 30
0.0
  9
$PEXTMAX
 10
210.0
 20
297.0
 30
0.0
  9
$PLIMMIN
 10
0.0
 20
0.0
  9
$PLIMMAX
 10
210.0
 20
297.0
  9
$UNITMODE
 70
     0
  9
$VISRETAIN
 70
     1
  9
$PLINEGEN
 70
     0
  9
$PSLTSCALE
 70
     1
  9
$TREEDEPTH
 70
  3020
  9
$CMLSTYLE
  2
Standard
  9
$CMLJUST
 70
     0
  9
$CMLSCALE
 40
20.0
  9
$PROXYGRAPHICS
 70
     1
  9
$MEASUREMENT
 70
     1
  9
$CELWEIGHT
370
    -1
  9
$ENDCAPS
280
     0
  9
$JOINSTYLE
280
     0
  9
$LWDISPLAY
290
     0
  9
$INSUNITS
 70
     4
  9
$HYPERLINKBASE
  1

  9
$STYLESHEET
  1

  9
$XEDIT
290
     1
  9
$CEPSNTYPE
380
     0
  9
$PSTYLEMODE
290
     1
  9
$FINGERPRINTGUID
  2
{4A1BE4D0-C695-4D0B-9623-1889C92C312F}
  9
$VERSIONGUID
  2
{FAEB1C32-E019-11D5-929B-00C0DF256EC4}
  9
$EXTNAMES
290
     1
  9
$PSVPSCALE
 40
0.0
  9
$OLESTARTUP
290
     0
  0
ENDSEC
  0
SECTION
  2
CLASSES
  0
CLASS
  1
ACDBDICTIONARYWDFLT
  2
AcDbDictionaryWithDefault
  3
ObjectDBX Classes
 90
        0
280
     0
281
     0
  0
CLASS
  1
VISUALSTYLE
  2
AcDbVisualStyle
  3
ObjectDBX Classes
 90
     4095
280
     0
281
     0
  0
CLASS
  1
MATERIAL
  2
AcDbMaterial
  3
ObjectDBX Classes
 90
     1153
280
     0
281
     0
  0
CLASS
  1
DICTIONARYVAR
  2
AcDbDictionaryVar
  3
ObjectDBX Classes
 90
        0
280
     0
281
     0
  0
CLASS
  1
ACDBPLACEHOLDER
  2
AcDbPlaceHolder
  3
ObjectDBX Classes
 90
        0
280
     0
281
     0
  0
CLASS
  1
LAYOUT
  2
AcDbLayout
  3
ObjectDBX Classes
 90
        0
280
     0
281
     0
  0
ENDSEC
  0
SECTION
  2
TABLES
  0
TABLE
  2
VPORT
  5
8
330
0
100
AcDbSymbolTable
 70
     1
  0
VPORT
  5
29
330
8
100
AcDbSymbolTableRecord
100
AcDbViewportTableRecord
  2
*Active
 70
     0
 10
0.0
 20
0.0
 11
1.0
 21
1.0
 12
344.1869158879
 22
148.5
 13
0.0
 23
0.0
 14
10.0
 24
10.0
 15
10.0
 25
10.0
 16
0.0
 26
0.0
 36
1.0
 17
0.0
 27
0.0
 37
0.0
 40
297.0
 41
1.9729729729
 42
50.0
 43
0.0
 44
0.0
 50
0.0
 51
0.0
 71
     0
 72
   100
 73
     1
 74
     3
 75
     0
 76
     0
 77
     0
 78
     0
281
     0
 65
     1
110
0.0
120
0.0
130
0.0
111
1.0
121
0.0
131
0.0
112
0.0
122
1.0
132
0.0
 79
     0
146
0.0
  0
ENDTAB
  0
TABLE
  2
LTYPE
  5
5
330
0
100
AcDbSymbolTable
 70
     2
  0
LTYPE
  5
14
330
5
100
AcDbSymbolTableRecord
100
AcDbLinetypeTableRecord
  2
ByBlock
 70
     0
  3

 72
    65
 73
     0
 40
0.0
  0
LTYPE
  5
15
330
5
100
AcDbSymbolTableRecord
100
AcDbLinetypeTableRecord
  2
ByLayer
 70
     0
  3

 72
    65
 73
     0
 40
0.0
  0
LTYPE
  5
16
330
5
100
AcDbSymbolTableRecord
100
AcDbLinetypeTableRecord
  2
Continuous
 70
     0
  3
Solid line
 72
    65
 73
     0
 40
0.0
  0
LTYPE
  5
5F
330
5
100
AcDbSymbolTableRecord
100
AcDbLinetypeTableRecord
  2
HIDDEN2
 70
     0
  3
Hidden (.5x) _ _ _ _ _ _ _ _ _ _ _ _ _ _ _ _ _ 
 72
    65
 73
     2
 40
4.7625
 49
3.175
 74
     4
 75
     0
340
0
 46
0.0
 50
0.0
 44
0.0
 45
0.0
 49
-1.5875
 74
     4
 75
     0
340
0
 46
0.0
 50
0.0
 44
0.0
 45
0.0
  0
ENDTAB
  0
TABLE
  2
LAYER
  5
2
330
0
100
AcDbSymbolTable
 70
     5
  0
LAYER
  5
10
330
2
100
AcDbSymbolTableRecord
100
AcDbLayerTableRecord
  2
0
 70
     0
 62
     7
  6
Continuous
370
    -3
390
F
  0
LAYER
  5
3F
330
2
100
AcDbSymbolTableRecord
100
AcDbLayerTableRecord
  2
SK2
 70
     0
 62
     7
  6
Continuous
370
    15
390
F
  0
LAYER
  5
40
330
2
100
AcDbSymbolTableRecord
100
AcDbLayerTableRecord
  2
SK1
 70
     0
 62
     4
  6
Continuous
370
    18
390
F
  0
LAYER
  5
5E
330
2
100
AcDbSymbolTableRecord
100
AcDbLayerTableRecord
  2
SK3
 70
     0
 62
     1
  6
HIDDEN2
370
    15
390
F
  0
LAYER
  5
1CB
330
2
100
AcDbSymbolTableRecord
100
AcDbLayerTableRecord
  2
SK4
 70
     0
 62
     2
  6
Continuous
370
    13
390
F
  0
ENDTAB
  0
TABLE
  2
STYLE
  5
3
330
0
100
AcDbSymbolTable
 70
     2
  0
STYLE
  5
11
330
3
100
AcDbSymbolTableRecord
100
AcDbTextStyleTableRecord
  2
Standard
 70
     0
 40
0.0
 41
1.0
 50
0.0
 71
     0
 42
2.5
  3
txt
  4

  0
STYLE
  5
1DF
330
3
100
AcDbSymbolTableRecord
100
AcDbTextStyleTableRecord
  2
SEACAD_Solid_Edge_ISO
 70
     0
 40
0.0
 41
1.0
 50
0.0
 71
     0
 42
0.2
  3
seiso.ttf
  4

1001
ACAD
1000
Solid Edge ISO
1071
        0
  0
ENDTAB
  0
TABLE
  2
VIEW
  5
6
330
0
100
AcDbSymbolTable
 70
     0
  0
ENDTAB
  0
TABLE
  2
UCS
  5
7
330
0
100
AcDbSymbolTable
 70
     0
  0
ENDTAB
  0
TABLE
  2
APPID
  5
9
330
0
100
AcDbSymbolTable
 70
     1
  0
APPID
  5
12
330
9
100
AcDbSymbolTableRecord
100
AcDbRegAppTableRecord
  2
ACAD
 70
     0
  0
ENDTAB
  0
TABLE
  2
DIMSTYLE
  5
A
330
0
100
AcDbSymbolTable
 70
     3
100
AcDbDimStyleTable
  0
DIMSTYLE
105
27
330
A
100
AcDbSymbolTableRecord
100
AcDbDimStyleTableRecord
  2
ISO-25
 70
     0
 41
2.5
 42
0.625
 43
3.75
 44
1.25
 73
     0
 74
     0
 77
     1
 78
     8
140
2.5
141
2.5
143
0.0393700787
147
0.625
171
     3
172
     1
178
     0
271
     2
272
     2
274
     3
278
    44
283
     0
284
     8
340
11
  0
DIMSTYLE
105
1CD
330
A
100
AcDbSymbolTableRecord
100
AcDbDimStyleTableRecord
  2
Standard
 70
     0
178
     0
340
11
  0
DIMSTYLE
105
1E0
102
{ACAD_REACTORS
330
1E1
330
1EC
330
1F6
330
201
102
}
330
A
100
AcDbSymbolTableRecord
100
AcDbDimStyleTableRecord
  2
DIN
 70
     0
 41
3.5
 42
0.0
 44
1.75
 73
     0
 74
     0
 77
     1
 78
     8
140
3.5
141
1.75
147
1.75
172
     1
173
     1
178
     0
179
     3
271
     2
272
     2
278
    44
284
     8
340
1DF
343
1DA
344
1DA
  0
ENDTAB
  0
TABLE
  2
BLOCK_RECORD
  5
1
330
0
100
AcDbSymbolTable
 70
    10
  0
BLOCK_RECORD
  5
1F
330
1
100
AcDbSymbolTableRecord
100
AcDbBlockTableRecord
  2
*Model_Space
340
22
  0
BLOCK_RECORD
  5
1B
330
1
100
AcDbSymbolTableRecord
100
AcDbBlockTableRecord
  2
*Paper_Space
340
1E
  0
BLOCK_RECORD
  5
41
330
1
100
AcDbSymbolTableRecord
100
AcDbBlockTableRecord
  2
Nullpunkt
340
0
102
{BLKREFS
331
4B
102
}
  0
BLOCK_RECORD
  5
4C
330
1
100
AcDbSymbolTableRecord
100
AcDbBlockTableRecord
  2
Einfügepunkt
340
0
102
{BLKREFS
331
56
102
}
  0
BLOCK_RECORD
  5
1CE
330
1
100
AcDbSymbolTableRecord
100
AcDbBlockTableRecord
  2
_OBLIQUE
340
0
  0
BLOCK_RECORD
  5
1D2
330
1
100
AcDbSymbolTableRecord
100
AcDbBlockTableRecord
  2
_DOT
340
0
  0
BLOCK_RECORD
  5
1DA
330
1
100
AcDbSymbolTableRecord
100
AcDbBlockTableRecord
  2
_SE_FILLED
340
0
  0
BLOCK_RECORD
  5
1E2
330
1
100
AcDbSymbolTableRecord
100
AcDbBlockTableRecord
  2
DMBLK53
340
0
  0
BLOCK_RECORD
  5
1ED
330
1
100
AcDbSymbolTableRecord
100
AcDbBlockTableRecord
  2
DMBLK54
340
0
  0
BLOCK_RECORD
  5
1F7
330
1
100
AcDbSymbolTableRecord
100
AcDbBlockTableRecord
  2
DMBLK55
340
0
  0
BLOCK_RECORD
  5
202
330
1
100
AcDbSymbolTableRecord
100
AcDbBlockTableRecord
  2
DMBLK56
340
0
  0
ENDTAB
  0
ENDSEC
  0
SECTION
  2
BLOCKS
  0
BLOCK
  5
20
330
1F
100
AcDbEntity
  8
0
100
AcDbBlockBegin
  2
*Model_Space
 70
     0
 10
0.0
 20
0.0
 30
0.0
  3
*Model_Space
  1

  0
ENDBLK
  5
21
330
1F
100
AcDbEntity
  8
0
100
AcDbBlockEnd
  0
BLOCK
  5
1C
330
1B
100
AcDbEntity
 67
     1
  8
0
100
AcDbBlockBegin
  2
*Paper_Space
 70
     0
 10
0.0
 20
0.0
 30
0.0
  3
*Paper_Space
  1

  0
ENDBLK
  5
1D
330
1B
100
AcDbEntity
 67
     1
  8
0
100
AcDbBlockEnd
  0
BLOCK
  5
49
330
41
100
AcDbEntity
  8
0
100
AcDbBlockBegin
  2
Nullpunkt
 70
     0
 10
0.0
 20
0.0
 30
0.0
  3
Nullpunkt
  1

  0
HATCH
  5
42
330
41
100
AcDbEntity
  8
SK2
  6
Continuous
 62
     7
100
AcDbHatch
 10
0.0
 20
0.0
 30
0.0
210
0.0
220
0.0
230
1.0
  2
SOLID
 70
     1
 71
     0
 91
        1
 92
        1
 93
        3
 72
     1
 10
-1.0
 20
0.0
 11
0.0000000000000009
 21
0.0
 72
     1
 10
0.0
 20
0.0
 11
0.0
 21
1.000000000000001
 72
     2
 10
0.0
 20
0.0
 40
1.0
 50
90.0
 51
180.0
 73
     1
 97
        0
 75
     0
 76
     1
 98
        0
  0
HATCH
  5
43
330
41
100
AcDbEntity
  8
SK2
  6
Continuous
 62
     7
100
AcDbHatch
 10
0.0
 20
0.0
 30
0.0
210
0.0
220
0.0
230
1.0
  2
SOLID
 70
     1
 71
     0
 91
        1
 92
        1
 93
        3
 72
     2
 10
0.0
 20
0.0
 40
1.0
 50
270.0
 51
360.0
 73
     1
 72
     1
 10
1.0
 20
0.0
 11
-0.0000000000000009
 21
0.0
 72
     1
 10
0.0
 20
0.0
 11
0.0
 21
-1.000000000000001
 97
        0
 75
     0
 76
     1
 98
        0
  0
CIRCLE
  5
44
330
41
100
AcDbEntity
  8
SK2
  6
Continuous
 62
     7
100
AcDbCircle
 10
0.0
 20
0.0
 30
0.0
 40
1.0
  0
LINE
  5
45
330
41
100
AcDbEntity
  8
SK1
  6
Continuous
100
AcDbLine
 10
-1.0
 20
0.0
 30
0.0
 11
1.0
 21
0.0
 31
0.0
  0
LINE
  5
46
330
41
100
AcDbEntity
  8
SK1
  6
Continuous
100
AcDbLine
 10
0.0
 20
1.0
 30
0.0
 11
0.0
 21
-1.0
 31
0.0
  0
POINT
  5
47
330
41
100
AcDbEntity
  8
SK1
  6
Continuous
100
AcDbPoint
 10
0.0
 20
0.0
 30
0.0
  0
POINT
  5
48
330
41
100
AcDbEntity
  8
SK1
  6
Continuous
100
AcDbPoint
 10
0.0
 20
0.0
 30
0.0
  0
ENDBLK
  5
4A
330
41
100
AcDbEntity
  8
0
100
AcDbBlockEnd
  0
BLOCK
  5
54
330
4C
100
AcDbEntity
  8
0
100
AcDbBlockBegin
  2
Einfügepunkt
 70
     0
 10
0.0
 20
0.0
 30
0.0
  3
Einfügepunkt
  1

  0
HATCH
  5
4D
330
4C
100
AcDbEntity
  8
SK2
  6
Continuous
 62
     7
100
AcDbHatch
 10
0.0
 20
0.0
 30
0.0
210
0.0
220
0.0
230
1.0
  2
SOLID
 70
     1
 71
     0
 91
        1
 92
        1
 93
        3
 72
     1
 10
-0.4502381196756744
 20
-0.0000000000000018
 11
0.0000000000000033
 21
-0.0000000000000018
 72
     1
 10
0.0
 20
-0.0000000000000018
 11
0.0
 21
0.4502381196756812
 72
     2
 10
0.0
 20
-0.0000000000000018
 40
0.4502381196756812
 50
90.0
 51
180.0
 73
     1
 97
        0
 75
     0
 76
     1
 98
        0
  0
HATCH
  5
4E
330
4C
100
AcDbEntity
  8
SK2
  6
Continuous
 62
     7
100
AcDbHatch
 10
0.0
 20
0.0
 30
0.0
210
0.0
220
0.0
230
1.0
  2
SOLID
 70
     1
 71
     0
 91
        1
 92
        1
 93
        3
 72
     2
 10
0.0
 20
-0.0000000000000018
 40
0.4502381196756812
 50
270.0
 51
360.0
 73
     1
 72
     1
 10
0.4502381196756815
 20
-0.0000000000000018
 11
0.0000000000000038
 21
-0.0000000000000018
 72
     1
 10
0.0
 20
-0.0000000000000018
 11
0.0
 21
-0.4502381196756812
 97
        0
 75
     0
 76
     1
 98
        0
  0
CIRCLE
  5
4F
330
4C
100
AcDbEntity
  8
SK2
  6
Continuous
 62
     7
100
AcDbCircle
 10
0.0
 20
0.0
 30
0.0
 40
0.4502381196756812
  0
LINE
  5
50
330
4C
100
AcDbEntity
  8
SK1
  6
Continuous
100
AcDbLine
 10
-0.4502381197
 20
0.0
 30
0.0
 11
0.4502381197
 21
0.0
 31
0.0
  0
LINE
  5
51
330
4C
100
AcDbEntity
  8
SK1
  6
Continuous
100
AcDbLine
 10
0.0
 20
0.4502381197
 30
0.0
 11
0.0
 21
-0.4502381197
 31
0.0
  0
POINT
  5
52
330
4C
100
AcDbEntity
  8
SK2
  6
Continuous
 62
     7
100
AcDbPoint
 10
0.0
 20
0.0
 30
0.0
  0
POINT
  5
53
330
4C
100
AcDbEntity
  8
SK2
  6
Continuous
 62
     7
100
AcDbPoint
 10
0.0
 20
0.0
 30
0.0
  0
ENDBLK
  5
55
330
4C
100
AcDbEntity
  8
0
100
AcDbBlockEnd
  0
BLOCK
  5
1CF
330
1CE
100
AcDbEntity
  8
0
100
AcDbBlockBegin
  2
_OBLIQUE
 70
     0
 10
0.0
 20
0.0
 30
0.0
  3
_OBLIQUE
  1

  0
LINE
  5
1D1
330
1CE
100
AcDbEntity
  8
0
  6
ByBlock
 62
     0
370
    -2
100
AcDbLine
 10
-0.5
 20
-0.5
 30
0.0
 11
0.5
 21
0.5
 31
0.0
  0
ENDBLK
  5
1D0
330
1CE
100
AcDbEntity
  8
0
100
AcDbBlockEnd
  0
BLOCK
  5
1D3
330
1D2
100
AcDbEntity
  8
0
100
AcDbBlockBegin
  2
_DOT
 70
     0
 10
0.0
 20
0.0
 30
0.0
  3
_DOT
  1

  0
POLYLINE
  5
1D5
330
1D2
100
AcDbEntity
  8
0
  6
ByBlock
 62
     0
100
AcDb2dPolyline
 66
     1
 10
0.0
 20
0.0
 30
0.0
 70
     1
 40
0.5
 41
0.5
  0
VERTEX
  5
1D7
330
1D5
100
AcDbEntity
  8
0
  6
ByBlock
 62
     0
100
AcDbVertex
100
AcDb2dVertex
 10
-0.25
 20
0.0
 30
0.0
 42
1.0
  0
VERTEX
  5
1D8
330
1D5
100
AcDbEntity
  8
0
  6
ByBlock
 62
     0
100
AcDbVertex
100
AcDb2dVertex
 10
0.25
 20
0.0
 30
0.0
 42
1.0
  0
SEQEND
  5
1D9
330
1D5
100
AcDbEntity
  8
0
  6
ByBlock
 62
     0
  0
LINE
  5
1D6
330
1D2
100
AcDbEntity
  8
0
  6
ByBlock
 62
     0
370
    -2
100
AcDbLine
 10
-0.5
 20
0.0
 30
0.0
 11
-1.0
 21
0.0
 31
0.0
  0
ENDBLK
  5
1D4
330
1D2
100
AcDbEntity
  8
0
100
AcDbBlockEnd
  0
BLOCK
  5
1DD
330
1DA
100
AcDbEntity
  8
0
100
AcDbBlockBegin
  2
_SE_FILLED
 70
     0
 10
0.0
 20
0.0
 30
0.0
  3
_SE_FILLED
  1

  0
SOLID
  5
1DB
330
1DA
100
AcDbEntity
  8
0
 62
     0
100
AcDbTrace
 10
0.0
 20
0.0
 30
0.0
 11
-1.0
 21
-0.1665
 31
0.0
 12
-1.0
 22
0.1665
 32
0.0
 13
0.0
 23
0.0
 33
0.0
  0
LINE
  5
1DC
330
1DA
100
AcDbEntity
  8
0
 62
     0
100
AcDbLine
 10
0.0
 20
0.0
 30
0.0
 11
-1.0
 21
0.0
 31
0.0
  0
ENDBLK
  5
1DE
330
1DA
100
AcDbEntity
  8
0
100
AcDbBlockEnd
  0
BLOCK
  5
1EA
330
1E2
100
AcDbEntity
  8
0
100
AcDbBlockBegin
  2
DMBLK53
 70
     0
 10
0.0
 20
0.0
 30
0.0
  3
DMBLK53
  1

  0
HATCH
  5
1E3
330
1E2
100
AcDbEntity
  8
SK2
  6
Continuous
 62
   136
100
AcDbHatch
 10
0.0
 20
0.0
 30
0.0
210
0.0
220
0.0
230
1.0
  2
SOLID
 70
     1
 71
     0
 91
        1
 92
        1
 93
        3
 72
     1
 10
22.59403638037543
 20
4.750000207804117
 11
21.42736967769762
 21
4.750000207804117
 72
     1
 10
21.42736967769762
 20
4.750000207804117
 11
22.01070302903653
 21
1.250000099770698
 72
     1
 10
22.01070302903653
 20
1.250000099770698
 11
22.59403638037543
 21
4.750000207804117
 97
        0
 75
     0
 76
     1
 98
        0
  0
HATCH
  5
1E4
330
1E2
100
AcDbEntity
  8
SK2
  6
Continuous
 62
   136
100
AcDbHatch
 10
0.0
 20
0.0
 30
0.0
210
0.0
220
0.0
230
1.0
  2
SOLID
 70
     1
 71
     0
 91
        1
 92
        1
 93
        3
 72
     1
 10
22.59403638037543
 20
-4.750000008262719
 11
22.01070302903653
 21
-1.249999900229301
 72
     1
 10
22.01070302903653
 20
-1.249999900229301
 11
21.42736967769762
 21
-4.750000008262719
 72
     1
 10
21.42736967769762
 20
-4.750000008262719
 11
22.59403638037543
 21
-4.750000008262719
 97
        0
 75
     0
 76
     1
 98
        0
  0
LINE
  5
1E5
330
1E2
100
AcDbEntity
  8
SK2
  6
Continuous
 62
   136
100
AcDbLine
 10
12.455
 20
1.2500000998
 30
0.0
 11
23.7607030831
 21
1.2500000998
 31
0.0
  0
LINE
  5
1E6
330
1E2
100
AcDbEntity
  8
SK2
  6
Continuous
 62
   136
100
AcDbLine
 10
12.455
 20
-1.2499999002
 30
0.0
 11
23.7607030831
 21
-1.2499999002
 31
0.0
  0
LINE
  5
1E7
330
1E2
100
AcDbEntity
  8
SK2
  6
Continuous
 62
   136
100
AcDbLine
 10
22.010703029
 20
18.0365064993
 30
0.0
 11
22.010703029
 21
-8.2499995948
 31
0.0
  0
TEXT
  5
1E8
330
1E2
100
AcDbEntity
  8
SK2
  6
Continuous
 62
   136
100
AcDbText
 10
21.135703029
 20
12.0387787297
 30
0.0
 40
3.5
  1
2,5
 50
90.0
  7
SEACAD_Solid_Edge_ISO
 11
17.635703029
 21
12.0387787297
 31
0.0
100
AcDbText
 73
     3
  0
TEXT
  5
1E9
330
1E2
100
AcDbEntity
  8
SK2
  6
Continuous
 62
   136
100
AcDbText
 10
21.135703029
 20
7.966051457
 30
0.0
 40
3.5
  1
ø
 50
90.0
  7
SEACAD_Solid_Edge_ISO
 11
17.635703029
 21
7.966051457
 31
0.0
100
AcDbText
 73
     3
  0
ENDBLK
  5
1EB
330
1E2
100
AcDbEntity
  8
0
100
AcDbBlockEnd
  0
BLOCK
  5
1F4
330
1ED
100
AcDbEntity
  8
0
100
AcDbBlockBegin
  2
DMBLK54
 70
     0
 10
0.0
 20
0.0
 30
0.0
  3
DMBLK54
  1

  0
HATCH
  5
1EE
330
1ED
100
AcDbEntity
  8
SK2
  6
Continuous
 62
   136
100
AcDbHatch
 10
0.0
 20
0.0
 30
0.0
210
0.0
220
0.0
230
1.0
  2
SOLID
 70
     1
 71
     0
 91
        1
 92
        1
 93
        3
 72
     1
 10
3.500000108033425
 20
-24.70698602913696
 11
3.500000108033425
 21
-23.54031932645915
 72
     1
 10
3.500000108033425
 20
-23.54031932645915
 11
0.0000000000000062
 21
-24.12365267779806
 72
     1
 10
0.0000000000000061
 20
-24.12365267779806
 11
3.500000108033425
 21
-24.70698602913696
 97
        0
 75
     0
 76
     1
 98
        0
  0
HATCH
  5
1EF
330
1ED
100
AcDbEntity
  8
SK2
  6
Continuous
 62
   136
100
AcDbHatch
 10
0.0
 20
0.0
 30
0.0
210
0.0
220
0.0
230
1.0
  2
SOLID
 70
     1
 71
     0
 91
        1
 92
        1
 93
        3
 72
     1
 10
9.155000094324357
 20
-24.70698602913696
 11
12.65500020235778
 21
-24.12365267779806
 72
     1
 10
12.65500020235778
 20
-24.12365267779806
 11
9.155000094324357
 21
-23.54031932645915
 72
     1
 10
9.155000094324357
 20
-23.54031932645915
 11
9.155000094324357
 21
-24.70698602913696
 97
        0
 75
     0
 76
     1
 98
        0
  0
LINE
  5
1F0
330
1ED
100
AcDbEntity
  8
SK2
  6
Continuous
 62
   136
100
AcDbLine
 10
0.0
 20
-15.995376583
 30
0.0
 11
0.0
 21
-25.8736527318
 31
0.0
  0
LINE
  5
1F1
330
1ED
100
AcDbEntity
  8
SK2
  6
Continuous
 62
   136
100
AcDbLine
 10
12.655
 20
-12.1800200838
 30
0.0
 11
12.655
 21
-25.8736527318
 31
0.0
  0
LINE
  5
1F2
330
1ED
100
AcDbEntity
  8
SK2
  6
Continuous
 62
   136
100
AcDbLine
 10
0.0
 20
-24.1236526778
 30
0.0
 11
12.6550002024
 21
-24.1236526778
 31
0.0
  0
TEXT
  5
1F3
330
1ED
100
AcDbEntity
  8
SK2
  6
Continuous
 62
   136
100
AcDbText
 10
2.071818283
 20
-23.2486526778
 30
0.0
 40
3.5
  1
12,66
  7
SEACAD_Solid_Edge_ISO
 11
2.071818283
 21
-19.7486526778
 31
0.0
100
AcDbText
 73
     3
  0
ENDBLK
  5
1F5
330
1ED
100
AcDbEntity
  8
0
100
AcDbBlockEnd
  0
BLOCK
  5
1FF
330
1F7
100
AcDbEntity
  8
0
100
AcDbBlockBegin
  2
DMBLK55
 70
     0
 10
0.0
 20
0.0
 30
0.0
  3
DMBLK55
  1

  0
HATCH
  5
1F8
330
1F7
100
AcDbEntity
  8
SK2
  6
Continuous
 62
   136
100
AcDbHatch
 10
0.0
 20
0.0
 30
0.0
210
0.0
220
0.0
230
1.0
  2
SOLID
 70
     1
 71
     0
 91
        1
 92
        1
 93
        3
 72
     1
 10
-35.67524386259417
 20
12.49537667451176
 11
-34.50857715991636
 21
12.49537667451176
 72
     1
 10
-34.50857715991636
 20
12.49537667451176
 11
-35.09191051125526
 21
15.99537678254518
 72
     1
 10
-35.09191051125526
 20
15.99537678254518
 11
-35.67524386259417
 21
12.49537667451176
 97
        0
 75
     0
 76
     1
 98
        0
  0
HATCH
  5
1F9
330
1F7
100
AcDbEntity
  8
SK2
  6
Continuous
 62
   136
100
AcDbHatch
 10
0.0
 20
0.0
 30
0.0
210
0.0
220
0.0
230
1.0
  2
SOLID
 70
     1
 71
     0
 91
        1
 92
        1
 93
        3
 72
     1
 10
-35.67524386259417
 20
-12.49537473352876
 11
-35.09191051125526
 21
-15.99537484156218
 72
     1
 10
-35.09191051125526
 20
-15.99537484156218
 11
-34.50857715991636
 21
-12.49537473352876
 72
     1
 10
-34.50857715991636
 20
-12.49537473352876
 11
-35.67524386259417
 21
-12.49537473352876
 97
        0
 75
     0
 76
     1
 98
        0
  0
LINE
  5
1FA
330
1F7
100
AcDbEntity
  8
SK2
  6
Continuous
 62
   136
100
AcDbLine
 10
0.0
 20
15.9953767825
 30
0.0
 11
-36.8419105653
 21
15.9953767825
 31
0.0
  0
LINE
  5
1FB
330
1F7
100
AcDbEntity
  8
SK2
  6
Continuous
 62
   136
100
AcDbLine
 10
0.0
 20
-15.995376583
 30
0.0
 11
-36.8419105653
 21
-15.995376583
 31
0.0
  0
LINE
  5
1FC
330
1F7
100
AcDbEntity
  8
SK2
  6
Continuous
 62
   136
100
AcDbLine
 10
-35.0919105113
 20
15.9953767825
 30
0.0
 11
-35.0919105113
 21
-15.9953748416
 31
0.0
  0
TEXT
  5
1FD
330
1F7
100
AcDbEntity
  8
SK2
  6
Continuous
 62
   136
100
AcDbText
 10
-35.9669105113
 20
0.0477282432
 30
0.0
 40
3.5
  1
32
 50
90.0
  7
SEACAD_Solid_Edge_ISO
 11
-39.4669105113
 21
0.0477282432
 31
0.0
100
AcDbText
 73
     3
  0
TEXT
  5
1FE
330
1F7
100
AcDbEntity
  8
SK2
  6
Continuous
 62
   136
100
AcDbText
 10
-35.9669105113
 20
-4.0249990295
 30
0.0
 40
3.5
  1
ø
 50
90.0
  7
SEACAD_Solid_Edge_ISO
 11
-39.4669105113
 21
-4.0249990295
 31
0.0
100
AcDbText
 73
     3
  0
ENDBLK
  5
200
330
1F7
100
AcDbEntity
  8
0
100
AcDbBlockEnd
  0
BLOCK
  5
209
330
202
100
AcDbEntity
  8
0
100
AcDbBlockBegin
  2
DMBLK56
 70
     0
 10
0.0
 20
0.0
 30
0.0
  3
DMBLK56
  1

  0
HATCH
  5
203
330
202
100
AcDbEntity
  8
SK2
  6
Continuous
 62
   136
100
AcDbHatch
 10
0.0
 20
0.0
 30
0.0
210
0.0
220
0.0
230
1.0
  2
SOLID
 70
     1
 71
     0
 91
        1
 92
        1
 93
        3
 72
     1
 10
-23.84499989196658
 20
23.32108672583375
 11
-27.345
 21
22.73775337449484
 72
     1
 10
-27.345
 20
22.73775337449484
 11
-23.84499989196658
 21
22.15442002315594
 72
     1
 10
-23.84499989196658
 20
22.15442002315594
 11
-23.84499989196658
 21
23.32108672583375
 97
        0
 75
     0
 76
     1
 98
        0
  0
HATCH
  5
204
330
202
100
AcDbEntity
  8
SK2
  6
Continuous
 62
   136
100
AcDbHatch
 10
0.0
 20
0.0
 30
0.0
210
0.0
220
0.0
230
1.0
  2
SOLID
 70
     1
 71
     0
 91
        1
 92
        1
 93
        3
 72
     1
 10
9.154998997896913
 20
23.32108672583375
 11
9.154998997896913
 21
22.15442002315594
 72
     1
 10
9.154998997896913
 20
22.15442002315594
 11
12.65499910593033
 21
22.73775337449484
 72
     1
 10
12.65499910593033
 20
22.73775337449484
 11
9.154998997896913
 21
23.32108672583375
 97
        0
 75
     0
 76
     1
 98
        0
  0
LINE
  5
205
330
202
100
AcDbEntity
  8
SK2
  6
Continuous
 62
   136
100
AcDbLine
 10
-27.345
 20
11.8897757791
 30
0.0
 11
-27.345
 21
24.4877534285
 31
0.0
  0
LINE
  5
206
330
202
100
AcDbEntity
  8
SK2
  6
Continuous
 62
   136
100
AcDbLine
 10
12.655
 20
12.33309382
 30
0.0
 11
12.655
 21
24.4877534285
 31
0.0
  0
LINE
  5
207
330
202
100
AcDbEntity
  8
SK2
  6
Continuous
 62
   136
100
AcDbLine
 10
-27.345
 20
22.7377533745
 30
0.0
 11
12.6549991059
 21
22.7377533745
 31
0.0
  0
TEXT
  5
208
330
202
100
AcDbEntity
  8
SK2
  6
Continuous
 62
   136
100
AcDbText
 10
-9.4131822652
 20
23.6127533745
 30
0.0
 40
3.5
  1
40
  7
SEACAD_Solid_Edge_ISO
 11
-9.4131822652
 21
27.1127533745
 31
0.0
100
AcDbText
 73
     3
  0
ENDBLK
  5
20A
330
202
100
AcDbEntity
  8
0
100
AcDbBlockEnd
  0
ENDSEC
  0
SECTION
  2
ENTITIES
  0
INSERT
  5
4B
330
1F
100
AcDbEntity
  8
SK2
 62
     7
100
AcDbBlockReference
  2
Nullpunkt
 10
0.0
 20
0.0000000998
 30
0.0
  0
INSERT
  5
56
330
1F
100
AcDbEntity
  8
SK2
 62
     7
100
AcDbBlockReference
  2
Einfügepunkt
 10
12.655
 20
0.0000000998
 30
0.0
  0
LINE
  5
57
330
1F
100
AcDbEntity
  8
SK1
  6
Continuous
100
AcDbLine
 10
3.555
 20
15.3926056849
 30
0.0
 11
3.555
 21
16.4951509024
 31
0.0
  0
LINE
  5
58
330
1F
100
AcDbEntity
  8
SK1
  6
Continuous
100
AcDbLine
 10
3.755
 20
13.6366513435
 30
0.0
 11
3.755
 21
14.5945196191
 31
0.0
  0
LINE
  5
59
330
1F
100
AcDbEntity
  8
SK1
  6
Continuous
100
AcDbLine
 10
6.955
 20
13.6366513435
 30
0.0
 11
6.955
 21
14.5945196191
 31
0.0
  0
LINE
  5
5A
330
1F
100
AcDbEntity
  8
SK1
  6
Continuous
100
AcDbLine
 10
7.155
 20
15.131827683
 30
0.0
 11
7.155
 21
16.2128868271
 31
0.0
  0
LINE
  5
5B
330
1F
100
AcDbEntity
  8
SK1
  6
Continuous
100
AcDbLine
 10
7.5509292142
 20
15.3430805276
 30
0.0
 11
7.5509292142
 21
16.4415452583
 31
0.0
  0
LINE
  5
5C
330
1F
100
AcDbEntity
  8
SK1
  6
Continuous
100
AcDbLine
 10
12.53
 20
12.6862813231
 30
0.0
 11
12.53
 21
13.5717424029
 31
0.0
  0
LINE
  5
5D
330
1F
100
AcDbEntity
  8
SK1
  6
Continuous
100
AcDbLine
 10
12.655
 20
12.4861671929
 30
0.0
 11
12.655
 21
13.3552360519
 31
0.0
  0
LINE
  5
60
330
1F
100
AcDbEntity
  8
SK3
100
AcDbLine
 10
-7.345
 20
6.3320250959
 30
0.0
 11
-7.345
 21
6.6880491427
 31
0.0
  0
ELLIPSE
  5
61
330
1F
100
AcDbEntity
  8
SK3
100
AcDbEllipse
 10
-2.4800832689
 20
39.1118068597
 30
0.0
 11
-40.00000000061547
 21
-2.689090183504334E-10
 31
0.0
210
0.0
220
0.0
230
1.0
 40
0.9238795325
 41
1.448871551106383
 42
1.570796326786785
  0
ARC
  5
62
330
1F
100
AcDbEntity
  8
SK3
100
AcDbCircle
 10
-8.1117523733
 20
5.9996825128
 30
0.0
 40
0.7671997288059405
100
AcDbArc
 50
1.9567299753
 51
92.4837671097
  0
ARC
  5
63
330
1F
100
AcDbEntity
  8
SK1
  6
Continuous
100
AcDbCircle
 10
12.4265422281
 20
12.4825598067
 30
0.0
 40
0.2284862507817547
100
AcDbArc
 50
0.9046346959
 51
63.0767542142
  0
LINE
  5
64
330
1F
100
AcDbEntity
  8
SK1
  6
Continuous
100
AcDbLine
 10
12.655
 20
12.4861671929
 30
0.0
 11
12.655
 21
12.180020447
 31
0.0
  0
ELLIPSE
  5
65
330
1F
100
AcDbEntity
  8
SK3
100
AcDbEllipse
 10
-2.4800832689
 20
39.4179536056
 30
0.0
 11
-40.00000000061547
 21
-2.689090183504334E-10
 31
0.0
210
0.0
220
0.0
230
1.0
 40
0.9238795325
 41
1.448871551106383
 42
1.570796326786785
  0
LINE
  5
66
330
1F
100
AcDbEntity
  8
SK1
  6
Continuous
100
AcDbLine
 10
3.555
 20
15.3926056849
 30
0.0
 11
3.555
 21
15.086458939
 31
0.0
  0
ARC
  5
67
330
1F
100
AcDbEntity
  8
SK1
  6
Continuous
100
AcDbCircle
 10
3.7477053172
 20
13.8293798757
 30
0.0
 40
0.1928665329682142
100
AcDbArc
 50
182.3428429979
 51
272.1675831677
  0
LINE
  5
68
330
1F
100
AcDbEntity
  8
SK1
  6
Continuous
100
AcDbLine
 10
3.755
 20
13.6366513435
 30
0.0
 11
6.955
 21
13.6366513435
 31
0.0
  0
ARC
  5
69
330
1F
100
AcDbEntity
  8
SK1
  6
Continuous
100
AcDbCircle
 10
6.9623022344
 20
13.829371705
 30
0.0
 40
0.1928586538449557
100
AcDbArc
 50
267.8300831489
 51
357.6594906848
  0
LINE
  5
6A
330
1F
100
AcDbEntity
  8
SK1
  6
Continuous
100
AcDbLine
 10
7.155
 20
14.8256809371
 30
0.0
 11
7.155
 21
15.131827683
 31
0.0
  0
LINE
  5
6B
330
1F
100
AcDbEntity
  8
SK1
  6
Continuous
100
AcDbLine
 10
7.155
 20
15.131827683
 30
0.0
 11
7.5509292142
 21
15.3430805276
 31
0.0
  0
SPLINE
  5
6C
330
1F
100
AcDbEntity
  8
SK1
  6
Continuous
100
AcDbSpline
210
0.0
220
0.0
230
1.0
 70
     8
 71
     3
 72
     8
 73
     4
 74
     0
 42
0.0000000017719323
 43
0.0000000001
 12
1.0
 22
0.0
 32
0.0
 13
1.0
 23
0.0
 33
0.0
 40
0.0
 40
0.0
 40
0.0
 40
0.0
 40
1.0
 40
1.0
 40
1.0
 40
1.0
 10
7.550929214159122
 20
15.34308052756406
 30
0.0
 10
9.210645503108294
 20
14.45752242256489
 30
0.0
 10
10.8703412913633
 20
13.57193150527889
 30
0.0
 10
12.53
 20
12.68628132307894
 30
0.0
  0
ARC
  5
6D
330
1F
100
AcDbEntity
  8
SK3
100
AcDbCircle
 10
-8.1117523733
 20
6.3058292587
 30
0.0
 40
0.7671997288059403
100
AcDbArc
 50
1.9567299753
 51
92.4837671097
  0
LINE
  5
6E
330
1F
100
AcDbEntity
  8
SK3
100
AcDbLine
 10
-7.345
 20
6.3320250959
 30
0.0
 11
-7.345
 21
6.02587835
 31
0.0
  0
LINE
  5
6F
330
1F
100
AcDbEntity
  8
SK3
100
AcDbLine
 10
12.655
 20
2.1566255581
 30
0.0
 11
-2.480083269
 21
2.1566255581
 31
0.0
  0
ARC
  5
70
330
1F
100
AcDbEntity
  8
SK1
  6
Continuous
100
AcDbCircle
 10
12.4265422281
 20
12.1764130608
 30
0.0
 40
0.2284862507817528
100
AcDbArc
 50
0.9046346959
 51
63.0767542142
  0
ARC
  5
71
330
1F
100
AcDbEntity
  8
SK1
  6
Continuous
100
AcDbCircle
 10
3.7477053172
 20
13.5232331298
 30
0.0
 40
0.1928665329682114
100
AcDbArc
 50
182.3428429979
 51
272.1675831677
  0
LINE
  5
72
330
1F
100
AcDbEntity
  8
SK1
  6
Continuous
100
AcDbLine
 10
3.755
 20
13.3305045976
 30
0.0
 11
6.955
 21
13.3305045976
 31
0.0
  0
ARC
  5
73
330
1F
100
AcDbEntity
  8
SK1
  6
Continuous
100
AcDbCircle
 10
6.9623022344
 20
13.5232249591
 30
0.0
 40
0.1928586538449557
100
AcDbArc
 50
267.8300831489
 51
357.6594906848
  0
LINE
  5
74
330
1F
100
AcDbEntity
  8
SK1
  6
Continuous
100
AcDbLine
 10
7.155
 20
14.8256809371
 30
0.0
 11
7.5509292142
 21
15.0369337817
 31
0.0
  0
SPLINE
  5
75
330
1F
100
AcDbEntity
  8
SK1
  6
Continuous
100
AcDbSpline
210
0.0
220
0.0
230
1.0
 70
     8
 71
     3
 72
     8
 73
     4
 74
     0
 42
0.0000000017719323
 43
0.0000000001
 12
1.0
 22
0.0
 32
0.0
 13
1.0
 23
0.0
 33
0.0
 40
0.0
 40
0.0
 40
0.0
 40
0.0
 40
1.0
 40
1.0
 40
1.0
 40
1.0
 10
7.550929214159122
 20
15.03693378167199
 30
0.0
 10
9.210645503108294
 20
14.15137567667282
 30
0.0
 10
10.8703412913633
 20
13.26578475938682
 30
0.0
 10
12.53
 20
12.38013457718687
 30
0.0
  0
LINE
  5
76
330
1F
100
AcDbEntity
  8
SK3
100
AcDbLine
 10
12.655
 20
2.462772304
 30
0.0
 11
-2.480083269
 21
2.462772304
 31
0.0
  0
LINE
  5
77
330
1F
100
AcDbEntity
  8
SK3
100
AcDbLine
 10
-27.345
 20
8.0674400513
 30
0.0
 11
-26.345
 21
7.4893258371
 31
0.0
  0
LINE
  5
78
330
1F
100
AcDbEntity
  8
SK3
100
AcDbLine
 10
-26.345
 20
7.4893258371
 30
0.0
 11
-8.145
 21
7.4893258371
 31
0.0
  0
SPLINE
  5
79
330
1F
100
AcDbEntity
  8
SK3
100
AcDbSpline
210
0.0
220
0.0
230
1.0
 70
     8
 71
     3
 72
    12
 73
     8
 74
     0
 42
0.0000000078281768
 43
0.0000000001
 12
1.0
 22
0.0
 32
0.0
 13
1.0
 23
0.0
 33
0.0
 40
0.0
 40
0.0
 40
0.0
 40
0.0
 40
0.2499999999999981
 40
0.2499999999999981
 40
0.4999999999999962
 40
0.4999999999999962
 40
1.0
 40
1.0
 40
1.0
 40
1.0
 10
-8.144999999999996
 20
7.489325837111809
 30
0.0
 10
-8.039178056091371
 20
7.48932583711181
 30
0.0
 10
-7.935322048653482
 20
7.468431592066348
 30
0.0
 10
-7.7414330301942
 20
7.387857298122743
 30
0.0
 10
-7.652645218362998
 20
7.32822348230261
 30
0.0
 10
-7.431330874503383
 20
7.106227103827958
 30
0.0
 10
-7.344999999999564
 20
6.897001780981416
 30
0.0
 10
-7.344999999990793
 20
6.68804914265202
 30
0.0
  0
LINE
  5
7A
330
1F
100
AcDbEntity
  8
SK1
  6
Continuous
100
AcDbLine
 10
7.155
 20
16.2128868271
 30
0.0
 11
7.5509292142
 21
16.4415452583
 31
0.0
  0
LINE
  5
7B
330
1F
100
AcDbEntity
  8
SK1
  6
Continuous
100
AcDbLine
 10
7.5509292142
 20
16.4415452583
 30
0.0
 11
10.8339560877
 21
14.5454548517
 31
0.0
  0
SPLINE
  5
7C
330
1F
100
AcDbEntity
  8
SK1
  6
Continuous
100
AcDbSpline
210
0.0
220
0.0
230
1.0
 70
     8
 71
     3
 72
    10
 73
     6
 74
     0
 42
0.000000022804885
 43
0.0000000001
 12
1.0
 22
0.0
 32
0.0
 13
1.0
 23
0.0
 33
0.0
 40
0.0
 40
0.0
 40
0.0
 40
0.0
 40
0.5
 40
0.5
 40
1.0
 40
1.0
 40
1.0
 40
1.0
 10
-27.345
 20
11.88977571875774
 30
0.0
 10
-27.34499999999999
 20
11.96123684463337
 30
0.0
 10
-27.31825218560486
 20
12.03271881829627
 30
0.0
 10
-27.22483457328357
 20
12.1403864818232
 30
0.0
 10
-27.1582676169232
 20
12.17696382600853
 30
0.0
 10
-27.08675193028802
 20
12.18702011259953
 30
0.0
  0
SPLINE
  5
7D
330
1F
100
AcDbEntity
  8
SK1
  6
Continuous
100
AcDbSpline
210
0.0
220
0.0
230
1.0
 70
     8
 71
     3
 72
    11
 73
     7
 74
     0
 42
0.0000000003231736
 43
0.0000000001
 12
1.0
 22
0.0
 32
0.0
 13
1.0
 23
0.0
 33
0.0
 40
0.0
 40
0.0
 40
0.0
 40
0.0
 40
0.6918346925192725
 40
0.6918346925192725
 40
0.6918346925192725
 40
1.0
 40
1.0
 40
1.0
 40
1.0
 10
-27.08675193028802
 20
12.18702011259953
 30
0.0
 10
-20.02042884374034
 20
13.18066183608607
 30
0.0
 10
-12.95408842150808
 20
14.17418027753027
 30
0.0
 10
-5.88773920769959
 20
15.16763617823144
 30
0.0
 10
-2.740161177978141
 20
15.61015322231322
 30
0.0
 10
0.4074186952730766
 20
16.05265715367435
 30
0.0
 10
3.555000000000009
 20
16.49515090235508
 30
0.0
  0
SPLINE
  5
7E
330
1F
100
AcDbEntity
  8
SK1
  6
Continuous
100
AcDbSpline
210
0.0
220
0.0
230
1.0
 70
     8
 71
     3
 72
    10
 73
     6
 74
     0
 42
0.0000000310334546
 43
0.0000000001
 12
1.0
 22
0.0
 32
0.0
 13
1.0
 23
0.0
 33
0.0
 40
0.0
 40
0.0
 40
0.0
 40
0.0
 40
0.5
 40
0.5
 40
1.0
 40
1.0
 40
1.0
 40
1.0
 10
3.555000000000006
 20
14.79459370689624
 30
0.0
 10
3.555000000000001
 20
14.74243385538208
 30
0.0
 10
3.576207253650064
 20
14.69054103972644
 30
0.0
 10
3.650815507220686
 20
14.61583394536717
 30
0.0
 10
3.702168617512025
 20
14.59451961909633
 30
0.0
 10
3.755000000000005
 20
14.59451961909712
 30
0.0
  0
LINE
  5
7F
330
1F
100
AcDbEntity
  8
SK1
  6
Continuous
100
AcDbLine
 10
3.755
 20
14.5945196191
 30
0.0
 11
6.955
 21
14.5945196191
 31
0.0
  0
SPLINE
  5
80
330
1F
100
AcDbEntity
  8
SK1
  6
Continuous
100
AcDbSpline
210
0.0
220
0.0
230
1.0
 70
     8
 71
     3
 72
    10
 73
     6
 74
     0
 42
0.0000000310413088
 43
0.0000000001
 12
1.0
 22
0.0
 32
0.0
 13
1.0
 23
0.0
 33
0.0
 40
0.0
 40
0.0
 40
0.0
 40
0.0
 40
0.5
 40
0.5
 40
1.0
 40
1.0
 40
1.0
 40
1.0
 10
6.955000000000006
 20
14.59451961909712
 30
0.0
 10
7.007871165711683
 20
14.59451961909712
 30
0.0
 10
7.059587068278561
 20
14.61623959978516
 30
0.0
 10
7.133380431516144
 20
14.69012563340719
 30
0.0
 10
7.155000000000117
 20
14.7423884956361
 30
0.0
 10
7.155000000002392
 20
14.79459370689652
 30
0.0
  0
LINE
  5
81
330
1F
100
AcDbEntity
  8
SK3
100
AcDbLine
 10
-7.345
 20
2.9289574763
 30
0.0
 11
-7.345
 21
4.4463222184
 31
0.0
  0
SPLINE
  5
82
330
1F
100
AcDbEntity
  8
SK3
100
AcDbSpline
210
0.0
220
0.0
230
1.0
 70
     8
 71
     3
 72
    12
 73
     8
 74
     0
 42
0.0000000107209709
 43
0.0000000001
 12
1.0
 22
0.0
 32
0.0
 13
1.0
 23
0.0
 33
0.0
 40
0.0
 40
0.0
 40
0.0
 40
0.0
 40
0.2499999999999986
 40
0.2499999999999986
 40
0.4999999999999971
 40
0.4999999999999971
 40
1.0
 40
1.0
 40
1.0
 40
1.0
 10
-8.144999999999996
 20
3.235592792041118
 30
0.0
 10
-8.039178056091366
 20
3.235592792041117
 30
0.0
 10
-7.935322048653486
 20
3.227596910630441
 30
0.0
 10
-7.7414330301942
 20
3.196762463263708
 30
0.0
 10
-7.652645218362987
 20
3.173941589940632
 30
0.0
 10
-7.431330874503379
 20
3.088987253853335
 30
0.0
 10
-7.344999999999571
 20
3.008920189168729
 30
0.0
 10
-7.344999999990793
 20
2.928957476331092
 30
0.0
  0
SPLINE
  5
83
330
1F
100
AcDbEntity
  8
SK3
100
AcDbSpline
210
0.0
220
0.0
230
1.0
 70
     8
 71
     3
 72
    12
 73
     8
 74
     0
 42
0.0000000107209709
 43
0.0000000001
 12
1.0
 22
0.0
 32
0.0
 13
1.0
 23
0.0
 33
0.0
 40
0.0
 40
0.0
 40
0.0
 40
0.0
 40
0.2499999999999991
 40
0.2499999999999991
 40
0.4999999999999981
 40
0.4999999999999981
 40
1.0
 40
1.0
 40
1.0
 40
1.0
 10
-8.144999999999996
 20
2.496489166032087
 30
0.0
 10
-8.03917805609137
 20
2.49648916603209
 30
0.0
 10
-7.935322048653486
 20
2.488493284621411
 30
0.0
 10
-7.741433030194197
 20
2.457658837254679
 30
0.0
 10
-7.65264521836299
 20
2.434837963931604
 30
0.0
 10
-7.431330874503379
 20
2.349883627844302
 30
0.0
 10
-7.344999999999571
 20
2.269816563159698
 30
0.0
 10
-7.344999999990793
 20
2.189853850322062
 30
0.0
  0
LINE
  5
84
330
1F
100
AcDbEntity
  8
SK1
  6
Continuous
100
AcDbLine
 10
3.555
 20
6.6819728393
 30
0.0
 11
3.555
 21
11.3809903765
 31
0.0
  0
LINE
  5
85
330
1F
100
AcDbEntity
  8
SK1
  6
Continuous
100
AcDbLine
 10
3.755
 20
5.9546327362
 30
0.0
 11
3.755
 21
10.0370411076
 31
0.0
  0
LINE
  5
86
330
1F
100
AcDbEntity
  8
SK1
  6
Continuous
100
AcDbLine
 10
6.955
 20
5.9546327362
 30
0.0
 11
6.955
 21
10.0370411076
 31
0.0
  0
LINE
  5
87
330
1F
100
AcDbEntity
  8
SK1
  6
Continuous
100
AcDbLine
 10
7.155
 20
6.5739550541
 30
0.0
 11
7.155
 21
11.1813995348
 31
0.0
  0
LINE
  5
88
330
1F
100
AcDbEntity
  8
SK1
  6
Continuous
100
AcDbLine
 10
7.5509292142
 20
6.6614588474
 30
0.0
 11
7.5509292142
 21
11.3430854621
 31
0.0
  0
LINE
  5
89
330
1F
100
AcDbEntity
  8
SK1
  6
Continuous
100
AcDbLine
 10
12.53
 20
5.5609765844
 30
0.0
 11
12.53
 21
12.3801345772
 31
0.0
  0
LINE
  5
8A
330
1F
100
AcDbEntity
  8
SK1
  6
Continuous
100
AcDbLine
 10
12.655
 20
5.4780865977
 30
0.0
 11
12.655
 21
12.180020447
 31
0.0
  0
ELLIPSE
  5
8B
330
1F
100
AcDbEntity
  8
SK3
100
AcDbEllipse
 10
-2.4800832689
 20
15.8944941628
 30
0.0
 11
-40.00000000061736
 21
-3.295281236623104E-11
 31
0.0
210
0.0
220
0.0
230
1.0
 40
0.3826834324
 41
1.448871551112278
 42
1.570796326792681
  0
SPLINE
  5
8C
330
1F
100
AcDbEntity
  8
SK1
  6
Continuous
100
AcDbSpline
210
0.0
220
0.0
230
1.0
 70
     8
 71
     3
 72
     8
 73
     4
 74
     0
 42
0.0000000587479703
 43
0.0000000001
 12
1.0
 22
0.0
 32
0.0
 13
1.0
 23
0.0
 33
0.0
 40
0.0
 40
0.0
 40
0.0
 40
0.0
 40
1.0
 40
1.0
 40
1.0
 40
1.0
 10
12.53
 20
5.560976584436185
 30
0.0
 10
12.60628692078018
 20
5.544114244997565
 30
0.0
 10
12.655
 20
5.511621430539102
 30
0.0
 10
12.655
 20
5.478086597693866
 30
0.0
  0
LINE
  5
8D
330
1F
100
AcDbEntity
  8
SK1
  6
Continuous
100
AcDbLine
 10
12.655
 20
5.4780865977
 30
0.0
 11
12.655
 21
4.7389829717
 31
0.0
  0
ELLIPSE
  5
8E
330
1F
100
AcDbEntity
  8
SK3
100
AcDbEllipse
 10
-2.4800832689
 20
16.6335977888
 30
0.0
 11
-40.00000000061736
 21
-3.295281236623104E-11
 31
0.0
210
0.0
220
0.0
230
1.0
 40
0.3826834324
 41
1.448871551112278
 42
1.570796326792681
  0
LINE
  5
8F
330
1F
100
AcDbEntity
  8
SK1
  6
Continuous
100
AcDbLine
 10
3.555
 20
6.6819728393
 30
0.0
 11
3.555
 21
6.0311977748
 31
0.0
  0
SPLINE
  5
90
330
1F
100
AcDbEntity
  8
SK1
  6
Continuous
100
AcDbSpline
210
0.0
220
0.0
230
1.0
 70
     8
 71
     3
 72
    10
 73
     6
 74
     0
 42
0.0000000427824414
 43
0.0000000001
 12
1.0
 22
0.0
 32
0.0
 13
1.0
 23
0.0
 33
0.0
 40
0.0
 40
0.0
 40
0.0
 40
0.0
 40
0.5
 40
0.5
 40
1.0
 40
1.0
 40
1.0
 40
1.0
 10
3.555000000000006
 20
6.031197774796635
 30
0.0
 10
3.555000000000001
 20
6.011237063787538
 30
0.0
 10
3.576207253650066
 20
5.991378542977349
 30
0.0
 10
3.650815507220691
 20
5.962789375685914
 30
0.0
 10
3.702168617512026
 20
5.954632736150048
 30
0.0
 10
3.755000000000005
 20
5.954632736150348
 30
0.0
  0
LINE
  5
91
330
1F
100
AcDbEntity
  8
SK1
  6
Continuous
100
AcDbLine
 10
3.755
 20
5.9546327362
 30
0.0
 11
6.955
 21
5.9546327362
 31
0.0
  0
SPLINE
  5
92
330
1F
100
AcDbEntity
  8
SK1
  6
Continuous
100
AcDbSpline
210
0.0
220
0.0
230
1.0
 70
     8
 71
     3
 72
    10
 73
     6
 74
     0
 42
0.0000000427888826
 43
0.0000000001
 12
1.0
 22
0.0
 32
0.0
 13
1.0
 23
0.0
 33
0.0
 40
0.0
 40
0.0
 40
0.0
 40
0.0
 40
0.5
 40
0.5
 40
1.0
 40
1.0
 40
1.0
 40
1.0
 10
6.955000000000006
 20
5.954632736150351
 30
0.0
 10
7.007871165711683
 20
5.954632736150351
 30
0.0
 10
7.059587068278561
 20
5.962944612910949
 30
0.0
 10
7.133380431516144
 20
5.991219573861272
 30
0.0
 10
7.155000000000117
 20
6.011219705364254
 30
0.0
 10
7.155000000002392
 20
6.031197774796738
 30
0.0
  0
LINE
  5
93
330
1F
100
AcDbEntity
  8
SK1
  6
Continuous
100
AcDbLine
 10
7.155
 20
6.0311977748
 30
0.0
 11
7.155
 21
6.5739550541
 31
0.0
  0
LINE
  5
94
330
1F
100
AcDbEntity
  8
SK1
  6
Continuous
100
AcDbLine
 10
7.155
 20
6.5739550541
 30
0.0
 11
7.5509292142
 21
6.6614588474
 31
0.0
  0
LINE
  5
95
330
1F
100
AcDbEntity
  8
SK1
  6
Continuous
100
AcDbLine
 10
7.5509292142
 20
6.6614588474
 30
0.0
 11
12.53
 21
5.5609765844
 31
0.0
  0
LINE
  5
96
330
1F
100
AcDbEntity
  8
SK3
100
AcDbLine
 10
-7.345
 20
2.9289574763
 30
0.0
 11
-7.345
 21
2.1898538503
 31
0.0
  0
LINE
  5
97
330
1F
100
AcDbEntity
  8
SK3
100
AcDbLine
 10
12.655
 20
0.5871568677
 30
0.0
 11
-2.480083269
 21
0.5871568677
 31
0.0
  0
SPLINE
  5
98
330
1F
100
AcDbEntity
  8
SK1
  6
Continuous
100
AcDbSpline
210
0.0
220
0.0
230
1.0
 70
     8
 71
     3
 72
     8
 73
     4
 74
     0
 42
0.0000000587479703
 43
0.0000000001
 12
1.0
 22
0.0
 32
0.0
 13
1.0
 23
0.0
 33
0.0
 40
0.0
 40
0.0
 40
0.0
 40
0.0
 40
1.0
 40
1.0
 40
1.0
 40
1.0
 10
12.53
 20
4.821872958427155
 30
0.0
 10
12.60628692078018
 20
4.805010618988534
 30
0.0
 10
12.655
 20
4.772517804530073
 30
0.0
 10
12.655
 20
4.738982971684836
 30
0.0
  0
SPLINE
  5
99
330
1F
100
AcDbEntity
  8
SK1
  6
Continuous
100
AcDbSpline
210
0.0
220
0.0
230
1.0
 70
     8
 71
     3
 72
    10
 73
     6
 74
     0
 42
0.0000000427824414
 43
0.0000000001
 12
1.0
 22
0.0
 32
0.0
 13
1.0
 23
0.0
 33
0.0
 40
0.0
 40
0.0
 40
0.0
 40
0.0
 40
0.5
 40
0.5
 40
1.0
 40
1.0
 40
1.0
 40
1.0
 10
3.555000000000006
 20
5.292094148787601
 30
0.0
 10
3.555000000000002
 20
5.272133437778503
 30
0.0
 10
3.576207253650064
 20
5.25227491696832
 30
0.0
 10
3.650815507220689
 20
5.223685749676892
 30
0.0
 10
3.702168617512025
 20
5.215529110141017
 30
0.0
 10
3.755000000000005
 20
5.215529110141317
 30
0.0
  0
LINE
  5
9A
330
1F
100
AcDbEntity
  8
SK1
  6
Continuous
100
AcDbLine
 10
3.755
 20
5.2155291101
 30
0.0
 11
6.955
 21
5.2155291101
 31
0.0
  0
SPLINE
  5
9B
330
1F
100
AcDbEntity
  8
SK1
  6
Continuous
100
AcDbSpline
210
0.0
220
0.0
230
1.0
 70
     8
 71
     3
 72
    10
 73
     6
 74
     0
 42
0.0000000427888826
 43
0.0000000001
 12
1.0
 22
0.0
 32
0.0
 13
1.0
 23
0.0
 33
0.0
 40
0.0
 40
0.0
 40
0.0
 40
0.0
 40
0.5
 40
0.5
 40
1.0
 40
1.0
 40
1.0
 40
1.0
 10
6.955000000000006
 20
5.215529110141319
 30
0.0
 10
7.007871165711683
 20
5.21552911014132
 30
0.0
 10
7.059587068278563
 20
5.223840986901919
 30
0.0
 10
7.133380431516147
 20
5.252115947852243
 30
0.0
 10
7.155000000000119
 20
5.272116079355226
 30
0.0
 10
7.155000000002392
 20
5.292094148787709
 30
0.0
  0
LINE
  5
9C
330
1F
100
AcDbEntity
  8
SK1
  6
Continuous
100
AcDbLine
 10
7.155
 20
5.8348514281
 30
0.0
 11
7.5509292142
 21
5.9223552214
 31
0.0
  0
LINE
  5
9D
330
1F
100
AcDbEntity
  8
SK1
  6
Continuous
100
AcDbLine
 10
7.5509292142
 20
5.9223552214
 30
0.0
 11
12.53
 21
4.8218729584
 31
0.0
  0
LINE
  5
9E
330
1F
100
AcDbEntity
  8
SK3
100
AcDbLine
 10
12.655
 20
1.3262604937
 30
0.0
 11
-2.480083269
 21
1.3262604937
 31
0.0
  0
LINE
  5
9F
330
1F
100
AcDbEntity
  8
SK3
100
AcDbLine
 10
-7.345
 20
5.0120076434
 30
0.0
 11
-7.345
 21
6.02587835
 31
0.0
  0
SPLINE
  5
A0
330
1F
100
AcDbEntity
  8
SK3
100
AcDbSpline
210
0.0
220
0.0
230
1.0
 70
     8
 71
     3
 72
    12
 73
     8
 74
     0
 42
0.0000000090787116
 43
0.0000000001
 12
1.0
 22
0.0
 32
0.0
 13
1.0
 23
0.0
 33
0.0
 40
0.0
 40
0.0
 40
0.0
 40
0.0
 40
0.2499999999999989
 40
0.2499999999999989
 40
0.4999999999999979
 40
0.4999999999999979
 40
1.0
 40
1.0
 40
1.0
 40
1.0
 10
-8.144999999999996
 20
5.578595827634159
 30
0.0
 10
-8.03917805609137
 20
5.578595827634159
 30
0.0
 10
-7.935322048653486
 20
5.563821365274741
 30
0.0
 10
-7.741433030194203
 20
5.506846735637899
 30
0.0
 10
-7.652645218362998
 20
5.464679260083453
 30
0.0
 10
-7.431330874503375
 20
5.30770411546517
 30
0.0
 10
-7.344999999999574
 20
5.159759470884442
 30
0.0
 10
-7.344999999990793
 20
5.012007643374899
 30
0.0
  0
SPLINE
  5
A1
330
1F
100
AcDbEntity
  8
SK3
100
AcDbSpline
210
0.0
220
0.0
230
1.0
 70
     8
 71
     3
 72
    12
 73
     8
 74
     0
 42
0.0000000090787116
 43
0.0000000001
 12
1.0
 22
0.0
 32
0.0
 13
1.0
 23
0.0
 33
0.0
 40
0.0
 40
0.0
 40
0.0
 40
0.0
 40
0.2500000000000016
 40
0.2500000000000016
 40
0.5000000000000031
 40
0.5000000000000031
 40
1.0
 40
1.0
 40
1.0
 40
1.0
 10
-8.144999999999996
 20
5.012910402684922
 30
0.0
 10
-8.03917805609137
 20
5.012910402684922
 30
0.0
 10
-7.935322048653486
 20
4.998135940325501
 30
0.0
 10
-7.7414330301942
 20
4.94116131068866
 30
0.0
 10
-7.652645218362998
 20
4.898993835134215
 30
0.0
 10
-7.43133087450339
 20
4.742018690515937
 30
0.0
 10
-7.344999999999574
 20
4.594074045935203
 30
0.0
 10
-7.344999999990793
 20
4.446322218425662
 30
0.0
  0
LINE
  5
A2
330
1F
100
AcDbEntity
  8
SK1
  6
Continuous
100
AcDbLine
 10
3.555
 20
11.9466758014
 30
0.0
 11
3.555
 21
15.086458939
 31
0.0
  0
LINE
  5
A3
330
1F
100
AcDbEntity
  8
SK1
  6
Continuous
100
AcDbLine
 10
3.755
 20
10.6027265325
 30
0.0
 11
3.755
 21
13.3305045976
 31
0.0
  0
LINE
  5
A4
330
1F
100
AcDbEntity
  8
SK1
  6
Continuous
100
AcDbLine
 10
6.955
 20
10.6027265325
 30
0.0
 11
6.955
 21
13.3305045976
 31
0.0
  0
LINE
  5
A5
330
1F
100
AcDbEntity
  8
SK1
  6
Continuous
100
AcDbLine
 10
7.155
 20
11.7470849598
 30
0.0
 11
7.155
 21
14.8256809371
 31
0.0
  0
LINE
  5
A6
330
1F
100
AcDbEntity
  8
SK1
  6
Continuous
100
AcDbLine
 10
7.5509292142
 20
11.908770887
 30
0.0
 11
7.5509292142
 21
15.0369337817
 31
0.0
  0
LINE
  5
A7
330
1F
100
AcDbEntity
  8
SK3
100
AcDbLine
 10
-26.345
 20
5.5785958276
 30
0.0
 11
-26.345
 21
7.4893258371
 31
0.0
  0
LINE
  5
A8
330
1F
100
AcDbEntity
  8
SK1
  6
Continuous
100
AcDbLine
 10
-27.345
 20
8.6901837792
 30
0.0
 11
-27.345
 21
11.8897757188
 31
0.0
  0
LINE
  5
A9
330
1F
100
AcDbEntity
  8
SK1
  6
Continuous
100
AcDbLine
 10
-27.0867519303
 20
8.9003673058
 30
0.0
 11
-27.0867519303
 21
12.1870201126
 31
0.0
  0
LINE
  5
AA
330
1F
100
AcDbEntity
  8
SK3
100
AcDbLine
 10
-27.345
 20
5.4216988838
 30
0.0
 11
-26.345
 21
5.0129104027
 31
0.0
  0
LINE
  5
AB
330
1F
100
AcDbEntity
  8
SK3
100
AcDbLine
 10
-26.345
 20
5.0129104027
 30
0.0
 11
-8.145
 21
5.0129104027
 31
0.0
  0
LINE
  5
AC
330
1F
100
AcDbEntity
  8
SK1
  6
Continuous
100
AcDbLine
 10
7.155
 20
11.7470849598
 30
0.0
 11
7.5509292142
 21
11.908770887
 31
0.0
  0
LINE
  5
AD
330
1F
100
AcDbEntity
  8
SK1
  6
Continuous
100
AcDbLine
 10
7.5509292142
 20
11.908770887
 30
0.0
 11
10.8339560877
 21
10.5680325028
 31
0.0
  0
LINE
  5
AE
330
1F
100
AcDbEntity
  8
SK1
  6
Continuous
100
AcDbLine
 10
-27.345
 20
8.1244983543
 30
0.0
 11
-27.345
 21
8.6901837792
 31
0.0
  0
SPLINE
  5
AF
330
1F
100
AcDbEntity
  8
SK1
  6
Continuous
100
AcDbSpline
210
0.0
220
0.0
230
1.0
 70
     8
 71
     3
 72
    10
 73
     6
 74
     0
 42
0.0000000269170392
 43
0.0000000001
 12
1.0
 22
0.0
 32
0.0
 13
1.0
 23
0.0
 33
0.0
 40
0.0
 40
0.0
 40
0.0
 40
0.0
 40
0.5
 40
0.5
 40
1.0
 40
1.0
 40
1.0
 40
1.0
 10
-27.345
 20
8.69018377921753
 30
0.0
 10
-27.34499999999999
 20
8.740714425915424
 30
0.0
 10
-27.31825218560486
 20
8.791259814225052
 30
0.0
 10
-27.22483457328357
 20
8.86739234921946
 30
0.0
 10
-27.1582676169232
 20
8.8932564373307
 30
0.0
 10
-27.08675193028802
 20
8.900367305772752
 30
0.0
  0
SPLINE
  5
B0
330
1F
100
AcDbEntity
  8
SK1
  6
Continuous
100
AcDbSpline
210
0.0
220
0.0
230
1.0
 70
     8
 71
     3
 72
    11
 73
     7
 74
     0
 42
0.0000000003247512
 43
0.0000000001
 12
1.0
 22
0.0
 32
0.0
 13
1.0
 23
0.0
 33
0.0
 40
0.0
 40
0.0
 40
0.0
 40
0.0
 40
0.6918346925192725
 40
0.6918346925192725
 40
0.6918346925192725
 40
1.0
 40
1.0
 40
1.0
 40
1.0
 10
-27.08675193028802
 20
8.900367305772752
 30
0.0
 10
-20.02042884374034
 20
9.602978106519972
 30
0.0
 10
-12.95408842150808
 20
10.30550173369905
 30
0.0
 10
-5.88773920769959
 20
11.00798113789464
 30
0.0
 10
-2.740161177978141
 20
11.32088794055549
 30
0.0
 10
0.4074186952730766
 20
11.63378547112266
 30
0.0
 10
3.555000000000009
 20
11.94667580144746
 30
0.0
  0
LINE
  5
B1
330
1F
100
AcDbEntity
  8
SK1
  6
Continuous
100
AcDbLine
 10
3.555
 20
11.9466758014
 30
0.0
 11
3.555
 21
11.3809903765
 31
0.0
  0
SPLINE
  5
B2
330
1F
100
AcDbEntity
  8
SK1
  6
Continuous
100
AcDbSpline
210
0.0
220
0.0
230
1.0
 70
     8
 71
     3
 72
    10
 73
     6
 74
     0
 42
0.000000036097062
 43
0.0000000001
 12
1.0
 22
0.0
 32
0.0
 13
1.0
 23
0.0
 33
0.0
 40
0.0
 40
0.0
 40
0.0
 40
0.0
 40
0.5
 40
0.5
 40
1.0
 40
1.0
 40
1.0
 40
1.0
 10
3.555000000000006
 20
10.74420027674294
 30
0.0
 10
3.554999999999999
 20
10.70731769203158
 30
0.0
 10
3.576207253650066
 20
10.67062393018662
 30
0.0
 10
3.650815507220687
 20
10.61779803716244
 30
0.0
 10
3.702168617512025
 20
10.6027265325199
 30
0.0
 10
3.755000000000005
 20
10.60272653252046
 30
0.0
  0
LINE
  5
B3
330
1F
100
AcDbEntity
  8
SK1
  6
Continuous
100
AcDbLine
 10
3.755
 20
10.6027265325
 30
0.0
 11
6.955
 21
10.6027265325
 31
0.0
  0
SPLINE
  5
B4
330
1F
100
AcDbEntity
  8
SK1
  6
Continuous
100
AcDbSpline
210
0.0
220
0.0
230
1.0
 70
     8
 71
     3
 72
    10
 73
     6
 74
     0
 42
0.0000000361056729
 43
0.0000000001
 12
1.0
 22
0.0
 32
0.0
 13
1.0
 23
0.0
 33
0.0
 40
0.0
 40
0.0
 40
0.0
 40
0.0
 40
0.5
 40
0.5
 40
1.0
 40
1.0
 40
1.0
 40
1.0
 10
6.955000000000006
 20
10.60272653252047
 30
0.0
 10
7.007871165711683
 20
10.60272653252047
 30
0.0
 10
7.059587068278563
 20
10.61808487815221
 30
0.0
 10
7.133380431516147
 20
10.67033019356133
 30
0.0
 10
7.155000000000119
 20
10.70728561784761
 30
0.0
 10
7.155000000002392
 20
10.74420027674313
 30
0.0
  0
LINE
  5
B5
330
1F
100
AcDbEntity
  8
SK1
  6
Continuous
100
AcDbLine
 10
7.155
 20
11.1813995348
 30
0.0
 11
7.155
 21
11.7470849598
 31
0.0
  0
LINE
  5
B6
330
1F
100
AcDbEntity
  8
SK1
  6
Continuous
100
AcDbLine
 10
7.155
 20
11.1813995348
 30
0.0
 11
7.5509292142
 21
11.3430854621
 31
0.0
  0
LINE
  5
B7
330
1F
100
AcDbEntity
  8
SK1
  6
Continuous
100
AcDbLine
 10
7.5509292142
 20
11.3430854621
 30
0.0
 11
10.8339560877
 21
10.0023470778
 31
0.0
  0
SPLINE
  5
B8
330
1F
100
AcDbEntity
  8
SK1
  6
Continuous
100
AcDbSpline
210
0.0
220
0.0
230
1.0
 70
     8
 71
     3
 72
    10
 73
     6
 74
     0
 42
0.0000000269170392
 43
0.0000000001
 12
1.0
 22
0.0
 32
0.0
 13
1.0
 23
0.0
 33
0.0
 40
0.0
 40
0.0
 40
0.0
 40
0.0
 40
0.5
 40
0.5
 40
1.0
 40
1.0
 40
1.0
 40
1.0
 10
-27.345
 20
8.124498354268294
 30
0.0
 10
-27.34500000000001
 20
8.175029000966182
 30
0.0
 10
-27.31825218560486
 20
8.225574389275815
 30
0.0
 10
-27.22483457328357
 20
8.301706924270222
 30
0.0
 10
-27.1582676169232
 20
8.327571012381457
 30
0.0
 10
-27.08675193028802
 20
8.334681880823515
 30
0.0
  0
SPLINE
  5
B9
330
1F
100
AcDbEntity
  8
SK1
  6
Continuous
100
AcDbSpline
210
0.0
220
0.0
230
1.0
 70
     8
 71
     3
 72
    11
 73
     7
 74
     0
 42
0.0000000003247512
 43
0.0000000001
 12
1.0
 22
0.0
 32
0.0
 13
1.0
 23
0.0
 33
0.0
 40
0.0
 40
0.0
 40
0.0
 40
0.0
 40
0.6918346925192725
 40
0.6918346925192725
 40
0.6918346925192725
 40
1.0
 40
1.0
 40
1.0
 40
1.0
 10
-27.08675193028802
 20
8.334681880823515
 30
0.0
 10
-20.02042884374034
 20
9.037292681570731
 30
0.0
 10
-12.95408842150808
 20
9.739816308749816
 30
0.0
 10
-5.88773920769959
 20
10.4422957129454
 30
0.0
 10
-2.740161177978141
 20
10.75520251560626
 30
0.0
 10
0.4074186952730749
 20
11.06810004617342
 30
0.0
 10
3.555000000000009
 20
11.38099037649822
 30
0.0
  0
SPLINE
  5
BA
330
1F
100
AcDbEntity
  8
SK1
  6
Continuous
100
AcDbSpline
210
0.0
220
0.0
230
1.0
 70
     8
 71
     3
 72
    10
 73
     6
 74
     0
 42
0.000000036097062
 43
0.0000000001
 12
1.0
 22
0.0
 32
0.0
 13
1.0
 23
0.0
 33
0.0
 40
0.0
 40
0.0
 40
0.0
 40
0.0
 40
0.5
 40
0.5
 40
1.0
 40
1.0
 40
1.0
 40
1.0
 10
3.555000000000006
 20
10.1785148517937
 30
0.0
 10
3.555000000000002
 20
10.14163226708235
 30
0.0
 10
3.576207253650064
 20
10.10493850523738
 30
0.0
 10
3.650815507220689
 20
10.05211261221319
 30
0.0
 10
3.702168617512025
 20
10.03704110757066
 30
0.0
 10
3.755000000000005
 20
10.03704110757123
 30
0.0
  0
LINE
  5
BB
330
1F
100
AcDbEntity
  8
SK1
  6
Continuous
100
AcDbLine
 10
3.755
 20
10.0370411076
 30
0.0
 11
6.955
 21
10.0370411076
 31
0.0
  0
SPLINE
  5
BC
330
1F
100
AcDbEntity
  8
SK1
  6
Continuous
100
AcDbSpline
210
0.0
220
0.0
230
1.0
 70
     8
 71
     3
 72
    10
 73
     6
 74
     0
 42
0.0000000361056729
 43
0.0000000001
 12
1.0
 22
0.0
 32
0.0
 13
1.0
 23
0.0
 33
0.0
 40
0.0
 40
0.0
 40
0.0
 40
0.0
 40
0.5
 40
0.5
 40
1.0
 40
1.0
 40
1.0
 40
1.0
 10
6.955000000000006
 20
10.03704110757123
 30
0.0
 10
7.007871165711681
 20
10.03704110757123
 30
0.0
 10
7.059587068278561
 20
10.05239945320297
 30
0.0
 10
7.133380431516147
 20
10.10464476861209
 30
0.0
 10
7.155000000000119
 20
10.14160019289837
 30
0.0
 10
7.155000000002392
 20
10.17851485179389
 30
0.0
  0
LINE
  5
BD
330
1F
100
AcDbEntity
  8
SK3
100
AcDbLine
 10
-27.345
 20
5.9873843088
 30
0.0
 11
-26.345
 21
5.5785958276
 31
0.0
  0
LINE
  5
BE
330
1F
100
AcDbEntity
  8
SK3
100
AcDbLine
 10
-26.345
 20
5.5785958276
 30
0.0
 11
-8.145
 21
5.5785958276
 31
0.0
  0
LINE
  5
BF
330
1F
100
AcDbEntity
  8
SK3
100
AcDbLine
 10
-7.345
 20
5.0120076434
 30
0.0
 11
-7.345
 21
4.4773801718
 31
0.0
  0
LINE
  5
C0
330
1F
100
AcDbEntity
  8
SK3
100
AcDbLine
 10
-7.345
 20
-2.1898536508
 30
0.0
 11
-7.345
 21
-0.3999999002
 31
0.0
  0
SPLINE
  5
C1
330
1F
100
AcDbEntity
  8
SK3
100
AcDbSpline
210
0.0
220
0.0
230
1.0
 70
     8
 71
     3
 72
    12
 73
     8
 74
     0
 42
0.0000000107214939
 43
0.0000000001
 12
1.0
 22
0.0
 32
0.0
 13
1.0
 23
0.0
 33
0.0
 40
0.0
 40
0.0
 40
0.0
 40
0.0
 40
0.2500000000000015
 40
0.2500000000000015
 40
0.500000000000003
 40
0.500000000000003
 40
1.0
 40
1.0
 40
1.0
 40
1.0
 10
-8.144999999999996
 20
-2.496488966490693
 30
0.0
 10
-8.040692923641638
 20
-2.496488966490699
 30
0.0
 10
-7.935663227341998
 20
-2.488513468845117
 30
0.0
 10
-7.74224119079335
 20
-2.45782083429373
 30
0.0
 10
-7.652134002330228
 20
-2.434681420481548
 30
0.0
 10
-7.431155235078524
 20
-2.349735895889836
 30
0.0
 10
-7.344999999999429
 20
-2.269730275527229
 30
0.0
 10
-7.344999999987532
 20
-2.189853650780504
 30
0.0
  0
SPLINE
  5
C2
330
1F
100
AcDbEntity
  8
SK3
100
AcDbSpline
210
0.0
220
0.0
230
1.0
 70
     8
 71
     3
 72
    12
 73
     8
 74
     0
 42
0.0000000107214939
 43
0.0000000001
 12
1.0
 22
0.0
 32
0.0
 13
1.0
 23
0.0
 33
0.0
 40
0.0
 40
0.0
 40
0.0
 40
0.0
 40
0.2500000000000015
 40
0.2500000000000015
 40
0.500000000000003
 40
0.500000000000003
 40
1.0
 40
1.0
 40
1.0
 40
1.0
 10
-8.144999999999996
 20
-3.235592592499721
 30
0.0
 10
-8.040692923641638
 20
-3.235592592499729
 30
0.0
 10
-7.935663227341998
 20
-3.227617094854147
 30
0.0
 10
-7.74224119079335
 20
-3.196924460302759
 30
0.0
 10
-7.652134002330228
 20
-3.173785046490577
 30
0.0
 10
-7.431155235078524
 20
-3.088839521898865
 30
0.0
 10
-7.344999999999429
 20
-3.008833901536259
 30
0.0
 10
-7.344999999987532
 20
-2.928957276789534
 30
0.0
  0
LINE
  5
C3
330
1F
100
AcDbEntity
  8
SK1
  6
Continuous
100
AcDbLine
 10
3.555
 20
-5.9428690137
 30
0.0
 11
3.555
 21
-0.3999999002
 31
0.0
  0
LINE
  5
C4
330
1F
100
AcDbEntity
  8
SK1
  6
Continuous
100
AcDbLine
 10
3.755
 20
-5.2155289106
 30
0.0
 11
3.755
 21
-0.3999999002
 31
0.0
  0
LINE
  5
C5
330
1F
100
AcDbEntity
  8
SK1
  6
Continuous
100
AcDbLine
 10
6.955
 20
-5.2155289106
 30
0.0
 11
6.955
 21
-0.3999999002
 31
0.0
  0
LINE
  5
C6
330
1F
100
AcDbEntity
  8
SK1
  6
Continuous
100
AcDbLine
 10
7.155
 20
-5.8348512286
 30
0.0
 11
7.155
 21
-0.3999999002
 31
0.0
  0
LINE
  5
C7
330
1F
100
AcDbEntity
  8
SK1
  6
Continuous
100
AcDbLine
 10
7.5509292142
 20
-5.9223550219
 30
0.0
 11
7.5509292142
 21
-0.3999999002
 31
0.0
  0
LINE
  5
C8
330
1F
100
AcDbEntity
  8
SK1
  6
Continuous
100
AcDbLine
 10
12.53
 20
-4.8218727589
 30
0.0
 11
12.53
 21
4.8218729584
 31
0.0
  0
LINE
  5
C9
330
1F
100
AcDbEntity
  8
SK1
  6
Continuous
100
AcDbLine
 10
12.655
 20
-4.7389827721
 30
0.0
 11
12.655
 21
4.7389829717
 31
0.0
  0
ELLIPSE
  5
CA
330
1F
100
AcDbEntity
  8
SK3
100
AcDbEllipse
 10
-2.4800832689
 20
-16.6335975892
 30
0.0
 11
-40.00000000061736
 21
3.295281236623104E-11
 31
0.0
210
0.0
220
0.0
230
1.0
 40
0.3826834324
 41
4.712388980386906
 42
4.834313756067308
  0
LINE
  5
CB
330
1F
100
AcDbEntity
  8
SK3
100
AcDbLine
 10
-7.345
 20
-2.9289572768
 30
0.0
 11
-7.345
 21
-2.1898536508
 31
0.0
  0
SPLINE
  5
CC
330
1F
100
AcDbEntity
  8
SK1
  6
Continuous
100
AcDbSpline
210
0.0
220
0.0
230
1.0
 70
     8
 71
     3
 72
    10
 73
     6
 74
     0
 42
0.0000000616218941
 43
0.0000000001
 12
1.0
 22
0.0
 32
0.0
 13
1.0
 23
0.0
 33
0.0
 40
0.0
 40
0.0
 40
0.0
 40
0.0
 40
0.5
 40
0.5
 40
1.0
 40
1.0
 40
1.0
 40
1.0
 10
12.53
 20
-4.821872758885759
 30
0.0
 10
12.5676209011409
 20
-4.813557094830418
 30
0.0
 10
12.59992299572217
 20
-4.801184116369364
 30
0.0
 10
12.64333277118495
 20
-4.772333464929382
 30
0.0
 10
12.655
 20
-4.755716866551683
 30
0.0
 10
12.655
 20
-4.73898277214344
 30
0.0
  0
ELLIPSE
  5
CD
330
1F
100
AcDbEntity
  8
SK3
100
AcDbEllipse
 10
-2.4800832689
 20
-15.8944939632
 30
0.0
 11
-40.00000000061736
 21
3.295281236623104E-11
 31
0.0
210
0.0
220
0.0
230
1.0
 40
0.3826834324
 41
4.712388980386906
 42
4.834313756067308
  0
SPLINE
  5
CE
330
1F
100
AcDbEntity
  8
SK1
  6
Continuous
100
AcDbSpline
210
0.0
220
0.0
230
1.0
 70
     8
 71
     3
 72
    10
 73
     6
 74
     0
 42
0.0000000427901961
 43
0.0000000001
 12
1.0
 22
0.0
 32
0.0
 13
1.0
 23
0.0
 33
0.0
 40
0.0
 40
0.0
 40
0.0
 40
0.0
 40
0.5
 40
0.5
 40
1.0
 40
1.0
 40
1.0
 40
1.0
 10
3.555000000000006
 20
-5.292093949246207
 30
0.0
 10
3.555000000000006
 20
-5.272159170116057
 30
0.0
 10
3.576572988320887
 20
-5.252100178731832
 30
0.0
 10
3.650793066651723
 20
-5.223728701366854
 30
0.0
 10
3.702915376527144
 20
-5.215528910599925
 30
0.0
 10
3.755000000000005
 20
-5.215528910599925
 30
0.0
  0
LINE
  5
CF
330
1F
100
AcDbEntity
  8
SK1
  6
Continuous
100
AcDbLine
 10
3.755
 20
-5.2155289106
 30
0.0
 11
6.955
 21
-5.2155289106
 31
0.0
  0
SPLINE
  5
D0
330
1F
100
AcDbEntity
  8
SK1
  6
Continuous
100
AcDbSpline
210
0.0
220
0.0
230
1.0
 70
     8
 71
     3
 72
    10
 73
     6
 74
     0
 42
0.0000000427806506
 43
0.0000000001
 12
1.0
 22
0.0
 32
0.0
 13
1.0
 23
0.0
 33
0.0
 40
0.0
 40
0.0
 40
0.0
 40
0.0
 40
0.5
 40
0.5
 40
1.0
 40
1.0
 40
1.0
 40
1.0
 10
6.955000000000006
 20
-5.215528910599925
 30
0.0
 10
7.007447526858668
 20
-5.215528910599924
 30
0.0
 10
7.059229156886633
 20
-5.223714701114271
 30
0.0
 10
7.133628747227752
 20
-5.252199857709066
 30
0.0
 10
7.155000000000008
 20
-5.272048620665359
 30
0.0
 10
7.155000000000012
 20
-5.292093949246206
 30
0.0
  0
LINE
  5
D1
330
1F
100
AcDbEntity
  8
SK1
  6
Continuous
100
AcDbLine
 10
7.155
 20
-5.8348512286
 30
0.0
 11
7.5509292142
 21
-5.9223550219
 31
0.0
  0
SPLINE
  5
D2
330
1F
100
AcDbEntity
  8
SK1
  6
Continuous
100
AcDbSpline
210
0.0
220
0.0
230
1.0
 70
     8
 71
     3
 72
     8
 73
     4
 74
     0
 42
0.0000000019610781
 43
0.0000000001
 12
1.0
 22
0.0
 32
0.0
 13
1.0
 23
0.0
 33
0.0
 40
0.0
 40
0.0
 40
0.0
 40
0.0
 40
1.0
 40
1.0
 40
1.0
 40
1.0
 10
7.550929214159122
 20
-5.922355021885546
 30
0.0
 10
9.210645503108294
 20
-5.555544844525473
 30
0.0
 10
10.8703412913633
 20
-5.188721075871181
 30
0.0
 10
12.53
 20
-4.821872758885759
 30
0.0
  0
LINE
  5
D3
330
1F
100
AcDbEntity
  8
SK3
100
AcDbLine
 10
12.655
 20
-1.3262602941
 30
0.0
 11
-2.480083269
 21
-1.3262602941
 31
0.0
  0
SPLINE
  5
D4
330
1F
100
AcDbEntity
  8
SK1
  6
Continuous
100
AcDbSpline
210
0.0
220
0.0
230
1.0
 70
     8
 71
     3
 72
    10
 73
     6
 74
     0
 42
0.0000000616218941
 43
0.0000000001
 12
1.0
 22
0.0
 32
0.0
 13
1.0
 23
0.0
 33
0.0
 40
0.0
 40
0.0
 40
0.0
 40
0.0
 40
0.5
 40
0.5
 40
1.0
 40
1.0
 40
1.0
 40
1.0
 10
12.53
 20
-5.560976384894788
 30
0.0
 10
12.5676209011409
 20
-5.552660720839447
 30
0.0
 10
12.59992299572217
 20
-5.540287742378394
 30
0.0
 10
12.64333277118495
 20
-5.51143709093841
 30
0.0
 10
12.655
 20
-5.494820492560714
 30
0.0
 10
12.655
 20
-5.478086398152469
 30
0.0
  0
LINE
  5
D5
330
1F
100
AcDbEntity
  8
SK1
  6
Continuous
100
AcDbLine
 10
12.655
 20
-5.4780863982
 30
0.0
 11
12.655
 21
-4.7389827721
 31
0.0
  0
LINE
  5
D6
330
1F
100
AcDbEntity
  8
SK1
  6
Continuous
100
AcDbLine
 10
3.555
 20
-6.6819726397
 30
0.0
 11
3.555
 21
-6.0311975753
 31
0.0
  0
SPLINE
  5
D7
330
1F
100
AcDbEntity
  8
SK1
  6
Continuous
100
AcDbSpline
210
0.0
220
0.0
230
1.0
 70
     8
 71
     3
 72
    10
 73
     6
 74
     0
 42
0.0000000427901961
 43
0.0000000001
 12
1.0
 22
0.0
 32
0.0
 13
1.0
 23
0.0
 33
0.0
 40
0.0
 40
0.0
 40
0.0
 40
0.0
 40
0.5
 40
0.5
 40
1.0
 40
1.0
 40
1.0
 40
1.0
 10
3.555000000000006
 20
-6.031197575255236
 30
0.0
 10
3.555000000000006
 20
-6.011262796125086
 30
0.0
 10
3.576572988320887
 20
-5.991203804740861
 30
0.0
 10
3.650793066651723
 20
-5.962832327375883
 30
0.0
 10
3.702915376527144
 20
-5.954632536608954
 30
0.0
 10
3.755000000000005
 20
-5.954632536608954
 30
0.0
  0
LINE
  5
D8
330
1F
100
AcDbEntity
  8
SK1
  6
Continuous
100
AcDbLine
 10
3.755
 20
-5.9546325366
 30
0.0
 11
6.955
 21
-5.9546325366
 31
0.0
  0
SPLINE
  5
D9
330
1F
100
AcDbEntity
  8
SK1
  6
Continuous
100
AcDbSpline
210
0.0
220
0.0
230
1.0
 70
     8
 71
     3
 72
    10
 73
     6
 74
     0
 42
0.0000000427806506
 43
0.0000000001
 12
1.0
 22
0.0
 32
0.0
 13
1.0
 23
0.0
 33
0.0
 40
0.0
 40
0.0
 40
0.0
 40
0.0
 40
0.5
 40
0.5
 40
1.0
 40
1.0
 40
1.0
 40
1.0
 10
6.955000000000006
 20
-5.954632536608954
 30
0.0
 10
7.007447526858668
 20
-5.954632536608953
 30
0.0
 10
7.059229156886633
 20
-5.9628183271233
 30
0.0
 10
7.133628747227752
 20
-5.991303483718096
 30
0.0
 10
7.155000000000008
 20
-6.011152246674388
 30
0.0
 10
7.155000000000012
 20
-6.031197575255235
 30
0.0
  0
LINE
  5
DA
330
1F
100
AcDbEntity
  8
SK1
  6
Continuous
100
AcDbLine
 10
7.155
 20
-6.0311975753
 30
0.0
 11
7.155
 21
-6.5739548546
 31
0.0
  0
LINE
  5
DB
330
1F
100
AcDbEntity
  8
SK1
  6
Continuous
100
AcDbLine
 10
7.155
 20
-6.5739548546
 30
0.0
 11
7.5509292142
 21
-6.6614586479
 31
0.0
  0
SPLINE
  5
DC
330
1F
100
AcDbEntity
  8
SK1
  6
Continuous
100
AcDbSpline
210
0.0
220
0.0
230
1.0
 70
     8
 71
     3
 72
     8
 73
     4
 74
     0
 42
0.0000000019610781
 43
0.0000000001
 12
1.0
 22
0.0
 32
0.0
 13
1.0
 23
0.0
 33
0.0
 40
0.0
 40
0.0
 40
0.0
 40
0.0
 40
1.0
 40
1.0
 40
1.0
 40
1.0
 10
7.550929214159122
 20
-6.661458647894575
 30
0.0
 10
9.210645503108294
 20
-6.294648470534502
 30
0.0
 10
10.8703412913633
 20
-5.927824701880209
 30
0.0
 10
12.53
 20
-5.560976384894788
 30
0.0
  0
LINE
  5
DD
330
1F
100
AcDbEntity
  8
SK3
100
AcDbLine
 10
12.655
 20
-0.5871566681
 30
0.0
 11
-2.480083269
 21
-0.5871566681
 31
0.0
  0
LINE
  5
DE
330
1F
100
AcDbEntity
  8
SK3
100
AcDbLine
 10
-7.345
 20
0.4000000998
 30
0.0
 11
-7.345
 21
2.1898538503
 31
0.0
  0
LINE
  5
DF
330
1F
100
AcDbEntity
  8
SK1
  6
Continuous
100
AcDbLine
 10
3.555
 20
0.4000000998
 30
0.0
 11
3.555
 21
5.9428692133
 31
0.0
  0
LINE
  5
E0
330
1F
100
AcDbEntity
  8
SK1
  6
Continuous
100
AcDbLine
 10
3.755
 20
0.4000000998
 30
0.0
 11
3.755
 21
5.2155291101
 31
0.0
  0
LINE
  5
E1
330
1F
100
AcDbEntity
  8
SK1
  6
Continuous
100
AcDbLine
 10
6.955
 20
0.4000000998
 30
0.0
 11
6.955
 21
5.2155291101
 31
0.0
  0
LINE
  5
E2
330
1F
100
AcDbEntity
  8
SK1
  6
Continuous
100
AcDbLine
 10
7.155
 20
0.4000000998
 30
0.0
 11
7.155
 21
5.8348514281
 31
0.0
  0
LINE
  5
E3
330
1F
100
AcDbEntity
  8
SK1
  6
Continuous
100
AcDbLine
 10
7.5509292142
 20
0.4000000998
 30
0.0
 11
7.5509292142
 21
5.9223552214
 31
0.0
  0
LINE
  5
E4
330
1F
100
AcDbEntity
  8
SK3
100
AcDbLine
 10
-26.345
 20
0.4000000998
 30
0.0
 11
-26.345
 21
5.0129104027
 31
0.0
  0
LINE
  5
E5
330
1F
100
AcDbEntity
  8
SK1
  6
Continuous
100
AcDbLine
 10
-27.345
 20
0.4000000998
 30
0.0
 11
-27.345
 21
8.1244983543
 31
0.0
  0
LINE
  5
E6
330
1F
100
AcDbEntity
  8
SK1
  6
Continuous
100
AcDbLine
 10
-27.0867519303
 20
0.4000000998
 30
0.0
 11
-27.0867519303
 21
8.3346818808
 31
0.0
  0
LINE
  5
E7
330
1F
100
AcDbEntity
  8
SK1
  6
Continuous
100
AcDbLine
 10
7.155
 20
0.4000000998
 30
0.0
 11
7.5509292142
 21
0.4000000998
 31
0.0
  0
LINE
  5
E8
330
1F
100
AcDbEntity
  8
SK1
  6
Continuous
100
AcDbLine
 10
7.5509292142
 20
0.4000000998
 30
0.0
 11
10.8339560877
 21
0.4000000998
 31
0.0
  0
LINE
  5
E9
330
1F
100
AcDbEntity
  8
SK1
  6
Continuous
100
AcDbLine
 10
-27.345
 20
0.4000000998
 30
0.0
 11
-27.0867519303
 21
0.4000000998
 31
0.0
  0
LINE
  5
EA
330
1F
100
AcDbEntity
  8
SK1
  6
Continuous
100
AcDbLine
 10
-27.0867519303
 20
0.4000000998
 30
0.0
 11
3.555
 21
0.4000000998
 31
0.0
  0
LINE
  5
EB
330
1F
100
AcDbEntity
  8
SK1
  6
Continuous
100
AcDbLine
 10
3.555
 20
0.4000000998
 30
0.0
 11
3.755
 21
0.4000000998
 31
0.0
  0
LINE
  5
EC
330
1F
100
AcDbEntity
  8
SK1
  6
Continuous
100
AcDbLine
 10
3.755
 20
0.4000000998
 30
0.0
 11
6.955
 21
0.4000000998
 31
0.0
  0
LINE
  5
ED
330
1F
100
AcDbEntity
  8
SK1
  6
Continuous
100
AcDbLine
 10
6.955
 20
0.4000000998
 30
0.0
 11
7.155
 21
0.4000000998
 31
0.0
  0
LINE
  5
EE
330
1F
100
AcDbEntity
  8
SK1
  6
Continuous
100
AcDbLine
 10
7.155
 20
-0.3999999002
 30
0.0
 11
7.5509292142
 21
-0.3999999002
 31
0.0
  0
LINE
  5
EF
330
1F
100
AcDbEntity
  8
SK1
  6
Continuous
100
AcDbLine
 10
7.5509292142
 20
-0.3999999002
 30
0.0
 11
10.8339560877
 21
-0.3999999002
 31
0.0
  0
LINE
  5
F0
330
1F
100
AcDbEntity
  8
SK1
  6
Continuous
100
AcDbLine
 10
-27.345
 20
-0.3999999002
 30
0.0
 11
-27.0867519303
 21
-0.3999999002
 31
0.0
  0
LINE
  5
F1
330
1F
100
AcDbEntity
  8
SK1
  6
Continuous
100
AcDbLine
 10
-27.0867519303
 20
-0.3999999002
 30
0.0
 11
3.555
 21
-0.3999999002
 31
0.0
  0
LINE
  5
F2
330
1F
100
AcDbEntity
  8
SK1
  6
Continuous
100
AcDbLine
 10
3.555
 20
-0.3999999002
 30
0.0
 11
3.755
 21
-0.3999999002
 31
0.0
  0
LINE
  5
F3
330
1F
100
AcDbEntity
  8
SK1
  6
Continuous
100
AcDbLine
 10
3.755
 20
-0.3999999002
 30
0.0
 11
6.955
 21
-0.3999999002
 31
0.0
  0
LINE
  5
F4
330
1F
100
AcDbEntity
  8
SK1
  6
Continuous
100
AcDbLine
 10
6.955
 20
-0.3999999002
 30
0.0
 11
7.155
 21
-0.3999999002
 31
0.0
  0
LINE
  5
F5
330
1F
100
AcDbEntity
  8
SK3
100
AcDbLine
 10
-7.345
 20
-6.0258781504
 30
0.0
 11
-7.345
 21
-5.0120074438
 31
0.0
  0
ARC
  5
F6
330
1F
100
AcDbEntity
  8
SK3
100
AcDbCircle
 10
-8.1206393068
 20
-5.9900784922
 30
0.0
 40
0.7764650345364645
100
AcDbArc
 50
268.2021160992
 51
357.3573868152
  0
ARC
  5
F7
330
1F
100
AcDbEntity
  8
SK3
100
AcDbCircle
 10
-8.1206393068
 20
-6.2962252381
 30
0.0
 40
0.7764650345364559
100
AcDbArc
 50
268.2021160992
 51
357.3573868152
  0
LINE
  5
F8
330
1F
100
AcDbEntity
  8
SK1
  6
Continuous
100
AcDbLine
 10
3.555
 20
-15.0864587395
 30
0.0
 11
3.555
 21
-11.9466756019
 31
0.0
  0
LINE
  5
F9
330
1F
100
AcDbEntity
  8
SK1
  6
Continuous
100
AcDbLine
 10
3.755
 20
-13.330504398
 30
0.0
 11
3.755
 21
-10.602726333
 31
0.0
  0
LINE
  5
FA
330
1F
100
AcDbEntity
  8
SK1
  6
Continuous
100
AcDbLine
 10
6.955
 20
-13.330504398
 30
0.0
 11
6.955
 21
-10.602726333
 31
0.0
  0
LINE
  5
FB
330
1F
100
AcDbEntity
  8
SK1
  6
Continuous
100
AcDbLine
 10
7.155
 20
-14.8256807376
 30
0.0
 11
7.155
 21
-11.7470847602
 31
0.0
  0
LINE
  5
FC
330
1F
100
AcDbEntity
  8
SK1
  6
Continuous
100
AcDbLine
 10
7.5509292142
 20
-15.0369335821
 30
0.0
 11
7.5509292142
 21
-11.9087706875
 31
0.0
  0
LINE
  5
FD
330
1F
100
AcDbEntity
  8
SK1
  6
Continuous
100
AcDbLine
 10
12.53
 20
-12.3801343776
 30
0.0
 11
12.53
 21
-5.5609763849
 31
0.0
  0
LINE
  5
FE
330
1F
100
AcDbEntity
  8
SK1
  6
Continuous
100
AcDbLine
 10
12.655
 20
-12.1800202475
 30
0.0
 11
12.655
 21
-5.4780863982
 31
0.0
  0
ELLIPSE
  5
FF
330
1F
100
AcDbEntity
  8
SK3
100
AcDbEllipse
 10
-2.4800832689
 20
-39.417953406
 30
0.0
 11
-40.00000000061547
 21
2.689090183504334E-10
 31
0.0
210
0.0
220
0.0
230
1.0
 40
0.9238795325
 41
4.712388980392801
 42
4.834313756073204
  0
LINE
  5
100
330
1F
100
AcDbEntity
  8
SK3
100
AcDbLine
 10
-7.345
 20
-6.3320248963
 30
0.0
 11
-7.345
 21
-6.0258781504
 31
0.0
  0
ARC
  5
101
330
1F
100
AcDbEntity
  8
SK1
  6
Continuous
100
AcDbCircle
 10
12.4236867999
 20
-12.1746292365
 30
0.0
 40
0.2313760133481155
100
AcDbArc
 50
297.3537111502
 51
358.6648999396
  0
ELLIPSE
  5
102
330
1F
100
AcDbEntity
  8
SK3
100
AcDbEllipse
 10
-2.4800832689
 20
-39.1118066601
 30
0.0
 11
-40.00000000061547
 21
2.689090183504334E-10
 31
0.0
210
0.0
220
0.0
230
1.0
 40
0.9238795325
 41
4.712388980392801
 42
4.834313756073204
  0
ARC
  5
103
330
1F
100
AcDbEntity
  8
SK1
  6
Continuous
100
AcDbCircle
 10
3.747704713
 20
-13.5232322765
 30
0.0
 40
0.1928659025472752
100
AcDbArc
 50
87.8322301213
 51
177.6573437132
  0
LINE
  5
104
330
1F
100
AcDbEntity
  8
SK1
  6
Continuous
100
AcDbLine
 10
3.755
 20
-13.330504398
 30
0.0
 11
6.955
 21
-13.330504398
 31
0.0
  0
ARC
  5
105
330
1F
100
AcDbEntity
  8
SK1
  6
Continuous
100
AcDbCircle
 10
6.9622949318
 20
-13.5232326608
 30
0.0
 40
0.192866273155781
100
AcDbArc
 50
2.3427660496
 51
92.1676601165
  0
LINE
  5
106
330
1F
100
AcDbEntity
  8
SK1
  6
Continuous
100
AcDbLine
 10
7.155
 20
-14.8256807376
 30
0.0
 11
7.5509292142
 21
-15.0369335821
 31
0.0
  0
LINE
  5
107
330
1F
100
AcDbEntity
  8
SK1
  6
Continuous
100
AcDbLine
 10
7.5509292142
 20
-15.0369335821
 30
0.0
 11
12.53
 21
-12.3801343776
 31
0.0
  0
LINE
  5
108
330
1F
100
AcDbEntity
  8
SK3
100
AcDbLine
 10
12.655
 20
-2.4627721045
 30
0.0
 11
-2.480083269
 21
-2.4627721045
 31
0.0
  0
ARC
  5
109
330
1F
100
AcDbEntity
  8
SK1
  6
Continuous
100
AcDbCircle
 10
12.4236867999
 20
-12.4807759824
 30
0.0
 40
0.2313760133481066
100
AcDbArc
 50
297.3537111502
 51
358.6648999396
  0
LINE
  5
10A
330
1F
100
AcDbEntity
  8
SK1
  6
Continuous
100
AcDbLine
 10
12.655
 20
-12.4861669934
 30
0.0
 11
12.655
 21
-12.1800202475
 31
0.0
  0
LINE
  5
10B
330
1F
100
AcDbEntity
  8
SK1
  6
Continuous
100
AcDbLine
 10
3.555
 20
-15.3926054854
 30
0.0
 11
3.555
 21
-15.0864587395
 31
0.0
  0
ARC
  5
10C
330
1F
100
AcDbEntity
  8
SK1
  6
Continuous
100
AcDbCircle
 10
3.747704713
 20
-13.8293790224
 30
0.0
 40
0.1928659025472821
100
AcDbArc
 50
87.8322301213
 51
177.6573437132
  0
LINE
  5
10D
330
1F
100
AcDbEntity
  8
SK1
  6
Continuous
100
AcDbLine
 10
3.755
 20
-13.6366511439
 30
0.0
 11
6.955
 21
-13.6366511439
 31
0.0
  0
ARC
  5
10E
330
1F
100
AcDbEntity
  8
SK1
  6
Continuous
100
AcDbCircle
 10
6.9622949318
 20
-13.8293794067
 30
0.0
 40
0.1928662731557822
100
AcDbArc
 50
2.3427660496
 51
92.1676601165
  0
LINE
  5
10F
330
1F
100
AcDbEntity
  8
SK1
  6
Continuous
100
AcDbLine
 10
7.155
 20
-14.8256807376
 30
0.0
 11
7.155
 21
-15.1318274835
 31
0.0
  0
LINE
  5
110
330
1F
100
AcDbEntity
  8
SK1
  6
Continuous
100
AcDbLine
 10
7.155
 20
-15.1318274835
 30
0.0
 11
7.5509292142
 21
-15.343080328
 31
0.0
  0
LINE
  5
111
330
1F
100
AcDbEntity
  8
SK1
  6
Continuous
100
AcDbLine
 10
7.5509292142
 20
-15.343080328
 30
0.0
 11
12.53
 21
-12.6862811235
 31
0.0
  0
LINE
  5
112
330
1F
100
AcDbEntity
  8
SK3
100
AcDbLine
 10
12.655
 20
-2.1566253586
 30
0.0
 11
-2.480083269
 21
-2.1566253586
 31
0.0
  0
LINE
  5
113
330
1F
100
AcDbEntity
  8
SK3
100
AcDbLine
 10
-7.345
 20
-4.4463220189
 30
0.0
 11
-7.345
 21
-2.9289572768
 31
0.0
  0
SPLINE
  5
114
330
1F
100
AcDbEntity
  8
SK3
100
AcDbSpline
210
0.0
220
0.0
230
1.0
 70
     8
 71
     3
 72
    12
 73
     8
 74
     0
 42
0.0000000090787116
 43
0.0000000001
 12
1.0
 22
0.0
 32
0.0
 13
1.0
 23
0.0
 33
0.0
 40
0.0
 40
0.0
 40
0.0
 40
0.0
 40
0.2499999999999981
 40
0.2499999999999981
 40
0.4999999999999962
 40
0.4999999999999962
 40
1.0
 40
1.0
 40
1.0
 40
1.0
 10
-8.144999999999996
 20
-5.012910203143525
 30
0.0
 10
-8.039178056091371
 20
-5.012910203143525
 30
0.0
 10
-7.935322048653482
 20
-4.998135740784103
 30
0.0
 10
-7.7414330301942
 20
-4.941161111147262
 30
0.0
 10
-7.652645218362998
 20
-4.898993635592817
 30
0.0
 10
-7.431330874503383
 20
-4.742018490974535
 30
0.0
 10
-7.344999999999564
 20
-4.594073846393802
 30
0.0
 10
-7.344999999990793
 20
-4.446322018884269
 30
0.0
  0
SPLINE
  5
115
330
1F
100
AcDbEntity
  8
SK3
100
AcDbSpline
210
0.0
220
0.0
230
1.0
 70
     8
 71
     3
 72
    12
 73
     8
 74
     0
 42
0.0000000090787116
 43
0.0000000001
 12
1.0
 22
0.0
 32
0.0
 13
1.0
 23
0.0
 33
0.0
 40
0.0
 40
0.0
 40
0.0
 40
0.0
 40
0.2499999999999989
 40
0.2499999999999989
 40
0.4999999999999979
 40
0.4999999999999979
 40
1.0
 40
1.0
 40
1.0
 40
1.0
 10
-8.144999999999996
 20
-5.578595628092763
 30
0.0
 10
-8.03917805609137
 20
-5.578595628092764
 30
0.0
 10
-7.935322048653486
 20
-5.563821165733341
 30
0.0
 10
-7.741433030194203
 20
-5.506846536096502
 30
0.0
 10
-7.652645218362998
 20
-5.464679060542058
 30
0.0
 10
-7.431330874503375
 20
-5.307703915923774
 30
0.0
 10
-7.344999999999574
 20
-5.159759271343044
 30
0.0
 10
-7.344999999990793
 20
-5.012007443833504
 30
0.0
  0
LINE
  5
116
330
1F
100
AcDbEntity
  8
SK1
  6
Continuous
100
AcDbLine
 10
3.555
 20
-11.380990177
 30
0.0
 11
3.555
 21
-6.6819726397
 31
0.0
  0
LINE
  5
117
330
1F
100
AcDbEntity
  8
SK1
  6
Continuous
100
AcDbLine
 10
3.755
 20
-10.037040908
 30
0.0
 11
3.755
 21
-5.9546325366
 31
0.0
  0
LINE
  5
118
330
1F
100
AcDbEntity
  8
SK1
  6
Continuous
100
AcDbLine
 10
6.955
 20
-10.037040908
 30
0.0
 11
6.955
 21
-5.9546325366
 31
0.0
  0
LINE
  5
119
330
1F
100
AcDbEntity
  8
SK1
  6
Continuous
100
AcDbLine
 10
7.155
 20
-11.1813993353
 30
0.0
 11
7.155
 21
-6.5739548546
 31
0.0
  0
LINE
  5
11A
330
1F
100
AcDbEntity
  8
SK1
  6
Continuous
100
AcDbLine
 10
7.5509292142
 20
-11.3430852626
 30
0.0
 11
7.5509292142
 21
-6.6614586479
 31
0.0
  0
LINE
  5
11B
330
1F
100
AcDbEntity
  8
SK3
100
AcDbLine
 10
-26.345
 20
-5.0129102031
 30
0.0
 11
-26.345
 21
-0.3999999002
 31
0.0
  0
LINE
  5
11C
330
1F
100
AcDbEntity
  8
SK1
  6
Continuous
100
AcDbLine
 10
-27.345
 20
-8.1244981547
 30
0.0
 11
-27.345
 21
-0.3999999002
 31
0.0
  0
LINE
  5
11D
330
1F
100
AcDbEntity
  8
SK1
  6
Continuous
100
AcDbLine
 10
-27.0867519303
 20
-8.3346816813
 30
0.0
 11
-27.0867519303
 21
-0.3999999002
 31
0.0
  0
LINE
  5
11E
330
1F
100
AcDbEntity
  8
SK3
100
AcDbLine
 10
-27.345
 20
-5.9873841092
 30
0.0
 11
-26.345
 21
-5.5785956281
 31
0.0
  0
LINE
  5
11F
330
1F
100
AcDbEntity
  8
SK3
100
AcDbLine
 10
-26.345
 20
-5.5785956281
 30
0.0
 11
-8.145
 21
-5.5785956281
 31
0.0
  0
LINE
  5
120
330
1F
100
AcDbEntity
  8
SK3
100
AcDbLine
 10
-7.345
 20
-5.0120074438
 30
0.0
 11
-7.345
 21
-4.4773799722
 31
0.0
  0
LINE
  5
121
330
1F
100
AcDbEntity
  8
SK1
  6
Continuous
100
AcDbLine
 10
7.155
 20
-11.1813993353
 30
0.0
 11
7.5509292142
 21
-11.3430852626
 31
0.0
  0
LINE
  5
122
330
1F
100
AcDbEntity
  8
SK1
  6
Continuous
100
AcDbLine
 10
7.5509292142
 20
-11.3430852626
 30
0.0
 11
10.8339560877
 21
-10.0023468783
 31
0.0
  0
SPLINE
  5
123
330
1F
100
AcDbEntity
  8
SK1
  6
Continuous
100
AcDbSpline
210
0.0
220
0.0
230
1.0
 70
     8
 71
     3
 72
    10
 73
     6
 74
     0
 42
0.0000000269170392
 43
0.0000000001
 12
1.0
 22
0.0
 32
0.0
 13
1.0
 23
0.0
 33
0.0
 40
0.0
 40
0.0
 40
0.0
 40
0.0
 40
0.5
 40
0.5
 40
1.0
 40
1.0
 40
1.0
 40
1.0
 10
-27.345
 20
-8.124498154726899
 30
0.0
 10
-27.34499999999999
 20
-8.175028801424789
 30
0.0
 10
-27.31825218560486
 20
-8.22557418973442
 30
0.0
 10
-27.22483457328357
 20
-8.301706724728822
 30
0.0
 10
-27.1582676169232
 20
-8.327570812840063
 30
0.0
 10
-27.08675193028802
 20
-8.334681681282117
 30
0.0
  0
SPLINE
  5
124
330
1F
100
AcDbEntity
  8
SK1
  6
Continuous
100
AcDbSpline
210
0.0
220
0.0
230
1.0
 70
     8
 71
     3
 72
    11
 73
     7
 74
     0
 42
0.0000000003247512
 43
0.0000000001
 12
1.0
 22
0.0
 32
0.0
 13
1.0
 23
0.0
 33
0.0
 40
0.0
 40
0.0
 40
0.0
 40
0.0
 40
0.6918346925192727
 40
0.6918346925192727
 40
0.6918346925192727
 40
1.0
 40
1.0
 40
1.0
 40
1.0
 10
-27.08675193028802
 20
-8.334681681282117
 30
0.0
 10
-20.02042884374034
 20
-9.037292482029336
 30
0.0
 10
-12.95408842150808
 20
-9.739816109208421
 30
0.0
 10
-5.88773920769959
 20
-10.44229551340401
 30
0.0
 10
-2.740161177978142
 20
-10.75520231606486
 30
0.0
 10
0.4074186952730749
 20
-11.06809984663202
 30
0.0
 10
3.555000000000009
 20
-11.38099017695682
 30
0.0
  0
SPLINE
  5
125
330
1F
100
AcDbEntity
  8
SK1
  6
Continuous
100
AcDbSpline
210
0.0
220
0.0
230
1.0
 70
     8
 71
     3
 72
    10
 73
     6
 74
     0
 42
0.000000036097062
 43
0.0000000001
 12
1.0
 22
0.0
 32
0.0
 13
1.0
 23
0.0
 33
0.0
 40
0.0
 40
0.0
 40
0.0
 40
0.0
 40
0.5
 40
0.5
 40
1.0
 40
1.0
 40
1.0
 40
1.0
 10
3.555000000000006
 20
-10.1785146522523
 30
0.0
 10
3.555000000000002
 20
-10.14163206754095
 30
0.0
 10
3.576207253650064
 20
-10.10493830569598
 30
0.0
 10
3.650815507220689
 20
-10.0521124126718
 30
0.0
 10
3.702168617512025
 20
-10.03704090802927
 30
0.0
 10
3.755000000000005
 20
-10.03704090802983
 30
0.0
  0
LINE
  5
126
330
1F
100
AcDbEntity
  8
SK1
  6
Continuous
100
AcDbLine
 10
3.755
 20
-10.037040908
 30
0.0
 11
6.955
 21
-10.037040908
 31
0.0
  0
SPLINE
  5
127
330
1F
100
AcDbEntity
  8
SK1
  6
Continuous
100
AcDbSpline
210
0.0
220
0.0
230
1.0
 70
     8
 71
     3
 72
    10
 73
     6
 74
     0
 42
0.0000000361056729
 43
0.0000000001
 12
1.0
 22
0.0
 32
0.0
 13
1.0
 23
0.0
 33
0.0
 40
0.0
 40
0.0
 40
0.0
 40
0.0
 40
0.5
 40
0.5
 40
1.0
 40
1.0
 40
1.0
 40
1.0
 10
6.955000000000006
 20
-10.03704090802983
 30
0.0
 10
7.007871165711683
 20
-10.03704090802983
 30
0.0
 10
7.059587068278563
 20
-10.05239925366157
 30
0.0
 10
7.133380431516147
 20
-10.1046445690707
 30
0.0
 10
7.155000000000119
 20
-10.14159999335697
 30
0.0
 10
7.155000000002392
 20
-10.1785146522525
 30
0.0
  0
LINE
  5
128
330
1F
100
AcDbEntity
  8
SK1
  6
Continuous
100
AcDbLine
 10
7.155
 20
-11.7470847602
 30
0.0
 11
7.5509292142
 21
-11.9087706875
 31
0.0
  0
LINE
  5
129
330
1F
100
AcDbEntity
  8
SK1
  6
Continuous
100
AcDbLine
 10
7.5509292142
 20
-11.9087706875
 30
0.0
 11
10.8339560877
 21
-10.5680323032
 31
0.0
  0
LINE
  5
12A
330
1F
100
AcDbEntity
  8
SK1
  6
Continuous
100
AcDbLine
 10
-27.345
 20
-8.1244981547
 30
0.0
 11
-27.345
 21
-8.6901835797
 31
0.0
  0
SPLINE
  5
12B
330
1F
100
AcDbEntity
  8
SK1
  6
Continuous
100
AcDbSpline
210
0.0
220
0.0
230
1.0
 70
     8
 71
     3
 72
    10
 73
     6
 74
     0
 42
0.0000000269170392
 43
0.0000000001
 12
1.0
 22
0.0
 32
0.0
 13
1.0
 23
0.0
 33
0.0
 40
0.0
 40
0.0
 40
0.0
 40
0.0
 40
0.5
 40
0.5
 40
1.0
 40
1.0
 40
1.0
 40
1.0
 10
-27.345
 20
-8.690183579676138
 30
0.0
 10
-27.34499999999999
 20
-8.740714226374024
 30
0.0
 10
-27.31825218560486
 20
-8.791259614683657
 30
0.0
 10
-27.22483457328357
 20
-8.867392149678059
 30
0.0
 10
-27.1582676169232
 20
-8.8932562377893
 30
0.0
 10
-27.08675193028802
 20
-8.900367106231359
 30
0.0
  0
SPLINE
  5
12C
330
1F
100
AcDbEntity
  8
SK1
  6
Continuous
100
AcDbSpline
210
0.0
220
0.0
230
1.0
 70
     8
 71
     3
 72
    11
 73
     7
 74
     0
 42
0.0000000003247512
 43
0.0000000001
 12
1.0
 22
0.0
 32
0.0
 13
1.0
 23
0.0
 33
0.0
 40
0.0
 40
0.0
 40
0.0
 40
0.0
 40
0.6918346925192725
 40
0.6918346925192725
 40
0.6918346925192725
 40
1.0
 40
1.0
 40
1.0
 40
1.0
 10
-27.08675193028802
 20
-8.900367106231359
 30
0.0
 10
-20.02042884374034
 20
-9.602977906978577
 30
0.0
 10
-12.95408842150808
 20
-10.30550153415766
 30
0.0
 10
-5.88773920769959
 20
-11.00798093835325
 30
0.0
 10
-2.740161177978142
 20
-11.3208877410141
 30
0.0
 10
0.4074186952730749
 20
-11.63378527158126
 30
0.0
 10
3.555000000000009
 20
-11.94667560190606
 30
0.0
  0
LINE
  5
12D
330
1F
100
AcDbEntity
  8
SK1
  6
Continuous
100
AcDbLine
 10
3.555
 20
-11.9466756019
 30
0.0
 11
3.555
 21
-11.380990177
 31
0.0
  0
SPLINE
  5
12E
330
1F
100
AcDbEntity
  8
SK1
  6
Continuous
100
AcDbSpline
210
0.0
220
0.0
230
1.0
 70
     8
 71
     3
 72
    10
 73
     6
 74
     0
 42
0.000000036097062
 43
0.0000000001
 12
1.0
 22
0.0
 32
0.0
 13
1.0
 23
0.0
 33
0.0
 40
0.0
 40
0.0
 40
0.0
 40
0.0
 40
0.5
 40
0.5
 40
1.0
 40
1.0
 40
1.0
 40
1.0
 10
3.555000000000006
 20
-10.74420007720154
 30
0.0
 10
3.555000000000001
 20
-10.70731749249019
 30
0.0
 10
3.576207253650064
 20
-10.67062373064523
 30
0.0
 10
3.650815507220689
 20
-10.61779783762104
 30
0.0
 10
3.702168617512025
 20
-10.60272633297851
 30
0.0
 10
3.755000000000005
 20
-10.60272633297907
 30
0.0
  0
LINE
  5
12F
330
1F
100
AcDbEntity
  8
SK1
  6
Continuous
100
AcDbLine
 10
3.755
 20
-10.602726333
 30
0.0
 11
6.955
 21
-10.602726333
 31
0.0
  0
SPLINE
  5
130
330
1F
100
AcDbEntity
  8
SK1
  6
Continuous
100
AcDbSpline
210
0.0
220
0.0
230
1.0
 70
     8
 71
     3
 72
    10
 73
     6
 74
     0
 42
0.0000000361056729
 43
0.0000000001
 12
1.0
 22
0.0
 32
0.0
 13
1.0
 23
0.0
 33
0.0
 40
0.0
 40
0.0
 40
0.0
 40
0.0
 40
0.5
 40
0.5
 40
1.0
 40
1.0
 40
1.0
 40
1.0
 10
6.955000000000006
 20
-10.60272633297907
 30
0.0
 10
7.007871165711683
 20
-10.60272633297907
 30
0.0
 10
7.059587068278561
 20
-10.61808467861082
 30
0.0
 10
7.133380431516144
 20
-10.67032999401994
 30
0.0
 10
7.155000000000117
 20
-10.70728541830622
 30
0.0
 10
7.155000000002392
 20
-10.74420007720174
 30
0.0
  0
LINE
  5
131
330
1F
100
AcDbEntity
  8
SK1
  6
Continuous
100
AcDbLine
 10
7.155
 20
-11.1813993353
 30
0.0
 11
7.155
 21
-11.7470847602
 31
0.0
  0
LINE
  5
132
330
1F
100
AcDbEntity
  8
SK3
100
AcDbLine
 10
-27.345
 20
-5.4216986843
 30
0.0
 11
-26.345
 21
-5.0129102031
 31
0.0
  0
LINE
  5
133
330
1F
100
AcDbEntity
  8
SK3
100
AcDbLine
 10
-26.345
 20
-5.0129102031
 30
0.0
 11
-8.145
 21
-5.0129102031
 31
0.0
  0
LINE
  5
134
330
1F
100
AcDbEntity
  8
SK1
  6
Continuous
100
AcDbLine
 10
12.53
 20
-13.5717422033
 30
0.0
 11
12.53
 21
-12.6862811235
 31
0.0
  0
LINE
  5
135
330
1F
100
AcDbEntity
  8
SK1
  6
Continuous
100
AcDbLine
 10
12.655
 20
-12.4861669934
 30
0.0
 11
12.655
 21
-13.3552358524
 31
0.0
  0
LINE
  5
136
330
1F
100
AcDbEntity
  8
SK3
100
AcDbLine
 10
-7.345
 20
-6.6880489431
 30
0.0
 11
-7.345
 21
-6.3320248963
 31
0.0
  0
SPLINE
  5
137
330
1F
100
AcDbEntity
  8
SK3
100
AcDbSpline
210
0.0
220
0.0
230
1.0
 70
     8
 71
     3
 72
    12
 73
     8
 74
     0
 42
0.0000000078281768
 43
0.0000000001
 12
1.0
 22
0.0
 32
0.0
 13
1.0
 23
0.0
 33
0.0
 40
0.0
 40
0.0
 40
0.0
 40
0.0
 40
0.2499999999999983
 40
0.2499999999999983
 40
0.4999999999999966
 40
0.4999999999999966
 40
1.0
 40
1.0
 40
1.0
 40
1.0
 10
-8.144999999999996
 20
-7.489325637570414
 30
0.0
 10
-8.03917805609137
 20
-7.489325637570412
 30
0.0
 10
-7.935322048653486
 20
-7.468431392524949
 30
0.0
 10
-7.7414330301942
 20
-7.387857098581345
 30
0.0
 10
-7.652645218362994
 20
-7.328223282761214
 30
0.0
 10
-7.431330874503375
 20
-7.106226904286561
 30
0.0
 10
-7.344999999999574
 20
-6.897001581440023
 30
0.0
 10
-7.344999999990793
 20
-6.688048943110624
 30
0.0
  0
LINE
  5
138
330
1F
100
AcDbEntity
  8
SK1
  6
Continuous
100
AcDbLine
 10
3.555
 20
-16.4951507028
 30
0.0
 11
3.555
 21
-15.3926054854
 31
0.0
  0
LINE
  5
139
330
1F
100
AcDbEntity
  8
SK1
  6
Continuous
100
AcDbLine
 10
3.755
 20
-14.5945194196
 30
0.0
 11
3.755
 21
-13.6366511439
 31
0.0
  0
LINE
  5
13A
330
1F
100
AcDbEntity
  8
SK1
  6
Continuous
100
AcDbLine
 10
6.955
 20
-14.5945194196
 30
0.0
 11
6.955
 21
-13.6366511439
 31
0.0
  0
LINE
  5
13B
330
1F
100
AcDbEntity
  8
SK1
  6
Continuous
100
AcDbLine
 10
7.155
 20
-16.2128866276
 30
0.0
 11
7.155
 21
-15.1318274835
 31
0.0
  0
LINE
  5
13C
330
1F
100
AcDbEntity
  8
SK1
  6
Continuous
100
AcDbLine
 10
7.5509292142
 20
-16.4415450588
 30
0.0
 11
7.5509292142
 21
-15.343080328
 31
0.0
  0
LINE
  5
13D
330
1F
100
AcDbEntity
  8
SK3
100
AcDbLine
 10
-26.345
 20
-7.4893256376
 30
0.0
 11
-26.345
 21
-5.5785956281
 31
0.0
  0
LINE
  5
13E
330
1F
100
AcDbEntity
  8
SK1
  6
Continuous
100
AcDbLine
 10
-27.345
 20
-11.8897755192
 30
0.0
 11
-27.345
 21
-8.6901835797
 31
0.0
  0
LINE
  5
13F
330
1F
100
AcDbEntity
  8
SK1
  6
Continuous
100
AcDbLine
 10
-27.0867519303
 20
-12.1870199131
 30
0.0
 11
-27.0867519303
 21
-8.9003671062
 31
0.0
  0
LINE
  5
140
330
1F
100
AcDbEntity
  8
SK1
  6
Continuous
100
AcDbLine
 10
7.155
 20
-16.2128866276
 30
0.0
 11
7.5509292142
 21
-16.4415450588
 31
0.0
  0
LINE
  5
141
330
1F
100
AcDbEntity
  8
SK1
  6
Continuous
100
AcDbLine
 10
7.5509292142
 20
-16.4415450588
 30
0.0
 11
10.8339560877
 21
-14.5454546521
 31
0.0
  0
SPLINE
  5
142
330
1F
100
AcDbEntity
  8
SK1
  6
Continuous
100
AcDbSpline
210
0.0
220
0.0
230
1.0
 70
     8
 71
     3
 72
    10
 73
     6
 74
     0
 42
0.000000022804885
 43
0.0000000001
 12
1.0
 22
0.0
 32
0.0
 13
1.0
 23
0.0
 33
0.0
 40
0.0
 40
0.0
 40
0.0
 40
0.0
 40
0.5
 40
0.5
 40
1.0
 40
1.0
 40
1.0
 40
1.0
 10
-27.345
 20
-11.88977551921634
 30
0.0
 10
-27.34499999999999
 20
-11.96123664509197
 30
0.0
 10
-27.31825218560486
 20
-12.03271861875487
 30
0.0
 10
-27.22483457328357
 20
-12.1403862822818
 30
0.0
 10
-27.1582676169232
 20
-12.17696362646713
 30
0.0
 10
-27.08675193028802
 20
-12.18701991305814
 30
0.0
  0
SPLINE
  5
143
330
1F
100
AcDbEntity
  8
SK1
  6
Continuous
100
AcDbSpline
210
0.0
220
0.0
230
1.0
 70
     8
 71
     3
 72
    11
 73
     7
 74
     0
 42
0.0000000003231736
 43
0.0000000001
 12
1.0
 22
0.0
 32
0.0
 13
1.0
 23
0.0
 33
0.0
 40
0.0
 40
0.0
 40
0.0
 40
0.0
 40
0.6918346925192725
 40
0.6918346925192725
 40
0.6918346925192725
 40
1.0
 40
1.0
 40
1.0
 40
1.0
 10
-27.08675193028802
 20
-12.18701991305814
 30
0.0
 10
-20.02042884374034
 20
-13.18066163654467
 30
0.0
 10
-12.95408842150808
 20
-14.17418007798887
 30
0.0
 10
-5.88773920769959
 20
-15.16763597869005
 30
0.0
 10
-2.740161177978141
 20
-15.61015302277182
 30
0.0
 10
0.4074186952730749
 20
-16.05265695413295
 30
0.0
 10
3.555000000000009
 20
-16.49515070281368
 30
0.0
  0
SPLINE
  5
144
330
1F
100
AcDbEntity
  8
SK1
  6
Continuous
100
AcDbSpline
210
0.0
220
0.0
230
1.0
 70
     8
 71
     3
 72
    10
 73
     6
 74
     0
 42
0.0000000310334546
 43
0.0000000001
 12
1.0
 22
0.0
 32
0.0
 13
1.0
 23
0.0
 33
0.0
 40
0.0
 40
0.0
 40
0.0
 40
0.0
 40
0.5
 40
0.5
 40
1.0
 40
1.0
 40
1.0
 40
1.0
 10
3.555000000000006
 20
-14.79459350735485
 30
0.0
 10
3.554999999999999
 20
-14.74243365584068
 30
0.0
 10
3.576207253650066
 20
-14.69054084018505
 30
0.0
 10
3.650815507220687
 20
-14.61583374582577
 30
0.0
 10
3.702168617512025
 20
-14.59451941955493
 30
0.0
 10
3.755000000000005
 20
-14.59451941955573
 30
0.0
  0
LINE
  5
145
330
1F
100
AcDbEntity
  8
SK1
  6
Continuous
100
AcDbLine
 10
3.755
 20
-14.5945194196
 30
0.0
 11
6.955
 21
-14.5945194196
 31
0.0
  0
SPLINE
  5
146
330
1F
100
AcDbEntity
  8
SK1
  6
Continuous
100
AcDbSpline
210
0.0
220
0.0
230
1.0
 70
     8
 71
     3
 72
    10
 73
     6
 74
     0
 42
0.0000000310413088
 43
0.0000000001
 12
1.0
 22
0.0
 32
0.0
 13
1.0
 23
0.0
 33
0.0
 40
0.0
 40
0.0
 40
0.0
 40
0.0
 40
0.5
 40
0.5
 40
1.0
 40
1.0
 40
1.0
 40
1.0
 10
6.955000000000006
 20
-14.59451941955573
 30
0.0
 10
7.007871165711683
 20
-14.59451941955573
 30
0.0
 10
7.059587068278561
 20
-14.61623940024376
 30
0.0
 10
7.133380431516144
 20
-14.69012543386579
 30
0.0
 10
7.155000000000117
 20
-14.7423882960947
 30
0.0
 10
7.155000000002392
 20
-14.79459350735512
 30
0.0
  0
LINE
  5
147
330
1F
100
AcDbEntity
  8
SK3
100
AcDbLine
 10
-27.345
 20
-8.0674398517
 30
0.0
 11
-26.345
 21
-7.4893256376
 31
0.0
  0
LINE
  5
148
330
1F
100
AcDbEntity
  8
SK3
100
AcDbLine
 10
-26.345
 20
-7.4893256376
 30
0.0
 11
-8.145
 21
-7.4893256376
 31
0.0
  0
LINE
  5
149
330
1F
100
AcDbEntity
  8
SK3
100
AcDbLine
 10
12.655
 20
1.1645815755
 30
0.0
 11
-2.480083269
 21
1.1645815755
 31
0.0
  0
SPLINE
  5
14A
330
1F
100
AcDbEntity
  8
SK3
100
AcDbSpline
210
0.0
220
0.0
230
1.0
 70
     8
 71
     3
 72
    10
 73
     6
 74
     0
 42
0.0000000426820494
 43
0.0000000001
 12
1.0
 22
0.0
 32
0.0
 13
1.0
 23
0.0
 33
0.0
 40
0.0
 40
0.0
 40
0.0
 40
0.0
 40
0.5
 40
0.5
 40
1.0
 40
1.0
 40
1.0
 40
1.0
 10
12.655
 20
0.756042801011107
 30
0.0
 10
12.65500000000001
 20
0.735824322287714
 30
0.0
 10
12.63363959379566
 20
0.7157606486116135
 30
0.0
 10
12.56034282138532
 20
0.6870566510528346
 30
0.0
 10
12.50785910157641
 20
0.6784141379481374
 30
0.0
 10
12.455
 20
0.6784141379481375
 30
0.0
  0
LINE
  5
14B
330
1F
100
AcDbEntity
  8
SK3
100
AcDbLine
 10
12.455
 20
0.6784141379
 30
0.0
 11
-7.145
 21
0.6784141379
 31
0.0
  0
SPLINE
  5
14C
330
1F
100
AcDbEntity
  8
SK3
100
AcDbSpline
210
0.0
220
0.0
230
1.0
 70
     8
 71
     3
 72
    10
 73
     6
 74
     0
 42
0.0000000426888132
 43
0.0000000001
 12
1.0
 22
0.0
 32
0.0
 13
1.0
 23
0.0
 33
0.0
 40
0.0
 40
0.0
 40
0.0
 40
0.0
 40
0.5
 40
0.5
 40
1.0
 40
1.0
 40
1.0
 40
1.0
 10
-7.144999999999995
 20
0.6784141379481369
 30
0.0
 10
-7.197440564859627
 20
0.6784141379481526
 30
0.0
 10
-7.250204938265649
 20
0.6869994544767202
 30
0.0
 10
-7.323808799549434
 20
0.7158301129125338
 30
0.0
 10
-7.345000000000004
 20
0.7359768027792845
 30
0.0
 10
-7.345000000000001
 20
0.7560428010111061
 30
0.0
  0
LINE
  5
14D
330
1F
100
AcDbEntity
  8
SK3
100
AcDbLine
 10
12.655
 20
0.7488357859
 30
0.0
 11
-2.480083269
 21
0.7488357859
 31
0.0
  0
ELLIPSE
  5
14E
330
1F
100
AcDbEntity
  8
SK3
100
AcDbEllipse
 10
-2.4800832689
 20
16.0561730809
 30
0.0
 11
-40.00000000061736
 21
-3.295281236623104E-11
 31
0.0
210
0.0
220
0.0
230
1.0
 40
0.3826834324
 41
1.448871551112278
 42
1.570796326792681
  0
SPLINE
  5
14F
330
1F
100
AcDbEntity
  8
SK3
100
AcDbSpline
210
0.0
220
0.0
230
1.0
 70
     8
 71
     3
 72
    10
 73
     6
 74
     0
 42
0.0000000426820494
 43
0.0000000001
 12
1.0
 22
0.0
 32
0.0
 13
1.0
 23
0.0
 33
0.0
 40
0.0
 40
0.0
 40
0.0
 40
0.0
 40
0.5
 40
0.5
 40
1.0
 40
1.0
 40
1.0
 40
1.0
 10
12.655
 20
0.3402970113810279
 30
0.0
 10
12.65500000000001
 20
0.320078532657635
 30
0.0
 10
12.63363959379566
 20
0.3000148589815343
 30
0.0
 10
12.56034282138532
 20
0.2713108614227556
 30
0.0
 10
12.50785910157641
 20
0.2626683483180582
 30
0.0
 10
12.455
 20
0.2626683483180584
 30
0.0
  0
LINE
  5
150
330
1F
100
AcDbEntity
  8
SK3
100
AcDbLine
 10
12.455
 20
0.2626683483
 30
0.0
 11
-7.145
 21
0.2626683483
 31
0.0
  0
SPLINE
  5
151
330
1F
100
AcDbEntity
  8
SK3
100
AcDbSpline
210
0.0
220
0.0
230
1.0
 70
     8
 71
     3
 72
    10
 73
     6
 74
     0
 42
0.0000000426888132
 43
0.0000000001
 12
1.0
 22
0.0
 32
0.0
 13
1.0
 23
0.0
 33
0.0
 40
0.0
 40
0.0
 40
0.0
 40
0.0
 40
0.5
 40
0.5
 40
1.0
 40
1.0
 40
1.0
 40
1.0
 10
-7.144999999999995
 20
0.2626683483180577
 30
0.0
 10
-7.197440564859627
 20
0.2626683483180736
 30
0.0
 10
-7.250204938265649
 20
0.271253664846641
 30
0.0
 10
-7.323808799549434
 20
0.3000843232824548
 30
0.0
 10
-7.345000000000004
 20
0.3202310131492053
 30
0.0
 10
-7.345000000000001
 20
0.3402970113810273
 30
0.0
  0
ELLIPSE
  5
152
330
1F
100
AcDbEntity
  8
SK3
100
AcDbEllipse
 10
-2.4800832689
 20
16.4719188706
 30
0.0
 11
-40.00000000061736
 21
-3.295281236623104E-11
 31
0.0
210
0.0
220
0.0
230
1.0
 40
0.3826834324
 41
1.448871551112279
 42
1.570796326792681
  0
ARC
  5
153
330
1F
100
AcDbEntity
  8
SK3
100
AcDbCircle
 10
12.4609872048
 20
1.2439165333
 30
0.0
 40
0.194125746194295
100
AcDbArc
 50
268.2326096446
 51
358.0453812457
  0
LINE
  5
154
330
1F
100
AcDbEntity
  8
SK3
100
AcDbLine
 10
12.455
 20
1.0498831374
 30
0.0
 11
-7.145
 21
1.0498831374
 31
0.0
  0
ARC
  5
155
330
1F
100
AcDbEntity
  8
SK3
100
AcDbCircle
 10
-7.1509881591
 20
1.2439155149
 30
0.0
 40
0.1941247576678943
100
AcDbArc
 50
181.9543279426
 51
271.7676811671
  0
LINE
  5
156
330
1F
100
AcDbEntity
  8
SK3
100
AcDbLine
 10
12.655
 20
2.2235951588
 30
0.0
 11
-2.480083269
 21
2.2235951588
 31
0.0
  0
ELLIPSE
  5
157
330
1F
100
AcDbEntity
  8
SK3
100
AcDbEllipse
 10
-2.4800832689
 20
39.1787764604
 30
0.0
 11
-40.00000000061547
 21
-2.689090183504334E-10
 31
0.0
210
0.0
220
0.0
230
1.0
 40
0.9238795325
 41
1.448871551106383
 42
1.570796326786785
  0
LINE
  5
158
330
1F
100
AcDbEntity
  8
SK3
100
AcDbLine
 10
12.655
 20
2.3958027033
 30
0.0
 11
-2.480083269
 21
2.3958027033
 31
0.0
  0
ELLIPSE
  5
159
330
1F
100
AcDbEntity
  8
SK3
100
AcDbEllipse
 10
-2.4800832689
 20
39.3509840049
 30
0.0
 11
-40.00000000061547
 21
-2.689090183504334E-10
 31
0.0
210
0.0
220
0.0
230
1.0
 40
0.9238795325
 41
1.448871551106383
 42
1.570796326786785
  0
ARC
  5
15A
330
1F
100
AcDbEntity
  8
SK3
100
AcDbCircle
 10
12.4609872048
 20
1.4161240779
 30
0.0
 40
0.1941257461942948
100
AcDbArc
 50
268.2326096446
 51
358.0453812457
  0
LINE
  5
15B
330
1F
100
AcDbEntity
  8
SK3
100
AcDbLine
 10
12.455
 20
1.222090682
 30
0.0
 11
-7.145
 21
1.222090682
 31
0.0
  0
ARC
  5
15C
330
1F
100
AcDbEntity
  8
SK3
100
AcDbCircle
 10
-7.1509881591
 20
1.4161230594
 30
0.0
 40
0.1941247576678794
100
AcDbArc
 50
181.9543279426
 51
271.7676811671
  0
LINE
  5
15D
330
1F
100
AcDbEntity
  8
SK3
100
AcDbLine
 10
12.655
 20
-1.164581376
 30
0.0
 11
-2.480083269
 21
-1.164581376
 31
0.0
  0
SPLINE
  5
15E
330
1F
100
AcDbEntity
  8
SK3
100
AcDbSpline
210
0.0
220
0.0
230
1.0
 70
     8
 71
     3
 72
    10
 73
     6
 74
     0
 42
0.0000000426840841
 43
0.0000000001
 12
1.0
 22
0.0
 32
0.0
 13
1.0
 23
0.0
 33
0.0
 40
0.0
 40
0.0
 40
0.0
 40
0.0
 40
0.5
 40
0.5
 40
1.0
 40
1.0
 40
1.0
 40
1.0
 10
12.655
 20
-0.7560426014697126
 30
0.0
 10
12.65500000000001
 20
-0.7358542167697552
 30
0.0
 10
12.63346231667991
 20
-0.7156408995564885
 30
0.0
 10
12.56002534449565
 20
-0.686982587874
 30
0.0
 10
12.5077507448989
 20
-0.6784139384067428
 30
0.0
 10
12.455
 20
-0.6784139384067416
 30
0.0
  0
LINE
  5
15F
330
1F
100
AcDbEntity
  8
SK3
100
AcDbLine
 10
12.455
 20
-0.6784139384
 30
0.0
 11
-7.145
 21
-0.6784139384
 31
0.0
  0
SPLINE
  5
160
330
1F
100
AcDbEntity
  8
SK3
100
AcDbSpline
210
0.0
220
0.0
230
1.0
 70
     8
 71
     3
 72
    10
 73
     6
 74
     0
 42
0.0000000426774789
 43
0.0000000001
 12
1.0
 22
0.0
 32
0.0
 13
1.0
 23
0.0
 33
0.0
 40
0.0
 40
0.0
 40
0.0
 40
0.0
 40
0.5
 40
0.5
 40
1.0
 40
1.0
 40
1.0
 40
1.0
 10
-7.144999999999999
 20
-0.6784139384066917
 30
0.0
 10
-7.197616138042491
 20
-0.6784139384067437
 30
0.0
 10
-7.249819139577507
 20
-0.686871341425513
 30
0.0
 10
-7.323969278521188
 20
-0.7158696394996626
 30
0.0
 10
-7.345000000000001
 20
-0.7358636319167571
 30
0.0
 10
-7.345000000000001
 20
-0.756042601469712
 30
0.0
  0
LINE
  5
161
330
1F
100
AcDbEntity
  8
SK3
100
AcDbLine
 10
12.655
 20
-0.7488355863
 30
0.0
 11
-2.480083269
 21
-0.7488355863
 31
0.0
  0
ELLIPSE
  5
162
330
1F
100
AcDbEntity
  8
SK3
100
AcDbEllipse
 10
-2.4800832689
 20
-16.0561728814
 30
0.0
 11
-40.00000000061736
 21
3.295281236623104E-11
 31
0.0
210
0.0
220
0.0
230
1.0
 40
0.3826834324
 41
4.712388980386906
 42
4.834313756067307
  0
SPLINE
  5
163
330
1F
100
AcDbEntity
  8
SK3
100
AcDbSpline
210
0.0
220
0.0
230
1.0
 70
     8
 71
     3
 72
    10
 73
     6
 74
     0
 42
0.0000000426840841
 43
0.0000000001
 12
1.0
 22
0.0
 32
0.0
 13
1.0
 23
0.0
 33
0.0
 40
0.0
 40
0.0
 40
0.0
 40
0.0
 40
0.5
 40
0.5
 40
1.0
 40
1.0
 40
1.0
 40
1.0
 10
12.655
 20
-0.340296811839634
 30
0.0
 10
12.65500000000001
 20
-0.3201084271396766
 30
0.0
 10
12.63346231667991
 20
-0.2998951099264097
 30
0.0
 10
12.56002534449565
 20
-0.2712367982439215
 30
0.0
 10
12.5077507448989
 20
-0.2626681487766642
 30
0.0
 10
12.455
 20
-0.2626681487766629
 30
0.0
  0
LINE
  5
164
330
1F
100
AcDbEntity
  8
SK3
100
AcDbLine
 10
12.455
 20
-0.2626681488
 30
0.0
 11
-7.145
 21
-0.2626681488
 31
0.0
  0
SPLINE
  5
165
330
1F
100
AcDbEntity
  8
SK3
100
AcDbSpline
210
0.0
220
0.0
230
1.0
 70
     8
 71
     3
 72
    10
 73
     6
 74
     0
 42
0.0000000426774789
 43
0.0000000001
 12
1.0
 22
0.0
 32
0.0
 13
1.0
 23
0.0
 33
0.0
 40
0.0
 40
0.0
 40
0.0
 40
0.0
 40
0.5
 40
0.5
 40
1.0
 40
1.0
 40
1.0
 40
1.0
 10
-7.144999999999999
 20
-0.262668148776613
 30
0.0
 10
-7.197616138042491
 20
-0.2626681487766648
 30
0.0
 10
-7.249819139577507
 20
-0.2711255517954342
 30
0.0
 10
-7.323969278521188
 20
-0.300123849869584
 30
0.0
 10
-7.345000000000001
 20
-0.3201178422866786
 30
0.0
 10
-7.345000000000001
 20
-0.3402968118396332
 30
0.0
  0
ELLIPSE
  5
166
330
1F
100
AcDbEntity
  8
SK3
100
AcDbEllipse
 10
-2.4800832689
 20
-16.471918671
 30
0.0
 11
-40.00000000061736
 21
3.295281236623104E-11
 31
0.0
210
0.0
220
0.0
230
1.0
 40
0.3826834324
 41
4.712388980386906
 42
4.834313756067308
  0
LINE
  5
167
330
1F
100
AcDbEntity
  8
SK3
100
AcDbLine
 10
12.655
 20
-2.2235949592
 30
0.0
 11
-2.480083269
 21
-2.2235949592
 31
0.0
  0
ARC
  5
168
330
1F
100
AcDbEntity
  8
SK3
100
AcDbCircle
 10
12.4609793832
 20
-1.2439246807
 30
0.0
 40
0.1941338480479125
100
AcDbArc
 50
1.9570020481
 51
91.7650070615
  0
LINE
  5
169
330
1F
100
AcDbEntity
  8
SK3
100
AcDbLine
 10
12.455
 20
-1.0498829379
 30
0.0
 11
-7.145
 21
-1.0498829379
 31
0.0
  0
ARC
  5
16A
330
1F
100
AcDbEntity
  8
SK3
100
AcDbCircle
 10
-7.1509734738
 20
-1.2439309869
 30
0.0
 40
0.1941399694145345
100
AcDbArc
 50
88.2367934405
 51
178.0411974626
  0
LINE
  5
16B
330
1F
100
AcDbEntity
  8
SK3
100
AcDbLine
 10
12.655
 20
-2.3958025038
 30
0.0
 11
-2.480083269
 21
-2.3958025038
 31
0.0
  0
ELLIPSE
  5
16C
330
1F
100
AcDbEntity
  8
SK3
100
AcDbEllipse
 10
-2.4800832689
 20
-39.3509838054
 30
0.0
 11
-40.00000000061547
 21
2.689090183504334E-10
 31
0.0
210
0.0
220
0.0
230
1.0
 40
0.9238795325
 41
4.712388980392801
 42
4.834313756073204
  0
ARC
  5
16D
330
1F
100
AcDbEntity
  8
SK3
100
AcDbCircle
 10
12.4609793832
 20
-1.4161322252
 30
0.0
 40
0.1941338480479122
100
AcDbArc
 50
1.9570020481
 51
91.7650070615
  0
LINE
  5
16E
330
1F
100
AcDbEntity
  8
SK3
100
AcDbLine
 10
12.455
 20
-1.2220904825
 30
0.0
 11
-7.145
 21
-1.2220904824
 31
0.0
  0
ARC
  5
16F
330
1F
100
AcDbEntity
  8
SK3
100
AcDbCircle
 10
-7.1509734738
 20
-1.4161385315
 30
0.0
 40
0.1941399694145344
100
AcDbArc
 50
88.2367934405
 51
178.0411974626
  0
ELLIPSE
  5
170
330
1F
100
AcDbEntity
  8
SK3
100
AcDbEllipse
 10
-2.4800832689
 20
-39.1787762608
 30
0.0
 11
-40.00000000062069
 21
8.067213081991780E-10
 31
0.0
210
0.0
220
0.0
230
1.0
 40
0.9238795325
 41
4.712388980405223
 42
4.834313756085626
  0
LINE
  5
171
330
1F
100
AcDbEntity
  8
SK3
100
AcDbLine
 10
-7.345
 20
5.6000000998
 30
0.0
 11
11.1546688885
 21
14.365442137
 31
0.0
  0
ARC
  5
172
330
1F
100
AcDbEntity
  8
SK1
  6
Continuous
100
AcDbCircle
 10
16.4649211223
 20
24.2019501244
 30
0.0
 40
11.17835713209352
100
AcDbArc
 50
239.7523757277
 51
241.6375477468
  0
LINE
  5
173
330
1F
100
AcDbEntity
  8
SK3
100
AcDbLine
 10
-21.545
 20
6.7661614879
 30
0.0
 11
-8.145
 21
6.7661614879
 31
0.0
  0
SPLINE
  5
174
330
1F
100
AcDbEntity
  8
SK1
  6
Continuous
100
AcDbSpline
210
0.0
220
0.0
230
1.0
 70
     8
 71
     3
 72
    11
 73
     7
 74
     0
 42
0.0000000003950874
 43
0.0000000001
 12
1.0
 22
0.0
 32
0.0
 13
1.0
 23
0.0
 33
0.0
 40
0.0
 40
0.0
 40
0.0
 40
0.0
 40
0.1125067731353984
 40
0.1125067731353984
 40
0.1125067731353984
 40
1.0
 40
1.0
 40
1.0
 40
1.0
 10
-21.545
 20
11.8261858639457
 30
0.0
 10
-20.60369518743966
 20
11.94846566118263
 30
0.0
 10
-19.6623901094441
 20
12.07074371435643
 30
0.0
 10
-18.72108478900042
 20
12.19302017443919
 30
0.0
 10
-11.29573542587062
 20
13.15758014800159
 30
0.0
 10
-3.870371506173972
 20
14.12204447419747
 30
0.0
 10
3.555000000000009
 20
15.0864589390195
 30
0.0
  0
LINE
  5
175
330
1F
100
AcDbEntity
  8
SK1
  6
Continuous
100
AcDbLine
 10
-21.845
 20
11.907379646
 30
0.0
 11
-21.845
 21
11.9839163325
 31
0.0
  0
LINE
  5
176
330
1F
100
AcDbEntity
  8
SK3
100
AcDbLine
 10
-21.845
 20
11.907379646
 30
0.0
 11
-21.845
 21
6.8908282504
 31
0.0
  0
LINE
  5
177
330
1F
100
AcDbEntity
  8
SK3
100
AcDbLine
 10
-21.845
 20
6.8908282504
 30
0.0
 11
-21.8435894328
 21
6.8786824002
 31
0.0
  0
SPLINE
  5
178
330
1F
100
AcDbEntity
  8
SK1
  6
Continuous
100
AcDbSpline
210
0.0
220
0.0
230
1.0
 70
     8
 71
     3
 72
    10
 73
     6
 74
     0
 42
0.0000000289531409
 43
0.0000000001
 12
1.0
 22
0.0
 32
0.0
 13
1.0
 23
0.0
 33
0.0
 40
0.0
 40
0.0
 40
0.0
 40
0.0
 40
0.5
 40
0.5
 40
1.0
 40
1.0
 40
1.0
 40
1.0
 10
-21.545
 20
11.8261858639457
 30
0.0
 10
-21.62376670527773
 20
11.8159537089393
 30
0.0
 10
-21.70104584641035
 20
11.81917723931218
 30
0.0
 10
-21.81209218748511
 20
11.84949163329249
 30
0.0
 10
-21.84500000000094
 20
11.87636521035167
 30
0.0
 10
-21.845
 20
11.90737964603392
 30
0.0
  0
SPLINE
  5
179
330
1F
100
AcDbEntity
  8
SK3
100
AcDbSpline
210
0.0
220
0.0
230
1.0
 70
     8
 71
     3
 72
    10
 73
     6
 74
     0
 42
0.000000029338814
 43
0.0000000001
 12
1.0
 22
0.0
 32
0.0
 13
1.0
 23
0.0
 33
0.0
 40
0.0
 40
0.0
 40
0.0
 40
0.0
 40
0.5
 40
0.5
 40
1.0
 40
1.0
 40
1.0
 40
1.0
 10
-21.84358943278112
 20
6.878682400174584
 30
0.0
 10
-21.83638753313285
 20
6.849185285649062
 30
0.0
 10
-21.80122061375491
 20
6.820360267531433
 30
0.0
 10
-21.69209144680772
 20
6.778509977670068
 30
0.0
 10
-21.61936600010386
 20
6.766161487864117
 30
0.0
 10
-21.545
 20
6.766161487864117
 30
0.0
  0
SPLINE
  5
17A
330
1F
100
AcDbEntity
  8
SK1
  6
Continuous
100
AcDbSpline
210
0.0
220
0.0
230
1.0
 70
     8
 71
     3
 72
    11
 73
     7
 74
     0
 42
0.0000000003950874
 43
0.0000000001
 12
1.0
 22
0.0
 32
0.0
 13
1.0
 23
0.0
 33
0.0
 40
0.0
 40
0.0
 40
0.0
 40
0.0
 40
0.1125067731353984
 40
0.1125067731353984
 40
0.1125067731353984
 40
1.0
 40
1.0
 40
1.0
 40
1.0
 10
-21.545
 20
12.13233260983777
 30
0.0
 10
-20.60369518743966
 20
12.2546124070747
 30
0.0
 10
-19.6623901094441
 20
12.37689046024849
 30
0.0
 10
-18.72108478900042
 20
12.49916692033126
 30
0.0
 10
-11.29573542587062
 20
13.46372689389366
 30
0.0
 10
-3.870371506173972
 20
14.42819122008954
 30
0.0
 10
3.555000000000009
 20
15.39260568491157
 30
0.0
  0
LINE
  5
17B
330
1F
100
AcDbEntity
  8
SK3
100
AcDbLine
 10
-21.545
 20
7.0723082338
 30
0.0
 11
-8.145
 21
7.0723082338
 31
0.0
  0
LINE
  5
17C
330
1F
100
AcDbEntity
  8
SK1
  6
Continuous
100
AcDbLine
 10
-21.545
 20
12.1323326098
 30
0.0
 11
-21.545
 21
11.8261858639
 31
0.0
  0
SPLINE
  5
17D
330
1F
100
AcDbEntity
  8
SK1
  6
Continuous
100
AcDbSpline
210
0.0
220
0.0
230
1.0
 70
     8
 71
     3
 72
    10
 73
     6
 74
     0
 42
0.0000000278180844
 43
0.0000000001
 12
1.0
 22
0.0
 32
0.0
 13
1.0
 23
0.0
 33
0.0
 40
0.0
 40
0.0
 40
0.0
 40
0.0
 40
0.5
 40
0.5
 40
1.0
 40
1.0
 40
1.0
 40
1.0
 10
-21.845
 20
11.98391633250693
 30
0.0
 10
-21.84500000000001
 20
12.01378951926908
 30
0.0
 10
-21.81217014803408
 20
12.04647817898494
 30
0.0
 10
-21.70127908935044
 20
12.10068922120442
 30
0.0
 10
-21.62375740858171
 20
12.12210166251468
 30
0.0
 10
-21.545
 20
12.13233260983777
 30
0.0
  0
SPLINE
  5
17E
330
1F
100
AcDbEntity
  8
SK3
100
AcDbSpline
210
0.0
220
0.0
230
1.0
 70
     8
 71
     3
 72
    10
 73
     6
 74
     0
 42
0.0000000300427174
 43
0.0000000001
 12
1.0
 22
0.0
 32
0.0
 13
1.0
 23
0.0
 33
0.0
 40
0.0
 40
0.0
 40
0.0
 40
0.0
 40
0.5
 40
0.5
 40
1.0
 40
1.0
 40
1.0
 40
1.0
 10
-21.545
 20
7.072308233756189
 30
0.0
 10
-21.61936500173942
 20
7.072308233756188
 30
0.0
 10
-21.69198560972306
 20
7.062979624700574
 30
0.0
 10
-21.80114580234645
 20
7.029018356973838
 30
0.0
 10
-21.83638765745052
 20
7.004602160597584
 30
0.0
 10
-21.84358943278111
 20
6.977458896640169
 30
0.0
  0
LINE
  5
17F
330
1F
100
AcDbEntity
  8
SK1
  6
Continuous
100
AcDbLine
 10
10.8713521609
 20
9.992268856
 30
0.0
 11
11.1546688885
 21
10.0871909009
 31
0.0
  0
SPLINE
  5
180
330
1F
100
AcDbEntity
  8
SK1
  6
Continuous
100
AcDbSpline
210
0.0
220
0.0
230
1.0
 70
     8
 71
     3
 72
    10
 73
     6
 74
     0
 42
0.0000000244927356
 43
0.0000000001
 12
1.0
 22
0.0
 32
0.0
 13
1.0
 23
0.0
 33
0.0
 40
0.0
 40
0.0
 40
0.0
 40
0.0
 40
0.5
 40
0.5
 40
1.0
 40
1.0
 40
1.0
 40
1.0
 10
11.15466888849796
 20
10.08719090092036
 30
0.0
 10
11.15408270924778
 20
10.02440353588912
 30
0.0
 10
11.10969155846213
 20
9.983876781531956
 30
0.0
 10
10.98604122096385
 20
9.958771743771718
 30
0.0
 10
10.91025006378112
 20
9.97118841732466
 30
0.0
 10
10.83395608774244
 20
10.00234707780377
 30
0.0
  0
LINE
  5
181
330
1F
100
AcDbEntity
  8
SK1
  6
Continuous
100
AcDbLine
 10
11.1546688885
 20
10.2286122572
 30
0.0
 11
11.1546688885
 21
10.0871909009
 31
0.0
  0
LINE
  5
182
330
1F
100
AcDbEntity
  8
SK1
  6
Continuous
100
AcDbLine
 10
11.1546688885
 20
10.2286122572
 30
0.0
 11
10.6741359942
 21
10.0676151802
 31
0.0
  0
LINE
  5
183
330
1F
100
AcDbEntity
  8
SK1
  6
Continuous
100
AcDbLine
 10
10.0730365563
 20
10.3130950742
 30
0.0
 11
10.8339560877
 21
10.5680325028
 31
0.0
  0
LINE
  5
184
330
1F
100
AcDbEntity
  8
SK3
100
AcDbLine
 10
-7.345
 20
4.4463222184
 30
0.0
 11
-7.345
 21
4.4773801718
 31
0.0
  0
SPLINE
  5
185
330
1F
100
AcDbEntity
  8
SK1
  6
Continuous
100
AcDbSpline
210
0.0
220
0.0
230
1.0
 70
     8
 71
     3
 72
    10
 73
     6
 74
     0
 42
0.000000020167179
 43
0.0000000001
 12
1.0
 22
0.0
 32
0.0
 13
1.0
 23
0.0
 33
0.0
 40
0.0
 40
0.0
 40
0.0
 40
0.0
 40
0.5
 40
0.5
 40
1.0
 40
1.0
 40
1.0
 40
1.0
 10
10.83395608774244
 20
10.56803250275301
 30
0.0
 10
10.9103663122927
 20
10.53682636607601
 30
0.0
 10
10.98620819638807
 20
10.48818505513836
 30
0.0
 10
11.10868462179889
 20
10.36681642285942
 30
0.0
 10
11.15408055731314
 20
10.29123589483435
 30
0.0
 10
11.15466888849796
 20
10.22861225715767
 30
0.0
  0
LINE
  5
186
330
1F
100
AcDbEntity
  8
SK3
100
AcDbLine
 10
-21.545
 20
2.496489166
 30
0.0
 11
-8.145
 21
2.496489166
 31
0.0
  0
LINE
  5
187
330
1F
100
AcDbEntity
  8
SK1
  6
Continuous
100
AcDbLine
 10
-21.545
 20
4.5924198885
 30
0.0
 11
3.555
 21
5.9428692133
 31
0.0
  0
LINE
  5
188
330
1F
100
AcDbEntity
  8
SK1
  6
Continuous
100
AcDbLine
 10
-21.845
 20
4.8556615137
 30
0.0
 11
-21.845
 21
5.0404374202
 31
0.0
  0
LINE
  5
189
330
1F
100
AcDbEntity
  8
SK3
100
AcDbLine
 10
-21.845
 20
4.8556615137
 30
0.0
 11
-21.845
 21
2.7777378893
 31
0.0
  0
LINE
  5
18A
330
1F
100
AcDbEntity
  8
SK3
100
AcDbLine
 10
-21.8427484749
 20
2.7433679727
 30
0.0
 11
-21.845
 21
2.8701258425
 31
0.0
  0
LINE
  5
18B
330
1F
100
AcDbEntity
  8
SK3
100
AcDbLine
 10
-21.845
 20
2.7777378893
 30
0.0
 11
-21.8427484749
 21
2.7433679727
 31
0.0
  0
ARC
  5
18C
330
1F
100
AcDbEntity
  8
SK1
  6
Continuous
100
AcDbCircle
 10
-21.5724024566
 20
4.8637574461
 30
0.0
 40
0.272717738298996
100
AcDbArc
 50
181.7011395046
 51
275.7667648515
  0
ARC
  5
18D
330
1F
100
AcDbEntity
  8
SK3
100
AcDbCircle
 10
-21.5518215992
 20
2.7912513206
 30
0.0
 40
0.2948410791603368
100
AcDbArc
 50
189.3464561396
 51
271.3257437729
  0
LINE
  5
18E
330
1F
100
AcDbEntity
  8
SK1
  6
Continuous
100
AcDbLine
 10
-21.545
 20
5.3315235146
 30
0.0
 11
3.555
 21
6.6819728393
 31
0.0
  0
LINE
  5
18F
330
1F
100
AcDbEntity
  8
SK3
100
AcDbLine
 10
-21.545
 20
3.235592792
 30
0.0
 11
-8.145
 21
3.235592792
 31
0.0
  0
LINE
  5
190
330
1F
100
AcDbEntity
  8
SK1
  6
Continuous
100
AcDbLine
 10
-21.545
 20
5.3315235146
 30
0.0
 11
-21.545
 21
4.5924198885
 31
0.0
  0
ARC
  5
191
330
1F
100
AcDbEntity
  8
SK1
  6
Continuous
100
AcDbCircle
 10
-21.5380674029
 20
5.0242421362
 30
0.0
 40
0.3073595718468317
100
AcDbArc
 50
91.2924349207
 51
176.9795918966
  0
ARC
  5
192
330
1F
100
AcDbEntity
  8
SK3
100
AcDbCircle
 10
-21.5563936623
 20
2.9449603772
 30
0.0
 40
0.2908556619552857
100
AcDbArc
 50
87.7549832319
 51
169.9072910723
  0
LINE
  5
193
330
1F
100
AcDbEntity
  8
SK1
  6
Continuous
100
AcDbLine
 10
-7.345
 20
-0.0999999002
 30
0.0
 11
-7.345
 21
0.1000000998
 31
0.0
  0
LINE
  5
194
330
1F
100
AcDbEntity
  8
SK1
  6
Continuous
100
AcDbLine
 10
-7.345
 20
-0.0999999002
 30
0.0
 11
11.1546688885
 21
-0.0999999002
 31
0.0
  0
LINE
  5
195
330
1F
100
AcDbEntity
  8
SK1
  6
Continuous
100
AcDbLine
 10
-7.345
 20
-0.3999999002
 30
0.0
 11
-7.345
 21
-0.0999999002
 31
0.0
  0
ARC
  5
196
330
1F
100
AcDbEntity
  8
SK1
  6
Continuous
100
AcDbCircle
 10
10.8409539048
 20
-0.086053031
 30
0.0
 40
0.314024849560232
100
AcDbArc
 50
268.7230992169
 51
357.4544699668
  0
LINE
  5
197
330
1F
100
AcDbEntity
  8
SK1
  6
Continuous
100
AcDbLine
 10
11.1546688885
 20
0.1000000998
 30
0.0
 11
11.1546688885
 21
-0.0999999002
 31
0.0
  0
LINE
  5
198
330
1F
100
AcDbEntity
  8
SK1
  6
Continuous
100
AcDbLine
 10
11.1546688885
 20
0.1000000998
 30
0.0
 11
-7.345
 21
0.1000000998
 31
0.0
  0
LINE
  5
199
330
1F
100
AcDbEntity
  8
SK1
  6
Continuous
100
AcDbLine
 10
-7.345
 20
0.1000000998
 30
0.0
 11
-7.345
 21
0.4000000998
 31
0.0
  0
ARC
  5
19A
330
1F
100
AcDbEntity
  8
SK1
  6
Continuous
100
AcDbCircle
 10
10.8409310217
 20
0.0860287675
 30
0.0
 40
0.3140487974806792
100
AcDbArc
 50
2.5498033062
 51
91.2726275101
  0
LINE
  5
19B
330
1F
100
AcDbEntity
  8
SK3
100
AcDbLine
 10
-21.545
 20
-3.2355925925
 30
0.0
 11
-8.145
 21
-3.2355925925
 31
0.0
  0
LINE
  5
19C
330
1F
100
AcDbEntity
  8
SK1
  6
Continuous
100
AcDbLine
 10
-21.545
 20
-5.331523315
 30
0.0
 11
3.555
 21
-6.6819726397
 31
0.0
  0
LINE
  5
19D
330
1F
100
AcDbEntity
  8
SK1
  6
Continuous
100
AcDbLine
 10
-21.545
 20
-4.592419689
 30
0.0
 11
-21.545
 21
-5.331523315
 31
0.0
  0
LINE
  5
19E
330
1F
100
AcDbEntity
  8
SK1
  6
Continuous
100
AcDbLine
 10
-21.845
 20
-5.0404372206
 30
0.0
 11
-21.845
 21
-4.8556613141
 31
0.0
  0
ARC
  5
19F
330
1F
100
AcDbEntity
  8
SK1
  6
Continuous
100
AcDbCircle
 10
-21.5380538867
 20
-5.0242280065
 30
0.0
 40
0.3073738035723071
100
AcDbArc
 50
183.0228683747
 51
268.705104808
  0
ARC
  5
1A0
330
1F
100
AcDbEntity
  8
SK3
100
AcDbCircle
 10
-21.5568412593
 20
-2.9458706755
 30
0.0
 40
0.2899637988102973
100
AcDbArc
 50
188.5408409111
 51
272.3404400842
  0
LINE
  5
1A1
330
1F
100
AcDbEntity
  8
SK3
100
AcDbLine
 10
-21.845
 20
-2.7777376897
 30
0.0
 11
-21.845
 21
-4.8556613141
 31
0.0
  0
LINE
  5
1A2
330
1F
100
AcDbEntity
  8
SK1
  6
Continuous
100
AcDbLine
 10
-21.545
 20
-4.592419689
 30
0.0
 11
3.555
 21
-5.9428690137
 31
0.0
  0
LINE
  5
1A3
330
1F
100
AcDbEntity
  8
SK3
100
AcDbLine
 10
-21.545
 20
-2.4964889665
 30
0.0
 11
-8.145
 21
-2.4964889665
 31
0.0
  0
LINE
  5
1A4
330
1F
100
AcDbEntity
  8
SK3
100
AcDbLine
 10
-21.8435894328
 20
-2.7504669038
 30
0.0
 11
-21.845
 21
-2.870125643
 31
0.0
  0
LINE
  5
1A5
330
1F
100
AcDbEntity
  8
SK3
100
AcDbLine
 10
-21.8435894328
 20
-2.7504669038
 30
0.0
 11
-21.845
 21
-2.7777376897
 31
0.0
  0
ARC
  5
1A6
330
1F
100
AcDbEntity
  8
SK1
  6
Continuous
100
AcDbCircle
 10
-21.5724122619
 20
-4.8637460721
 30
0.0
 40
0.2727076058029275
100
AcDbArc
 50
84.2309495817
 51
178.3011460622
  0
ARC
  5
1A7
330
1F
100
AcDbEntity
  8
SK3
100
AcDbCircle
 10
-21.5521359051
 20
-2.7906070932
 30
0.0
 40
0.2942046797683315
100
AcDbArc
 50
88.6101602981
 51
172.1583193302
  0
LINE
  5
1A8
330
1F
100
AcDbEntity
  8
SK1
  6
Continuous
100
AcDbLine
 10
10.8339560877
 20
-10.5680323032
 30
0.0
 11
10.0730365563
 21
-10.3130948747
 31
0.0
  0
LINE
  5
1A9
330
1F
100
AcDbEntity
  8
SK1
  6
Continuous
100
AcDbLine
 10
10.6741359942
 20
-10.0676149806
 30
0.0
 11
11.1546688885
 21
-10.2286120576
 31
0.0
  0
LINE
  5
1AA
330
1F
100
AcDbEntity
  8
SK3
100
AcDbLine
 10
-7.345
 20
-4.4773799722
 30
0.0
 11
-7.345
 21
-4.4463220189
 31
0.0
  0
SPLINE
  5
1AB
330
1F
100
AcDbEntity
  8
SK1
  6
Continuous
100
AcDbSpline
210
0.0
220
0.0
230
1.0
 70
     8
 71
     3
 72
    10
 73
     6
 74
     0
 42
0.0000000201664609
 43
0.0000000001
 12
1.0
 22
0.0
 32
0.0
 13
1.0
 23
0.0
 33
0.0
 40
0.0
 40
0.0
 40
0.0
 40
0.0
 40
0.5
 40
0.5
 40
1.0
 40
1.0
 40
1.0
 40
1.0
 10
11.15466888849796
 20
-10.22861205761627
 30
0.0
 10
11.15408270924778
 20
-10.29100663727532
 30
0.0
 10
11.10969155846212
 20
-10.36569092849589
 30
0.0
 10
10.98604122096384
 20
-10.48847692430854
 30
0.0
 10
10.91025006378111
 20
-10.53687364273251
 30
0.0
 10
10.83395608774243
 20
-10.56803230321162
 30
0.0
  0
LINE
  5
1AC
330
1F
100
AcDbEntity
  8
SK1
  6
Continuous
100
AcDbLine
 10
11.1546688885
 20
-10.0871907014
 30
0.0
 11
11.1546688885
 21
-10.2286120576
 31
0.0
  0
LINE
  5
1AD
330
1F
100
AcDbEntity
  8
SK1
  6
Continuous
100
AcDbLine
 10
11.1546688885
 20
-10.0871907014
 30
0.0
 11
10.8718747205
 21
-9.9924437341
 31
0.0
  0
SPLINE
  5
1AE
330
1F
100
AcDbEntity
  8
SK1
  6
Continuous
100
AcDbSpline
210
0.0
220
0.0
230
1.0
 70
     8
 71
     3
 72
    10
 73
     6
 74
     0
 42
0.0000000244964771
 43
0.0000000001
 12
1.0
 22
0.0
 32
0.0
 13
1.0
 23
0.0
 33
0.0
 40
0.0
 40
0.0
 40
0.0
 40
0.0
 40
0.5
 40
0.5
 40
1.0
 40
1.0
 40
1.0
 40
1.0
 10
10.83395608774243
 20
-10.00234687826238
 30
0.0
 10
10.9103663122927
 20
-9.97114074158538
 30
0.0
 10
10.98620819638807
 20
-9.958935690667197
 30
0.0
 10
11.10868462179888
 20
-9.983542786986456
 30
0.0
 10
11.15408055731314
 20
-10.02417283636768
 30
0.0
 10
11.15466888849796
 20
-10.08719070137896
 30
0.0
  0
LINE
  5
1AF
330
1F
100
AcDbEntity
  8
SK3
100
AcDbLine
 10
-21.545
 20
-7.0723080342
 30
0.0
 11
-8.145
 21
-7.0723080342
 31
0.0
  0
SPLINE
  5
1B0
330
1F
100
AcDbEntity
  8
SK1
  6
Continuous
100
AcDbSpline
210
0.0
220
0.0
230
1.0
 70
     8
 71
     3
 72
    11
 73
     7
 74
     0
 42
0.0000000003950874
 43
0.0000000001
 12
1.0
 22
0.0
 32
0.0
 13
1.0
 23
0.0
 33
0.0
 40
0.0
 40
0.0
 40
0.0
 40
0.0
 40
0.883657354795835
 40
0.883657354795835
 40
0.883657354795835
 40
1.0
 40
1.0
 40
1.0
 40
1.0
 10
-21.545
 20
-12.13233241029637
 30
0.0
 10
-14.1517480429366
 20
-13.09274962921215
 30
0.0
 10
-6.758480312925898
 20
-14.05306321115506
 30
0.0
 10
0.6347955038512789
 20
-15.01332364394037
 30
0.0
 10
1.608196857470694
 20
-15.1397518779553
 30
0.0
 10
2.581598359799124
 20
-15.26617913470063
 30
0.0
 10
3.555000000000009
 20
-15.39260548537017
 30
0.0
  0
LINE
  5
1B1
330
1F
100
AcDbEntity
  8
SK1
  6
Continuous
100
AcDbLine
 10
-21.545
 20
-11.8261856644
 30
0.0
 11
-21.545
 21
-12.1323324103
 31
0.0
  0
LINE
  5
1B2
330
1F
100
AcDbEntity
  8
SK1
  6
Continuous
100
AcDbLine
 10
-21.845
 20
-11.983916133
 30
0.0
 11
-21.845
 21
-11.9073794465
 31
0.0
  0
SPLINE
  5
1B3
330
1F
100
AcDbEntity
  8
SK1
  6
Continuous
100
AcDbSpline
210
0.0
220
0.0
230
1.0
 70
     8
 71
     3
 72
    10
 73
     6
 74
     0
 42
0.00000002781778
 43
0.0000000001
 12
1.0
 22
0.0
 32
0.0
 13
1.0
 23
0.0
 33
0.0
 40
0.0
 40
0.0
 40
0.0
 40
0.0
 40
0.5
 40
0.5
 40
1.0
 40
1.0
 40
1.0
 40
1.0
 10
-21.545
 20
-12.13233241029637
 30
0.0
 10
-21.62376670527773
 20
-12.12210025528998
 30
0.0
 10
-21.70104584641035
 20
-12.10077324452155
 30
0.0
 10
-21.81209218748511
 20
-12.0465458104447
 30
0.0
 10
-21.84500000000094
 20
-12.01379361958869
 30
0.0
 10
-21.84499999999999
 20
-11.98391613296553
 30
0.0
  0
SPLINE
  5
1B4
330
1F
100
AcDbEntity
  8
SK3
100
AcDbSpline
210
0.0
220
0.0
230
1.0
 70
     8
 71
     3
 72
    10
 73
     6
 74
     0
 42
0.0000000303628589
 43
0.0000000001
 12
1.0
 22
0.0
 32
0.0
 13
1.0
 23
0.0
 33
0.0
 40
0.0
 40
0.0
 40
0.0
 40
0.0
 40
0.5
 40
0.5
 40
1.0
 40
1.0
 40
1.0
 40
1.0
 10
-21.84274847485653
 20
-6.980252955382668
 30
0.0
 10
-21.83381302898704
 20
-7.006784531826389
 30
0.0
 10
-21.79810881252734
 20
-7.030384508490764
 30
0.0
 10
-21.68946255156752
 20
-7.063320613919251
 30
0.0
 10
-21.6180827911817
 20
-7.072308034214793
 30
0.0
 10
-21.545
 20
-7.072308034214793
 30
0.0
  0
LINE
  5
1B5
330
1F
100
AcDbEntity
  8
SK3
100
AcDbLine
 10
-21.845
 20
-6.8908280508
 30
0.0
 11
-21.845
 21
-11.9073794465
 31
0.0
  0
SPLINE
  5
1B6
330
1F
100
AcDbEntity
  8
SK1
  6
Continuous
100
AcDbSpline
210
0.0
220
0.0
230
1.0
 70
     8
 71
     3
 72
    11
 73
     7
 74
     0
 42
0.0000000003950874
 43
0.0000000001
 12
1.0
 22
0.0
 32
0.0
 13
1.0
 23
0.0
 33
0.0
 40
0.0
 40
0.0
 40
0.0
 40
0.0
 40
0.883657354795835
 40
0.883657354795835
 40
0.883657354795835
 40
1.0
 40
1.0
 40
1.0
 40
1.0
 10
-21.545
 20
-11.8261856644043
 30
0.0
 10
-14.1517480429366
 20
-12.78660288332008
 30
0.0
 10
-6.758480312925901
 20
-13.74691646526298
 30
0.0
 10
0.6347955038512789
 20
-14.7071768980483
 30
0.0
 10
1.608196857470694
 20
-14.83360513206323
 30
0.0
 10
2.581598359799124
 20
-14.96003238880856
 30
0.0
 10
3.555000000000009
 20
-15.0864587394781
 30
0.0
  0
LINE
  5
1B7
330
1F
100
AcDbEntity
  8
SK3
100
AcDbLine
 10
-21.545
 20
-6.7661612883
 30
0.0
 11
-8.145
 21
-6.7661612883
 31
0.0
  0
LINE
  5
1B8
330
1F
100
AcDbEntity
  8
SK3
100
AcDbLine
 10
-21.8427484749
 20
-6.8756381961
 30
0.0
 11
-21.845
 21
-6.8908280508
 31
0.0
  0
SPLINE
  5
1B9
330
1F
100
AcDbEntity
  8
SK1
  6
Continuous
100
AcDbSpline
210
0.0
220
0.0
230
1.0
 70
     8
 71
     3
 72
    10
 73
     6
 74
     0
 42
0.0000000289536133
 43
0.0000000001
 12
1.0
 22
0.0
 32
0.0
 13
1.0
 23
0.0
 33
0.0
 40
0.0
 40
0.0
 40
0.0
 40
0.0
 40
0.5
 40
0.5
 40
1.0
 40
1.0
 40
1.0
 40
1.0
 10
-21.84499999999999
 20
-11.90737944649251
 30
0.0
 10
-21.84500000000001
 20
-11.87636947429713
 30
0.0
 10
-21.81217014803408
 20
-11.8495448731892
 30
0.0
 10
-21.70127908935044
 20
-11.81920864544883
 30
0.0
 10
-21.62375740858171
 20
-11.81595471708121
 30
0.0
 10
-21.545
 20
-11.8261856644043
 30
0.0
  0
SPLINE
  5
1BA
330
1F
100
AcDbEntity
  8
SK3
100
AcDbSpline
210
0.0
220
0.0
230
1.0
 70
     8
 71
     3
 72
    10
 73
     6
 74
     0
 42
0.0000000296619257
 43
0.0000000001
 12
1.0
 22
0.0
 32
0.0
 13
1.0
 23
0.0
 33
0.0
 40
0.0
 40
0.0
 40
0.0
 40
0.0
 40
0.5
 40
0.5
 40
1.0
 40
1.0
 40
1.0
 40
1.0
 10
-21.545
 20
-6.766161288322721
 30
0.0
 10
-21.61808165015135
 20
-6.76616128832272
 30
0.0
 10
-21.68939054755107
 20
-6.778016105330686
 30
0.0
 10
-21.79805289760163
 20
-6.818631832084182
 30
0.0
 10
-21.83381319628279
 20
-6.84666458860536
 30
0.0
 10
-21.84274847485653
 20
-6.875638196138949
 30
0.0
  0
LINE
  5
1BB
330
1F
100
AcDbEntity
  8
SK3
100
AcDbLine
 10
11.1546688885
 20
-14.3654419375
 30
0.0
 11
-7.345
 21
-5.5999999002
 31
0.0
  0
ARC
  5
1BC
330
1F
100
AcDbEntity
  8
SK1
  6
Continuous
100
AcDbCircle
 10
16.4718085867
 20
-24.2142207137
 30
0.0
 40
11.19242681250575
100
AcDbArc
 50
118.3636372579
 51
120.2464392676
  0
ARC
  5
1BD
330
1F
100
AcDbEntity
  8
SK1
  6
Continuous
100
AcDbCircle
 10
12.405
 20
-13.3552358524
 30
0.0
 40
0.2500000000000005
100
AcDbArc
 50
300.0
 51
0.0
  0
LINE
  5
1BE
330
1F
100
AcDbEntity
  8
SK1
  6
Continuous
100
AcDbLine
 10
11.1548196
 20
-14.3657029774
 30
0.0
 11
12.53
 21
-13.5717422033
 31
0.0
  0
ARC
  5
1BF
330
1F
100
AcDbEntity
  8
SK1
  6
Continuous
100
AcDbCircle
 10
12.405
 20
13.3552360519
 30
0.0
 40
0.2500000000000008
100
AcDbArc
 50
0.0
 51
60.0
  0
LINE
  5
1C0
330
1F
100
AcDbEntity
  8
SK1
  6
Continuous
100
AcDbLine
 10
12.53
 20
13.5717424029
 30
0.0
 11
11.1548196
 21
14.365703177
 31
0.0
  0
ARC
  5
1C1
330
1F
100
AcDbEntity
  8
SK3
100
AcDbCircle
 10
12.455
 20
1.4500000998
 30
0.0
 40
0.199999999999999
100
AcDbArc
 50
270.0
 51
0.0
  0
ARC
  5
1C2
330
1F
100
AcDbEntity
  8
SK3
100
AcDbCircle
 10
-7.145
 20
1.4500000998
 30
0.0
 40
0.1999999999999999
100
AcDbArc
 50
180.0
 51
270.0
  0
LINE
  5
1C3
330
1F
100
AcDbEntity
  8
SK3
100
AcDbLine
 10
12.455
 20
1.2500000998
 30
0.0
 11
-7.145
 21
1.2500000998
 31
0.0
  0
ARC
  5
1C4
330
1F
100
AcDbEntity
  8
SK3
100
AcDbCircle
 10
12.455
 20
-1.4499999002
 30
0.0
 40
0.2000000000000001
100
AcDbArc
 50
0.0
 51
90.0
  0
ARC
  5
1C5
330
1F
100
AcDbEntity
  8
SK3
100
AcDbCircle
 10
-7.145
 20
-1.4499999002
 30
0.0
 40
0.2000000000000023
100
AcDbArc
 50
90.0
 51
180.0
  0
LINE
  5
1C6
330
1F
100
AcDbEntity
  8
SK3
100
AcDbLine
 10
-7.145
 20
-1.2499999002
 30
0.0
 11
12.455
 21
-1.2499999002
 31
0.0
  0
LINE
  5
1C7
330
1F
100
AcDbEntity
  8
SK3
100
AcDbLine
 10
11.0691230192
 20
9.9768792002
 30
0.0
 11
11.0701979752
 21
9.9772393519
 31
0.0
  0
LINE
  5
1C8
330
1F
100
AcDbEntity
  8
SK3
100
AcDbLine
 10
-7.345
 20
3.8074368654
 30
0.0
 11
11.0691230192
 21
9.9768792002
 31
0.0
  0
LINE
  5
1C9
330
1F
100
AcDbEntity
  8
SK3
100
AcDbLine
 10
11.0701979752
 20
-9.9772391524
 30
0.0
 11
-7.345
 21
-3.8074366658
 31
0.0
  0
LINE
  5
1CA
330
1F
100
AcDbEntity
  8
SK1
  6
Continuous
100
AcDbLine
 10
0.0
 20
15.9953767825
 30
0.0
 11
0.0
 21
-15.995376583
 31
0.0
  0
LINE
  5
1CC
330
1F
100
AcDbEntity
  8
SK4
  6
Continuous
100
AcDbLine
 10
12.655
 20
0.0000000998
 30
0.0
 11
-27.345
 21
0.0000000998
 31
0.0
  0
DIMENSION
  5
1E1
330
1F
100
AcDbEntity
  8
SK2
  6
Continuous
 62
   136
100
AcDbDimension
  2
DMBLK53
 10
22.010703029
 20
1.2500000998
 30
0.0
 11
22.010703029
 21
6.741051457
 31
0.0
 70
   161
  1
\A1;ø <>
 71
     5
 42
-1.0
  3
DIN
100
AcDbAlignedDimension
 13
12.455
 23
1.2500000998
 33
0.0
 14
12.455
 24
-1.2499999002
 34
0.0
  0
DIMENSION
  5
1EC
330
1F
100
AcDbEntity
  8
SK2
  6
Continuous
 62
   136
100
AcDbDimension
  2
DMBLK54
 10
12.655
 20
-24.1236526778
 30
0.0
 11
6.3275001012
 21
-24.1236526778
 31
0.0
 70
   160
  1
\A1;<>
 71
     5
 42
-1.0
  3
DIN
100
AcDbAlignedDimension
 13
0.0
 23
-15.995376583
 33
0.0
 14
12.655
 24
-5.4780863982
 34
0.0
100
AcDbRotatedDimension
  0
DIMENSION
  5
1F6
330
1F
100
AcDbEntity
  8
SK2
  6
Continuous
 62
   136
100
AcDbDimension
  2
DMBLK55
 10
-35.0919105113
 20
15.9953767825
 30
0.0
 11
-35.0919105113
 21
0.0000009705
 31
0.0
 70
   161
  1
\A1;ø <>
 71
     5
 42
-1.0
  3
DIN
100
AcDbAlignedDimension
 13
0.0
 23
15.9953767825
 33
0.0
 14
0.0
 24
-15.995376583
 34
0.0
1001
ACAD
1000
DSTYLE
1002
{
1070
   271
1070
     1
1070
   272
1070
     1
1070
     0
1002
}
  0
DIMENSION
  5
201
330
1F
100
AcDbEntity
  8
SK2
  6
Continuous
 62
   136
100
AcDbDimension
  2
DMBLK56
 10
12.655
 20
22.7377533745
 30
0.0
 11
-7.345000447
 21
22.7377533745
 31
0.0
 70
   160
  1
\A1;<>
 71
     5
 42
-1.0
  3
DIN
100
AcDbAlignedDimension
 13
-27.345
 23
8.6901837792
 33
0.0
 14
12.655
 24
12.33309382
 34
0.0
100
AcDbRotatedDimension
  0
ENDSEC
  0
SECTION
  2
OBJECTS
  0
DICTIONARY
  5
C
330
0
100
AcDbDictionary
281
     1
  3
ACAD_GROUP
350
D
  3
ACAD_LAYOUT
350
1A
  3
ACAD_MATERIAL
350
3B
  3
ACAD_MLEADERSTYLE
350
20D
  3
ACAD_MLINESTYLE
350
17
  3
ACAD_PLOTSETTINGS
350
19
  3
ACAD_PLOTSTYLENAME
350
E
  3
ACAD_VISUALSTYLE
350
2A
  3
AcDbVariableDictionary
350
20B
  0
DICTIONARY
  5
D
102
{ACAD_REACTORS
330
C
102
}
330
C
100
AcDbDictionary
281
     1
  0
DICTIONARY
  5
1A
102
{ACAD_REACTORS
330
C
102
}
330
C
100
AcDbDictionary
281
     1
  3
Layout1
350
1E
  3
Model
350
22
  0
DICTIONARY
  5
3B
102
{ACAD_REACTORS
330
C
102
}
330
C
100
AcDbDictionary
281
     1
  3
ByBlock
350
3D
  3
ByLayer
350
3C
  3
Global
350
3E
  0
DICTIONARY
  5
20D
102
{ACAD_REACTORS
330
C
102
}
330
C
100
AcDbDictionary
281
     1
  0
DICTIONARY
  5
17
102
{ACAD_REACTORS
330
C
102
}
330
C
100
AcDbDictionary
281
     1
  3
Standard
350
18
  0
DICTIONARY
  5
19
102
{ACAD_REACTORS
330
C
102
}
330
C
100
AcDbDictionary
281
     1
  0
ACDBDICTIONARYWDFLT
  5
E
102
{ACAD_REACTORS
330
C
102
}
330
C
100
AcDbDictionary
281
     1
  3
Normal
350
F
100
AcDbDictionaryWithDefault
340
F
  0
DICTIONARY
  5
2A
102
{ACAD_REACTORS
330
C
102
}
330
C
100
AcDbDictionary
281
     1
  3
2dWireframe
350
2F
  3
3D Hidden
350
31
  3
3dWireframe
350
30
  3
Basic
350
32
  3
Brighten
350
36
  3
ColorChange
350
3A
  3
Conceptual
350
34
  3
Dim
350
35
  3
Facepattern
350
39
  3
Flat
350
2B
  3
FlatWithEdges
350
2C
  3
Gouraud
350
2D
  3
GouraudWithEdges
350
2E
  3
Linepattern
350
38
  3
Realistic
350
33
  3
Thicken
350
37
  0
DICTIONARY
  5
20B
102
{ACAD_REACTORS
330
C
102
}
330
C
100
AcDbDictionary
281
     1
  3
DIMASSOC
350
210
  3
HIDETEXT
350
211
  3
PSOLHEIGHT
350
20F
  3
PSOLWIDTH
350
20E
  0
LAYOUT
  5
1E
102
{ACAD_REACTORS
330
1A
102
}
330
1A
100
AcDbPlotSettings
  1

  2
none_device
  4

  6

 40
0.0
 41
0.0
 42
0.0
 43
0.0
 44
0.0
 45
0.0
 46
0.0
 47
0.0
 48
0.0
 49
0.0
140
0.0
141
0.0
142
1.0
143
1.0
 70
   688
 72
     0
 73
     0
 74
     5
  7

 75
    16
147
1.0
148
0.0
149
0.0
100
AcDbLayout
  1
Layout1
 70
     1
 71
     1
 10
0.0
 20
0.0
 11
210.0
 21
297.0
 12
0.0
 22
0.0
 32
0.0
 14
0.0
 24
0.0
 34
0.0
 15
210.0
 25
297.0
 35
0.0
146
0.0
 13
0.0
 23
0.0
 33
0.0
 16
1.0
 26
0.0
 36
0.0
 17
0.0
 27
1.0
 37
0.0
 76
     0
330
1B
  0
LAYOUT
  5
22
102
{ACAD_REACTORS
330
1A
102
}
330
1A
100
AcDbPlotSettings
  1

  2
none_device
  4

  6

 40
0.0
 41
0.0
 42
0.0
 43
0.0
 44
0.0
 45
0.0
 46
0.0
 47
0.0
 48
0.0
 49
0.0
140
0.0
141
0.0
142
1.0
143
1.0
 70
  1712
 72
     0
 73
     0
 74
     0
  7

 75
     0
147
1.0
148
0.0
149
0.0
100
AcDbLayout
  1
Model
 70
     1
 71
     0
 10
0.0
 20
0.0
 11
210.0
 21
297.0
 12
0.0
 22
0.0
 32
0.0
 14
0.0
 24
0.0
 34
0.0
 15
210.0
 25
297.0
 35
0.0
146
0.0
 13
0.0
 23
0.0
 33
0.0
 16
1.0
 26
0.0
 36
0.0
 17
0.0
 27
1.0
 37
0.0
 76
     0
330
1F
331
29
  0
MATERIAL
  5
3D
102
{ACAD_REACTORS
330
3B
102
}
102
{ACAD_XDICTIONARY
360
234
102
}
330
3B
100
AcDbMaterial
  1
ByBlock
  0
MATERIAL
  5
3C
102
{ACAD_REACTORS
330
3B
102
}
102
{ACAD_XDICTIONARY
360
232
102
}
330
3B
100
AcDbMaterial
  1
ByLayer
  0
MATERIAL
  5
3E
102
{ACAD_REACTORS
330
3B
102
}
102
{ACAD_XDICTIONARY
360
236
102
}
330
3B
100
AcDbMaterial
  1
Global
  0
MLINESTYLE
  5
18
102
{ACAD_REACTORS
330
17
102
}
330
17
100
AcDbMlineStyle
  2
Standard
 70
     0
  3

 62
   256
 51
90.0
 52
90.0
 71
     2
 49
0.5
 62
   256
  6
BYLAYER
 49
-0.5
 62
   256
  6
BYLAYER
  0
ACDBPLACEHOLDER
  5
F
102
{ACAD_REACTORS
330
E
102
}
330
E
  0
VISUALSTYLE
  5
2F
102
{ACAD_REACTORS
330
2A
102
}
102
{ACAD_XDICTIONARY
360
21A
102
}
330
2A
100
AcDbVisualStyle
  2
2dWireframe
 70
     4
 71
     0
 72
     2
 73
     0
 90
        0
 40
-0.6
 41
-30.0
 62
     5
 63
     7
 74
     1
 91
        4
 64
     7
 65
   257
 75
     1
175
     1
 42
1.0
 92
        0
 66
   257
 43
1.0
 76
     1
 77
     6
 78
     2
 67
     7
 79
     5
170
     0
171
     0
290
     0
174
     0
 93
        1
 44
0.0
173
     0
291
     0
 45
0.0
1001
ACAD
1000
AcDbSavedByObjectVersion
1070
     0
  0
VISUALSTYLE
  5
31
102
{ACAD_REACTORS
330
2A
102
}
102
{ACAD_XDICTIONARY
360
21E
102
}
330
2A
100
AcDbVisualStyle
  2
3D Hidden
 70
     6
 71
     1
 72
     2
 73
     2
 90
        0
 40
-0.6
 41
-30.0
 62
     5
 63
     7
 74
     2
 91
        2
 64
     7
 65
   257
 75
     2
175
     1
 42
40.0
 92
        0
 66
   257
 43
1.0
 76
     1
 77
     6
 78
     2
 67
     7
 79
     3
170
     0
171
     0
290
     0
174
     0
 93
        1
 44
0.0
173
     0
291
     0
 45
0.0
1001
ACAD
1000
AcDbSavedByObjectVersion
1070
     0
  0
VISUALSTYLE
  5
30
102
{ACAD_REACTORS
330
2A
102
}
102
{ACAD_XDICTIONARY
360
21C
102
}
330
2A
100
AcDbVisualStyle
  2
3dWireframe
 70
     5
 71
     0
 72
     2
 73
     0
 90
        0
 40
-0.6
 41
-30.0
 62
     5
 63
     7
 74
     1
 91
        4
 64
     7
 65
   257
 75
     1
175
     1
 42
1.0
 92
        0
 66
   257
 43
1.0
 76
     1
 77
     6
 78
     2
 67
     7
 79
     5
170
     0
171
     0
290
     0
174
     0
 93
        1
 44
0.0
173
     0
291
     0
 45
0.0
1001
ACAD
1000
AcDbSavedByObjectVersion
1070
     0
  0
VISUALSTYLE
  5
32
102
{ACAD_REACTORS
330
2A
102
}
102
{ACAD_XDICTIONARY
360
220
102
}
330
2A
100
AcDbVisualStyle
  2
Basic
 70
     7
 71
     1
 72
     0
 73
     1
 90
        0
 40
-0.6
 41
-30.0
 62
     5
 63
     7
 74
     0
 91
        4
 64
     7
 65
   257
 75
     1
175
     1
 42
1.0
 92
        8
 66
     7
 43
1.0
 76
     1
 77
     6
 78
     2
 67
     7
 79
     5
170
     0
171
     0
290
     0
174
     0
 93
        1
 44
0.0
173
     0
291
     1
 45
0.0
1001
ACAD
1000
AcDbSavedByObjectVersion
1070
     0
  0
VISUALSTYLE
  5
36
102
{ACAD_REACTORS
330
2A
102
}
102
{ACAD_XDICTIONARY
360
228
102
}
330
2A
100
AcDbVisualStyle
  2
Brighten
 70
    12
 71
     2
 72
     2
 73
     0
 90
        0
 40
-0.6
 41
-30.0
 62
     5
 63
     7
 74
     1
 91
        4
 64
     7
 65
   257
 75
     1
175
     1
 42
1.0
 92
        8
 66
     7
 43
1.0
 76
     1
 77
     6
 78
     2
 67
     7
 79
     5
170
     0
171
     0
290
     0
174
     0
 93
        1
 44
50.0
173
     0
291
     1
 45
0.0
1001
ACAD
1000
AcDbSavedByObjectVersion
1070
     0
  0
VISUALSTYLE
  5
3A
102
{ACAD_REACTORS
330
2A
102
}
102
{ACAD_XDICTIONARY
360
230
102
}
330
2A
100
AcDbVisualStyle
  2
ColorChange
 70
    16
 71
     2
 72
     2
 73
     3
 90
        0
 40
-0.6
 41
-30.0
 62
     5
 63
     8
 74
     1
 91
        4
 64
     7
 65
   257
 75
     1
175
     1
 42
1.0
 92
        8
 66
     8
 43
1.0
 76
     1
 77
     6
 78
     2
 67
     7
 79
     5
170
     0
171
     0
290
     0
174
     0
 93
        1
 44
0.0
173
     0
291
     1
 45
0.0
1001
ACAD
1000
AcDbSavedByObjectVersion
1070
     0
  0
VISUALSTYLE
  5
34
102
{ACAD_REACTORS
330
2A
102
}
102
{ACAD_XDICTIONARY
360
224
102
}
330
2A
100
AcDbVisualStyle
  2
Conceptual
 70
     9
 71
     3
 72
     2
 73
     0
 90
        0
 40
-0.6
 41
-30.0
 62
     5
 63
     7
 74
     2
 91
        2
 64
     7
 65
   257
 75
     1
175
     1
 42
40.0
 92
        8
 66
     7
 43
1.0
 76
     1
 77
     6
 78
     2
 67
     7
 79
     3
170
     0
171
     0
290
     0
174
     0
 93
        1
 44
0.0
173
     0
291
     0
 45
0.0
1001
ACAD
1000
AcDbSavedByObjectVersion
1070
     0
  0
VISUALSTYLE
  5
35
102
{ACAD_REACTORS
330
2A
102
}
102
{ACAD_XDICTIONARY
360
226
102
}
330
2A
100
AcDbVisualStyle
  2
Dim
 70
    11
 71
     2
 72
     2
 73
     0
 90
        0
 40
-0.6
 41
-30.0
 62
     5
 63
     7
 74
     1
 91
        4
 64
     7
 65
   257
 75
     1
175
     1
 42
1.0
 92
        8
 66
     7
 43
1.0
 76
     1
 77
     6
 78
     2
 67
     7
 79
     5
170
     0
171
     0
290
     0
174
     0
 93
        1
 44
-50.0
173
     0
291
     1
 45
0.0
1001
ACAD
1000
AcDbSavedByObjectVersion
1070
     0
  0
VISUALSTYLE
  5
39
102
{ACAD_REACTORS
330
2A
102
}
102
{ACAD_XDICTIONARY
360
22E
102
}
330
2A
100
AcDbVisualStyle
  2
Facepattern
 70
    15
 71
     2
 72
     2
 73
     0
 90
        0
 40
-0.6
 41
-30.0
 62
     5
 63
     7
 74
     1
 91
        4
 64
     7
 65
   257
 75
     1
175
     1
 42
1.0
 92
        8
 66
     7
 43
1.0
 76
     1
 77
     6
 78
     2
 67
     7
 79
     5
170
     0
171
     0
290
     0
174
     0
 93
        1
 44
0.0
173
     0
291
     1
 45
0.0
1001
ACAD
1000
AcDbSavedByObjectVersion
1070
     0
  0
VISUALSTYLE
  5
2B
102
{ACAD_REACTORS
330
2A
102
}
102
{ACAD_XDICTIONARY
360
212
102
}
330
2A
100
AcDbVisualStyle
  2
Flat
 70
     0
 71
     2
 72
     1
 73
     1
 90
        2
 40
-0.6
 41
30.0
 62
     5
 63
     7
 74
     0
 91
        4
 64
     7
 65
   257
 75
     1
175
     1
 42
1.0
 92
        8
 66
     7
 43
1.0
 76
     1
 77
     6
 78
     2
 67
     7
 79
     5
170
     0
171
     0
290
     0
174
     0
 93
       13
 44
0.0
173
     0
291
     1
 45
0.0
1001
ACAD
1000
AcDbSavedByObjectVersion
1070
     0
  0
VISUALSTYLE
  5
2C
102
{ACAD_REACTORS
330
2A
102
}
102
{ACAD_XDICTIONARY
360
214
102
}
330
2A
100
AcDbVisualStyle
  2
FlatWithEdges
 70
     1
 71
     2
 72
     1
 73
     1
 90
        2
 40
-0.6
 41
30.0
 62
     5
 63
     7
 74
     1
 91
        4
 64
     7
 65
   257
 75
     1
175
     1
 42
1.0
 92
        0
 66
   257
 43
1.0
 76
     1
 77
     6
 78
     2
 67
     7
 79
     5
170
     0
171
     0
290
     0
174
     0
 93
       13
 44
0.0
173
     0
291
     1
 45
0.0
1001
ACAD
1000
AcDbSavedByObjectVersion
1070
     0
  0
VISUALSTYLE
  5
2D
102
{ACAD_REACTORS
330
2A
102
}
102
{ACAD_XDICTIONARY
360
216
102
}
330
2A
100
AcDbVisualStyle
  2
Gouraud
 70
     2
 71
     2
 72
     2
 73
     1
 90
        2
 40
-0.6
 41
30.0
 62
     5
 63
     7
 74
     0
 91
        4
 64
     7
 65
   257
 75
     1
175
     1
 42
1.0
 92
        0
 66
     7
 43
1.0
 76
     1
 77
     6
 78
     2
 67
     7
 79
     5
170
     0
171
     0
290
     0
174
     0
 93
       13
 44
0.0
173
     0
291
     1
 45
0.0
1001
ACAD
1000
AcDbSavedByObjectVersion
1070
     0
  0
VISUALSTYLE
  5
2E
102
{ACAD_REACTORS
330
2A
102
}
102
{ACAD_XDICTIONARY
360
218
102
}
330
2A
100
AcDbVisualStyle
  2
GouraudWithEdges
 70
     3
 71
     2
 72
     2
 73
     1
 90
        2
 40
-0.6
 41
30.0
 62
     5
 63
     7
 74
     1
 91
        4
 64
     7
 65
   257
 75
     1
175
     1
 42
1.0
 92
        0
 66
   257
 43
1.0
 76
     1
 77
     6
 78
     2
 67
     7
 79
     5
170
     0
171
     0
290
     0
174
     0
 93
       13
 44
0.0
173
     0
291
     1
 45
0.0
1001
ACAD
1000
AcDbSavedByObjectVersion
1070
     0
  0
VISUALSTYLE
  5
38
102
{ACAD_REACTORS
330
2A
102
}
102
{ACAD_XDICTIONARY
360
22C
102
}
330
2A
100
AcDbVisualStyle
  2
Linepattern
 70
    14
 71
     2
 72
     2
 73
     0
 90
        0
 40
-0.6
 41
-30.0
 62
     5
 63
     7
 74
     1
 91
        4
 64
     7
 65
   257
 75
     7
175
     7
 42
1.0
 92
        8
 66
     7
 43
1.0
 76
     1
 77
     6
 78
     2
 67
     7
 79
     5
170
     0
171
     0
290
     0
174
     0
 93
        1
 44
0.0
173
     0
291
     1
 45
0.0
1001
ACAD
1000
AcDbSavedByObjectVersion
1070
     0
  0
VISUALSTYLE
  5
33
102
{ACAD_REACTORS
330
2A
102
}
102
{ACAD_XDICTIONARY
360
222
102
}
330
2A
100
AcDbVisualStyle
  2
Realistic
 70
     8
 71
     2
 72
     2
 73
     0
 90
        0
 40
-0.6
 41
-30.0
 62
     5
 63
     7
 74
     1
 91
        0
 64
     7
 65
   257
 75
     1
175
     1
 42
1.0
 92
        8
 66
     8
 43
1.0
 76
     1
 77
     6
 78
     2
 67
     7
 79
     5
170
     0
171
     0
290
     0
174
     0
 93
       13
 44
0.0
173
     0
291
     0
 45
0.0
1001
ACAD
1000
AcDbSavedByObjectVersion
1070
     0
  0
VISUALSTYLE
  5
37
102
{ACAD_REACTORS
330
2A
102
}
102
{ACAD_XDICTIONARY
360
22A
102
}
330
2A
100
AcDbVisualStyle
  2
Thicken
 70
    13
 71
     2
 72
     2
 73
     0
 90
        0
 40
-0.6
 41
-30.0
 62
     5
 63
     7
 74
     1
 91
        4
 64
     7
 65
   257
 75
     1
175
     1
 42
1.0
 92
       12
 66
     7
 43
1.0
 76
     1
 77
     6
 78
     2
 67
     7
 79
     5
170
     0
171
     0
290
     0
174
     0
 93
        1
 44
0.0
173
     0
291
     1
 45
0.0
1001
ACAD
1000
AcDbSavedByObjectVersion
1070
     0
  0
DICTIONARYVAR
  5
210
102
{ACAD_REACTORS
330
20B
102
}
330
20B
100
DictionaryVariables
280
     0
  1
2
  0
DICTIONARYVAR
  5
211
102
{ACAD_REACTORS
330
20B
102
}
330
20B
100
DictionaryVariables
280
     0
  1
1
  0
DICTIONARYVAR
  5
20F
102
{ACAD_REACTORS
330
20B
102
}
330
20B
100
DictionaryVariables
280
     0
  1
80.000000
  0
DICTIONARYVAR
  5
20E
102
{ACAD_REACTORS
330
20B
102
}
330
20B
100
DictionaryVariables
280
     0
  1
5.000000
  0
DICTIONARY
  5
234
330
3D
100
AcDbDictionary
280
     1
281
     1
  3
ACAD_XREC_ROUNDTRIP
360
235
  0
DICTIONARY
  5
232
330
3C
100
AcDbDictionary
280
     1
281
     1
  3
ACAD_XREC_ROUNDTRIP
360
233
  0
DICTIONARY
  5
236
330
3E
100
AcDbDictionary
280
     1
281
     1
  3
ACAD_XREC_ROUNDTRIP
360
237
  0
DICTIONARY
  5
21A
330
2F
100
AcDbDictionary
280
     1
281
     1
  3
ACAD_XREC_ROUNDTRIP
360
21B
  0
DICTIONARY
  5
21E
330
31
100
AcDbDictionary
280
     1
281
     1
  3
ACAD_XREC_ROUNDTRIP
360
21F
  0
DICTIONARY
  5
21C
330
30
100
AcDbDictionary
280
     1
281
     1
  3
ACAD_XREC_ROUNDTRIP
360
21D
  0
DICTIONARY
  5
220
330
32
100
AcDbDictionary
280
     1
281
     1
  3
ACAD_XREC_ROUNDTRIP
360
221
  0
DICTIONARY
  5
228
330
36
100
AcDbDictionary
280
     1
281
     1
  3
ACAD_XREC_ROUNDTRIP
360
229
  0
DICTIONARY
  5
230
330
3A
100
AcDbDictionary
280
     1
281
     1
  3
ACAD_XREC_ROUNDTRIP
360
231
  0
DICTIONARY
  5
224
330
34
100
AcDbDictionary
280
     1
281
     1
  3
ACAD_XREC_ROUNDTRIP
360
225
  0
DICTIONARY
  5
226
330
35
100
AcDbDictionary
280
     1
281
     1
  3
ACAD_XREC_ROUNDTRIP
360
227
  0
DICTIONARY
  5
22E
330
39
100
AcDbDictionary
280
     1
281
     1
  3
ACAD_XREC_ROUNDTRIP
360
22F
  0
DICTIONARY
  5
212
330
2B
100
AcDbDictionary
280
     1
281
     1
  3
ACAD_XREC_ROUNDTRIP
360
213
  0
DICTIONARY
  5
214
330
2C
100
AcDbDictionary
280
     1
281
     1
  3
ACAD_XREC_ROUNDTRIP
360
215
  0
DICTIONARY
  5
216
330
2D
100
AcDbDictionary
280
     1
281
     1
  3
ACAD_XREC_ROUNDTRIP
360
217
  0
DICTIONARY
  5
218
330
2E
100
AcDbDictionary
280
     1
281
     1
  3
ACAD_XREC_ROUNDTRIP
360
219
  0
DICTIONARY
  5
22C
330
38
100
AcDbDictionary
280
     1
281
     1
  3
ACAD_XREC_ROUNDTRIP
360
22D
  0
DICTIONARY
  5
222
330
33
100
AcDbDictionary
280
     1
281
     1
  3
ACAD_XREC_ROUNDTRIP
360
223
  0
DICTIONARY
  5
22A
330
37
100
AcDbDictionary
280
     1
281
     1
  3
ACAD_XREC_ROUNDTRIP
360
22B
  0
XRECORD
  5
235
102
{ACAD_REACTORS
330
234
102
}
330
234
100
AcDbXrecord
280
     1
102
MATERIAL
148
0.0
149
0.0
149
0.0
 93
        0
 94
      127
282
     0
 72
     1
 77
     1
171
     1
175
     1
179
     1
273
     0
  0
XRECORD
  5
233
102
{ACAD_REACTORS
330
232
102
}
330
232
100
AcDbXrecord
280
     1
102
MATERIAL
148
0.0
149
0.0
149
0.0
 93
        0
 94
      127
282
     0
 72
     1
 77
     1
171
     1
175
     1
179
     1
273
     0
  0
XRECORD
  5
237
102
{ACAD_REACTORS
330
236
102
}
330
236
100
AcDbXrecord
280
     1
102
MATERIAL
148
0.0
149
0.0
149
0.0
 93
        0
 94
      127
282
     0
 72
     1
 77
     1
171
     1
175
     1
179
     1
273
     0
  0
XRECORD
  5
21B
102
{ACAD_REACTORS
330
21A
102
}
330
21A
100
AcDbXrecord
280
     1
102
RTVSPropertyOp0
 70
     1
102
RTVSPropertyOp1
 70
     1
102
RTVSPropertyOp2
 70
     1
102
RTVSPropertyOp3
 70
     1
102
RTVSPropertyOp4
 70
     1
102
RTVSPropertyOp5
 70
     1
102
RTVSPropertyOp6
 70
     1
102
RTVSPropertyOp7
 70
     1
102
RTVSPropertyOp8
 70
     1
102
RTVSPropertyOp9
 70
     1
102
RTVSPropertyOp10
 70
     1
102
RTVSPropertyOp11
 70
     1
102
RTVSPropertyOp12
 70
     1
102
RTVSPropertyOp13
 70
     1
102
RTVSPropertyOp14
 70
     1
102
RTVSPropertyOp15
 70
     1
102
RTVSPropertyOp16
 70
     1
102
RTVSPropertyOp17
 70
     1
102
RTVSPropertyOp18
 70
     1
102
RTVSPropertyOp19
 70
     1
102
RTVSPropertyOp20
 70
     1
102
RTVSPropertyOp21
 70
     1
102
RTVSPropertyOp22
 70
     1
102
RTVSPropertyOp23
 70
     1
102
RTVSPropertyOp24
 70
     1
102
RTVSPropertyOp25
 70
     1
102
RTVSPropertyOp26
 70
     1
102
RTVSPropertyOp27
 70
     1
102
RTVSPropertyOp28
 70
     1
102
RTVSPropertyOp29
 70
     1
102
RTVSPropertyOp30
 70
     1
102
RTVSPropertyOp31
 70
     1
102
RTVSPropertyOp32
 70
     1
  0
XRECORD
  5
21F
102
{ACAD_REACTORS
330
21E
102
}
330
21E
100
AcDbXrecord
280
     1
102
RTVSPropertyOp0
 70
     1
102
RTVSPropertyOp1
 70
     1
102
RTVSPropertyOp2
 70
     1
102
RTVSPropertyOp3
 70
     1
102
RTVSPropertyOp4
 70
     1
102
RTVSPropertyOp5
 70
     1
102
RTVSPropertyOp6
 70
     1
102
RTVSPropertyOp7
 70
     1
102
RTVSPropertyOp8
 70
     1
102
RTVSPropertyOp9
 70
     1
102
RTVSPropertyOp10
 70
     1
102
RTVSPropertyOp11
 70
     1
102
RTVSPropertyOp12
 70
     1
102
RTVSPropertyOp13
 70
     1
102
RTVSPropertyOp14
 70
     1
102
RTVSPropertyOp15
 70
     1
102
RTVSPropertyOp16
 70
     1
102
RTVSPropertyOp17
 70
     1
102
RTVSPropertyOp18
 70
     1
102
RTVSPropertyOp19
 70
     1
102
RTVSPropertyOp20
 70
     1
102
RTVSPropertyOp21
 70
     1
102
RTVSPropertyOp22
 70
     1
102
RTVSPropertyOp23
 70
     1
102
RTVSPropertyOp24
 70
     1
102
RTVSPropertyOp25
 70
     1
102
RTVSPropertyOp26
 70
     1
102
RTVSPropertyOp27
 70
     1
102
RTVSPropertyOp28
 70
     1
102
RTVSPropertyOp29
 70
     1
102
RTVSPropertyOp30
 70
     1
102
RTVSPropertyOp31
 70
     1
102
RTVSPropertyOp32
 70
     1
  0
XRECORD
  5
21D
102
{ACAD_REACTORS
330
21C
102
}
330
21C
100
AcDbXrecord
280
     1
102
RTVSPropertyOp0
 70
     1
102
RTVSPropertyOp1
 70
     1
102
RTVSPropertyOp2
 70
     1
102
RTVSPropertyOp3
 70
     1
102
RTVSPropertyOp4
 70
     1
102
RTVSPropertyOp5
 70
     1
102
RTVSPropertyOp6
 70
     1
102
RTVSPropertyOp7
 70
     1
102
RTVSPropertyOp8
 70
     1
102
RTVSPropertyOp9
 70
     1
102
RTVSPropertyOp10
 70
     1
102
RTVSPropertyOp11
 70
     1
102
RTVSPropertyOp12
 70
     1
102
RTVSPropertyOp13
 70
     1
102
RTVSPropertyOp14
 70
     1
102
RTVSPropertyOp15
 70
     1
102
RTVSPropertyOp16
 70
     1
102
RTVSPropertyOp17
 70
     1
102
RTVSPropertyOp18
 70
     1
102
RTVSPropertyOp19
 70
     1
102
RTVSPropertyOp20
 70
     1
102
RTVSPropertyOp21
 70
     1
102
RTVSPropertyOp22
 70
     1
102
RTVSPropertyOp23
 70
     1
102
RTVSPropertyOp24
 70
     1
102
RTVSPropertyOp25
 70
     1
102
RTVSPropertyOp26
 70
     1
102
RTVSPropertyOp27
 70
     1
102
RTVSPropertyOp28
 70
     1
102
RTVSPropertyOp29
 70
     1
102
RTVSPropertyOp30
 70
     1
102
RTVSPropertyOp31
 70
     1
102
RTVSPropertyOp32
 70
     1
  0
XRECORD
  5
221
102
{ACAD_REACTORS
330
220
102
}
330
220
100
AcDbXrecord
280
     1
102
RTVSPropertyOp0
 70
     1
102
RTVSPropertyOp1
 70
     1
102
RTVSPropertyOp2
 70
     1
102
RTVSPropertyOp3
 70
     1
102
RTVSPropertyOp4
 70
     1
102
RTVSPropertyOp5
 70
     1
102
RTVSPropertyOp6
 70
     1
102
RTVSPropertyOp7
 70
     1
102
RTVSPropertyOp8
 70
     1
102
RTVSPropertyOp9
 70
     1
102
RTVSPropertyOp10
 70
     1
102
RTVSPropertyOp11
 70
     1
102
RTVSPropertyOp12
 70
     1
102
RTVSPropertyOp13
 70
     1
102
RTVSPropertyOp14
 70
     1
102
RTVSPropertyOp15
 70
     1
102
RTVSPropertyOp16
 70
     1
102
RTVSPropertyOp17
 70
     1
102
RTVSPropertyOp18
 70
     1
102
RTVSPropertyOp19
 70
     1
102
RTVSPropertyOp20
 70
     1
102
RTVSPropertyOp21
 70
     1
102
RTVSPropertyOp22
 70
     1
102
RTVSPropertyOp23
 70
     1
102
RTVSPropertyOp24
 70
     1
102
RTVSPropertyOp25
 70
     1
102
RTVSPropertyOp26
 70
     1
102
RTVSPropertyOp27
 70
     1
102
RTVSPropertyOp28
 70
     1
102
RTVSPropertyOp29
 70
     1
102
RTVSPropertyOp30
 70
     1
102
RTVSPropertyOp31
 70
     1
102
RTVSPropertyOp32
 70
     1
  0
XRECORD
  5
229
102
{ACAD_REACTORS
330
228
102
}
330
228
100
AcDbXrecord
280
     1
102
RTVSPropertyOp0
 70
     1
102
RTVSPropertyOp1
 70
     1
102
RTVSPropertyOp2
 70
     1
102
RTVSPropertyOp3
 70
     1
102
RTVSPropertyOp4
 70
     1
102
RTVSPropertyOp5
 70
     1
102
RTVSPropertyOp6
 70
     1
102
RTVSPropertyOp7
 70
     1
102
RTVSPropertyOp8
 70
     1
102
RTVSPropertyOp9
 70
     1
102
RTVSPropertyOp10
 70
     1
102
RTVSPropertyOp11
 70
     1
102
RTVSPropertyOp12
 70
     1
102
RTVSPropertyOp13
 70
     1
102
RTVSPropertyOp14
 70
     1
102
RTVSPropertyOp15
 70
     1
102
RTVSPropertyOp16
 70
     1
102
RTVSPropertyOp17
 70
     1
102
RTVSPropertyOp18
 70
     1
102
RTVSPropertyOp19
 70
     1
102
RTVSPropertyOp20
 70
     1
102
RTVSPropertyOp21
 70
     1
102
RTVSPropertyOp22
 70
     1
102
RTVSPropertyOp23
 70
     1
102
RTVSPropertyOp24
 70
     1
102
RTVSPropertyOp25
 70
     1
102
RTVSPropertyOp26
 70
     1
102
RTVSPropertyOp27
 70
     1
102
RTVSPropertyOp28
 70
     1
102
RTVSPropertyOp29
 70
     1
102
RTVSPropertyOp30
 70
     1
102
RTVSPropertyOp31
 70
     1
102
RTVSPropertyOp32
 70
     1
  0
XRECORD
  5
231
102
{ACAD_REACTORS
330
230
102
}
330
230
100
AcDbXrecord
280
     1
102
RTVSPropertyOp0
 70
     1
102
RTVSPropertyOp1
 70
     1
102
RTVSPropertyOp2
 70
     1
102
RTVSPropertyOp3
 70
     1
102
RTVSPropertyOp4
 70
     1
102
RTVSPropertyOp5
 70
     1
102
RTVSPropertyOp6
 70
     1
102
RTVSPropertyOp7
 70
     1
102
RTVSPropertyOp8
 70
     1
102
RTVSPropertyOp9
 70
     1
102
RTVSPropertyOp10
 70
     1
102
RTVSPropertyOp11
 70
     1
102
RTVSPropertyOp12
 70
     1
102
RTVSPropertyOp13
 70
     1
102
RTVSPropertyOp14
 70
     1
102
RTVSPropertyOp15
 70
     1
102
RTVSPropertyOp16
 70
     1
102
RTVSPropertyOp17
 70
     1
102
RTVSPropertyOp18
 70
     1
102
RTVSPropertyOp19
 70
     1
102
RTVSPropertyOp20
 70
     1
102
RTVSPropertyOp21
 70
     1
102
RTVSPropertyOp22
 70
     1
102
RTVSPropertyOp23
 70
     1
102
RTVSPropertyOp24
 70
     1
102
RTVSPropertyOp25
 70
     1
102
RTVSPropertyOp26
 70
     1
102
RTVSPropertyOp27
 70
     1
102
RTVSPropertyOp28
 70
     1
102
RTVSPropertyOp29
 70
     1
102
RTVSPropertyOp30
 70
     1
102
RTVSPropertyOp31
 70
     1
102
RTVSPropertyOp32
 70
     1
  0
XRECORD
  5
225
102
{ACAD_REACTORS
330
224
102
}
330
224
100
AcDbXrecord
280
     1
102
RTVSPropertyOp0
 70
     1
102
RTVSPropertyOp1
 70
     1
102
RTVSPropertyOp2
 70
     1
102
RTVSPropertyOp3
 70
     1
102
RTVSPropertyOp4
 70
     1
102
RTVSPropertyOp5
 70
     1
102
RTVSPropertyOp6
 70
     1
102
RTVSPropertyOp7
 70
     1
102
RTVSPropertyOp8
 70
     1
102
RTVSPropertyOp9
 70
     1
102
RTVSPropertyOp10
 70
     1
102
RTVSPropertyOp11
 70
     1
102
RTVSPropertyOp12
 70
     1
102
RTVSPropertyOp13
 70
     1
102
RTVSPropertyOp14
 70
     1
102
RTVSPropertyOp15
 70
     1
102
RTVSPropertyOp16
 70
     1
102
RTVSPropertyOp17
 70
     1
102
RTVSPropertyOp18
 70
     1
102
RTVSPropertyOp19
 70
     1
102
RTVSPropertyOp20
 70
     1
102
RTVSPropertyOp21
 70
     1
102
RTVSPropertyOp22
 70
     1
102
RTVSPropertyOp23
 70
     1
102
RTVSPropertyOp24
 70
     1
102
RTVSPropertyOp25
 70
     1
102
RTVSPropertyOp26
 70
     1
102
RTVSPropertyOp27
 70
     1
102
RTVSPropertyOp28
 70
     1
102
RTVSPropertyOp29
 70
     1
102
RTVSPropertyOp30
 70
     1
102
RTVSPropertyOp31
 70
     1
102
RTVSPropertyOp32
 70
     1
  0
XRECORD
  5
227
102
{ACAD_REACTORS
330
226
102
}
330
226
100
AcDbXrecord
280
     1
102
RTVSPropertyOp0
 70
     1
102
RTVSPropertyOp1
 70
     1
102
RTVSPropertyOp2
 70
     1
102
RTVSPropertyOp3
 70
     1
102
RTVSPropertyOp4
 70
     1
102
RTVSPropertyOp5
 70
     1
102
RTVSPropertyOp6
 70
     1
102
RTVSPropertyOp7
 70
     1
102
RTVSPropertyOp8
 70
     1
102
RTVSPropertyOp9
 70
     1
102
RTVSPropertyOp10
 70
     1
102
RTVSPropertyOp11
 70
     1
102
RTVSPropertyOp12
 70
     1
102
RTVSPropertyOp13
 70
     1
102
RTVSPropertyOp14
 70
     1
102
RTVSPropertyOp15
 70
     1
102
RTVSPropertyOp16
 70
     1
102
RTVSPropertyOp17
 70
     1
102
RTVSPropertyOp18
 70
     1
102
RTVSPropertyOp19
 70
     1
102
RTVSPropertyOp20
 70
     1
102
RTVSPropertyOp21
 70
     1
102
RTVSPropertyOp22
 70
     1
102
RTVSPropertyOp23
 70
     1
102
RTVSPropertyOp24
 70
     1
102
RTVSPropertyOp25
 70
     1
102
RTVSPropertyOp26
 70
     1
102
RTVSPropertyOp27
 70
     1
102
RTVSPropertyOp28
 70
     1
102
RTVSPropertyOp29
 70
     1
102
RTVSPropertyOp30
 70
     1
102
RTVSPropertyOp31
 70
     1
102
RTVSPropertyOp32
 70
     1
  0
XRECORD
  5
22F
102
{ACAD_REACTORS
330
22E
102
}
330
22E
100
AcDbXrecord
280
     1
102
RTVSPropertyOp0
 70
     1
102
RTVSPropertyOp1
 70
     1
102
RTVSPropertyOp2
 70
     1
102
RTVSPropertyOp3
 70
     1
102
RTVSPropertyOp4
 70
     1
102
RTVSPropertyOp5
 70
     1
102
RTVSPropertyOp6
 70
     1
102
RTVSPropertyOp7
 70
     1
102
RTVSPropertyOp8
 70
     1
102
RTVSPropertyOp9
 70
     1
102
RTVSPropertyOp10
 70
     1
102
RTVSPropertyOp11
 70
     1
102
RTVSPropertyOp12
 70
     1
102
RTVSPropertyOp13
 70
     1
102
RTVSPropertyOp14
 70
     1
102
RTVSPropertyOp15
 70
     1
102
RTVSPropertyOp16
 70
     1
102
RTVSPropertyOp17
 70
     1
102
RTVSPropertyOp18
 70
     1
102
RTVSPropertyOp19
 70
     1
102
RTVSPropertyOp20
 70
     1
102
RTVSPropertyOp21
 70
     1
102
RTVSPropertyOp22
 70
     1
102
RTVSPropertyOp23
 70
     1
102
RTVSPropertyOp24
 70
     1
102
RTVSPropertyOp25
 70
     1
102
RTVSPropertyOp26
 70
     1
102
RTVSPropertyOp27
 70
     1
102
RTVSPropertyOp28
 70
     1
102
RTVSPropertyOp29
 70
     1
102
RTVSPropertyOp30
 70
     1
102
RTVSPropertyOp31
 70
     1
102
RTVSPropertyOp32
 70
     1
  0
XRECORD
  5
213
102
{ACAD_REACTORS
330
212
102
}
330
212
100
AcDbXrecord
280
     1
102
RTVSPropertyOp0
 70
     1
102
RTVSPropertyOp1
 70
     1
102
RTVSPropertyOp2
 70
     1
102
RTVSPropertyOp3
 70
     1
102
RTVSPropertyOp4
 70
     1
102
RTVSPropertyOp5
 70
     1
102
RTVSPropertyOp6
 70
     1
102
RTVSPropertyOp7
 70
     1
102
RTVSPropertyOp8
 70
     1
102
RTVSPropertyOp9
 70
     1
102
RTVSPropertyOp10
 70
     1
102
RTVSPropertyOp11
 70
     1
102
RTVSPropertyOp12
 70
     1
102
RTVSPropertyOp13
 70
     1
102
RTVSPropertyOp14
 70
     1
102
RTVSPropertyOp15
 70
     1
102
RTVSPropertyOp16
 70
     1
102
RTVSPropertyOp17
 70
     1
102
RTVSPropertyOp18
 70
     1
102
RTVSPropertyOp19
 70
     1
102
RTVSPropertyOp20
 70
     1
102
RTVSPropertyOp21
 70
     1
102
RTVSPropertyOp22
 70
     1
102
RTVSPropertyOp23
 70
     1
102
RTVSPropertyOp24
 70
     1
102
RTVSPropertyOp25
 70
     1
102
RTVSPropertyOp26
 70
     1
102
RTVSPropertyOp27
 70
     1
102
RTVSPropertyOp28
 70
     1
102
RTVSPropertyOp29
 70
     1
102
RTVSPropertyOp30
 70
     1
102
RTVSPropertyOp31
 70
     1
102
RTVSPropertyOp32
 70
     1
  0
XRECORD
  5
215
102
{ACAD_REACTORS
330
214
102
}
330
214
100
AcDbXrecord
280
     1
102
RTVSPropertyOp0
 70
     1
102
RTVSPropertyOp1
 70
     1
102
RTVSPropertyOp2
 70
     1
102
RTVSPropertyOp3
 70
     1
102
RTVSPropertyOp4
 70
     1
102
RTVSPropertyOp5
 70
     1
102
RTVSPropertyOp6
 70
     1
102
RTVSPropertyOp7
 70
     1
102
RTVSPropertyOp8
 70
     1
102
RTVSPropertyOp9
 70
     1
102
RTVSPropertyOp10
 70
     1
102
RTVSPropertyOp11
 70
     1
102
RTVSPropertyOp12
 70
     1
102
RTVSPropertyOp13
 70
     1
102
RTVSPropertyOp14
 70
     1
102
RTVSPropertyOp15
 70
     1
102
RTVSPropertyOp16
 70
     1
102
RTVSPropertyOp17
 70
     1
102
RTVSPropertyOp18
 70
     1
102
RTVSPropertyOp19
 70
     1
102
RTVSPropertyOp20
 70
     1
102
RTVSPropertyOp21
 70
     1
102
RTVSPropertyOp22
 70
     1
102
RTVSPropertyOp23
 70
     1
102
RTVSPropertyOp24
 70
     1
102
RTVSPropertyOp25
 70
     1
102
RTVSPropertyOp26
 70
     1
102
RTVSPropertyOp27
 70
     1
102
RTVSPropertyOp28
 70
     1
102
RTVSPropertyOp29
 70
     1
102
RTVSPropertyOp30
 70
     1
102
RTVSPropertyOp31
 70
     1
102
RTVSPropertyOp32
 70
     1
  0
XRECORD
  5
217
102
{ACAD_REACTORS
330
216
102
}
330
216
100
AcDbXrecord
280
     1
102
RTVSPropertyOp0
 70
     1
102
RTVSPropertyOp1
 70
     1
102
RTVSPropertyOp2
 70
     1
102
RTVSPropertyOp3
 70
     1
102
RTVSPropertyOp4
 70
     1
102
RTVSPropertyOp5
 70
     1
102
RTVSPropertyOp6
 70
     1
102
RTVSPropertyOp7
 70
     1
102
RTVSPropertyOp8
 70
     1
102
RTVSPropertyOp9
 70
     1
102
RTVSPropertyOp10
 70
     1
102
RTVSPropertyOp11
 70
     1
102
RTVSPropertyOp12
 70
     1
102
RTVSPropertyOp13
 70
     1
102
RTVSPropertyOp14
 70
     1
102
RTVSPropertyOp15
 70
     1
102
RTVSPropertyOp16
 70
     1
102
RTVSPropertyOp17
 70
     1
102
RTVSPropertyOp18
 70
     1
102
RTVSPropertyOp19
 70
     1
102
RTVSPropertyOp20
 70
     1
102
RTVSPropertyOp21
 70
     1
102
RTVSPropertyOp22
 70
     1
102
RTVSPropertyOp23
 70
     1
102
RTVSPropertyOp24
 70
     1
102
RTVSPropertyOp25
 70
     1
102
RTVSPropertyOp26
 70
     1
102
RTVSPropertyOp27
 70
     1
102
RTVSPropertyOp28
 70
     1
102
RTVSPropertyOp29
 70
     1
102
RTVSPropertyOp30
 70
     1
102
RTVSPropertyOp31
 70
     1
102
RTVSPropertyOp32
 70
     1
  0
XRECORD
  5
219
102
{ACAD_REACTORS
330
218
102
}
330
218
100
AcDbXrecord
280
     1
102
RTVSPropertyOp0
 70
     1
102
RTVSPropertyOp1
 70
     1
102
RTVSPropertyOp2
 70
     1
102
RTVSPropertyOp3
 70
     1
102
RTVSPropertyOp4
 70
     1
102
RTVSPropertyOp5
 70
     1
102
RTVSPropertyOp6
 70
     1
102
RTVSPropertyOp7
 70
     1
102
RTVSPropertyOp8
 70
     1
102
RTVSPropertyOp9
 70
     1
102
RTVSPropertyOp10
 70
     1
102
RTVSPropertyOp11
 70
     1
102
RTVSPropertyOp12
 70
     1
102
RTVSPropertyOp13
 70
     1
102
RTVSPropertyOp14
 70
     1
102
RTVSPropertyOp15
 70
     1
102
RTVSPropertyOp16
 70
     1
102
RTVSPropertyOp17
 70
     1
102
RTVSPropertyOp18
 70
     1
102
RTVSPropertyOp19
 70
     1
102
RTVSPropertyOp20
 70
     1
102
RTVSPropertyOp21
 70
     1
102
RTVSPropertyOp22
 70
     1
102
RTVSPropertyOp23
 70
     1
102
RTVSPropertyOp24
 70
     1
102
RTVSPropertyOp25
 70
     1
102
RTVSPropertyOp26
 70
     1
102
RTVSPropertyOp27
 70
     1
102
RTVSPropertyOp28
 70
     1
102
RTVSPropertyOp29
 70
     1
102
RTVSPropertyOp30
 70
     1
102
RTVSPropertyOp31
 70
     1
102
RTVSPropertyOp32
 70
     1
  0
XRECORD
  5
22D
102
{ACAD_REACTORS
330
22C
102
}
330
22C
100
AcDbXrecord
280
     1
102
RTVSPropertyOp0
 70
     1
102
RTVSPropertyOp1
 70
     1
102
RTVSPropertyOp2
 70
     1
102
RTVSPropertyOp3
 70
     1
102
RTVSPropertyOp4
 70
     1
102
RTVSPropertyOp5
 70
     1
102
RTVSPropertyOp6
 70
     1
102
RTVSPropertyOp7
 70
     1
102
RTVSPropertyOp8
 70
     1
102
RTVSPropertyOp9
 70
     1
102
RTVSPropertyOp10
 70
     1
102
RTVSPropertyOp11
 70
     1
102
RTVSPropertyOp12
 70
     1
102
RTVSPropertyOp13
 70
     1
102
RTVSPropertyOp14
 70
     1
102
RTVSPropertyOp15
 70
     1
102
RTVSPropertyOp16
 70
     1
102
RTVSPropertyOp17
 70
     1
102
RTVSPropertyOp18
 70
     1
102
RTVSPropertyOp19
 70
     1
102
RTVSPropertyOp20
 70
     1
102
RTVSPropertyOp21
 70
     1
102
RTVSPropertyOp22
 70
     1
102
RTVSPropertyOp23
 70
     1
102
RTVSPropertyOp24
 70
     1
102
RTVSPropertyOp25
 70
     1
102
RTVSPropertyOp26
 70
     1
102
RTVSPropertyOp27
 70
     1
102
RTVSPropertyOp28
 70
     1
102
RTVSPropertyOp29
 70
     1
102
RTVSPropertyOp30
 70
     1
102
RTVSPropertyOp31
 70
     1
102
RTVSPropertyOp32
 70
     1
  0
XRECORD
  5
223
102
{ACAD_REACTORS
330
222
102
}
330
222
100
AcDbXrecord
280
     1
102
RTVSPropertyOp0
 70
     1
102
RTVSPropertyOp1
 70
     1
102
RTVSPropertyOp2
 70
     1
102
RTVSPropertyOp3
 70
     1
102
RTVSPropertyOp4
 70
     1
102
RTVSPropertyOp5
 70
     1
102
RTVSPropertyOp6
 70
     1
102
RTVSPropertyOp7
 70
     1
102
RTVSPropertyOp8
 70
     1
102
RTVSPropertyOp9
 70
     1
102
RTVSPropertyOp10
 70
     1
102
RTVSPropertyOp11
 70
     1
102
RTVSPropertyOp12
 70
     1
102
RTVSPropertyOp13
 70
     1
102
RTVSPropertyOp14
 70
     1
102
RTVSPropertyOp15
 70
     1
102
RTVSPropertyOp16
 70
     1
102
RTVSPropertyOp17
 70
     1
102
RTVSPropertyOp18
 70
     1
102
RTVSPropertyOp19
 70
     1
102
RTVSPropertyOp20
 70
     1
102
RTVSPropertyOp21
 70
     1
102
RTVSPropertyOp22
 70
     1
102
RTVSPropertyOp23
 70
     1
102
RTVSPropertyOp24
 70
     1
102
RTVSPropertyOp25
 70
     1
102
RTVSPropertyOp26
 70
     1
102
RTVSPropertyOp27
 70
     1
102
RTVSPropertyOp28
 70
     1
102
RTVSPropertyOp29
 70
     1
102
RTVSPropertyOp30
 70
     1
102
RTVSPropertyOp31
 70
     1
102
RTVSPropertyOp32
 70
     1
  0
XRECORD
  5
22B
102
{ACAD_REACTORS
330
22A
102
}
330
22A
100
AcDbXrecord
280
     1
102
RTVSPropertyOp0
 70
     1
102
RTVSPropertyOp1
 70
     1
102
RTVSPropertyOp2
 70
     1
102
RTVSPropertyOp3
 70
     1
102
RTVSPropertyOp4
 70
     1
102
RTVSPropertyOp5
 70
     1
102
RTVSPropertyOp6
 70
     1
102
RTVSPropertyOp7
 70
     1
102
RTVSPropertyOp8
 70
     1
102
RTVSPropertyOp9
 70
     1
102
RTVSPropertyOp10
 70
     1
102
RTVSPropertyOp11
 70
     1
102
RTVSPropertyOp12
 70
     1
102
RTVSPropertyOp13
 70
     1
102
RTVSPropertyOp14
 70
     1
102
RTVSPropertyOp15
 70
     1
102
RTVSPropertyOp16
 70
     1
102
RTVSPropertyOp17
 70
     1
102
RTVSPropertyOp18
 70
     1
102
RTVSPropertyOp19
 70
     1
102
RTVSPropertyOp20
 70
     1
102
RTVSPropertyOp21
 70
     1
102
RTVSPropertyOp22
 70
     1
102
RTVSPropertyOp23
 70
     1
102
RTVSPropertyOp24
 70
     1
102
RTVSPropertyOp25
 70
     1
102
RTVSPropertyOp26
 70
     1
102
RTVSPropertyOp27
 70
     1
102
RTVSPropertyOp28
 70
     1
102
RTVSPropertyOp29
 70
     1
102
RTVSPropertyOp30
 70
     1
102
RTVSPropertyOp31
 70
     1
102
RTVSPropertyOp32
 70
     1
  0
ENDSEC
  0
EOF
