  0
SECTION
  2
HEADER
  9
$ACADVER
  1
AC1015
  9
$ACADMAINTVER
 70
     6
  9
$DWGCODEPAGE
  3
ANSI_1252
  9
$INSBASE
 10
0.0
 20
0.0
 30
0.0
  9
$EXTMIN
 10
0.0
 20
0.0
 30
0.0
  9
$EXTMAX
 10
210.0
 20
297.0
 30
0.0
  9
$LIMMIN
 10
0.0
 20
0.0
  9
$LIMMAX
 10
210.0
 20
297.0
  9
$ORTHOMODE
 70
     0
  9
$REGENMODE
 70
     1
  9
$FILLMODE
 70
     1
  9
$QTEXTMODE
 70
     0
  9
$MIRRTEXT
 70
     1
  9
$LTSCALE
 40
1.0
  9
$ATTMODE
 70
     1
  9
$TEXTSIZE
 40
2.5
  9
$TRACEWID
 40
1.0
  9
$TEXTSTYLE
  7
Standard
  9
$CLAYER
  8
0
  9
$CELTYPE
  6
ByLayer
  9
$CECOLOR
 62
   256
  9
$CELTSCALE
 40
1.0
  9
$DISPSILH
 70
     0
  9
$DIMSCALE
 40
1.0
  9
$DIMASZ
 40
2.5
  9
$DIMEXO
 40
0.625
  9
$DIMDLI
 40
3.75
  9
$DIMRND
 40
0.0
  9
$DIMDLE
 40
0.0
  9
$DIMEXE
 40
1.25
  9
$DIMTP
 40
0.0
  9
$DIMTM
 40
0.0
  9
$DIMTXT
 40
2.5
  9
$DIMCEN
 40
2.5
  9
$DIMTSZ
 40
0.0
  9
$DIMTOL
 70
     0
  9
$DIMLIM
 70
     0
  9
$DIMTIH
 70
     0
  9
$DIMTOH
 70
     0
  9
$DIMSE1
 70
     0
  9
$DIMSE2
 70
     0
  9
$DIMTAD
 70
     1
  9
$DIMZIN
 70
     8
  9
$DIMBLK
  1

  9
$DIMASO
 70
     1
  9
$DIMSHO
 70
     1
  9
$DIMPOST
  1

  9
$DIMAPOST
  1

  9
$DIMALT
 70
     0
  9
$DIMALTD
 70
     3
  9
$DIMALTF
 40
0.0393700787
  9
$DIMLFAC
 40
1.0
  9
$DIMTOFL
 70
     1
  9
$DIMTVP
 40
0.0
  9
$DIMTIX
 70
     0
  9
$DIMSOXD
 70
     0
  9
$DIMSAH
 70
     0
  9
$DIMBLK1
  1

  9
$DIMBLK2
  1

  9
$DIMSTYLE
  2
ISO-25
  9
$DIMCLRD
 70
     0
  9
$DIMCLRE
 70
     0
  9
$DIMCLRT
 70
     0
  9
$DIMTFAC
 40
1.0
  9
$DIMGAP
 40
0.625
  9
$DIMJUST
 70
     0
  9
$DIMSD1
 70
     0
  9
$DIMSD2
 70
     0
  9
$DIMTOLJ
 70
     0
  9
$DIMTZIN
 70
     8
  9
$DIMALTZ
 70
     0
  9
$DIMALTTZ
 70
     0
  9
$DIMUPT
 70
     0
  9
$DIMDEC
 70
     2
  9
$DIMTDEC
 70
     2
  9
$DIMALTU
 70
     2
  9
$DIMALTTD
 70
     3
  9
$DIMTXSTY
  7
Standard
  9
$DIMAUNIT
 70
     0
  9
$DIMADEC
 70
     0
  9
$DIMALTRND
 40
0.0
  9
$DIMAZIN
 70
     0
  9
$DIMDSEP
 70
    44
  9
$DIMATFIT
 70
     3
  9
$DIMFRAC
 70
     0
  9
$DIMLDRBLK
  1

  9
$DIMLUNIT
 70
     2
  9
$DIMLWD
 70
    -2
  9
$DIMLWE
 70
    -2
  9
$DIMTMOVE
 70
     0
  9
$LUNITS
 70
     2
  9
$LUPREC
 70
     4
  9
$SKETCHINC
 40
1.0
  9
$FILLETRAD
 40
10.0
  9
$AUNITS
 70
     0
  9
$AUPREC
 70
     0
  9
$MENU
  1
.
  9
$ELEVATION
 40
0.0
  9
$PELEVATION
 40
0.0
  9
$THICKNESS
 40
0.0
  9
$LIMCHECK
 70
     0
  9
$CHAMFERA
 40
10.0
  9
$CHAMFERB
 40
10.0
  9
$CHAMFERC
 40
20.0
  9
$CHAMFERD
 40
0.0
  9
$SKPOLY
 70
     0
  9
$TDCREATE
 40
2457569.432685602
  9
$TDUCREATE
 40
2457569.349352269
  9
$TDUPDATE
 40
2457569.432796875
  9
$TDUUPDATE
 40
2457569.349463542
  9
$TDINDWG
 40
0.0000000116
  9
$TDUSRTIMER
 40
0.0000000116
  9
$USRTIMER
 70
     1
  9
$ANGBASE
 50
0.0
  9
$ANGDIR
 70
     0
  9
$PDMODE
 70
     0
  9
$PDSIZE
 40
0.0
  9
$PLINEWID
 40
0.0
  9
$SPLFRAME
 70
     0
  9
$SPLINETYPE
 70
     6
  9
$SPLINESEGS
 70
     8
  9
$HANDSEED
  5
167
  9
$SURFTAB1
 70
     6
  9
$SURFTAB2
 70
     6
  9
$SURFTYPE
 70
     6
  9
$SURFU
 70
     6
  9
$SURFV
 70
     6
  9
$UCSBASE
  2

  9
$UCSNAME
  2

  9
$UCSORG
 10
0.0
 20
0.0
 30
0.0
  9
$UCSXDIR
 10
1.0
 20
0.0
 30
0.0
  9
$UCSYDIR
 10
0.0
 20
1.0
 30
0.0
  9
$UCSORTHOREF
  2

  9
$UCSORTHOVIEW
 70
     0
  9
$UCSORGTOP
 10
0.0
 20
0.0
 30
0.0
  9
$UCSORGBOTTOM
 10
0.0
 20
0.0
 30
0.0
  9
$UCSORGLEFT
 10
0.0
 20
0.0
 30
0.0
  9
$UCSORGRIGHT
 10
0.0
 20
0.0
 30
0.0
  9
$UCSORGFRONT
 10
0.0
 20
0.0
 30
0.0
  9
$UCSORGBACK
 10
0.0
 20
0.0
 30
0.0
  9
$PUCSBASE
  2

  9
$PUCSNAME
  2

  9
$PUCSORG
 10
0.0
 20
0.0
 30
0.0
  9
$PUCSXDIR
 10
1.0
 20
0.0
 30
0.0
  9
$PUCSYDIR
 10
0.0
 20
1.0
 30
0.0
  9
$PUCSORTHOREF
  2

  9
$PUCSORTHOVIEW
 70
     0
  9
$PUCSORGTOP
 10
0.0
 20
0.0
 30
0.0
  9
$PUCSORGBOTTOM
 10
0.0
 20
0.0
 30
0.0
  9
$PUCSORGLEFT
 10
0.0
 20
0.0
 30
0.0
  9
$PUCSORGRIGHT
 10
0.0
 20
0.0
 30
0.0
  9
$PUCSORGFRONT
 10
0.0
 20
0.0
 30
0.0
  9
$PUCSORGBACK
 10
0.0
 20
0.0
 30
0.0
  9
$USERI1
 70
     0
  9
$USERI2
 70
     0
  9
$USERI3
 70
     0
  9
$USERI4
 70
     0
  9
$USERI5
 70
     0
  9
$USERR1
 40
0.0
  9
$USERR2
 40
0.0
  9
$USERR3
 40
0.0
  9
$USERR4
 40
0.0
  9
$USERR5
 40
0.0
  9
$WORLDVIEW
 70
     1
  9
$SHADEDGE
 70
     3
  9
$SHADEDIF
 70
    70
  9
$TILEMODE
 70
     1
  9
$MAXACTVP
 70
    64
  9
$PINSBASE
 10
0.0
 20
0.0
 30
0.0
  9
$PLIMCHECK
 70
     0
  9
$PEXTMIN
 10
0.0
 20
0.0
 30
0.0
  9
$PEXTMAX
 10
210.0
 20
297.0
 30
0.0
  9
$PLIMMIN
 10
0.0
 20
0.0
  9
$PLIMMAX
 10
210.0
 20
297.0
  9
$UNITMODE
 70
     0
  9
$VISRETAIN
 70
     1
  9
$PLINEGEN
 70
     0
  9
$PSLTSCALE
 70
     1
  9
$TREEDEPTH
 70
  3020
  9
$CMLSTYLE
  2
Standard
  9
$CMLJUST
 70
     0
  9
$CMLSCALE
 40
20.0
  9
$PROXYGRAPHICS
 70
     1
  9
$MEASUREMENT
 70
     1
  9
$CELWEIGHT
370
    -1
  9
$ENDCAPS
280
     0
  9
$JOINSTYLE
280
     0
  9
$LWDISPLAY
290
     0
  9
$INSUNITS
 70
     4
  9
$HYPERLINKBASE
  1

  9
$STYLESHEET
  1

  9
$XEDIT
290
     1
  9
$CEPSNTYPE
380
     0
  9
$PSTYLEMODE
290
     1
  9
$FINGERPRINTGUID
  2
{1859C0D8-3EB4-44AB-B76D-4E4DE44BA750}
  9
$VERSIONGUID
  2
{FAEB1C32-E019-11D5-929B-00C0DF256EC4}
  9
$EXTNAMES
290
     1
  9
$PSVPSCALE
 40
0.0
  9
$OLESTARTUP
290
     0
  0
ENDSEC
  0
SECTION
  2
CLASSES
  0
CLASS
  1
ACDBDICTIONARYWDFLT
  2
AcDbDictionaryWithDefault
  3
ObjectDBX Classes
 90
        0
280
     0
281
     0
  0
CLASS
  1
VISUALSTYLE
  2
AcDbVisualStyle
  3
ObjectDBX Classes
 90
     4095
280
     0
281
     0
  0
CLASS
  1
MATERIAL
  2
AcDbMaterial
  3
ObjectDBX Classes
 90
     1153
280
     0
281
     0
  0
CLASS
  1
DICTIONARYVAR
  2
AcDbDictionaryVar
  3
ObjectDBX Classes
 90
        0
280
     0
281
     0
  0
CLASS
  1
ACDBPLACEHOLDER
  2
AcDbPlaceHolder
  3
ObjectDBX Classes
 90
        0
280
     0
281
     0
  0
CLASS
  1
LAYOUT
  2
AcDbLayout
  3
ObjectDBX Classes
 90
        0
280
     0
281
     0
  0
ENDSEC
  0
SECTION
  2
TABLES
  0
TABLE
  2
VPORT
  5
8
330
0
100
AcDbSymbolTable
 70
     1
  0
VPORT
  5
29
330
8
100
AcDbSymbolTableRecord
100
AcDbViewportTableRecord
  2
*Active
 70
     0
 10
0.0
 20
0.0
 11
1.0
 21
1.0
 12
344.1869158879
 22
148.5
 13
0.0
 23
0.0
 14
10.0
 24
10.0
 15
10.0
 25
10.0
 16
0.0
 26
0.0
 36
1.0
 17
0.0
 27
0.0
 37
0.0
 40
297.0
 41
1.9729729729
 42
50.0
 43
0.0
 44
0.0
 50
0.0
 51
0.0
 71
     0
 72
   100
 73
     1
 74
     3
 75
     0
 76
     0
 77
     0
 78
     0
281
     0
 65
     1
110
0.0
120
0.0
130
0.0
111
1.0
121
0.0
131
0.0
112
0.0
122
1.0
132
0.0
 79
     0
146
0.0
  0
ENDTAB
  0
TABLE
  2
LTYPE
  5
5
330
0
100
AcDbSymbolTable
 70
     2
  0
LTYPE
  5
14
330
5
100
AcDbSymbolTableRecord
100
AcDbLinetypeTableRecord
  2
ByBlock
 70
     0
  3

 72
    65
 73
     0
 40
0.0
  0
LTYPE
  5
15
330
5
100
AcDbSymbolTableRecord
100
AcDbLinetypeTableRecord
  2
ByLayer
 70
     0
  3

 72
    65
 73
     0
 40
0.0
  0
LTYPE
  5
16
330
5
100
AcDbSymbolTableRecord
100
AcDbLinetypeTableRecord
  2
Continuous
 70
     0
  3
Solid line
 72
    65
 73
     0
 40
0.0
  0
LTYPE
  5
43
330
5
100
AcDbSymbolTableRecord
100
AcDbLinetypeTableRecord
  2
HIDDEN2
 70
     0
  3
Hidden (.5x) _ _ _ _ _ _ _ _ _ _ _ _ _ _ _ _ _ 
 72
    65
 73
     2
 40
4.7625
 49
3.175
 74
     4
 75
     0
340
0
 46
0.0
 50
0.0
 44
0.0
 45
0.0
 49
-1.5875
 74
     4
 75
     0
340
0
 46
0.0
 50
0.0
 44
0.0
 45
0.0
  0
ENDTAB
  0
TABLE
  2
LAYER
  5
2
330
0
100
AcDbSymbolTable
 70
     5
  0
LAYER
  5
10
330
2
100
AcDbSymbolTableRecord
100
AcDbLayerTableRecord
  2
0
 70
     0
 62
     7
  6
Continuous
370
    -3
390
F
  0
LAYER
  5
3F
330
2
100
AcDbSymbolTableRecord
100
AcDbLayerTableRecord
  2
SK1
 70
     0
 62
     4
  6
Continuous
370
    18
390
F
  0
LAYER
  5
42
330
2
100
AcDbSymbolTableRecord
100
AcDbLayerTableRecord
  2
SK3
 70
     0
 62
     1
  6
HIDDEN2
370
    15
390
F
  0
LAYER
  5
E3
330
2
100
AcDbSymbolTableRecord
100
AcDbLayerTableRecord
  2
SK4
 70
     0
 62
     2
  6
Continuous
370
    13
390
F
  0
LAYER
  5
E5
330
2
100
AcDbSymbolTableRecord
100
AcDbLayerTableRecord
  2
SK2
 70
     0
 62
     7
  6
Continuous
370
    15
390
F
  0
ENDTAB
  0
TABLE
  2
STYLE
  5
3
330
0
100
AcDbSymbolTable
 70
     2
  0
STYLE
  5
11
330
3
100
AcDbSymbolTableRecord
100
AcDbTextStyleTableRecord
  2
Standard
 70
     0
 40
0.0
 41
1.0
 50
0.0
 71
     0
 42
2.5
  3
txt
  4

  0
STYLE
  5
F8
330
3
100
AcDbSymbolTableRecord
100
AcDbTextStyleTableRecord
  2
SEACAD_Solid_Edge_ISO
 70
     0
 40
0.0
 41
1.0
 50
0.0
 71
     0
 42
0.2
  3
seiso.ttf
  4

1001
ACAD
1000
Solid Edge ISO
1071
        0
  0
ENDTAB
  0
TABLE
  2
VIEW
  5
6
330
0
100
AcDbSymbolTable
 70
     0
  0
ENDTAB
  0
TABLE
  2
UCS
  5
7
330
0
100
AcDbSymbolTable
 70
     0
  0
ENDTAB
  0
TABLE
  2
APPID
  5
9
330
0
100
AcDbSymbolTable
 70
     1
  0
APPID
  5
12
330
9
100
AcDbSymbolTableRecord
100
AcDbRegAppTableRecord
  2
ACAD
 70
     0
  0
ENDTAB
  0
TABLE
  2
DIMSTYLE
  5
A
330
0
100
AcDbSymbolTable
 70
     3
100
AcDbDimStyleTable
  0
DIMSTYLE
105
27
330
A
100
AcDbSymbolTableRecord
100
AcDbDimStyleTableRecord
  2
ISO-25
 70
     0
 41
2.5
 42
0.625
 43
3.75
 44
1.25
 73
     0
 74
     0
 77
     1
 78
     8
140
2.5
141
2.5
143
0.0393700787
147
0.625
171
     3
172
     1
178
     0
271
     2
272
     2
274
     3
278
    44
283
     0
284
     8
340
11
  0
DIMSTYLE
105
E6
330
A
100
AcDbSymbolTableRecord
100
AcDbDimStyleTableRecord
  2
Standard
 70
     0
178
     0
340
11
  0
DIMSTYLE
105
F9
102
{ACAD_REACTORS
330
FA
330
104
330
124
330
12F
102
}
330
A
100
AcDbSymbolTableRecord
100
AcDbDimStyleTableRecord
  2
DIN
 70
     0
 41
3.5
 42
0.0
 44
1.75
 73
     0
 74
     0
 77
     1
 78
     8
140
3.5
141
1.75
147
1.75
172
     1
173
     1
178
     0
179
     3
271
     2
272
     2
278
    44
284
     8
340
F8
343
F3
344
F3
  0
ENDTAB
  0
TABLE
  2
BLOCK_RECORD
  5
1
330
0
100
AcDbSymbolTable
 70
    10
  0
BLOCK_RECORD
  5
1F
330
1
100
AcDbSymbolTableRecord
100
AcDbBlockTableRecord
  2
*Model_Space
340
22
  0
BLOCK_RECORD
  5
1B
330
1
100
AcDbSymbolTableRecord
100
AcDbBlockTableRecord
  2
*Paper_Space
340
1E
  0
BLOCK_RECORD
  5
E7
330
1
100
AcDbSymbolTableRecord
100
AcDbBlockTableRecord
  2
_OBLIQUE
340
0
  0
BLOCK_RECORD
  5
EB
330
1
100
AcDbSymbolTableRecord
100
AcDbBlockTableRecord
  2
_DOT
340
0
  0
BLOCK_RECORD
  5
F3
330
1
100
AcDbSymbolTableRecord
100
AcDbBlockTableRecord
  2
_SE_FILLED
340
0
  0
BLOCK_RECORD
  5
FB
330
1
100
AcDbSymbolTableRecord
100
AcDbBlockTableRecord
  2
DMBLK105
340
0
  0
BLOCK_RECORD
  5
105
330
1
100
AcDbSymbolTableRecord
100
AcDbBlockTableRecord
  2
DMBLK106
340
0
  0
BLOCK_RECORD
  5
10E
330
1
100
AcDbSymbolTableRecord
100
AcDbBlockTableRecord
  2
Nullpunkt
340
0
102
{BLKREFS
331
118
102
}
  0
BLOCK_RECORD
  5
119
330
1
100
AcDbSymbolTableRecord
100
AcDbBlockTableRecord
  2
Einfügepunkt
340
0
102
{BLKREFS
331
123
102
}
  0
BLOCK_RECORD
  5
125
330
1
100
AcDbSymbolTableRecord
100
AcDbBlockTableRecord
  2
DMBLK107
340
0
  0
BLOCK_RECORD
  5
130
330
1
100
AcDbSymbolTableRecord
100
AcDbBlockTableRecord
  2
DMBLK108
340
0
  0
ENDTAB
  0
ENDSEC
  0
SECTION
  2
BLOCKS
  0
BLOCK
  5
20
330
1F
100
AcDbEntity
  8
0
100
AcDbBlockBegin
  2
*Model_Space
 70
     0
 10
0.0
 20
0.0
 30
0.0
  3
*Model_Space
  1

  0
ENDBLK
  5
21
330
1F
100
AcDbEntity
  8
0
100
AcDbBlockEnd
  0
BLOCK
  5
1C
330
1B
100
AcDbEntity
 67
     1
  8
0
100
AcDbBlockBegin
  2
*Paper_Space
 70
     0
 10
0.0
 20
0.0
 30
0.0
  3
*Paper_Space
  1

  0
ENDBLK
  5
1D
330
1B
100
AcDbEntity
 67
     1
  8
0
100
AcDbBlockEnd
  0
BLOCK
  5
E8
330
E7
100
AcDbEntity
  8
0
100
AcDbBlockBegin
  2
_OBLIQUE
 70
     0
 10
0.0
 20
0.0
 30
0.0
  3
_OBLIQUE
  1

  0
LINE
  5
EA
330
E7
100
AcDbEntity
  8
0
  6
ByBlock
 62
     0
370
    -2
100
AcDbLine
 10
-0.5
 20
-0.5
 30
0.0
 11
0.5
 21
0.5
 31
0.0
  0
ENDBLK
  5
E9
330
E7
100
AcDbEntity
  8
0
100
AcDbBlockEnd
  0
BLOCK
  5
EC
330
EB
100
AcDbEntity
  8
0
100
AcDbBlockBegin
  2
_DOT
 70
     0
 10
0.0
 20
0.0
 30
0.0
  3
_DOT
  1

  0
POLYLINE
  5
EE
330
EB
100
AcDbEntity
  8
0
  6
ByBlock
 62
     0
100
AcDb2dPolyline
 66
     1
 10
0.0
 20
0.0
 30
0.0
 70
     1
 40
0.5
 41
0.5
  0
VERTEX
  5
F0
330
EE
100
AcDbEntity
  8
0
  6
ByBlock
 62
     0
100
AcDbVertex
100
AcDb2dVertex
 10
-0.25
 20
0.0
 30
0.0
 42
1.0
  0
VERTEX
  5
F1
330
EE
100
AcDbEntity
  8
0
  6
ByBlock
 62
     0
100
AcDbVertex
100
AcDb2dVertex
 10
0.25
 20
0.0
 30
0.0
 42
1.0
  0
SEQEND
  5
F2
330
EE
100
AcDbEntity
  8
0
  6
ByBlock
 62
     0
  0
LINE
  5
EF
330
EB
100
AcDbEntity
  8
0
  6
ByBlock
 62
     0
370
    -2
100
AcDbLine
 10
-0.5
 20
0.0
 30
0.0
 11
-1.0
 21
0.0
 31
0.0
  0
ENDBLK
  5
ED
330
EB
100
AcDbEntity
  8
0
100
AcDbBlockEnd
  0
BLOCK
  5
F6
330
F3
100
AcDbEntity
  8
0
100
AcDbBlockBegin
  2
_SE_FILLED
 70
     0
 10
0.0
 20
0.0
 30
0.0
  3
_SE_FILLED
  1

  0
SOLID
  5
F4
330
F3
100
AcDbEntity
  8
0
 62
     0
100
AcDbTrace
 10
0.0
 20
0.0
 30
0.0
 11
-1.0
 21
-0.1665
 31
0.0
 12
-1.0
 22
0.1665
 32
0.0
 13
0.0
 23
0.0
 33
0.0
  0
LINE
  5
F5
330
F3
100
AcDbEntity
  8
0
 62
     0
100
AcDbLine
 10
0.0
 20
0.0
 30
0.0
 11
-1.0
 21
0.0
 31
0.0
  0
ENDBLK
  5
F7
330
F3
100
AcDbEntity
  8
0
100
AcDbBlockEnd
  0
BLOCK
  5
102
330
FB
100
AcDbEntity
  8
0
100
AcDbBlockBegin
  2
DMBLK105
 70
     0
 10
0.0
 20
0.0
 30
0.0
  3
DMBLK105
  1

  0
HATCH
  5
FC
330
FB
100
AcDbEntity
  8
SK2
  6
Continuous
 62
   136
100
AcDbHatch
 10
0.0
 20
0.0
 30
0.0
210
0.0
220
0.0
230
1.0
  2
SOLID
 70
     1
 71
     0
 91
        1
 92
        1
 93
        3
 72
     1
 10
4.599999891967495
 20
22.41580986509757
 11
4.599999891967495
 21
21.24914316241976
 72
     1
 10
4.599999891967495
 20
21.24914316241976
 11
8.100000000000914
 21
21.83247651375867
 72
     1
 10
8.100000000000914
 20
21.83247651375867
 11
4.599999891967496
 21
22.41580986509757
 97
        0
 75
     0
 76
     1
 98
        0
  0
HATCH
  5
FD
330
FB
100
AcDbEntity
  8
SK2
  6
Continuous
 62
   136
100
AcDbHatch
 10
0.0
 20
0.0
 30
0.0
210
0.0
220
0.0
230
1.0
  2
SOLID
 70
     1
 71
     0
 91
        1
 92
        1
 93
        3
 72
     1
 10
-22.40000173970966
 20
22.41580986509757
 11
-25.90000184774308
 21
21.83247651375867
 72
     1
 10
-25.90000184774308
 20
21.83247651375867
 11
-22.40000173970966
 21
21.24914316241976
 72
     1
 10
-22.40000173970966
 20
21.24914316241976
 11
-22.40000173970966
 21
22.41580986509757
 97
        0
 75
     0
 76
     1
 98
        0
  0
LINE
  5
FE
330
FB
100
AcDbEntity
  8
SK2
  6
Continuous
 62
   136
100
AcDbLine
 10
8.1
 20
10.1189111865
 30
0.0
 11
8.1
 21
23.5824765678
 31
0.0
  0
LINE
  5
FF
330
FB
100
AcDbEntity
  8
SK2
  6
Continuous
 62
   136
100
AcDbLine
 10
-25.9
 20
8.5506415708
 30
0.0
 11
-25.9
 21
23.5824765678
 31
0.0
  0
LINE
  5
100
330
FB
100
AcDbEntity
  8
SK2
  6
Continuous
 62
   136
100
AcDbLine
 10
8.1
 20
21.8324765138
 30
0.0
 11
-25.9000018477
 21
21.8324765138
 31
0.0
  0
TEXT
  5
101
330
FB
100
AcDbEntity
  8
SK2
  6
Continuous
 62
   136
100
AcDbText
 10
-10.8488645602
 20
22.7074765138
 30
0.0
 40
3.5
  1
34
  7
SEACAD_Solid_Edge_ISO
 11
-10.8488645602
 21
26.2074765138
 31
0.0
100
AcDbText
 73
     3
  0
ENDBLK
  5
103
330
FB
100
AcDbEntity
  8
0
100
AcDbBlockEnd
  0
BLOCK
  5
10C
330
105
100
AcDbEntity
  8
0
100
AcDbBlockBegin
  2
DMBLK106
 70
     0
 10
0.0
 20
0.0
 30
0.0
  3
DMBLK106
  1

  0
HATCH
  5
106
330
105
100
AcDbEntity
  8
SK2
  6
Continuous
 62
   136
100
AcDbHatch
 10
0.0
 20
0.0
 30
0.0
210
0.0
220
0.0
230
1.0
  2
SOLID
 70
     1
 71
     0
 91
        1
 92
        1
 93
        3
 72
     1
 10
-3.500000108033419
 20
-21.57206777646413
 11
0.0
 21
-20.98873442512522
 72
     1
 10
0.0
 20
-20.98873442512522
 11
-3.500000108033419
 21
-20.40540107378632
 72
     1
 10
-3.500000108033419
 20
-20.40540107378632
 11
-3.500000108033419
 21
-21.57206777646413
 97
        0
 75
     0
 76
     1
 98
        0
  0
HATCH
  5
107
330
105
100
AcDbEntity
  8
SK2
  6
Continuous
 62
   136
100
AcDbHatch
 10
0.0
 20
0.0
 30
0.0
210
0.0
220
0.0
230
1.0
  2
SOLID
 70
     1
 71
     0
 91
        1
 92
        1
 93
        3
 72
     1
 10
11.60000010803433
 20
-21.57206777646413
 11
11.60000010803433
 21
-20.40540107378632
 72
     1
 10
11.60000010803433
 20
-20.40540107378632
 11
8.100000000000914
 21
-20.98873442512522
 72
     1
 10
8.100000000000914
 20
-20.98873442512522
 11
11.60000010803433
 21
-21.57206777646413
 97
        0
 75
     0
 76
     1
 98
        0
  0
LINE
  5
108
330
105
100
AcDbEntity
  8
SK2
  6
Continuous
 62
   136
100
AcDbLine
 10
0.0
 20
-12.493598261
 30
0.0
 11
0.0
 21
-22.7387344791
 31
0.0
  0
LINE
  5
109
330
105
100
AcDbEntity
  8
SK2
  6
Continuous
 62
   136
100
AcDbLine
 10
8.1
 20
-10.118910987
 30
0.0
 11
8.1
 21
-22.7387344791
 31
0.0
  0
LINE
  5
10A
330
105
100
AcDbEntity
  8
SK2
  6
Continuous
 62
   136
100
AcDbLine
 10
-7.0000002161
 20
-20.9887344251
 30
0.0
 11
15.1000004262
 21
-20.9887344251
 31
0.0
  0
TEXT
  5
10B
330
105
100
AcDbEntity
  8
SK2
  6
Continuous
 62
   136
100
AcDbText
 10
1.9022728323
 20
-20.1137344251
 30
0.0
 40
3.5
  1
8,1
  7
SEACAD_Solid_Edge_ISO
 11
1.9022728323
 21
-16.6137344251
 31
0.0
100
AcDbText
 73
     3
  0
ENDBLK
  5
10D
330
105
100
AcDbEntity
  8
0
100
AcDbBlockEnd
  0
BLOCK
  5
116
330
10E
100
AcDbEntity
  8
0
100
AcDbBlockBegin
  2
Nullpunkt
 70
     0
 10
0.0
 20
0.0
 30
0.0
  3
Nullpunkt
  1

  0
HATCH
  5
10F
330
10E
100
AcDbEntity
  8
SK2
  6
Continuous
 62
     7
100
AcDbHatch
 10
0.0
 20
0.0
 30
0.0
210
0.0
220
0.0
230
1.0
  2
SOLID
 70
     1
 71
     0
 91
        1
 92
        1
 93
        3
 72
     1
 10
-1.0
 20
0.0
 11
0.0000000000000009
 21
0.0
 72
     1
 10
0.0
 20
0.0
 11
0.0
 21
1.000000000000001
 72
     2
 10
0.0
 20
0.0
 40
1.0
 50
90.0
 51
180.0
 73
     1
 97
        0
 75
     0
 76
     1
 98
        0
  0
HATCH
  5
110
330
10E
100
AcDbEntity
  8
SK2
  6
Continuous
 62
     7
100
AcDbHatch
 10
0.0
 20
0.0
 30
0.0
210
0.0
220
0.0
230
1.0
  2
SOLID
 70
     1
 71
     0
 91
        1
 92
        1
 93
        3
 72
     2
 10
0.0
 20
0.0
 40
1.0
 50
270.0
 51
360.0
 73
     1
 72
     1
 10
1.0
 20
0.0
 11
-0.0000000000000009
 21
0.0
 72
     1
 10
0.0
 20
0.0
 11
0.0
 21
-1.000000000000001
 97
        0
 75
     0
 76
     1
 98
        0
  0
CIRCLE
  5
111
330
10E
100
AcDbEntity
  8
SK2
  6
Continuous
 62
     7
100
AcDbCircle
 10
0.0
 20
0.0
 30
0.0
 40
1.0
  0
LINE
  5
112
330
10E
100
AcDbEntity
  8
SK1
  6
Continuous
100
AcDbLine
 10
-1.0
 20
0.0
 30
0.0
 11
1.0
 21
0.0
 31
0.0
  0
LINE
  5
113
330
10E
100
AcDbEntity
  8
SK1
  6
Continuous
100
AcDbLine
 10
0.0
 20
1.0
 30
0.0
 11
0.0
 21
-1.0
 31
0.0
  0
POINT
  5
114
330
10E
100
AcDbEntity
  8
SK1
  6
Continuous
100
AcDbPoint
 10
0.0
 20
0.0
 30
0.0
  0
POINT
  5
115
330
10E
100
AcDbEntity
  8
SK1
  6
Continuous
100
AcDbPoint
 10
0.0
 20
0.0
 30
0.0
  0
ENDBLK
  5
117
330
10E
100
AcDbEntity
  8
0
100
AcDbBlockEnd
  0
BLOCK
  5
121
330
119
100
AcDbEntity
  8
0
100
AcDbBlockBegin
  2
Einfügepunkt
 70
     0
 10
0.0
 20
0.0
 30
0.0
  3
Einfügepunkt
  1

  0
HATCH
  5
11A
330
119
100
AcDbEntity
  8
SK2
  6
Continuous
 62
     7
100
AcDbHatch
 10
0.0
 20
0.0
 30
0.0
210
0.0
220
0.0
230
1.0
  2
SOLID
 70
     1
 71
     0
 91
        1
 92
        1
 93
        3
 72
     1
 10
-0.4502381196756744
 20
-0.0000000000000018
 11
0.0000000000000033
 21
-0.0000000000000018
 72
     1
 10
0.0
 20
-0.0000000000000018
 11
0.0
 21
0.4502381196756812
 72
     2
 10
0.0
 20
-0.0000000000000018
 40
0.4502381196756812
 50
90.0
 51
180.0
 73
     1
 97
        0
 75
     0
 76
     1
 98
        0
  0
HATCH
  5
11B
330
119
100
AcDbEntity
  8
SK2
  6
Continuous
 62
     7
100
AcDbHatch
 10
0.0
 20
0.0
 30
0.0
210
0.0
220
0.0
230
1.0
  2
SOLID
 70
     1
 71
     0
 91
        1
 92
        1
 93
        3
 72
     2
 10
0.0
 20
-0.0000000000000018
 40
0.4502381196756812
 50
270.0
 51
360.0
 73
     1
 72
     1
 10
0.4502381196756815
 20
-0.0000000000000018
 11
0.0000000000000038
 21
-0.0000000000000018
 72
     1
 10
0.0
 20
-0.0000000000000018
 11
0.0
 21
-0.4502381196756812
 97
        0
 75
     0
 76
     1
 98
        0
  0
CIRCLE
  5
11C
330
119
100
AcDbEntity
  8
SK2
  6
Continuous
 62
     7
100
AcDbCircle
 10
0.0
 20
0.0
 30
0.0
 40
0.4502381196756812
  0
LINE
  5
11D
330
119
100
AcDbEntity
  8
SK1
  6
Continuous
100
AcDbLine
 10
-0.4502381197
 20
0.0
 30
0.0
 11
0.4502381197
 21
0.0
 31
0.0
  0
LINE
  5
11E
330
119
100
AcDbEntity
  8
SK1
  6
Continuous
100
AcDbLine
 10
0.0
 20
0.4502381197
 30
0.0
 11
0.0
 21
-0.4502381197
 31
0.0
  0
POINT
  5
11F
330
119
100
AcDbEntity
  8
SK2
  6
Continuous
 62
     7
100
AcDbPoint
 10
0.0
 20
0.0
 30
0.0
  0
POINT
  5
120
330
119
100
AcDbEntity
  8
SK2
  6
Continuous
 62
     7
100
AcDbPoint
 10
0.0
 20
0.0
 30
0.0
  0
ENDBLK
  5
122
330
119
100
AcDbEntity
  8
0
100
AcDbBlockEnd
  0
BLOCK
  5
12D
330
125
100
AcDbEntity
  8
0
100
AcDbBlockBegin
  2
DMBLK107
 70
     0
 10
0.0
 20
0.0
 30
0.0
  3
DMBLK107
  1

  0
HATCH
  5
126
330
125
100
AcDbEntity
  8
SK2
  6
Continuous
 62
   136
100
AcDbHatch
 10
0.0
 20
0.0
 30
0.0
210
0.0
220
0.0
230
1.0
  2
SOLID
 70
     1
 71
     0
 91
        1
 92
        1
 93
        3
 72
     1
 10
19.48333312186193
 20
9.750000207804106
 11
18.31666641918412
 21
9.750000207804106
 72
     1
 10
18.31666641918412
 20
9.750000207804106
 11
18.89999977052303
 21
6.250000099770688
 72
     1
 10
18.89999977052303
 20
6.250000099770689
 11
19.48333312186193
 21
9.750000207804106
 97
        0
 75
     0
 76
     1
 98
        0
  0
HATCH
  5
127
330
125
100
AcDbEntity
  8
SK2
  6
Continuous
 62
   136
100
AcDbHatch
 10
0.0
 20
0.0
 30
0.0
210
0.0
220
0.0
230
1.0
  2
SOLID
 70
     1
 71
     0
 91
        1
 92
        1
 93
        3
 72
     1
 10
19.48333312186193
 20
-9.750000008262727
 11
18.89999977052303
 21
-6.249999900229309
 72
     1
 10
18.89999977052303
 20
-6.249999900229309
 11
18.31666641918412
 21
-9.750000008262727
 72
     1
 10
18.31666641918412
 20
-9.750000008262727
 11
19.48333312186193
 21
-9.750000008262727
 97
        0
 75
     0
 76
     1
 98
        0
  0
LINE
  5
128
330
125
100
AcDbEntity
  8
SK2
  6
Continuous
 62
   136
100
AcDbLine
 10
7.8
 20
6.2500000998
 30
0.0
 11
20.6499998245
 21
6.2500000998
 31
0.0
  0
LINE
  5
129
330
125
100
AcDbEntity
  8
SK2
  6
Continuous
 62
   136
100
AcDbLine
 10
5.2
 20
-6.2499999002
 30
0.0
 11
20.6499998245
 21
-6.2499999002
 31
0.0
  0
LINE
  5
12A
330
125
100
AcDbEntity
  8
SK2
  6
Continuous
 62
   136
100
AcDbLine
 10
18.8999997705
 20
22.7272720143
 30
0.0
 11
18.8999997705
 21
-13.2500003026
 31
0.0
  0
TEXT
  5
12B
330
125
100
AcDbEntity
  8
SK2
  6
Continuous
 62
   136
100
AcDbText
 10
18.0249997705
 20
15.2977272887
 30
0.0
 40
3.5
  1
12,5
 50
90.0
  7
SEACAD_Solid_Edge_ISO
 11
14.5249997705
 21
15.2977272887
 31
0.0
100
AcDbText
 73
     3
  0
TEXT
  5
12C
330
125
100
AcDbEntity
  8
SK2
  6
Continuous
 62
   136
100
AcDbText
 10
18.0249997705
 20
11.225000016
 30
0.0
 40
3.5
  1
ø
 50
90.0
  7
SEACAD_Solid_Edge_ISO
 11
14.5249997705
 21
11.225000016
 31
0.0
100
AcDbText
 73
     3
  0
ENDBLK
  5
12E
330
125
100
AcDbEntity
  8
0
100
AcDbBlockEnd
  0
BLOCK
  5
138
330
130
100
AcDbEntity
  8
0
100
AcDbBlockBegin
  2
DMBLK108
 70
     0
 10
0.0
 20
0.0
 30
0.0
  3
DMBLK108
  1

  0
HATCH
  5
131
330
130
100
AcDbEntity
  8
SK2
  6
Continuous
 62
   136
100
AcDbHatch
 10
0.0
 20
0.0
 30
0.0
210
0.0
220
0.0
230
1.0
  2
SOLID
 70
     1
 71
     0
 91
        1
 92
        1
 93
        3
 72
     1
 10
-34.46726260396341
 20
8.993598352504403
 11
-33.30059590128561
 21
8.993598352504403
 72
     1
 10
-33.30059590128561
 20
8.993598352504403
 11
-33.88392925262451
 21
12.49359846053782
 72
     1
 10
-33.88392925262451
 20
12.49359846053782
 11
-34.46726260396341
 21
8.993598352504403
 97
        0
 75
     0
 76
     1
 98
        0
  0
HATCH
  5
132
330
130
100
AcDbEntity
  8
SK2
  6
Continuous
 62
   136
100
AcDbHatch
 10
0.0
 20
0.0
 30
0.0
210
0.0
220
0.0
230
1.0
  2
SOLID
 70
     1
 71
     0
 91
        1
 92
        1
 93
        3
 72
     1
 10
-34.46726260396341
 20
-8.993597981201976
 11
-33.88392925262451
 21
-12.49359808923539
 72
     1
 10
-33.88392925262451
 20
-12.49359808923539
 11
-33.30059590128561
 21
-8.993597981201976
 72
     1
 10
-33.30059590128561
 20
-8.993597981201976
 11
-34.46726260396341
 21
-8.993597981201976
 97
        0
 75
     0
 76
     1
 98
        0
  0
LINE
  5
133
330
130
100
AcDbEntity
  8
SK2
  6
Continuous
 62
   136
100
AcDbLine
 10
0.0
 20
12.4935984605
 30
0.0
 11
-35.6339293066
 21
12.4935984605
 31
0.0
  0
LINE
  5
134
330
130
100
AcDbEntity
  8
SK2
  6
Continuous
 62
   136
100
AcDbLine
 10
0.0
 20
-12.493598261
 30
0.0
 11
-35.6339293066
 21
-12.493598261
 31
0.0
  0
LINE
  5
135
330
130
100
AcDbEntity
  8
SK2
  6
Continuous
 62
   136
100
AcDbLine
 10
-33.8839292526
 20
12.4935984605
 30
0.0
 11
-33.8839292526
 21
-12.4935980892
 31
0.0
  0
TEXT
  5
136
330
130
100
AcDbEntity
  8
SK2
  6
Continuous
 62
   136
100
AcDbText
 10
-34.7589292526
 20
-0.0318179962
 30
0.0
 40
3.5
  1
25
 50
90.0
  7
SEACAD_Solid_Edge_ISO
 11
-38.2589292526
 21
-0.0318179962
 31
0.0
100
AcDbText
 73
     3
  0
TEXT
  5
137
330
130
100
AcDbEntity
  8
SK2
  6
Continuous
 62
   136
100
AcDbText
 10
-34.7589292526
 20
-4.1045452689
 30
0.0
 40
3.5
  1
ø
 50
90.0
  7
SEACAD_Solid_Edge_ISO
 11
-38.2589292526
 21
-4.1045452689
 31
0.0
100
AcDbText
 73
     3
  0
ENDBLK
  5
139
330
130
100
AcDbEntity
  8
0
100
AcDbBlockEnd
  0
ENDSEC
  0
SECTION
  2
ENTITIES
  0
LINE
  5
40
330
1F
100
AcDbEntity
  8
SK1
  6
Continuous
100
AcDbLine
 10
0.2
 20
7.4901876844
 30
0.0
 11
0.2
 21
0.4000000998
 31
0.0
  0
LINE
  5
41
330
1F
100
AcDbEntity
  8
SK1
  6
Continuous
100
AcDbLine
 10
2.9
 20
-10.9999999002
 30
0.0
 11
2.9
 21
-8.0558729098
 31
0.0
  0
LINE
  5
44
330
1F
100
AcDbEntity
  8
SK3
100
AcDbLine
 10
-12.7
 20
5.0120076434
 30
0.0
 11
-12.7
 21
6.6880491427
 31
0.0
  0
LINE
  5
45
330
1F
100
AcDbEntity
  8
SK3
100
AcDbLine
 10
-16.7
 20
5.0120076434
 30
0.0
 11
-16.7
 21
6.6880491427
 31
0.0
  0
LINE
  5
46
330
1F
100
AcDbEntity
  8
SK3
100
AcDbLine
 10
-25.0
 20
-5.1887928075
 30
0.0
 11
-25.0
 21
-2.2358281954
 31
0.0
  0
LINE
  5
47
330
1F
100
AcDbEntity
  8
SK3
100
AcDbLine
 10
-25.0
 20
2.235828395
 30
0.0
 11
-25.0
 21
5.188793007
 31
0.0
  0
ARC
  5
48
330
1F
100
AcDbEntity
  8
SK3
100
AcDbCircle
 10
-31.2746434002
 20
-5.6502211169
 30
0.0
 40
7.143474562313182
100
AcDbArc
 50
28.5531441705
 51
40.5900388775
  0
LINE
  5
49
330
1F
100
AcDbEntity
  8
SK3
100
AcDbLine
 10
-25.85
 20
-1.0023750779
 30
0.0
 11
-25.85
 21
-0.3999999002
 31
0.0
  0
ARC
  5
4A
330
1F
100
AcDbEntity
  8
SK3
100
AcDbCircle
 10
-31.1696666776
 20
5.5778795201
 30
0.0
 40
7.016700979555238
100
AcDbArc
 50
319.3008106639
 51
331.5560062882
  0
ARC
  5
4B
330
1F
100
AcDbEntity
  8
SK3
100
AcDbCircle
 10
-31.1696666776
 20
-1.8467416823
 30
0.0
 40
7.016700979558518
100
AcDbArc
 50
319.3008106639
 51
331.5560062882
  0
LINE
  5
4C
330
1F
100
AcDbEntity
  8
SK3
100
AcDbLine
 10
-25.85
 20
6.4222461246
 30
0.0
 11
-25.85
 21
6.4876807331
 31
0.0
  0
ARC
  5
4D
330
1F
100
AcDbEntity
  8
SK3
100
AcDbCircle
 10
-31.2746434002
 20
1.7744000855
 30
0.0
 40
7.143474562313389
100
AcDbArc
 50
28.5531441705
 51
40.5900388775
  0
LINE
  5
4E
330
1F
100
AcDbEntity
  8
SK3
100
AcDbLine
 10
-17.3062177826
 20
-5.1887928075
 30
0.0
 11
-17.3062177826
 21
-4.2679712179
 31
0.0
  0
LINE
  5
4F
330
1F
100
AcDbEntity
  8
SK3
100
AcDbLine
 10
-17.3062177826
 20
2.235828395
 30
0.0
 11
-17.3062177826
 21
3.7022859925
 31
0.0
  0
LINE
  5
50
330
1F
100
AcDbEntity
  8
SK3
100
AcDbLine
 10
-16.8154700538
 20
1.0023752774
 30
0.0
 11
-25.85
 21
1.0023752774
 31
0.0
  0
LINE
  5
51
330
1F
100
AcDbEntity
  8
SK3
100
AcDbLine
 10
-16.8154700538
 20
1.0023752774
 30
0.0
 11
-16.8154700538
 21
0.4000000998
 31
0.0
  0
ARC
  5
52
330
1F
100
AcDbEntity
  8
SK3
100
AcDbCircle
 10
-9.1375150116
 20
2.6531049258
 30
0.0
 40
8.553211034878535
100
AcDbArc
 50
153.8533796372
 51
162.754871962
  0
LINE
  5
53
330
1F
100
AcDbEntity
  8
SK3
100
AcDbLine
 10
-17.3062177826
 20
5.188793007
 30
0.0
 11
-25.0
 21
5.188793007
 31
0.0
  0
LINE
  5
54
330
1F
100
AcDbEntity
  8
SK3
100
AcDbLine
 10
-25.0
 20
2.235828395
 30
0.0
 11
-17.3062177826
 21
2.235828395
 31
0.0
  0
ARC
  5
55
330
1F
100
AcDbEntity
  8
SK3
100
AcDbCircle
 10
-9.1573705668
 20
4.7636166473
 30
0.0
 40
8.531906257972945
100
AcDbArc
 50
197.2339917154
 51
206.1577566854
  0
LINE
  5
56
330
1F
100
AcDbEntity
  8
SK3
100
AcDbLine
 10
-16.8154700538
 20
6.4222461246
 30
0.0
 11
-25.85
 21
6.4222461246
 31
0.0
  0
LINE
  5
57
330
1F
100
AcDbEntity
  8
SK3
100
AcDbLine
 10
-16.8154700538
 20
-6.422245925
 30
0.0
 11
-25.85
 21
-6.422245925
 31
0.0
  0
LINE
  5
58
330
1F
100
AcDbEntity
  8
SK3
100
AcDbLine
 10
-16.8154700538
 20
-6.422245925
 30
0.0
 11
-16.8154700538
 21
-6.4876805336
 31
0.0
  0
ARC
  5
59
330
1F
100
AcDbEntity
  8
SK3
100
AcDbCircle
 10
-9.1375150116
 20
-4.7715162767
 30
0.0
 40
8.553211034878352
100
AcDbArc
 50
153.8533796372
 51
162.754871962
  0
LINE
  5
5A
330
1F
100
AcDbEntity
  8
SK3
100
AcDbLine
 10
-17.3062177826
 20
-2.2358281954
 30
0.0
 11
-25.0
 21
-2.2358281954
 31
0.0
  0
LINE
  5
5B
330
1F
100
AcDbEntity
  8
SK3
100
AcDbLine
 10
-25.0
 20
-5.1887928075
 30
0.0
 11
-17.3062177826
 21
-5.1887928075
 31
0.0
  0
ARC
  5
5C
330
1F
100
AcDbEntity
  8
SK3
100
AcDbCircle
 10
-9.1573705668
 20
-2.6610045552
 30
0.0
 40
8.531906257972887
100
AcDbArc
 50
197.2339917154
 51
206.1577566854
  0
LINE
  5
5D
330
1F
100
AcDbEntity
  8
SK3
100
AcDbLine
 10
-16.8154700538
 20
-1.0023750779
 30
0.0
 11
-25.85
 21
-1.0023750779
 31
0.0
  0
LINE
  5
5E
330
1F
100
AcDbEntity
  8
SK1
  6
Continuous
100
AcDbLine
 10
3.1
 20
13.1500000998
 30
0.0
 11
3.1
 21
9.576994199
 31
0.0
  0
LINE
  5
5F
330
1F
100
AcDbEntity
  8
SK1
  6
Continuous
100
AcDbLine
 10
0.0
 20
9.1171509346
 30
0.0
 11
0.0
 21
12.4935984605
 31
0.0
  0
LINE
  5
60
330
1F
100
AcDbEntity
  8
SK1
  6
Continuous
100
AcDbLine
 10
7.975
 20
-10.3354173379
 30
0.0
 11
7.975
 21
-7.5856110471
 31
0.0
  0
LINE
  5
61
330
1F
100
AcDbEntity
  8
SK1
  6
Continuous
100
AcDbLine
 10
8.1
 20
6.8667154709
 30
0.0
 11
8.1
 21
-6.8667152714
 31
0.0
  0
LINE
  5
62
330
1F
100
AcDbEntity
  8
SK1
  6
Continuous
100
AcDbLine
 10
7.975
 20
7.5856112466
 30
0.0
 11
7.975
 21
10.3354175375
 31
0.0
  0
SPLINE
  5
63
330
1F
100
AcDbEntity
  8
SK1
  6
Continuous
100
AcDbSpline
210
0.0
220
0.0
230
1.0
 70
     8
 71
     3
 72
    10
 73
     6
 74
     0
 42
0.00000004699904
 43
0.0000000001
 12
1.0
 22
0.0
 32
0.0
 13
1.0
 23
0.0
 33
0.0
 40
0.0
 40
0.0
 40
0.0
 40
0.0
 40
0.5
 40
0.5
 40
1.0
 40
1.0
 40
1.0
 40
1.0
 10
7.975000000001001
 20
7.585611246601602
 30
0.0
 10
8.012748038115783
 20
7.570189120345228
 30
0.0
 10
8.044594604650166
 20
7.547685642164579
 30
0.0
 10
8.08830221468588
 20
7.49417139366052
 30
0.0
 10
8.100000000000922
 20
7.463158526142047
 30
0.0
 10
8.100000000000914
 20
7.43240089585341
 30
0.0
  0
SPLINE
  5
64
330
1F
100
AcDbEntity
  8
SK1
  6
Continuous
100
AcDbSpline
210
0.0
220
0.0
230
1.0
 70
     8
 71
     3
 72
    10
 73
     6
 74
     0
 42
0.00000004699904
 43
0.0000000001
 12
1.0
 22
0.0
 32
0.0
 13
1.0
 23
0.0
 33
0.0
 40
0.0
 40
0.0
 40
0.0
 40
0.0
 40
0.5
 40
0.5
 40
1.0
 40
1.0
 40
1.0
 40
1.0
 10
7.975000000001001
 20
7.019925821652364
 30
0.0
 10
8.01274803811563
 20
7.004503695396053
 30
0.0
 10
8.044594604649914
 20
6.982000217215522
 30
0.0
 10
8.088302214685603
 20
6.928485968711756
 30
0.0
 10
8.100000000000733
 20
6.897473101193438
 30
0.0
 10
8.100000000007135
 20
6.866715470904722
 30
0.0
  0
LINE
  5
65
330
1F
100
AcDbEntity
  8
SK1
  6
Continuous
100
AcDbLine
 10
-23.4
 20
6.2244174446
 30
0.0
 11
-23.4
 21
6.7901028696
 31
0.0
  0
LINE
  5
66
330
1F
100
AcDbEntity
  8
SK1
  6
Continuous
100
AcDbLine
 10
3.1
 20
-13.1499999002
 30
0.0
 11
3.1
 21
-9.5769939995
 31
0.0
  0
LINE
  5
67
330
1F
100
AcDbEntity
  8
SK3
100
AcDbLine
 10
-17.3062177826
 20
4.2679714174
 30
0.0
 11
-17.3062177826
 21
5.188793007
 31
0.0
  0
LINE
  5
68
330
1F
100
AcDbEntity
  8
SK1
  6
Continuous
100
AcDbLine
 10
2.9
 20
11.0000000997
 30
0.0
 11
2.9
 21
8.0558731094
 31
0.0
  0
LINE
  5
69
330
1F
100
AcDbEntity
  8
SK3
100
AcDbLine
 10
-23.4
 20
6.2244174446
 30
0.0
 11
-23.4
 21
3.7022859925
 31
0.0
  0
SPLINE
  5
6A
330
1F
100
AcDbEntity
  8
SK1
  6
Continuous
100
AcDbSpline
210
0.0
220
0.0
230
1.0
 70
     8
 71
     3
 72
    14
 73
    10
 74
     0
 42
0.0000000004252528
 43
0.0000000001
 12
1.0
 22
0.0
 32
0.0
 13
1.0
 23
0.0
 33
0.0
 40
0.0
 40
0.0
 40
0.0
 40
0.0
 40
0.1235909907309631
 40
0.1235909907309631
 40
0.1235909907309631
 40
0.8381641112638675
 40
0.8381641112638675
 40
0.8381641112638675
 40
1.0
 40
1.0
 40
1.0
 40
1.0
 10
-23.40000000000001
 20
6.224417444632481
 30
0.0
 10
-22.43599491837844
 20
6.320308194835293
 30
0.0
 10
-21.47198905842476
 20
6.416195032751731
 30
0.0
 10
-20.50798251505121
 20
6.512078435053987
 30
0.0
 10
-14.93433058729411
 20
7.066453002068511
 30
0.0
 10
-9.360656653164003
 20
7.620716945623645
 30
0.0
 10
-3.786971565144263
 20
8.17492479132863
 30
0.0
 10
-2.524648292822932
 20
8.300441294376173
 30
0.0
 10
-1.262324412925301
 20
8.425954742246093
 30
0.0
 10
0.0
 20
8.551465509615642
 30
0.0
  0
SPLINE
  5
6B
330
1F
100
AcDbEntity
  8
SK3
100
AcDbSpline
210
0.0
220
0.0
230
1.0
 70
     8
 71
     3
 72
    10
 73
     6
 74
     0
 42
0.0000000240530162
 43
0.0000000001
 12
1.0
 22
0.0
 32
0.0
 13
1.0
 23
0.0
 33
0.0
 40
0.0
 40
0.0
 40
0.0
 40
0.0
 40
0.5
 40
0.5
 40
1.0
 40
1.0
 40
1.0
 40
1.0
 10
8.100000000000914
 20
4.340062318180978
 30
0.0
 10
8.100000000000918
 20
4.284632040659512
 30
0.0
 10
8.068154322315001
 20
4.229521241621632
 30
0.0
 10
7.956408900772429
 20
4.150235692093026
 30
0.0
 10
7.878446531405641
 20
4.127514515692806
 30
0.0
 10
7.800000000000892
 20
4.127514515692651
 30
0.0
  0
LINE
  5
6C
330
1F
100
AcDbEntity
  8
SK3
100
AcDbLine
 10
7.8
 20
4.1275145157
 30
0.0
 11
-12.7
 21
4.1275145157
 31
0.0
  0
LINE
  5
6D
330
1F
100
AcDbEntity
  8
SK3
100
AcDbLine
 10
-12.7
 20
4.4463222184
 30
0.0
 11
-16.7
 21
4.4463222184
 31
0.0
  0
LINE
  5
6E
330
1F
100
AcDbEntity
  8
SK3
100
AcDbLine
 10
-16.7
 20
4.4463222184
 30
0.0
 11
-17.3062177826
 21
3.7022859925
 31
0.0
  0
LINE
  5
6F
330
1F
100
AcDbEntity
  8
SK3
100
AcDbLine
 10
-17.3062177826
 20
3.7022859925
 30
0.0
 11
-23.4
 21
3.7022859925
 31
0.0
  0
LINE
  5
70
330
1F
100
AcDbEntity
  8
SK1
  6
Continuous
100
AcDbLine
 10
8.1
 20
6.8667154709
 30
0.0
 11
8.1
 21
7.4324008959
 31
0.0
  0
LINE
  5
71
330
1F
100
AcDbEntity
  8
SK1
  6
Continuous
100
AcDbLine
 10
7.975
 20
7.5856112466
 30
0.0
 11
3.1
 21
9.576994199
 31
0.0
  0
LINE
  5
72
330
1F
100
AcDbEntity
  8
SK1
  6
Continuous
100
AcDbLine
 10
3.1
 20
9.576994199
 30
0.0
 11
3.1
 21
9.0113087741
 31
0.0
  0
SPLINE
  5
73
330
1F
100
AcDbEntity
  8
SK1
  6
Continuous
100
AcDbSpline
210
0.0
220
0.0
230
1.0
 70
     8
 71
     3
 72
    10
 73
     6
 74
     0
 42
0.0000000361031086
 43
0.0000000001
 12
1.0
 22
0.0
 32
0.0
 13
1.0
 23
0.0
 33
0.0
 40
0.0
 40
0.0
 40
0.0
 40
0.0
 40
0.5
 40
0.5
 40
1.0
 40
1.0
 40
1.0
 40
1.0
 10
3.100000000000914
 20
8.197386387209061
 30
0.0
 10
3.100000000000913
 20
8.160549321472345
 30
0.0
 10
3.078626200797534
 20
8.123697079706524
 30
0.0
 10
3.004486952019209
 20
8.071137925774774
 30
0.0
 10
2.952106441442115
 20
8.05587310936811
 30
0.0
 10
2.899999999997634
 20
8.055873109352957
 30
0.0
  0
LINE
  5
74
330
1F
100
AcDbEntity
  8
SK1
  6
Continuous
100
AcDbLine
 10
2.9
 20
8.0558731094
 30
0.0
 11
0.2
 21
8.0558731094
 31
0.0
  0
SPLINE
  5
75
330
1F
100
AcDbEntity
  8
SK1
  6
Continuous
100
AcDbSpline
210
0.0
220
0.0
230
1.0
 70
     8
 71
     3
 72
    10
 73
     6
 74
     0
 42
0.0000000360969961
 43
0.0000000001
 12
1.0
 22
0.0
 32
0.0
 13
1.0
 23
0.0
 33
0.0
 40
0.0
 40
0.0
 40
0.0
 40
0.0
 40
0.5
 40
0.5
 40
1.0
 40
1.0
 40
1.0
 40
1.0
 10
0.2000000000009147
 20
8.05587310936882
 30
0.0
 10
0.1473016614098183
 20
8.055873109368822
 30
0.0
 10
0.0954781153130121
 20
8.071196779237962
 30
0.0
 10
0.0215925839755302
 20
8.123507973671073
 30
0.0
 10
0.0000000000009142
 20
8.16018651273053
 30
0.0
 10
0.0000000000009142
 20
8.197386387209061
 30
0.0
  0
LINE
  5
76
330
1F
100
AcDbEntity
  8
SK1
  6
Continuous
100
AcDbLine
 10
0.0
 20
8.5514655096
 30
0.0
 11
0.0
 21
9.1171509346
 31
0.0
  0
LINE
  5
77
330
1F
100
AcDbEntity
  8
SK1
  6
Continuous
100
AcDbLine
 10
7.975
 20
7.0199258217
 30
0.0
 11
3.1
 21
9.0113087741
 31
0.0
  0
SPLINE
  5
78
330
1F
100
AcDbEntity
  8
SK1
  6
Continuous
100
AcDbSpline
210
0.0
220
0.0
230
1.0
 70
     8
 71
     3
 72
    10
 73
     6
 74
     0
 42
0.0000000361031086
 43
0.0000000001
 12
1.0
 22
0.0
 32
0.0
 13
1.0
 23
0.0
 33
0.0
 40
0.0
 40
0.0
 40
0.0
 40
0.0
 40
0.5
 40
0.5
 40
1.0
 40
1.0
 40
1.0
 40
1.0
 10
3.100000000000914
 20
7.631700962259822
 30
0.0
 10
3.100000000000913
 20
7.594863896523106
 30
0.0
 10
3.078626200797534
 20
7.558011654757286
 30
0.0
 10
3.004486952019209
 20
7.505452500825535
 30
0.0
 10
2.952106441442115
 20
7.490187684418873
 30
0.0
 10
2.899999999997634
 20
7.490187684403718
 30
0.0
  0
LINE
  5
79
330
1F
100
AcDbEntity
  8
SK1
  6
Continuous
100
AcDbLine
 10
2.9
 20
7.4901876844
 30
0.0
 11
0.2
 21
7.4901876844
 31
0.0
  0
SPLINE
  5
7A
330
1F
100
AcDbEntity
  8
SK1
  6
Continuous
100
AcDbSpline
210
0.0
220
0.0
230
1.0
 70
     8
 71
     3
 72
    10
 73
     6
 74
     0
 42
0.0000000360969961
 43
0.0000000001
 12
1.0
 22
0.0
 32
0.0
 13
1.0
 23
0.0
 33
0.0
 40
0.0
 40
0.0
 40
0.0
 40
0.0
 40
0.5
 40
0.5
 40
1.0
 40
1.0
 40
1.0
 40
1.0
 10
0.2000000000009147
 20
7.49018768441958
 30
0.0
 10
0.1473016614098183
 20
7.490187684419582
 30
0.0
 10
0.0954781153130121
 20
7.505511354288725
 30
0.0
 10
0.0215925839755302
 20
7.557822548721834
 30
0.0
 10
0.0000000000009142
 20
7.594501087781293
 30
0.0
 10
0.0000000000009142
 20
7.631700962259822
 30
0.0
  0
LINE
  5
7B
330
1F
100
AcDbEntity
  8
SK3
100
AcDbLine
 10
-16.7
 20
5.0120076434
 30
0.0
 11
-17.3062177826
 21
4.2679714174
 31
0.0
  0
LINE
  5
7C
330
1F
100
AcDbEntity
  8
SK3
100
AcDbLine
 10
-17.3062177826
 20
4.2679714174
 30
0.0
 11
-23.4
 21
4.2679714174
 31
0.0
  0
SPLINE
  5
7D
330
1F
100
AcDbEntity
  8
SK1
  6
Continuous
100
AcDbSpline
210
0.0
220
0.0
230
1.0
 70
     8
 71
     3
 72
    14
 73
    10
 74
     0
 42
0.0000000004252528
 43
0.0000000001
 12
1.0
 22
0.0
 32
0.0
 13
1.0
 23
0.0
 33
0.0
 40
0.0
 40
0.0
 40
0.0
 40
0.0
 40
0.1235909907309631
 40
0.1235909907309631
 40
0.1235909907309631
 40
0.8381641112638675
 40
0.8381641112638675
 40
0.8381641112638675
 40
1.0
 40
1.0
 40
1.0
 40
1.0
 10
-23.40000000000001
 20
6.79010286958172
 30
0.0
 10
-22.43599491837844
 20
6.885993619784531
 30
0.0
 10
-21.47198905842476
 20
6.98188045770097
 30
0.0
 10
-20.50798251505121
 20
7.077763860003226
 30
0.0
 10
-14.93433058729411
 20
7.632138427017749
 30
0.0
 10
-9.360656653164003
 20
8.186402370572882
 30
0.0
 10
-3.786971565144263
 20
8.740610216277869
 30
0.0
 10
-2.524648292822932
 20
8.866126719325411
 30
0.0
 10
-1.262324412925301
 20
8.991640167195332
 30
0.0
 10
0.0
 20
9.117150934564881
 30
0.0
  0
SPLINE
  5
7E
330
1F
100
AcDbEntity
  8
SK3
100
AcDbSpline
210
0.0
220
0.0
230
1.0
 70
     8
 71
     3
 72
    10
 73
     6
 74
     0
 42
0.0000000240530162
 43
0.0000000001
 12
1.0
 22
0.0
 32
0.0
 13
1.0
 23
0.0
 33
0.0
 40
0.0
 40
0.0
 40
0.0
 40
0.0
 40
0.5
 40
0.5
 40
1.0
 40
1.0
 40
1.0
 40
1.0
 10
8.100000000000914
 20
4.905747743130218
 30
0.0
 10
8.100000000000918
 20
4.850317465608751
 30
0.0
 10
8.068154322315001
 20
4.795206666570871
 30
0.0
 10
7.956408900772429
 20
4.715921117042265
 30
0.0
 10
7.878446531405641
 20
4.693199940642046
 30
0.0
 10
7.800000000000892
 20
4.693199940641888
 30
0.0
  0
LINE
  5
7F
330
1F
100
AcDbEntity
  8
SK3
100
AcDbLine
 10
7.8
 20
4.6931999406
 30
0.0
 11
-12.7
 21
4.6931999406
 31
0.0
  0
LINE
  5
80
330
1F
100
AcDbEntity
  8
SK3
100
AcDbLine
 10
-12.7
 20
4.6931999406
 30
0.0
 11
-12.7
 21
5.0120076434
 31
0.0
  0
LINE
  5
81
330
1F
100
AcDbEntity
  8
SK3
100
AcDbLine
 10
-12.7
 20
5.0120076434
 30
0.0
 11
-16.7
 21
5.0120076434
 31
0.0
  0
LINE
  5
82
330
1F
100
AcDbEntity
  8
SK1
  6
Continuous
100
AcDbLine
 10
-25.6029195794
 20
8.8927528675
 30
0.0
 11
-25.6029195794
 21
0.4000000998
 31
0.0
  0
LINE
  5
83
330
1F
100
AcDbEntity
  8
SK1
  6
Continuous
100
AcDbLine
 10
-25.9
 20
-8.5506413713
 30
0.0
 11
-25.9
 21
-0.3999999002
 31
0.0
  0
LINE
  5
84
330
1F
100
AcDbEntity
  8
SK1
  6
Continuous
100
AcDbLine
 10
-25.9
 20
-8.5506413713
 30
0.0
 11
-25.6029195794
 21
-8.8927526679
 31
0.0
  0
LINE
  5
85
330
1F
100
AcDbEntity
  8
SK1
  6
Continuous
100
AcDbLine
 10
-25.6029195794
 20
8.8927528675
 30
0.0
 11
-25.9
 21
8.5506415708
 31
0.0
  0
LINE
  5
86
330
1F
100
AcDbEntity
  8
SK1
  6
Continuous
100
AcDbLine
 10
0.0
 20
-12.493598261
 30
0.0
 11
0.0
 21
-9.117150735
 31
0.0
  0
LINE
  5
87
330
1F
100
AcDbEntity
  8
SK3
100
AcDbLine
 10
-25.85
 20
-6.4876805336
 30
0.0
 11
-25.85
 21
-6.422245925
 31
0.0
  0
LINE
  5
88
330
1F
100
AcDbEntity
  8
SK3
100
AcDbLine
 10
-16.8154700538
 20
6.4876807331
 30
0.0
 11
-16.8154700538
 21
6.4222461246
 31
0.0
  0
LINE
  5
89
330
1F
100
AcDbEntity
  8
SK3
100
AcDbLine
 10
-16.7
 20
-6.6880489431
 30
0.0
 11
-16.7
 21
-5.0120074438
 31
0.0
  0
LINE
  5
8A
330
1F
100
AcDbEntity
  8
SK3
100
AcDbLine
 10
-12.7
 20
-6.6880489431
 30
0.0
 11
-12.7
 21
-5.0120074438
 31
0.0
  0
LINE
  5
8B
330
1F
100
AcDbEntity
  8
SK1
  6
Continuous
100
AcDbLine
 10
0.2
 20
10.9927249667
 30
0.0
 11
0.2
 21
8.0558731094
 31
0.0
  0
LINE
  5
8C
330
1F
100
AcDbEntity
  8
SK1
  6
Continuous
100
AcDbLine
 10
2.6
 20
10.9927249667
 30
0.0
 11
2.6
 21
11.0000000998
 31
0.0
  0
LINE
  5
8D
330
1F
100
AcDbEntity
  8
SK3
100
AcDbLine
 10
2.6
 20
-6.2371867661
 30
0.0
 11
2.6
 21
-10.9927247672
 31
0.0
  0
LINE
  5
8E
330
1F
100
AcDbEntity
  8
SK1
  6
Continuous
100
AcDbLine
 10
2.6
 20
-10.9927247672
 30
0.0
 11
2.6
 21
-10.9999999002
 31
0.0
  0
LINE
  5
8F
330
1F
100
AcDbEntity
  8
SK3
100
AcDbLine
 10
2.6
 20
10.9927249667
 30
0.0
 11
2.6
 21
6.2371869657
 31
0.0
  0
SPLINE
  5
90
330
1F
100
AcDbEntity
  8
SK1
  6
Continuous
100
AcDbSpline
210
0.0
220
0.0
230
1.0
 70
     8
 71
     3
 72
    11
 73
     7
 74
     0
 42
0.000000000386774
 43
0.0000000001
 12
1.0
 22
0.0
 32
0.0
 13
1.0
 23
0.0
 33
0.0
 40
0.0
 40
0.0
 40
0.0
 40
0.0
 40
0.8487982854704748
 40
0.8487982854704748
 40
0.8487982854704748
 40
1.0
 40
1.0
 40
1.0
 40
1.0
 10
0.0
 20
12.49359846053782
 30
0.0
 10
-7.243933860992502
 20
11.47500829744446
 30
0.0
 10
-14.48785198312092
 20
10.45630617092285
 30
0.0
 10
-21.73173172676849
 20
9.437331214235144
 30
0.0
 10
-23.02212905238066
 20
9.255814871403988
 30
0.0
 10
-24.31252508751518
 20
9.07428935424893
 30
0.0
 10
-25.60291957937753
 20
8.892752867466912
 30
0.0
  0
LINE
  5
91
330
1F
100
AcDbEntity
  8
SK3
100
AcDbLine
 10
-25.9
 20
6.5377749506
 30
0.0
 11
-25.85
 21
6.4876807331
 31
0.0
  0
LINE
  5
92
330
1F
100
AcDbEntity
  8
SK3
100
AcDbLine
 10
-16.8154700538
 20
6.4876807331
 30
0.0
 11
-16.7
 21
6.6880491427
 31
0.0
  0
LINE
  5
93
330
1F
100
AcDbEntity
  8
SK3
100
AcDbLine
 10
-16.7
 20
6.6880491427
 30
0.0
 11
-12.7
 21
6.6880491427
 31
0.0
  0
LINE
  5
94
330
1F
100
AcDbEntity
  8
SK3
100
AcDbLine
 10
-12.7
 20
6.2371869657
 30
0.0
 11
2.6
 21
6.2371869657
 31
0.0
  0
LINE
  5
95
330
1F
100
AcDbEntity
  8
SK3
100
AcDbLine
 10
2.6
 20
-6.2371867661
 30
0.0
 11
-12.7
 21
-6.2371867661
 31
0.0
  0
LINE
  5
96
330
1F
100
AcDbEntity
  8
SK3
100
AcDbLine
 10
-12.7
 20
-6.6880489431
 30
0.0
 11
-16.7
 21
-6.6880489431
 31
0.0
  0
LINE
  5
97
330
1F
100
AcDbEntity
  8
SK3
100
AcDbLine
 10
-16.7
 20
-6.6880489431
 30
0.0
 11
-16.8154700538
 21
-6.4876805336
 31
0.0
  0
LINE
  5
98
330
1F
100
AcDbEntity
  8
SK3
100
AcDbLine
 10
-25.85
 20
-6.4876805336
 30
0.0
 11
-25.9
 21
-6.537774751
 31
0.0
  0
SPLINE
  5
99
330
1F
100
AcDbEntity
  8
SK1
  6
Continuous
100
AcDbSpline
210
0.0
220
0.0
230
1.0
 70
     8
 71
     3
 72
    11
 73
     7
 74
     0
 42
0.000000000386774
 43
0.0000000001
 12
1.0
 22
0.0
 32
0.0
 13
1.0
 23
0.0
 33
0.0
 40
0.0
 40
0.0
 40
0.0
 40
0.0
 40
0.6044573081759652
 40
0.6044573081759652
 40
0.6044573081759652
 40
1.0
 40
1.0
 40
1.0
 40
1.0
 10
-25.60291957937753
 20
-8.892752667925533
 30
0.0
 10
-20.44432476353222
 20
-9.618478936524934
 30
0.0
 10
-15.28570615874357
 20
-10.34403611250882
 30
0.0
 10
-10.12707549945541
 20
-11.06950755374792
 30
0.0
 10
-6.751388532173817
 20
-11.54423905733336
 30
0.0
 10
-3.375696144098111
 20
-12.0189320158384
 30
0.0
 10
0.0
 20
-12.49359826099644
 30
0.0
  0
SPLINE
  5
9A
330
1F
100
AcDbEntity
  8
SK1
  6
Continuous
100
AcDbSpline
210
0.0
220
0.0
230
1.0
 70
     8
 71
     3
 72
    10
 73
     6
 74
     0
 42
0.0000000310291255
 43
0.0000000001
 12
1.0
 22
0.0
 32
0.0
 13
1.0
 23
0.0
 33
0.0
 40
0.0
 40
0.0
 40
0.0
 40
0.0
 40
0.5
 40
0.5
 40
1.0
 40
1.0
 40
1.0
 40
1.0
 10
0.0000000000009142
 20
11.19285496347727
 30
0.0
 10
0.0000000000009107
 20
11.14068707322832
 30
0.0
 10
0.0212003295429006
 20
11.08878574489793
 30
0.0
 10
0.0958027261514938
 20
11.01405301819807
 30
0.0
 10
0.1471608956600343
 20
10.99272496669893
 30
0.0
 10
0.2000000000009147
 20
10.99272496669973
 30
0.0
  0
LINE
  5
9B
330
1F
100
AcDbEntity
  8
SK1
  6
Continuous
100
AcDbLine
 10
0.2
 20
10.9927249667
 30
0.0
 11
2.6
 21
10.9927249667
 31
0.0
  0
LINE
  5
9C
330
1F
100
AcDbEntity
  8
SK1
  6
Continuous
100
AcDbLine
 10
2.6
 20
-10.9927247672
 30
0.0
 11
0.2
 21
-10.9927247672
 31
0.0
  0
SPLINE
  5
9D
330
1F
100
AcDbEntity
  8
SK1
  6
Continuous
100
AcDbSpline
210
0.0
220
0.0
230
1.0
 70
     8
 71
     3
 72
    10
 73
     6
 74
     0
 42
0.0000000310369852
 43
0.0000000001
 12
1.0
 22
0.0
 32
0.0
 13
1.0
 23
0.0
 33
0.0
 40
0.0
 40
0.0
 40
0.0
 40
0.0
 40
0.5
 40
0.5
 40
1.0
 40
1.0
 40
1.0
 40
1.0
 10
0.2000000000009147
 20
-10.99272476715835
 30
0.0
 10
0.1471213835876704
 20
-10.99272476715835
 30
0.0
 10
0.095400147047486
 20
-11.01445869479075
 30
0.0
 10
0.0216128281373424
 20
-11.08836973275141
 30
0.0
 10
0.0000000000009107
 20
-11.14064178462878
 30
0.0
 10
0.0000000000009142
 20
-11.19285476393589
 30
0.0
  0
LINE
  5
9E
330
1F
100
AcDbEntity
  8
SK3
100
AcDbLine
 10
-25.85
 20
-6.4876805336
 30
0.0
 11
-16.8154700538
 21
-6.4876805336
 31
0.0
  0
LINE
  5
9F
330
1F
100
AcDbEntity
  8
SK3
100
AcDbLine
 10
-16.8154700538
 20
6.4876807331
 30
0.0
 11
-25.85
 21
6.4876807331
 31
0.0
  0
LINE
  5
A0
330
1F
100
AcDbEntity
  8
SK1
  6
Continuous
100
AcDbLine
 10
8.1
 20
-10.118910987
 30
0.0
 11
8.1
 21
-7.4324006963
 31
0.0
  0
LINE
  5
A1
330
1F
100
AcDbEntity
  8
SK1
  6
Continuous
100
AcDbLine
 10
7.975
 20
-7.0199256221
 30
0.0
 11
7.975
 21
7.0199258217
 31
0.0
  0
SPLINE
  5
A2
330
1F
100
AcDbEntity
  8
SK1
  6
Continuous
100
AcDbSpline
210
0.0
220
0.0
230
1.0
 70
     8
 71
     3
 72
    10
 73
     6
 74
     0
 42
0.0000000469997246
 43
0.0000000001
 12
1.0
 22
0.0
 32
0.0
 13
1.0
 23
0.0
 33
0.0
 40
0.0
 40
0.0
 40
0.0
 40
0.0
 40
0.5
 40
0.5
 40
1.0
 40
1.0
 40
1.0
 40
1.0
 10
7.97500000000091
 20
-7.019925622110845
 30
0.0
 10
8.012583256409146
 20
-7.004570818142359
 30
0.0
 10
8.044949410701706
 20
-6.981646911667746
 30
0.0
 10
8.088279790434797
 20
-6.928431291782958
 30
0.0
 10
8.100000000000914
 20
-6.897790841845557
 30
0.0
 10
8.100000000000914
 20
-6.866715271362789
 30
0.0
  0
SPLINE
  5
A3
330
1F
100
AcDbEntity
  8
SK1
  6
Continuous
100
AcDbSpline
210
0.0
220
0.0
230
1.0
 70
     8
 71
     3
 72
    10
 73
     6
 74
     0
 42
0.0000000469997246
 43
0.0000000001
 12
1.0
 22
0.0
 32
0.0
 13
1.0
 23
0.0
 33
0.0
 40
0.0
 40
0.0
 40
0.0
 40
0.0
 40
0.5
 40
0.5
 40
1.0
 40
1.0
 40
1.0
 40
1.0
 10
7.97500000000091
 20
-7.585611047060082
 30
0.0
 10
8.012583256409146
 20
-7.570256243091598
 30
0.0
 10
8.044949410701706
 20
-7.547332336616985
 30
0.0
 10
8.088279790434797
 20
-7.494116716732194
 30
0.0
 10
8.100000000000914
 20
-7.463476266794795
 30
0.0
 10
8.100000000000914
 20
-7.432400696312028
 30
0.0
  0
LINE
  5
A4
330
1F
100
AcDbEntity
  8
SK1
  6
Continuous
100
AcDbLine
 10
3.1
 20
-9.0113085745
 30
0.0
 11
3.1
 21
9.0113087741
 31
0.0
  0
LINE
  5
A5
330
1F
100
AcDbEntity
  8
SK1
  6
Continuous
100
AcDbLine
 10
2.9
 20
-7.4901874849
 30
0.0
 11
2.9
 21
7.4901876844
 31
0.0
  0
LINE
  5
A6
330
1F
100
AcDbEntity
  8
SK3
100
AcDbLine
 10
-17.3062177826
 20
-3.702285793
 30
0.0
 11
-17.3062177826
 21
-2.2358281954
 31
0.0
  0
LINE
  5
A7
330
1F
100
AcDbEntity
  8
SK1
  6
Continuous
100
AcDbLine
 10
8.1
 20
7.4324008959
 30
0.0
 11
8.1
 21
10.1189111865
 31
0.0
  0
LINE
  5
A8
330
1F
100
AcDbEntity
  8
SK1
  6
Continuous
100
AcDbLine
 10
0.0
 20
-8.5514653101
 30
0.0
 11
0.0
 21
-0.3999999002
 31
0.0
  0
LINE
  5
A9
330
1F
100
AcDbEntity
  8
SK3
100
AcDbLine
 10
-16.7
 20
-4.4463220189
 30
0.0
 11
-16.7
 21
-0.3999999002
 31
0.0
  0
LINE
  5
AA
330
1F
100
AcDbEntity
  8
SK3
100
AcDbLine
 10
-12.7
 20
-4.4463220189
 30
0.0
 11
-12.7
 21
-0.3999999002
 31
0.0
  0
LINE
  5
AB
330
1F
100
AcDbEntity
  8
SK1
  6
Continuous
100
AcDbLine
 10
0.2
 20
-8.0558729098
 30
0.0
 11
0.2
 21
-10.9927247672
 31
0.0
  0
LINE
  5
AC
330
1F
100
AcDbEntity
  8
SK3
100
AcDbLine
 10
-23.4
 20
-6.2244172451
 30
0.0
 11
-23.4
 21
-3.702285793
 31
0.0
  0
SPLINE
  5
AD
330
1F
100
AcDbEntity
  8
SK1
  6
Continuous
100
AcDbSpline
210
0.0
220
0.0
230
1.0
 70
     8
 71
     3
 72
    14
 73
    10
 74
     0
 42
0.0000000004252528
 43
0.0000000001
 12
1.0
 22
0.0
 32
0.0
 13
1.0
 23
0.0
 33
0.0
 40
0.0
 40
0.0
 40
0.0
 40
0.0
 40
0.1265003683846884
 40
0.1265003683846884
 40
0.1265003683846884
 40
0.8417843559881684
 40
0.8417843559881684
 40
0.8417843559881684
 40
1.0
 40
1.0
 40
1.0
 40
1.0
 10
-23.40000000000001
 20
-6.790102670040337
 30
0.0
 10
-22.41330188205223
 20
-6.888250723984783
 30
0.0
 10
-21.42660294876307
 20
-6.986394679616867
 30
0.0
 10
-20.43990330170381
 20
-7.084535047052936
 30
0.0
 10
-14.86070644281089
 20
-7.639460176865046
 30
0.0
 10
-9.281487599559654
 20
-8.194274793688828
 30
0.0
 10
-3.702257613543868
 20
-8.749033368573802
 30
0.0
 10
-2.468172298201799
 20
-8.871741952471869
 30
0.0
 10
-1.234086403847798
 20
-8.994447624823545
 30
0.0
 10
0.0
 20
-9.117150735023497
 30
0.0
  0
SPLINE
  5
AE
330
1F
100
AcDbEntity
  8
SK3
100
AcDbSpline
210
0.0
220
0.0
230
1.0
 70
     8
 71
     3
 72
    10
 73
     6
 74
     0
 42
0.0000000240599103
 43
0.0000000001
 12
1.0
 22
0.0
 32
0.0
 13
1.0
 23
0.0
 33
0.0
 40
0.0
 40
0.0
 40
0.0
 40
0.0
 40
0.5
 40
0.5
 40
1.0
 40
1.0
 40
1.0
 40
1.0
 10
8.100000000000914
 20
-4.905747543588834
 30
0.0
 10
8.100000000000914
 20
-4.8504453269893
 30
0.0
 10
8.067433928214207
 20
-4.794596051234501
 30
0.0
 10
7.956591717405982
 20
-4.716150394618512
 30
0.0
 10
7.878230074454871
 20
-4.6931997411001
 30
0.0
 10
7.799999999998435
 20
-4.693199741087787
 30
0.0
  0
LINE
  5
AF
330
1F
100
AcDbEntity
  8
SK3
100
AcDbLine
 10
7.8
 20
-4.6931997411
 30
0.0
 11
-12.7
 21
-4.6931997411
 31
0.0
  0
LINE
  5
B0
330
1F
100
AcDbEntity
  8
SK3
100
AcDbLine
 10
-12.7
 20
-4.6931997411
 30
0.0
 11
-12.7
 21
-5.0120074438
 31
0.0
  0
LINE
  5
B1
330
1F
100
AcDbEntity
  8
SK3
100
AcDbLine
 10
-12.7
 20
-5.0120074438
 30
0.0
 11
-16.7
 21
-5.0120074438
 31
0.0
  0
LINE
  5
B2
330
1F
100
AcDbEntity
  8
SK3
100
AcDbLine
 10
-16.7
 20
-5.0120074438
 30
0.0
 11
-17.3062177826
 21
-4.2679712179
 31
0.0
  0
LINE
  5
B3
330
1F
100
AcDbEntity
  8
SK3
100
AcDbLine
 10
-17.3062177826
 20
-4.2679712179
 30
0.0
 11
-23.4
 21
-4.2679712179
 31
0.0
  0
LINE
  5
B4
330
1F
100
AcDbEntity
  8
SK1
  6
Continuous
100
AcDbLine
 10
7.975
 20
-7.0199256221
 30
0.0
 11
3.1
 21
-9.0113085745
 31
0.0
  0
SPLINE
  5
B5
330
1F
100
AcDbEntity
  8
SK1
  6
Continuous
100
AcDbSpline
210
0.0
220
0.0
230
1.0
 70
     8
 71
     3
 72
    10
 73
     6
 74
     0
 42
0.0000000360973485
 43
0.0000000001
 12
1.0
 22
0.0
 32
0.0
 13
1.0
 23
0.0
 33
0.0
 40
0.0
 40
0.0
 40
0.0
 40
0.0
 40
0.5
 40
0.5
 40
1.0
 40
1.0
 40
1.0
 40
1.0
 10
3.100000000000914
 20
-7.631700762718439
 30
0.0
 10
3.100000000000914
 20
-7.594700908217965
 30
0.0
 10
3.078618722817628
 20
-7.55795856995258
 30
0.0
 10
3.004238645967034
 20
-7.505324018888984
 30
0.0
 10
2.952278207475338
 20
-7.4901874848782
 30
0.0
 10
2.900000000000921
 20
-7.490187484878126
 30
0.0
  0
LINE
  5
B6
330
1F
100
AcDbEntity
  8
SK1
  6
Continuous
100
AcDbLine
 10
2.9
 20
-7.4901874849
 30
0.0
 11
0.2
 21
-7.4901874849
 31
0.0
  0
SPLINE
  5
B7
330
1F
100
AcDbEntity
  8
SK1
  6
Continuous
100
AcDbSpline
210
0.0
220
0.0
230
1.0
 70
     8
 71
     3
 72
    10
 73
     6
 74
     0
 42
0.0000000361073515
 43
0.0000000001
 12
1.0
 22
0.0
 32
0.0
 13
1.0
 23
0.0
 33
0.0
 40
0.0
 40
0.0
 40
0.0
 40
0.0
 40
0.5
 40
0.5
 40
1.0
 40
1.0
 40
1.0
 40
1.0
 10
0.2000000000009147
 20
-7.490187484878197
 30
0.0
 10
0.14786308600237
 20
-7.490187484878197
 30
0.0
 10
0.0956421515453075
 20
-7.505457326342499
 30
0.0
 10
0.0217652248610273
 20
-7.557638092585274
 30
0.0
 10
0.0000000000015491
 20
-7.594850270054651
 30
0.0
 10
-0.0000000000134372
 20
-7.631700762717023
 30
0.0
  0
LINE
  5
B8
330
1F
100
AcDbEntity
  8
SK1
  6
Continuous
100
AcDbLine
 10
-23.4
 20
-6.79010267
 30
0.0
 11
-23.4
 21
-6.2244172451
 31
0.0
  0
LINE
  5
B9
330
1F
100
AcDbEntity
  8
SK1
  6
Continuous
100
AcDbLine
 10
8.1
 20
-6.8667152714
 30
0.0
 11
8.1
 21
-7.4324006963
 31
0.0
  0
LINE
  5
BA
330
1F
100
AcDbEntity
  8
SK1
  6
Continuous
100
AcDbLine
 10
7.975
 20
-7.5856110471
 30
0.0
 11
3.1
 21
-9.5769939995
 31
0.0
  0
LINE
  5
BB
330
1F
100
AcDbEntity
  8
SK1
  6
Continuous
100
AcDbLine
 10
3.1
 20
-9.5769939995
 30
0.0
 11
3.1
 21
-9.0113085745
 31
0.0
  0
SPLINE
  5
BC
330
1F
100
AcDbEntity
  8
SK1
  6
Continuous
100
AcDbSpline
210
0.0
220
0.0
230
1.0
 70
     8
 71
     3
 72
    10
 73
     6
 74
     0
 42
0.0000000360973485
 43
0.0000000001
 12
1.0
 22
0.0
 32
0.0
 13
1.0
 23
0.0
 33
0.0
 40
0.0
 40
0.0
 40
0.0
 40
0.0
 40
0.5
 40
0.5
 40
1.0
 40
1.0
 40
1.0
 40
1.0
 10
3.100000000000914
 20
-8.197386187667675
 30
0.0
 10
3.100000000000914
 20
-8.160386333167203
 30
0.0
 10
3.078618722817628
 20
-8.123643994901819
 30
0.0
 10
3.004238645967034
 20
-8.071009443838225
 30
0.0
 10
2.952278207475338
 20
-8.055872909827439
 30
0.0
 10
2.900000000000921
 20
-8.055872909827363
 30
0.0
  0
LINE
  5
BD
330
1F
100
AcDbEntity
  8
SK1
  6
Continuous
100
AcDbLine
 10
2.9
 20
-8.0558729098
 30
0.0
 11
0.2
 21
-8.0558729098
 31
0.0
  0
SPLINE
  5
BE
330
1F
100
AcDbEntity
  8
SK1
  6
Continuous
100
AcDbSpline
210
0.0
220
0.0
230
1.0
 70
     8
 71
     3
 72
    10
 73
     6
 74
     0
 42
0.0000000361073515
 43
0.0000000001
 12
1.0
 22
0.0
 32
0.0
 13
1.0
 23
0.0
 33
0.0
 40
0.0
 40
0.0
 40
0.0
 40
0.0
 40
0.5
 40
0.5
 40
1.0
 40
1.0
 40
1.0
 40
1.0
 10
0.2000000000009147
 20
-8.055872909827436
 30
0.0
 10
0.14786308600237
 20
-8.055872909827434
 30
0.0
 10
0.0956421515453075
 20
-8.071142751291735
 30
0.0
 10
0.0217652248610273
 20
-8.123323517534512
 30
0.0
 10
0.0000000000015491
 20
-8.16053569500389
 30
0.0
 10
-0.0000000000134372
 20
-8.197386187666261
 30
0.0
  0
LINE
  5
BF
330
1F
100
AcDbEntity
  8
SK1
  6
Continuous
100
AcDbLine
 10
0.0
 20
-8.5514653101
 30
0.0
 11
0.0
 21
-9.117150735
 31
0.0
  0
LINE
  5
C0
330
1F
100
AcDbEntity
  8
SK3
100
AcDbLine
 10
-16.7
 20
-4.4463220189
 30
0.0
 11
-17.3062177826
 21
-3.702285793
 31
0.0
  0
LINE
  5
C1
330
1F
100
AcDbEntity
  8
SK3
100
AcDbLine
 10
-17.3062177826
 20
-3.702285793
 30
0.0
 11
-23.4
 21
-3.702285793
 31
0.0
  0
SPLINE
  5
C2
330
1F
100
AcDbEntity
  8
SK1
  6
Continuous
100
AcDbSpline
210
0.0
220
0.0
230
1.0
 70
     8
 71
     3
 72
    14
 73
    10
 74
     0
 42
0.0000000004252528
 43
0.0000000001
 12
1.0
 22
0.0
 32
0.0
 13
1.0
 23
0.0
 33
0.0
 40
0.0
 40
0.0
 40
0.0
 40
0.0
 40
0.1265003683846884
 40
0.1265003683846884
 40
0.1265003683846884
 40
0.8417843559881684
 40
0.8417843559881684
 40
0.8417843559881684
 40
1.0
 40
1.0
 40
1.0
 40
1.0
 10
-23.40000000000001
 20
-6.224417245091098
 30
0.0
 10
-22.41330188205223
 20
-6.322565299035545
 30
0.0
 10
-21.42660294876307
 20
-6.420709254667627
 30
0.0
 10
-20.43990330170381
 20
-6.518849622103699
 30
0.0
 10
-14.86070644281089
 20
-7.073774751915807
 30
0.0
 10
-9.281487599559654
 20
-7.628589368739589
 30
0.0
 10
-3.702257613543868
 20
-8.183347943624563
 30
0.0
 10
-2.468172298201799
 20
-8.30605652752263
 30
0.0
 10
-1.234086403847798
 20
-8.428762199874306
 30
0.0
 10
0.0
 20
-8.551465310074262
 30
0.0
  0
SPLINE
  5
C3
330
1F
100
AcDbEntity
  8
SK3
100
AcDbSpline
210
0.0
220
0.0
230
1.0
 70
     8
 71
     3
 72
    10
 73
     6
 74
     0
 42
0.0000000240599103
 43
0.0000000001
 12
1.0
 22
0.0
 32
0.0
 13
1.0
 23
0.0
 33
0.0
 40
0.0
 40
0.0
 40
0.0
 40
0.0
 40
0.5
 40
0.5
 40
1.0
 40
1.0
 40
1.0
 40
1.0
 10
8.100000000000914
 20
-4.340062118639596
 30
0.0
 10
8.100000000000914
 20
-4.284759902040062
 30
0.0
 10
8.067433928214207
 20
-4.228910626285262
 30
0.0
 10
7.956591717405982
 20
-4.150464969669275
 30
0.0
 10
7.878230074454871
 20
-4.127514316150862
 30
0.0
 10
7.799999999998435
 20
-4.127514316138548
 30
0.0
  0
LINE
  5
C4
330
1F
100
AcDbEntity
  8
SK3
100
AcDbLine
 10
7.8
 20
-4.1275143161
 30
0.0
 11
-12.7
 21
-4.1275143162
 31
0.0
  0
LINE
  5
C5
330
1F
100
AcDbEntity
  8
SK3
100
AcDbLine
 10
-12.7
 20
-4.4463220189
 30
0.0
 11
-16.7
 21
-4.4463220189
 31
0.0
  0
LINE
  5
C6
330
1F
100
AcDbEntity
  8
SK3
100
AcDbLine
 10
-16.8154700538
 20
-0.3999999002
 30
0.0
 11
-16.8154700538
 21
-1.0023750779
 31
0.0
  0
LINE
  5
C7
330
1F
100
AcDbEntity
  8
SK3
100
AcDbLine
 10
-25.85
 20
0.4000000998
 30
0.0
 11
-25.85
 21
1.0023752774
 31
0.0
  0
LINE
  5
C8
330
1F
100
AcDbEntity
  8
SK1
  6
Continuous
100
AcDbLine
 10
-25.6029195794
 20
-0.3999999002
 30
0.0
 11
-25.6029195794
 21
-8.8927526679
 31
0.0
  0
LINE
  5
C9
330
1F
100
AcDbEntity
  8
SK1
  6
Continuous
100
AcDbLine
 10
-25.9
 20
0.4000000998
 30
0.0
 11
-25.9
 21
8.5506415708
 31
0.0
  0
LINE
  5
CA
330
1F
100
AcDbEntity
  8
SK1
  6
Continuous
100
AcDbLine
 10
0.0
 20
0.4000000998
 30
0.0
 11
0.0
 21
8.5514655096
 31
0.0
  0
LINE
  5
CB
330
1F
100
AcDbEntity
  8
SK3
100
AcDbLine
 10
-16.7
 20
0.4000000998
 30
0.0
 11
-16.7
 21
4.4463222184
 31
0.0
  0
LINE
  5
CC
330
1F
100
AcDbEntity
  8
SK3
100
AcDbLine
 10
-12.7
 20
0.4000000998
 30
0.0
 11
-12.7
 21
4.4463222184
 31
0.0
  0
LINE
  5
CD
330
1F
100
AcDbEntity
  8
SK1
  6
Continuous
100
AcDbLine
 10
0.2
 20
-0.3999999002
 30
0.0
 11
0.2
 21
-7.4901874849
 31
0.0
  0
LINE
  5
CE
330
1F
100
AcDbEntity
  8
SK1
  6
Continuous
100
AcDbLine
 10
2.6
 20
0.4000000998
 30
0.0
 11
2.6
 21
-0.3999999002
 31
0.0
  0
LINE
  5
CF
330
1F
100
AcDbEntity
  8
SK1
  6
Continuous
100
AcDbLine
 10
0.0
 20
-0.3999999002
 30
0.0
 11
-25.6029195794
 21
-0.3999999002
 31
0.0
  0
LINE
  5
D0
330
1F
100
AcDbEntity
  8
SK1
  6
Continuous
100
AcDbLine
 10
-25.6029195794
 20
-0.3999999002
 30
0.0
 11
-25.9
 21
-0.3999999002
 31
0.0
  0
LINE
  5
D1
330
1F
100
AcDbEntity
  8
SK1
  6
Continuous
100
AcDbLine
 10
0.0
 20
0.4000000998
 30
0.0
 11
0.2
 21
0.4000000998
 31
0.0
  0
LINE
  5
D2
330
1F
100
AcDbEntity
  8
SK1
  6
Continuous
100
AcDbLine
 10
0.2
 20
0.4000000998
 30
0.0
 11
2.6
 21
0.4000000998
 31
0.0
  0
LINE
  5
D3
330
1F
100
AcDbEntity
  8
SK1
  6
Continuous
100
AcDbLine
 10
0.0
 20
-0.3999999002
 30
0.0
 11
0.2
 21
-0.3999999002
 31
0.0
  0
LINE
  5
D4
330
1F
100
AcDbEntity
  8
SK1
  6
Continuous
100
AcDbLine
 10
0.2
 20
-0.3999999002
 30
0.0
 11
2.6
 21
-0.3999999002
 31
0.0
  0
LINE
  5
D5
330
1F
100
AcDbEntity
  8
SK1
  6
Continuous
100
AcDbLine
 10
0.0
 20
0.4000000998
 30
0.0
 11
-25.6029195794
 21
0.4000000998
 31
0.0
  0
LINE
  5
D6
330
1F
100
AcDbEntity
  8
SK1
  6
Continuous
100
AcDbLine
 10
-25.6029195794
 20
0.4000000998
 30
0.0
 11
-25.9
 21
0.4000000998
 31
0.0
  0
LINE
  5
D7
330
1F
100
AcDbEntity
  8
SK1
  6
Continuous
100
AcDbLine
 10
2.6
 20
-10.9999999002
 30
0.0
 11
2.9
 21
-10.9999999002
 31
0.0
  0
ARC
  5
D8
330
1F
100
AcDbEntity
  8
SK1
  6
Continuous
100
AcDbCircle
 10
2.9
 20
-11.1999999002
 30
0.0
 40
0.2000000000000003
100
AcDbArc
 50
0.0
 51
90.0
  0
LINE
  5
D9
330
1F
100
AcDbEntity
  8
SK3
100
AcDbLine
 10
2.6
 20
-6.2499999002
 30
0.0
 11
7.8
 21
-6.2499999002
 31
0.0
  0
LINE
  5
DA
330
1F
100
AcDbEntity
  8
SK1
  6
Continuous
100
AcDbLine
 10
3.1
 20
-13.1499999002
 30
0.0
 11
7.975
 21
-10.3354173379
 31
0.0
  0
ARC
  5
DB
330
1F
100
AcDbEntity
  8
SK3
100
AcDbCircle
 10
7.8
 20
-6.5499999002
 30
0.0
 40
0.3000000000000004
100
AcDbArc
 50
0.0
 51
90.0
  0
ARC
  5
DC
330
1F
100
AcDbEntity
  8
SK1
  6
Continuous
100
AcDbCircle
 10
7.85
 20
-10.118910987
 30
0.0
 40
0.2499999999999993
100
AcDbArc
 50
300.0
 51
0.0
  0
ARC
  5
DD
330
1F
100
AcDbEntity
  8
SK1
  6
Continuous
100
AcDbCircle
 10
7.85
 20
10.1189111865
 30
0.0
 40
0.2500000000000002
100
AcDbArc
 50
0.0
 51
60.0
  0
ARC
  5
DE
330
1F
100
AcDbEntity
  8
SK3
100
AcDbCircle
 10
7.8
 20
6.5500000998
 30
0.0
 40
0.3000000000000017
100
AcDbArc
 50
270.0
 51
0.0
  0
LINE
  5
DF
330
1F
100
AcDbEntity
  8
SK1
  6
Continuous
100
AcDbLine
 10
7.975
 20
10.3354175375
 30
0.0
 11
3.1
 21
13.1500000998
 31
0.0
  0
ARC
  5
E0
330
1F
100
AcDbEntity
  8
SK1
  6
Continuous
100
AcDbCircle
 10
2.9
 20
11.2000000998
 30
0.0
 40
0.2000000000000007
100
AcDbArc
 50
270.0
 51
0.0
  0
LINE
  5
E1
330
1F
100
AcDbEntity
  8
SK3
100
AcDbLine
 10
7.8
 20
6.2500000998
 30
0.0
 11
2.6
 21
6.2500000998
 31
0.0
  0
LINE
  5
E2
330
1F
100
AcDbEntity
  8
SK1
  6
Continuous
100
AcDbLine
 10
2.9
 20
11.0000000998
 30
0.0
 11
2.6
 21
11.0000000998
 31
0.0
  0
LINE
  5
E4
330
1F
100
AcDbEntity
  8
SK4
  6
Continuous
100
AcDbLine
 10
8.1
 20
0.0000000998
 30
0.0
 11
-25.9
 21
0.0000000998
 31
0.0
  0
DIMENSION
  5
FA
330
1F
100
AcDbEntity
  8
SK2
  6
Continuous
 62
   136
100
AcDbDimension
  2
DMBLK105
 10
-25.9
 20
21.8324765138
 30
0.0
 11
-8.9000009239
 21
21.8324765138
 31
0.0
 70
   160
  1
\A1;<>
 71
     5
 42
-1.0
  3
DIN
100
AcDbAlignedDimension
 13
8.1
 23
10.1189111865
 33
0.0
 14
-25.9
 24
8.5506415708
 34
0.0
100
AcDbRotatedDimension
  0
DIMENSION
  5
104
330
1F
100
AcDbEntity
  8
SK2
  6
Continuous
 62
   136
100
AcDbDimension
  2
DMBLK106
 10
8.1
 20
-20.9887344251
 30
0.0
 11
4.0500001051
 21
-20.9887344251
 31
0.0
 70
   160
  1
\A1;<>
 71
     5
 42
-1.0
  3
DIN
100
AcDbAlignedDimension
 13
0.0
 23
-12.493598261
 33
0.0
 14
8.1
 24
-10.118910987
 34
0.0
100
AcDbRotatedDimension
  0
INSERT
  5
118
330
1F
100
AcDbEntity
  8
SK2
 62
     7
100
AcDbBlockReference
  2
Nullpunkt
 10
0.0
 20
0.0000000998
 30
0.0
  0
INSERT
  5
123
330
1F
100
AcDbEntity
  8
SK2
 62
     7
100
AcDbBlockReference
  2
Einfügepunkt
 10
8.1
 20
0.0000000998
 30
0.0
  0
DIMENSION
  5
124
330
1F
100
AcDbEntity
  8
SK2
  6
Continuous
 62
   136
100
AcDbDimension
  2
DMBLK107
 10
18.8999997705
 20
-6.2499999002
 30
0.0
 11
18.8999997705
 21
10.000000016
 31
0.0
 70
   160
  1
\A1;ø <>
 71
     5
 42
-1.0
  3
DIN
100
AcDbAlignedDimension
 13
7.8
 23
6.2500000998
 33
0.0
 14
5.2
 24
-6.2499999002
 34
0.0
 50
90.0
100
AcDbRotatedDimension
  0
DIMENSION
  5
12F
330
1F
100
AcDbEntity
  8
SK2
  6
Continuous
 62
   136
100
AcDbDimension
  2
DMBLK108
 10
-33.8839292526
 20
12.4935984605
 30
0.0
 11
-33.8839292526
 21
0.0000001857
 31
0.0
 70
   161
  1
\A1;ø <>
 71
     5
 42
-1.0
  3
DIN
100
AcDbAlignedDimension
 13
0.0
 23
12.4935984605
 33
0.0
 14
0.0
 24
-12.493598261
 34
0.0
1001
ACAD
1000
DSTYLE
1002
{
1070
   271
1070
     1
1070
   272
1070
     1
1070
     0
1002
}
  0
ENDSEC
  0
SECTION
  2
OBJECTS
  0
DICTIONARY
  5
C
330
0
100
AcDbDictionary
281
     1
  3
ACAD_GROUP
350
D
  3
ACAD_LAYOUT
350
1A
  3
ACAD_MATERIAL
350
3B
  3
ACAD_MLEADERSTYLE
350
13C
  3
ACAD_MLINESTYLE
350
17
  3
ACAD_PLOTSETTINGS
350
19
  3
ACAD_PLOTSTYLENAME
350
E
  3
ACAD_VISUALSTYLE
350
2A
  3
AcDbVariableDictionary
350
13A
  0
DICTIONARY
  5
D
102
{ACAD_REACTORS
330
C
102
}
330
C
100
AcDbDictionary
281
     1
  0
DICTIONARY
  5
1A
102
{ACAD_REACTORS
330
C
102
}
330
C
100
AcDbDictionary
281
     1
  3
Layout1
350
1E
  3
Model
350
22
  0
DICTIONARY
  5
3B
102
{ACAD_REACTORS
330
C
102
}
330
C
100
AcDbDictionary
281
     1
  3
ByBlock
350
3D
  3
ByLayer
350
3C
  3
Global
350
3E
  0
DICTIONARY
  5
13C
102
{ACAD_REACTORS
330
C
102
}
330
C
100
AcDbDictionary
281
     1
  0
DICTIONARY
  5
17
102
{ACAD_REACTORS
330
C
102
}
330
C
100
AcDbDictionary
281
     1
  3
Standard
350
18
  0
DICTIONARY
  5
19
102
{ACAD_REACTORS
330
C
102
}
330
C
100
AcDbDictionary
281
     1
  0
ACDBDICTIONARYWDFLT
  5
E
102
{ACAD_REACTORS
330
C
102
}
330
C
100
AcDbDictionary
281
     1
  3
Normal
350
F
100
AcDbDictionaryWithDefault
340
F
  0
DICTIONARY
  5
2A
102
{ACAD_REACTORS
330
C
102
}
330
C
100
AcDbDictionary
281
     1
  3
2dWireframe
350
2F
  3
3D Hidden
350
31
  3
3dWireframe
350
30
  3
Basic
350
32
  3
Brighten
350
36
  3
ColorChange
350
3A
  3
Conceptual
350
34
  3
Dim
350
35
  3
Facepattern
350
39
  3
Flat
350
2B
  3
FlatWithEdges
350
2C
  3
Gouraud
350
2D
  3
GouraudWithEdges
350
2E
  3
Linepattern
350
38
  3
Realistic
350
33
  3
Thicken
350
37
  0
DICTIONARY
  5
13A
102
{ACAD_REACTORS
330
C
102
}
330
C
100
AcDbDictionary
281
     1
  3
DIMASSOC
350
13F
  3
HIDETEXT
350
140
  3
PSOLHEIGHT
350
13E
  3
PSOLWIDTH
350
13D
  0
LAYOUT
  5
1E
102
{ACAD_REACTORS
330
1A
102
}
330
1A
100
AcDbPlotSettings
  1

  2
none_device
  4

  6

 40
0.0
 41
0.0
 42
0.0
 43
0.0
 44
0.0
 45
0.0
 46
0.0
 47
0.0
 48
0.0
 49
0.0
140
0.0
141
0.0
142
1.0
143
1.0
 70
   688
 72
     0
 73
     0
 74
     5
  7

 75
    16
147
1.0
148
0.0
149
0.0
100
AcDbLayout
  1
Layout1
 70
     1
 71
     1
 10
0.0
 20
0.0
 11
210.0
 21
297.0
 12
0.0
 22
0.0
 32
0.0
 14
0.0
 24
0.0
 34
0.0
 15
210.0
 25
297.0
 35
0.0
146
0.0
 13
0.0
 23
0.0
 33
0.0
 16
1.0
 26
0.0
 36
0.0
 17
0.0
 27
1.0
 37
0.0
 76
     0
330
1B
  0
LAYOUT
  5
22
102
{ACAD_REACTORS
330
1A
102
}
330
1A
100
AcDbPlotSettings
  1

  2
none_device
  4

  6

 40
0.0
 41
0.0
 42
0.0
 43
0.0
 44
0.0
 45
0.0
 46
0.0
 47
0.0
 48
0.0
 49
0.0
140
0.0
141
0.0
142
1.0
143
1.0
 70
  1712
 72
     0
 73
     0
 74
     0
  7

 75
     0
147
1.0
148
0.0
149
0.0
100
AcDbLayout
  1
Model
 70
     1
 71
     0
 10
0.0
 20
0.0
 11
210.0
 21
297.0
 12
0.0
 22
0.0
 32
0.0
 14
0.0
 24
0.0
 34
0.0
 15
210.0
 25
297.0
 35
0.0
146
0.0
 13
0.0
 23
0.0
 33
0.0
 16
1.0
 26
0.0
 36
0.0
 17
0.0
 27
1.0
 37
0.0
 76
     0
330
1F
331
29
  0
MATERIAL
  5
3D
102
{ACAD_REACTORS
330
3B
102
}
102
{ACAD_XDICTIONARY
360
163
102
}
330
3B
100
AcDbMaterial
  1
ByBlock
  0
MATERIAL
  5
3C
102
{ACAD_REACTORS
330
3B
102
}
102
{ACAD_XDICTIONARY
360
161
102
}
330
3B
100
AcDbMaterial
  1
ByLayer
  0
MATERIAL
  5
3E
102
{ACAD_REACTORS
330
3B
102
}
102
{ACAD_XDICTIONARY
360
165
102
}
330
3B
100
AcDbMaterial
  1
Global
  0
MLINESTYLE
  5
18
102
{ACAD_REACTORS
330
17
102
}
330
17
100
AcDbMlineStyle
  2
Standard
 70
     0
  3

 62
   256
 51
90.0
 52
90.0
 71
     2
 49
0.5
 62
   256
  6
BYLAYER
 49
-0.5
 62
   256
  6
BYLAYER
  0
ACDBPLACEHOLDER
  5
F
102
{ACAD_REACTORS
330
E
102
}
330
E
  0
VISUALSTYLE
  5
2F
102
{ACAD_REACTORS
330
2A
102
}
102
{ACAD_XDICTIONARY
360
149
102
}
330
2A
100
AcDbVisualStyle
  2
2dWireframe
 70
     4
 71
     0
 72
     2
 73
     0
 90
        0
 40
-0.6
 41
-30.0
 62
     5
 63
     7
 74
     1
 91
        4
 64
     7
 65
   257
 75
     1
175
     1
 42
1.0
 92
        0
 66
   257
 43
1.0
 76
     1
 77
     6
 78
     2
 67
     7
 79
     5
170
     0
171
     0
290
     0
174
     0
 93
        1
 44
0.0
173
     0
291
     0
 45
0.0
1001
ACAD
1000
AcDbSavedByObjectVersion
1070
     0
  0
VISUALSTYLE
  5
31
102
{ACAD_REACTORS
330
2A
102
}
102
{ACAD_XDICTIONARY
360
14D
102
}
330
2A
100
AcDbVisualStyle
  2
3D Hidden
 70
     6
 71
     1
 72
     2
 73
     2
 90
        0
 40
-0.6
 41
-30.0
 62
     5
 63
     7
 74
     2
 91
        2
 64
     7
 65
   257
 75
     2
175
     1
 42
40.0
 92
        0
 66
   257
 43
1.0
 76
     1
 77
     6
 78
     2
 67
     7
 79
     3
170
     0
171
     0
290
     0
174
     0
 93
        1
 44
0.0
173
     0
291
     0
 45
0.0
1001
ACAD
1000
AcDbSavedByObjectVersion
1070
     0
  0
VISUALSTYLE
  5
30
102
{ACAD_REACTORS
330
2A
102
}
102
{ACAD_XDICTIONARY
360
14B
102
}
330
2A
100
AcDbVisualStyle
  2
3dWireframe
 70
     5
 71
     0
 72
     2
 73
     0
 90
        0
 40
-0.6
 41
-30.0
 62
     5
 63
     7
 74
     1
 91
        4
 64
     7
 65
   257
 75
     1
175
     1
 42
1.0
 92
        0
 66
   257
 43
1.0
 76
     1
 77
     6
 78
     2
 67
     7
 79
     5
170
     0
171
     0
290
     0
174
     0
 93
        1
 44
0.0
173
     0
291
     0
 45
0.0
1001
ACAD
1000
AcDbSavedByObjectVersion
1070
     0
  0
VISUALSTYLE
  5
32
102
{ACAD_REACTORS
330
2A
102
}
102
{ACAD_XDICTIONARY
360
14F
102
}
330
2A
100
AcDbVisualStyle
  2
Basic
 70
     7
 71
     1
 72
     0
 73
     1
 90
        0
 40
-0.6
 41
-30.0
 62
     5
 63
     7
 74
     0
 91
        4
 64
     7
 65
   257
 75
     1
175
     1
 42
1.0
 92
        8
 66
     7
 43
1.0
 76
     1
 77
     6
 78
     2
 67
     7
 79
     5
170
     0
171
     0
290
     0
174
     0
 93
        1
 44
0.0
173
     0
291
     1
 45
0.0
1001
ACAD
1000
AcDbSavedByObjectVersion
1070
     0
  0
VISUALSTYLE
  5
36
102
{ACAD_REACTORS
330
2A
102
}
102
{ACAD_XDICTIONARY
360
157
102
}
330
2A
100
AcDbVisualStyle
  2
Brighten
 70
    12
 71
     2
 72
     2
 73
     0
 90
        0
 40
-0.6
 41
-30.0
 62
     5
 63
     7
 74
     1
 91
        4
 64
     7
 65
   257
 75
     1
175
     1
 42
1.0
 92
        8
 66
     7
 43
1.0
 76
     1
 77
     6
 78
     2
 67
     7
 79
     5
170
     0
171
     0
290
     0
174
     0
 93
        1
 44
50.0
173
     0
291
     1
 45
0.0
1001
ACAD
1000
AcDbSavedByObjectVersion
1070
     0
  0
VISUALSTYLE
  5
3A
102
{ACAD_REACTORS
330
2A
102
}
102
{ACAD_XDICTIONARY
360
15F
102
}
330
2A
100
AcDbVisualStyle
  2
ColorChange
 70
    16
 71
     2
 72
     2
 73
     3
 90
        0
 40
-0.6
 41
-30.0
 62
     5
 63
     8
 74
     1
 91
        4
 64
     7
 65
   257
 75
     1
175
     1
 42
1.0
 92
        8
 66
     8
 43
1.0
 76
     1
 77
     6
 78
     2
 67
     7
 79
     5
170
     0
171
     0
290
     0
174
     0
 93
        1
 44
0.0
173
     0
291
     1
 45
0.0
1001
ACAD
1000
AcDbSavedByObjectVersion
1070
     0
  0
VISUALSTYLE
  5
34
102
{ACAD_REACTORS
330
2A
102
}
102
{ACAD_XDICTIONARY
360
153
102
}
330
2A
100
AcDbVisualStyle
  2
Conceptual
 70
     9
 71
     3
 72
     2
 73
     0
 90
        0
 40
-0.6
 41
-30.0
 62
     5
 63
     7
 74
     2
 91
        2
 64
     7
 65
   257
 75
     1
175
     1
 42
40.0
 92
        8
 66
     7
 43
1.0
 76
     1
 77
     6
 78
     2
 67
     7
 79
     3
170
     0
171
     0
290
     0
174
     0
 93
        1
 44
0.0
173
     0
291
     0
 45
0.0
1001
ACAD
1000
AcDbSavedByObjectVersion
1070
     0
  0
VISUALSTYLE
  5
35
102
{ACAD_REACTORS
330
2A
102
}
102
{ACAD_XDICTIONARY
360
155
102
}
330
2A
100
AcDbVisualStyle
  2
Dim
 70
    11
 71
     2
 72
     2
 73
     0
 90
        0
 40
-0.6
 41
-30.0
 62
     5
 63
     7
 74
     1
 91
        4
 64
     7
 65
   257
 75
     1
175
     1
 42
1.0
 92
        8
 66
     7
 43
1.0
 76
     1
 77
     6
 78
     2
 67
     7
 79
     5
170
     0
171
     0
290
     0
174
     0
 93
        1
 44
-50.0
173
     0
291
     1
 45
0.0
1001
ACAD
1000
AcDbSavedByObjectVersion
1070
     0
  0
VISUALSTYLE
  5
39
102
{ACAD_REACTORS
330
2A
102
}
102
{ACAD_XDICTIONARY
360
15D
102
}
330
2A
100
AcDbVisualStyle
  2
Facepattern
 70
    15
 71
     2
 72
     2
 73
     0
 90
        0
 40
-0.6
 41
-30.0
 62
     5
 63
     7
 74
     1
 91
        4
 64
     7
 65
   257
 75
     1
175
     1
 42
1.0
 92
        8
 66
     7
 43
1.0
 76
     1
 77
     6
 78
     2
 67
     7
 79
     5
170
     0
171
     0
290
     0
174
     0
 93
        1
 44
0.0
173
     0
291
     1
 45
0.0
1001
ACAD
1000
AcDbSavedByObjectVersion
1070
     0
  0
VISUALSTYLE
  5
2B
102
{ACAD_REACTORS
330
2A
102
}
102
{ACAD_XDICTIONARY
360
141
102
}
330
2A
100
AcDbVisualStyle
  2
Flat
 70
     0
 71
     2
 72
     1
 73
     1
 90
        2
 40
-0.6
 41
30.0
 62
     5
 63
     7
 74
     0
 91
        4
 64
     7
 65
   257
 75
     1
175
     1
 42
1.0
 92
        8
 66
     7
 43
1.0
 76
     1
 77
     6
 78
     2
 67
     7
 79
     5
170
     0
171
     0
290
     0
174
     0
 93
       13
 44
0.0
173
     0
291
     1
 45
0.0
1001
ACAD
1000
AcDbSavedByObjectVersion
1070
     0
  0
VISUALSTYLE
  5
2C
102
{ACAD_REACTORS
330
2A
102
}
102
{ACAD_XDICTIONARY
360
143
102
}
330
2A
100
AcDbVisualStyle
  2
FlatWithEdges
 70
     1
 71
     2
 72
     1
 73
     1
 90
        2
 40
-0.6
 41
30.0
 62
     5
 63
     7
 74
     1
 91
        4
 64
     7
 65
   257
 75
     1
175
     1
 42
1.0
 92
        0
 66
   257
 43
1.0
 76
     1
 77
     6
 78
     2
 67
     7
 79
     5
170
     0
171
     0
290
     0
174
     0
 93
       13
 44
0.0
173
     0
291
     1
 45
0.0
1001
ACAD
1000
AcDbSavedByObjectVersion
1070
     0
  0
VISUALSTYLE
  5
2D
102
{ACAD_REACTORS
330
2A
102
}
102
{ACAD_XDICTIONARY
360
145
102
}
330
2A
100
AcDbVisualStyle
  2
Gouraud
 70
     2
 71
     2
 72
     2
 73
     1
 90
        2
 40
-0.6
 41
30.0
 62
     5
 63
     7
 74
     0
 91
        4
 64
     7
 65
   257
 75
     1
175
     1
 42
1.0
 92
        0
 66
     7
 43
1.0
 76
     1
 77
     6
 78
     2
 67
     7
 79
     5
170
     0
171
     0
290
     0
174
     0
 93
       13
 44
0.0
173
     0
291
     1
 45
0.0
1001
ACAD
1000
AcDbSavedByObjectVersion
1070
     0
  0
VISUALSTYLE
  5
2E
102
{ACAD_REACTORS
330
2A
102
}
102
{ACAD_XDICTIONARY
360
147
102
}
330
2A
100
AcDbVisualStyle
  2
GouraudWithEdges
 70
     3
 71
     2
 72
     2
 73
     1
 90
        2
 40
-0.6
 41
30.0
 62
     5
 63
     7
 74
     1
 91
        4
 64
     7
 65
   257
 75
     1
175
     1
 42
1.0
 92
        0
 66
   257
 43
1.0
 76
     1
 77
     6
 78
     2
 67
     7
 79
     5
170
     0
171
     0
290
     0
174
     0
 93
       13
 44
0.0
173
     0
291
     1
 45
0.0
1001
ACAD
1000
AcDbSavedByObjectVersion
1070
     0
  0
VISUALSTYLE
  5
38
102
{ACAD_REACTORS
330
2A
102
}
102
{ACAD_XDICTIONARY
360
15B
102
}
330
2A
100
AcDbVisualStyle
  2
Linepattern
 70
    14
 71
     2
 72
     2
 73
     0
 90
        0
 40
-0.6
 41
-30.0
 62
     5
 63
     7
 74
     1
 91
        4
 64
     7
 65
   257
 75
     7
175
     7
 42
1.0
 92
        8
 66
     7
 43
1.0
 76
     1
 77
     6
 78
     2
 67
     7
 79
     5
170
     0
171
     0
290
     0
174
     0
 93
        1
 44
0.0
173
     0
291
     1
 45
0.0
1001
ACAD
1000
AcDbSavedByObjectVersion
1070
     0
  0
VISUALSTYLE
  5
33
102
{ACAD_REACTORS
330
2A
102
}
102
{ACAD_XDICTIONARY
360
151
102
}
330
2A
100
AcDbVisualStyle
  2
Realistic
 70
     8
 71
     2
 72
     2
 73
     0
 90
        0
 40
-0.6
 41
-30.0
 62
     5
 63
     7
 74
     1
 91
        0
 64
     7
 65
   257
 75
     1
175
     1
 42
1.0
 92
        8
 66
     8
 43
1.0
 76
     1
 77
     6
 78
     2
 67
     7
 79
     5
170
     0
171
     0
290
     0
174
     0
 93
       13
 44
0.0
173
     0
291
     0
 45
0.0
1001
ACAD
1000
AcDbSavedByObjectVersion
1070
     0
  0
VISUALSTYLE
  5
37
102
{ACAD_REACTORS
330
2A
102
}
102
{ACAD_XDICTIONARY
360
159
102
}
330
2A
100
AcDbVisualStyle
  2
Thicken
 70
    13
 71
     2
 72
     2
 73
     0
 90
        0
 40
-0.6
 41
-30.0
 62
     5
 63
     7
 74
     1
 91
        4
 64
     7
 65
   257
 75
     1
175
     1
 42
1.0
 92
       12
 66
     7
 43
1.0
 76
     1
 77
     6
 78
     2
 67
     7
 79
     5
170
     0
171
     0
290
     0
174
     0
 93
        1
 44
0.0
173
     0
291
     1
 45
0.0
1001
ACAD
1000
AcDbSavedByObjectVersion
1070
     0
  0
DICTIONARYVAR
  5
13F
102
{ACAD_REACTORS
330
13A
102
}
330
13A
100
DictionaryVariables
280
     0
  1
2
  0
DICTIONARYVAR
  5
140
102
{ACAD_REACTORS
330
13A
102
}
330
13A
100
DictionaryVariables
280
     0
  1
1
  0
DICTIONARYVAR
  5
13E
102
{ACAD_REACTORS
330
13A
102
}
330
13A
100
DictionaryVariables
280
     0
  1
80.000000
  0
DICTIONARYVAR
  5
13D
102
{ACAD_REACTORS
330
13A
102
}
330
13A
100
DictionaryVariables
280
     0
  1
5.000000
  0
DICTIONARY
  5
163
330
3D
100
AcDbDictionary
280
     1
281
     1
  3
ACAD_XREC_ROUNDTRIP
360
164
  0
DICTIONARY
  5
161
330
3C
100
AcDbDictionary
280
     1
281
     1
  3
ACAD_XREC_ROUNDTRIP
360
162
  0
DICTIONARY
  5
165
330
3E
100
AcDbDictionary
280
     1
281
     1
  3
ACAD_XREC_ROUNDTRIP
360
166
  0
DICTIONARY
  5
149
330
2F
100
AcDbDictionary
280
     1
281
     1
  3
ACAD_XREC_ROUNDTRIP
360
14A
  0
DICTIONARY
  5
14D
330
31
100
AcDbDictionary
280
     1
281
     1
  3
ACAD_XREC_ROUNDTRIP
360
14E
  0
DICTIONARY
  5
14B
330
30
100
AcDbDictionary
280
     1
281
     1
  3
ACAD_XREC_ROUNDTRIP
360
14C
  0
DICTIONARY
  5
14F
330
32
100
AcDbDictionary
280
     1
281
     1
  3
ACAD_XREC_ROUNDTRIP
360
150
  0
DICTIONARY
  5
157
330
36
100
AcDbDictionary
280
     1
281
     1
  3
ACAD_XREC_ROUNDTRIP
360
158
  0
DICTIONARY
  5
15F
330
3A
100
AcDbDictionary
280
     1
281
     1
  3
ACAD_XREC_ROUNDTRIP
360
160
  0
DICTIONARY
  5
153
330
34
100
AcDbDictionary
280
     1
281
     1
  3
ACAD_XREC_ROUNDTRIP
360
154
  0
DICTIONARY
  5
155
330
35
100
AcDbDictionary
280
     1
281
     1
  3
ACAD_XREC_ROUNDTRIP
360
156
  0
DICTIONARY
  5
15D
330
39
100
AcDbDictionary
280
     1
281
     1
  3
ACAD_XREC_ROUNDTRIP
360
15E
  0
DICTIONARY
  5
141
330
2B
100
AcDbDictionary
280
     1
281
     1
  3
ACAD_XREC_ROUNDTRIP
360
142
  0
DICTIONARY
  5
143
330
2C
100
AcDbDictionary
280
     1
281
     1
  3
ACAD_XREC_ROUNDTRIP
360
144
  0
DICTIONARY
  5
145
330
2D
100
AcDbDictionary
280
     1
281
     1
  3
ACAD_XREC_ROUNDTRIP
360
146
  0
DICTIONARY
  5
147
330
2E
100
AcDbDictionary
280
     1
281
     1
  3
ACAD_XREC_ROUNDTRIP
360
148
  0
DICTIONARY
  5
15B
330
38
100
AcDbDictionary
280
     1
281
     1
  3
ACAD_XREC_ROUNDTRIP
360
15C
  0
DICTIONARY
  5
151
330
33
100
AcDbDictionary
280
     1
281
     1
  3
ACAD_XREC_ROUNDTRIP
360
152
  0
DICTIONARY
  5
159
330
37
100
AcDbDictionary
280
     1
281
     1
  3
ACAD_XREC_ROUNDTRIP
360
15A
  0
XRECORD
  5
164
102
{ACAD_REACTORS
330
163
102
}
330
163
100
AcDbXrecord
280
     1
102
MATERIAL
148
0.0
149
0.0
149
0.0
 93
        0
 94
      127
282
     0
 72
     1
 77
     1
171
     1
175
     1
179
     1
273
     0
  0
XRECORD
  5
162
102
{ACAD_REACTORS
330
161
102
}
330
161
100
AcDbXrecord
280
     1
102
MATERIAL
148
0.0
149
0.0
149
0.0
 93
        0
 94
      127
282
     0
 72
     1
 77
     1
171
     1
175
     1
179
     1
273
     0
  0
XRECORD
  5
166
102
{ACAD_REACTORS
330
165
102
}
330
165
100
AcDbXrecord
280
     1
102
MATERIAL
148
0.0
149
0.0
149
0.0
 93
        0
 94
      127
282
     0
 72
     1
 77
     1
171
     1
175
     1
179
     1
273
     0
  0
XRECORD
  5
14A
102
{ACAD_REACTORS
330
149
102
}
330
149
100
AcDbXrecord
280
     1
102
RTVSPropertyOp0
 70
     1
102
RTVSPropertyOp1
 70
     1
102
RTVSPropertyOp2
 70
     1
102
RTVSPropertyOp3
 70
     1
102
RTVSPropertyOp4
 70
     1
102
RTVSPropertyOp5
 70
     1
102
RTVSPropertyOp6
 70
     1
102
RTVSPropertyOp7
 70
     1
102
RTVSPropertyOp8
 70
     1
102
RTVSPropertyOp9
 70
     1
102
RTVSPropertyOp10
 70
     1
102
RTVSPropertyOp11
 70
     1
102
RTVSPropertyOp12
 70
     1
102
RTVSPropertyOp13
 70
     1
102
RTVSPropertyOp14
 70
     1
102
RTVSPropertyOp15
 70
     1
102
RTVSPropertyOp16
 70
     1
102
RTVSPropertyOp17
 70
     1
102
RTVSPropertyOp18
 70
     1
102
RTVSPropertyOp19
 70
     1
102
RTVSPropertyOp20
 70
     1
102
RTVSPropertyOp21
 70
     1
102
RTVSPropertyOp22
 70
     1
102
RTVSPropertyOp23
 70
     1
102
RTVSPropertyOp24
 70
     1
102
RTVSPropertyOp25
 70
     1
102
RTVSPropertyOp26
 70
     1
102
RTVSPropertyOp27
 70
     1
102
RTVSPropertyOp28
 70
     1
102
RTVSPropertyOp29
 70
     1
102
RTVSPropertyOp30
 70
     1
102
RTVSPropertyOp31
 70
     1
102
RTVSPropertyOp32
 70
     1
  0
XRECORD
  5
14E
102
{ACAD_REACTORS
330
14D
102
}
330
14D
100
AcDbXrecord
280
     1
102
RTVSPropertyOp0
 70
     1
102
RTVSPropertyOp1
 70
     1
102
RTVSPropertyOp2
 70
     1
102
RTVSPropertyOp3
 70
     1
102
RTVSPropertyOp4
 70
     1
102
RTVSPropertyOp5
 70
     1
102
RTVSPropertyOp6
 70
     1
102
RTVSPropertyOp7
 70
     1
102
RTVSPropertyOp8
 70
     1
102
RTVSPropertyOp9
 70
     1
102
RTVSPropertyOp10
 70
     1
102
RTVSPropertyOp11
 70
     1
102
RTVSPropertyOp12
 70
     1
102
RTVSPropertyOp13
 70
     1
102
RTVSPropertyOp14
 70
     1
102
RTVSPropertyOp15
 70
     1
102
RTVSPropertyOp16
 70
     1
102
RTVSPropertyOp17
 70
     1
102
RTVSPropertyOp18
 70
     1
102
RTVSPropertyOp19
 70
     1
102
RTVSPropertyOp20
 70
     1
102
RTVSPropertyOp21
 70
     1
102
RTVSPropertyOp22
 70
     1
102
RTVSPropertyOp23
 70
     1
102
RTVSPropertyOp24
 70
     1
102
RTVSPropertyOp25
 70
     1
102
RTVSPropertyOp26
 70
     1
102
RTVSPropertyOp27
 70
     1
102
RTVSPropertyOp28
 70
     1
102
RTVSPropertyOp29
 70
     1
102
RTVSPropertyOp30
 70
     1
102
RTVSPropertyOp31
 70
     1
102
RTVSPropertyOp32
 70
     1
  0
XRECORD
  5
14C
102
{ACAD_REACTORS
330
14B
102
}
330
14B
100
AcDbXrecord
280
     1
102
RTVSPropertyOp0
 70
     1
102
RTVSPropertyOp1
 70
     1
102
RTVSPropertyOp2
 70
     1
102
RTVSPropertyOp3
 70
     1
102
RTVSPropertyOp4
 70
     1
102
RTVSPropertyOp5
 70
     1
102
RTVSPropertyOp6
 70
     1
102
RTVSPropertyOp7
 70
     1
102
RTVSPropertyOp8
 70
     1
102
RTVSPropertyOp9
 70
     1
102
RTVSPropertyOp10
 70
     1
102
RTVSPropertyOp11
 70
     1
102
RTVSPropertyOp12
 70
     1
102
RTVSPropertyOp13
 70
     1
102
RTVSPropertyOp14
 70
     1
102
RTVSPropertyOp15
 70
     1
102
RTVSPropertyOp16
 70
     1
102
RTVSPropertyOp17
 70
     1
102
RTVSPropertyOp18
 70
     1
102
RTVSPropertyOp19
 70
     1
102
RTVSPropertyOp20
 70
     1
102
RTVSPropertyOp21
 70
     1
102
RTVSPropertyOp22
 70
     1
102
RTVSPropertyOp23
 70
     1
102
RTVSPropertyOp24
 70
     1
102
RTVSPropertyOp25
 70
     1
102
RTVSPropertyOp26
 70
     1
102
RTVSPropertyOp27
 70
     1
102
RTVSPropertyOp28
 70
     1
102
RTVSPropertyOp29
 70
     1
102
RTVSPropertyOp30
 70
     1
102
RTVSPropertyOp31
 70
     1
102
RTVSPropertyOp32
 70
     1
  0
XRECORD
  5
150
102
{ACAD_REACTORS
330
14F
102
}
330
14F
100
AcDbXrecord
280
     1
102
RTVSPropertyOp0
 70
     1
102
RTVSPropertyOp1
 70
     1
102
RTVSPropertyOp2
 70
     1
102
RTVSPropertyOp3
 70
     1
102
RTVSPropertyOp4
 70
     1
102
RTVSPropertyOp5
 70
     1
102
RTVSPropertyOp6
 70
     1
102
RTVSPropertyOp7
 70
     1
102
RTVSPropertyOp8
 70
     1
102
RTVSPropertyOp9
 70
     1
102
RTVSPropertyOp10
 70
     1
102
RTVSPropertyOp11
 70
     1
102
RTVSPropertyOp12
 70
     1
102
RTVSPropertyOp13
 70
     1
102
RTVSPropertyOp14
 70
     1
102
RTVSPropertyOp15
 70
     1
102
RTVSPropertyOp16
 70
     1
102
RTVSPropertyOp17
 70
     1
102
RTVSPropertyOp18
 70
     1
102
RTVSPropertyOp19
 70
     1
102
RTVSPropertyOp20
 70
     1
102
RTVSPropertyOp21
 70
     1
102
RTVSPropertyOp22
 70
     1
102
RTVSPropertyOp23
 70
     1
102
RTVSPropertyOp24
 70
     1
102
RTVSPropertyOp25
 70
     1
102
RTVSPropertyOp26
 70
     1
102
RTVSPropertyOp27
 70
     1
102
RTVSPropertyOp28
 70
     1
102
RTVSPropertyOp29
 70
     1
102
RTVSPropertyOp30
 70
     1
102
RTVSPropertyOp31
 70
     1
102
RTVSPropertyOp32
 70
     1
  0
XRECORD
  5
158
102
{ACAD_REACTORS
330
157
102
}
330
157
100
AcDbXrecord
280
     1
102
RTVSPropertyOp0
 70
     1
102
RTVSPropertyOp1
 70
     1
102
RTVSPropertyOp2
 70
     1
102
RTVSPropertyOp3
 70
     1
102
RTVSPropertyOp4
 70
     1
102
RTVSPropertyOp5
 70
     1
102
RTVSPropertyOp6
 70
     1
102
RTVSPropertyOp7
 70
     1
102
RTVSPropertyOp8
 70
     1
102
RTVSPropertyOp9
 70
     1
102
RTVSPropertyOp10
 70
     1
102
RTVSPropertyOp11
 70
     1
102
RTVSPropertyOp12
 70
     1
102
RTVSPropertyOp13
 70
     1
102
RTVSPropertyOp14
 70
     1
102
RTVSPropertyOp15
 70
     1
102
RTVSPropertyOp16
 70
     1
102
RTVSPropertyOp17
 70
     1
102
RTVSPropertyOp18
 70
     1
102
RTVSPropertyOp19
 70
     1
102
RTVSPropertyOp20
 70
     1
102
RTVSPropertyOp21
 70
     1
102
RTVSPropertyOp22
 70
     1
102
RTVSPropertyOp23
 70
     1
102
RTVSPropertyOp24
 70
     1
102
RTVSPropertyOp25
 70
     1
102
RTVSPropertyOp26
 70
     1
102
RTVSPropertyOp27
 70
     1
102
RTVSPropertyOp28
 70
     1
102
RTVSPropertyOp29
 70
     1
102
RTVSPropertyOp30
 70
     1
102
RTVSPropertyOp31
 70
     1
102
RTVSPropertyOp32
 70
     1
  0
XRECORD
  5
160
102
{ACAD_REACTORS
330
15F
102
}
330
15F
100
AcDbXrecord
280
     1
102
RTVSPropertyOp0
 70
     1
102
RTVSPropertyOp1
 70
     1
102
RTVSPropertyOp2
 70
     1
102
RTVSPropertyOp3
 70
     1
102
RTVSPropertyOp4
 70
     1
102
RTVSPropertyOp5
 70
     1
102
RTVSPropertyOp6
 70
     1
102
RTVSPropertyOp7
 70
     1
102
RTVSPropertyOp8
 70
     1
102
RTVSPropertyOp9
 70
     1
102
RTVSPropertyOp10
 70
     1
102
RTVSPropertyOp11
 70
     1
102
RTVSPropertyOp12
 70
     1
102
RTVSPropertyOp13
 70
     1
102
RTVSPropertyOp14
 70
     1
102
RTVSPropertyOp15
 70
     1
102
RTVSPropertyOp16
 70
     1
102
RTVSPropertyOp17
 70
     1
102
RTVSPropertyOp18
 70
     1
102
RTVSPropertyOp19
 70
     1
102
RTVSPropertyOp20
 70
     1
102
RTVSPropertyOp21
 70
     1
102
RTVSPropertyOp22
 70
     1
102
RTVSPropertyOp23
 70
     1
102
RTVSPropertyOp24
 70
     1
102
RTVSPropertyOp25
 70
     1
102
RTVSPropertyOp26
 70
     1
102
RTVSPropertyOp27
 70
     1
102
RTVSPropertyOp28
 70
     1
102
RTVSPropertyOp29
 70
     1
102
RTVSPropertyOp30
 70
     1
102
RTVSPropertyOp31
 70
     1
102
RTVSPropertyOp32
 70
     1
  0
XRECORD
  5
154
102
{ACAD_REACTORS
330
153
102
}
330
153
100
AcDbXrecord
280
     1
102
RTVSPropertyOp0
 70
     1
102
RTVSPropertyOp1
 70
     1
102
RTVSPropertyOp2
 70
     1
102
RTVSPropertyOp3
 70
     1
102
RTVSPropertyOp4
 70
     1
102
RTVSPropertyOp5
 70
     1
102
RTVSPropertyOp6
 70
     1
102
RTVSPropertyOp7
 70
     1
102
RTVSPropertyOp8
 70
     1
102
RTVSPropertyOp9
 70
     1
102
RTVSPropertyOp10
 70
     1
102
RTVSPropertyOp11
 70
     1
102
RTVSPropertyOp12
 70
     1
102
RTVSPropertyOp13
 70
     1
102
RTVSPropertyOp14
 70
     1
102
RTVSPropertyOp15
 70
     1
102
RTVSPropertyOp16
 70
     1
102
RTVSPropertyOp17
 70
     1
102
RTVSPropertyOp18
 70
     1
102
RTVSPropertyOp19
 70
     1
102
RTVSPropertyOp20
 70
     1
102
RTVSPropertyOp21
 70
     1
102
RTVSPropertyOp22
 70
     1
102
RTVSPropertyOp23
 70
     1
102
RTVSPropertyOp24
 70
     1
102
RTVSPropertyOp25
 70
     1
102
RTVSPropertyOp26
 70
     1
102
RTVSPropertyOp27
 70
     1
102
RTVSPropertyOp28
 70
     1
102
RTVSPropertyOp29
 70
     1
102
RTVSPropertyOp30
 70
     1
102
RTVSPropertyOp31
 70
     1
102
RTVSPropertyOp32
 70
     1
  0
XRECORD
  5
156
102
{ACAD_REACTORS
330
155
102
}
330
155
100
AcDbXrecord
280
     1
102
RTVSPropertyOp0
 70
     1
102
RTVSPropertyOp1
 70
     1
102
RTVSPropertyOp2
 70
     1
102
RTVSPropertyOp3
 70
     1
102
RTVSPropertyOp4
 70
     1
102
RTVSPropertyOp5
 70
     1
102
RTVSPropertyOp6
 70
     1
102
RTVSPropertyOp7
 70
     1
102
RTVSPropertyOp8
 70
     1
102
RTVSPropertyOp9
 70
     1
102
RTVSPropertyOp10
 70
     1
102
RTVSPropertyOp11
 70
     1
102
RTVSPropertyOp12
 70
     1
102
RTVSPropertyOp13
 70
     1
102
RTVSPropertyOp14
 70
     1
102
RTVSPropertyOp15
 70
     1
102
RTVSPropertyOp16
 70
     1
102
RTVSPropertyOp17
 70
     1
102
RTVSPropertyOp18
 70
     1
102
RTVSPropertyOp19
 70
     1
102
RTVSPropertyOp20
 70
     1
102
RTVSPropertyOp21
 70
     1
102
RTVSPropertyOp22
 70
     1
102
RTVSPropertyOp23
 70
     1
102
RTVSPropertyOp24
 70
     1
102
RTVSPropertyOp25
 70
     1
102
RTVSPropertyOp26
 70
     1
102
RTVSPropertyOp27
 70
     1
102
RTVSPropertyOp28
 70
     1
102
RTVSPropertyOp29
 70
     1
102
RTVSPropertyOp30
 70
     1
102
RTVSPropertyOp31
 70
     1
102
RTVSPropertyOp32
 70
     1
  0
XRECORD
  5
15E
102
{ACAD_REACTORS
330
15D
102
}
330
15D
100
AcDbXrecord
280
     1
102
RTVSPropertyOp0
 70
     1
102
RTVSPropertyOp1
 70
     1
102
RTVSPropertyOp2
 70
     1
102
RTVSPropertyOp3
 70
     1
102
RTVSPropertyOp4
 70
     1
102
RTVSPropertyOp5
 70
     1
102
RTVSPropertyOp6
 70
     1
102
RTVSPropertyOp7
 70
     1
102
RTVSPropertyOp8
 70
     1
102
RTVSPropertyOp9
 70
     1
102
RTVSPropertyOp10
 70
     1
102
RTVSPropertyOp11
 70
     1
102
RTVSPropertyOp12
 70
     1
102
RTVSPropertyOp13
 70
     1
102
RTVSPropertyOp14
 70
     1
102
RTVSPropertyOp15
 70
     1
102
RTVSPropertyOp16
 70
     1
102
RTVSPropertyOp17
 70
     1
102
RTVSPropertyOp18
 70
     1
102
RTVSPropertyOp19
 70
     1
102
RTVSPropertyOp20
 70
     1
102
RTVSPropertyOp21
 70
     1
102
RTVSPropertyOp22
 70
     1
102
RTVSPropertyOp23
 70
     1
102
RTVSPropertyOp24
 70
     1
102
RTVSPropertyOp25
 70
     1
102
RTVSPropertyOp26
 70
     1
102
RTVSPropertyOp27
 70
     1
102
RTVSPropertyOp28
 70
     1
102
RTVSPropertyOp29
 70
     1
102
RTVSPropertyOp30
 70
     1
102
RTVSPropertyOp31
 70
     1
102
RTVSPropertyOp32
 70
     1
  0
XRECORD
  5
142
102
{ACAD_REACTORS
330
141
102
}
330
141
100
AcDbXrecord
280
     1
102
RTVSPropertyOp0
 70
     1
102
RTVSPropertyOp1
 70
     1
102
RTVSPropertyOp2
 70
     1
102
RTVSPropertyOp3
 70
     1
102
RTVSPropertyOp4
 70
     1
102
RTVSPropertyOp5
 70
     1
102
RTVSPropertyOp6
 70
     1
102
RTVSPropertyOp7
 70
     1
102
RTVSPropertyOp8
 70
     1
102
RTVSPropertyOp9
 70
     1
102
RTVSPropertyOp10
 70
     1
102
RTVSPropertyOp11
 70
     1
102
RTVSPropertyOp12
 70
     1
102
RTVSPropertyOp13
 70
     1
102
RTVSPropertyOp14
 70
     1
102
RTVSPropertyOp15
 70
     1
102
RTVSPropertyOp16
 70
     1
102
RTVSPropertyOp17
 70
     1
102
RTVSPropertyOp18
 70
     1
102
RTVSPropertyOp19
 70
     1
102
RTVSPropertyOp20
 70
     1
102
RTVSPropertyOp21
 70
     1
102
RTVSPropertyOp22
 70
     1
102
RTVSPropertyOp23
 70
     1
102
RTVSPropertyOp24
 70
     1
102
RTVSPropertyOp25
 70
     1
102
RTVSPropertyOp26
 70
     1
102
RTVSPropertyOp27
 70
     1
102
RTVSPropertyOp28
 70
     1
102
RTVSPropertyOp29
 70
     1
102
RTVSPropertyOp30
 70
     1
102
RTVSPropertyOp31
 70
     1
102
RTVSPropertyOp32
 70
     1
  0
XRECORD
  5
144
102
{ACAD_REACTORS
330
143
102
}
330
143
100
AcDbXrecord
280
     1
102
RTVSPropertyOp0
 70
     1
102
RTVSPropertyOp1
 70
     1
102
RTVSPropertyOp2
 70
     1
102
RTVSPropertyOp3
 70
     1
102
RTVSPropertyOp4
 70
     1
102
RTVSPropertyOp5
 70
     1
102
RTVSPropertyOp6
 70
     1
102
RTVSPropertyOp7
 70
     1
102
RTVSPropertyOp8
 70
     1
102
RTVSPropertyOp9
 70
     1
102
RTVSPropertyOp10
 70
     1
102
RTVSPropertyOp11
 70
     1
102
RTVSPropertyOp12
 70
     1
102
RTVSPropertyOp13
 70
     1
102
RTVSPropertyOp14
 70
     1
102
RTVSPropertyOp15
 70
     1
102
RTVSPropertyOp16
 70
     1
102
RTVSPropertyOp17
 70
     1
102
RTVSPropertyOp18
 70
     1
102
RTVSPropertyOp19
 70
     1
102
RTVSPropertyOp20
 70
     1
102
RTVSPropertyOp21
 70
     1
102
RTVSPropertyOp22
 70
     1
102
RTVSPropertyOp23
 70
     1
102
RTVSPropertyOp24
 70
     1
102
RTVSPropertyOp25
 70
     1
102
RTVSPropertyOp26
 70
     1
102
RTVSPropertyOp27
 70
     1
102
RTVSPropertyOp28
 70
     1
102
RTVSPropertyOp29
 70
     1
102
RTVSPropertyOp30
 70
     1
102
RTVSPropertyOp31
 70
     1
102
RTVSPropertyOp32
 70
     1
  0
XRECORD
  5
146
102
{ACAD_REACTORS
330
145
102
}
330
145
100
AcDbXrecord
280
     1
102
RTVSPropertyOp0
 70
     1
102
RTVSPropertyOp1
 70
     1
102
RTVSPropertyOp2
 70
     1
102
RTVSPropertyOp3
 70
     1
102
RTVSPropertyOp4
 70
     1
102
RTVSPropertyOp5
 70
     1
102
RTVSPropertyOp6
 70
     1
102
RTVSPropertyOp7
 70
     1
102
RTVSPropertyOp8
 70
     1
102
RTVSPropertyOp9
 70
     1
102
RTVSPropertyOp10
 70
     1
102
RTVSPropertyOp11
 70
     1
102
RTVSPropertyOp12
 70
     1
102
RTVSPropertyOp13
 70
     1
102
RTVSPropertyOp14
 70
     1
102
RTVSPropertyOp15
 70
     1
102
RTVSPropertyOp16
 70
     1
102
RTVSPropertyOp17
 70
     1
102
RTVSPropertyOp18
 70
     1
102
RTVSPropertyOp19
 70
     1
102
RTVSPropertyOp20
 70
     1
102
RTVSPropertyOp21
 70
     1
102
RTVSPropertyOp22
 70
     1
102
RTVSPropertyOp23
 70
     1
102
RTVSPropertyOp24
 70
     1
102
RTVSPropertyOp25
 70
     1
102
RTVSPropertyOp26
 70
     1
102
RTVSPropertyOp27
 70
     1
102
RTVSPropertyOp28
 70
     1
102
RTVSPropertyOp29
 70
     1
102
RTVSPropertyOp30
 70
     1
102
RTVSPropertyOp31
 70
     1
102
RTVSPropertyOp32
 70
     1
  0
XRECORD
  5
148
102
{ACAD_REACTORS
330
147
102
}
330
147
100
AcDbXrecord
280
     1
102
RTVSPropertyOp0
 70
     1
102
RTVSPropertyOp1
 70
     1
102
RTVSPropertyOp2
 70
     1
102
RTVSPropertyOp3
 70
     1
102
RTVSPropertyOp4
 70
     1
102
RTVSPropertyOp5
 70
     1
102
RTVSPropertyOp6
 70
     1
102
RTVSPropertyOp7
 70
     1
102
RTVSPropertyOp8
 70
     1
102
RTVSPropertyOp9
 70
     1
102
RTVSPropertyOp10
 70
     1
102
RTVSPropertyOp11
 70
     1
102
RTVSPropertyOp12
 70
     1
102
RTVSPropertyOp13
 70
     1
102
RTVSPropertyOp14
 70
     1
102
RTVSPropertyOp15
 70
     1
102
RTVSPropertyOp16
 70
     1
102
RTVSPropertyOp17
 70
     1
102
RTVSPropertyOp18
 70
     1
102
RTVSPropertyOp19
 70
     1
102
RTVSPropertyOp20
 70
     1
102
RTVSPropertyOp21
 70
     1
102
RTVSPropertyOp22
 70
     1
102
RTVSPropertyOp23
 70
     1
102
RTVSPropertyOp24
 70
     1
102
RTVSPropertyOp25
 70
     1
102
RTVSPropertyOp26
 70
     1
102
RTVSPropertyOp27
 70
     1
102
RTVSPropertyOp28
 70
     1
102
RTVSPropertyOp29
 70
     1
102
RTVSPropertyOp30
 70
     1
102
RTVSPropertyOp31
 70
     1
102
RTVSPropertyOp32
 70
     1
  0
XRECORD
  5
15C
102
{ACAD_REACTORS
330
15B
102
}
330
15B
100
AcDbXrecord
280
     1
102
RTVSPropertyOp0
 70
     1
102
RTVSPropertyOp1
 70
     1
102
RTVSPropertyOp2
 70
     1
102
RTVSPropertyOp3
 70
     1
102
RTVSPropertyOp4
 70
     1
102
RTVSPropertyOp5
 70
     1
102
RTVSPropertyOp6
 70
     1
102
RTVSPropertyOp7
 70
     1
102
RTVSPropertyOp8
 70
     1
102
RTVSPropertyOp9
 70
     1
102
RTVSPropertyOp10
 70
     1
102
RTVSPropertyOp11
 70
     1
102
RTVSPropertyOp12
 70
     1
102
RTVSPropertyOp13
 70
     1
102
RTVSPropertyOp14
 70
     1
102
RTVSPropertyOp15
 70
     1
102
RTVSPropertyOp16
 70
     1
102
RTVSPropertyOp17
 70
     1
102
RTVSPropertyOp18
 70
     1
102
RTVSPropertyOp19
 70
     1
102
RTVSPropertyOp20
 70
     1
102
RTVSPropertyOp21
 70
     1
102
RTVSPropertyOp22
 70
     1
102
RTVSPropertyOp23
 70
     1
102
RTVSPropertyOp24
 70
     1
102
RTVSPropertyOp25
 70
     1
102
RTVSPropertyOp26
 70
     1
102
RTVSPropertyOp27
 70
     1
102
RTVSPropertyOp28
 70
     1
102
RTVSPropertyOp29
 70
     1
102
RTVSPropertyOp30
 70
     1
102
RTVSPropertyOp31
 70
     1
102
RTVSPropertyOp32
 70
     1
  0
XRECORD
  5
152
102
{ACAD_REACTORS
330
151
102
}
330
151
100
AcDbXrecord
280
     1
102
RTVSPropertyOp0
 70
     1
102
RTVSPropertyOp1
 70
     1
102
RTVSPropertyOp2
 70
     1
102
RTVSPropertyOp3
 70
     1
102
RTVSPropertyOp4
 70
     1
102
RTVSPropertyOp5
 70
     1
102
RTVSPropertyOp6
 70
     1
102
RTVSPropertyOp7
 70
     1
102
RTVSPropertyOp8
 70
     1
102
RTVSPropertyOp9
 70
     1
102
RTVSPropertyOp10
 70
     1
102
RTVSPropertyOp11
 70
     1
102
RTVSPropertyOp12
 70
     1
102
RTVSPropertyOp13
 70
     1
102
RTVSPropertyOp14
 70
     1
102
RTVSPropertyOp15
 70
     1
102
RTVSPropertyOp16
 70
     1
102
RTVSPropertyOp17
 70
     1
102
RTVSPropertyOp18
 70
     1
102
RTVSPropertyOp19
 70
     1
102
RTVSPropertyOp20
 70
     1
102
RTVSPropertyOp21
 70
     1
102
RTVSPropertyOp22
 70
     1
102
RTVSPropertyOp23
 70
     1
102
RTVSPropertyOp24
 70
     1
102
RTVSPropertyOp25
 70
     1
102
RTVSPropertyOp26
 70
     1
102
RTVSPropertyOp27
 70
     1
102
RTVSPropertyOp28
 70
     1
102
RTVSPropertyOp29
 70
     1
102
RTVSPropertyOp30
 70
     1
102
RTVSPropertyOp31
 70
     1
102
RTVSPropertyOp32
 70
     1
  0
XRECORD
  5
15A
102
{ACAD_REACTORS
330
159
102
}
330
159
100
AcDbXrecord
280
     1
102
RTVSPropertyOp0
 70
     1
102
RTVSPropertyOp1
 70
     1
102
RTVSPropertyOp2
 70
     1
102
RTVSPropertyOp3
 70
     1
102
RTVSPropertyOp4
 70
     1
102
RTVSPropertyOp5
 70
     1
102
RTVSPropertyOp6
 70
     1
102
RTVSPropertyOp7
 70
     1
102
RTVSPropertyOp8
 70
     1
102
RTVSPropertyOp9
 70
     1
102
RTVSPropertyOp10
 70
     1
102
RTVSPropertyOp11
 70
     1
102
RTVSPropertyOp12
 70
     1
102
RTVSPropertyOp13
 70
     1
102
RTVSPropertyOp14
 70
     1
102
RTVSPropertyOp15
 70
     1
102
RTVSPropertyOp16
 70
     1
102
RTVSPropertyOp17
 70
     1
102
RTVSPropertyOp18
 70
     1
102
RTVSPropertyOp19
 70
     1
102
RTVSPropertyOp20
 70
     1
102
RTVSPropertyOp21
 70
     1
102
RTVSPropertyOp22
 70
     1
102
RTVSPropertyOp23
 70
     1
102
RTVSPropertyOp24
 70
     1
102
RTVSPropertyOp25
 70
     1
102
RTVSPropertyOp26
 70
     1
102
RTVSPropertyOp27
 70
     1
102
RTVSPropertyOp28
 70
     1
102
RTVSPropertyOp29
 70
     1
102
RTVSPropertyOp30
 70
     1
102
RTVSPropertyOp31
 70
     1
102
RTVSPropertyOp32
 70
     1
  0
ENDSEC
  0
EOF
