  0
SECTION
  2
HEADER
  9
$ACADVER
  1
AC1015
  9
$ACADMAINTVER
 70
     6
  9
$DWGCODEPAGE
  3
ANSI_1252
  9
$INSBASE
 10
0.0
 20
0.0
 30
0.0
  9
$EXTMIN
 10
0.0
 20
0.0
 30
0.0
  9
$EXTMAX
 10
210.0
 20
297.0
 30
0.0
  9
$LIMMIN
 10
0.0
 20
0.0
  9
$LIMMAX
 10
210.0
 20
297.0
  9
$ORTHOMODE
 70
     0
  9
$REGENMODE
 70
     1
  9
$FILLMODE
 70
     1
  9
$QTEXTMODE
 70
     0
  9
$MIRRTEXT
 70
     1
  9
$LTSCALE
 40
1.0
  9
$ATTMODE
 70
     1
  9
$TEXTSIZE
 40
2.5
  9
$TRACEWID
 40
1.0
  9
$TEXTSTYLE
  7
Standard
  9
$CLAYER
  8
0
  9
$CELTYPE
  6
ByLayer
  9
$CECOLOR
 62
   256
  9
$CELTSCALE
 40
1.0
  9
$DISPSILH
 70
     0
  9
$DIMSCALE
 40
1.0
  9
$DIMASZ
 40
2.5
  9
$DIMEXO
 40
0.625
  9
$DIMDLI
 40
3.75
  9
$DIMRND
 40
0.0
  9
$DIMDLE
 40
0.0
  9
$DIMEXE
 40
1.25
  9
$DIMTP
 40
0.0
  9
$DIMTM
 40
0.0
  9
$DIMTXT
 40
2.5
  9
$DIMCEN
 40
2.5
  9
$DIMTSZ
 40
0.0
  9
$DIMTOL
 70
     0
  9
$DIMLIM
 70
     0
  9
$DIMTIH
 70
     0
  9
$DIMTOH
 70
     0
  9
$DIMSE1
 70
     0
  9
$DIMSE2
 70
     0
  9
$DIMTAD
 70
     1
  9
$DIMZIN
 70
     8
  9
$DIMBLK
  1

  9
$DIMASO
 70
     1
  9
$DIMSHO
 70
     1
  9
$DIMPOST
  1

  9
$DIMAPOST
  1

  9
$DIMALT
 70
     0
  9
$DIMALTD
 70
     3
  9
$DIMALTF
 40
0.0393700787
  9
$DIMLFAC
 40
1.0
  9
$DIMTOFL
 70
     1
  9
$DIMTVP
 40
0.0
  9
$DIMTIX
 70
     0
  9
$DIMSOXD
 70
     0
  9
$DIMSAH
 70
     0
  9
$DIMBLK1
  1

  9
$DIMBLK2
  1

  9
$DIMSTYLE
  2
ISO-25
  9
$DIMCLRD
 70
     0
  9
$DIMCLRE
 70
     0
  9
$DIMCLRT
 70
     0
  9
$DIMTFAC
 40
1.0
  9
$DIMGAP
 40
0.625
  9
$DIMJUST
 70
     0
  9
$DIMSD1
 70
     0
  9
$DIMSD2
 70
     0
  9
$DIMTOLJ
 70
     0
  9
$DIMTZIN
 70
     8
  9
$DIMALTZ
 70
     0
  9
$DIMALTTZ
 70
     0
  9
$DIMUPT
 70
     0
  9
$DIMDEC
 70
     2
  9
$DIMTDEC
 70
     2
  9
$DIMALTU
 70
     2
  9
$DIMALTTD
 70
     3
  9
$DIMTXSTY
  7
Standard
  9
$DIMAUNIT
 70
     0
  9
$DIMADEC
 70
     0
  9
$DIMALTRND
 40
0.0
  9
$DIMAZIN
 70
     0
  9
$DIMDSEP
 70
    44
  9
$DIMATFIT
 70
     3
  9
$DIMFRAC
 70
     0
  9
$DIMLDRBLK
  1

  9
$DIMLUNIT
 70
     2
  9
$DIMLWD
 70
    -2
  9
$DIMLWE
 70
    -2
  9
$DIMTMOVE
 70
     0
  9
$LUNITS
 70
     2
  9
$LUPREC
 70
     4
  9
$SKETCHINC
 40
1.0
  9
$FILLETRAD
 40
10.0
  9
$AUNITS
 70
     0
  9
$AUPREC
 70
     0
  9
$MENU
  1
.
  9
$ELEVATION
 40
0.0
  9
$PELEVATION
 40
0.0
  9
$THICKNESS
 40
0.0
  9
$LIMCHECK
 70
     0
  9
$CHAMFERA
 40
10.0
  9
$CHAMFERB
 40
10.0
  9
$CHAMFERC
 40
20.0
  9
$CHAMFERD
 40
0.0
  9
$SKPOLY
 70
     0
  9
$TDCREATE
 40
2457562.327453993
  9
$TDUCREATE
 40
2457562.24412066
  9
$TDUPDATE
 40
2457562.327456088
  9
$TDUUPDATE
 40
2457562.244122755
  9
$TDINDWG
 40
0.0000000116
  9
$TDUSRTIMER
 40
0.0000000116
  9
$USRTIMER
 70
     1
  9
$ANGBASE
 50
0.0
  9
$ANGDIR
 70
     0
  9
$PDMODE
 70
     0
  9
$PDSIZE
 40
0.0
  9
$PLINEWID
 40
0.0
  9
$SPLFRAME
 70
     0
  9
$SPLINETYPE
 70
     6
  9
$SPLINESEGS
 70
     8
  9
$HANDSEED
  5
1A9
  9
$SURFTAB1
 70
     6
  9
$SURFTAB2
 70
     6
  9
$SURFTYPE
 70
     6
  9
$SURFU
 70
     6
  9
$SURFV
 70
     6
  9
$UCSBASE
  2

  9
$UCSNAME
  2

  9
$UCSORG
 10
0.0
 20
0.0
 30
0.0
  9
$UCSXDIR
 10
1.0
 20
0.0
 30
0.0
  9
$UCSYDIR
 10
0.0
 20
1.0
 30
0.0
  9
$UCSORTHOREF
  2

  9
$UCSORTHOVIEW
 70
     0
  9
$UCSORGTOP
 10
0.0
 20
0.0
 30
0.0
  9
$UCSORGBOTTOM
 10
0.0
 20
0.0
 30
0.0
  9
$UCSORGLEFT
 10
0.0
 20
0.0
 30
0.0
  9
$UCSORGRIGHT
 10
0.0
 20
0.0
 30
0.0
  9
$UCSORGFRONT
 10
0.0
 20
0.0
 30
0.0
  9
$UCSORGBACK
 10
0.0
 20
0.0
 30
0.0
  9
$PUCSBASE
  2

  9
$PUCSNAME
  2

  9
$PUCSORG
 10
0.0
 20
0.0
 30
0.0
  9
$PUCSXDIR
 10
1.0
 20
0.0
 30
0.0
  9
$PUCSYDIR
 10
0.0
 20
1.0
 30
0.0
  9
$PUCSORTHOREF
  2

  9
$PUCSORTHOVIEW
 70
     0
  9
$PUCSORGTOP
 10
0.0
 20
0.0
 30
0.0
  9
$PUCSORGBOTTOM
 10
0.0
 20
0.0
 30
0.0
  9
$PUCSORGLEFT
 10
0.0
 20
0.0
 30
0.0
  9
$PUCSORGRIGHT
 10
0.0
 20
0.0
 30
0.0
  9
$PUCSORGFRONT
 10
0.0
 20
0.0
 30
0.0
  9
$PUCSORGBACK
 10
0.0
 20
0.0
 30
0.0
  9
$USERI1
 70
     0
  9
$USERI2
 70
     0
  9
$USERI3
 70
     0
  9
$USERI4
 70
     0
  9
$USERI5
 70
     0
  9
$USERR1
 40
0.0
  9
$USERR2
 40
0.0
  9
$USERR3
 40
0.0
  9
$USERR4
 40
0.0
  9
$USERR5
 40
0.0
  9
$WORLDVIEW
 70
     1
  9
$SHADEDGE
 70
     3
  9
$SHADEDIF
 70
    70
  9
$TILEMODE
 70
     1
  9
$MAXACTVP
 70
    64
  9
$PINSBASE
 10
0.0
 20
0.0
 30
0.0
  9
$PLIMCHECK
 70
     0
  9
$PEXTMIN
 10
0.0
 20
0.0
 30
0.0
  9
$PEXTMAX
 10
210.0
 20
297.0
 30
0.0
  9
$PLIMMIN
 10
0.0
 20
0.0
  9
$PLIMMAX
 10
210.0
 20
297.0
  9
$UNITMODE
 70
     0
  9
$VISRETAIN
 70
     1
  9
$PLINEGEN
 70
     0
  9
$PSLTSCALE
 70
     1
  9
$TREEDEPTH
 70
  3020
  9
$CMLSTYLE
  2
Standard
  9
$CMLJUST
 70
     0
  9
$CMLSCALE
 40
20.0
  9
$PROXYGRAPHICS
 70
     1
  9
$MEASUREMENT
 70
     1
  9
$CELWEIGHT
370
    -1
  9
$ENDCAPS
280
     0
  9
$JOINSTYLE
280
     0
  9
$LWDISPLAY
290
     0
  9
$INSUNITS
 70
     4
  9
$HYPERLINKBASE
  1

  9
$STYLESHEET
  1

  9
$XEDIT
290
     1
  9
$CEPSNTYPE
380
     0
  9
$PSTYLEMODE
290
     1
  9
$FINGERPRINTGUID
  2
{A5827A90-76C5-4D5F-9B67-D116B640ED2C}
  9
$VERSIONGUID
  2
{FAEB1C32-E019-11D5-929B-00C0DF256EC4}
  9
$EXTNAMES
290
     1
  9
$PSVPSCALE
 40
0.0
  9
$OLESTARTUP
290
     0
  0
ENDSEC
  0
SECTION
  2
CLASSES
  0
CLASS
  1
ACDBDICTIONARYWDFLT
  2
AcDbDictionaryWithDefault
  3
ObjectDBX Classes
 90
        0
280
     0
281
     0
  0
CLASS
  1
VISUALSTYLE
  2
AcDbVisualStyle
  3
ObjectDBX Classes
 90
     4095
280
     0
281
     0
  0
CLASS
  1
MATERIAL
  2
AcDbMaterial
  3
ObjectDBX Classes
 90
     1153
280
     0
281
     0
  0
CLASS
  1
DICTIONARYVAR
  2
AcDbDictionaryVar
  3
ObjectDBX Classes
 90
        0
280
     0
281
     0
  0
CLASS
  1
ACDBPLACEHOLDER
  2
AcDbPlaceHolder
  3
ObjectDBX Classes
 90
        0
280
     0
281
     0
  0
CLASS
  1
LAYOUT
  2
AcDbLayout
  3
ObjectDBX Classes
 90
        0
280
     0
281
     0
  0
ENDSEC
  0
SECTION
  2
TABLES
  0
TABLE
  2
VPORT
  5
8
330
0
100
AcDbSymbolTable
 70
     1
  0
VPORT
  5
29
330
8
100
AcDbSymbolTableRecord
100
AcDbViewportTableRecord
  2
*Active
 70
     0
 10
0.0
 20
0.0
 11
1.0
 21
1.0
 12
344.1869158879
 22
148.5
 13
0.0
 23
0.0
 14
10.0
 24
10.0
 15
10.0
 25
10.0
 16
0.0
 26
0.0
 36
1.0
 17
0.0
 27
0.0
 37
0.0
 40
297.0
 41
1.9729729729
 42
50.0
 43
0.0
 44
0.0
 50
0.0
 51
0.0
 71
     0
 72
   100
 73
     1
 74
     3
 75
     0
 76
     0
 77
     0
 78
     0
281
     0
 65
     1
110
0.0
120
0.0
130
0.0
111
1.0
121
0.0
131
0.0
112
0.0
122
1.0
132
0.0
 79
     0
146
0.0
  0
ENDTAB
  0
TABLE
  2
LTYPE
  5
5
330
0
100
AcDbSymbolTable
 70
     2
  0
LTYPE
  5
14
330
5
100
AcDbSymbolTableRecord
100
AcDbLinetypeTableRecord
  2
ByBlock
 70
     0
  3

 72
    65
 73
     0
 40
0.0
  0
LTYPE
  5
15
330
5
100
AcDbSymbolTableRecord
100
AcDbLinetypeTableRecord
  2
ByLayer
 70
     0
  3

 72
    65
 73
     0
 40
0.0
  0
LTYPE
  5
16
330
5
100
AcDbSymbolTableRecord
100
AcDbLinetypeTableRecord
  2
Continuous
 70
     0
  3
Solid line
 72
    65
 73
     0
 40
0.0
  0
LTYPE
  5
5A
330
5
100
AcDbSymbolTableRecord
100
AcDbLinetypeTableRecord
  2
HIDDEN2
 70
     0
  3
Hidden (.5x) _ _ _ _ _ _ _ _ _ _ _ _ _ _ _ _ _ 
 72
    65
 73
     2
 40
4.7625
 49
3.175
 74
     4
 75
     0
340
0
 46
0.0
 50
0.0
 44
0.0
 45
0.0
 49
-1.5875
 74
     4
 75
     0
340
0
 46
0.0
 50
0.0
 44
0.0
 45
0.0
  0
ENDTAB
  0
TABLE
  2
LAYER
  5
2
330
0
100
AcDbSymbolTable
 70
     5
  0
LAYER
  5
10
330
2
100
AcDbSymbolTableRecord
100
AcDbLayerTableRecord
  2
0
 70
     0
 62
     7
  6
Continuous
370
    -3
390
F
  0
LAYER
  5
3F
330
2
100
AcDbSymbolTableRecord
100
AcDbLayerTableRecord
  2
SK2
 70
     0
 62
     7
  6
Continuous
370
    15
390
F
  0
LAYER
  5
40
330
2
100
AcDbSymbolTableRecord
100
AcDbLayerTableRecord
  2
SK1
 70
     0
 62
     4
  6
Continuous
370
    18
390
F
  0
LAYER
  5
59
330
2
100
AcDbSymbolTableRecord
100
AcDbLayerTableRecord
  2
SK3
 70
     0
 62
     1
  6
HIDDEN2
370
    15
390
F
  0
LAYER
  5
13C
330
2
100
AcDbSymbolTableRecord
100
AcDbLayerTableRecord
  2
SK4
 70
     0
 62
     2
  6
Continuous
370
    13
390
F
  0
ENDTAB
  0
TABLE
  2
STYLE
  5
3
330
0
100
AcDbSymbolTable
 70
     2
  0
STYLE
  5
11
330
3
100
AcDbSymbolTableRecord
100
AcDbTextStyleTableRecord
  2
Standard
 70
     0
 40
0.0
 41
1.0
 50
0.0
 71
     0
 42
2.5
  3
txt
  4

  0
STYLE
  5
150
330
3
100
AcDbSymbolTableRecord
100
AcDbTextStyleTableRecord
  2
SEACAD_Solid_Edge_ISO
 70
     0
 40
0.0
 41
1.0
 50
0.0
 71
     0
 42
0.2
  3
seiso.ttf
  4

1001
ACAD
1000
Solid Edge ISO
1071
        0
  0
ENDTAB
  0
TABLE
  2
VIEW
  5
6
330
0
100
AcDbSymbolTable
 70
     0
  0
ENDTAB
  0
TABLE
  2
UCS
  5
7
330
0
100
AcDbSymbolTable
 70
     0
  0
ENDTAB
  0
TABLE
  2
APPID
  5
9
330
0
100
AcDbSymbolTable
 70
     1
  0
APPID
  5
12
330
9
100
AcDbSymbolTableRecord
100
AcDbRegAppTableRecord
  2
ACAD
 70
     0
  0
ENDTAB
  0
TABLE
  2
DIMSTYLE
  5
A
330
0
100
AcDbSymbolTable
 70
     3
100
AcDbDimStyleTable
  0
DIMSTYLE
105
27
330
A
100
AcDbSymbolTableRecord
100
AcDbDimStyleTableRecord
  2
ISO-25
 70
     0
 41
2.5
 42
0.625
 43
3.75
 44
1.25
 73
     0
 74
     0
 77
     1
 78
     8
140
2.5
141
2.5
143
0.0393700787
147
0.625
171
     3
172
     1
178
     0
271
     2
272
     2
274
     3
278
    44
283
     0
284
     8
340
11
  0
DIMSTYLE
105
13E
330
A
100
AcDbSymbolTableRecord
100
AcDbDimStyleTableRecord
  2
Standard
 70
     0
178
     0
340
11
  0
DIMSTYLE
105
151
102
{ACAD_REACTORS
330
152
330
15D
330
167
330
172
102
}
330
A
100
AcDbSymbolTableRecord
100
AcDbDimStyleTableRecord
  2
DIN
 70
     0
 41
3.5
 42
0.0
 44
1.75
 73
     0
 74
     0
 77
     1
 78
     8
140
3.5
141
1.75
147
1.75
172
     1
173
     1
178
     0
179
     3
271
     2
272
     2
278
    44
284
     8
340
150
343
14B
344
14B
  0
ENDTAB
  0
TABLE
  2
BLOCK_RECORD
  5
1
330
0
100
AcDbSymbolTable
 70
    10
  0
BLOCK_RECORD
  5
1F
330
1
100
AcDbSymbolTableRecord
100
AcDbBlockTableRecord
  2
*Model_Space
340
22
  0
BLOCK_RECORD
  5
1B
330
1
100
AcDbSymbolTableRecord
100
AcDbBlockTableRecord
  2
*Paper_Space
340
1E
  0
BLOCK_RECORD
  5
41
330
1
100
AcDbSymbolTableRecord
100
AcDbBlockTableRecord
  2
Nullpunkt
340
0
102
{BLKREFS
331
4B
102
}
  0
BLOCK_RECORD
  5
4C
330
1
100
AcDbSymbolTableRecord
100
AcDbBlockTableRecord
  2
Einfügepunkt
340
0
102
{BLKREFS
331
56
102
}
  0
BLOCK_RECORD
  5
13F
330
1
100
AcDbSymbolTableRecord
100
AcDbBlockTableRecord
  2
_OBLIQUE
340
0
  0
BLOCK_RECORD
  5
143
330
1
100
AcDbSymbolTableRecord
100
AcDbBlockTableRecord
  2
_DOT
340
0
  0
BLOCK_RECORD
  5
14B
330
1
100
AcDbSymbolTableRecord
100
AcDbBlockTableRecord
  2
_SE_FILLED
340
0
  0
BLOCK_RECORD
  5
153
330
1
100
AcDbSymbolTableRecord
100
AcDbBlockTableRecord
  2
DMBLK37
340
0
  0
BLOCK_RECORD
  5
15E
330
1
100
AcDbSymbolTableRecord
100
AcDbBlockTableRecord
  2
DMBLK38
340
0
  0
BLOCK_RECORD
  5
168
330
1
100
AcDbSymbolTableRecord
100
AcDbBlockTableRecord
  2
DMBLK39
340
0
  0
BLOCK_RECORD
  5
173
330
1
100
AcDbSymbolTableRecord
100
AcDbBlockTableRecord
  2
DMBLK40
340
0
  0
ENDTAB
  0
ENDSEC
  0
SECTION
  2
BLOCKS
  0
BLOCK
  5
20
330
1F
100
AcDbEntity
  8
0
100
AcDbBlockBegin
  2
*Model_Space
 70
     0
 10
0.0
 20
0.0
 30
0.0
  3
*Model_Space
  1

  0
ENDBLK
  5
21
330
1F
100
AcDbEntity
  8
0
100
AcDbBlockEnd
  0
BLOCK
  5
1C
330
1B
100
AcDbEntity
 67
     1
  8
0
100
AcDbBlockBegin
  2
*Paper_Space
 70
     0
 10
0.0
 20
0.0
 30
0.0
  3
*Paper_Space
  1

  0
ENDBLK
  5
1D
330
1B
100
AcDbEntity
 67
     1
  8
0
100
AcDbBlockEnd
  0
BLOCK
  5
49
330
41
100
AcDbEntity
  8
0
100
AcDbBlockBegin
  2
Nullpunkt
 70
     0
 10
0.0
 20
0.0
 30
0.0
  3
Nullpunkt
  1

  0
HATCH
  5
42
330
41
100
AcDbEntity
  8
SK2
  6
Continuous
 62
     7
100
AcDbHatch
 10
0.0
 20
0.0
 30
0.0
210
0.0
220
0.0
230
1.0
  2
SOLID
 70
     1
 71
     0
 91
        1
 92
        1
 93
        3
 72
     1
 10
-1.0
 20
0.0
 11
0.0000000000000009
 21
0.0
 72
     1
 10
0.0
 20
0.0
 11
0.0
 21
1.000000000000001
 72
     2
 10
0.0
 20
0.0
 40
1.0
 50
90.0
 51
180.0
 73
     1
 97
        0
 75
     0
 76
     1
 98
        0
  0
HATCH
  5
43
330
41
100
AcDbEntity
  8
SK2
  6
Continuous
 62
     7
100
AcDbHatch
 10
0.0
 20
0.0
 30
0.0
210
0.0
220
0.0
230
1.0
  2
SOLID
 70
     1
 71
     0
 91
        1
 92
        1
 93
        3
 72
     2
 10
0.0
 20
0.0
 40
1.0
 50
270.0
 51
360.0
 73
     1
 72
     1
 10
1.0
 20
0.0
 11
-0.0000000000000009
 21
0.0
 72
     1
 10
0.0
 20
0.0
 11
0.0
 21
-1.000000000000001
 97
        0
 75
     0
 76
     1
 98
        0
  0
CIRCLE
  5
44
330
41
100
AcDbEntity
  8
SK2
  6
Continuous
 62
     7
100
AcDbCircle
 10
0.0
 20
0.0
 30
0.0
 40
1.0
  0
LINE
  5
45
330
41
100
AcDbEntity
  8
SK1
  6
Continuous
100
AcDbLine
 10
-1.0
 20
0.0
 30
0.0
 11
1.0
 21
0.0
 31
0.0
  0
LINE
  5
46
330
41
100
AcDbEntity
  8
SK1
  6
Continuous
100
AcDbLine
 10
0.0
 20
1.0
 30
0.0
 11
0.0
 21
-1.0
 31
0.0
  0
POINT
  5
47
330
41
100
AcDbEntity
  8
SK1
  6
Continuous
100
AcDbPoint
 10
0.0
 20
0.0
 30
0.0
  0
POINT
  5
48
330
41
100
AcDbEntity
  8
SK1
  6
Continuous
100
AcDbPoint
 10
0.0
 20
0.0
 30
0.0
  0
ENDBLK
  5
4A
330
41
100
AcDbEntity
  8
0
100
AcDbBlockEnd
  0
BLOCK
  5
54
330
4C
100
AcDbEntity
  8
0
100
AcDbBlockBegin
  2
Einfügepunkt
 70
     0
 10
0.0
 20
0.0
 30
0.0
  3
Einfügepunkt
  1

  0
HATCH
  5
4D
330
4C
100
AcDbEntity
  8
SK2
  6
Continuous
 62
     7
100
AcDbHatch
 10
0.0
 20
0.0
 30
0.0
210
0.0
220
0.0
230
1.0
  2
SOLID
 70
     1
 71
     0
 91
        1
 92
        1
 93
        3
 72
     1
 10
-0.4502381196756744
 20
-0.0000000000000018
 11
0.0000000000000033
 21
-0.0000000000000018
 72
     1
 10
0.0
 20
-0.0000000000000018
 11
0.0
 21
0.4502381196756812
 72
     2
 10
0.0
 20
-0.0000000000000018
 40
0.4502381196756812
 50
90.0
 51
180.0
 73
     1
 97
        0
 75
     0
 76
     1
 98
        0
  0
HATCH
  5
4E
330
4C
100
AcDbEntity
  8
SK2
  6
Continuous
 62
     7
100
AcDbHatch
 10
0.0
 20
0.0
 30
0.0
210
0.0
220
0.0
230
1.0
  2
SOLID
 70
     1
 71
     0
 91
        1
 92
        1
 93
        3
 72
     2
 10
0.0
 20
-0.0000000000000018
 40
0.4502381196756812
 50
270.0
 51
360.0
 73
     1
 72
     1
 10
0.4502381196756815
 20
-0.0000000000000018
 11
0.0000000000000038
 21
-0.0000000000000018
 72
     1
 10
0.0
 20
-0.0000000000000018
 11
0.0
 21
-0.4502381196756812
 97
        0
 75
     0
 76
     1
 98
        0
  0
CIRCLE
  5
4F
330
4C
100
AcDbEntity
  8
SK2
  6
Continuous
 62
     7
100
AcDbCircle
 10
0.0
 20
0.0
 30
0.0
 40
0.4502381196756812
  0
LINE
  5
50
330
4C
100
AcDbEntity
  8
SK1
  6
Continuous
100
AcDbLine
 10
-0.4502381197
 20
0.0
 30
0.0
 11
0.4502381197
 21
0.0
 31
0.0
  0
LINE
  5
51
330
4C
100
AcDbEntity
  8
SK1
  6
Continuous
100
AcDbLine
 10
0.0
 20
0.4502381197
 30
0.0
 11
0.0
 21
-0.4502381197
 31
0.0
  0
POINT
  5
52
330
4C
100
AcDbEntity
  8
SK2
  6
Continuous
 62
     7
100
AcDbPoint
 10
0.0
 20
0.0
 30
0.0
  0
POINT
  5
53
330
4C
100
AcDbEntity
  8
SK2
  6
Continuous
 62
     7
100
AcDbPoint
 10
0.0
 20
0.0
 30
0.0
  0
ENDBLK
  5
55
330
4C
100
AcDbEntity
  8
0
100
AcDbBlockEnd
  0
BLOCK
  5
140
330
13F
100
AcDbEntity
  8
0
100
AcDbBlockBegin
  2
_OBLIQUE
 70
     0
 10
0.0
 20
0.0
 30
0.0
  3
_OBLIQUE
  1

  0
LINE
  5
142
330
13F
100
AcDbEntity
  8
0
  6
ByBlock
 62
     0
370
    -2
100
AcDbLine
 10
-0.5
 20
-0.5
 30
0.0
 11
0.5
 21
0.5
 31
0.0
  0
ENDBLK
  5
141
330
13F
100
AcDbEntity
  8
0
100
AcDbBlockEnd
  0
BLOCK
  5
144
330
143
100
AcDbEntity
  8
0
100
AcDbBlockBegin
  2
_DOT
 70
     0
 10
0.0
 20
0.0
 30
0.0
  3
_DOT
  1

  0
POLYLINE
  5
146
330
143
100
AcDbEntity
  8
0
  6
ByBlock
 62
     0
100
AcDb2dPolyline
 66
     1
 10
0.0
 20
0.0
 30
0.0
 70
     1
 40
0.5
 41
0.5
  0
VERTEX
  5
148
330
146
100
AcDbEntity
  8
0
  6
ByBlock
 62
     0
100
AcDbVertex
100
AcDb2dVertex
 10
-0.25
 20
0.0
 30
0.0
 42
1.0
  0
VERTEX
  5
149
330
146
100
AcDbEntity
  8
0
  6
ByBlock
 62
     0
100
AcDbVertex
100
AcDb2dVertex
 10
0.25
 20
0.0
 30
0.0
 42
1.0
  0
SEQEND
  5
14A
330
146
100
AcDbEntity
  8
0
  6
ByBlock
 62
     0
  0
LINE
  5
147
330
143
100
AcDbEntity
  8
0
  6
ByBlock
 62
     0
370
    -2
100
AcDbLine
 10
-0.5
 20
0.0
 30
0.0
 11
-1.0
 21
0.0
 31
0.0
  0
ENDBLK
  5
145
330
143
100
AcDbEntity
  8
0
100
AcDbBlockEnd
  0
BLOCK
  5
14E
330
14B
100
AcDbEntity
  8
0
100
AcDbBlockBegin
  2
_SE_FILLED
 70
     0
 10
0.0
 20
0.0
 30
0.0
  3
_SE_FILLED
  1

  0
SOLID
  5
14C
330
14B
100
AcDbEntity
  8
0
 62
     0
100
AcDbTrace
 10
0.0
 20
0.0
 30
0.0
 11
-1.0
 21
-0.1665
 31
0.0
 12
-1.0
 22
0.1665
 32
0.0
 13
0.0
 23
0.0
 33
0.0
  0
LINE
  5
14D
330
14B
100
AcDbEntity
  8
0
 62
     0
100
AcDbLine
 10
0.0
 20
0.0
 30
0.0
 11
-1.0
 21
0.0
 31
0.0
  0
ENDBLK
  5
14F
330
14B
100
AcDbEntity
  8
0
100
AcDbBlockEnd
  0
BLOCK
  5
15B
330
153
100
AcDbEntity
  8
0
100
AcDbBlockBegin
  2
DMBLK37
 70
     0
 10
0.0
 20
0.0
 30
0.0
  3
DMBLK37
  1

  0
HATCH
  5
154
330
153
100
AcDbEntity
  8
SK2
  6
Continuous
 62
   136
100
AcDbHatch
 10
0.0
 20
0.0
 30
0.0
210
0.0
220
0.0
230
1.0
  2
SOLID
 70
     1
 71
     0
 91
        1
 92
        1
 93
        3
 72
     1
 10
20.59813003961342
 20
3.499999991737285
 11
20.01479668827452
 21
7.000000099770704
 72
     1
 10
20.01479668827452
 20
7.000000099770703
 11
19.43146333693561
 21
3.499999991737284
 72
     1
 10
19.43146333693561
 20
3.499999991737285
 11
20.59813003961342
 21
3.499999991737285
 97
        0
 75
     0
 76
     1
 98
        0
  0
HATCH
  5
155
330
153
100
AcDbEntity
  8
SK2
  6
Continuous
 62
   136
100
AcDbHatch
 10
0.0
 20
0.0
 30
0.0
210
0.0
220
0.0
230
1.0
  2
SOLID
 70
     1
 71
     0
 91
        1
 92
        1
 93
        3
 72
     1
 10
20.59813003961342
 20
-3.500000224329553
 11
19.43146333693561
 21
-3.500000224329553
 72
     1
 10
19.43146333693561
 20
-3.500000224329553
 11
20.01479668827452
 21
-7.000000332362971
 72
     1
 10
20.01479668827452
 20
-7.000000332362972
 11
20.59813003961342
 21
-3.500000224329553
 97
        0
 75
     0
 76
     1
 98
        0
  0
LINE
  5
156
330
153
100
AcDbEntity
  8
SK2
  6
Continuous
 62
   136
100
AcDbLine
 10
11.46
 20
7.0000000998
 30
0.0
 11
21.7647967423
 21
7.0000000998
 31
0.0
  0
LINE
  5
157
330
153
100
AcDbEntity
  8
SK2
  6
Continuous
 62
   136
100
AcDbLine
 10
11.46
 20
-6.9999999002
 30
0.0
 11
21.7647967423
 21
-6.9999999002
 31
0.0
  0
LINE
  5
158
330
153
100
AcDbEntity
  8
SK2
  6
Continuous
 62
   136
100
AcDbLine
 10
20.0147966883
 20
7.0000000998
 30
0.0
 11
20.0147966883
 21
-7.0000003324
 31
0.0
  0
TEXT
  5
159
330
153
100
AcDbEntity
  8
SK2
  6
Continuous
 62
   136
100
AcDbText
 10
19.1397966883
 20
0.2863635201
 30
0.0
 40
3.5
  1
14
 50
90.0
  7
SEACAD_Solid_Edge_ISO
 11
15.6397966883
 21
0.2863635201
 31
0.0
100
AcDbText
 73
     3
  0
TEXT
  5
15A
330
153
100
AcDbEntity
  8
SK2
  6
Continuous
 62
   136
100
AcDbText
 10
19.1397966883
 20
-3.7863637527
 30
0.0
 40
3.5
  1
ø
 50
90.0
  7
SEACAD_Solid_Edge_ISO
 11
15.6397966883
 21
-3.7863637527
 31
0.0
100
AcDbText
 73
     3
  0
ENDBLK
  5
15C
330
153
100
AcDbEntity
  8
0
100
AcDbBlockEnd
  0
BLOCK
  5
165
330
15E
100
AcDbEntity
  8
0
100
AcDbBlockBegin
  2
DMBLK38
 70
     0
 10
0.0
 20
0.0
 30
0.0
  3
DMBLK38
  1

  0
HATCH
  5
15F
330
15E
100
AcDbEntity
  8
SK2
  6
Continuous
 62
   136
100
AcDbHatch
 10
0.0
 20
0.0
 30
0.0
210
0.0
220
0.0
230
1.0
  2
SOLID
 70
     1
 71
     0
 91
        1
 92
        1
 93
        3
 72
     1
 10
3.500000108033419
 20
-21.17114132870265
 11
3.500000108033419
 21
-20.00447462602484
 72
     1
 10
3.500000108033419
 20
-20.00447462602484
 11
0.0
 21
-20.58780797736375
 72
     1
 10
0.0
 20
-20.58780797736375
 11
3.500000108033419
 21
-21.17114132870265
 97
        0
 75
     0
 76
     1
 98
        0
  0
HATCH
  5
160
330
15E
100
AcDbEntity
  8
SK2
  6
Continuous
 62
   136
100
AcDbHatch
 10
0.0
 20
0.0
 30
0.0
210
0.0
220
0.0
230
1.0
  2
SOLID
 70
     1
 71
     0
 91
        1
 92
        1
 93
        3
 72
     1
 10
8.160000201314688
 20
-21.17114132870265
 11
11.66000030934811
 21
-20.58780797736375
 72
     1
 10
11.66000030934811
 20
-20.58780797736375
 11
8.160000201314688
 21
-20.00447462602484
 72
     1
 10
8.160000201314688
 20
-20.00447462602484
 11
8.160000201314688
 21
-21.17114132870265
 97
        0
 75
     0
 76
     1
 98
        0
  0
LINE
  5
161
330
15E
100
AcDbEntity
  8
SK2
  6
Continuous
 62
   136
100
AcDbLine
 10
0.0
 20
-12.4932727681
 30
0.0
 11
0.0
 21
-22.3378080314
 31
0.0
  0
LINE
  5
162
330
15E
100
AcDbEntity
  8
SK2
  6
Continuous
 62
   136
100
AcDbLine
 10
11.66
 20
-9.1882743346
 30
0.0
 11
11.66
 21
-22.3378080314
 31
0.0
  0
LINE
  5
163
330
15E
100
AcDbEntity
  8
SK2
  6
Continuous
 62
   136
100
AcDbLine
 10
0.0
 20
-20.5878079774
 30
0.0
 11
11.6600003093
 21
-20.5878079774
 31
0.0
  0
TEXT
  5
164
330
15E
100
AcDbEntity
  8
SK2
  6
Continuous
 62
   136
100
AcDbText
 10
1.9322728819
 20
-19.7128079774
 30
0.0
 40
3.5
  1
11,66
  7
SEACAD_Solid_Edge_ISO
 11
1.9322728819
 21
-16.2128079774
 31
0.0
100
AcDbText
 73
     3
  0
ENDBLK
  5
166
330
15E
100
AcDbEntity
  8
0
100
AcDbBlockEnd
  0
BLOCK
  5
170
330
168
100
AcDbEntity
  8
0
100
AcDbBlockBegin
  2
DMBLK39
 70
     0
 10
0.0
 20
0.0
 30
0.0
  3
DMBLK39
  1

  0
HATCH
  5
169
330
168
100
AcDbEntity
  8
SK2
  6
Continuous
 62
   136
100
AcDbHatch
 10
0.0
 20
0.0
 30
0.0
210
0.0
220
0.0
230
1.0
  2
SOLID
 70
     1
 71
     0
 91
        1
 92
        1
 93
        3
 72
     1
 10
-28.45903431686262
 20
8.993272859633198
 11
-27.29236761418482
 21
8.993272859633198
 72
     1
 10
-27.29236761418482
 20
8.993272859633198
 11
-27.87570096552372
 21
12.49327296766662
 72
     1
 10
-27.87570096552372
 20
12.49327296766662
 11
-28.45903431686262
 21
8.993272859633198
 97
        0
 75
     0
 76
     1
 98
        0
  0
HATCH
  5
16A
330
168
100
AcDbEntity
  8
SK2
  6
Continuous
 62
   136
100
AcDbHatch
 10
0.0
 20
0.0
 30
0.0
210
0.0
220
0.0
230
1.0
  2
SOLID
 70
     1
 71
     0
 91
        1
 92
        1
 93
        3
 72
     1
 10
-28.45903431686262
 20
-8.9932734109161
 11
-27.87570096552372
 21
-12.49327351894952
 72
     1
 10
-27.87570096552372
 20
-12.49327351894952
 11
-27.29236761418482
 21
-8.9932734109161
 72
     1
 10
-27.29236761418482
 20
-8.9932734109161
 11
-28.45903431686262
 21
-8.9932734109161
 97
        0
 75
     0
 76
     1
 98
        0
  0
LINE
  5
16B
330
168
100
AcDbEntity
  8
SK2
  6
Continuous
 62
   136
100
AcDbLine
 10
0.0
 20
12.4932729677
 30
0.0
 11
-29.6257010195
 21
12.4932729677
 31
0.0
  0
LINE
  5
16C
330
168
100
AcDbEntity
  8
SK2
  6
Continuous
 62
   136
100
AcDbLine
 10
0.0
 20
-12.4932727681
 30
0.0
 11
-29.6257010195
 21
-12.4932727681
 31
0.0
  0
LINE
  5
16D
330
168
100
AcDbEntity
  8
SK2
  6
Continuous
 62
   136
100
AcDbLine
 10
-27.8757009655
 20
12.4932729677
 30
0.0
 11
-27.8757009655
 21
-12.4932735189
 31
0.0
  0
TEXT
  5
16E
330
168
100
AcDbEntity
  8
SK2
  6
Continuous
 62
   136
100
AcDbText
 10
-28.7507009655
 20
-0.0318184575
 30
0.0
 40
3.5
  1
25
 50
90.0
  7
SEACAD_Solid_Edge_ISO
 11
-32.2507009655
 21
-0.0318184575
 31
0.0
100
AcDbText
 73
     3
  0
TEXT
  5
16F
330
168
100
AcDbEntity
  8
SK2
  6
Continuous
 62
   136
100
AcDbText
 10
-28.7507009655
 20
-4.1045457302
 30
0.0
 40
3.5
  1
ø
 50
90.0
  7
SEACAD_Solid_Edge_ISO
 11
-32.2507009655
 21
-4.1045457302
 31
0.0
100
AcDbText
 73
     3
  0
ENDBLK
  5
171
330
168
100
AcDbEntity
  8
0
100
AcDbBlockEnd
  0
BLOCK
  5
17A
330
173
100
AcDbEntity
  8
0
100
AcDbBlockBegin
  2
DMBLK40
 70
     0
 10
0.0
 20
0.0
 30
0.0
  3
DMBLK40
  1

  0
HATCH
  5
174
330
173
100
AcDbEntity
  8
SK2
  6
Continuous
 62
   136
100
AcDbHatch
 10
0.0
 20
0.0
 30
0.0
210
0.0
220
0.0
230
1.0
  2
SOLID
 70
     1
 71
     0
 91
        1
 92
        1
 93
        3
 72
     1
 10
-18.83999989195167
 20
19.30391237187057
 11
-22.33999999998509
 21
18.72057902053166
 72
     1
 10
-22.33999999998509
 20
18.72057902053166
 11
-18.83999989195167
 21
18.13724566919276
 72
     1
 10
-18.83999989195167
 20
18.13724566919276
 11
-18.83999989195167
 21
19.30391237187057
 97
        0
 75
     0
 76
     1
 98
        0
  0
HATCH
  5
175
330
173
100
AcDbEntity
  8
SK2
  6
Continuous
 62
   136
100
AcDbHatch
 10
0.0
 20
0.0
 30
0.0
210
0.0
220
0.0
230
1.0
  2
SOLID
 70
     1
 71
     0
 91
        1
 92
        1
 93
        3
 72
     1
 10
8.160001739725478
 20
19.30391237187057
 11
8.160001739725478
 21
18.13724566919276
 72
     1
 10
8.160001739725478
 20
18.13724566919276
 11
11.6600018477589
 21
18.72057902053166
 72
     1
 10
11.6600018477589
 20
18.72057902053166
 11
8.160001739725478
 21
19.30391237187057
 97
        0
 75
     0
 76
     1
 98
        0
  0
LINE
  5
176
330
173
100
AcDbEntity
  8
SK2
  6
Continuous
 62
   136
100
AcDbLine
 10
-22.34
 20
9.0904102324
 30
0.0
 11
-22.34
 21
20.4705790745
 31
0.0
  0
LINE
  5
177
330
173
100
AcDbEntity
  8
SK2
  6
Continuous
 62
   136
100
AcDbLine
 10
11.66
 20
9.1882745341
 30
0.0
 11
11.66
 21
20.4705790745
 31
0.0
  0
LINE
  5
178
330
173
100
AcDbEntity
  8
SK2
  6
Continuous
 62
   136
100
AcDbLine
 10
-22.34
 20
18.7205790205
 30
0.0
 11
11.6600018478
 21
18.7205790205
 31
0.0
  0
TEXT
  5
179
330
173
100
AcDbEntity
  8
SK2
  6
Continuous
 62
   136
100
AcDbText
 10
-7.2888627125
 20
19.5955790205
 30
0.0
 40
3.5
  1
34
  7
SEACAD_Solid_Edge_ISO
 11
-7.2888627125
 21
23.0955790205
 31
0.0
100
AcDbText
 73
     3
  0
ENDBLK
  5
17B
330
173
100
AcDbEntity
  8
0
100
AcDbBlockEnd
  0
ENDSEC
  0
SECTION
  2
ENTITIES
  0
INSERT
  5
4B
330
1F
100
AcDbEntity
  8
SK2
 62
     7
100
AcDbBlockReference
  2
Nullpunkt
 10
0.0
 20
0.0000000998
 30
0.0
  0
INSERT
  5
56
330
1F
100
AcDbEntity
  8
SK2
 62
     7
100
AcDbBlockReference
  2
Einfügepunkt
 10
11.66
 20
0.0000000998
 30
0.0
  0
LINE
  5
57
330
1F
100
AcDbEntity
  8
SK1
  6
Continuous
100
AcDbLine
 10
-22.0817519303
 20
-6.35531225
 30
0.0
 11
-22.0817519303
 21
-0.3999999002
 31
0.0
  0
LINE
  5
58
330
1F
100
AcDbEntity
  8
SK1
  6
Continuous
100
AcDbLine
 10
-22.34
 20
-6.1450478363
 30
0.0
 11
-22.34
 21
-0.3999999002
 31
0.0
  0
SPLINE
  5
5B
330
1F
100
AcDbEntity
  8
SK3
100
AcDbSpline
210
0.0
220
0.0
230
1.0
 70
     8
 71
     3
 72
    10
 73
     6
 74
     0
 42
0.000000036080914
 43
0.0000000001
 12
1.0
 22
0.0
 32
0.0
 13
1.0
 23
0.0
 33
0.0
 40
0.0
 40
0.0
 40
0.0
 40
0.0
 40
0.5
 40
0.5
 40
1.0
 40
1.0
 40
1.0
 40
1.0
 10
-22.33999999998728
 20
-5.36614862355928
 30
0.0
 10
-22.33999999998501
 20
-5.329241246621645
 30
0.0
 10
-22.31882263053807
 20
-5.292521296439073
 30
0.0
 10
-22.24424009728404
 20
-5.239616325596089
 30
0.0
 10
-22.19286506942744
 20
-5.224502252945696
 30
0.0
 10
-22.1399999999851
 20
-5.224502252946259
 30
0.0
  0
SPLINE
  5
5C
330
1F
100
AcDbEntity
  8
SK3
100
AcDbSpline
210
0.0
220
0.0
230
1.0
 70
     8
 71
     3
 72
    10
 73
     6
 74
     0
 42
0.000000036080914
 43
0.0000000001
 12
1.0
 22
0.0
 32
0.0
 13
1.0
 23
0.0
 33
0.0
 40
0.0
 40
0.0
 40
0.0
 40
0.0
 40
0.5
 40
0.5
 40
1.0
 40
1.0
 40
1.0
 40
1.0
 10
-22.33999999998728
 20
-4.800463198610042
 30
0.0
 10
-22.33999999998501
 20
-4.763555821672408
 30
0.0
 10
-22.31882263053807
 20
-4.726835871489836
 30
0.0
 10
-22.24424009728404
 20
-4.673930900646853
 30
0.0
 10
-22.19286506942744
 20
-4.658816827996454
 30
0.0
 10
-22.1399999999851
 20
-4.658816827997021
 30
0.0
  0
LINE
  5
5D
330
1F
100
AcDbEntity
  8
SK1
  6
Continuous
100
AcDbLine
 10
3.56
 20
-8.9051928864
 30
0.0
 11
3.56
 21
-5.3420808014
 31
0.0
  0
LINE
  5
5E
330
1F
100
AcDbEntity
  8
SK1
  6
Continuous
100
AcDbLine
 10
3.76
 20
-7.4901874849
 30
0.0
 11
3.76
 21
-4.5762853964
 31
0.0
  0
SPLINE
  5
5F
330
1F
100
AcDbEntity
  8
SK1
  6
Continuous
100
AcDbSpline
210
0.0
220
0.0
230
1.0
 70
     8
 71
     3
 72
    10
 73
     6
 74
     0
 42
0.0000000360933571
 43
0.0000000001
 12
1.0
 22
0.0
 32
0.0
 13
1.0
 23
0.0
 33
0.0
 40
0.0
 40
0.0
 40
0.0
 40
0.0
 40
0.5
 40
0.5
 40
1.0
 40
1.0
 40
1.0
 40
1.0
 10
3.56000000001588
 20
-7.631700762718433
 30
0.0
 10
3.560000000015875
 20
-7.594812493763205
 30
0.0
 10
3.581200329557863
 20
-7.558112712548199
 30
0.0
 10
3.655802726166458
 20
-7.50526869472217
 30
0.0
 10
3.707160895674999
 20
-7.49018748487763
 30
0.0
 10
3.760000000015879
 20
-7.490187484878193
 30
0.0
  0
LINE
  5
60
330
1F
100
AcDbEntity
  8
SK1
  6
Continuous
100
AcDbLine
 10
3.76
 20
-7.4901874849
 30
0.0
 11
5.76
 21
-7.4901874849
 31
0.0
  0
SPLINE
  5
61
330
1F
100
AcDbEntity
  8
SK1
  6
Continuous
100
AcDbSpline
210
0.0
220
0.0
230
1.0
 70
     8
 71
     3
 72
    10
 73
     6
 74
     0
 42
0.0000000269127736
 43
0.0000000001
 12
1.0
 22
0.0
 32
0.0
 13
1.0
 23
0.0
 33
0.0
 40
0.0
 40
0.0
 40
0.0
 40
0.0
 40
0.5
 40
0.5
 40
1.0
 40
1.0
 40
1.0
 40
1.0
 10
-22.33999999998509
 20
-6.145047836301367
 30
0.0
 10
-22.33999999998509
 20
-6.195588155056114
 30
0.0
 10
-22.31326416131739
 20
-6.246147457750475
 30
0.0
 10
-22.21985596456634
 20
-6.322314252093183
 30
0.0
 10
-22.1532830087438
 20
-6.348197229179415
 30
0.0
 10
-22.08175193027214
 20
-6.355312250011384
 30
0.0
  0
SPLINE
  5
62
330
1F
100
AcDbEntity
  8
SK1
  6
Continuous
100
AcDbSpline
210
0.0
220
0.0
230
1.0
 70
     8
 71
     3
 72
    11
 73
     7
 74
     0
 42
0.0000000003880749
 43
0.0000000001
 12
1.0
 22
0.0
 32
0.0
 13
1.0
 23
0.0
 33
0.0
 40
0.0
 40
0.0
 40
0.0
 40
0.0
 40
0.6370734200373079
 40
0.6370734200373079
 40
0.6370734200373079
 40
1.0
 40
1.0
 40
1.0
 40
1.0
 10
-22.08175193027214
 20
-6.355312250011384
 30
0.0
 10
-16.63655230216112
 20
-6.896932894176592
 30
0.0
 10
-11.19133014602414
 20
-7.438440297371076
 30
0.0
 10
-5.746096572297354
 20
-7.979890277475851
 30
0.0
 10
-2.644067926658722
 20
-8.288342307260123
 30
0.0
 10
0.4579646213012708
 20
-8.596774715004884
 30
0.0
 10
3.560000000015887
 20
-8.905192886422816
 30
0.0
  0
SPLINE
  5
63
330
1F
100
AcDbEntity
  8
SK1
  6
Continuous
100
AcDbSpline
210
0.0
220
0.0
230
1.0
 70
     8
 71
     3
 72
    10
 73
     6
 74
     0
 42
0.0000000360933571
 43
0.0000000001
 12
1.0
 22
0.0
 32
0.0
 13
1.0
 23
0.0
 33
0.0
 40
0.0
 40
0.0
 40
0.0
 40
0.0
 40
0.5
 40
0.5
 40
1.0
 40
1.0
 40
1.0
 40
1.0
 10
3.56000000001588
 20
-8.197386187667671
 30
0.0
 10
3.560000000015875
 20
-8.160497918712444
 30
0.0
 10
3.581200329557863
 20
-8.123798137497436
 30
0.0
 10
3.655802726166458
 20
-8.070954119671406
 30
0.0
 10
3.707160895674999
 20
-8.055872909826865
 30
0.0
 10
3.760000000015879
 20
-8.05587290982743
 30
0.0
  0
LINE
  5
64
330
1F
100
AcDbEntity
  8
SK1
  6
Continuous
100
AcDbLine
 10
3.76
 20
-8.0558729098
 30
0.0
 11
5.76
 21
-8.0558729098
 31
0.0
  0
LINE
  5
65
330
1F
100
AcDbEntity
  8
SK1
  6
Continuous
100
AcDbLine
 10
-22.34
 20
-6.1450478363
 30
0.0
 11
-22.34
 21
-6.7107332613
 31
0.0
  0
SPLINE
  5
66
330
1F
100
AcDbEntity
  8
SK1
  6
Continuous
100
AcDbSpline
210
0.0
220
0.0
230
1.0
 70
     8
 71
     3
 72
    10
 73
     6
 74
     0
 42
0.0000000269127736
 43
0.0000000001
 12
1.0
 22
0.0
 32
0.0
 13
1.0
 23
0.0
 33
0.0
 40
0.0
 40
0.0
 40
0.0
 40
0.0
 40
0.5000000000000004
 40
0.5000000000000004
 40
1.0
 40
1.0
 40
1.0
 40
1.0
 10
-22.33999999998509
 20
-6.710733261250605
 30
0.0
 10
-22.3399999999851
 20
-6.761273580005354
 30
0.0
 10
-22.3132641613174
 20
-6.811832882699711
 30
0.0
 10
-22.21985596456636
 20
-6.887999677042421
 30
0.0
 10
-22.1532830087438
 20
-6.913882654128652
 30
0.0
 10
-22.08175193027214
 20
-6.920997674960621
 30
0.0
  0
SPLINE
  5
67
330
1F
100
AcDbEntity
  8
SK1
  6
Continuous
100
AcDbSpline
210
0.0
220
0.0
230
1.0
 70
     8
 71
     3
 72
    11
 73
     7
 74
     0
 42
0.0000000003880749
 43
0.0000000001
 12
1.0
 22
0.0
 32
0.0
 13
1.0
 23
0.0
 33
0.0
 40
0.0
 40
0.0
 40
0.0
 40
0.0
 40
0.6370734200373079
 40
0.6370734200373079
 40
0.6370734200373079
 40
1.0
 40
1.0
 40
1.0
 40
1.0
 10
-22.08175193027214
 20
-6.920997674960621
 30
0.0
 10
-16.63655230216112
 20
-7.462618319125831
 30
0.0
 10
-11.19133014602414
 20
-8.004125722320312
 30
0.0
 10
-5.746096572297354
 20
-8.545575702425088
 30
0.0
 10
-2.644067926658722
 20
-8.85402773220936
 30
0.0
 10
0.4579646213012708
 20
-9.162460139954122
 30
0.0
 10
3.560000000015887
 20
-9.470878311372054
 30
0.0
  0
LINE
  5
68
330
1F
100
AcDbEntity
  8
SK1
  6
Continuous
100
AcDbLine
 10
3.56
 20
-9.4708783114
 30
0.0
 11
3.56
 21
-8.9051928864
 31
0.0
  0
SPLINE
  5
69
330
1F
100
AcDbEntity
  8
SK3
100
AcDbSpline
210
0.0
220
0.0
230
1.0
 70
     8
 71
     3
 72
    10
 73
     6
 74
     0
 42
0.0000000310145818
 43
0.0000000001
 12
1.0
 22
0.0
 32
0.0
 13
1.0
 23
0.0
 33
0.0
 40
0.0
 40
0.0
 40
0.0
 40
0.0
 40
0.5
 40
0.5
 40
1.0
 40
1.0
 40
1.0
 40
1.0
 10
-22.33999999998728
 20
-7.188880202473627
 30
0.0
 10
-22.33999999998501
 20
-7.136685289456806
 30
0.0
 10
-22.31882263053807
 20
-7.08475543789895
 30
0.0
 10
-22.24424009728404
 20
-7.00993651061585
 30
0.0
 10
-22.19286506942744
 20
-6.988561984090969
 30
0.0
 10
-22.1399999999851
 20
-6.988561984091765
 30
0.0
  0
LINE
  5
6A
330
1F
100
AcDbEntity
  8
SK1
  6
Continuous
100
AcDbLine
 10
-22.34
 20
-9.0904100329
 30
0.0
 11
-22.34
 21
-6.7107332613
 31
0.0
  0
LINE
  5
6B
330
1F
100
AcDbEntity
  8
SK1
  6
Continuous
100
AcDbLine
 10
-22.0817519303
 20
-9.3877688184
 30
0.0
 11
-22.0817519303
 21
-6.920997675
 31
0.0
  0
LINE
  5
6C
330
1F
100
AcDbEntity
  8
SK1
  6
Continuous
100
AcDbLine
 10
3.56
 20
-12.9938445969
 30
0.0
 11
3.56
 21
-12.157820437
 31
0.0
  0
LINE
  5
6D
330
1F
100
AcDbEntity
  8
SK1
  6
Continuous
100
AcDbLine
 10
3.76
 20
-10.9927247672
 30
0.0
 11
3.76
 21
-10.3090267843
 31
0.0
  0
SPLINE
  5
6E
330
1F
100
AcDbEntity
  8
SK1
  6
Continuous
100
AcDbSpline
210
0.0
220
0.0
230
1.0
 70
     8
 71
     3
 72
    10
 73
     6
 74
     0
 42
0.0000000310291255
 43
0.0000000001
 12
1.0
 22
0.0
 32
0.0
 13
1.0
 23
0.0
 33
0.0
 40
0.0
 40
0.0
 40
0.0
 40
0.0
 40
0.5
 40
0.5
 40
1.0
 40
1.0
 40
1.0
 40
1.0
 10
3.56000000001588
 20
-11.19285476393588
 30
0.0
 10
3.560000000015877
 20
-11.14068687368693
 30
0.0
 10
3.581200329557865
 20
-11.08878554535654
 30
0.0
 10
3.655802726166458
 20
-11.01405281865668
 30
0.0
 10
3.707160895674999
 20
-10.99272476715754
 30
0.0
 10
3.760000000015879
 20
-10.99272476715834
 30
0.0
  0
LINE
  5
6F
330
1F
100
AcDbEntity
  8
SK1
  6
Continuous
100
AcDbLine
 10
3.76
 20
-10.9927247672
 30
0.0
 11
5.76
 21
-10.9927247672
 31
0.0
  0
SPLINE
  5
70
330
1F
100
AcDbEntity
  8
SK1
  6
Continuous
100
AcDbSpline
210
0.0
220
0.0
230
1.0
 70
     8
 71
     3
 72
    10
 73
     6
 74
     0
 42
0.0000000228000739
 43
0.0000000001
 12
1.0
 22
0.0
 32
0.0
 13
1.0
 23
0.0
 33
0.0
 40
0.0
 40
0.0
 40
0.0
 40
0.0
 40
0.4999999999999996
 40
0.4999999999999996
 40
1.0
 40
1.0
 40
1.0
 40
1.0
 10
-22.33999999998509
 20
-9.09041003285521
 30
0.0
 10
-22.3399999999851
 20
-9.161884837084838
 30
0.0
 10
-22.3132641613174
 20
-9.233386488659324
 30
0.0
 10
-22.21985596456634
 20
-9.341102602221264
 30
0.0
 10
-22.1532830087438
 20
-9.377706659451205
 30
0.0
 10
-22.08175193027214
 20
-9.387768818408341
 30
0.0
  0
SPLINE
  5
71
330
1F
100
AcDbEntity
  8
SK1
  6
Continuous
100
AcDbSpline
210
0.0
220
0.0
230
1.0
 70
     8
 71
     3
 72
    11
 73
     7
 74
     0
 42
0.0000000003861887
 43
0.0000000001
 12
1.0
 22
0.0
 32
0.0
 13
1.0
 23
0.0
 33
0.0
 40
0.0
 40
0.0
 40
0.0
 40
0.0
 40
0.6370734200373079
 40
0.6370734200373079
 40
0.6370734200373079
 40
1.0
 40
1.0
 40
1.0
 40
1.0
 10
-22.08175193027214
 20
-9.387768818408341
 30
0.0
 10
-16.63655230216112
 20
-10.15373607904804
 30
0.0
 10
-11.19133014602414
 20
-10.91954319277111
 30
0.0
 10
-5.746096572297354
 20
-11.68526909798193
 30
0.0
 10
-2.644067926658722
 20
-12.12148614184435
 30
0.0
 10
0.4579646213012708
 20
-12.55767543595238
 30
0.0
 10
3.560000000015887
 20
-12.99384459685393
 30
0.0
  0
ARC
  5
72
330
1F
100
AcDbEntity
  8
SK3
100
AcDbCircle
 10
11.4671963275
 20
6.8024882947
 30
0.0
 40
0.1929595893114745
100
AcDbArc
 50
267.8626880488
 51
357.6965424677
  0
ARC
  5
73
330
1F
100
AcDbEntity
  8
SK3
100
AcDbCircle
 10
11.4671963275
 20
6.4963415488
 30
0.0
 40
0.1929595893800991
100
AcDbArc
 50
267.8626880676
 51
357.6965424596
  0
LINE
  5
74
330
1F
100
AcDbEntity
  8
SK1
  6
Continuous
100
AcDbLine
 10
11.66
 20
9.49442128
 30
0.0
 11
11.66
 21
10.1189111865
 31
0.0
  0
LINE
  5
75
330
1F
100
AcDbEntity
  8
SK1
  6
Continuous
100
AcDbLine
 10
11.535
 20
9.6946002501
 30
0.0
 11
11.535
 21
10.3354175375
 31
0.0
  0
LINE
  5
76
330
1F
100
AcDbEntity
  8
SK1
  6
Continuous
100
AcDbLine
 10
7.0394228634
 20
12.9309402074
 30
0.0
 11
7.0394228634
 21
12.0939872299
 31
0.0
  0
LINE
  5
77
330
1F
100
AcDbEntity
  8
SK1
  6
Continuous
100
AcDbLine
 10
6.66
 20
11.8915037088
 30
0.0
 11
6.66
 21
12.7118803151
 31
0.0
  0
LINE
  5
78
330
1F
100
AcDbEntity
  8
SK1
  6
Continuous
100
AcDbLine
 10
3.56
 20
12.1578206366
 30
0.0
 11
3.56
 21
12.9938447964
 31
0.0
  0
LINE
  5
79
330
1F
100
AcDbEntity
  8
SK1
  6
Continuous
100
AcDbLine
 10
3.76
 20
10.3090269838
 30
0.0
 11
3.76
 21
10.9927249667
 31
0.0
  0
LINE
  5
7A
330
1F
100
AcDbEntity
  8
SK1
  6
Continuous
100
AcDbLine
 10
6.46
 20
10.3090269838
 30
0.0
 11
6.46
 21
11.0000000998
 31
0.0
  0
SPLINE
  5
7B
330
1F
100
AcDbEntity
  8
SK1
  6
Continuous
100
AcDbSpline
210
0.0
220
0.0
230
1.0
 70
     8
 71
     3
 72
    14
 73
    10
 74
     0
 42
0.0000000004407401
 43
0.0000000001
 12
1.0
 22
0.0
 32
0.0
 13
1.0
 23
0.0
 33
0.0
 40
0.0
 40
0.0
 40
0.0
 40
0.0
 40
0.1069044492561622
 40
0.1069044492561622
 40
0.1069044492561622
 40
0.8931670085189257
 40
0.8931670085189257
 40
0.8931670085189257
 40
1.0
 40
1.0
 40
1.0
 40
1.0
 10
3.560000000015887
 20
11.85167389066649
 30
0.0
 10
2.758214262145895
 20
11.74751846891247
 30
0.0
 10
1.956428715662855
 20
11.64336178961621
 30
0.0
 10
1.154643376339757
 20
11.53920374919085
 30
0.0
 10
-4.742340305815801
 20
10.7731405217537
 30
0.0
 10
-10.6393134476099
 20
10.00700802784666
 30
0.0
 10
-16.5362657968143
 20
9.240738956602392
 30
0.0
 10
-17.33751094424242
 20
9.136622569255028
 30
0.0
 10
-18.13875569285002
 20
9.032503562148879
 30
0.0
 10
-18.93999999998508
 20
8.92838165534841
 30
0.0
  0
ARC
  5
7C
330
1F
100
AcDbEntity
  8
SK1
  6
Continuous
100
AcDbCircle
 10
6.4672747422
 20
10.1956281444
 30
0.0
 40
0.1928851402141701
100
AcDbArc
 50
267.8385535437
 51
357.6669794629
  0
LINE
  5
7D
330
1F
100
AcDbEntity
  8
SK1
  6
Continuous
100
AcDbLine
 10
6.46
 20
10.0028802379
 30
0.0
 11
3.76
 21
10.0028802379
 31
0.0
  0
ARC
  5
7E
330
1F
100
AcDbEntity
  8
SK1
  6
Continuous
100
AcDbCircle
 10
3.7527222641
 20
10.195624906
 30
0.0
 40
0.192882017143507
100
AcDbArc
 50
182.3320955905
 51
272.1623714122
  0
LINE
  5
7F
330
1F
100
AcDbEntity
  8
SK1
  6
Continuous
100
AcDbLine
 10
6.66
 20
11.8915037088
 30
0.0
 11
7.0394228634
 21
12.0939872299
 31
0.0
  0
SPLINE
  5
80
330
1F
100
AcDbEntity
  8
SK1
  6
Continuous
100
AcDbSpline
210
0.0
220
0.0
230
1.0
 70
     8
 71
     3
 72
     8
 73
     4
 74
     0
 42
0.0000000019623969
 43
0.0000000001
 12
1.0
 22
0.0
 32
0.0
 13
1.0
 23
0.0
 33
0.0
 40
0.0
 40
0.0
 40
0.0
 40
0.0
 40
1.0
 40
1.0
 40
1.0
 40
1.0
 10
7.039422863421869
 20
12.09398722991439
 30
0.0
 10
8.537993684343697
 20
11.29426369850801
 30
0.0
 10
10.03653076653513
 20
10.49448615421801
 30
0.0
 10
11.53500000001597
 20
9.694600250109
 30
0.0
  0
ARC
  5
81
330
1F
100
AcDbEntity
  8
SK1
  6
Continuous
100
AcDbCircle
 10
11.431458759
 20
9.4908277702
 30
0.0
 40
0.22856949083252
100
AcDbArc
 50
0.9008263735
 51
63.0638832429
  0
LINE
  5
82
330
1F
100
AcDbEntity
  8
SK1
  6
Continuous
100
AcDbLine
 10
11.66
 20
9.49442128
 30
0.0
 11
11.66
 21
9.1882745341
 31
0.0
  0
LINE
  5
83
330
1F
100
AcDbEntity
  8
SK1
  6
Continuous
100
AcDbLine
 10
6.66
 20
11.5853569629
 30
0.0
 11
7.0394228634
 21
11.787840484
 31
0.0
  0
SPLINE
  5
84
330
1F
100
AcDbEntity
  8
SK1
  6
Continuous
100
AcDbSpline
210
0.0
220
0.0
230
1.0
 70
     8
 71
     3
 72
     8
 73
     4
 74
     0
 42
0.0000000019623969
 43
0.0000000001
 12
1.0
 22
0.0
 32
0.0
 13
1.0
 23
0.0
 33
0.0
 40
0.0
 40
0.0
 40
0.0
 40
0.0
 40
1.0
 40
1.0
 40
1.0
 40
1.0
 10
7.039422863421869
 20
11.78784048402231
 30
0.0
 10
8.537993684343697
 20
10.98811695261594
 30
0.0
 10
10.03653076653513
 20
10.18833940832594
 30
0.0
 10
11.53500000001597
 20
9.388453504216928
 30
0.0
  0
ARC
  5
85
330
1F
100
AcDbEntity
  8
SK1
  6
Continuous
100
AcDbCircle
 10
11.431458759
 20
9.1846810243
 30
0.0
 40
0.2285694908325218
100
AcDbArc
 50
0.9008263735
 51
63.0638832429
  0
LINE
  5
86
330
1F
100
AcDbEntity
  8
SK1
  6
Continuous
100
AcDbLine
 10
3.56
 20
11.8516738907
 30
0.0
 11
3.56
 21
12.1578206366
 31
0.0
  0
SPLINE
  5
87
330
1F
100
AcDbEntity
  8
SK1
  6
Continuous
100
AcDbSpline
210
0.0
220
0.0
230
1.0
 70
     8
 71
     3
 72
    14
 73
    10
 74
     0
 42
0.0000000004407401
 43
0.0000000001
 12
1.0
 22
0.0
 32
0.0
 13
1.0
 23
0.0
 33
0.0
 40
0.0
 40
0.0
 40
0.0
 40
0.0
 40
0.1069044492561621
 40
0.1069044492561621
 40
0.1069044492561621
 40
0.8931670085189254
 40
0.8931670085189254
 40
0.8931670085189254
 40
1.0
 40
1.0
 40
1.0
 40
1.0
 10
3.560000000015887
 20
12.15782063655856
 30
0.0
 10
2.758214262145895
 20
12.05366521480454
 30
0.0
 10
1.956428715662855
 20
11.94950853550828
 30
0.0
 10
1.154643376339757
 20
11.84535049508292
 30
0.0
 10
-4.742340305815801
 20
11.07928726764577
 30
0.0
 10
-10.6393134476099
 20
10.31315477373873
 30
0.0
 10
-16.5362657968143
 20
9.546885702494464
 30
0.0
 10
-17.33751094424242
 20
9.4427693151471
 30
0.0
 10
-18.13875569285002
 20
9.338650308040949
 30
0.0
 10
-18.93999999998508
 20
9.23452840124048
 30
0.0
  0
LINE
  5
88
330
1F
100
AcDbEntity
  8
SK1
  6
Continuous
100
AcDbLine
 10
6.66
 20
11.8915037088
 30
0.0
 11
6.66
 21
11.5853569629
 31
0.0
  0
ARC
  5
89
330
1F
100
AcDbEntity
  8
SK1
  6
Continuous
100
AcDbCircle
 10
6.4672747422
 20
10.5017748903
 30
0.0
 40
0.192885140214171
100
AcDbArc
 50
267.8385535437
 51
357.6669794629
  0
LINE
  5
8A
330
1F
100
AcDbEntity
  8
SK1
  6
Continuous
100
AcDbLine
 10
6.46
 20
10.3090269838
 30
0.0
 11
3.76
 21
10.3090269838
 31
0.0
  0
ARC
  5
8B
330
1F
100
AcDbEntity
  8
SK1
  6
Continuous
100
AcDbCircle
 10
3.7527222641
 20
10.5017716519
 30
0.0
 40
0.1928820171435074
100
AcDbArc
 50
182.3320955905
 51
272.1623714122
  0
SPLINE
  5
8C
330
1F
100
AcDbEntity
  8
SK3
100
AcDbSpline
210
0.0
220
0.0
230
1.0
 70
     8
 71
     3
 72
    10
 73
     6
 74
     0
 42
0.0000000427730046
 43
0.0000000001
 12
1.0
 22
0.0
 32
0.0
 13
1.0
 23
0.0
 33
0.0
 40
0.0
 40
0.0
 40
0.0
 40
0.0
 40
0.5
 40
0.5
 40
1.0
 40
1.0
 40
1.0
 40
1.0
 10
11.66000000001805
 20
3.120617301699854
 30
0.0
 10
11.66000000001578
 20
3.100643173234579
 30
0.0
 10
11.63882263056883
 20
3.08077047939821
 30
0.0
 10
11.56424009731482
 20
3.052138515499638
 30
0.0
 10
11.51286506945822
 20
3.043958838323917
 30
0.0
 10
11.46000000001587
 20
3.043958838324223
 30
0.0
  0
SPLINE
  5
8D
330
1F
100
AcDbEntity
  8
SK3
100
AcDbSpline
210
0.0
220
0.0
230
1.0
 70
     8
 71
     3
 72
    10
 73
     6
 74
     0
 42
0.0000000427730046
 43
0.0000000001
 12
1.0
 22
0.0
 32
0.0
 13
1.0
 23
0.0
 33
0.0
 40
0.0
 40
0.0
 40
0.0
 40
0.0
 40
0.5
 40
0.5
 40
1.0
 40
1.0
 40
1.0
 40
1.0
 10
11.66000000001805
 20
2.381513675690825
 30
0.0
 10
11.66000000001578
 20
2.361539547225551
 30
0.0
 10
11.63882263056883
 20
2.341666853389181
 30
0.0
 10
11.56424009731482
 20
2.31303488949061
 30
0.0
 10
11.51286506945822
 20
2.304855212314888
 30
0.0
 10
11.46000000001587
 20
2.304855212315193
 30
0.0
  0
LINE
  5
8E
330
1F
100
AcDbEntity
  8
SK1
  6
Continuous
100
AcDbLine
 10
11.66
 20
4.2388648654
 30
0.0
 11
11.66
 21
9.1882745341
 31
0.0
  0
LINE
  5
8F
330
1F
100
AcDbEntity
  8
SK1
  6
Continuous
100
AcDbLine
 10
11.535
 20
4.3217817097
 30
0.0
 11
11.535
 21
9.3884535042
 31
0.0
  0
LINE
  5
90
330
1F
100
AcDbEntity
  8
SK1
  6
Continuous
100
AcDbLine
 10
7.0394228634
 20
5.3156403381
 30
0.0
 11
7.0394228634
 21
11.787840484
 31
0.0
  0
LINE
  5
91
330
1F
100
AcDbEntity
  8
SK1
  6
Continuous
100
AcDbLine
 10
6.66
 20
5.2317689175
 30
0.0
 11
6.66
 21
11.5853569629
 31
0.0
  0
LINE
  5
92
330
1F
100
AcDbEntity
  8
SK1
  6
Continuous
100
AcDbLine
 10
3.56
 20
5.3420810009
 30
0.0
 11
3.56
 21
8.905193086
 31
0.0
  0
LINE
  5
93
330
1F
100
AcDbEntity
  8
SK1
  6
Continuous
100
AcDbLine
 10
3.76
 20
4.5762855959
 30
0.0
 11
3.76
 21
7.4901876844
 31
0.0
  0
LINE
  5
94
330
1F
100
AcDbEntity
  8
SK1
  6
Continuous
100
AcDbLine
 10
6.46
 20
4.5762855959
 30
0.0
 11
6.46
 21
10.0028802379
 31
0.0
  0
LINE
  5
95
330
1F
100
AcDbEntity
  8
SK1
  6
Continuous
100
AcDbLine
 10
3.56
 20
4.6029773749
 30
0.0
 11
-18.94
 21
3.3921100842
 31
0.0
  0
SPLINE
  5
96
330
1F
100
AcDbEntity
  8
SK1
  6
Continuous
100
AcDbSpline
210
0.0
220
0.0
230
1.0
 70
     8
 71
     3
 72
    10
 73
     6
 74
     0
 42
0.0000000427802756
 43
0.0000000001
 12
1.0
 22
0.0
 32
0.0
 13
1.0
 23
0.0
 33
0.0
 40
0.0
 40
0.0
 40
0.0
 40
0.0
 40
0.5
 40
0.5
 40
1.0
 40
1.0
 40
1.0
 40
1.0
 10
6.660000000015879
 20
3.913768403973704
 30
0.0
 10
6.660000000015884
 20
3.89380461667399
 30
0.0
 10
6.638799670473892
 20
3.87394283820421
 30
0.0
 10
6.564197273865299
 20
3.845343861840706
 30
0.0
 10
6.512839104356758
 20
3.837181969887355
 30
0.0
 10
6.46000000001588
 20
3.837181969887661
 30
0.0
  0
LINE
  5
97
330
1F
100
AcDbEntity
  8
SK1
  6
Continuous
100
AcDbLine
 10
6.46
 20
3.8371819699
 30
0.0
 11
3.76
 21
3.8371819699
 31
0.0
  0
SPLINE
  5
98
330
1F
100
AcDbEntity
  8
SK1
  6
Continuous
100
AcDbSpline
210
0.0
220
0.0
230
1.0
 70
     8
 71
     3
 72
    10
 73
     6
 74
     0
 42
0.0000000427867299
 43
0.0000000001
 12
1.0
 22
0.0
 32
0.0
 13
1.0
 23
0.0
 33
0.0
 40
0.0
 40
0.0
 40
0.0
 40
0.0
 40
0.5
 40
0.5
 40
1.0
 40
1.0
 40
1.0
 40
1.0
 10
3.760000000015879
 20
3.83718196988766
 30
0.0
 10
3.707121383602572
 20
3.83718196988766
 30
0.0
 10
3.655400147062313
 20
3.845499183912824
 30
0.0
 10
3.58161282815216
 20
3.87378371360934
 30
0.0
 10
3.560000000015773
 20
3.893787361838575
 30
0.0
 10
3.560000000013547
 20
3.913768403973807
 30
0.0
  0
LINE
  5
99
330
1F
100
AcDbEntity
  8
SK1
  6
Continuous
100
AcDbLine
 10
6.66
 20
5.2317689175
 30
0.0
 11
7.0394228634
 21
5.3156403381
 31
0.0
  0
LINE
  5
9A
330
1F
100
AcDbEntity
  8
SK1
  6
Continuous
100
AcDbLine
 10
7.0394228634
 20
5.3156403381
 30
0.0
 11
11.535
 21
4.3217817097
 31
0.0
  0
SPLINE
  5
9B
330
1F
100
AcDbEntity
  8
SK1
  6
Continuous
100
AcDbSpline
210
0.0
220
0.0
230
1.0
 70
     8
 71
     3
 72
     8
 73
     4
 74
     0
 42
0.0000000587420087
 43
0.0000000001
 12
1.0
 22
0.0
 32
0.0
 13
1.0
 23
0.0
 33
0.0
 40
0.0
 40
0.0
 40
0.0
 40
0.0
 40
1.0
 40
1.0
 40
1.0
 40
1.0
 10
11.53500000001588
 20
4.321781709717066
 30
0.0
 10
11.61129855470492
 20
4.304911486108985
 30
0.0
 10
11.66000000001587
 20
4.272407249991129
 30
0.0
 10
11.66000000001588
 20
4.238864865390189
 30
0.0
  0
LINE
  5
9C
330
1F
100
AcDbEntity
  8
SK1
  6
Continuous
100
AcDbLine
 10
11.66
 20
4.2388648654
 30
0.0
 11
11.66
 21
3.4997612394
 31
0.0
  0
LINE
  5
9D
330
1F
100
AcDbEntity
  8
SK1
  6
Continuous
100
AcDbLine
 10
6.66
 20
4.4926652915
 30
0.0
 11
7.0394228634
 21
4.5765367121
 31
0.0
  0
LINE
  5
9E
330
1F
100
AcDbEntity
  8
SK1
  6
Continuous
100
AcDbLine
 10
7.0394228634
 20
4.5765367121
 30
0.0
 11
11.535
 21
3.5826780837
 31
0.0
  0
SPLINE
  5
9F
330
1F
100
AcDbEntity
  8
SK1
  6
Continuous
100
AcDbSpline
210
0.0
220
0.0
230
1.0
 70
     8
 71
     3
 72
     8
 73
     4
 74
     0
 42
0.0000000587420087
 43
0.0000000001
 12
1.0
 22
0.0
 32
0.0
 13
1.0
 23
0.0
 33
0.0
 40
0.0
 40
0.0
 40
0.0
 40
0.0
 40
1.0
 40
1.0
 40
1.0
 40
1.0
 10
11.53500000001588
 20
3.582678083708036
 30
0.0
 10
11.61129855470491
 20
3.565807860099957
 30
0.0
 10
11.66000000001587
 20
3.533303623982099
 30
0.0
 10
11.66000000001588
 20
3.49976123938116
 30
0.0
  0
LINE
  5
A0
330
1F
100
AcDbEntity
  8
SK1
  6
Continuous
100
AcDbLine
 10
3.56
 20
4.65287203
 30
0.0
 11
3.56
 21
5.3420810009
 31
0.0
  0
LINE
  5
A1
330
1F
100
AcDbEntity
  8
SK1
  6
Continuous
100
AcDbLine
 10
3.56
 20
5.3420810009
 30
0.0
 11
-18.94
 21
4.1312137102
 31
0.0
  0
LINE
  5
A2
330
1F
100
AcDbEntity
  8
SK1
  6
Continuous
100
AcDbLine
 10
6.66
 20
5.2317689175
 30
0.0
 11
6.66
 21
4.65287203
 31
0.0
  0
SPLINE
  5
A3
330
1F
100
AcDbEntity
  8
SK1
  6
Continuous
100
AcDbSpline
210
0.0
220
0.0
230
1.0
 70
     8
 71
     3
 72
    10
 73
     6
 74
     0
 42
0.0000000427802756
 43
0.0000000001
 12
1.0
 22
0.0
 32
0.0
 13
1.0
 23
0.0
 33
0.0
 40
0.0
 40
0.0
 40
0.0
 40
0.0
 40
0.5
 40
0.5
 40
1.0
 40
1.0
 40
1.0
 40
1.0
 10
6.660000000015879
 20
4.652872029982732
 30
0.0
 10
6.660000000015886
 20
4.632908242683017
 30
0.0
 10
6.638799670473892
 20
4.613046464213238
 30
0.0
 10
6.564197273865303
 20
4.584447487849737
 30
0.0
 10
6.512839104356758
 20
4.576285595896383
 30
0.0
 10
6.46000000001588
 20
4.57628559589669
 30
0.0
  0
LINE
  5
A4
330
1F
100
AcDbEntity
  8
SK1
  6
Continuous
100
AcDbLine
 10
6.46
 20
4.5762855959
 30
0.0
 11
3.76
 21
4.5762855959
 31
0.0
  0
SPLINE
  5
A5
330
1F
100
AcDbEntity
  8
SK1
  6
Continuous
100
AcDbSpline
210
0.0
220
0.0
230
1.0
 70
     8
 71
     3
 72
    10
 73
     6
 74
     0
 42
0.0000000427867299
 43
0.0000000001
 12
1.0
 22
0.0
 32
0.0
 13
1.0
 23
0.0
 33
0.0
 40
0.0
 40
0.0
 40
0.0
 40
0.0
 40
0.5
 40
0.5
 40
1.0
 40
1.0
 40
1.0
 40
1.0
 10
3.760000000015879
 20
4.57628559589669
 30
0.0
 10
3.70712138360257
 20
4.576285595896692
 30
0.0
 10
3.655400147062315
 20
4.584602809921852
 30
0.0
 10
3.581612828152158
 20
4.612887339618365
 30
0.0
 10
3.560000000015773
 20
4.632890987847606
 30
0.0
 10
3.560000000013547
 20
4.652872029982835
 30
0.0
  0
SPLINE
  5
A6
330
1F
100
AcDbEntity
  8
SK3
100
AcDbSpline
210
0.0
220
0.0
230
1.0
 70
     8
 71
     3
 72
    10
 73
     6
 74
     0
 42
0.0000000427807243
 43
0.0000000001
 12
1.0
 22
0.0
 32
0.0
 13
1.0
 23
0.0
 33
0.0
 40
0.0
 40
0.0
 40
0.0
 40
0.0
 40
0.5
 40
0.5
 40
1.0
 40
1.0
 40
1.0
 40
1.0
 10
11.66000000001594
 20
-2.381513476149526
 30
0.0
 10
11.66000000001587
 20
-2.361492415146178
 30
0.0
 10
11.63818141524497
 20
-2.341382041533666
 30
0.0
 10
11.56449532815131
 20
-2.31317132630701
 30
0.0
 10
11.51236362335626
 20
-2.3048550127738
 30
0.0
 10
11.46000000001587
 20
-2.304855012773801
 30
0.0
  0
SPLINE
  5
A7
330
1F
100
AcDbEntity
  8
SK3
100
AcDbSpline
210
0.0
220
0.0
230
1.0
 70
     8
 71
     3
 72
    10
 73
     6
 74
     0
 42
0.0000000427807243
 43
0.0000000001
 12
1.0
 22
0.0
 32
0.0
 13
1.0
 23
0.0
 33
0.0
 40
0.0
 40
0.0
 40
0.0
 40
0.0
 40
0.5
 40
0.5
 40
1.0
 40
1.0
 40
1.0
 40
1.0
 10
11.66000000001594
 20
-3.120617102158556
 30
0.0
 10
11.66000000001587
 20
-3.100596041155207
 30
0.0
 10
11.63818141524497
 20
-3.080485667542695
 30
0.0
 10
11.56449532815131
 20
-3.05227495231604
 30
0.0
 10
11.51236362335626
 20
-3.04395863878283
 30
0.0
 10
11.46000000001587
 20
-3.043958638782823
 30
0.0
  0
LINE
  5
A8
330
1F
100
AcDbEntity
  8
SK1
  6
Continuous
100
AcDbLine
 10
11.66
 20
-3.4997610398
 30
0.0
 11
11.66
 21
3.4997612394
 31
0.0
  0
LINE
  5
A9
330
1F
100
AcDbEntity
  8
SK1
  6
Continuous
100
AcDbLine
 10
11.535
 20
-3.5826778842
 30
0.0
 11
11.535
 21
3.5826780837
 31
0.0
  0
LINE
  5
AA
330
1F
100
AcDbEntity
  8
SK1
  6
Continuous
100
AcDbLine
 10
7.0394228634
 20
-4.5765365126
 30
0.0
 11
7.0394228634
 21
4.5765367121
 31
0.0
  0
LINE
  5
AB
330
1F
100
AcDbEntity
  8
SK1
  6
Continuous
100
AcDbLine
 10
6.66
 20
-4.492665092
 30
0.0
 11
6.66
 21
4.4926652915
 31
0.0
  0
LINE
  5
AC
330
1F
100
AcDbEntity
  8
SK1
  6
Continuous
100
AcDbLine
 10
3.56
 20
-4.6029771753
 30
0.0
 11
3.56
 21
-0.3999999002
 31
0.0
  0
LINE
  5
AD
330
1F
100
AcDbEntity
  8
SK1
  6
Continuous
100
AcDbLine
 10
3.76
 20
-3.8371817703
 30
0.0
 11
3.76
 21
-0.3999999002
 31
0.0
  0
LINE
  5
AE
330
1F
100
AcDbEntity
  8
SK1
  6
Continuous
100
AcDbLine
 10
6.46
 20
-3.8371817703
 30
0.0
 11
6.46
 21
3.8371819699
 31
0.0
  0
LINE
  5
AF
330
1F
100
AcDbEntity
  8
SK1
  6
Continuous
100
AcDbLine
 10
3.56
 20
-4.6528718304
 30
0.0
 11
3.56
 21
-5.3420808014
 31
0.0
  0
LINE
  5
B0
330
1F
100
AcDbEntity
  8
SK1
  6
Continuous
100
AcDbLine
 10
3.56
 20
-5.3420808014
 30
0.0
 11
-18.94
 21
-4.1312135107
 31
0.0
  0
LINE
  5
B1
330
1F
100
AcDbEntity
  8
SK1
  6
Continuous
100
AcDbLine
 10
6.66
 20
-5.231768718
 30
0.0
 11
6.66
 21
-4.6528718304
 31
0.0
  0
SPLINE
  5
B2
330
1F
100
AcDbEntity
  8
SK1
  6
Continuous
100
AcDbSpline
210
0.0
220
0.0
230
1.0
 70
     8
 71
     3
 72
    10
 73
     6
 74
     0
 42
0.000000042790812
 43
0.0000000001
 12
1.0
 22
0.0
 32
0.0
 13
1.0
 23
0.0
 33
0.0
 40
0.0
 40
0.0
 40
0.0
 40
0.0
 40
0.5
 40
0.5
 40
1.0
 40
1.0
 40
1.0
 40
1.0
 10
6.660000000015879
 20
-4.652871830441339
 30
0.0
 10
6.660000000015883
 20
-4.632921333738035
 30
0.0
 10
6.638212026193096
 20
-4.612780317750295
 30
0.0
 10
6.564376700692046
 20
-4.584556969914853
 30
0.0
 10
6.512157774197558
 20
-4.576285396355243
 30
0.0
 10
6.460000000015519
 20
-4.576285396354134
 30
0.0
  0
LINE
  5
B3
330
1F
100
AcDbEntity
  8
SK1
  6
Continuous
100
AcDbLine
 10
6.46
 20
-4.5762853964
 30
0.0
 11
3.76
 21
-4.5762853964
 31
0.0
  0
SPLINE
  5
B4
330
1F
100
AcDbEntity
  8
SK1
  6
Continuous
100
AcDbSpline
210
0.0
220
0.0
230
1.0
 70
     8
 71
     3
 72
    10
 73
     6
 74
     0
 42
0.0000000427788665
 43
0.0000000001
 12
1.0
 22
0.0
 32
0.0
 13
1.0
 23
0.0
 33
0.0
 40
0.0
 40
0.0
 40
0.0
 40
0.0
 40
0.5
 40
0.5
 40
1.0
 40
1.0
 40
1.0
 40
1.0
 10
3.760000000015879
 20
-4.576285396355296
 30
0.0
 10
3.707567236134461
 20
-4.576285396355297
 30
0.0
 10
3.6557640072614
 20
-4.584473625353306
 30
0.0
 10
3.581352937123092
 20
-4.612976285765807
 30
0.0
 10
3.56000000001588
 20
-4.632832002598101
 30
0.0
 10
3.560000000015872
 20
-4.65287183044134
 30
0.0
  0
LINE
  5
B5
330
1F
100
AcDbEntity
  8
SK1
  6
Continuous
100
AcDbLine
 10
6.66
 20
-4.492665092
 30
0.0
 11
7.0394228634
 21
-4.5765365126
 31
0.0
  0
SPLINE
  5
B6
330
1F
100
AcDbEntity
  8
SK1
  6
Continuous
100
AcDbSpline
210
0.0
220
0.0
230
1.0
 70
     8
 71
     3
 72
     8
 73
     4
 74
     0
 42
0.0000000021719653
 43
0.0000000001
 12
1.0
 22
0.0
 32
0.0
 13
1.0
 23
0.0
 33
0.0
 40
0.0
 40
0.0
 40
0.0
 40
0.0
 40
1.0
 40
1.0
 40
1.0
 40
1.0
 10
7.039422863421869
 20
-4.576536512583528
 30
0.0
 10
8.537993684343704
 20
-4.245280179726098
 30
0.0
 10
10.03653076653514
 20
-3.914001473999733
 30
0.0
 10
11.53500000001588
 20
-3.582677884166643
 30
0.0
  0
SPLINE
  5
B7
330
1F
100
AcDbEntity
  8
SK1
  6
Continuous
100
AcDbSpline
210
0.0
220
0.0
230
1.0
 70
     8
 71
     3
 72
    10
 73
     6
 74
     0
 42
0.0000000616132438
 43
0.0000000001
 12
1.0
 22
0.0
 32
0.0
 13
1.0
 23
0.0
 33
0.0
 40
0.0
 40
0.0
 40
0.0
 40
0.0
 40
0.5
 40
0.5
 40
1.0
 40
1.0
 40
1.0
 40
1.0
 10
11.53500000001588
 20
-3.582677884166643
 30
0.0
 10
11.57259151119537
 20
-3.574366098944128
 30
0.0
 10
11.60494850262802
 20
-3.561964037028617
 30
0.0
 10
11.6482944770458
 20
-3.533149909091419
 30
0.0
 10
11.66000000001587
 20
-3.516554091071259
 30
0.0
 10
11.66000000001588
 20
-3.499761039839765
 30
0.0
  0
LINE
  5
B8
330
1F
100
AcDbEntity
  8
SK1
  6
Continuous
100
AcDbLine
 10
6.66
 20
-5.231768718
 30
0.0
 11
7.0394228634
 21
-5.3156401386
 31
0.0
  0
SPLINE
  5
B9
330
1F
100
AcDbEntity
  8
SK1
  6
Continuous
100
AcDbSpline
210
0.0
220
0.0
230
1.0
 70
     8
 71
     3
 72
     8
 73
     4
 74
     0
 42
0.0000000021719653
 43
0.0000000001
 12
1.0
 22
0.0
 32
0.0
 13
1.0
 23
0.0
 33
0.0
 40
0.0
 40
0.0
 40
0.0
 40
0.0
 40
1.0
 40
1.0
 40
1.0
 40
1.0
 10
7.039422863421869
 20
-5.315640138592556
 30
0.0
 10
8.537993684343704
 20
-4.984383805735128
 30
0.0
 10
10.03653076653514
 20
-4.653105100008763
 30
0.0
 10
11.53500000001588
 20
-4.321781510175673
 30
0.0
  0
SPLINE
  5
BA
330
1F
100
AcDbEntity
  8
SK1
  6
Continuous
100
AcDbSpline
210
0.0
220
0.0
230
1.0
 70
     8
 71
     3
 72
    10
 73
     6
 74
     0
 42
0.0000000616132438
 43
0.0000000001
 12
1.0
 22
0.0
 32
0.0
 13
1.0
 23
0.0
 33
0.0
 40
0.0
 40
0.0
 40
0.0
 40
0.0
 40
0.5
 40
0.5
 40
1.0
 40
1.0
 40
1.0
 40
1.0
 10
11.53500000001588
 20
-4.321781510175673
 30
0.0
 10
11.57259151119537
 20
-4.313469724953157
 30
0.0
 10
11.60494850262802
 20
-4.301067663037646
 30
0.0
 10
11.6482944770458
 20
-4.272253535100448
 30
0.0
 10
11.66000000001587
 20
-4.255657717080288
 30
0.0
 10
11.66000000001588
 20
-4.238864665848794
 30
0.0
  0
LINE
  5
BB
330
1F
100
AcDbEntity
  8
SK1
  6
Continuous
100
AcDbLine
 10
11.66
 20
-4.2388646658
 30
0.0
 11
11.66
 21
-3.4997610398
 31
0.0
  0
LINE
  5
BC
330
1F
100
AcDbEntity
  8
SK1
  6
Continuous
100
AcDbLine
 10
3.56
 20
-4.6029771753
 30
0.0
 11
-18.94
 21
-3.3921098847
 31
0.0
  0
SPLINE
  5
BD
330
1F
100
AcDbEntity
  8
SK1
  6
Continuous
100
AcDbSpline
210
0.0
220
0.0
230
1.0
 70
     8
 71
     3
 72
    10
 73
     6
 74
     0
 42
0.000000042790812
 43
0.0000000001
 12
1.0
 22
0.0
 32
0.0
 13
1.0
 23
0.0
 33
0.0
 40
0.0
 40
0.0
 40
0.0
 40
0.0
 40
0.5
 40
0.5
 40
1.0
 40
1.0
 40
1.0
 40
1.0
 10
6.660000000015879
 20
-3.913768204432311
 30
0.0
 10
6.660000000015883
 20
-3.893817707729005
 30
0.0
 10
6.638212026193096
 20
-3.873676691741266
 30
0.0
 10
6.564376700692046
 20
-3.845453343905823
 30
0.0
 10
6.512157774197558
 20
-3.837181770346214
 30
0.0
 10
6.460000000015519
 20
-3.837181770345105
 30
0.0
  0
LINE
  5
BE
330
1F
100
AcDbEntity
  8
SK1
  6
Continuous
100
AcDbLine
 10
6.46
 20
-3.8371817703
 30
0.0
 11
3.76
 21
-3.8371817703
 31
0.0
  0
SPLINE
  5
BF
330
1F
100
AcDbEntity
  8
SK1
  6
Continuous
100
AcDbSpline
210
0.0
220
0.0
230
1.0
 70
     8
 71
     3
 72
    10
 73
     6
 74
     0
 42
0.0000000427788665
 43
0.0000000001
 12
1.0
 22
0.0
 32
0.0
 13
1.0
 23
0.0
 33
0.0
 40
0.0
 40
0.0
 40
0.0
 40
0.0
 40
0.5
 40
0.5
 40
1.0
 40
1.0
 40
1.0
 40
1.0
 10
3.760000000015879
 20
-3.837181770346266
 30
0.0
 10
3.707567236134461
 20
-3.837181770346269
 30
0.0
 10
3.6557640072614
 20
-3.845369999344276
 30
0.0
 10
3.581352937123092
 20
-3.873872659756778
 30
0.0
 10
3.56000000001588
 20
-3.893728376589072
 30
0.0
 10
3.560000000015872
 20
-3.91376820443231
 30
0.0
  0
ARC
  5
C0
330
1F
100
AcDbEntity
  8
SK3
100
AcDbCircle
 10
11.4671914281
 20
-6.4963466439
 30
0.0
 40
0.192964697694536
100
AcDbArc
 50
2.3049699201
 51
92.1357995641
  0
ARC
  5
C1
330
1F
100
AcDbEntity
  8
SK3
100
AcDbCircle
 10
11.4671914281
 20
-6.8024933898
 30
0.0
 40
0.1929646976945383
100
AcDbArc
 50
2.3049699201
 51
92.1357995641
  0
LINE
  5
C2
330
1F
100
AcDbEntity
  8
SK1
  6
Continuous
100
AcDbLine
 10
3.56
 20
-11.8516736911
 30
0.0
 11
3.56
 21
-9.4708783114
 31
0.0
  0
LINE
  5
C3
330
1F
100
AcDbEntity
  8
SK1
  6
Continuous
100
AcDbLine
 10
11.66
 20
-9.1882743346
 30
0.0
 11
11.66
 21
-4.2388646658
 31
0.0
  0
LINE
  5
C4
330
1F
100
AcDbEntity
  8
SK1
  6
Continuous
100
AcDbLine
 10
11.535
 20
-9.3884533047
 30
0.0
 11
11.535
 21
-4.3217815102
 31
0.0
  0
LINE
  5
C5
330
1F
100
AcDbEntity
  8
SK1
  6
Continuous
100
AcDbLine
 10
7.0394228634
 20
-11.7878402845
 30
0.0
 11
7.0394228634
 21
-5.3156401386
 31
0.0
  0
LINE
  5
C6
330
1F
100
AcDbEntity
  8
SK1
  6
Continuous
100
AcDbLine
 10
6.66
 20
-11.5853567634
 30
0.0
 11
6.66
 21
-5.231768718
 31
0.0
  0
LINE
  5
C7
330
1F
100
AcDbEntity
  8
SK1
  6
Continuous
100
AcDbLine
 10
6.46
 20
-10.0028800384
 30
0.0
 11
6.46
 21
-4.5762853964
 31
0.0
  0
LINE
  5
C8
330
1F
100
AcDbEntity
  8
SK1
  6
Continuous
100
AcDbLine
 10
3.76
 20
-10.0028800384
 30
0.0
 11
3.76
 21
-8.0558729098
 31
0.0
  0
LINE
  5
C9
330
1F
100
AcDbEntity
  8
SK1
  6
Continuous
100
AcDbLine
 10
3.56
 20
-11.8516736911
 30
0.0
 11
3.56
 21
-12.157820437
 31
0.0
  0
LINE
  5
CA
330
1F
100
AcDbEntity
  8
SK1
  6
Continuous
100
AcDbLine
 10
3.56
 20
-12.157820437
 30
0.0
 11
-18.94
 21
-9.2345282017
 31
0.0
  0
LINE
  5
CB
330
1F
100
AcDbEntity
  8
SK1
  6
Continuous
100
AcDbLine
 10
6.66
 20
-11.8915035093
 30
0.0
 11
6.66
 21
-11.5853567634
 31
0.0
  0
ARC
  5
CC
330
1F
100
AcDbEntity
  8
SK1
  6
Continuous
100
AcDbCircle
 10
6.4672716847
 20
-10.5017779979
 30
0.0
 40
0.1928883297862003
100
AcDbArc
 50
2.3339651308
 51
92.1605018627
  0
LINE
  5
CD
330
1F
100
AcDbEntity
  8
SK1
  6
Continuous
100
AcDbLine
 10
6.46
 20
-10.3090267843
 30
0.0
 11
3.76
 21
-10.3090267843
 31
0.0
  0
ARC
  5
CE
330
1F
100
AcDbEntity
  8
SK1
  6
Continuous
100
AcDbCircle
 10
3.7527286759
 20
-10.501778388
 30
0.0
 40
0.1928887059728849
100
AcDbArc
 50
87.8396095414
 51
177.6659234645
  0
LINE
  5
CF
330
1F
100
AcDbEntity
  8
SK1
  6
Continuous
100
AcDbLine
 10
6.66
 20
-11.5853567634
 30
0.0
 11
7.0394228634
 21
-11.7878402845
 31
0.0
  0
LINE
  5
D0
330
1F
100
AcDbEntity
  8
SK1
  6
Continuous
100
AcDbLine
 10
7.0394228634
 20
-11.7878402845
 30
0.0
 11
11.535
 21
-9.3884533047
 31
0.0
  0
ARC
  5
D1
330
1F
100
AcDbEntity
  8
SK1
  6
Continuous
100
AcDbCircle
 10
11.428609265
 20
-9.1829014832
 30
0.0
 40
0.231453104978979
100
AcDbArc
 50
297.3654490732
 51
358.6698413103
  0
LINE
  5
D2
330
1F
100
AcDbEntity
  8
SK1
  6
Continuous
100
AcDbLine
 10
6.66
 20
-11.8915035093
 30
0.0
 11
7.0394228634
 21
-12.0939870304
 31
0.0
  0
LINE
  5
D3
330
1F
100
AcDbEntity
  8
SK1
  6
Continuous
100
AcDbLine
 10
7.0394228634
 20
-12.0939870304
 30
0.0
 11
11.535
 21
-9.6946000506
 31
0.0
  0
ARC
  5
D4
330
1F
100
AcDbEntity
  8
SK1
  6
Continuous
100
AcDbCircle
 10
11.428609265
 20
-9.4890482291
 30
0.0
 40
0.2314531049789697
100
AcDbArc
 50
297.3654490732
 51
358.6698413103
  0
LINE
  5
D5
330
1F
100
AcDbEntity
  8
SK1
  6
Continuous
100
AcDbLine
 10
11.66
 20
-9.4944210804
 30
0.0
 11
11.66
 21
-9.1882743346
 31
0.0
  0
LINE
  5
D6
330
1F
100
AcDbEntity
  8
SK1
  6
Continuous
100
AcDbLine
 10
3.56
 20
-11.8516736911
 30
0.0
 11
-18.94
 21
-8.9283814558
 31
0.0
  0
ARC
  5
D7
330
1F
100
AcDbEntity
  8
SK1
  6
Continuous
100
AcDbCircle
 10
6.4672716847
 20
-10.195631252
 30
0.0
 40
0.1928883297862054
100
AcDbArc
 50
2.3339651308
 51
92.1605018627
  0
LINE
  5
D8
330
1F
100
AcDbEntity
  8
SK1
  6
Continuous
100
AcDbLine
 10
6.46
 20
-10.0028800384
 30
0.0
 11
3.76
 21
-10.0028800384
 31
0.0
  0
ARC
  5
D9
330
1F
100
AcDbEntity
  8
SK1
  6
Continuous
100
AcDbCircle
 10
3.7527286759
 20
-10.1956316421
 30
0.0
 40
0.1928887059728847
100
AcDbArc
 50
87.8396095414
 51
177.6659234645
  0
SPLINE
  5
DA
330
1F
100
AcDbEntity
  8
SK3
100
AcDbSpline
210
0.0
220
0.0
230
1.0
 70
     8
 71
     3
 72
    10
 73
     6
 74
     0
 42
0.0000000310145818
 43
0.0000000001
 12
1.0
 22
0.0
 32
0.0
 13
1.0
 23
0.0
 33
0.0
 40
0.0
 40
0.0
 40
0.0
 40
0.0
 40
0.5
 40
0.5
 40
1.0
 40
1.0
 40
1.0
 40
1.0
 10
-22.33999999998728
 20
7.188880402015025
 30
0.0
 10
-22.33999999998501
 20
7.136685488998205
 30
0.0
 10
-22.31882263053807
 20
7.084755637440349
 30
0.0
 10
-22.24424009728404
 20
7.009936710157248
 30
0.0
 10
-22.19286506942744
 20
6.988562183632365
 30
0.0
 10
-22.1399999999851
 20
6.988562183633165
 30
0.0
  0
SPLINE
  5
DB
330
1F
100
AcDbEntity
  8
SK1
  6
Continuous
100
AcDbSpline
210
0.0
220
0.0
230
1.0
 70
     8
 71
     3
 72
    10
 73
     6
 74
     0
 42
0.0000000310291255
 43
0.0000000001
 12
1.0
 22
0.0
 32
0.0
 13
1.0
 23
0.0
 33
0.0
 40
0.0
 40
0.0
 40
0.0
 40
0.0
 40
0.5
 40
0.5
 40
1.0
 40
1.0
 40
1.0
 40
1.0
 10
3.56000000001588
 20
11.19285496347728
 30
0.0
 10
3.560000000015875
 20
11.14068707322833
 30
0.0
 10
3.581200329557863
 20
11.08878574489794
 30
0.0
 10
3.655802726166458
 20
11.01405301819808
 30
0.0
 10
3.707160895674999
 20
10.99272496669894
 30
0.0
 10
3.760000000015879
 20
10.99272496669973
 30
0.0
  0
LINE
  5
DC
330
1F
100
AcDbEntity
  8
SK1
  6
Continuous
100
AcDbLine
 10
3.76
 20
10.9927249667
 30
0.0
 11
5.76
 21
10.9927249667
 31
0.0
  0
SPLINE
  5
DD
330
1F
100
AcDbEntity
  8
SK1
  6
Continuous
100
AcDbSpline
210
0.0
220
0.0
230
1.0
 70
     8
 71
     3
 72
    10
 73
     6
 74
     0
 42
0.0000000228000739
 43
0.0000000001
 12
1.0
 22
0.0
 32
0.0
 13
1.0
 23
0.0
 33
0.0
 40
0.0
 40
0.0
 40
0.0
 40
0.0
 40
0.5
 40
0.5
 40
1.0
 40
1.0
 40
1.0
 40
1.0
 10
-22.33999999998509
 20
9.09041023239661
 30
0.0
 10
-22.33999999998509
 20
9.161885036626233
 30
0.0
 10
-22.31326416131739
 20
9.233386688200723
 30
0.0
 10
-22.21985596456634
 20
9.341102801762663
 30
0.0
 10
-22.1532830087438
 20
9.377706858992603
 30
0.0
 10
-22.08175193027214
 20
9.38776901794974
 30
0.0
  0
SPLINE
  5
DE
330
1F
100
AcDbEntity
  8
SK1
  6
Continuous
100
AcDbSpline
210
0.0
220
0.0
230
1.0
 70
     8
 71
     3
 72
    11
 73
     7
 74
     0
 42
0.0000000003861887
 43
0.0000000001
 12
1.0
 22
0.0
 32
0.0
 13
1.0
 23
0.0
 33
0.0
 40
0.0
 40
0.0
 40
0.0
 40
0.0
 40
0.6370734200373079
 40
0.6370734200373079
 40
0.6370734200373079
 40
1.0
 40
1.0
 40
1.0
 40
1.0
 10
-22.08175193027214
 20
9.38776901794974
 30
0.0
 10
-16.63655230216112
 20
10.15373627858943
 30
0.0
 10
-11.19133014602414
 20
10.91954339231251
 30
0.0
 10
-5.746096572297354
 20
11.68526929752332
 30
0.0
 10
-2.644067926658722
 20
12.12148634138575
 30
0.0
 10
0.4579646213012708
 20
12.55767563549378
 30
0.0
 10
3.560000000015887
 20
12.99384479639533
 30
0.0
  0
LINE
  5
DF
330
1F
100
AcDbEntity
  8
SK1
  6
Continuous
100
AcDbLine
 10
11.66
 20
-10.118910987
 30
0.0
 11
11.66
 21
-9.4944210804
 31
0.0
  0
LINE
  5
E0
330
1F
100
AcDbEntity
  8
SK1
  6
Continuous
100
AcDbLine
 10
11.535
 20
-10.3354173379
 30
0.0
 11
11.535
 21
-9.6946000506
 31
0.0
  0
LINE
  5
E1
330
1F
100
AcDbEntity
  8
SK1
  6
Continuous
100
AcDbLine
 10
7.0394228634
 20
-12.9309400079
 30
0.0
 11
7.0394228634
 21
-12.0939870304
 31
0.0
  0
LINE
  5
E2
330
1F
100
AcDbEntity
  8
SK1
  6
Continuous
100
AcDbLine
 10
6.66
 20
-12.7118801156
 30
0.0
 11
6.66
 21
-11.8915035093
 31
0.0
  0
LINE
  5
E3
330
1F
100
AcDbEntity
  8
SK1
  6
Continuous
100
AcDbLine
 10
6.46
 20
-10.9999999002
 30
0.0
 11
6.46
 21
-10.3090267843
 31
0.0
  0
LINE
  5
E4
330
1F
100
AcDbEntity
  8
SK1
  6
Continuous
100
AcDbLine
 10
3.56
 20
9.4708785109
 30
0.0
 11
3.56
 21
11.8516738907
 31
0.0
  0
LINE
  5
E5
330
1F
100
AcDbEntity
  8
SK1
  6
Continuous
100
AcDbLine
 10
3.76
 20
8.0558731094
 30
0.0
 11
3.76
 21
10.0028802379
 31
0.0
  0
LINE
  5
E6
330
1F
100
AcDbEntity
  8
SK1
  6
Continuous
100
AcDbLine
 10
-22.34
 20
6.7107334608
 30
0.0
 11
-22.34
 21
9.0904102324
 31
0.0
  0
LINE
  5
E7
330
1F
100
AcDbEntity
  8
SK1
  6
Continuous
100
AcDbLine
 10
-22.0817519303
 20
6.9209978745
 30
0.0
 11
-22.0817519303
 21
9.3877690179
 31
0.0
  0
SPLINE
  5
E8
330
1F
100
AcDbEntity
  8
SK1
  6
Continuous
100
AcDbSpline
210
0.0
220
0.0
230
1.0
 70
     8
 71
     3
 72
    10
 73
     6
 74
     0
 42
0.0000000360933571
 43
0.0000000001
 12
1.0
 22
0.0
 32
0.0
 13
1.0
 23
0.0
 33
0.0
 40
0.0
 40
0.0
 40
0.0
 40
0.0
 40
0.5
 40
0.5
 40
1.0
 40
1.0
 40
1.0
 40
1.0
 10
3.56000000001588
 20
8.19738638720907
 30
0.0
 10
3.560000000015877
 20
8.16049811825384
 30
0.0
 10
3.581200329557865
 20
8.123798337038837
 30
0.0
 10
3.655802726166462
 20
8.070954319212804
 30
0.0
 10
3.707160895674999
 20
8.055873109368264
 30
0.0
 10
3.760000000015879
 20
8.055873109368829
 30
0.0
  0
LINE
  5
E9
330
1F
100
AcDbEntity
  8
SK1
  6
Continuous
100
AcDbLine
 10
3.76
 20
8.0558731094
 30
0.0
 11
5.76
 21
8.0558731094
 31
0.0
  0
LINE
  5
EA
330
1F
100
AcDbEntity
  8
SK1
  6
Continuous
100
AcDbLine
 10
-22.34
 20
6.1450480358
 30
0.0
 11
-22.34
 21
6.7107334608
 31
0.0
  0
SPLINE
  5
EB
330
1F
100
AcDbEntity
  8
SK1
  6
Continuous
100
AcDbSpline
210
0.0
220
0.0
230
1.0
 70
     8
 71
     3
 72
    10
 73
     6
 74
     0
 42
0.0000000269127736
 43
0.0000000001
 12
1.0
 22
0.0
 32
0.0
 13
1.0
 23
0.0
 33
0.0
 40
0.0
 40
0.0
 40
0.0
 40
0.0
 40
0.5
 40
0.5
 40
1.0
 40
1.0
 40
1.0
 40
1.0
 10
-22.33999999998509
 20
6.710733460792002
 30
0.0
 10
-22.33999999998509
 20
6.761273779546748
 30
0.0
 10
-22.31326416131739
 20
6.81183308224111
 30
0.0
 10
-22.21985596456634
 20
6.887999876583821
 30
0.0
 10
-22.1532830087438
 20
6.913882853670053
 30
0.0
 10
-22.08175193027214
 20
6.920997874502019
 30
0.0
  0
SPLINE
  5
EC
330
1F
100
AcDbEntity
  8
SK1
  6
Continuous
100
AcDbSpline
210
0.0
220
0.0
230
1.0
 70
     8
 71
     3
 72
    11
 73
     7
 74
     0
 42
0.0000000003880749
 43
0.0000000001
 12
1.0
 22
0.0
 32
0.0
 13
1.0
 23
0.0
 33
0.0
 40
0.0
 40
0.0
 40
0.0
 40
0.0
 40
0.6370734200373079
 40
0.6370734200373079
 40
0.6370734200373079
 40
1.0
 40
1.0
 40
1.0
 40
1.0
 10
-22.08175193027214
 20
6.920997874502019
 30
0.0
 10
-16.63655230216112
 20
7.462618518667229
 30
0.0
 10
-11.19133014602414
 20
8.00412592186171
 30
0.0
 10
-5.746096572297354
 20
8.545575901966487
 30
0.0
 10
-2.644067926658722
 20
8.854027931750757
 30
0.0
 10
0.4579646213012708
 20
9.16246033949552
 30
0.0
 10
3.560000000015887
 20
9.470878510913453
 30
0.0
  0
LINE
  5
ED
330
1F
100
AcDbEntity
  8
SK1
  6
Continuous
100
AcDbLine
 10
3.56
 20
9.4708785109
 30
0.0
 11
3.56
 21
8.905193086
 31
0.0
  0
SPLINE
  5
EE
330
1F
100
AcDbEntity
  8
SK3
100
AcDbSpline
210
0.0
220
0.0
230
1.0
 70
     8
 71
     3
 72
    10
 73
     6
 74
     0
 42
0.000000036080914
 43
0.0000000001
 12
1.0
 22
0.0
 32
0.0
 13
1.0
 23
0.0
 33
0.0
 40
0.0
 40
0.0
 40
0.0
 40
0.0
 40
0.5
 40
0.5
 40
1.0
 40
1.0
 40
1.0
 40
1.0
 10
-22.33999999998728
 20
4.800463398151441
 30
0.0
 10
-22.33999999998501
 20
4.763556021213806
 30
0.0
 10
-22.31882263053807
 20
4.726836071031236
 30
0.0
 10
-22.24424009728404
 20
4.673931100188251
 30
0.0
 10
-22.19286506942744
 20
4.658817027537853
 30
0.0
 10
-22.1399999999851
 20
4.658817027538419
 30
0.0
  0
SPLINE
  5
EF
330
1F
100
AcDbEntity
  8
SK3
100
AcDbSpline
210
0.0
220
0.0
230
1.0
 70
     8
 71
     3
 72
    10
 73
     6
 74
     0
 42
0.000000036080914
 43
0.0000000001
 12
1.0
 22
0.0
 32
0.0
 13
1.0
 23
0.0
 33
0.0
 40
0.0
 40
0.0
 40
0.0
 40
0.0
 40
0.5
 40
0.5
 40
1.0
 40
1.0
 40
1.0
 40
1.0
 10
-22.33999999998728
 20
5.366148823100679
 30
0.0
 10
-22.33999999998501
 20
5.329241446163043
 30
0.0
 10
-22.31882263053807
 20
5.292521495980476
 30
0.0
 10
-22.24424009728404
 20
5.239616525137491
 30
0.0
 10
-22.19286506942744
 20
5.224502452487093
 30
0.0
 10
-22.1399999999851
 20
5.224502452487656
 30
0.0
  0
SPLINE
  5
F0
330
1F
100
AcDbEntity
  8
SK1
  6
Continuous
100
AcDbSpline
210
0.0
220
0.0
230
1.0
 70
     8
 71
     3
 72
    10
 73
     6
 74
     0
 42
0.0000000360933571
 43
0.0000000001
 12
1.0
 22
0.0
 32
0.0
 13
1.0
 23
0.0
 33
0.0
 40
0.0
 40
0.0
 40
0.0
 40
0.0
 40
0.5
 40
0.5
 40
1.0
 40
1.0
 40
1.0
 40
1.0
 10
3.56000000001588
 20
7.631700962259832
 30
0.0
 10
3.560000000015877
 20
7.594812693304602
 30
0.0
 10
3.581200329557865
 20
7.558112912089595
 30
0.0
 10
3.655802726166462
 20
7.505268894263571
 30
0.0
 10
3.707160895674999
 20
7.490187684419029
 30
0.0
 10
3.760000000015879
 20
7.490187684419592
 30
0.0
  0
LINE
  5
F1
330
1F
100
AcDbEntity
  8
SK1
  6
Continuous
100
AcDbLine
 10
3.76
 20
7.4901876844
 30
0.0
 11
5.76
 21
7.4901876844
 31
0.0
  0
SPLINE
  5
F2
330
1F
100
AcDbEntity
  8
SK1
  6
Continuous
100
AcDbSpline
210
0.0
220
0.0
230
1.0
 70
     8
 71
     3
 72
    10
 73
     6
 74
     0
 42
0.0000000269127736
 43
0.0000000001
 12
1.0
 22
0.0
 32
0.0
 13
1.0
 23
0.0
 33
0.0
 40
0.0
 40
0.0
 40
0.0
 40
0.0
 40
0.4999999999999996
 40
0.4999999999999996
 40
1.0
 40
1.0
 40
1.0
 40
1.0
 10
-22.33999999998509
 20
6.145048035842766
 30
0.0
 10
-22.3399999999851
 20
6.195588354597517
 30
0.0
 10
-22.3132641613174
 20
6.246147657291873
 30
0.0
 10
-22.21985596456634
 20
6.322314451634584
 30
0.0
 10
-22.15328300874379
 20
6.348197428720812
 30
0.0
 10
-22.08175193027214
 20
6.355312449552782
 30
0.0
  0
SPLINE
  5
F3
330
1F
100
AcDbEntity
  8
SK1
  6
Continuous
100
AcDbSpline
210
0.0
220
0.0
230
1.0
 70
     8
 71
     3
 72
    11
 73
     7
 74
     0
 42
0.0000000003880749
 43
0.0000000001
 12
1.0
 22
0.0
 32
0.0
 13
1.0
 23
0.0
 33
0.0
 40
0.0
 40
0.0
 40
0.0
 40
0.0
 40
0.637073420037308
 40
0.637073420037308
 40
0.637073420037308
 40
1.0
 40
1.0
 40
1.0
 40
1.0
 10
-22.08175193027214
 20
6.355312449552782
 30
0.0
 10
-16.63655230216112
 20
6.89693309371799
 30
0.0
 10
-11.19133014602414
 20
7.438440496912476
 30
0.0
 10
-5.746096572297354
 20
7.979890477017252
 30
0.0
 10
-2.644067926658724
 20
8.288342506801522
 30
0.0
 10
0.457964621301269
 20
8.596774914546282
 30
0.0
 10
3.560000000015887
 20
8.905193085964218
 30
0.0
  0
LINE
  5
F4
330
1F
100
AcDbEntity
  8
SK1
  6
Continuous
100
AcDbLine
 10
3.56
 20
0.4000000998
 30
0.0
 11
3.56
 21
4.6029773749
 31
0.0
  0
LINE
  5
F5
330
1F
100
AcDbEntity
  8
SK1
  6
Continuous
100
AcDbLine
 10
3.76
 20
0.4000000998
 30
0.0
 11
3.76
 21
3.8371819699
 31
0.0
  0
LINE
  5
F6
330
1F
100
AcDbEntity
  8
SK1
  6
Continuous
100
AcDbLine
 10
-22.34
 20
0.4000000998
 30
0.0
 11
-22.34
 21
6.1450480358
 31
0.0
  0
LINE
  5
F7
330
1F
100
AcDbEntity
  8
SK1
  6
Continuous
100
AcDbLine
 10
-22.0817519303
 20
0.4000000998
 30
0.0
 11
-22.0817519303
 21
6.3553124496
 31
0.0
  0
LINE
  5
F8
330
1F
100
AcDbEntity
  8
SK1
  6
Continuous
100
AcDbLine
 10
3.56
 20
0.4000000998
 30
0.0
 11
3.76
 21
0.4000000998
 31
0.0
  0
LINE
  5
F9
330
1F
100
AcDbEntity
  8
SK1
  6
Continuous
100
AcDbLine
 10
3.76
 20
0.4000000998
 30
0.0
 11
5.76
 21
0.4000000998
 31
0.0
  0
LINE
  5
FA
330
1F
100
AcDbEntity
  8
SK1
  6
Continuous
100
AcDbLine
 10
-22.34
 20
0.4000000998
 30
0.0
 11
-22.0817519303
 21
0.4000000998
 31
0.0
  0
LINE
  5
FB
330
1F
100
AcDbEntity
  8
SK1
  6
Continuous
100
AcDbLine
 10
-22.0817519303
 20
0.4000000998
 30
0.0
 11
3.56
 21
0.4000000998
 31
0.0
  0
LINE
  5
FC
330
1F
100
AcDbEntity
  8
SK1
  6
Continuous
100
AcDbLine
 10
3.56
 20
-0.3999999002
 30
0.0
 11
3.76
 21
-0.3999999002
 31
0.0
  0
LINE
  5
FD
330
1F
100
AcDbEntity
  8
SK1
  6
Continuous
100
AcDbLine
 10
3.76
 20
-0.3999999002
 30
0.0
 11
5.76
 21
-0.3999999002
 31
0.0
  0
LINE
  5
FE
330
1F
100
AcDbEntity
  8
SK1
  6
Continuous
100
AcDbLine
 10
-22.34
 20
-0.3999999002
 30
0.0
 11
-22.0817519303
 21
-0.3999999002
 31
0.0
  0
LINE
  5
FF
330
1F
100
AcDbEntity
  8
SK1
  6
Continuous
100
AcDbLine
 10
-22.0817519303
 20
-0.3999999002
 30
0.0
 11
3.56
 21
-0.3999999002
 31
0.0
  0
LINE
  5
100
330
1F
100
AcDbEntity
  8
SK3
100
AcDbLine
 10
-18.94
 20
-3.0439586388
 30
0.0
 11
11.46
 21
-3.0439586388
 31
0.0
  0
LINE
  5
101
330
1F
100
AcDbEntity
  8
SK1
  6
Continuous
100
AcDbLine
 10
-18.94
 20
-3.3921098847
 30
0.0
 11
-18.94
 21
-4.1312135107
 31
0.0
  0
SPLINE
  5
102
330
1F
100
AcDbEntity
  8
SK3
100
AcDbSpline
210
0.0
220
0.0
230
1.0
 70
     8
 71
     3
 72
    35
 73
    31
 74
     0
 42
0.0000000082337215
 43
0.0000000001
 12
1.0
 22
0.0
 32
0.0
 13
1.0
 23
0.0
 33
0.0
 40
0.0
 40
0.0
 40
0.0
 40
0.0
 40
0.1073506093321337
 40
0.1073506093321337
 40
0.1073506093321337
 40
0.214693745115555
 40
0.214693745115555
 40
0.214693745115555
 40
0.3221489335713584
 40
0.3221489335713584
 40
0.3221489335713584
 40
0.4296807148252491
 40
0.4296807148252491
 40
0.4296807148252491
 40
0.4999993663023834
 40
0.4999993663023834
 40
0.4999993663023834
 40
0.6073504062530025
 40
0.6073504062530025
 40
0.6073504062530025
 40
0.714694004045526
 40
0.714694004045526
 40
0.714694004045526
 40
0.8221492505529256
 40
0.8221492505529256
 40
0.8221492505529256
 40
0.9296813808685722
 40
0.9296813808685722
 40
0.9296813808685722
 40
1.0
 40
1.0
 40
1.0
 40
1.0
 10
-18.93999999998509
 20
-2.304855012773801
 30
0.0
 10
-18.98472880878588
 20
-2.304855012773801
 30
0.0
 10
-19.03007428124815
 20
-2.312157146087877
 30
0.0
 10
-19.07227974462323
 20
-2.326126455951696
 30
0.0
 10
-19.11448353764053
 20
-2.340095212954736
 30
0.0
 10
-19.15471117864566
 20
-2.361111641124378
 30
0.0
 10
-19.18964442154564
 20
-2.387368617064506
 30
0.0
 10
-19.22461353556822
 20
-2.413652554921848
 30
0.0
 10
-19.25524196720837
 20
-2.44590871841093
 30
0.0
 10
-19.27899948785663
 20
-2.481394264902995
 30
0.0
 10
-19.30277292703454
 20
-2.51690358819115
 30
0.0
 10
-19.32032160217817
 20
-2.55662488337851
 30
0.0
 10
-19.33018495540173
 20
-2.597209124315068
 30
0.0
 10
-19.33668769230971
 20
-2.623965607170245
 30
0.0
 10
-19.33999999998508
 20
-2.651494544160801
 30
0.0
 10
-19.33999999998508
 20
-2.678783926784935
 30
0.0
 10
-19.33999999998508
 20
-2.720108019847981
 30
0.0
 10
-19.33228387068248
 20
-2.761828765112799
 30
0.0
 10
-19.31749438907612
 20
-2.800516326805861
 30
0.0
 10
-19.30270549022331
 20
-2.839202364083488
 30
0.0
 10
-19.28043782408201
 20
-2.875924498819485
 30
0.0
 10
-19.25253393817813
 20
-2.907721569477727
 30
0.0
 10
-19.22460149970025
 20
-2.939551176400466
 30
0.0
 10
-19.19025119048422
 20
-2.967327375748374
 30
0.0
 10
-19.15231877772429
 20
-2.988835580980081
 30
0.0
 10
-19.11436084877938
 20
-3.010358254243305
 30
0.0
 10
-19.07176653618106
 20
-3.026201306332556
 30
0.0
 10
-19.02806619091746
 20
-3.03510311083091
 30
0.0
 10
-18.99925542111819
 20
-3.040971893758213
 30
0.0
 10
-18.96953772686541
 20
-3.043958638782831
 30
0.0
 10
-18.93999999998508
 20
-3.043958638782831
 30
0.0
  0
SPLINE
  5
103
330
1F
100
AcDbEntity
  8
SK1
  6
Continuous
100
AcDbSpline
210
0.0
220
0.0
230
1.0
 70
     8
 71
     3
 72
    35
 73
    31
 74
     0
 42
0.0000000082300711
 43
0.0000000001
 12
1.0
 22
0.0
 32
0.0
 13
1.0
 23
0.0
 33
0.0
 40
0.0
 40
0.0
 40
0.0
 40
0.0
 40
0.1084803707805046
 40
0.1084803707805046
 40
0.1084803707805046
 40
0.2170050237261515
 40
0.2170050237261515
 40
0.2170050237261515
 40
0.324875300597384
 40
0.324875300597384
 40
0.324875300597384
 40
0.4319999380286142
 40
0.4319999380286142
 40
0.4319999380286142
 40
0.5000302004569633
 40
0.5000302004569633
 40
0.5000302004569633
 40
0.606646456473943
 40
0.606646456473943
 40
0.606646456473943
 40
0.7132524063928982
 40
0.7132524063928982
 40
0.7132524063928982
 40
0.8200244483225062
 40
0.8200244483225062
 40
0.8200244483225062
 40
0.927305616324634
 40
0.927305616324634
 40
0.927305616324634
 40
1.0
 40
1.0
 40
1.0
 40
1.0
 10
-18.93999999998508
 20
-4.131213510708342
 30
0.0
 10
-18.98491852867841
 20
-4.128795673853987
 30
0.0
 10
-19.03050362230355
 20
-4.119279719044422
 30
0.0
 10
-19.07298019018248
 20
-4.103380576429069
 30
0.0
 10
-19.11546697835173
 20
-4.087477608319773
 30
0.0
 10
-19.15601742226407
 20
-4.064739039363819
 30
0.0
 10
-19.1911869066661
 20
-4.036973303056421
 30
0.0
 10
-19.22614584343545
 20
-4.009373790682885
 30
0.0
 10
-19.25675774213914
 20
-3.976034481025009
 30
0.0
 10
-19.28040527608441
 20
-3.939672562609683
 30
0.0
 10
-19.30389225990907
 20
-3.90355751604156
 30
0.0
 10
-19.32116045824118
 20
-3.863456565421386
 30
0.0
 10
-19.33074050898972
 20
-3.822671022101638
 30
0.0
 10
-19.3368766100022
 20
-3.79654754736987
 30
0.0
 10
-19.33999999998645
 20
-3.769768691297408
 30
0.0
 10
-19.33999999998647
 20
-3.743261858615352
 30
0.0
 10
-19.33999999998651
 20
-3.702069603731254
 30
0.0
 10
-19.33233142634331
 20
-3.660598661062231
 30
0.0
 10
-19.31764216980561
 20
-3.622303899354131
 30
0.0
 10
-19.30295369536115
 20
-3.58401117655618
 30
0.0
 10
-19.28084263338116
 20
-3.547842127213203
 30
0.0
 10
-19.25316932475882
 20
-3.516816901014068
 30
0.0
 10
-19.22545159456611
 20
-3.485741872701007
 30
0.0
 10
-19.19139760724467
 20
-3.458977330310223
 30
0.0
 10
-19.15384851142982
 20
-3.438738431787145
 30
0.0
 10
-19.11612010673478
 20
-3.418402886083844
 30
0.0
 10
-19.07383698462034
 20
-3.404099336734127
 30
0.0
 10
-19.03048531205697
 20
-3.396978489975401
 30
0.0
 10
-19.00088581945884
 20
-3.392116544900059
 30
0.0
 10
-18.97033659617696
 20
-3.390476951866423
 30
0.0
 10
-18.93999999998508
 20
-3.392109884699312
 30
0.0
  0
ARC
  5
104
330
1F
100
AcDbEntity
  8
SK1
  6
Continuous
100
AcDbCircle
 10
5.76
 20
0.0000000998
 30
0.0
 40
0.3999999999999996
100
AcDbArc
 50
270.0
 51
90.0
  0
LINE
  5
105
330
1F
100
AcDbEntity
  8
SK3
100
AcDbLine
 10
-18.94
 20
3.0439588383
 30
0.0
 11
11.46
 21
3.0439588383
 31
0.0
  0
LINE
  5
106
330
1F
100
AcDbEntity
  8
SK1
  6
Continuous
100
AcDbLine
 10
-18.94
 20
4.1312137102
 30
0.0
 11
-18.94
 21
3.3921100842
 31
0.0
  0
SPLINE
  5
107
330
1F
100
AcDbEntity
  8
SK3
100
AcDbSpline
210
0.0
220
0.0
230
1.0
 70
     8
 71
     3
 72
    35
 73
    31
 74
     0
 42
0.0000000082338683
 43
0.0000000001
 12
1.0
 22
0.0
 32
0.0
 13
1.0
 23
0.0
 33
0.0
 40
0.0
 40
0.0
 40
0.0
 40
0.0
 40
0.1073506093321338
 40
0.1073506093321338
 40
0.1073506093321338
 40
0.2146937451155549
 40
0.2146937451155549
 40
0.2146937451155549
 40
0.3221489335713584
 40
0.3221489335713584
 40
0.3221489335713584
 40
0.4296807148252489
 40
0.4296807148252489
 40
0.4296807148252489
 40
0.4999993663023835
 40
0.4999993663023835
 40
0.4999993663023835
 40
0.6073504062530025
 40
0.6073504062530025
 40
0.6073504062530025
 40
0.7146940040455259
 40
0.7146940040455259
 40
0.7146940040455259
 40
0.8221492505529227
 40
0.8221492505529227
 40
0.8221492505529227
 40
0.9296813808685722
 40
0.9296813808685722
 40
0.9296813808685722
 40
1.0
 40
1.0
 40
1.0
 40
1.0
 10
-18.93999999998509
 20
3.043958838324223
 30
0.0
 10
-18.98472880878588
 20
3.043958838324223
 30
0.0
 10
-19.03007428124815
 20
3.037003463864551
 30
0.0
 10
-19.07227974462323
 20
3.023645470427184
 30
0.0
 10
-19.11448353764053
 20
3.010288005656641
 30
0.0
 10
-19.15471117864566
 20
2.990159324484925
 30
0.0
 10
-19.18964442154564
 20
2.964856826019951
 30
0.0
 10
-19.22461353556822
 20
2.939528345740829
 30
0.0
 10
-19.25524196720837
 20
2.908313330669747
 30
0.0
 10
-19.27899948785663
 20
2.873708775515386
 30
0.0
 10
-19.30277292703454
 20
2.839081033865873
 30
0.0
 10
-19.32032160217817
 20
2.800098331503937
 30
0.0
 10
-19.33018495540173
 20
2.759934915144038
 30
0.0
 10
-19.33668769230971
 20
2.733455874599241
 30
0.0
 10
-19.33999999998509
 20
2.70607350895046
 30
0.0
 10
-19.33999999998509
 20
2.678784126326327
 30
0.0
 10
-19.33999999998509
 20
2.63746003326328
 30
0.0
 10
-19.33228387068248
 20
2.595393141990502
 30
0.0
 10
-19.31749438907612
 20
2.556095042400781
 30
0.0
 10
-19.30270549022331
 20
2.516798491283669
 30
0.0
 10
-19.28043782408201
 20
2.479189490636506
 30
0.0
 10
-19.25253393817813
 20
2.446438284925722
 30
0.0
 10
-19.22460149970025
 20
2.41365356663439
 30
0.0
 10
-19.19025119048422
 20
2.384835998339837
 30
0.0
 10
-19.15231877772429
 20
2.362446175272781
 30
0.0
 10
-19.11436084877938
 20
2.340041291131948
 30
0.0
 10
-19.07176653618106
 20
2.323458661677721
 30
0.0
 10
-19.02806619091746
 20
2.314135411670927
 30
0.0
 10
-18.99925542111819
 20
2.307988778089277
 30
0.0
 10
-18.96953772686541
 20
2.304855212315195
 30
0.0
 10
-18.93999999998508
 20
2.304855212315194
 30
0.0
  0
SPLINE
  5
108
330
1F
100
AcDbEntity
  8
SK1
  6
Continuous
100
AcDbSpline
210
0.0
220
0.0
230
1.0
 70
     8
 71
     3
 72
    35
 73
    31
 74
     0
 42
0.0000000082299491
 43
0.0000000001
 12
1.0
 22
0.0
 32
0.0
 13
1.0
 23
0.0
 33
0.0
 40
0.0
 40
0.0
 40
0.0
 40
0.0
 40
0.1084803707805917
 40
0.1084803707805917
 40
0.1084803707805917
 40
0.2170050237263477
 40
0.2170050237263477
 40
0.2170050237263477
 40
0.3248753005975634
 40
0.3248753005975634
 40
0.3248753005975634
 40
0.431999938028778
 40
0.431999938028778
 40
0.431999938028778
 40
0.5000302004572913
 40
0.5000302004572913
 40
0.5000302004572913
 40
0.6066464564740062
 40
0.6066464564740062
 40
0.6066464564740062
 40
0.7132524063929461
 40
0.7132524063929461
 40
0.7132524063929461
 40
0.8200244483225396
 40
0.8200244483225396
 40
0.8200244483225396
 40
0.9273056163246556
 40
0.9273056163246556
 40
0.9273056163246556
 40
1.0
 40
1.0
 40
1.0
 40
1.0
 10
-18.93999999998488
 20
3.392110084240716
 30
0.0
 10
-18.98491852867846
 20
3.389692247386898
 30
0.0
 10
-19.03050362230345
 20
3.39454946544088
 30
0.0
 10
-19.07298019018243
 20
3.406316836422889
 30
0.0
 10
-19.11546697835172
 20
3.418087038752948
 30
0.0
 10
-19.15601742226411
 20
3.437102766073476
 30
0.0
 10
-19.19118690666618
 20
3.461773679820735
 30
0.0
 10
-19.22614584343552
 20
3.486296897274602
 30
0.0
 10
-19.2567577421392
 20
3.517089555182
 30
0.0
 10
-19.28040527608445
 20
3.551536695849792
 30
0.0
 10
-19.30389225990911
 20
3.585749964664335
 30
0.0
 10
-19.32116045824121
 20
3.624514583886612
 30
0.0
 10
-19.33074050898975
 20
3.664562476297212
 30
0.0
 10
-19.33687661000222
 20
3.690213479576681
 30
0.0
 10
-19.33999999998508
 20
3.716755225474436
 30
0.0
 10
-19.33999999998508
 20
3.743262058156512
 30
0.0
 10
-19.33999999998508
 20
3.784454313040442
 30
0.0
 10
-19.33233142634325
 20
3.826503918823857
 30
0.0
 10
-19.31764216980561
 20
3.86594492862262
 30
0.0
 10
-19.30295369536115
 20
3.905383838482241
 30
0.0
 10
-19.28084263338116
 20
3.943301544895306
 30
0.0
 10
-19.25316932475882
 20
3.976626937500358
 30
0.0
 10
-19.22545159456611
 20
4.010005824477651
 30
0.0
 10
-19.19139760724467
 20
4.039695731893719
 30
0.0
 10
-19.15384851142982
 20
4.063349017919273
 30
0.0
 10
-19.11612010673477
 20
4.08711525591179
 30
0.0
 10
-19.07383698462034
 20
4.105441281123217
 30
0.0
 10
-19.03048531205697
 20
4.116923120255607
 30
0.0
 10
-19.00088581945884
 20
4.124762647367629
 30
0.0
 10
-18.97033659617697
 20
4.129580777416844
 30
0.0
 10
-18.93999999998509
 20
4.131213710249733
 30
0.0
  0
LINE
  5
109
330
1F
100
AcDbEntity
  8
SK3
100
AcDbLine
 10
-18.94
 20
2.3048552123
 30
0.0
 11
11.46
 21
2.3048552123
 31
0.0
  0
LINE
  5
10A
330
1F
100
AcDbEntity
  8
SK3
100
AcDbLine
 10
5.76
 20
5.2245024525
 30
0.0
 11
-22.14
 21
5.2245024525
 31
0.0
  0
LINE
  5
10B
330
1F
100
AcDbEntity
  8
SK1
  6
Continuous
100
AcDbLine
 10
5.76
 20
7.4901876844
 30
0.0
 11
5.76
 21
8.0558731094
 31
0.0
  0
SPLINE
  5
10C
330
1F
100
AcDbEntity
  8
SK3
100
AcDbSpline
210
0.0
220
0.0
230
1.0
 70
     8
 71
     3
 72
    35
 73
    31
 74
     0
 42
0.0000000092145676
 43
0.0000000001
 12
1.0
 22
0.0
 32
0.0
 13
1.0
 23
0.0
 33
0.0
 40
0.0
 40
0.0
 40
0.0
 40
0.0
 40
0.1073506093321344
 40
0.1073506093321344
 40
0.1073506093321344
 40
0.2146937451155547
 40
0.2146937451155547
 40
0.2146937451155547
 40
0.3221489335713619
 40
0.3221489335713619
 40
0.3221489335713619
 40
0.429680714825253
 40
0.429680714825253
 40
0.429680714825253
 40
0.4999993663023909
 40
0.4999993663023909
 40
0.4999993663023909
 40
0.6073504062530098
 40
0.6073504062530098
 40
0.6073504062530098
 40
0.7146940040455338
 40
0.7146940040455338
 40
0.7146940040455338
 40
0.8221492505529316
 40
0.8221492505529316
 40
0.8221492505529316
 40
0.9296813808685795
 40
0.9296813808685795
 40
0.9296813808685795
 40
1.0
 40
1.0
 40
1.0
 40
1.0
 10
5.760000000015881
 20
4.658817027538419
 30
0.0
 10
5.804728808816672
 20
4.658817027538419
 30
0.0
 10
5.850074281278943
 20
4.664593502958548
 30
0.0
 10
5.892279744654023
 20
4.675615991917416
 30
0.0
 10
5.934483537671322
 20
4.686638044641287
 30
0.0
 10
5.974711178676443
 20
4.703203767590507
 30
0.0
 10
6.009644421576424
 20
4.723816546430329
 30
0.0
 10
6.044613535599012
 20
4.744450491456154
 30
0.0
 10
6.075241967239156
 20
4.769701755637509
 30
0.0
 10
6.098999487887419
 20
4.797338006175607
 30
0.0
 10
6.122772927065332
 20
4.824992774154147
 30
0.0
 10
6.140321602208964
 20
4.855793860871434
 30
0.0
 10
6.150184955432517
 20
4.887083442734235
 30
0.0
 10
6.156687692340499
 20
4.907712118824702
 30
0.0
 10
6.160000000015876
 20
4.928861178857082
 30
0.0
 10
6.160000000015876
 20
4.949747568076537
 30
0.0
 10
6.160000000015876
 20
4.981375659622019
 30
0.0
 10
6.152283870713272
 20
5.01312000274997
 30
0.0
 10
6.137494389106914
 20
5.04239975981838
 30
0.0
 10
6.122705490254107
 20
5.071678363169378
 30
0.0
 10
6.100437824112811
 20
5.099304299925993
 30
0.0
 10
6.07253393820892
 20
5.123124350033845
 30
0.0
 10
6.044601499731052
 20
5.146968773942008
 30
0.0
 10
6.010251190515015
 20
5.167664171738299
 30
0.0
 10
5.972318777755087
 20
5.183648711208154
 30
0.0
 10
5.934360848810178
 20
5.199644003077772
 30
0.0
 10
5.891766536211852
 20
5.211369493797398
 30
0.0
 10
5.848066190948261
 20
5.217954555331153
 30
0.0
 10
5.819255421148981
 20
5.222295955629448
 30
0.0
 10
5.789537726896209
 20
5.224502452487659
 30
0.0
 10
5.760000000015881
 20
5.224502452487656
 30
0.0
  0
SPLINE
  5
10D
330
1F
100
AcDbEntity
  8
SK1
  6
Continuous
100
AcDbSpline
210
0.0
220
0.0
230
1.0
 70
     8
 71
     3
 72
    35
 73
    31
 74
     0
 42
0.0000000092152829
 43
0.0000000001
 12
1.0
 22
0.0
 32
0.0
 13
1.0
 23
0.0
 33
0.0
 40
0.0
 40
0.0
 40
0.0
 40
0.0
 40
0.1074218248776395
 40
0.1074218248776395
 40
0.1074218248776395
 40
0.2148406223731409
 40
0.2148406223731409
 40
0.2148406223731409
 40
0.3223048150134954
 40
0.3223048150134954
 40
0.3223048150134954
 40
0.4297999637724464
 40
0.4297999637724464
 40
0.4297999637724464
 40
0.499999739371973
 40
0.499999739371973
 40
0.499999739371973
 40
0.607421702250366
 40
0.607421702250366
 40
0.607421702250366
 40
0.7148406429014558
 40
0.7148406429014558
 40
0.7148406429014558
 40
0.8223049124041392
 40
0.8223049124041392
 40
0.8223049124041392
 40
0.9298001858709082
 40
0.9298001858709082
 40
0.9298001858709082
 40
1.0
 40
1.0
 40
1.0
 40
1.0
 10
5.760000000015878
 20
8.05587310936883
 30
0.0
 10
5.804753035698204
 20
8.05587310936883
 30
0.0
 10
5.850123172635308
 20
8.05061523195817
 30
0.0
 10
5.892352646240157
 20
8.040504598996467
 30
0.0
 10
5.934581443354181
 20
8.030394128001035
 30
0.0
 10
5.974834226799012
 20
8.015149881990988
 30
0.0
 10
6.009782924619573
 20
7.9959536330603
 30
0.0
 10
6.044746150293087
 20
7.976749404425101
 30
0.0
 10
6.075365251123073
 20
7.953055857159845
 30
0.0
 10
6.099107121446458
 20
7.926738599031018
 30
0.0
 10
6.122855420243642
 20
7.900414215102833
 30
0.0
 10
6.14037763144194
 20
7.870733831099114
 30
0.0
 10
6.150219761320762
 20
7.840089528553707
 30
0.0
 10
6.156699796590356
 20
7.819913391502956
 30
0.0
 10
6.160000000015876
 20
7.799023772698158
 30
0.0
 10
6.160000000015876
 20
7.778174692822724
 30
0.0
 10
6.160000000015876
 20
7.746529510014524
 30
0.0
 10
6.152275906346368
 20
7.714244237365624
 30
0.0
 10
6.137468896679876
 20
7.684024169349792
 30
0.0
 10
6.122662123791142
 20
7.653804584580754
 30
0.0
 10
6.10036505408883
 20
7.624819616919333
 30
0.0
 10
6.072423522994475
 20
7.599545847799399
 30
0.0
 10
6.044470393354616
 20
7.574261587523482
 30
0.0
 10
6.010097251960792
 20
7.551998633294566
 30
0.0
 10
5.972146992578309
 20
7.534692818814051
 30
0.0
 10
5.934186441162115
 20
7.517382311031596
 30
0.0
 10
5.891598808630039
 20
7.504558387383529
 30
0.0
 10
5.84791205969587
 20
7.497351915384405
 30
0.0
 10
5.819148823986104
 20
7.492607193980231
 30
0.0
 10
5.789485037055948
 20
7.490187684419591
 30
0.0
 10
5.760000000015874
 20
7.490187684419592
 30
0.0
  0
LINE
  5
10E
330
1F
100
AcDbEntity
  8
SK3
100
AcDbLine
 10
5.76
 20
4.6588170275
 30
0.0
 11
-22.14
 21
4.6588170275
 31
0.0
  0
LINE
  5
10F
330
1F
100
AcDbEntity
  8
SK3
100
AcDbLine
 10
-18.94
 20
6.6096629437
 30
0.0
 11
11.46
 21
6.6096629437
 31
0.0
  0
LINE
  5
110
330
1F
100
AcDbEntity
  8
SK1
  6
Continuous
100
AcDbLine
 10
-18.94
 20
9.2345284012
 30
0.0
 11
-18.94
 21
8.9283816553
 31
0.0
  0
SPLINE
  5
111
330
1F
100
AcDbEntity
  8
SK3
100
AcDbSpline
210
0.0
220
0.0
230
1.0
 70
     8
 71
     3
 72
    35
 73
    31
 74
     0
 42
0.0000000109108347
 43
0.0000000001
 12
1.0
 22
0.0
 32
0.0
 13
1.0
 23
0.0
 33
0.0
 40
0.0
 40
0.0
 40
0.0
 40
0.0
 40
0.1073506093321338
 40
0.1073506093321338
 40
0.1073506093321338
 40
0.214693745115555
 40
0.214693745115555
 40
0.214693745115555
 40
0.3221489335713584
 40
0.3221489335713584
 40
0.3221489335713584
 40
0.429680714825249
 40
0.429680714825249
 40
0.429680714825249
 40
0.4999993663023835
 40
0.4999993663023835
 40
0.4999993663023835
 40
0.6073504062530024
 40
0.6073504062530024
 40
0.6073504062530024
 40
0.7146940040455259
 40
0.7146940040455259
 40
0.7146940040455259
 40
0.8221492505529225
 40
0.8221492505529225
 40
0.8221492505529225
 40
0.929681380868572
 40
0.929681380868572
 40
0.929681380868572
 40
1.0
 40
1.0
 40
1.0
 40
1.0
 10
-18.93999999998509
 20
6.609662943681692
 30
0.0
 10
-18.98472880878588
 20
6.609662943681692
 30
0.0
 10
-19.03007428124815
 20
6.607128692103513
 30
0.0
 10
-19.07227974462323
 20
6.602206946482117
 30
0.0
 10
-19.11448353764053
 20
6.597285395647734
 30
0.0
 10
-19.15471117864566
 20
6.589835569911652
 30
0.0
 10
-19.18964442154564
 20
6.580309409360689
 30
0.0
 10
-19.22461353556822
 20
6.570773466892998
 30
0.0
 10
-19.25524196720837
 20
6.558884932718875
 30
0.0
 10
-19.27899948785663
 20
6.545432247991755
 30
0.0
 10
-19.30277292703454
 20
6.531970549404817
 30
0.0
 10
-19.32032160217817
 20
6.516561978213975
 30
0.0
 10
-19.33018495540173
 20
6.500346571023126
 30
0.0
 10
-19.33668769230971
 20
6.489656035621223
 30
0.0
 10
-19.33999999998509
 20
6.478460459741415
 30
0.0
 10
-19.33999999998509
 20
6.467156827349709
 30
0.0
 10
-19.33999999998509
 20
6.450039827550228
 30
0.0
 10
-19.33228387068248
 20
6.432269004650207
 30
0.0
 10
-19.31749438907612
 20
6.415380660927997
 30
0.0
 10
-19.30270549022331
 20
6.398492982661316
 30
0.0
 10
-19.28043782408201
 20
6.382027958614798
 30
0.0
 10
-19.25253393817813
 20
6.367507829972777
 30
0.0
 10
-19.22460149970025
 20
6.352972843649335
 30
0.0
 10
-19.19025119048422
 20
6.33999484708047
 30
0.0
 10
-19.15231877772429
 20
6.329839060871612
 30
0.0
 10
-19.11436084877938
 20
6.319676443119473
 30
0.0
 10
-19.07176653618106
 20
6.31206811573475
 30
0.0
 10
-19.02806619091746
 20
6.307784853628101
 30
0.0
 10
-18.99925542111819
 20
6.304960983981299
 30
0.0
 10
-18.96953772686541
 20
6.303516197789619
 30
0.0
 10
-18.93999999998508
 20
6.303516197789619
 30
0.0
  0
SPLINE
  5
112
330
1F
100
AcDbEntity
  8
SK1
  6
Continuous
100
AcDbSpline
210
0.0
220
0.0
230
1.0
 70
     8
 71
     3
 72
    35
 73
    31
 74
     0
 42
0.0000000108627312
 43
0.0000000001
 12
1.0
 22
0.0
 32
0.0
 13
1.0
 23
0.0
 33
0.0
 40
0.0
 40
0.0
 40
0.0
 40
0.0
 40
0.1084803707805051
 40
0.1084803707805051
 40
0.1084803707805051
 40
0.2170050237261525
 40
0.2170050237261525
 40
0.2170050237261525
 40
0.3248753005973854
 40
0.3248753005973854
 40
0.3248753005973854
 40
0.4319999380286162
 40
0.4319999380286162
 40
0.4319999380286162
 40
0.500030200457211
 40
0.500030200457211
 40
0.500030200457211
 40
0.6066464564739416
 40
0.6066464564739416
 40
0.6066464564739416
 40
0.7132524063928972
 40
0.7132524063928972
 40
0.7132524063928972
 40
0.8200244483225057
 40
0.8200244483225057
 40
0.8200244483225057
 40
0.9273056163246337
 40
0.9273056163246337
 40
0.9273056163246337
 40
1.0
 40
1.0
 40
1.0
 40
1.0
 10
-18.93999999998508
 20
8.92838165534841
 30
0.0
 10
-18.98491852867841
 20
8.92254448082302
 30
0.0
 10
-19.03050362230355
 20
8.919897669661605
 30
0.0
 10
-19.07298019018248
 20
8.920640102682478
 30
0.0
 10
-19.11546697835173
 20
8.921382714340215
 30
0.0
 10
-19.15601742226407
 20
8.925536444859308
 30
0.0
 10
-19.1911869066661
 20
8.932660649369367
 30
0.0
 10
-19.22614584343545
 20
8.939742203712107
 30
0.0
 10
-19.25675774213914
 20
8.94995028848838
 30
0.0
 10
-19.28040527608441
 20
8.962303983590411
 30
0.0
 10
-19.30389225990907
 20
8.974573805792925
 30
0.0
 10
-19.32116045824118
 20
8.989294305417117
 30
0.0
 10
-19.33074050898972
 20
9.005145034688896
 30
0.0
 10
-19.33687661000221
 20
9.015297556683416
 30
0.0
 10
-19.33999999998508
 20
9.026054397628522
 30
0.0
 10
-19.33999999998508
 20
9.037033887221005
 30
0.0
 10
-19.33999999998508
 20
9.054096277858656
 30
0.0
 10
-19.33233142634325
 20
9.072092457980894
 30
0.0
 10
-19.31764216980561
 20
9.089575707244048
 30
0.0
 10
-19.30295369536115
 20
9.107058025654784
 30
0.0
 10
-19.28084263338116
 20
9.124512710975242
 30
0.0
 10
-19.25316932475882
 20
9.140616706969583
 30
0.0
 10
-19.22545159456611
 20
9.15674655331673
 30
0.0
 10
-19.19139760724467
 20
9.171969880659347
 30
0.0
 10
-19.15384851142982
 20
9.1851817800283
 30
0.0
 10
-19.11612010673478
 20
9.1984567704206
 30
0.0
 10
-19.07383698462034
 20
9.210070134469273
 30
0.0
 10
-19.03048531205697
 20
9.219187060332558
 30
0.0
 10
-19.00088581945884
 20
9.225411880821634
 30
0.0
 10
-18.97033659617696
 20
9.230586152648877
 30
0.0
 10
-18.93999999998508
 20
9.23452840124048
 30
0.0
  0
LINE
  5
113
330
1F
100
AcDbEntity
  8
SK3
100
AcDbLine
 10
-18.94
 20
6.3035161978
 30
0.0
 11
11.46
 21
6.3035161977
 31
0.0
  0
ARC
  5
114
330
1F
100
AcDbEntity
  8
SK3
100
AcDbCircle
 10
5.7597549821
 20
13.9971308034
 30
0.0
 40
7.008568624047144
100
AcDbArc
 50
270.0020030468
 51
273.2171625483
  0
ARC
  5
115
330
1F
100
AcDbEntity
  8
SK1
  6
Continuous
100
AcDbCircle
 10
5.7599009035
 20
21.998173473
 30
0.0
 40
11.00544850674211
100
AcDbArc
 50
270.0005159092
 51
272.0834264254
  0
LINE
  5
116
330
1F
100
AcDbEntity
  8
SK3
100
AcDbLine
 10
5.76
 20
6.9885621836
 30
0.0
 11
-22.14
 21
6.9885621836
 31
0.0
  0
LINE
  5
117
330
1F
100
AcDbEntity
  8
SK3
100
AcDbLine
 10
5.76
 20
-6.9885619841
 30
0.0
 11
-22.14
 21
-6.9885619841
 31
0.0
  0
ARC
  5
118
330
1F
100
AcDbEntity
  8
SK3
100
AcDbCircle
 10
5.7597549821
 20
-13.9971306039
 30
0.0
 40
7.008568624049892
100
AcDbArc
 50
86.726174087
 51
89.9979969532
  0
ARC
  5
119
330
1F
100
AcDbEntity
  8
SK1
  6
Continuous
100
AcDbCircle
 10
5.7599009035
 20
-21.9981732735
 30
0.0
 40
11.00544850675179
100
AcDbArc
 50
87.9165735746
 51
89.9994840908
  0
LINE
  5
11A
330
1F
100
AcDbEntity
  8
SK3
100
AcDbLine
 10
-18.94
 20
-6.3035159982
 30
0.0
 11
11.46
 21
-6.3035159982
 31
0.0
  0
SPLINE
  5
11B
330
1F
100
AcDbEntity
  8
SK3
100
AcDbSpline
210
0.0
220
0.0
230
1.0
 70
     8
 71
     3
 72
    35
 73
    31
 74
     0
 42
0.000000010910068
 43
0.0000000001
 12
1.0
 22
0.0
 32
0.0
 13
1.0
 23
0.0
 33
0.0
 40
0.0
 40
0.0
 40
0.0
 40
0.0
 40
0.1073506093321335
 40
0.1073506093321335
 40
0.1073506093321335
 40
0.2146937451155551
 40
0.2146937451155551
 40
0.2146937451155551
 40
0.3221489335713587
 40
0.3221489335713587
 40
0.3221489335713587
 40
0.4296807148252487
 40
0.4296807148252487
 40
0.4296807148252487
 40
0.4999993663023833
 40
0.4999993663023833
 40
0.4999993663023833
 40
0.6073504062530025
 40
0.6073504062530025
 40
0.6073504062530025
 40
0.7146940040455263
 40
0.7146940040455263
 40
0.7146940040455263
 40
0.8221492505529255
 40
0.8221492505529255
 40
0.8221492505529255
 40
0.9296813808685721
 40
0.9296813808685721
 40
0.9296813808685721
 40
1.0
 40
1.0
 40
1.0
 40
1.0
 10
-18.93999999998509
 20
-6.303515998248223
 30
0.0
 10
-18.98472880878588
 20
-6.303515998248223
 30
0.0
 10
-19.03007428124815
 20
-6.306887399755571
 30
0.0
 10
-19.07227974462323
 20
-6.31328499378461
 30
0.0
 10
-19.11448353764053
 20
-6.319682334617259
 30
0.0
 10
-19.15471117864565
 20
-6.329275371195692
 30
0.0
 10
-19.18964442154564
 20
-6.341105844212151
 30
0.0
 10
-19.22461353556822
 20
-6.352948465323454
 30
0.0
 10
-19.25524196720837
 20
-6.367350554128755
 30
0.0
 10
-19.27899948785663
 20
-6.382930140091694
 30
0.0
 10
-19.30277292703454
 20
-6.398520165026979
 30
0.0
 10
-19.32032160217817
 20
-6.415711857034032
 30
0.0
 10
-19.33018495540173
 20
-6.432943224625233
 30
0.0
 10
-19.33668769230971
 20
-6.44430356501563
 30
0.0
 10
-19.33999999998509
 20
-6.455852995416608
 30
0.0
 10
-19.33999999998509
 20
-6.467156627808312
 30
0.0
 10
-19.33999999998509
 20
-6.484273627607796
 30
0.0
 10
-19.33228387068248
 20
-6.501208780120834
 30
0.0
 10
-19.31749438907612
 20
-6.516623154972587
 30
0.0
 10
-19.30270549022331
 20
-6.532036922447966
 30
0.0
 10
-19.28043782408201
 20
-6.546360862783741
 30
0.0
 10
-19.25253393817813
 20
-6.55857750564158
 30
0.0
 10
-19.22460149970025
 20
-6.570806649145389
 30
0.0
 10
-19.19025119048422
 20
-6.581270558679826
 30
0.0
 10
-19.15231877772429
 20
-6.589297931153755
 30
0.0
 10
-19.11436084877938
 20
-6.597330703440299
 30
0.0
 10
-19.07176653618106
 20
-6.603153533120075
 30
0.0
 10
-19.02806619091746
 20
-6.606419335764445
 30
0.0
 10
-18.99925542111819
 20
-6.608572414593213
 30
0.0
 10
-18.96953772686541
 20
-6.609662744140295
 30
0.0
 10
-18.93999999998508
 20
-6.609662744140295
 30
0.0
  0
SPLINE
  5
11C
330
1F
100
AcDbEntity
  8
SK1
  6
Continuous
100
AcDbSpline
210
0.0
220
0.0
230
1.0
 70
     8
 71
     3
 72
    35
 73
    31
 74
     0
 42
0.0000000108619746
 43
0.0000000001
 12
1.0
 22
0.0
 32
0.0
 13
1.0
 23
0.0
 33
0.0
 40
0.0
 40
0.0
 40
0.0
 40
0.0
 40
0.1084803707805919
 40
0.1084803707805919
 40
0.1084803707805919
 40
0.2170050237263478
 40
0.2170050237263478
 40
0.2170050237263478
 40
0.3248753005975601
 40
0.3248753005975601
 40
0.3248753005975601
 40
0.4319999380287781
 40
0.4319999380287781
 40
0.4319999380287781
 40
0.5000302004572914
 40
0.5000302004572914
 40
0.5000302004572914
 40
0.6066464564740063
 40
0.6066464564740063
 40
0.6066464564740063
 40
0.713252406392947
 40
0.713252406392947
 40
0.713252406392947
 40
0.8200244483225426
 40
0.8200244483225426
 40
0.8200244483225426
 40
0.9273056163246554
 40
0.9273056163246554
 40
0.9273056163246554
 40
1.0
 40
1.0
 40
1.0
 40
1.0
 10
-18.93999999998488
 20
-9.234528201699112
 30
0.0
 10
-18.98491852867846
 20
-9.228691027175019
 30
0.0
 10
-19.03050362230345
 20
-9.220090652877653
 30
0.0
 10
-19.07298019018243
 20
-9.20937324074291
 30
0.0
 10
-19.11546697835172
 20
-9.1986532498908
 30
0.0
 10
-19.15601742226411
 20
-9.18551178460482
 30
0.0
 10
-19.19118690666618
 20
-9.170916017496829
 30
0.0
 10
-19.22614584343552
 20
-9.156407630237151
 30
0.0
 10
-19.25675774213919
 20
-9.140051384266217
 30
0.0
 10
-19.28040527608445
 20
-9.123075006757144
 30
0.0
 10
-19.30389225990911
 20
-9.106213886909307
 30
0.0
 10
-19.32116045824121
 20
-9.088267197900473
 30
0.0
 10
-19.33074050898975
 20
-9.070635621799529
 30
0.0
 10
-19.33687661000222
 20
-9.059342452816988
 30
0.0
 10
-19.33999999998508
 20
-9.048013177272075
 30
0.0
 10
-19.33999999998508
 20
-9.037033687679607
 30
0.0
 10
-19.33999999998508
 20
-9.019971297041952
 30
0.0
 10
-19.33233142634325
 20
-9.003372133258313
 30
0.0
 10
-19.31764216980561
 20
-8.988656171681853
 30
0.0
 10
-19.30295369536115
 20
-8.97394099362042
 30
0.0
 10
-19.28084263338116
 20
-8.960707939914505
 30
0.0
 10
-19.25316932475882
 20
-8.950157036853048
 30
0.0
 10
-19.22545159456611
 20
-8.939589197338883
 30
0.0
 10
-19.19139760724467
 20
-8.931428325915194
 30
0.0
 10
-19.15384851142981
 20
-8.926459487161916
 30
0.0
 10
-19.11612010673477
 20
-8.921466920622569
 30
0.0
 10
-19.07383698462034
 20
-8.91956467235355
 30
0.0
 10
-19.03048531205697
 20
-8.920976113424167
 30
0.0
 10
-19.00088581945884
 20
-8.92193981187113
 30
0.0
 10
-18.97033659617697
 20
-8.924439207215407
 30
0.0
 10
-18.93999999998509
 20
-8.928381455807013
 30
0.0
  0
LINE
  5
11D
330
1F
100
AcDbEntity
  8
SK3
100
AcDbLine
 10
-18.94
 20
-6.6096627441
 30
0.0
 11
11.46
 21
-6.6096627441
 31
0.0
  0
LINE
  5
11E
330
1F
100
AcDbEntity
  8
SK1
  6
Continuous
100
AcDbLine
 10
-18.94
 20
-8.9283814558
 30
0.0
 11
-18.94
 21
-9.2345282017
 31
0.0
  0
LINE
  5
11F
330
1F
100
AcDbEntity
  8
SK3
100
AcDbLine
 10
5.76
 20
-4.658816828
 30
0.0
 11
-22.14
 21
-4.658816828
 31
0.0
  0
SPLINE
  5
120
330
1F
100
AcDbEntity
  8
SK3
100
AcDbSpline
210
0.0
220
0.0
230
1.0
 70
     8
 71
     3
 72
    35
 73
    31
 74
     0
 42
0.0000000092148837
 43
0.0000000001
 12
1.0
 22
0.0
 32
0.0
 13
1.0
 23
0.0
 33
0.0
 40
0.0
 40
0.0
 40
0.0
 40
0.0
 40
0.1073506093321345
 40
0.1073506093321345
 40
0.1073506093321345
 40
0.214693745115555
 40
0.214693745115555
 40
0.214693745115555
 40
0.322148933571362
 40
0.322148933571362
 40
0.322148933571362
 40
0.4296807148252536
 40
0.4296807148252536
 40
0.4296807148252536
 40
0.4999993663023903
 40
0.4999993663023903
 40
0.4999993663023903
 40
0.6073504062530092
 40
0.6073504062530092
 40
0.6073504062530092
 40
0.7146940040455333
 40
0.7146940040455333
 40
0.7146940040455333
 40
0.8221492505529313
 40
0.8221492505529313
 40
0.8221492505529313
 40
0.9296813808685793
 40
0.9296813808685793
 40
0.9296813808685793
 40
1.0
 40
1.0
 40
1.0
 40
1.0
 10
5.760000000015881
 20
-5.224502252946259
 30
0.0
 10
5.804728808816672
 20
-5.224502252946258
 30
0.0
 10
5.850074281278943
 20
-5.219366504342727
 30
0.0
 10
5.892279744654023
 20
-5.209473580852436
 30
0.0
 10
5.934483537671322
 20
-5.199581048892538
 30
0.0
 10
5.974711178676443
 20
-5.184655668506183
 30
0.0
 10
6.009644421576424
 20
-5.165806534073437
 30
0.0
 10
6.044613535599012
 20
-5.146938044449013
 30
0.0
 10
6.075241967239156
 20
-5.12361057169505
 30
0.0
 10
6.098999487887419
 20
-5.097602180887401
 30
0.0
 10
6.122772927065332
 20
-5.07157636337322
 30
0.0
 10
6.140321602208964
 20
-5.042140018244471
 30
0.0
 10
6.150184955432517
 20
-5.011628018807976
 30
0.0
 10
6.156687692340499
 20
-4.991511989261534
 30
0.0
 10
6.160000000015876
 20
-4.970633757754593
 30
0.0
 10
6.160000000015876
 20
-4.949747368535137
 30
0.0
 10
6.160000000015876
 20
-4.918119276989655
 30
0.0
 10
6.152283870713272
 20
-4.885735339437675
 30
0.0
 10
6.137494389106914
 20
-4.855327455436172
 30
0.0
 10
6.122705490254107
 20
-4.824920769603942
 30
0.0
 10
6.100437824112811
 20
-4.795656118320514
 30
0.0
 10
6.07253393820892
 20
-4.770073056520069
 30
0.0
 10
6.044601499731052
 20
-4.744463816922483
 30
0.0
 10
6.010251190515015
 20
-4.721844220214994
 30
0.0
 10
5.972318777755087
 20
-4.704230663397989
 30
0.0
 10
5.934360848810178
 20
-4.686605258382007
 30
0.0
 10
5.891766536211852
 20
-4.673513206881963
 30
0.0
 10
5.848066190948261
 20
-4.666149415589574
 30
0.0
 10
5.819255421148981
 20
-4.661294614225987
 30
0.0
 10
5.789537726896209
 20
-4.658816827997021
 30
0.0
 10
5.760000000015881
 20
-4.658816827997021
 30
0.0
  0
SPLINE
  5
121
330
1F
100
AcDbEntity
  8
SK1
  6
Continuous
100
AcDbSpline
210
0.0
220
0.0
230
1.0
 70
     8
 71
     3
 72
    35
 73
    31
 74
     0
 42
0.00000000921508
 43
0.0000000001
 12
1.0
 22
0.0
 32
0.0
 13
1.0
 23
0.0
 33
0.0
 40
0.0
 40
0.0
 40
0.0
 40
0.0
 40
0.1074218248776397
 40
0.1074218248776397
 40
0.1074218248776397
 40
0.2148406223731411
 40
0.2148406223731411
 40
0.2148406223731411
 40
0.3223048150134956
 40
0.3223048150134956
 40
0.3223048150134956
 40
0.4297999637724461
 40
0.4297999637724461
 40
0.4297999637724461
 40
0.4999997393719733
 40
0.4999997393719733
 40
0.4999997393719733
 40
0.6074217022503665
 40
0.6074217022503665
 40
0.6074217022503665
 40
0.7148406429014561
 40
0.7148406429014561
 40
0.7148406429014561
 40
0.8223049124041403
 40
0.8223049124041403
 40
0.8223049124041403
 40
0.9298001858709087
 40
0.9298001858709087
 40
0.9298001858709087
 40
1.0
 40
1.0
 40
1.0
 40
1.0
 10
5.760000000015878
 20
-7.490187484878192
 30
0.0
 10
5.804753035698204
 20
-7.490187484878192
 30
0.0
 10
5.850123172635308
 20
-7.495853120454199
 30
0.0
 10
5.892352646240157
 20
-7.50668274939312
 30
0.0
 10
5.934581443354181
 20
-7.517512204847884
 30
0.0
 10
5.974834226799012
 20
-7.533800755516731
 30
0.0
 10
6.009782924619573
 20
-7.554119775732572
 30
0.0
 10
6.044746150293087
 20
-7.574447242378643
 30
0.0
 10
6.075365251123073
 20
-7.599364668346447
 30
0.0
 10
6.099107121446458
 20
-7.626717199588462
 30
0.0
 10
6.122855420243642
 20
-7.654077136945836
 30
0.0
 10
6.14037763144194
 20
-7.684624756659558
 30
0.0
 10
6.150219761320762
 20
-7.715762840385313
 30
0.0
 10
6.156699796590356
 20
-7.736264081809154
 30
0.0
 10
6.160000000015876
 20
-7.75732541340589
 30
0.0
 10
6.160000000015876
 20
-7.778174493281324
 30
0.0
 10
6.160000000015876
 20
-7.809819676089525
 30
0.0
 10
6.152275906346368
 20
-7.841697482592256
 30
0.0
 10
6.137468896679876
 20
-7.871198925671941
 30
0.0
 10
6.122662123791142
 20
-7.900699896996311
 30
0.0
 10
6.10036505408883
 20
-7.928640980066719
 30
0.0
 10
6.072423522994473
 20
-7.952792140921805
 30
0.0
 10
6.044470393354616
 20
-7.976953326937545
 30
0.0
 10
6.010097251960792
 20
-7.99799229592775
 30
0.0
 10
5.972146992578305
 20
-8.014262538151463
 30
0.0
 10
5.934186441162113
 20
-8.030537192832012
 30
0.0
 10
5.891598808630036
 20
-8.042493412649293
 30
0.0
 10
5.847912059695869
 20
-8.049205808448688
 30
0.0
 10
5.819148823986104
 20
-8.05362523143771
 30
0.0
 10
5.789485037055948
 20
-8.05587290982743
 30
0.0
 10
5.760000000015874
 20
-8.05587290982743
 30
0.0
  0
LINE
  5
122
330
1F
100
AcDbEntity
  8
SK3
100
AcDbLine
 10
5.76
 20
-5.2245022529
 30
0.0
 11
-22.14
 21
-5.2245022529
 31
0.0
  0
LINE
  5
123
330
1F
100
AcDbEntity
  8
SK1
  6
Continuous
100
AcDbLine
 10
5.76
 20
-8.0558729098
 30
0.0
 11
5.76
 21
-7.4901874849
 31
0.0
  0
LINE
  5
124
330
1F
100
AcDbEntity
  8
SK3
100
AcDbLine
 10
-18.94
 20
-2.3048550128
 30
0.0
 11
11.46
 21
-2.3048550128
 31
0.0
  0
LINE
  5
125
330
1F
100
AcDbEntity
  8
SK3
100
AcDbLine
 10
6.16
 20
-6.9999999002
 30
0.0
 11
11.46
 21
-6.9999999002
 31
0.0
  0
LINE
  5
126
330
1F
100
AcDbEntity
  8
SK3
100
AcDbLine
 10
11.46
 20
7.0000000998
 30
0.0
 11
6.16
 21
7.0000000998
 31
0.0
  0
ARC
  5
127
330
1F
100
AcDbEntity
  8
SK3
100
AcDbCircle
 10
11.46
 20
7.2000000998
 30
0.0
 40
0.2000000000000016
100
AcDbArc
 50
270.0
 51
0.0
  0
ARC
  5
128
330
1F
100
AcDbEntity
  8
SK1
  6
Continuous
100
AcDbCircle
 10
11.41
 20
10.1189111865
 30
0.0
 40
0.2500000000000016
100
AcDbArc
 50
0.0
 51
60.0
  0
LINE
  5
129
330
1F
100
AcDbEntity
  8
SK1
  6
Continuous
100
AcDbLine
 10
11.535
 20
10.3354175375
 30
0.0
 11
7.0394228634
 21
12.9309402074
 31
0.0
  0
LINE
  5
12A
330
1F
100
AcDbEntity
  8
SK1
  6
Continuous
100
AcDbLine
 10
7.0394228634
 20
12.9309402074
 30
0.0
 11
6.66
 21
12.7118803151
 31
0.0
  0
LINE
  5
12B
330
1F
100
AcDbEntity
  8
SK1
  6
Continuous
100
AcDbLine
 10
6.46
 20
11.0000000998
 30
0.0
 11
6.16
 21
11.0000000998
 31
0.0
  0
ARC
  5
12C
330
1F
100
AcDbEntity
  8
SK1
  6
Continuous
100
AcDbCircle
 10
6.46
 20
11.2000000998
 30
0.0
 40
0.2000000000000005
100
AcDbArc
 50
270.0
 51
0.0
  0
ARC
  5
12D
330
1F
100
AcDbEntity
  8
SK3
100
AcDbCircle
 10
11.46
 20
-7.1999999002
 30
0.0
 40
0.2000000000000004
100
AcDbArc
 50
0.0
 51
90.0
  0
ARC
  5
12E
330
1F
100
AcDbEntity
  8
SK1
  6
Continuous
100
AcDbCircle
 10
11.41
 20
-10.118910987
 30
0.0
 40
0.2499999999999998
100
AcDbArc
 50
300.0
 51
360.0
  0
LINE
  5
12F
330
1F
100
AcDbEntity
  8
SK1
  6
Continuous
100
AcDbLine
 10
7.0394228634
 20
-12.9309400079
 30
0.0
 11
11.535
 21
-10.3354173379
 31
0.0
  0
LINE
  5
130
330
1F
100
AcDbEntity
  8
SK1
  6
Continuous
100
AcDbLine
 10
6.66
 20
-12.7118801156
 30
0.0
 11
7.0394228634
 21
-12.9309400079
 31
0.0
  0
LINE
  5
131
330
1F
100
AcDbEntity
  8
SK1
  6
Continuous
100
AcDbLine
 10
6.16
 20
-10.9999999002
 30
0.0
 11
6.46
 21
-10.9999999002
 31
0.0
  0
ARC
  5
132
330
1F
100
AcDbEntity
  8
SK1
  6
Continuous
100
AcDbCircle
 10
6.46
 20
-11.1999999002
 30
0.0
 40
0.1999999999999997
100
AcDbArc
 50
0.0
 51
90.0
  0
LINE
  5
133
330
1F
100
AcDbEntity
  8
SK3
100
AcDbLine
 10
-19.34
 20
-2.6787839268
 30
0.0
 11
-19.34
 21
-3.7432618586
 31
0.0
  0
LINE
  5
134
330
1F
100
AcDbEntity
  8
SK3
100
AcDbLine
 10
-19.34
 20
3.7432620582
 30
0.0
 11
-19.34
 21
2.6787841263
 31
0.0
  0
LINE
  5
135
330
1F
100
AcDbEntity
  8
SK3
100
AcDbLine
 10
6.16
 20
4.9497475681
 30
0.0
 11
6.16
 21
7.7781746928
 31
0.0
  0
LINE
  5
136
330
1F
100
AcDbEntity
  8
SK3
100
AcDbLine
 10
-19.34
 20
9.0370338872
 30
0.0
 11
-19.34
 21
6.4671568273
 31
0.0
  0
LINE
  5
137
330
1F
100
AcDbEntity
  8
SK3
100
AcDbLine
 10
6.16
 20
7.7781746928
 30
0.0
 11
6.16
 21
11.0000000998
 31
0.0
  0
LINE
  5
138
330
1F
100
AcDbEntity
  8
SK3
100
AcDbLine
 10
6.16
 20
-10.9999999002
 30
0.0
 11
6.16
 21
-7.7781744933
 31
0.0
  0
LINE
  5
139
330
1F
100
AcDbEntity
  8
SK3
100
AcDbLine
 10
-19.34
 20
-6.4671566278
 30
0.0
 11
-19.34
 21
-9.0370336877
 31
0.0
  0
LINE
  5
13A
330
1F
100
AcDbEntity
  8
SK3
100
AcDbLine
 10
6.16
 20
-7.7781744933
 30
0.0
 11
6.16
 21
-4.9497473685
 31
0.0
  0
LINE
  5
13B
330
1F
100
AcDbEntity
  8
SK1
  6
Continuous
100
AcDbLine
 10
0.0
 20
12.4932729677
 30
0.0
 11
0.0
 21
-12.4932727681
 31
0.0
  0
LINE
  5
13D
330
1F
100
AcDbEntity
  8
SK4
  6
Continuous
100
AcDbLine
 10
11.66
 20
0.0000000998
 30
0.0
 11
-22.34
 21
0.0000000998
 31
0.0
  0
DIMENSION
  5
152
330
1F
100
AcDbEntity
  8
SK2
  6
Continuous
 62
   136
100
AcDbDimension
  2
DMBLK37
 10
20.0147966883
 20
7.0000000998
 30
0.0
 11
20.0147966883
 21
-0.0000001163
 31
0.0
 70
   161
  1
\A1;ø <>
 71
     5
 42
-1.0
  3
DIN
100
AcDbAlignedDimension
 13
11.46
 23
7.0000000998
 33
0.0
 14
11.46
 24
-6.9999999002
 34
0.0
  0
DIMENSION
  5
15D
330
1F
100
AcDbEntity
  8
SK2
  6
Continuous
 62
   136
100
AcDbDimension
  2
DMBLK38
 10
11.66
 20
-20.5878079774
 30
0.0
 11
5.8300001547
 21
-20.5878079774
 31
0.0
 70
   160
  1
\A1;<>
 71
     5
 42
-1.0
  3
DIN
100
AcDbAlignedDimension
 13
0.0
 23
-12.4932727681
 33
0.0
 14
11.66
 24
-9.1882743346
 34
0.0
100
AcDbRotatedDimension
  0
DIMENSION
  5
167
330
1F
100
AcDbEntity
  8
SK2
  6
Continuous
 62
   136
100
AcDbDimension
  2
DMBLK39
 10
-27.8757009655
 20
12.4932729677
 30
0.0
 11
-27.8757009655
 21
-0.0000002756
 31
0.0
 70
   161
  1
\A1;ø <>
 71
     5
 42
-1.0
  3
DIN
100
AcDbAlignedDimension
 13
0.0
 23
12.4932729677
 33
0.0
 14
0.0
 24
-12.4932727681
 34
0.0
1001
ACAD
1000
DSTYLE
1002
{
1070
   271
1070
     1
1070
   272
1070
     1
1070
     0
1002
}
  0
DIMENSION
  5
172
330
1F
100
AcDbEntity
  8
SK2
  6
Continuous
 62
   136
100
AcDbDimension
  2
DMBLK40
 10
-22.34
 20
18.7205790205
 30
0.0
 11
-5.3399990761
 21
18.7205790205
 31
0.0
 70
   161
  1
\A1;<>
 71
     5
 42
-1.0
  3
DIN
100
AcDbAlignedDimension
 13
-22.34
 23
9.0904102324
 33
0.0
 14
11.66
 24
9.1882745341
 34
0.0
  0
ENDSEC
  0
SECTION
  2
OBJECTS
  0
DICTIONARY
  5
C
330
0
100
AcDbDictionary
281
     1
  3
ACAD_GROUP
350
D
  3
ACAD_LAYOUT
350
1A
  3
ACAD_MATERIAL
350
3B
  3
ACAD_MLEADERSTYLE
350
17E
  3
ACAD_MLINESTYLE
350
17
  3
ACAD_PLOTSETTINGS
350
19
  3
ACAD_PLOTSTYLENAME
350
E
  3
ACAD_VISUALSTYLE
350
2A
  3
AcDbVariableDictionary
350
17C
  0
DICTIONARY
  5
D
102
{ACAD_REACTORS
330
C
102
}
330
C
100
AcDbDictionary
281
     1
  0
DICTIONARY
  5
1A
102
{ACAD_REACTORS
330
C
102
}
330
C
100
AcDbDictionary
281
     1
  3
Layout1
350
1E
  3
Model
350
22
  0
DICTIONARY
  5
3B
102
{ACAD_REACTORS
330
C
102
}
330
C
100
AcDbDictionary
281
     1
  3
ByBlock
350
3D
  3
ByLayer
350
3C
  3
Global
350
3E
  0
DICTIONARY
  5
17E
102
{ACAD_REACTORS
330
C
102
}
330
C
100
AcDbDictionary
281
     1
  0
DICTIONARY
  5
17
102
{ACAD_REACTORS
330
C
102
}
330
C
100
AcDbDictionary
281
     1
  3
Standard
350
18
  0
DICTIONARY
  5
19
102
{ACAD_REACTORS
330
C
102
}
330
C
100
AcDbDictionary
281
     1
  0
ACDBDICTIONARYWDFLT
  5
E
102
{ACAD_REACTORS
330
C
102
}
330
C
100
AcDbDictionary
281
     1
  3
Normal
350
F
100
AcDbDictionaryWithDefault
340
F
  0
DICTIONARY
  5
2A
102
{ACAD_REACTORS
330
C
102
}
330
C
100
AcDbDictionary
281
     1
  3
2dWireframe
350
2F
  3
3D Hidden
350
31
  3
3dWireframe
350
30
  3
Basic
350
32
  3
Brighten
350
36
  3
ColorChange
350
3A
  3
Conceptual
350
34
  3
Dim
350
35
  3
Facepattern
350
39
  3
Flat
350
2B
  3
FlatWithEdges
350
2C
  3
Gouraud
350
2D
  3
GouraudWithEdges
350
2E
  3
Linepattern
350
38
  3
Realistic
350
33
  3
Thicken
350
37
  0
DICTIONARY
  5
17C
102
{ACAD_REACTORS
330
C
102
}
330
C
100
AcDbDictionary
281
     1
  3
DIMASSOC
350
181
  3
HIDETEXT
350
182
  3
PSOLHEIGHT
350
180
  3
PSOLWIDTH
350
17F
  0
LAYOUT
  5
1E
102
{ACAD_REACTORS
330
1A
102
}
330
1A
100
AcDbPlotSettings
  1

  2
none_device
  4

  6

 40
0.0
 41
0.0
 42
0.0
 43
0.0
 44
0.0
 45
0.0
 46
0.0
 47
0.0
 48
0.0
 49
0.0
140
0.0
141
0.0
142
1.0
143
1.0
 70
   688
 72
     0
 73
     0
 74
     5
  7

 75
    16
147
1.0
148
0.0
149
0.0
100
AcDbLayout
  1
Layout1
 70
     1
 71
     1
 10
0.0
 20
0.0
 11
210.0
 21
297.0
 12
0.0
 22
0.0
 32
0.0
 14
0.0
 24
0.0
 34
0.0
 15
210.0
 25
297.0
 35
0.0
146
0.0
 13
0.0
 23
0.0
 33
0.0
 16
1.0
 26
0.0
 36
0.0
 17
0.0
 27
1.0
 37
0.0
 76
     0
330
1B
  0
LAYOUT
  5
22
102
{ACAD_REACTORS
330
1A
102
}
330
1A
100
AcDbPlotSettings
  1

  2
none_device
  4

  6

 40
0.0
 41
0.0
 42
0.0
 43
0.0
 44
0.0
 45
0.0
 46
0.0
 47
0.0
 48
0.0
 49
0.0
140
0.0
141
0.0
142
1.0
143
1.0
 70
  1712
 72
     0
 73
     0
 74
     0
  7

 75
     0
147
1.0
148
0.0
149
0.0
100
AcDbLayout
  1
Model
 70
     1
 71
     0
 10
0.0
 20
0.0
 11
210.0
 21
297.0
 12
0.0
 22
0.0
 32
0.0
 14
0.0
 24
0.0
 34
0.0
 15
210.0
 25
297.0
 35
0.0
146
0.0
 13
0.0
 23
0.0
 33
0.0
 16
1.0
 26
0.0
 36
0.0
 17
0.0
 27
1.0
 37
0.0
 76
     0
330
1F
331
29
  0
MATERIAL
  5
3D
102
{ACAD_REACTORS
330
3B
102
}
102
{ACAD_XDICTIONARY
360
1A5
102
}
330
3B
100
AcDbMaterial
  1
ByBlock
  0
MATERIAL
  5
3C
102
{ACAD_REACTORS
330
3B
102
}
102
{ACAD_XDICTIONARY
360
1A3
102
}
330
3B
100
AcDbMaterial
  1
ByLayer
  0
MATERIAL
  5
3E
102
{ACAD_REACTORS
330
3B
102
}
102
{ACAD_XDICTIONARY
360
1A7
102
}
330
3B
100
AcDbMaterial
  1
Global
  0
MLINESTYLE
  5
18
102
{ACAD_REACTORS
330
17
102
}
330
17
100
AcDbMlineStyle
  2
Standard
 70
     0
  3

 62
   256
 51
90.0
 52
90.0
 71
     2
 49
0.5
 62
   256
  6
BYLAYER
 49
-0.5
 62
   256
  6
BYLAYER
  0
ACDBPLACEHOLDER
  5
F
102
{ACAD_REACTORS
330
E
102
}
330
E
  0
VISUALSTYLE
  5
2F
102
{ACAD_REACTORS
330
2A
102
}
102
{ACAD_XDICTIONARY
360
18B
102
}
330
2A
100
AcDbVisualStyle
  2
2dWireframe
 70
     4
 71
     0
 72
     2
 73
     0
 90
        0
 40
-0.6
 41
-30.0
 62
     5
 63
     7
 74
     1
 91
        4
 64
     7
 65
   257
 75
     1
175
     1
 42
1.0
 92
        0
 66
   257
 43
1.0
 76
     1
 77
     6
 78
     2
 67
     7
 79
     5
170
     0
171
     0
290
     0
174
     0
 93
        1
 44
0.0
173
     0
291
     0
 45
0.0
1001
ACAD
1000
AcDbSavedByObjectVersion
1070
     0
  0
VISUALSTYLE
  5
31
102
{ACAD_REACTORS
330
2A
102
}
102
{ACAD_XDICTIONARY
360
18F
102
}
330
2A
100
AcDbVisualStyle
  2
3D Hidden
 70
     6
 71
     1
 72
     2
 73
     2
 90
        0
 40
-0.6
 41
-30.0
 62
     5
 63
     7
 74
     2
 91
        2
 64
     7
 65
   257
 75
     2
175
     1
 42
40.0
 92
        0
 66
   257
 43
1.0
 76
     1
 77
     6
 78
     2
 67
     7
 79
     3
170
     0
171
     0
290
     0
174
     0
 93
        1
 44
0.0
173
     0
291
     0
 45
0.0
1001
ACAD
1000
AcDbSavedByObjectVersion
1070
     0
  0
VISUALSTYLE
  5
30
102
{ACAD_REACTORS
330
2A
102
}
102
{ACAD_XDICTIONARY
360
18D
102
}
330
2A
100
AcDbVisualStyle
  2
3dWireframe
 70
     5
 71
     0
 72
     2
 73
     0
 90
        0
 40
-0.6
 41
-30.0
 62
     5
 63
     7
 74
     1
 91
        4
 64
     7
 65
   257
 75
     1
175
     1
 42
1.0
 92
        0
 66
   257
 43
1.0
 76
     1
 77
     6
 78
     2
 67
     7
 79
     5
170
     0
171
     0
290
     0
174
     0
 93
        1
 44
0.0
173
     0
291
     0
 45
0.0
1001
ACAD
1000
AcDbSavedByObjectVersion
1070
     0
  0
VISUALSTYLE
  5
32
102
{ACAD_REACTORS
330
2A
102
}
102
{ACAD_XDICTIONARY
360
191
102
}
330
2A
100
AcDbVisualStyle
  2
Basic
 70
     7
 71
     1
 72
     0
 73
     1
 90
        0
 40
-0.6
 41
-30.0
 62
     5
 63
     7
 74
     0
 91
        4
 64
     7
 65
   257
 75
     1
175
     1
 42
1.0
 92
        8
 66
     7
 43
1.0
 76
     1
 77
     6
 78
     2
 67
     7
 79
     5
170
     0
171
     0
290
     0
174
     0
 93
        1
 44
0.0
173
     0
291
     1
 45
0.0
1001
ACAD
1000
AcDbSavedByObjectVersion
1070
     0
  0
VISUALSTYLE
  5
36
102
{ACAD_REACTORS
330
2A
102
}
102
{ACAD_XDICTIONARY
360
199
102
}
330
2A
100
AcDbVisualStyle
  2
Brighten
 70
    12
 71
     2
 72
     2
 73
     0
 90
        0
 40
-0.6
 41
-30.0
 62
     5
 63
     7
 74
     1
 91
        4
 64
     7
 65
   257
 75
     1
175
     1
 42
1.0
 92
        8
 66
     7
 43
1.0
 76
     1
 77
     6
 78
     2
 67
     7
 79
     5
170
     0
171
     0
290
     0
174
     0
 93
        1
 44
50.0
173
     0
291
     1
 45
0.0
1001
ACAD
1000
AcDbSavedByObjectVersion
1070
     0
  0
VISUALSTYLE
  5
3A
102
{ACAD_REACTORS
330
2A
102
}
102
{ACAD_XDICTIONARY
360
1A1
102
}
330
2A
100
AcDbVisualStyle
  2
ColorChange
 70
    16
 71
     2
 72
     2
 73
     3
 90
        0
 40
-0.6
 41
-30.0
 62
     5
 63
     8
 74
     1
 91
        4
 64
     7
 65
   257
 75
     1
175
     1
 42
1.0
 92
        8
 66
     8
 43
1.0
 76
     1
 77
     6
 78
     2
 67
     7
 79
     5
170
     0
171
     0
290
     0
174
     0
 93
        1
 44
0.0
173
     0
291
     1
 45
0.0
1001
ACAD
1000
AcDbSavedByObjectVersion
1070
     0
  0
VISUALSTYLE
  5
34
102
{ACAD_REACTORS
330
2A
102
}
102
{ACAD_XDICTIONARY
360
195
102
}
330
2A
100
AcDbVisualStyle
  2
Conceptual
 70
     9
 71
     3
 72
     2
 73
     0
 90
        0
 40
-0.6
 41
-30.0
 62
     5
 63
     7
 74
     2
 91
        2
 64
     7
 65
   257
 75
     1
175
     1
 42
40.0
 92
        8
 66
     7
 43
1.0
 76
     1
 77
     6
 78
     2
 67
     7
 79
     3
170
     0
171
     0
290
     0
174
     0
 93
        1
 44
0.0
173
     0
291
     0
 45
0.0
1001
ACAD
1000
AcDbSavedByObjectVersion
1070
     0
  0
VISUALSTYLE
  5
35
102
{ACAD_REACTORS
330
2A
102
}
102
{ACAD_XDICTIONARY
360
197
102
}
330
2A
100
AcDbVisualStyle
  2
Dim
 70
    11
 71
     2
 72
     2
 73
     0
 90
        0
 40
-0.6
 41
-30.0
 62
     5
 63
     7
 74
     1
 91
        4
 64
     7
 65
   257
 75
     1
175
     1
 42
1.0
 92
        8
 66
     7
 43
1.0
 76
     1
 77
     6
 78
     2
 67
     7
 79
     5
170
     0
171
     0
290
     0
174
     0
 93
        1
 44
-50.0
173
     0
291
     1
 45
0.0
1001
ACAD
1000
AcDbSavedByObjectVersion
1070
     0
  0
VISUALSTYLE
  5
39
102
{ACAD_REACTORS
330
2A
102
}
102
{ACAD_XDICTIONARY
360
19F
102
}
330
2A
100
AcDbVisualStyle
  2
Facepattern
 70
    15
 71
     2
 72
     2
 73
     0
 90
        0
 40
-0.6
 41
-30.0
 62
     5
 63
     7
 74
     1
 91
        4
 64
     7
 65
   257
 75
     1
175
     1
 42
1.0
 92
        8
 66
     7
 43
1.0
 76
     1
 77
     6
 78
     2
 67
     7
 79
     5
170
     0
171
     0
290
     0
174
     0
 93
        1
 44
0.0
173
     0
291
     1
 45
0.0
1001
ACAD
1000
AcDbSavedByObjectVersion
1070
     0
  0
VISUALSTYLE
  5
2B
102
{ACAD_REACTORS
330
2A
102
}
102
{ACAD_XDICTIONARY
360
183
102
}
330
2A
100
AcDbVisualStyle
  2
Flat
 70
     0
 71
     2
 72
     1
 73
     1
 90
        2
 40
-0.6
 41
30.0
 62
     5
 63
     7
 74
     0
 91
        4
 64
     7
 65
   257
 75
     1
175
     1
 42
1.0
 92
        8
 66
     7
 43
1.0
 76
     1
 77
     6
 78
     2
 67
     7
 79
     5
170
     0
171
     0
290
     0
174
     0
 93
       13
 44
0.0
173
     0
291
     1
 45
0.0
1001
ACAD
1000
AcDbSavedByObjectVersion
1070
     0
  0
VISUALSTYLE
  5
2C
102
{ACAD_REACTORS
330
2A
102
}
102
{ACAD_XDICTIONARY
360
185
102
}
330
2A
100
AcDbVisualStyle
  2
FlatWithEdges
 70
     1
 71
     2
 72
     1
 73
     1
 90
        2
 40
-0.6
 41
30.0
 62
     5
 63
     7
 74
     1
 91
        4
 64
     7
 65
   257
 75
     1
175
     1
 42
1.0
 92
        0
 66
   257
 43
1.0
 76
     1
 77
     6
 78
     2
 67
     7
 79
     5
170
     0
171
     0
290
     0
174
     0
 93
       13
 44
0.0
173
     0
291
     1
 45
0.0
1001
ACAD
1000
AcDbSavedByObjectVersion
1070
     0
  0
VISUALSTYLE
  5
2D
102
{ACAD_REACTORS
330
2A
102
}
102
{ACAD_XDICTIONARY
360
187
102
}
330
2A
100
AcDbVisualStyle
  2
Gouraud
 70
     2
 71
     2
 72
     2
 73
     1
 90
        2
 40
-0.6
 41
30.0
 62
     5
 63
     7
 74
     0
 91
        4
 64
     7
 65
   257
 75
     1
175
     1
 42
1.0
 92
        0
 66
     7
 43
1.0
 76
     1
 77
     6
 78
     2
 67
     7
 79
     5
170
     0
171
     0
290
     0
174
     0
 93
       13
 44
0.0
173
     0
291
     1
 45
0.0
1001
ACAD
1000
AcDbSavedByObjectVersion
1070
     0
  0
VISUALSTYLE
  5
2E
102
{ACAD_REACTORS
330
2A
102
}
102
{ACAD_XDICTIONARY
360
189
102
}
330
2A
100
AcDbVisualStyle
  2
GouraudWithEdges
 70
     3
 71
     2
 72
     2
 73
     1
 90
        2
 40
-0.6
 41
30.0
 62
     5
 63
     7
 74
     1
 91
        4
 64
     7
 65
   257
 75
     1
175
     1
 42
1.0
 92
        0
 66
   257
 43
1.0
 76
     1
 77
     6
 78
     2
 67
     7
 79
     5
170
     0
171
     0
290
     0
174
     0
 93
       13
 44
0.0
173
     0
291
     1
 45
0.0
1001
ACAD
1000
AcDbSavedByObjectVersion
1070
     0
  0
VISUALSTYLE
  5
38
102
{ACAD_REACTORS
330
2A
102
}
102
{ACAD_XDICTIONARY
360
19D
102
}
330
2A
100
AcDbVisualStyle
  2
Linepattern
 70
    14
 71
     2
 72
     2
 73
     0
 90
        0
 40
-0.6
 41
-30.0
 62
     5
 63
     7
 74
     1
 91
        4
 64
     7
 65
   257
 75
     7
175
     7
 42
1.0
 92
        8
 66
     7
 43
1.0
 76
     1
 77
     6
 78
     2
 67
     7
 79
     5
170
     0
171
     0
290
     0
174
     0
 93
        1
 44
0.0
173
     0
291
     1
 45
0.0
1001
ACAD
1000
AcDbSavedByObjectVersion
1070
     0
  0
VISUALSTYLE
  5
33
102
{ACAD_REACTORS
330
2A
102
}
102
{ACAD_XDICTIONARY
360
193
102
}
330
2A
100
AcDbVisualStyle
  2
Realistic
 70
     8
 71
     2
 72
     2
 73
     0
 90
        0
 40
-0.6
 41
-30.0
 62
     5
 63
     7
 74
     1
 91
        0
 64
     7
 65
   257
 75
     1
175
     1
 42
1.0
 92
        8
 66
     8
 43
1.0
 76
     1
 77
     6
 78
     2
 67
     7
 79
     5
170
     0
171
     0
290
     0
174
     0
 93
       13
 44
0.0
173
     0
291
     0
 45
0.0
1001
ACAD
1000
AcDbSavedByObjectVersion
1070
     0
  0
VISUALSTYLE
  5
37
102
{ACAD_REACTORS
330
2A
102
}
102
{ACAD_XDICTIONARY
360
19B
102
}
330
2A
100
AcDbVisualStyle
  2
Thicken
 70
    13
 71
     2
 72
     2
 73
     0
 90
        0
 40
-0.6
 41
-30.0
 62
     5
 63
     7
 74
     1
 91
        4
 64
     7
 65
   257
 75
     1
175
     1
 42
1.0
 92
       12
 66
     7
 43
1.0
 76
     1
 77
     6
 78
     2
 67
     7
 79
     5
170
     0
171
     0
290
     0
174
     0
 93
        1
 44
0.0
173
     0
291
     1
 45
0.0
1001
ACAD
1000
AcDbSavedByObjectVersion
1070
     0
  0
DICTIONARYVAR
  5
181
102
{ACAD_REACTORS
330
17C
102
}
330
17C
100
DictionaryVariables
280
     0
  1
2
  0
DICTIONARYVAR
  5
182
102
{ACAD_REACTORS
330
17C
102
}
330
17C
100
DictionaryVariables
280
     0
  1
1
  0
DICTIONARYVAR
  5
180
102
{ACAD_REACTORS
330
17C
102
}
330
17C
100
DictionaryVariables
280
     0
  1
80.000000
  0
DICTIONARYVAR
  5
17F
102
{ACAD_REACTORS
330
17C
102
}
330
17C
100
DictionaryVariables
280
     0
  1
5.000000
  0
DICTIONARY
  5
1A5
330
3D
100
AcDbDictionary
280
     1
281
     1
  3
ACAD_XREC_ROUNDTRIP
360
1A6
  0
DICTIONARY
  5
1A3
330
3C
100
AcDbDictionary
280
     1
281
     1
  3
ACAD_XREC_ROUNDTRIP
360
1A4
  0
DICTIONARY
  5
1A7
330
3E
100
AcDbDictionary
280
     1
281
     1
  3
ACAD_XREC_ROUNDTRIP
360
1A8
  0
DICTIONARY
  5
18B
330
2F
100
AcDbDictionary
280
     1
281
     1
  3
ACAD_XREC_ROUNDTRIP
360
18C
  0
DICTIONARY
  5
18F
330
31
100
AcDbDictionary
280
     1
281
     1
  3
ACAD_XREC_ROUNDTRIP
360
190
  0
DICTIONARY
  5
18D
330
30
100
AcDbDictionary
280
     1
281
     1
  3
ACAD_XREC_ROUNDTRIP
360
18E
  0
DICTIONARY
  5
191
330
32
100
AcDbDictionary
280
     1
281
     1
  3
ACAD_XREC_ROUNDTRIP
360
192
  0
DICTIONARY
  5
199
330
36
100
AcDbDictionary
280
     1
281
     1
  3
ACAD_XREC_ROUNDTRIP
360
19A
  0
DICTIONARY
  5
1A1
330
3A
100
AcDbDictionary
280
     1
281
     1
  3
ACAD_XREC_ROUNDTRIP
360
1A2
  0
DICTIONARY
  5
195
330
34
100
AcDbDictionary
280
     1
281
     1
  3
ACAD_XREC_ROUNDTRIP
360
196
  0
DICTIONARY
  5
197
330
35
100
AcDbDictionary
280
     1
281
     1
  3
ACAD_XREC_ROUNDTRIP
360
198
  0
DICTIONARY
  5
19F
330
39
100
AcDbDictionary
280
     1
281
     1
  3
ACAD_XREC_ROUNDTRIP
360
1A0
  0
DICTIONARY
  5
183
330
2B
100
AcDbDictionary
280
     1
281
     1
  3
ACAD_XREC_ROUNDTRIP
360
184
  0
DICTIONARY
  5
185
330
2C
100
AcDbDictionary
280
     1
281
     1
  3
ACAD_XREC_ROUNDTRIP
360
186
  0
DICTIONARY
  5
187
330
2D
100
AcDbDictionary
280
     1
281
     1
  3
ACAD_XREC_ROUNDTRIP
360
188
  0
DICTIONARY
  5
189
330
2E
100
AcDbDictionary
280
     1
281
     1
  3
ACAD_XREC_ROUNDTRIP
360
18A
  0
DICTIONARY
  5
19D
330
38
100
AcDbDictionary
280
     1
281
     1
  3
ACAD_XREC_ROUNDTRIP
360
19E
  0
DICTIONARY
  5
193
330
33
100
AcDbDictionary
280
     1
281
     1
  3
ACAD_XREC_ROUNDTRIP
360
194
  0
DICTIONARY
  5
19B
330
37
100
AcDbDictionary
280
     1
281
     1
  3
ACAD_XREC_ROUNDTRIP
360
19C
  0
XRECORD
  5
1A6
102
{ACAD_REACTORS
330
1A5
102
}
330
1A5
100
AcDbXrecord
280
     1
102
MATERIAL
148
0.0
149
0.0
149
0.0
 93
        0
 94
      127
282
     0
 72
     1
 77
     1
171
     1
175
     1
179
     1
273
     0
  0
XRECORD
  5
1A4
102
{ACAD_REACTORS
330
1A3
102
}
330
1A3
100
AcDbXrecord
280
     1
102
MATERIAL
148
0.0
149
0.0
149
0.0
 93
        0
 94
      127
282
     0
 72
     1
 77
     1
171
     1
175
     1
179
     1
273
     0
  0
XRECORD
  5
1A8
102
{ACAD_REACTORS
330
1A7
102
}
330
1A7
100
AcDbXrecord
280
     1
102
MATERIAL
148
0.0
149
0.0
149
0.0
 93
        0
 94
      127
282
     0
 72
     1
 77
     1
171
     1
175
     1
179
     1
273
     0
  0
XRECORD
  5
18C
102
{ACAD_REACTORS
330
18B
102
}
330
18B
100
AcDbXrecord
280
     1
102
RTVSPropertyOp0
 70
     1
102
RTVSPropertyOp1
 70
     1
102
RTVSPropertyOp2
 70
     1
102
RTVSPropertyOp3
 70
     1
102
RTVSPropertyOp4
 70
     1
102
RTVSPropertyOp5
 70
     1
102
RTVSPropertyOp6
 70
     1
102
RTVSPropertyOp7
 70
     1
102
RTVSPropertyOp8
 70
     1
102
RTVSPropertyOp9
 70
     1
102
RTVSPropertyOp10
 70
     1
102
RTVSPropertyOp11
 70
     1
102
RTVSPropertyOp12
 70
     1
102
RTVSPropertyOp13
 70
     1
102
RTVSPropertyOp14
 70
     1
102
RTVSPropertyOp15
 70
     1
102
RTVSPropertyOp16
 70
     1
102
RTVSPropertyOp17
 70
     1
102
RTVSPropertyOp18
 70
     1
102
RTVSPropertyOp19
 70
     1
102
RTVSPropertyOp20
 70
     1
102
RTVSPropertyOp21
 70
     1
102
RTVSPropertyOp22
 70
     1
102
RTVSPropertyOp23
 70
     1
102
RTVSPropertyOp24
 70
     1
102
RTVSPropertyOp25
 70
     1
102
RTVSPropertyOp26
 70
     1
102
RTVSPropertyOp27
 70
     1
102
RTVSPropertyOp28
 70
     1
102
RTVSPropertyOp29
 70
     1
102
RTVSPropertyOp30
 70
     1
102
RTVSPropertyOp31
 70
     1
102
RTVSPropertyOp32
 70
     1
  0
XRECORD
  5
190
102
{ACAD_REACTORS
330
18F
102
}
330
18F
100
AcDbXrecord
280
     1
102
RTVSPropertyOp0
 70
     1
102
RTVSPropertyOp1
 70
     1
102
RTVSPropertyOp2
 70
     1
102
RTVSPropertyOp3
 70
     1
102
RTVSPropertyOp4
 70
     1
102
RTVSPropertyOp5
 70
     1
102
RTVSPropertyOp6
 70
     1
102
RTVSPropertyOp7
 70
     1
102
RTVSPropertyOp8
 70
     1
102
RTVSPropertyOp9
 70
     1
102
RTVSPropertyOp10
 70
     1
102
RTVSPropertyOp11
 70
     1
102
RTVSPropertyOp12
 70
     1
102
RTVSPropertyOp13
 70
     1
102
RTVSPropertyOp14
 70
     1
102
RTVSPropertyOp15
 70
     1
102
RTVSPropertyOp16
 70
     1
102
RTVSPropertyOp17
 70
     1
102
RTVSPropertyOp18
 70
     1
102
RTVSPropertyOp19
 70
     1
102
RTVSPropertyOp20
 70
     1
102
RTVSPropertyOp21
 70
     1
102
RTVSPropertyOp22
 70
     1
102
RTVSPropertyOp23
 70
     1
102
RTVSPropertyOp24
 70
     1
102
RTVSPropertyOp25
 70
     1
102
RTVSPropertyOp26
 70
     1
102
RTVSPropertyOp27
 70
     1
102
RTVSPropertyOp28
 70
     1
102
RTVSPropertyOp29
 70
     1
102
RTVSPropertyOp30
 70
     1
102
RTVSPropertyOp31
 70
     1
102
RTVSPropertyOp32
 70
     1
  0
XRECORD
  5
18E
102
{ACAD_REACTORS
330
18D
102
}
330
18D
100
AcDbXrecord
280
     1
102
RTVSPropertyOp0
 70
     1
102
RTVSPropertyOp1
 70
     1
102
RTVSPropertyOp2
 70
     1
102
RTVSPropertyOp3
 70
     1
102
RTVSPropertyOp4
 70
     1
102
RTVSPropertyOp5
 70
     1
102
RTVSPropertyOp6
 70
     1
102
RTVSPropertyOp7
 70
     1
102
RTVSPropertyOp8
 70
     1
102
RTVSPropertyOp9
 70
     1
102
RTVSPropertyOp10
 70
     1
102
RTVSPropertyOp11
 70
     1
102
RTVSPropertyOp12
 70
     1
102
RTVSPropertyOp13
 70
     1
102
RTVSPropertyOp14
 70
     1
102
RTVSPropertyOp15
 70
     1
102
RTVSPropertyOp16
 70
     1
102
RTVSPropertyOp17
 70
     1
102
RTVSPropertyOp18
 70
     1
102
RTVSPropertyOp19
 70
     1
102
RTVSPropertyOp20
 70
     1
102
RTVSPropertyOp21
 70
     1
102
RTVSPropertyOp22
 70
     1
102
RTVSPropertyOp23
 70
     1
102
RTVSPropertyOp24
 70
     1
102
RTVSPropertyOp25
 70
     1
102
RTVSPropertyOp26
 70
     1
102
RTVSPropertyOp27
 70
     1
102
RTVSPropertyOp28
 70
     1
102
RTVSPropertyOp29
 70
     1
102
RTVSPropertyOp30
 70
     1
102
RTVSPropertyOp31
 70
     1
102
RTVSPropertyOp32
 70
     1
  0
XRECORD
  5
192
102
{ACAD_REACTORS
330
191
102
}
330
191
100
AcDbXrecord
280
     1
102
RTVSPropertyOp0
 70
     1
102
RTVSPropertyOp1
 70
     1
102
RTVSPropertyOp2
 70
     1
102
RTVSPropertyOp3
 70
     1
102
RTVSPropertyOp4
 70
     1
102
RTVSPropertyOp5
 70
     1
102
RTVSPropertyOp6
 70
     1
102
RTVSPropertyOp7
 70
     1
102
RTVSPropertyOp8
 70
     1
102
RTVSPropertyOp9
 70
     1
102
RTVSPropertyOp10
 70
     1
102
RTVSPropertyOp11
 70
     1
102
RTVSPropertyOp12
 70
     1
102
RTVSPropertyOp13
 70
     1
102
RTVSPropertyOp14
 70
     1
102
RTVSPropertyOp15
 70
     1
102
RTVSPropertyOp16
 70
     1
102
RTVSPropertyOp17
 70
     1
102
RTVSPropertyOp18
 70
     1
102
RTVSPropertyOp19
 70
     1
102
RTVSPropertyOp20
 70
     1
102
RTVSPropertyOp21
 70
     1
102
RTVSPropertyOp22
 70
     1
102
RTVSPropertyOp23
 70
     1
102
RTVSPropertyOp24
 70
     1
102
RTVSPropertyOp25
 70
     1
102
RTVSPropertyOp26
 70
     1
102
RTVSPropertyOp27
 70
     1
102
RTVSPropertyOp28
 70
     1
102
RTVSPropertyOp29
 70
     1
102
RTVSPropertyOp30
 70
     1
102
RTVSPropertyOp31
 70
     1
102
RTVSPropertyOp32
 70
     1
  0
XRECORD
  5
19A
102
{ACAD_REACTORS
330
199
102
}
330
199
100
AcDbXrecord
280
     1
102
RTVSPropertyOp0
 70
     1
102
RTVSPropertyOp1
 70
     1
102
RTVSPropertyOp2
 70
     1
102
RTVSPropertyOp3
 70
     1
102
RTVSPropertyOp4
 70
     1
102
RTVSPropertyOp5
 70
     1
102
RTVSPropertyOp6
 70
     1
102
RTVSPropertyOp7
 70
     1
102
RTVSPropertyOp8
 70
     1
102
RTVSPropertyOp9
 70
     1
102
RTVSPropertyOp10
 70
     1
102
RTVSPropertyOp11
 70
     1
102
RTVSPropertyOp12
 70
     1
102
RTVSPropertyOp13
 70
     1
102
RTVSPropertyOp14
 70
     1
102
RTVSPropertyOp15
 70
     1
102
RTVSPropertyOp16
 70
     1
102
RTVSPropertyOp17
 70
     1
102
RTVSPropertyOp18
 70
     1
102
RTVSPropertyOp19
 70
     1
102
RTVSPropertyOp20
 70
     1
102
RTVSPropertyOp21
 70
     1
102
RTVSPropertyOp22
 70
     1
102
RTVSPropertyOp23
 70
     1
102
RTVSPropertyOp24
 70
     1
102
RTVSPropertyOp25
 70
     1
102
RTVSPropertyOp26
 70
     1
102
RTVSPropertyOp27
 70
     1
102
RTVSPropertyOp28
 70
     1
102
RTVSPropertyOp29
 70
     1
102
RTVSPropertyOp30
 70
     1
102
RTVSPropertyOp31
 70
     1
102
RTVSPropertyOp32
 70
     1
  0
XRECORD
  5
1A2
102
{ACAD_REACTORS
330
1A1
102
}
330
1A1
100
AcDbXrecord
280
     1
102
RTVSPropertyOp0
 70
     1
102
RTVSPropertyOp1
 70
     1
102
RTVSPropertyOp2
 70
     1
102
RTVSPropertyOp3
 70
     1
102
RTVSPropertyOp4
 70
     1
102
RTVSPropertyOp5
 70
     1
102
RTVSPropertyOp6
 70
     1
102
RTVSPropertyOp7
 70
     1
102
RTVSPropertyOp8
 70
     1
102
RTVSPropertyOp9
 70
     1
102
RTVSPropertyOp10
 70
     1
102
RTVSPropertyOp11
 70
     1
102
RTVSPropertyOp12
 70
     1
102
RTVSPropertyOp13
 70
     1
102
RTVSPropertyOp14
 70
     1
102
RTVSPropertyOp15
 70
     1
102
RTVSPropertyOp16
 70
     1
102
RTVSPropertyOp17
 70
     1
102
RTVSPropertyOp18
 70
     1
102
RTVSPropertyOp19
 70
     1
102
RTVSPropertyOp20
 70
     1
102
RTVSPropertyOp21
 70
     1
102
RTVSPropertyOp22
 70
     1
102
RTVSPropertyOp23
 70
     1
102
RTVSPropertyOp24
 70
     1
102
RTVSPropertyOp25
 70
     1
102
RTVSPropertyOp26
 70
     1
102
RTVSPropertyOp27
 70
     1
102
RTVSPropertyOp28
 70
     1
102
RTVSPropertyOp29
 70
     1
102
RTVSPropertyOp30
 70
     1
102
RTVSPropertyOp31
 70
     1
102
RTVSPropertyOp32
 70
     1
  0
XRECORD
  5
196
102
{ACAD_REACTORS
330
195
102
}
330
195
100
AcDbXrecord
280
     1
102
RTVSPropertyOp0
 70
     1
102
RTVSPropertyOp1
 70
     1
102
RTVSPropertyOp2
 70
     1
102
RTVSPropertyOp3
 70
     1
102
RTVSPropertyOp4
 70
     1
102
RTVSPropertyOp5
 70
     1
102
RTVSPropertyOp6
 70
     1
102
RTVSPropertyOp7
 70
     1
102
RTVSPropertyOp8
 70
     1
102
RTVSPropertyOp9
 70
     1
102
RTVSPropertyOp10
 70
     1
102
RTVSPropertyOp11
 70
     1
102
RTVSPropertyOp12
 70
     1
102
RTVSPropertyOp13
 70
     1
102
RTVSPropertyOp14
 70
     1
102
RTVSPropertyOp15
 70
     1
102
RTVSPropertyOp16
 70
     1
102
RTVSPropertyOp17
 70
     1
102
RTVSPropertyOp18
 70
     1
102
RTVSPropertyOp19
 70
     1
102
RTVSPropertyOp20
 70
     1
102
RTVSPropertyOp21
 70
     1
102
RTVSPropertyOp22
 70
     1
102
RTVSPropertyOp23
 70
     1
102
RTVSPropertyOp24
 70
     1
102
RTVSPropertyOp25
 70
     1
102
RTVSPropertyOp26
 70
     1
102
RTVSPropertyOp27
 70
     1
102
RTVSPropertyOp28
 70
     1
102
RTVSPropertyOp29
 70
     1
102
RTVSPropertyOp30
 70
     1
102
RTVSPropertyOp31
 70
     1
102
RTVSPropertyOp32
 70
     1
  0
XRECORD
  5
198
102
{ACAD_REACTORS
330
197
102
}
330
197
100
AcDbXrecord
280
     1
102
RTVSPropertyOp0
 70
     1
102
RTVSPropertyOp1
 70
     1
102
RTVSPropertyOp2
 70
     1
102
RTVSPropertyOp3
 70
     1
102
RTVSPropertyOp4
 70
     1
102
RTVSPropertyOp5
 70
     1
102
RTVSPropertyOp6
 70
     1
102
RTVSPropertyOp7
 70
     1
102
RTVSPropertyOp8
 70
     1
102
RTVSPropertyOp9
 70
     1
102
RTVSPropertyOp10
 70
     1
102
RTVSPropertyOp11
 70
     1
102
RTVSPropertyOp12
 70
     1
102
RTVSPropertyOp13
 70
     1
102
RTVSPropertyOp14
 70
     1
102
RTVSPropertyOp15
 70
     1
102
RTVSPropertyOp16
 70
     1
102
RTVSPropertyOp17
 70
     1
102
RTVSPropertyOp18
 70
     1
102
RTVSPropertyOp19
 70
     1
102
RTVSPropertyOp20
 70
     1
102
RTVSPropertyOp21
 70
     1
102
RTVSPropertyOp22
 70
     1
102
RTVSPropertyOp23
 70
     1
102
RTVSPropertyOp24
 70
     1
102
RTVSPropertyOp25
 70
     1
102
RTVSPropertyOp26
 70
     1
102
RTVSPropertyOp27
 70
     1
102
RTVSPropertyOp28
 70
     1
102
RTVSPropertyOp29
 70
     1
102
RTVSPropertyOp30
 70
     1
102
RTVSPropertyOp31
 70
     1
102
RTVSPropertyOp32
 70
     1
  0
XRECORD
  5
1A0
102
{ACAD_REACTORS
330
19F
102
}
330
19F
100
AcDbXrecord
280
     1
102
RTVSPropertyOp0
 70
     1
102
RTVSPropertyOp1
 70
     1
102
RTVSPropertyOp2
 70
     1
102
RTVSPropertyOp3
 70
     1
102
RTVSPropertyOp4
 70
     1
102
RTVSPropertyOp5
 70
     1
102
RTVSPropertyOp6
 70
     1
102
RTVSPropertyOp7
 70
     1
102
RTVSPropertyOp8
 70
     1
102
RTVSPropertyOp9
 70
     1
102
RTVSPropertyOp10
 70
     1
102
RTVSPropertyOp11
 70
     1
102
RTVSPropertyOp12
 70
     1
102
RTVSPropertyOp13
 70
     1
102
RTVSPropertyOp14
 70
     1
102
RTVSPropertyOp15
 70
     1
102
RTVSPropertyOp16
 70
     1
102
RTVSPropertyOp17
 70
     1
102
RTVSPropertyOp18
 70
     1
102
RTVSPropertyOp19
 70
     1
102
RTVSPropertyOp20
 70
     1
102
RTVSPropertyOp21
 70
     1
102
RTVSPropertyOp22
 70
     1
102
RTVSPropertyOp23
 70
     1
102
RTVSPropertyOp24
 70
     1
102
RTVSPropertyOp25
 70
     1
102
RTVSPropertyOp26
 70
     1
102
RTVSPropertyOp27
 70
     1
102
RTVSPropertyOp28
 70
     1
102
RTVSPropertyOp29
 70
     1
102
RTVSPropertyOp30
 70
     1
102
RTVSPropertyOp31
 70
     1
102
RTVSPropertyOp32
 70
     1
  0
XRECORD
  5
184
102
{ACAD_REACTORS
330
183
102
}
330
183
100
AcDbXrecord
280
     1
102
RTVSPropertyOp0
 70
     1
102
RTVSPropertyOp1
 70
     1
102
RTVSPropertyOp2
 70
     1
102
RTVSPropertyOp3
 70
     1
102
RTVSPropertyOp4
 70
     1
102
RTVSPropertyOp5
 70
     1
102
RTVSPropertyOp6
 70
     1
102
RTVSPropertyOp7
 70
     1
102
RTVSPropertyOp8
 70
     1
102
RTVSPropertyOp9
 70
     1
102
RTVSPropertyOp10
 70
     1
102
RTVSPropertyOp11
 70
     1
102
RTVSPropertyOp12
 70
     1
102
RTVSPropertyOp13
 70
     1
102
RTVSPropertyOp14
 70
     1
102
RTVSPropertyOp15
 70
     1
102
RTVSPropertyOp16
 70
     1
102
RTVSPropertyOp17
 70
     1
102
RTVSPropertyOp18
 70
     1
102
RTVSPropertyOp19
 70
     1
102
RTVSPropertyOp20
 70
     1
102
RTVSPropertyOp21
 70
     1
102
RTVSPropertyOp22
 70
     1
102
RTVSPropertyOp23
 70
     1
102
RTVSPropertyOp24
 70
     1
102
RTVSPropertyOp25
 70
     1
102
RTVSPropertyOp26
 70
     1
102
RTVSPropertyOp27
 70
     1
102
RTVSPropertyOp28
 70
     1
102
RTVSPropertyOp29
 70
     1
102
RTVSPropertyOp30
 70
     1
102
RTVSPropertyOp31
 70
     1
102
RTVSPropertyOp32
 70
     1
  0
XRECORD
  5
186
102
{ACAD_REACTORS
330
185
102
}
330
185
100
AcDbXrecord
280
     1
102
RTVSPropertyOp0
 70
     1
102
RTVSPropertyOp1
 70
     1
102
RTVSPropertyOp2
 70
     1
102
RTVSPropertyOp3
 70
     1
102
RTVSPropertyOp4
 70
     1
102
RTVSPropertyOp5
 70
     1
102
RTVSPropertyOp6
 70
     1
102
RTVSPropertyOp7
 70
     1
102
RTVSPropertyOp8
 70
     1
102
RTVSPropertyOp9
 70
     1
102
RTVSPropertyOp10
 70
     1
102
RTVSPropertyOp11
 70
     1
102
RTVSPropertyOp12
 70
     1
102
RTVSPropertyOp13
 70
     1
102
RTVSPropertyOp14
 70
     1
102
RTVSPropertyOp15
 70
     1
102
RTVSPropertyOp16
 70
     1
102
RTVSPropertyOp17
 70
     1
102
RTVSPropertyOp18
 70
     1
102
RTVSPropertyOp19
 70
     1
102
RTVSPropertyOp20
 70
     1
102
RTVSPropertyOp21
 70
     1
102
RTVSPropertyOp22
 70
     1
102
RTVSPropertyOp23
 70
     1
102
RTVSPropertyOp24
 70
     1
102
RTVSPropertyOp25
 70
     1
102
RTVSPropertyOp26
 70
     1
102
RTVSPropertyOp27
 70
     1
102
RTVSPropertyOp28
 70
     1
102
RTVSPropertyOp29
 70
     1
102
RTVSPropertyOp30
 70
     1
102
RTVSPropertyOp31
 70
     1
102
RTVSPropertyOp32
 70
     1
  0
XRECORD
  5
188
102
{ACAD_REACTORS
330
187
102
}
330
187
100
AcDbXrecord
280
     1
102
RTVSPropertyOp0
 70
     1
102
RTVSPropertyOp1
 70
     1
102
RTVSPropertyOp2
 70
     1
102
RTVSPropertyOp3
 70
     1
102
RTVSPropertyOp4
 70
     1
102
RTVSPropertyOp5
 70
     1
102
RTVSPropertyOp6
 70
     1
102
RTVSPropertyOp7
 70
     1
102
RTVSPropertyOp8
 70
     1
102
RTVSPropertyOp9
 70
     1
102
RTVSPropertyOp10
 70
     1
102
RTVSPropertyOp11
 70
     1
102
RTVSPropertyOp12
 70
     1
102
RTVSPropertyOp13
 70
     1
102
RTVSPropertyOp14
 70
     1
102
RTVSPropertyOp15
 70
     1
102
RTVSPropertyOp16
 70
     1
102
RTVSPropertyOp17
 70
     1
102
RTVSPropertyOp18
 70
     1
102
RTVSPropertyOp19
 70
     1
102
RTVSPropertyOp20
 70
     1
102
RTVSPropertyOp21
 70
     1
102
RTVSPropertyOp22
 70
     1
102
RTVSPropertyOp23
 70
     1
102
RTVSPropertyOp24
 70
     1
102
RTVSPropertyOp25
 70
     1
102
RTVSPropertyOp26
 70
     1
102
RTVSPropertyOp27
 70
     1
102
RTVSPropertyOp28
 70
     1
102
RTVSPropertyOp29
 70
     1
102
RTVSPropertyOp30
 70
     1
102
RTVSPropertyOp31
 70
     1
102
RTVSPropertyOp32
 70
     1
  0
XRECORD
  5
18A
102
{ACAD_REACTORS
330
189
102
}
330
189
100
AcDbXrecord
280
     1
102
RTVSPropertyOp0
 70
     1
102
RTVSPropertyOp1
 70
     1
102
RTVSPropertyOp2
 70
     1
102
RTVSPropertyOp3
 70
     1
102
RTVSPropertyOp4
 70
     1
102
RTVSPropertyOp5
 70
     1
102
RTVSPropertyOp6
 70
     1
102
RTVSPropertyOp7
 70
     1
102
RTVSPropertyOp8
 70
     1
102
RTVSPropertyOp9
 70
     1
102
RTVSPropertyOp10
 70
     1
102
RTVSPropertyOp11
 70
     1
102
RTVSPropertyOp12
 70
     1
102
RTVSPropertyOp13
 70
     1
102
RTVSPropertyOp14
 70
     1
102
RTVSPropertyOp15
 70
     1
102
RTVSPropertyOp16
 70
     1
102
RTVSPropertyOp17
 70
     1
102
RTVSPropertyOp18
 70
     1
102
RTVSPropertyOp19
 70
     1
102
RTVSPropertyOp20
 70
     1
102
RTVSPropertyOp21
 70
     1
102
RTVSPropertyOp22
 70
     1
102
RTVSPropertyOp23
 70
     1
102
RTVSPropertyOp24
 70
     1
102
RTVSPropertyOp25
 70
     1
102
RTVSPropertyOp26
 70
     1
102
RTVSPropertyOp27
 70
     1
102
RTVSPropertyOp28
 70
     1
102
RTVSPropertyOp29
 70
     1
102
RTVSPropertyOp30
 70
     1
102
RTVSPropertyOp31
 70
     1
102
RTVSPropertyOp32
 70
     1
  0
XRECORD
  5
19E
102
{ACAD_REACTORS
330
19D
102
}
330
19D
100
AcDbXrecord
280
     1
102
RTVSPropertyOp0
 70
     1
102
RTVSPropertyOp1
 70
     1
102
RTVSPropertyOp2
 70
     1
102
RTVSPropertyOp3
 70
     1
102
RTVSPropertyOp4
 70
     1
102
RTVSPropertyOp5
 70
     1
102
RTVSPropertyOp6
 70
     1
102
RTVSPropertyOp7
 70
     1
102
RTVSPropertyOp8
 70
     1
102
RTVSPropertyOp9
 70
     1
102
RTVSPropertyOp10
 70
     1
102
RTVSPropertyOp11
 70
     1
102
RTVSPropertyOp12
 70
     1
102
RTVSPropertyOp13
 70
     1
102
RTVSPropertyOp14
 70
     1
102
RTVSPropertyOp15
 70
     1
102
RTVSPropertyOp16
 70
     1
102
RTVSPropertyOp17
 70
     1
102
RTVSPropertyOp18
 70
     1
102
RTVSPropertyOp19
 70
     1
102
RTVSPropertyOp20
 70
     1
102
RTVSPropertyOp21
 70
     1
102
RTVSPropertyOp22
 70
     1
102
RTVSPropertyOp23
 70
     1
102
RTVSPropertyOp24
 70
     1
102
RTVSPropertyOp25
 70
     1
102
RTVSPropertyOp26
 70
     1
102
RTVSPropertyOp27
 70
     1
102
RTVSPropertyOp28
 70
     1
102
RTVSPropertyOp29
 70
     1
102
RTVSPropertyOp30
 70
     1
102
RTVSPropertyOp31
 70
     1
102
RTVSPropertyOp32
 70
     1
  0
XRECORD
  5
194
102
{ACAD_REACTORS
330
193
102
}
330
193
100
AcDbXrecord
280
     1
102
RTVSPropertyOp0
 70
     1
102
RTVSPropertyOp1
 70
     1
102
RTVSPropertyOp2
 70
     1
102
RTVSPropertyOp3
 70
     1
102
RTVSPropertyOp4
 70
     1
102
RTVSPropertyOp5
 70
     1
102
RTVSPropertyOp6
 70
     1
102
RTVSPropertyOp7
 70
     1
102
RTVSPropertyOp8
 70
     1
102
RTVSPropertyOp9
 70
     1
102
RTVSPropertyOp10
 70
     1
102
RTVSPropertyOp11
 70
     1
102
RTVSPropertyOp12
 70
     1
102
RTVSPropertyOp13
 70
     1
102
RTVSPropertyOp14
 70
     1
102
RTVSPropertyOp15
 70
     1
102
RTVSPropertyOp16
 70
     1
102
RTVSPropertyOp17
 70
     1
102
RTVSPropertyOp18
 70
     1
102
RTVSPropertyOp19
 70
     1
102
RTVSPropertyOp20
 70
     1
102
RTVSPropertyOp21
 70
     1
102
RTVSPropertyOp22
 70
     1
102
RTVSPropertyOp23
 70
     1
102
RTVSPropertyOp24
 70
     1
102
RTVSPropertyOp25
 70
     1
102
RTVSPropertyOp26
 70
     1
102
RTVSPropertyOp27
 70
     1
102
RTVSPropertyOp28
 70
     1
102
RTVSPropertyOp29
 70
     1
102
RTVSPropertyOp30
 70
     1
102
RTVSPropertyOp31
 70
     1
102
RTVSPropertyOp32
 70
     1
  0
XRECORD
  5
19C
102
{ACAD_REACTORS
330
19B
102
}
330
19B
100
AcDbXrecord
280
     1
102
RTVSPropertyOp0
 70
     1
102
RTVSPropertyOp1
 70
     1
102
RTVSPropertyOp2
 70
     1
102
RTVSPropertyOp3
 70
     1
102
RTVSPropertyOp4
 70
     1
102
RTVSPropertyOp5
 70
     1
102
RTVSPropertyOp6
 70
     1
102
RTVSPropertyOp7
 70
     1
102
RTVSPropertyOp8
 70
     1
102
RTVSPropertyOp9
 70
     1
102
RTVSPropertyOp10
 70
     1
102
RTVSPropertyOp11
 70
     1
102
RTVSPropertyOp12
 70
     1
102
RTVSPropertyOp13
 70
     1
102
RTVSPropertyOp14
 70
     1
102
RTVSPropertyOp15
 70
     1
102
RTVSPropertyOp16
 70
     1
102
RTVSPropertyOp17
 70
     1
102
RTVSPropertyOp18
 70
     1
102
RTVSPropertyOp19
 70
     1
102
RTVSPropertyOp20
 70
     1
102
RTVSPropertyOp21
 70
     1
102
RTVSPropertyOp22
 70
     1
102
RTVSPropertyOp23
 70
     1
102
RTVSPropertyOp24
 70
     1
102
RTVSPropertyOp25
 70
     1
102
RTVSPropertyOp26
 70
     1
102
RTVSPropertyOp27
 70
     1
102
RTVSPropertyOp28
 70
     1
102
RTVSPropertyOp29
 70
     1
102
RTVSPropertyOp30
 70
     1
102
RTVSPropertyOp31
 70
     1
102
RTVSPropertyOp32
 70
     1
  0
ENDSEC
  0
EOF
