  0
SECTION
  2
HEADER
  9
$ACADVER
  1
AC1015
  9
$ACADMAINTVER
 70
     6
  9
$DWGCODEPAGE
  3
ANSI_1252
  9
$INSBASE
 10
0.0
 20
0.0
 30
0.0
  9
$EXTMIN
 10
0.0
 20
0.0
 30
0.0
  9
$EXTMAX
 10
210.0
 20
297.0
 30
0.0
  9
$LIMMIN
 10
0.0
 20
0.0
  9
$LIMMAX
 10
210.0
 20
297.0
  9
$ORTHOMODE
 70
     0
  9
$REGENMODE
 70
     1
  9
$FILLMODE
 70
     1
  9
$QTEXTMODE
 70
     0
  9
$MIRRTEXT
 70
     1
  9
$LTSCALE
 40
1.0
  9
$ATTMODE
 70
     1
  9
$TEXTSIZE
 40
2.5
  9
$TRACEWID
 40
1.0
  9
$TEXTSTYLE
  7
Standard
  9
$CLAYER
  8
0
  9
$CELTYPE
  6
ByLayer
  9
$CECOLOR
 62
   256
  9
$CELTSCALE
 40
1.0
  9
$DISPSILH
 70
     0
  9
$DIMSCALE
 40
1.0
  9
$DIMASZ
 40
2.5
  9
$DIMEXO
 40
0.625
  9
$DIMDLI
 40
3.75
  9
$DIMRND
 40
0.0
  9
$DIMDLE
 40
0.0
  9
$DIMEXE
 40
1.25
  9
$DIMTP
 40
0.0
  9
$DIMTM
 40
0.0
  9
$DIMTXT
 40
2.5
  9
$DIMCEN
 40
2.5
  9
$DIMTSZ
 40
0.0
  9
$DIMTOL
 70
     0
  9
$DIMLIM
 70
     0
  9
$DIMTIH
 70
     0
  9
$DIMTOH
 70
     0
  9
$DIMSE1
 70
     0
  9
$DIMSE2
 70
     0
  9
$DIMTAD
 70
     1
  9
$DIMZIN
 70
     8
  9
$DIMBLK
  1

  9
$DIMASO
 70
     1
  9
$DIMSHO
 70
     1
  9
$DIMPOST
  1

  9
$DIMAPOST
  1

  9
$DIMALT
 70
     0
  9
$DIMALTD
 70
     3
  9
$DIMALTF
 40
0.0393700787
  9
$DIMLFAC
 40
1.0
  9
$DIMTOFL
 70
     1
  9
$DIMTVP
 40
0.0
  9
$DIMTIX
 70
     0
  9
$DIMSOXD
 70
     0
  9
$DIMSAH
 70
     0
  9
$DIMBLK1
  1

  9
$DIMBLK2
  1

  9
$DIMSTYLE
  2
ISO-25
  9
$DIMCLRD
 70
     0
  9
$DIMCLRE
 70
     0
  9
$DIMCLRT
 70
     0
  9
$DIMTFAC
 40
1.0
  9
$DIMGAP
 40
0.625
  9
$DIMJUST
 70
     0
  9
$DIMSD1
 70
     0
  9
$DIMSD2
 70
     0
  9
$DIMTOLJ
 70
     0
  9
$DIMTZIN
 70
     8
  9
$DIMALTZ
 70
     0
  9
$DIMALTTZ
 70
     0
  9
$DIMUPT
 70
     0
  9
$DIMDEC
 70
     2
  9
$DIMTDEC
 70
     2
  9
$DIMALTU
 70
     2
  9
$DIMALTTD
 70
     3
  9
$DIMTXSTY
  7
Standard
  9
$DIMAUNIT
 70
     0
  9
$DIMADEC
 70
     0
  9
$DIMALTRND
 40
0.0
  9
$DIMAZIN
 70
     0
  9
$DIMDSEP
 70
    44
  9
$DIMATFIT
 70
     3
  9
$DIMFRAC
 70
     0
  9
$DIMLDRBLK
  1

  9
$DIMLUNIT
 70
     2
  9
$DIMLWD
 70
    -2
  9
$DIMLWE
 70
    -2
  9
$DIMTMOVE
 70
     0
  9
$LUNITS
 70
     2
  9
$LUPREC
 70
     4
  9
$SKETCHINC
 40
1.0
  9
$FILLETRAD
 40
10.0
  9
$AUNITS
 70
     0
  9
$AUPREC
 70
     0
  9
$MENU
  1
.
  9
$ELEVATION
 40
0.0
  9
$PELEVATION
 40
0.0
  9
$THICKNESS
 40
0.0
  9
$LIMCHECK
 70
     0
  9
$CHAMFERA
 40
10.0
  9
$CHAMFERB
 40
10.0
  9
$CHAMFERC
 40
20.0
  9
$CHAMFERD
 40
0.0
  9
$SKPOLY
 70
     0
  9
$TDCREATE
 40
2457562.295327396
  9
$TDUCREATE
 40
2457562.211994063
  9
$TDUPDATE
 40
2457562.295330058
  9
$TDUUPDATE
 40
2457562.211996724
  9
$TDINDWG
 40
0.0000000116
  9
$TDUSRTIMER
 40
0.0000000116
  9
$USRTIMER
 70
     1
  9
$ANGBASE
 50
0.0
  9
$ANGDIR
 70
     0
  9
$PDMODE
 70
     0
  9
$PDSIZE
 40
0.0
  9
$PLINEWID
 40
0.0
  9
$SPLFRAME
 70
     0
  9
$SPLINETYPE
 70
     6
  9
$SPLINESEGS
 70
     8
  9
$HANDSEED
  5
207
  9
$SURFTAB1
 70
     6
  9
$SURFTAB2
 70
     6
  9
$SURFTYPE
 70
     6
  9
$SURFU
 70
     6
  9
$SURFV
 70
     6
  9
$UCSBASE
  2

  9
$UCSNAME
  2

  9
$UCSORG
 10
0.0
 20
0.0
 30
0.0
  9
$UCSXDIR
 10
1.0
 20
0.0
 30
0.0
  9
$UCSYDIR
 10
0.0
 20
1.0
 30
0.0
  9
$UCSORTHOREF
  2

  9
$UCSORTHOVIEW
 70
     0
  9
$UCSORGTOP
 10
0.0
 20
0.0
 30
0.0
  9
$UCSORGBOTTOM
 10
0.0
 20
0.0
 30
0.0
  9
$UCSORGLEFT
 10
0.0
 20
0.0
 30
0.0
  9
$UCSORGRIGHT
 10
0.0
 20
0.0
 30
0.0
  9
$UCSORGFRONT
 10
0.0
 20
0.0
 30
0.0
  9
$UCSORGBACK
 10
0.0
 20
0.0
 30
0.0
  9
$PUCSBASE
  2

  9
$PUCSNAME
  2

  9
$PUCSORG
 10
0.0
 20
0.0
 30
0.0
  9
$PUCSXDIR
 10
1.0
 20
0.0
 30
0.0
  9
$PUCSYDIR
 10
0.0
 20
1.0
 30
0.0
  9
$PUCSORTHOREF
  2

  9
$PUCSORTHOVIEW
 70
     0
  9
$PUCSORGTOP
 10
0.0
 20
0.0
 30
0.0
  9
$PUCSORGBOTTOM
 10
0.0
 20
0.0
 30
0.0
  9
$PUCSORGLEFT
 10
0.0
 20
0.0
 30
0.0
  9
$PUCSORGRIGHT
 10
0.0
 20
0.0
 30
0.0
  9
$PUCSORGFRONT
 10
0.0
 20
0.0
 30
0.0
  9
$PUCSORGBACK
 10
0.0
 20
0.0
 30
0.0
  9
$USERI1
 70
     0
  9
$USERI2
 70
     0
  9
$USERI3
 70
     0
  9
$USERI4
 70
     0
  9
$USERI5
 70
     0
  9
$USERR1
 40
0.0
  9
$USERR2
 40
0.0
  9
$USERR3
 40
0.0
  9
$USERR4
 40
0.0
  9
$USERR5
 40
0.0
  9
$WORLDVIEW
 70
     1
  9
$SHADEDGE
 70
     3
  9
$SHADEDIF
 70
    70
  9
$TILEMODE
 70
     1
  9
$MAXACTVP
 70
    64
  9
$PINSBASE
 10
0.0
 20
0.0
 30
0.0
  9
$PLIMCHECK
 70
     0
  9
$PEXTMIN
 10
0.0
 20
0.0
 30
0.0
  9
$PEXTMAX
 10
210.0
 20
297.0
 30
0.0
  9
$PLIMMIN
 10
0.0
 20
0.0
  9
$PLIMMAX
 10
210.0
 20
297.0
  9
$UNITMODE
 70
     0
  9
$VISRETAIN
 70
     1
  9
$PLINEGEN
 70
     0
  9
$PSLTSCALE
 70
     1
  9
$TREEDEPTH
 70
  3020
  9
$CMLSTYLE
  2
Standard
  9
$CMLJUST
 70
     0
  9
$CMLSCALE
 40
20.0
  9
$PROXYGRAPHICS
 70
     1
  9
$MEASUREMENT
 70
     1
  9
$CELWEIGHT
370
    -1
  9
$ENDCAPS
280
     0
  9
$JOINSTYLE
280
     0
  9
$LWDISPLAY
290
     0
  9
$INSUNITS
 70
     4
  9
$HYPERLINKBASE
  1

  9
$STYLESHEET
  1

  9
$XEDIT
290
     1
  9
$CEPSNTYPE
380
     0
  9
$PSTYLEMODE
290
     1
  9
$FINGERPRINTGUID
  2
{901EC300-0279-4531-85F8-F4E7279356AA}
  9
$VERSIONGUID
  2
{FAEB1C32-E019-11D5-929B-00C0DF256EC4}
  9
$EXTNAMES
290
     1
  9
$PSVPSCALE
 40
0.0
  9
$OLESTARTUP
290
     0
  0
ENDSEC
  0
SECTION
  2
CLASSES
  0
CLASS
  1
ACDBDICTIONARYWDFLT
  2
AcDbDictionaryWithDefault
  3
ObjectDBX Classes
 90
        0
280
     0
281
     0
  0
CLASS
  1
VISUALSTYLE
  2
AcDbVisualStyle
  3
ObjectDBX Classes
 90
     4095
280
     0
281
     0
  0
CLASS
  1
MATERIAL
  2
AcDbMaterial
  3
ObjectDBX Classes
 90
     1153
280
     0
281
     0
  0
CLASS
  1
DICTIONARYVAR
  2
AcDbDictionaryVar
  3
ObjectDBX Classes
 90
        0
280
     0
281
     0
  0
CLASS
  1
ACDBPLACEHOLDER
  2
AcDbPlaceHolder
  3
ObjectDBX Classes
 90
        0
280
     0
281
     0
  0
CLASS
  1
LAYOUT
  2
AcDbLayout
  3
ObjectDBX Classes
 90
        0
280
     0
281
     0
  0
ENDSEC
  0
SECTION
  2
TABLES
  0
TABLE
  2
VPORT
  5
8
330
0
100
AcDbSymbolTable
 70
     1
  0
VPORT
  5
29
330
8
100
AcDbSymbolTableRecord
100
AcDbViewportTableRecord
  2
*Active
 70
     0
 10
0.0
 20
0.0
 11
1.0
 21
1.0
 12
344.1869158879
 22
148.5
 13
0.0
 23
0.0
 14
10.0
 24
10.0
 15
10.0
 25
10.0
 16
0.0
 26
0.0
 36
1.0
 17
0.0
 27
0.0
 37
0.0
 40
297.0
 41
1.9729729729
 42
50.0
 43
0.0
 44
0.0
 50
0.0
 51
0.0
 71
     0
 72
   100
 73
     1
 74
     3
 75
     0
 76
     0
 77
     0
 78
     0
281
     0
 65
     1
110
0.0
120
0.0
130
0.0
111
1.0
121
0.0
131
0.0
112
0.0
122
1.0
132
0.0
 79
     0
146
0.0
  0
ENDTAB
  0
TABLE
  2
LTYPE
  5
5
330
0
100
AcDbSymbolTable
 70
     2
  0
LTYPE
  5
14
330
5
100
AcDbSymbolTableRecord
100
AcDbLinetypeTableRecord
  2
ByBlock
 70
     0
  3

 72
    65
 73
     0
 40
0.0
  0
LTYPE
  5
15
330
5
100
AcDbSymbolTableRecord
100
AcDbLinetypeTableRecord
  2
ByLayer
 70
     0
  3

 72
    65
 73
     0
 40
0.0
  0
LTYPE
  5
16
330
5
100
AcDbSymbolTableRecord
100
AcDbLinetypeTableRecord
  2
Continuous
 70
     0
  3
Solid line
 72
    65
 73
     0
 40
0.0
  0
LTYPE
  5
58
330
5
100
AcDbSymbolTableRecord
100
AcDbLinetypeTableRecord
  2
HIDDEN2
 70
     0
  3
Hidden (.5x) _ _ _ _ _ _ _ _ _ _ _ _ _ _ _ _ _ 
 72
    65
 73
     2
 40
4.7625
 49
3.175
 74
     4
 75
     0
340
0
 46
0.0
 50
0.0
 44
0.0
 45
0.0
 49
-1.5875
 74
     4
 75
     0
340
0
 46
0.0
 50
0.0
 44
0.0
 45
0.0
  0
ENDTAB
  0
TABLE
  2
LAYER
  5
2
330
0
100
AcDbSymbolTable
 70
     5
  0
LAYER
  5
10
330
2
100
AcDbSymbolTableRecord
100
AcDbLayerTableRecord
  2
0
 70
     0
 62
     7
  6
Continuous
370
    -3
390
F
  0
LAYER
  5
3F
330
2
100
AcDbSymbolTableRecord
100
AcDbLayerTableRecord
  2
SK2
 70
     0
 62
     7
  6
Continuous
370
    15
390
F
  0
LAYER
  5
40
330
2
100
AcDbSymbolTableRecord
100
AcDbLayerTableRecord
  2
SK1
 70
     0
 62
     4
  6
Continuous
370
    18
390
F
  0
LAYER
  5
57
330
2
100
AcDbSymbolTableRecord
100
AcDbLayerTableRecord
  2
SK3
 70
     0
 62
     1
  6
HIDDEN2
370
    15
390
F
  0
LAYER
  5
19A
330
2
100
AcDbSymbolTableRecord
100
AcDbLayerTableRecord
  2
SK4
 70
     0
 62
     2
  6
Continuous
370
    13
390
F
  0
ENDTAB
  0
TABLE
  2
STYLE
  5
3
330
0
100
AcDbSymbolTable
 70
     2
  0
STYLE
  5
11
330
3
100
AcDbSymbolTableRecord
100
AcDbTextStyleTableRecord
  2
Standard
 70
     0
 40
0.0
 41
1.0
 50
0.0
 71
     0
 42
2.5
  3
txt
  4

  0
STYLE
  5
1AE
330
3
100
AcDbSymbolTableRecord
100
AcDbTextStyleTableRecord
  2
SEACAD_Solid_Edge_ISO
 70
     0
 40
0.0
 41
1.0
 50
0.0
 71
     0
 42
0.2
  3
seiso.ttf
  4

1001
ACAD
1000
Solid Edge ISO
1071
        0
  0
ENDTAB
  0
TABLE
  2
VIEW
  5
6
330
0
100
AcDbSymbolTable
 70
     0
  0
ENDTAB
  0
TABLE
  2
UCS
  5
7
330
0
100
AcDbSymbolTable
 70
     0
  0
ENDTAB
  0
TABLE
  2
APPID
  5
9
330
0
100
AcDbSymbolTable
 70
     1
  0
APPID
  5
12
330
9
100
AcDbSymbolTableRecord
100
AcDbRegAppTableRecord
  2
ACAD
 70
     0
  0
ENDTAB
  0
TABLE
  2
DIMSTYLE
  5
A
330
0
100
AcDbSymbolTable
 70
     3
100
AcDbDimStyleTable
  0
DIMSTYLE
105
27
330
A
100
AcDbSymbolTableRecord
100
AcDbDimStyleTableRecord
  2
ISO-25
 70
     0
 41
2.5
 42
0.625
 43
3.75
 44
1.25
 73
     0
 74
     0
 77
     1
 78
     8
140
2.5
141
2.5
143
0.0393700787
147
0.625
171
     3
172
     1
178
     0
271
     2
272
     2
274
     3
278
    44
283
     0
284
     8
340
11
  0
DIMSTYLE
105
19C
330
A
100
AcDbSymbolTableRecord
100
AcDbDimStyleTableRecord
  2
Standard
 70
     0
178
     0
340
11
  0
DIMSTYLE
105
1AF
102
{ACAD_REACTORS
330
1B0
330
1BB
330
1C5
330
1D0
102
}
330
A
100
AcDbSymbolTableRecord
100
AcDbDimStyleTableRecord
  2
DIN
 70
     0
 41
3.5
 42
0.0
 44
1.75
 73
     0
 74
     0
 77
     1
 78
     8
140
3.5
141
1.75
147
1.75
172
     1
173
     1
178
     0
179
     3
271
     2
272
     2
278
    44
284
     8
340
1AE
343
1A9
344
1A9
  0
ENDTAB
  0
TABLE
  2
BLOCK_RECORD
  5
1
330
0
100
AcDbSymbolTable
 70
    10
  0
BLOCK_RECORD
  5
1F
330
1
100
AcDbSymbolTableRecord
100
AcDbBlockTableRecord
  2
*Model_Space
340
22
  0
BLOCK_RECORD
  5
1B
330
1
100
AcDbSymbolTableRecord
100
AcDbBlockTableRecord
  2
*Paper_Space
340
1E
  0
BLOCK_RECORD
  5
41
330
1
100
AcDbSymbolTableRecord
100
AcDbBlockTableRecord
  2
Nullpunkt
340
0
102
{BLKREFS
331
4B
102
}
  0
BLOCK_RECORD
  5
4C
330
1
100
AcDbSymbolTableRecord
100
AcDbBlockTableRecord
  2
Einfügepunkt
340
0
102
{BLKREFS
331
56
102
}
  0
BLOCK_RECORD
  5
19D
330
1
100
AcDbSymbolTableRecord
100
AcDbBlockTableRecord
  2
_OBLIQUE
340
0
  0
BLOCK_RECORD
  5
1A1
330
1
100
AcDbSymbolTableRecord
100
AcDbBlockTableRecord
  2
_DOT
340
0
  0
BLOCK_RECORD
  5
1A9
330
1
100
AcDbSymbolTableRecord
100
AcDbBlockTableRecord
  2
_SE_FILLED
340
0
  0
BLOCK_RECORD
  5
1B1
330
1
100
AcDbSymbolTableRecord
100
AcDbBlockTableRecord
  2
DMBLK1
340
0
  0
BLOCK_RECORD
  5
1BC
330
1
100
AcDbSymbolTableRecord
100
AcDbBlockTableRecord
  2
DMBLK2
340
0
  0
BLOCK_RECORD
  5
1C6
330
1
100
AcDbSymbolTableRecord
100
AcDbBlockTableRecord
  2
DMBLK3
340
0
  0
BLOCK_RECORD
  5
1D1
330
1
100
AcDbSymbolTableRecord
100
AcDbBlockTableRecord
  2
DMBLK4
340
0
  0
ENDTAB
  0
ENDSEC
  0
SECTION
  2
BLOCKS
  0
BLOCK
  5
20
330
1F
100
AcDbEntity
  8
0
100
AcDbBlockBegin
  2
*Model_Space
 70
     0
 10
0.0
 20
0.0
 30
0.0
  3
*Model_Space
  1

  0
ENDBLK
  5
21
330
1F
100
AcDbEntity
  8
0
100
AcDbBlockEnd
  0
BLOCK
  5
1C
330
1B
100
AcDbEntity
 67
     1
  8
0
100
AcDbBlockBegin
  2
*Paper_Space
 70
     0
 10
0.0
 20
0.0
 30
0.0
  3
*Paper_Space
  1

  0
ENDBLK
  5
1D
330
1B
100
AcDbEntity
 67
     1
  8
0
100
AcDbBlockEnd
  0
BLOCK
  5
49
330
41
100
AcDbEntity
  8
0
100
AcDbBlockBegin
  2
Nullpunkt
 70
     0
 10
0.0
 20
0.0
 30
0.0
  3
Nullpunkt
  1

  0
HATCH
  5
42
330
41
100
AcDbEntity
  8
SK2
  6
Continuous
 62
     7
100
AcDbHatch
 10
0.0
 20
0.0
 30
0.0
210
0.0
220
0.0
230
1.0
  2
SOLID
 70
     1
 71
     0
 91
        1
 92
        1
 93
        3
 72
     1
 10
-1.0
 20
0.0
 11
0.0000000000000009
 21
0.0
 72
     1
 10
0.0
 20
0.0
 11
0.0
 21
1.000000000000001
 72
     2
 10
0.0
 20
0.0
 40
1.0
 50
90.0
 51
180.0
 73
     1
 97
        0
 75
     0
 76
     1
 98
        0
  0
HATCH
  5
43
330
41
100
AcDbEntity
  8
SK2
  6
Continuous
 62
     7
100
AcDbHatch
 10
0.0
 20
0.0
 30
0.0
210
0.0
220
0.0
230
1.0
  2
SOLID
 70
     1
 71
     0
 91
        1
 92
        1
 93
        3
 72
     2
 10
0.0
 20
0.0
 40
1.0
 50
270.0
 51
360.0
 73
     1
 72
     1
 10
1.0
 20
0.0
 11
-0.0000000000000009
 21
0.0
 72
     1
 10
0.0
 20
0.0
 11
0.0
 21
-1.000000000000001
 97
        0
 75
     0
 76
     1
 98
        0
  0
CIRCLE
  5
44
330
41
100
AcDbEntity
  8
SK2
  6
Continuous
 62
     7
100
AcDbCircle
 10
0.0
 20
0.0
 30
0.0
 40
1.0
  0
LINE
  5
45
330
41
100
AcDbEntity
  8
SK1
  6
Continuous
100
AcDbLine
 10
-1.0
 20
0.0
 30
0.0
 11
1.0
 21
0.0
 31
0.0
  0
LINE
  5
46
330
41
100
AcDbEntity
  8
SK1
  6
Continuous
100
AcDbLine
 10
0.0
 20
1.0
 30
0.0
 11
0.0
 21
-1.0
 31
0.0
  0
POINT
  5
47
330
41
100
AcDbEntity
  8
SK1
  6
Continuous
100
AcDbPoint
 10
0.0
 20
0.0
 30
0.0
  0
POINT
  5
48
330
41
100
AcDbEntity
  8
SK1
  6
Continuous
100
AcDbPoint
 10
0.0
 20
0.0
 30
0.0
  0
ENDBLK
  5
4A
330
41
100
AcDbEntity
  8
0
100
AcDbBlockEnd
  0
BLOCK
  5
54
330
4C
100
AcDbEntity
  8
0
100
AcDbBlockBegin
  2
Einfügepunkt
 70
     0
 10
0.0
 20
0.0
 30
0.0
  3
Einfügepunkt
  1

  0
HATCH
  5
4D
330
4C
100
AcDbEntity
  8
SK2
  6
Continuous
 62
     7
100
AcDbHatch
 10
0.0
 20
0.0
 30
0.0
210
0.0
220
0.0
230
1.0
  2
SOLID
 70
     1
 71
     0
 91
        1
 92
        1
 93
        3
 72
     1
 10
-0.4502381196756744
 20
-0.0000000000000018
 11
0.0000000000000033
 21
-0.0000000000000018
 72
     1
 10
0.0
 20
-0.0000000000000018
 11
0.0
 21
0.4502381196756812
 72
     2
 10
0.0
 20
-0.0000000000000018
 40
0.4502381196756812
 50
90.0
 51
180.0
 73
     1
 97
        0
 75
     0
 76
     1
 98
        0
  0
HATCH
  5
4E
330
4C
100
AcDbEntity
  8
SK2
  6
Continuous
 62
     7
100
AcDbHatch
 10
0.0
 20
0.0
 30
0.0
210
0.0
220
0.0
230
1.0
  2
SOLID
 70
     1
 71
     0
 91
        1
 92
        1
 93
        3
 72
     2
 10
0.0
 20
-0.0000000000000018
 40
0.4502381196756812
 50
270.0
 51
360.0
 73
     1
 72
     1
 10
0.4502381196756815
 20
-0.0000000000000018
 11
0.0000000000000038
 21
-0.0000000000000018
 72
     1
 10
0.0
 20
-0.0000000000000018
 11
0.0
 21
-0.4502381196756812
 97
        0
 75
     0
 76
     1
 98
        0
  0
CIRCLE
  5
4F
330
4C
100
AcDbEntity
  8
SK2
  6
Continuous
 62
     7
100
AcDbCircle
 10
0.0
 20
0.0
 30
0.0
 40
0.4502381196756812
  0
LINE
  5
50
330
4C
100
AcDbEntity
  8
SK1
  6
Continuous
100
AcDbLine
 10
-0.4502381197
 20
0.0
 30
0.0
 11
0.4502381197
 21
0.0
 31
0.0
  0
LINE
  5
51
330
4C
100
AcDbEntity
  8
SK1
  6
Continuous
100
AcDbLine
 10
0.0
 20
0.4502381197
 30
0.0
 11
0.0
 21
-0.4502381197
 31
0.0
  0
POINT
  5
52
330
4C
100
AcDbEntity
  8
SK2
  6
Continuous
 62
     7
100
AcDbPoint
 10
0.0
 20
0.0
 30
0.0
  0
POINT
  5
53
330
4C
100
AcDbEntity
  8
SK2
  6
Continuous
 62
     7
100
AcDbPoint
 10
0.0
 20
0.0
 30
0.0
  0
ENDBLK
  5
55
330
4C
100
AcDbEntity
  8
0
100
AcDbBlockEnd
  0
BLOCK
  5
19E
330
19D
100
AcDbEntity
  8
0
100
AcDbBlockBegin
  2
_OBLIQUE
 70
     0
 10
0.0
 20
0.0
 30
0.0
  3
_OBLIQUE
  1

  0
LINE
  5
1A0
330
19D
100
AcDbEntity
  8
0
  6
ByBlock
 62
     0
370
    -2
100
AcDbLine
 10
-0.5
 20
-0.5
 30
0.0
 11
0.5
 21
0.5
 31
0.0
  0
ENDBLK
  5
19F
330
19D
100
AcDbEntity
  8
0
100
AcDbBlockEnd
  0
BLOCK
  5
1A2
330
1A1
100
AcDbEntity
  8
0
100
AcDbBlockBegin
  2
_DOT
 70
     0
 10
0.0
 20
0.0
 30
0.0
  3
_DOT
  1

  0
POLYLINE
  5
1A4
330
1A1
100
AcDbEntity
  8
0
  6
ByBlock
 62
     0
100
AcDb2dPolyline
 66
     1
 10
0.0
 20
0.0
 30
0.0
 70
     1
 40
0.5
 41
0.5
  0
VERTEX
  5
1A6
330
1A4
100
AcDbEntity
  8
0
  6
ByBlock
 62
     0
100
AcDbVertex
100
AcDb2dVertex
 10
-0.25
 20
0.0
 30
0.0
 42
1.0
  0
VERTEX
  5
1A7
330
1A4
100
AcDbEntity
  8
0
  6
ByBlock
 62
     0
100
AcDbVertex
100
AcDb2dVertex
 10
0.25
 20
0.0
 30
0.0
 42
1.0
  0
SEQEND
  5
1A8
330
1A4
100
AcDbEntity
  8
0
  6
ByBlock
 62
     0
  0
LINE
  5
1A5
330
1A1
100
AcDbEntity
  8
0
  6
ByBlock
 62
     0
370
    -2
100
AcDbLine
 10
-0.5
 20
0.0
 30
0.0
 11
-1.0
 21
0.0
 31
0.0
  0
ENDBLK
  5
1A3
330
1A1
100
AcDbEntity
  8
0
100
AcDbBlockEnd
  0
BLOCK
  5
1AC
330
1A9
100
AcDbEntity
  8
0
100
AcDbBlockBegin
  2
_SE_FILLED
 70
     0
 10
0.0
 20
0.0
 30
0.0
  3
_SE_FILLED
  1

  0
SOLID
  5
1AA
330
1A9
100
AcDbEntity
  8
0
 62
     0
100
AcDbTrace
 10
0.0
 20
0.0
 30
0.0
 11
-1.0
 21
-0.1665
 31
0.0
 12
-1.0
 22
0.1665
 32
0.0
 13
0.0
 23
0.0
 33
0.0
  0
LINE
  5
1AB
330
1A9
100
AcDbEntity
  8
0
 62
     0
100
AcDbLine
 10
0.0
 20
0.0
 30
0.0
 11
-1.0
 21
0.0
 31
0.0
  0
ENDBLK
  5
1AD
330
1A9
100
AcDbEntity
  8
0
100
AcDbBlockEnd
  0
BLOCK
  5
1B9
330
1B1
100
AcDbEntity
  8
0
100
AcDbBlockBegin
  2
DMBLK1
 70
     0
 10
0.0
 20
0.0
 30
0.0
  3
DMBLK1
  1

  0
HATCH
  5
1B2
330
1B1
100
AcDbEntity
  8
SK2
  6
Continuous
 62
   136
100
AcDbHatch
 10
0.0
 20
0.0
 30
0.0
210
0.0
220
0.0
230
1.0
  2
SOLID
 70
     1
 71
     0
 91
        1
 92
        1
 93
        3
 72
     1
 10
22.3006258902202
 20
6.000000207804111
 11
21.13395918754239
 21
6.000000207804111
 72
     1
 10
21.13395918754239
 20
6.000000207804111
 11
21.7172925388813
 21
2.500000099770692
 72
     1
 10
21.7172925388813
 20
2.500000099770692
 11
22.3006258902202
 21
6.000000207804111
 97
        0
 75
     0
 76
     1
 98
        0
  0
HATCH
  5
1B3
330
1B1
100
AcDbEntity
  8
SK2
  6
Continuous
 62
   136
100
AcDbHatch
 10
0.0
 20
0.0
 30
0.0
210
0.0
220
0.0
230
1.0
  2
SOLID
 70
     1
 71
     0
 91
        1
 92
        1
 93
        3
 72
     1
 10
22.3006258902202
 20
-6.000000008262727
 11
21.7172925388813
 21
-2.499999900229309
 72
     1
 10
21.7172925388813
 20
-2.499999900229309
 11
21.13395918754239
 21
-6.000000008262727
 72
     1
 10
21.13395918754239
 20
-6.000000008262727
 11
22.3006258902202
 21
-6.000000008262727
 97
        0
 75
     0
 76
     1
 98
        0
  0
LINE
  5
1B4
330
1B1
100
AcDbEntity
  8
SK2
  6
Continuous
 62
   136
100
AcDbLine
 10
11.46
 20
2.5000000998
 30
0.0
 11
23.4672925929
 21
2.5000000998
 31
0.0
  0
LINE
  5
1B5
330
1B1
100
AcDbEntity
  8
SK2
  6
Continuous
 62
   136
100
AcDbLine
 10
11.46
 20
-2.4999999002
 30
0.0
 11
23.4672925929
 21
-2.4999999002
 31
0.0
  0
LINE
  5
1B6
330
1B1
100
AcDbEntity
  8
SK2
  6
Continuous
 62
   136
100
AcDbLine
 10
21.7172925389
 20
16.7841787144
 30
0.0
 11
21.7172925389
 21
-9.5000000045
 31
0.0
  0
TEXT
  5
1B7
330
1B1
100
AcDbEntity
  8
SK2
  6
Continuous
 62
   136
100
AcDbText
 10
20.8422925389
 20
13.5705419928
 30
0.0
 40
3.5
  1
5
 50
90.0
  7
SEACAD_Solid_Edge_ISO
 11
17.3422925389
 21
13.5705419928
 31
0.0
100
AcDbText
 73
     3
  0
TEXT
  5
1B8
330
1B1
100
AcDbEntity
  8
SK2
  6
Continuous
 62
   136
100
AcDbText
 10
20.8422925389
 20
9.4978147201
 30
0.0
 40
3.5
  1
ø
 50
90.0
  7
SEACAD_Solid_Edge_ISO
 11
17.3422925389
 21
9.4978147201
 31
0.0
100
AcDbText
 73
     3
  0
ENDBLK
  5
1BA
330
1B1
100
AcDbEntity
  8
0
100
AcDbBlockEnd
  0
BLOCK
  5
1C3
330
1BC
100
AcDbEntity
  8
0
100
AcDbBlockBegin
  2
DMBLK2
 70
     0
 10
0.0
 20
0.0
 30
0.0
  3
DMBLK2
  1

  0
HATCH
  5
1BD
330
1BC
100
AcDbEntity
  8
SK2
  6
Continuous
 62
   136
100
AcDbHatch
 10
0.0
 20
0.0
 30
0.0
210
0.0
220
0.0
230
1.0
  2
SOLID
 70
     1
 71
     0
 91
        1
 92
        1
 93
        3
 72
     1
 10
3.500000108033422
 20
-21.2805258263767
 11
3.500000108033422
 21
-20.11385912369889
 72
     1
 10
3.500000108033422
 20
-20.11385912369889
 11
0.0000000000000036
 21
-20.6971924750378
 72
     1
 10
0.0000000000000035
 20
-20.6971924750378
 11
3.500000108033422
 21
-21.2805258263767
 97
        0
 75
     0
 76
     1
 98
        0
  0
HATCH
  5
1BE
330
1BC
100
AcDbEntity
  8
SK2
  6
Continuous
 62
   136
100
AcDbHatch
 10
0.0
 20
0.0
 30
0.0
210
0.0
220
0.0
230
1.0
  2
SOLID
 70
     1
 71
     0
 91
        1
 92
        1
 93
        3
 72
     1
 10
8.160000201314691
 20
-21.2805258263767
 11
11.66000030934811
 21
-20.6971924750378
 72
     1
 10
11.66000030934811
 20
-20.6971924750378
 11
8.160000201314691
 21
-20.11385912369889
 72
     1
 10
8.160000201314691
 20
-20.11385912369889
 11
8.160000201314691
 21
-21.2805258263767
 97
        0
 75
     0
 76
     1
 98
        0
  0
LINE
  5
1BF
330
1BC
100
AcDbEntity
  8
SK2
  6
Continuous
 62
   136
100
AcDbLine
 10
0.0
 20
-12.4932734294
 30
0.0
 11
0.0
 21
-22.4471925291
 31
0.0
  0
LINE
  5
1C0
330
1BC
100
AcDbEntity
  8
SK2
  6
Continuous
 62
   136
100
AcDbLine
 10
11.66
 20
-6.7135695002
 30
0.0
 11
11.66
 21
-22.4471925291
 31
0.0
  0
LINE
  5
1C1
330
1BC
100
AcDbEntity
  8
SK2
  6
Continuous
 62
   136
100
AcDbLine
 10
0.0
 20
-20.697192475
 30
0.0
 11
11.6600003093
 21
-20.697192475
 31
0.0
  0
TEXT
  5
1C2
330
1BC
100
AcDbEntity
  8
SK2
  6
Continuous
 62
   136
100
AcDbText
 10
1.9322728819
 20
-19.822192475
 30
0.0
 40
3.5
  1
11,66
  7
SEACAD_Solid_Edge_ISO
 11
1.9322728819
 21
-16.322192475
 31
0.0
100
AcDbText
 73
     3
  0
ENDBLK
  5
1C4
330
1BC
100
AcDbEntity
  8
0
100
AcDbBlockEnd
  0
BLOCK
  5
1CE
330
1C6
100
AcDbEntity
  8
0
100
AcDbBlockBegin
  2
DMBLK3
 70
     0
 10
0.0
 20
0.0
 30
0.0
  3
DMBLK3
  1

  0
HATCH
  5
1C7
330
1C6
100
AcDbEntity
  8
SK2
  6
Continuous
 62
   136
100
AcDbHatch
 10
0.0
 20
0.0
 30
0.0
210
0.0
220
0.0
230
1.0
  2
SOLID
 70
     1
 71
     0
 91
        1
 92
        1
 93
        3
 72
     1
 10
-28.93641350480418
 20
8.993273520918644
 11
-27.76974680212637
 21
8.993273520918644
 72
     1
 10
-27.76974680212637
 20
8.993273520918644
 11
-28.35308015346527
 21
12.49327362895206
 72
     1
 10
-28.35308015346527
 20
12.49327362895206
 11
-28.93641350480418
 21
8.993273520918644
 97
        0
 75
     0
 76
     1
 98
        0
  0
HATCH
  5
1C8
330
1C6
100
AcDbEntity
  8
SK2
  6
Continuous
 62
   136
100
AcDbHatch
 10
0.0
 20
0.0
 30
0.0
210
0.0
220
0.0
230
1.0
  2
SOLID
 70
     1
 71
     0
 91
        1
 92
        1
 93
        3
 72
     1
 10
-28.93641350480418
 20
-8.993272749630654
 11
-28.35308015346527
 21
-12.49327285766407
 72
     1
 10
-28.35308015346527
 20
-12.49327285766407
 11
-27.76974680212637
 21
-8.993272749630654
 72
     1
 10
-27.76974680212637
 20
-8.993272749630654
 11
-28.93641350480418
 21
-8.993272749630654
 97
        0
 75
     0
 76
     1
 98
        0
  0
LINE
  5
1C9
330
1C6
100
AcDbEntity
  8
SK2
  6
Continuous
 62
   136
100
AcDbLine
 10
0.0
 20
12.493273629
 30
0.0
 11
-30.1030802075
 21
12.493273629
 31
0.0
  0
LINE
  5
1CA
330
1C6
100
AcDbEntity
  8
SK2
  6
Continuous
 62
   136
100
AcDbLine
 10
0.0
 20
-12.4932734294
 30
0.0
 11
-30.1030802075
 21
-12.4932734294
 31
0.0
  0
LINE
  5
1CB
330
1C6
100
AcDbEntity
  8
SK2
  6
Continuous
 62
   136
100
AcDbLine
 10
-28.3530801535
 20
12.493273629
 30
0.0
 11
-28.3530801535
 21
-12.4932728577
 31
0.0
  0
TEXT
  5
1CC
330
1C6
100
AcDbEntity
  8
SK2
  6
Continuous
 62
   136
100
AcDbText
 10
-29.2280801535
 20
-0.0318177962
 30
0.0
 40
3.5
  1
25
 50
90.0
  7
SEACAD_Solid_Edge_ISO
 11
-32.7280801535
 21
-0.0318177962
 31
0.0
100
AcDbText
 73
     3
  0
TEXT
  5
1CD
330
1C6
100
AcDbEntity
  8
SK2
  6
Continuous
 62
   136
100
AcDbText
 10
-29.2280801535
 20
-4.1045450689
 30
0.0
 40
3.5
  1
ø
 50
90.0
  7
SEACAD_Solid_Edge_ISO
 11
-32.7280801535
 21
-4.1045450689
 31
0.0
100
AcDbText
 73
     3
  0
ENDBLK
  5
1CF
330
1C6
100
AcDbEntity
  8
0
100
AcDbBlockEnd
  0
BLOCK
  5
1D8
330
1D1
100
AcDbEntity
  8
0
100
AcDbBlockBegin
  2
DMBLK4
 70
     0
 10
0.0
 20
0.0
 30
0.0
  3
DMBLK4
  1

  0
HATCH
  5
1D2
330
1D1
100
AcDbEntity
  8
SK2
  6
Continuous
 62
   136
100
AcDbHatch
 10
0.0
 20
0.0
 30
0.0
210
0.0
220
0.0
230
1.0
  2
SOLID
 70
     1
 71
     0
 91
        1
 92
        1
 93
        3
 72
     1
 10
-18.83999989196659
 20
20.05308501469901
 11
-22.34000000000001
 21
19.46975166336011
 72
     1
 10
-22.34000000000001
 20
19.46975166336011
 11
-18.83999989196659
 21
18.8864183120212
 72
     1
 10
-18.83999989196659
 20
18.8864183120212
 11
-18.83999989196659
 21
20.05308501469901
 97
        0
 75
     0
 76
     1
 98
        0
  0
HATCH
  5
1D3
330
1D1
100
AcDbEntity
  8
SK2
  6
Continuous
 62
   136
100
AcDbHatch
 10
0.0
 20
0.0
 30
0.0
210
0.0
220
0.0
230
1.0
  2
SOLID
 70
     1
 71
     0
 91
        1
 92
        1
 93
        3
 72
     1
 10
8.16000173971056
 20
20.05308501469901
 11
8.16000173971056
 21
18.8864183120212
 72
     1
 10
8.16000173971056
 20
18.8864183120212
 11
11.66000184774398
 21
19.46975166336011
 72
     1
 10
11.66000184774398
 20
19.46975166336011
 11
8.16000173971056
 21
20.05308501469901
 97
        0
 75
     0
 76
     1
 98
        0
  0
LINE
  5
1D4
330
1D1
100
AcDbEntity
  8
SK2
  6
Continuous
 62
   136
100
AcDbLine
 10
-22.34
 20
9.0904102324
 30
0.0
 11
-22.34
 21
21.2197517174
 31
0.0
  0
LINE
  5
1D5
330
1D1
100
AcDbEntity
  8
SK2
  6
Continuous
 62
   136
100
AcDbLine
 10
11.66
 20
10.1189111923
 30
0.0
 11
11.66
 21
21.2197517174
 31
0.0
  0
LINE
  5
1D6
330
1D1
100
AcDbEntity
  8
SK2
  6
Continuous
 62
   136
100
AcDbLine
 10
-22.34
 20
19.4697516634
 30
0.0
 11
11.6600018477
 21
19.4697516634
 31
0.0
  0
TEXT
  5
1D7
330
1D1
100
AcDbEntity
  8
SK2
  6
Continuous
 62
   136
100
AcDbText
 10
-7.2888627125
 20
20.3447516634
 30
0.0
 40
3.5
  1
34
  7
SEACAD_Solid_Edge_ISO
 11
-7.2888627125
 21
23.8447516634
 31
0.0
100
AcDbText
 73
     3
  0
ENDBLK
  5
1D9
330
1D1
100
AcDbEntity
  8
0
100
AcDbBlockEnd
  0
ENDSEC
  0
SECTION
  2
ENTITIES
  0
INSERT
  5
4B
330
1F
100
AcDbEntity
  8
SK2
 62
     7
100
AcDbBlockReference
  2
Nullpunkt
 10
0.0
 20
0.0000000998
 30
0.0
  0
INSERT
  5
56
330
1F
100
AcDbEntity
  8
SK2
 62
     7
100
AcDbBlockReference
  2
Einfügepunkt
 10
11.6600000203
 20
0.0000000991
 30
0.0
  0
LINE
  5
59
330
1F
100
AcDbEntity
  8
SK3
100
AcDbLine
 10
-21.34
 20
5.9866519186
 30
0.0
 11
-22.34
 21
6.5651761495
 31
0.0
  0
LINE
  5
5A
330
1F
100
AcDbEntity
  8
SK1
  6
Continuous
100
AcDbLine
 10
6.66
 20
12.705585431
 30
0.0
 11
7.0394228634
 21
12.9247520149
 31
0.0
  0
LINE
  5
5B
330
1F
100
AcDbEntity
  8
SK1
  6
Continuous
100
AcDbLine
 10
7.0394228634
 20
12.9247520149
 30
0.0
 11
8.9106517703
 21
11.8438330492
 31
0.0
  0
SPLINE
  5
5C
330
1F
100
AcDbEntity
  8
SK1
  6
Continuous
100
AcDbSpline
210
0.0
220
0.0
230
1.0
 70
     8
 71
     3
 72
    10
 73
     6
 74
     0
 42
0.0000000310291255
 43
0.0000000001
 12
1.0
 22
0.0
 32
0.0
 13
1.0
 23
0.0
 33
0.0
 40
0.0
 40
0.0
 40
0.0
 40
0.0
 40
0.5
 40
0.5
 40
1.0
 40
1.0
 40
1.0
 40
1.0
 10
6.660000000002338
 20
11.192854963477
 30
0.0
 10
6.659999999999902
 20
11.14068707322799
 30
0.0
 10
6.63879967045787
 20
11.08878574489771
 30
0.0
 10
6.564197273849288
 20
11.01405301819801
 30
0.0
 10
6.512839104340816
 20
10.99272496669893
 30
0.0
 10
6.460000000000004
 20
10.99272496669973
 30
0.0
  0
LINE
  5
5D
330
1F
100
AcDbEntity
  8
SK1
  6
Continuous
100
AcDbLine
 10
6.46
 20
10.9927249667
 30
0.0
 11
3.76
 21
10.9927249667
 31
0.0
  0
SPLINE
  5
5E
330
1F
100
AcDbEntity
  8
SK1
  6
Continuous
100
AcDbSpline
210
0.0
220
0.0
230
1.0
 70
     8
 71
     3
 72
    10
 73
     6
 74
     0
 42
0.0000000310369852
 43
0.0000000001
 12
1.0
 22
0.0
 32
0.0
 13
1.0
 23
0.0
 33
0.0
 40
0.0
 40
0.0
 40
0.0
 40
0.0
 40
0.5
 40
0.5
 40
1.0
 40
1.0
 40
1.0
 40
1.0
 10
3.760000000000003
 20
10.99272496669973
 30
0.0
 10
3.70712138358676
 20
10.99272496669973
 30
0.0
 10
3.655400147046572
 20
11.01445889433213
 30
0.0
 10
3.581612828136431
 20
11.08836993229279
 30
0.0
 10
3.559999999999997
 20
11.14064198417016
 30
0.0
 10
3.560000000000004
 20
11.19285496347727
 30
0.0
  0
SPLINE
  5
5F
330
1F
100
AcDbEntity
  8
SK1
  6
Continuous
100
AcDbSpline
210
0.0
220
0.0
230
1.0
 70
     8
 71
     3
 72
    11
 73
     7
 74
     0
 42
0.0000000003861887
 43
0.0000000001
 12
1.0
 22
0.0
 32
0.0
 13
1.0
 23
0.0
 33
0.0
 40
0.0
 40
0.0
 40
0.0
 40
0.0
 40
0.8814146954795123
 40
0.8814146954795123
 40
0.8814146954795123
 40
1.0
 40
1.0
 40
1.0
 40
1.0
 10
3.559999999999997
 20
12.99384479639532
 30
0.0
 10
-3.973698877841159
 20
11.93455090807271
 30
0.0
 10
-11.50738262367857
 20
10.87514937165114
 30
0.0
 10
-19.04102947641212
 20
9.815485546600682
 30
0.0
 10
-20.0546043703871
 20
9.672918650365702
 30
0.0
 10
-21.06817855554473
 20
9.530346714697783
 30
0.0
 10
-22.08175193028802
 20
9.38776901794973
 30
0.0
  0
SPLINE
  5
60
330
1F
100
AcDbEntity
  8
SK1
  6
Continuous
100
AcDbSpline
210
0.0
220
0.0
230
1.0
 70
     8
 71
     3
 72
    10
 73
     6
 74
     0
 42
0.0000000227964674
 43
0.0000000001
 12
1.0
 22
0.0
 32
0.0
 13
1.0
 23
0.0
 33
0.0
 40
0.0
 40
0.0
 40
0.0
 40
0.0
 40
0.5
 40
0.5
 40
1.0
 40
1.0
 40
1.0
 40
1.0
 10
-22.08175193028802
 20
9.38776901794973
 30
0.0
 10
-22.15330684542488
 20
9.377703505925208
 30
0.0
 10
-22.21940242541914
 20
9.341578286555619
 30
0.0
 10
-22.31354727266465
 20
9.233107650755949
 30
0.0
 10
-22.34000000000001
 20
9.16191322146849
 30
0.0
 10
-22.34000000000001
 20
9.090410232398021
 30
0.0
  0
LINE
  5
61
330
1F
100
AcDbEntity
  8
SK3
100
AcDbLine
 10
-21.34
 20
5.9866519186
 30
0.0
 11
-8.04
 21
5.9866519186
 31
0.0
  0
LINE
  5
62
330
1F
100
AcDbEntity
  8
SK3
100
AcDbLine
 10
-8.04
 20
5.9866519186
 30
0.0
 11
-7.34
 21
5.5815403059
 31
0.0
  0
ARC
  5
63
330
1F
100
AcDbEntity
  8
SK3
100
AcDbCircle
 10
11.4662545667
 20
2.6267787786
 30
0.0
 40
0.1938632126599991
100
AcDbArc
 50
268.1511578752
 51
358.0026850254
  0
ARC
  5
64
330
1F
100
AcDbEntity
  8
SK3
100
AcDbCircle
 10
11.4662545667
 20
2.3206320327
 30
0.0
 40
0.1938632126630646
100
AcDbArc
 50
268.151157876
 51
358.002685025
  0
LINE
  5
65
330
1F
100
AcDbEntity
  8
SK3
100
AcDbLine
 10
-6.9935898385
 20
2.4330164871
 30
0.0
 11
-6.9935898385
 21
2.5000000998
 31
0.0
  0
LINE
  5
66
330
1F
100
AcDbEntity
  8
SK3
100
AcDbLine
 10
-7.34
 20
5.309744229
 30
0.0
 11
-7.34
 21
5.5815403059
 31
0.0
  0
LINE
  5
67
330
1F
100
AcDbEntity
  8
SK3
100
AcDbLine
 10
-8.04
 20
5.6840185564
 30
0.0
 11
-8.04
 21
5.9866519186
 31
0.0
  0
LINE
  5
68
330
1F
100
AcDbEntity
  8
SK1
  6
Continuous
100
AcDbLine
 10
3.56
 20
12.1578206366
 30
0.0
 11
3.56
 21
12.9938447964
 31
0.0
  0
LINE
  5
69
330
1F
100
AcDbEntity
  8
SK1
  6
Continuous
100
AcDbLine
 10
11.66
 20
9.49442128
 30
0.0
 11
11.66
 21
10.1189111865
 31
0.0
  0
LINE
  5
6A
330
1F
100
AcDbEntity
  8
SK1
  6
Continuous
100
AcDbLine
 10
11.535
 20
9.6946002501
 30
0.0
 11
11.535
 21
10.3354175375
 31
0.0
  0
LINE
  5
6B
330
1F
100
AcDbEntity
  8
SK1
  6
Continuous
100
AcDbLine
 10
7.0394228634
 20
12.0939872299
 30
0.0
 11
7.0394228634
 21
12.9247520149
 31
0.0
  0
LINE
  5
6C
330
1F
100
AcDbEntity
  8
SK1
  6
Continuous
100
AcDbLine
 10
6.66
 20
11.8915037088
 30
0.0
 11
6.66
 21
12.705585431
 31
0.0
  0
LINE
  5
6D
330
1F
100
AcDbEntity
  8
SK1
  6
Continuous
100
AcDbLine
 10
3.76
 20
10.3090269838
 30
0.0
 11
3.76
 21
10.9927249667
 31
0.0
  0
LINE
  5
6E
330
1F
100
AcDbEntity
  8
SK1
  6
Continuous
100
AcDbLine
 10
6.46
 20
10.3090269838
 30
0.0
 11
6.46
 21
10.9927249667
 31
0.0
  0
SPLINE
  5
6F
330
1F
100
AcDbEntity
  8
SK1
  6
Continuous
100
AcDbSpline
210
0.0
220
0.0
230
1.0
 70
     8
 71
     3
 72
    11
 73
     7
 74
     0
 42
0.0000000004958328
 43
0.0000000001
 12
1.0
 22
0.0
 32
0.0
 13
1.0
 23
0.0
 33
0.0
 40
0.0
 40
0.0
 40
0.0
 40
0.0
 40
0.8975598067450266
 40
0.8975598067450266
 40
0.8975598067450266
 40
1.0
 40
1.0
 40
1.0
 40
1.0
 10
3.559999999999997
 20
11.85167389066648
 30
0.0
 10
-2.423747213511757
 20
11.07435934732172
 30
0.0
 10
-8.407484381462899
 20
10.29697878825657
 30
0.0
 10
-14.3912019208704
 20
9.519469292227065
 30
0.0
 10
-15.07413488714704
 20
9.430730667294533
 30
0.0
 10
-15.75706758792894
 20
9.341990298319201
 30
0.0
 10
-16.44000000000001
 20
9.253248032913195
 30
0.0
  0
LINE
  5
70
330
1F
100
AcDbEntity
  8
SK3
100
AcDbLine
 10
-8.04
 20
5.3778718105
 30
0.0
 11
-7.34
 21
5.0035974831
 31
0.0
  0
ARC
  5
71
330
1F
100
AcDbEntity
  8
SK3
100
AcDbCircle
 10
-246.2084639867
 20
-440.5815779042
 30
0.0
 40
503.204258358734
100
AcDbArc
 50
61.615693879
 51
61.6605171668
  0
LINE
  5
72
330
1F
100
AcDbEntity
  8
SK3
100
AcDbLine
 10
-6.9935898385
 20
2.1268697412
 30
0.0
 11
11.46
 21
2.1268697412
 31
0.0
  0
ARC
  5
73
330
1F
100
AcDbEntity
  8
SK1
  6
Continuous
100
AcDbCircle
 10
6.4672747422
 20
10.1956281444
 30
0.0
 40
0.1928851402141705
100
AcDbArc
 50
267.8385535437
 51
357.6669794629
  0
LINE
  5
74
330
1F
100
AcDbEntity
  8
SK1
  6
Continuous
100
AcDbLine
 10
6.46
 20
10.0028802379
 30
0.0
 11
3.76
 21
10.0028802379
 31
0.0
  0
ARC
  5
75
330
1F
100
AcDbEntity
  8
SK1
  6
Continuous
100
AcDbCircle
 10
3.752722264
 20
10.195624906
 30
0.0
 40
0.192882017143509
100
AcDbArc
 50
182.3320955905
 51
272.1623714122
  0
LINE
  5
76
330
1F
100
AcDbEntity
  8
SK1
  6
Continuous
100
AcDbLine
 10
6.66
 20
11.8915037088
 30
0.0
 11
7.0394228634
 21
12.0939872299
 31
0.0
  0
SPLINE
  5
77
330
1F
100
AcDbEntity
  8
SK1
  6
Continuous
100
AcDbSpline
210
0.0
220
0.0
230
1.0
 70
     8
 71
     3
 72
     8
 73
     4
 74
     0
 42
0.0000000019623969
 43
0.0000000001
 12
1.0
 22
0.0
 32
0.0
 13
1.0
 23
0.0
 33
0.0
 40
0.0
 40
0.0
 40
0.0
 40
0.0
 40
1.0
 40
1.0
 40
1.0
 40
1.0
 10
7.039422863405993
 20
12.09398722991438
 30
0.0
 10
8.537993684327821
 20
11.294263698508
 30
0.0
 10
10.03653076651925
 20
10.49448615421801
 30
0.0
 10
11.53500000000009
 20
9.694600250108994
 30
0.0
  0
ARC
  5
78
330
1F
100
AcDbEntity
  8
SK1
  6
Continuous
100
AcDbCircle
 10
11.431458759
 20
9.4908277702
 30
0.0
 40
0.2285694908325221
100
AcDbArc
 50
0.9008263735
 51
63.0638832429
  0
LINE
  5
79
330
1F
100
AcDbEntity
  8
SK1
  6
Continuous
100
AcDbLine
 10
11.66
 20
9.49442128
 30
0.0
 11
11.66
 21
9.1882745341
 31
0.0
  0
LINE
  5
7A
330
1F
100
AcDbEntity
  8
SK1
  6
Continuous
100
AcDbLine
 10
6.66
 20
11.5853569629
 30
0.0
 11
7.0394228634
 21
11.787840484
 31
0.0
  0
SPLINE
  5
7B
330
1F
100
AcDbEntity
  8
SK1
  6
Continuous
100
AcDbSpline
210
0.0
220
0.0
230
1.0
 70
     8
 71
     3
 72
     8
 73
     4
 74
     0
 42
0.0000000019623969
 43
0.0000000001
 12
1.0
 22
0.0
 32
0.0
 13
1.0
 23
0.0
 33
0.0
 40
0.0
 40
0.0
 40
0.0
 40
0.0
 40
1.0
 40
1.0
 40
1.0
 40
1.0
 10
7.039422863405993
 20
11.78784048402231
 30
0.0
 10
8.537993684327821
 20
10.98811695261593
 30
0.0
 10
10.03653076651925
 20
10.18833940832594
 30
0.0
 10
11.53500000000009
 20
9.38845350421692
 30
0.0
  0
ARC
  5
7C
330
1F
100
AcDbEntity
  8
SK1
  6
Continuous
100
AcDbCircle
 10
11.431458759
 20
9.1846810243
 30
0.0
 40
0.2285694908325221
100
AcDbArc
 50
0.9008263735
 51
63.0638832429
  0
LINE
  5
7D
330
1F
100
AcDbEntity
  8
SK1
  6
Continuous
100
AcDbLine
 10
3.56
 20
11.8516738907
 30
0.0
 11
3.56
 21
12.1578206366
 31
0.0
  0
SPLINE
  5
7E
330
1F
100
AcDbEntity
  8
SK1
  6
Continuous
100
AcDbSpline
210
0.0
220
0.0
230
1.0
 70
     8
 71
     3
 72
    11
 73
     7
 74
     0
 42
0.0000000004958328
 43
0.0000000001
 12
1.0
 22
0.0
 32
0.0
 13
1.0
 23
0.0
 33
0.0
 40
0.0
 40
0.0
 40
0.0
 40
0.0
 40
0.8975598067450262
 40
0.8975598067450262
 40
0.8975598067450262
 40
1.0
 40
1.0
 40
1.0
 40
1.0
 10
3.559999999999997
 20
12.15782063655855
 30
0.0
 10
-2.423747213511757
 20
11.3805060932138
 30
0.0
 10
-8.407484381462899
 20
10.60312553414864
 30
0.0
 10
-14.3912019208704
 20
9.825616038119136
 30
0.0
 10
-15.07413488714704
 20
9.736877413186605
 30
0.0
 10
-15.75706758792894
 20
9.648137044211273
 30
0.0
 10
-16.44000000000001
 20
9.559394778805267
 30
0.0
  0
LINE
  5
7F
330
1F
100
AcDbEntity
  8
SK3
100
AcDbLine
 10
-8.04
 20
5.6840185564
 30
0.0
 11
-7.34
 21
5.309744229
 31
0.0
  0
LINE
  5
80
330
1F
100
AcDbEntity
  8
SK3
100
AcDbLine
 10
-7.34
 20
5.309744229
 30
0.0
 11
-7.34
 21
5.0035974831
 31
0.0
  0
ARC
  5
81
330
1F
100
AcDbEntity
  8
SK3
100
AcDbCircle
 10
-246.2084639773
 20
-440.275431141
 30
0.0
 40
503.20425833896
100
AcDbArc
 50
61.615693879
 51
61.6605171668
  0
LINE
  5
82
330
1F
100
AcDbEntity
  8
SK3
100
AcDbLine
 10
-6.9935898385
 20
2.4330164871
 30
0.0
 11
11.46
 21
2.4330164871
 31
0.0
  0
LINE
  5
83
330
1F
100
AcDbEntity
  8
SK1
  6
Continuous
100
AcDbLine
 10
6.66
 20
11.8915037088
 30
0.0
 11
6.66
 21
11.5853569629
 31
0.0
  0
ARC
  5
84
330
1F
100
AcDbEntity
  8
SK1
  6
Continuous
100
AcDbCircle
 10
6.4672747422
 20
10.5017748903
 30
0.0
 40
0.192885140214172
100
AcDbArc
 50
267.8385535437
 51
357.6669794629
  0
LINE
  5
85
330
1F
100
AcDbEntity
  8
SK1
  6
Continuous
100
AcDbLine
 10
6.46
 20
10.3090269838
 30
0.0
 11
3.76
 21
10.3090269838
 31
0.0
  0
ARC
  5
86
330
1F
100
AcDbEntity
  8
SK1
  6
Continuous
100
AcDbCircle
 10
3.752722264
 20
10.5017716519
 30
0.0
 40
0.1928820171435118
100
AcDbArc
 50
182.3320955905
 51
272.1623714122
  0
LINE
  5
87
330
1F
100
AcDbEntity
  8
SK3
100
AcDbLine
 10
-21.34
 20
4.5160449099
 30
0.0
 11
-21.34
 21
5.9866519186
 31
0.0
  0
LINE
  5
88
330
1F
100
AcDbEntity
  8
SK3
100
AcDbLine
 10
-21.34
 20
4.5160449099
 30
0.0
 11
-22.34
 21
4.9251233167
 31
0.0
  0
LINE
  5
89
330
1F
100
AcDbEntity
  8
SK3
100
AcDbLine
 10
-21.34
 20
3.950359485
 30
0.0
 11
-22.34
 21
4.3594378917
 31
0.0
  0
LINE
  5
8A
330
1F
100
AcDbEntity
  8
SK3
100
AcDbLine
 10
-7.34
 20
4.2295877414
 30
0.0
 11
-7.34
 21
5.0035974831
 31
0.0
  0
LINE
  5
8B
330
1F
100
AcDbEntity
  8
SK3
100
AcDbLine
 10
-8.04
 20
4.5160449099
 30
0.0
 11
-8.04
 21
5.3778718105
 31
0.0
  0
LINE
  5
8C
330
1F
100
AcDbEntity
  8
SK1
  6
Continuous
100
AcDbLine
 10
-22.34
 20
6.7107334608
 30
0.0
 11
-22.34
 21
9.0904102324
 31
0.0
  0
LINE
  5
8D
330
1F
100
AcDbEntity
  8
SK1
  6
Continuous
100
AcDbLine
 10
-22.0817519303
 20
6.9209978745
 30
0.0
 11
-22.0817519303
 21
9.3877690179
 31
0.0
  0
LINE
  5
8E
330
1F
100
AcDbEntity
  8
SK1
  6
Continuous
100
AcDbLine
 10
3.56
 20
9.4708785109
 30
0.0
 11
3.56
 21
11.8516738907
 31
0.0
  0
LINE
  5
8F
330
1F
100
AcDbEntity
  8
SK1
  6
Continuous
100
AcDbLine
 10
7.0394228634
 20
9.4220225366
 30
0.0
 11
7.0394228634
 21
11.787840484
 31
0.0
  0
LINE
  5
90
330
1F
100
AcDbEntity
  8
SK1
  6
Continuous
100
AcDbLine
 10
6.66
 20
9.2670483589
 30
0.0
 11
6.66
 21
11.5853569629
 31
0.0
  0
LINE
  5
91
330
1F
100
AcDbEntity
  8
SK1
  6
Continuous
100
AcDbLine
 10
3.76
 20
8.0558731094
 30
0.0
 11
3.76
 21
10.0028802379
 31
0.0
  0
LINE
  5
92
330
1F
100
AcDbEntity
  8
SK1
  6
Continuous
100
AcDbLine
 10
6.46
 20
8.0558731094
 30
0.0
 11
6.46
 21
10.0028802379
 31
0.0
  0
LINE
  5
93
330
1F
100
AcDbEntity
  8
SK1
  6
Continuous
100
AcDbLine
 10
6.66
 20
8.701362934
 30
0.0
 11
7.0394228634
 21
8.8563371117
 31
0.0
  0
LINE
  5
94
330
1F
100
AcDbEntity
  8
SK1
  6
Continuous
100
AcDbLine
 10
7.0394228634
 20
8.8563371117
 30
0.0
 11
8.9106517703
 21
8.0920119811
 31
0.0
  0
LINE
  5
95
330
1F
100
AcDbEntity
  8
SK1
  6
Continuous
100
AcDbLine
 10
6.66
 20
9.2670483589
 30
0.0
 11
6.66
 21
8.701362934
 31
0.0
  0
SPLINE
  5
96
330
1F
100
AcDbEntity
  8
SK1
  6
Continuous
100
AcDbSpline
210
0.0
220
0.0
230
1.0
 70
     8
 71
     3
 72
    10
 73
     6
 74
     0
 42
0.0000000360933571
 43
0.0000000001
 12
1.0
 22
0.0
 32
0.0
 13
1.0
 23
0.0
 33
0.0
 40
0.0
 40
0.0
 40
0.0
 40
0.0
 40
0.5
 40
0.5
 40
1.0
 40
1.0
 40
1.0
 40
1.0
 10
6.660000000002338
 20
8.19738638720887
 30
0.0
 10
6.659999999999902
 20
8.160498118253594
 30
0.0
 10
6.638799670457872
 20
8.123798337038668
 30
0.0
 10
6.564197273849288
 20
8.070954319212749
 30
0.0
 10
6.512839104340816
 20
8.055873109368255
 30
0.0
 10
6.460000000000004
 20
8.05587310936882
 30
0.0
  0
LINE
  5
97
330
1F
100
AcDbEntity
  8
SK1
  6
Continuous
100
AcDbLine
 10
6.46
 20
8.0558731094
 30
0.0
 11
3.76
 21
8.0558731094
 31
0.0
  0
SPLINE
  5
98
330
1F
100
AcDbEntity
  8
SK1
  6
Continuous
100
AcDbSpline
210
0.0
220
0.0
230
1.0
 70
     8
 71
     3
 72
    10
 73
     6
 74
     0
 42
0.0000000361019767
 43
0.0000000001
 12
1.0
 22
0.0
 32
0.0
 13
1.0
 23
0.0
 33
0.0
 40
0.0
 40
0.0
 40
0.0
 40
0.0
 40
0.5
 40
0.5
 40
1.0
 40
1.0
 40
1.0
 40
1.0
 10
3.760000000000003
 20
8.05587310936882
 30
0.0
 10
3.707121383586762
 20
8.055873109368822
 30
0.0
 10
3.655400147046572
 20
8.071241316979512
 30
0.0
 10
3.581612828136431
 20
8.12350431312603
 30
0.0
 10
3.559999999999997
 20
8.160466235475049
 30
0.0
 10
3.560000000000004
 20
8.197386387209061
 30
0.0
  0
LINE
  5
99
330
1F
100
AcDbEntity
  8
SK1
  6
Continuous
100
AcDbLine
 10
3.56
 20
8.905193086
 30
0.0
 11
3.56
 21
9.4708785109
 31
0.0
  0
SPLINE
  5
9A
330
1F
100
AcDbEntity
  8
SK1
  6
Continuous
100
AcDbSpline
210
0.0
220
0.0
230
1.0
 70
     8
 71
     3
 72
    11
 73
     7
 74
     0
 42
0.0000000003880749
 43
0.0000000001
 12
1.0
 22
0.0
 32
0.0
 13
1.0
 23
0.0
 33
0.0
 40
0.0
 40
0.0
 40
0.0
 40
0.0
 40
0.8814146954795123
 40
0.8814146954795123
 40
0.8814146954795123
 40
1.0
 40
1.0
 40
1.0
 40
1.0
 10
3.559999999999997
 20
9.470878510913442
 30
0.0
 10
-3.973698877841159
 20
8.721844619211055
 30
0.0
 10
-11.50738262367857
 20
7.97273460880792
 30
0.0
 10
-19.04102947641212
 20
7.223439132336664
 30
0.0
 10
-20.0546043703871
 20
7.122629113236191
 30
0.0
 10
-21.06817855554473
 20
7.021815530718515
 30
0.0
 10
-22.08175193028802
 20
6.920997874502007
 30
0.0
  0
SPLINE
  5
9B
330
1F
100
AcDbEntity
  8
SK1
  6
Continuous
100
AcDbSpline
210
0.0
220
0.0
230
1.0
 70
     8
 71
     3
 72
    10
 73
     6
 74
     0
 42
0.0000000269084072
 43
0.0000000001
 12
1.0
 22
0.0
 32
0.0
 13
1.0
 23
0.0
 33
0.0
 40
0.0
 40
0.0
 40
0.0
 40
0.0
 40
0.5
 40
0.5
 40
1.0
 40
1.0
 40
1.0
 40
1.0
 10
-22.08175193028802
 20
6.920997874502007
 30
0.0
 10
-22.15330684542488
 20
6.913880482693353
 30
0.0
 10
-22.21940242541914
 20
6.888336095105264
 30
0.0
 10
-22.31354727266465
 20
6.8116357729717
 30
0.0
 10
-22.34000000000001
 20
6.76129370923983
 30
0.0
 10
-22.34000000000001
 20
6.710733460792996
 30
0.0
  0
LINE
  5
9C
330
1F
100
AcDbEntity
  8
SK1
  6
Continuous
100
AcDbLine
 10
-22.34
 20
6.7107334608
 30
0.0
 11
-22.34
 21
6.1450480358
 31
0.0
  0
LINE
  5
9D
330
1F
100
AcDbEntity
  8
SK3
100
AcDbLine
 10
-21.34
 20
4.5160449099
 30
0.0
 11
-8.04
 21
4.5160449099
 31
0.0
  0
LINE
  5
9E
330
1F
100
AcDbEntity
  8
SK3
100
AcDbLine
 10
-8.04
 20
4.5160449099
 30
0.0
 11
-7.34
 21
4.2295877414
 31
0.0
  0
LINE
  5
9F
330
1F
100
AcDbEntity
  8
SK3
100
AcDbLine
 10
-7.34
 20
4.2295877414
 30
0.0
 11
-7.34
 21
4.1224520011
 31
0.0
  0
SPLINE
  5
A0
330
1F
100
AcDbEntity
  8
SK1
  6
Continuous
100
AcDbSpline
210
0.0
220
0.0
230
1.0
 70
     8
 71
     3
 72
    10
 73
     6
 74
     0
 42
0.0000000360933571
 43
0.0000000001
 12
1.0
 22
0.0
 32
0.0
 13
1.0
 23
0.0
 33
0.0
 40
0.0
 40
0.0
 40
0.0
 40
0.0
 40
0.5
 40
0.5
 40
1.0
 40
1.0
 40
1.0
 40
1.0
 10
6.660000000002338
 20
7.631700962259631
 30
0.0
 10
6.659999999999902
 20
7.594812693304356
 30
0.0
 10
6.63879967045787
 20
7.558112912089432
 30
0.0
 10
6.564197273849285
 20
7.505268894263511
 30
0.0
 10
6.512839104340816
 20
7.490187684419017
 30
0.0
 10
6.460000000000004
 20
7.49018768441958
 30
0.0
  0
LINE
  5
A1
330
1F
100
AcDbEntity
  8
SK1
  6
Continuous
100
AcDbLine
 10
6.46
 20
7.4901876844
 30
0.0
 11
3.76
 21
7.4901876844
 31
0.0
  0
SPLINE
  5
A2
330
1F
100
AcDbEntity
  8
SK1
  6
Continuous
100
AcDbSpline
210
0.0
220
0.0
230
1.0
 70
     8
 71
     3
 72
    10
 73
     6
 74
     0
 42
0.0000000361019767
 43
0.0000000001
 12
1.0
 22
0.0
 32
0.0
 13
1.0
 23
0.0
 33
0.0
 40
0.0
 40
0.0
 40
0.0
 40
0.0
 40
0.5
 40
0.5
 40
1.0
 40
1.0
 40
1.0
 40
1.0
 10
3.760000000000003
 20
7.490187684419582
 30
0.0
 10
3.70712138358676
 20
7.490187684419583
 30
0.0
 10
3.655400147046574
 20
7.505555892030271
 30
0.0
 10
3.581612828136431
 20
7.557818888176791
 30
0.0
 10
3.559999999999997
 20
7.594780810525814
 30
0.0
 10
3.560000000000004
 20
7.631700962259826
 30
0.0
  0
SPLINE
  5
A3
330
1F
100
AcDbEntity
  8
SK1
  6
Continuous
100
AcDbSpline
210
0.0
220
0.0
230
1.0
 70
     8
 71
     3
 72
    11
 73
     7
 74
     0
 42
0.0000000003880749
 43
0.0000000001
 12
1.0
 22
0.0
 32
0.0
 13
1.0
 23
0.0
 33
0.0
 40
0.0
 40
0.0
 40
0.0
 40
0.0
 40
0.8814146954795123
 40
0.8814146954795123
 40
0.8814146954795123
 40
1.0
 40
1.0
 40
1.0
 40
1.0
 10
3.559999999999997
 20
8.905193085964203
 30
0.0
 10
-3.973698877841159
 20
8.156159194261816
 30
0.0
 10
-11.50738262367857
 20
7.407049183858681
 30
0.0
 10
-19.04102947641212
 20
6.657753707387426
 30
0.0
 10
-20.0546043703871
 20
6.556943688286952
 30
0.0
 10
-21.06817855554473
 20
6.456130105769274
 30
0.0
 10
-22.08175193028802
 20
6.355312449552769
 30
0.0
  0
SPLINE
  5
A4
330
1F
100
AcDbEntity
  8
SK1
  6
Continuous
100
AcDbSpline
210
0.0
220
0.0
230
1.0
 70
     8
 71
     3
 72
    10
 73
     6
 74
     0
 42
0.0000000269084072
 43
0.0000000001
 12
1.0
 22
0.0
 32
0.0
 13
1.0
 23
0.0
 33
0.0
 40
0.0
 40
0.0
 40
0.0
 40
0.0
 40
0.4999999999999996
 40
0.4999999999999996
 40
1.0
 40
1.0
 40
1.0
 40
1.0
 10
-22.08175193028802
 20
6.355312449552769
 30
0.0
 10
-22.15330684542488
 20
6.348195057744116
 30
0.0
 10
-22.21940242541913
 20
6.322650670156023
 30
0.0
 10
-22.31354727266464
 20
6.245950348022462
 30
0.0
 10
-22.34
 20
6.195608284290592
 30
0.0
 10
-22.34000000000001
 20
6.145048035843757
 30
0.0
  0
LINE
  5
A5
330
1F
100
AcDbEntity
  8
SK3
100
AcDbLine
 10
-21.34
 20
3.950359485
 30
0.0
 11
-8.04
 21
3.950359485
 31
0.0
  0
LINE
  5
A6
330
1F
100
AcDbEntity
  8
SK3
100
AcDbLine
 10
-8.04
 20
3.950359485
 30
0.0
 11
-7.34
 21
3.6639023165
 31
0.0
  0
LINE
  5
A7
330
1F
100
AcDbEntity
  8
SK1
  6
Continuous
100
AcDbLine
 10
6.66
 20
9.2670483589
 30
0.0
 11
7.0394228634
 21
9.4220225366
 31
0.0
  0
LINE
  5
A8
330
1F
100
AcDbEntity
  8
SK1
  6
Continuous
100
AcDbLine
 10
7.0394228634
 20
9.4220225366
 30
0.0
 11
8.9106517703
 21
8.657697406
 31
0.0
  0
SPLINE
  5
A9
330
1F
100
AcDbEntity
  8
SK3
100
AcDbSpline
210
0.0
220
0.0
230
1.0
 70
     8
 71
     3
 72
    10
 73
     6
 74
     0
 42
0.0000000426930132
 43
0.0000000001
 12
1.0
 22
0.0
 32
0.0
 13
1.0
 23
0.0
 33
0.0
 40
0.0
 40
0.0
 40
0.0
 40
0.0
 40
0.5
 40
0.5
 40
1.0
 40
1.0
 40
1.0
 40
1.0
 10
11.66000000000105
 20
1.391395504069817
 30
0.0
 10
11.65999999999995
 20
1.37130671062574
 30
0.0
 10
11.63905944336757
 20
1.351315713231944
 30
0.0
 10
11.56470517338571
 20
1.322318742126437
 30
0.0
 10
11.51315300250899
 20
1.313935230759172
 30
0.0
 10
11.45999999999999
 20
1.313935230759469
 30
0.0
  0
SPLINE
  5
AA
330
1F
100
AcDbEntity
  8
SK3
100
AcDbSpline
210
0.0
220
0.0
230
1.0
 70
     8
 71
     3
 72
    10
 73
     6
 74
     0
 42
0.0000000426930132
 43
0.0000000001
 12
1.0
 22
0.0
 32
0.0
 13
1.0
 23
0.0
 33
0.0
 40
0.0
 40
0.0
 40
0.0
 40
0.0
 40
0.5
 40
0.5
 40
1.0
 40
1.0
 40
1.0
 40
1.0
 10
11.66000000000105
 20
0.6522918780607886
 30
0.0
 10
11.65999999999995
 20
0.6322030846167105
 30
0.0
 10
11.63905944336757
 20
0.6122120872229141
 30
0.0
 10
11.56470517338571
 20
0.5832151161174087
 30
0.0
 10
11.51315300250899
 20
0.5748316047501422
 30
0.0
 10
11.45999999999999
 20
0.5748316047504378
 30
0.0
  0
LINE
  5
AB
330
1F
100
AcDbEntity
  8
SK3
100
AcDbLine
 10
-6.9935898385
 20
1.3139352308
 30
0.0
 11
-6.9935898385
 21
2.1268697412
 31
0.0
  0
LINE
  5
AC
330
1F
100
AcDbEntity
  8
SK3
100
AcDbLine
 10
-7.34
 20
2.5055148767
 30
0.0
 11
-7.34
 21
3.6639023165
 31
0.0
  0
LINE
  5
AD
330
1F
100
AcDbEntity
  8
SK3
100
AcDbLine
 10
-8.04
 20
2.6605443792
 30
0.0
 11
-8.04
 21
3.950359485
 31
0.0
  0
LINE
  5
AE
330
1F
100
AcDbEntity
  8
SK1
  6
Continuous
100
AcDbLine
 10
3.56
 20
5.3420810009
 30
0.0
 11
3.56
 21
8.905193086
 31
0.0
  0
LINE
  5
AF
330
1F
100
AcDbEntity
  8
SK1
  6
Continuous
100
AcDbLine
 10
11.66
 20
4.2388648654
 30
0.0
 11
11.66
 21
9.1882745341
 31
0.0
  0
LINE
  5
B0
330
1F
100
AcDbEntity
  8
SK1
  6
Continuous
100
AcDbLine
 10
11.535
 20
4.3217817097
 30
0.0
 11
11.535
 21
9.3884535042
 31
0.0
  0
LINE
  5
B1
330
1F
100
AcDbEntity
  8
SK1
  6
Continuous
100
AcDbLine
 10
7.0394228634
 20
5.3156403381
 30
0.0
 11
7.0394228634
 21
8.8563371117
 31
0.0
  0
LINE
  5
B2
330
1F
100
AcDbEntity
  8
SK1
  6
Continuous
100
AcDbLine
 10
6.66
 20
5.2317689175
 30
0.0
 11
6.66
 21
8.701362934
 31
0.0
  0
LINE
  5
B3
330
1F
100
AcDbEntity
  8
SK1
  6
Continuous
100
AcDbLine
 10
3.76
 20
4.5762855959
 30
0.0
 11
3.76
 21
7.4901876844
 31
0.0
  0
LINE
  5
B4
330
1F
100
AcDbEntity
  8
SK1
  6
Continuous
100
AcDbLine
 10
6.46
 20
4.5762855959
 30
0.0
 11
6.46
 21
7.4901876844
 31
0.0
  0
LINE
  5
B5
330
1F
100
AcDbEntity
  8
SK1
  6
Continuous
100
AcDbLine
 10
3.56
 20
4.6029773749
 30
0.0
 11
-16.44
 21
3.5266741438
 31
0.0
  0
LINE
  5
B6
330
1F
100
AcDbEntity
  8
SK3
100
AcDbLine
 10
-8.04
 20
1.9214407532
 30
0.0
 11
-7.34
 21
1.7664112507
 31
0.0
  0
LINE
  5
B7
330
1F
100
AcDbEntity
  8
SK3
100
AcDbLine
 10
-7.34
 20
0.6522918781
 30
0.0
 11
-6.9935898385
 21
0.5748316048
 31
0.0
  0
LINE
  5
B8
330
1F
100
AcDbEntity
  8
SK3
100
AcDbLine
 10
-6.9935898385
 20
0.5748316048
 30
0.0
 11
11.46
 21
0.5748316048
 31
0.0
  0
SPLINE
  5
B9
330
1F
100
AcDbEntity
  8
SK1
  6
Continuous
100
AcDbSpline
210
0.0
220
0.0
230
1.0
 70
     8
 71
     3
 72
    10
 73
     6
 74
     0
 42
0.0000000427802756
 43
0.0000000001
 12
1.0
 22
0.0
 32
0.0
 13
1.0
 23
0.0
 33
0.0
 40
0.0
 40
0.0
 40
0.0
 40
0.0
 40
0.5
 40
0.5
 40
1.0
 40
1.0
 40
1.0
 40
1.0
 10
6.660000000000003
 20
3.9137684039737
 30
0.0
 10
6.660000000000008
 20
3.893804616673983
 30
0.0
 10
6.638799670458016
 20
3.873942838204204
 30
0.0
 10
6.564197273849423
 20
3.845343861840702
 30
0.0
 10
6.512839104340882
 20
3.837181969887352
 30
0.0
 10
6.460000000000004
 20
3.837181969887656
 30
0.0
  0
LINE
  5
BA
330
1F
100
AcDbEntity
  8
SK1
  6
Continuous
100
AcDbLine
 10
6.46
 20
3.8371819699
 30
0.0
 11
3.76
 21
3.8371819699
 31
0.0
  0
SPLINE
  5
BB
330
1F
100
AcDbEntity
  8
SK1
  6
Continuous
100
AcDbSpline
210
0.0
220
0.0
230
1.0
 70
     8
 71
     3
 72
    10
 73
     6
 74
     0
 42
0.0000000427867299
 43
0.0000000001
 12
1.0
 22
0.0
 32
0.0
 13
1.0
 23
0.0
 33
0.0
 40
0.0
 40
0.0
 40
0.0
 40
0.0
 40
0.5
 40
0.5
 40
1.0
 40
1.0
 40
1.0
 40
1.0
 10
3.760000000000003
 20
3.837181969887655
 30
0.0
 10
3.707121383586693
 20
3.837181969887653
 30
0.0
 10
3.655400147046441
 20
3.845499183912818
 30
0.0
 10
3.581612828136282
 20
3.873783713609334
 30
0.0
 10
3.559999999999897
 20
3.893787361838569
 30
0.0
 10
3.559999999997671
 20
3.913768403973802
 30
0.0
  0
LINE
  5
BC
330
1F
100
AcDbEntity
  8
SK1
  6
Continuous
100
AcDbLine
 10
6.66
 20
5.2317689175
 30
0.0
 11
7.0394228634
 21
5.3156403381
 31
0.0
  0
LINE
  5
BD
330
1F
100
AcDbEntity
  8
SK1
  6
Continuous
100
AcDbLine
 10
7.0394228634
 20
5.3156403381
 30
0.0
 11
11.535
 21
4.3217817097
 31
0.0
  0
SPLINE
  5
BE
330
1F
100
AcDbEntity
  8
SK1
  6
Continuous
100
AcDbSpline
210
0.0
220
0.0
230
1.0
 70
     8
 71
     3
 72
     8
 73
     4
 74
     0
 42
0.0000000587420087
 43
0.0000000001
 12
1.0
 22
0.0
 32
0.0
 13
1.0
 23
0.0
 33
0.0
 40
0.0
 40
0.0
 40
0.0
 40
0.0
 40
1.0
 40
1.0
 40
1.0
 40
1.0
 10
11.535
 20
4.321781709717062
 30
0.0
 10
11.61129855468904
 20
4.30491148610898
 30
0.0
 10
11.66
 20
4.272407249991127
 30
0.0
 10
11.66
 20
4.238864865390182
 30
0.0
  0
LINE
  5
BF
330
1F
100
AcDbEntity
  8
SK1
  6
Continuous
100
AcDbLine
 10
11.66
 20
4.2388648654
 30
0.0
 11
11.66
 21
3.4997612394
 31
0.0
  0
LINE
  5
C0
330
1F
100
AcDbEntity
  8
SK1
  6
Continuous
100
AcDbLine
 10
6.66
 20
4.4926652915
 30
0.0
 11
7.0394228634
 21
4.5765367121
 31
0.0
  0
LINE
  5
C1
330
1F
100
AcDbEntity
  8
SK1
  6
Continuous
100
AcDbLine
 10
7.0394228634
 20
4.5765367121
 30
0.0
 11
11.535
 21
3.5826780837
 31
0.0
  0
SPLINE
  5
C2
330
1F
100
AcDbEntity
  8
SK1
  6
Continuous
100
AcDbSpline
210
0.0
220
0.0
230
1.0
 70
     8
 71
     3
 72
     8
 73
     4
 74
     0
 42
0.0000000587420087
 43
0.0000000001
 12
1.0
 22
0.0
 32
0.0
 13
1.0
 23
0.0
 33
0.0
 40
0.0
 40
0.0
 40
0.0
 40
0.0
 40
1.0
 40
1.0
 40
1.0
 40
1.0
 10
11.535
 20
3.582678083708031
 30
0.0
 10
11.61129855468904
 20
3.565807860099951
 30
0.0
 10
11.66
 20
3.533303623982095
 30
0.0
 10
11.66
 20
3.499761239381151
 30
0.0
  0
LINE
  5
C3
330
1F
100
AcDbEntity
  8
SK1
  6
Continuous
100
AcDbLine
 10
3.56
 20
4.65287203
 30
0.0
 11
3.56
 21
5.3420810009
 31
0.0
  0
LINE
  5
C4
330
1F
100
AcDbEntity
  8
SK1
  6
Continuous
100
AcDbLine
 10
3.56
 20
5.3420810009
 30
0.0
 11
-16.44
 21
4.2657777698
 31
0.0
  0
LINE
  5
C5
330
1F
100
AcDbEntity
  8
SK3
100
AcDbLine
 10
-8.04
 20
2.6605443792
 30
0.0
 11
-7.34
 21
2.5055148767
 31
0.0
  0
LINE
  5
C6
330
1F
100
AcDbEntity
  8
SK3
100
AcDbLine
 10
-7.34
 20
2.5055148767
 30
0.0
 11
-7.34
 21
1.7664112507
 31
0.0
  0
LINE
  5
C7
330
1F
100
AcDbEntity
  8
SK3
100
AcDbLine
 10
-7.34
 20
1.3913955041
 30
0.0
 11
-6.9935898385
 21
1.3139352308
 31
0.0
  0
LINE
  5
C8
330
1F
100
AcDbEntity
  8
SK3
100
AcDbLine
 10
-6.9935898385
 20
1.3139352308
 30
0.0
 11
11.46
 21
1.3139352308
 31
0.0
  0
LINE
  5
C9
330
1F
100
AcDbEntity
  8
SK1
  6
Continuous
100
AcDbLine
 10
6.66
 20
5.2317689175
 30
0.0
 11
6.66
 21
4.65287203
 31
0.0
  0
SPLINE
  5
CA
330
1F
100
AcDbEntity
  8
SK1
  6
Continuous
100
AcDbSpline
210
0.0
220
0.0
230
1.0
 70
     8
 71
     3
 72
    10
 73
     6
 74
     0
 42
0.0000000427802756
 43
0.0000000001
 12
1.0
 22
0.0
 32
0.0
 13
1.0
 23
0.0
 33
0.0
 40
0.0
 40
0.0
 40
0.0
 40
0.0
 40
0.5
 40
0.5
 40
1.0
 40
1.0
 40
1.0
 40
1.0
 10
6.660000000000003
 20
4.652872029982732
 30
0.0
 10
6.66000000000001
 20
4.632908242683015
 30
0.0
 10
6.638799670458018
 20
4.613046464213237
 30
0.0
 10
6.564197273849427
 20
4.584447487849734
 30
0.0
 10
6.512839104340882
 20
4.576285595896381
 30
0.0
 10
6.460000000000004
 20
4.576285595896687
 30
0.0
  0
LINE
  5
CB
330
1F
100
AcDbEntity
  8
SK1
  6
Continuous
100
AcDbLine
 10
6.46
 20
4.5762855959
 30
0.0
 11
3.76
 21
4.5762855959
 31
0.0
  0
SPLINE
  5
CC
330
1F
100
AcDbEntity
  8
SK1
  6
Continuous
100
AcDbSpline
210
0.0
220
0.0
230
1.0
 70
     8
 71
     3
 72
    10
 73
     6
 74
     0
 42
0.0000000427867299
 43
0.0000000001
 12
1.0
 22
0.0
 32
0.0
 13
1.0
 23
0.0
 33
0.0
 40
0.0
 40
0.0
 40
0.0
 40
0.0
 40
0.5
 40
0.5
 40
1.0
 40
1.0
 40
1.0
 40
1.0
 10
3.760000000000003
 20
4.576285595896685
 30
0.0
 10
3.707121383586696
 20
4.576285595896685
 30
0.0
 10
3.655400147046437
 20
4.58460280992185
 30
0.0
 10
3.581612828136283
 20
4.612887339618363
 30
0.0
 10
3.559999999999897
 20
4.632890987847601
 30
0.0
 10
3.559999999997671
 20
4.652872029982831
 30
0.0
  0
LINE
  5
CD
330
1F
100
AcDbEntity
  8
SK3
100
AcDbLine
 10
-21.34
 20
0.4000000998
 30
0.0
 11
-21.34
 21
3.950359485
 31
0.0
  0
LINE
  5
CE
330
1F
100
AcDbEntity
  8
SK3
100
AcDbLine
 10
-7.34
 20
0.4000000998
 30
0.0
 11
-7.34
 21
1.7664112507
 31
0.0
  0
LINE
  5
CF
330
1F
100
AcDbEntity
  8
SK3
100
AcDbLine
 10
-8.04
 20
0.4000000998
 30
0.0
 11
-8.04
 21
1.9214407532
 31
0.0
  0
LINE
  5
D0
330
1F
100
AcDbEntity
  8
SK1
  6
Continuous
100
AcDbLine
 10
-22.34
 20
0.4000000998
 30
0.0
 11
-22.34
 21
6.1450480358
 31
0.0
  0
LINE
  5
D1
330
1F
100
AcDbEntity
  8
SK1
  6
Continuous
100
AcDbLine
 10
-22.0817519303
 20
0.4000000998
 30
0.0
 11
-22.0817519303
 21
6.3553124496
 31
0.0
  0
LINE
  5
D2
330
1F
100
AcDbEntity
  8
SK1
  6
Continuous
100
AcDbLine
 10
3.56
 20
0.4000000998
 30
0.0
 11
3.56
 21
4.6029773749
 31
0.0
  0
LINE
  5
D3
330
1F
100
AcDbEntity
  8
SK1
  6
Continuous
100
AcDbLine
 10
7.0394228634
 20
0.4000000998
 30
0.0
 11
7.0394228634
 21
4.5765367121
 31
0.0
  0
LINE
  5
D4
330
1F
100
AcDbEntity
  8
SK1
  6
Continuous
100
AcDbLine
 10
6.66
 20
0.4000000998
 30
0.0
 11
6.66
 21
4.4926652915
 31
0.0
  0
LINE
  5
D5
330
1F
100
AcDbEntity
  8
SK1
  6
Continuous
100
AcDbLine
 10
3.76
 20
0.4000000998
 30
0.0
 11
3.76
 21
3.8371819699
 31
0.0
  0
LINE
  5
D6
330
1F
100
AcDbEntity
  8
SK1
  6
Continuous
100
AcDbLine
 10
6.46
 20
0.4000000998
 30
0.0
 11
6.46
 21
3.8371819699
 31
0.0
  0
LINE
  5
D7
330
1F
100
AcDbEntity
  8
SK1
  6
Continuous
100
AcDbLine
 10
6.66
 20
-0.3999999002
 30
0.0
 11
7.0394228634
 21
-0.3999999002
 31
0.0
  0
LINE
  5
D8
330
1F
100
AcDbEntity
  8
SK1
  6
Continuous
100
AcDbLine
 10
7.0394228634
 20
-0.3999999002
 30
0.0
 11
8.9106517703
 21
-0.3999999002
 31
0.0
  0
LINE
  5
D9
330
1F
100
AcDbEntity
  8
SK1
  6
Continuous
100
AcDbLine
 10
6.66
 20
0.4000000998
 30
0.0
 11
6.46
 21
0.4000000998
 31
0.0
  0
LINE
  5
DA
330
1F
100
AcDbEntity
  8
SK1
  6
Continuous
100
AcDbLine
 10
6.46
 20
0.4000000998
 30
0.0
 11
3.76
 21
0.4000000998
 31
0.0
  0
LINE
  5
DB
330
1F
100
AcDbEntity
  8
SK1
  6
Continuous
100
AcDbLine
 10
3.76
 20
0.4000000998
 30
0.0
 11
3.56
 21
0.4000000998
 31
0.0
  0
LINE
  5
DC
330
1F
100
AcDbEntity
  8
SK1
  6
Continuous
100
AcDbLine
 10
3.56
 20
0.4000000998
 30
0.0
 11
-22.0817519303
 21
0.4000000998
 31
0.0
  0
LINE
  5
DD
330
1F
100
AcDbEntity
  8
SK1
  6
Continuous
100
AcDbLine
 10
-22.0817519303
 20
0.4000000998
 30
0.0
 11
-22.34
 21
0.4000000998
 31
0.0
  0
LINE
  5
DE
330
1F
100
AcDbEntity
  8
SK1
  6
Continuous
100
AcDbLine
 10
6.66
 20
-0.3999999002
 30
0.0
 11
6.46
 21
-0.3999999002
 31
0.0
  0
LINE
  5
DF
330
1F
100
AcDbEntity
  8
SK1
  6
Continuous
100
AcDbLine
 10
6.46
 20
-0.3999999002
 30
0.0
 11
3.76
 21
-0.3999999002
 31
0.0
  0
LINE
  5
E0
330
1F
100
AcDbEntity
  8
SK1
  6
Continuous
100
AcDbLine
 10
3.76
 20
-0.3999999002
 30
0.0
 11
3.56
 21
-0.3999999002
 31
0.0
  0
LINE
  5
E1
330
1F
100
AcDbEntity
  8
SK1
  6
Continuous
100
AcDbLine
 10
3.56
 20
-0.3999999002
 30
0.0
 11
-22.0817519303
 21
-0.3999999002
 31
0.0
  0
LINE
  5
E2
330
1F
100
AcDbEntity
  8
SK1
  6
Continuous
100
AcDbLine
 10
-22.0817519303
 20
-0.3999999002
 30
0.0
 11
-22.34
 21
-0.3999999002
 31
0.0
  0
LINE
  5
E3
330
1F
100
AcDbEntity
  8
SK1
  6
Continuous
100
AcDbLine
 10
6.66
 20
0.4000000998
 30
0.0
 11
7.0394228634
 21
0.4000000998
 31
0.0
  0
LINE
  5
E4
330
1F
100
AcDbEntity
  8
SK1
  6
Continuous
100
AcDbLine
 10
7.0394228634
 20
0.4000000998
 30
0.0
 11
8.9106517704
 21
0.4000000998
 31
0.0
  0
SPLINE
  5
E5
330
1F
100
AcDbEntity
  8
SK3
100
AcDbSpline
210
0.0
220
0.0
230
1.0
 70
     8
 71
     3
 72
    10
 73
     6
 74
     0
 42
0.0000000427038525
 43
0.0000000001
 12
1.0
 22
0.0
 32
0.0
 13
1.0
 23
0.0
 33
0.0
 40
0.0
 40
0.0
 40
0.0
 40
0.0
 40
0.5
 40
0.5
 40
1.0
 40
1.0
 40
1.0
 40
1.0
 10
11.66000000000613
 20
-0.6522916785191524
 30
0.0
 10
11.65999999999973
 20
-0.6322262325336044
 30
0.0
 10
11.63849648998125
 20
-0.6119495714963291
 30
0.0
 10
11.56484585420125
 20
-0.5833127993704819
 30
0.0
 10
11.51243413591361
 20
-0.5748314052090586
 30
0.0
 10
11.45999999999999
 20
-0.5748314052090583
 30
0.0
  0
SPLINE
  5
E6
330
1F
100
AcDbEntity
  8
SK3
100
AcDbSpline
210
0.0
220
0.0
230
1.0
 70
     8
 71
     3
 72
    10
 73
     6
 74
     0
 42
0.0000000427038525
 43
0.0000000001
 12
1.0
 22
0.0
 32
0.0
 13
1.0
 23
0.0
 33
0.0
 40
0.0
 40
0.0
 40
0.0
 40
0.0
 40
0.4999999999999999
 40
0.4999999999999999
 40
1.0
 40
1.0
 40
1.0
 40
1.0
 10
11.66000000000613
 20
-1.391395304528181
 30
0.0
 10
11.65999999999973
 20
-1.37132985854257
 30
0.0
 10
11.6384964899811
 20
-1.35105319750523
 30
0.0
 10
11.5648458542007
 20
-1.322416425379366
 30
0.0
 10
11.51243413591278
 20
-1.313935031217985
 30
0.0
 10
11.45999999999927
 20
-1.313935031215616
 30
0.0
  0
LINE
  5
E7
330
1F
100
AcDbEntity
  8
SK3
100
AcDbLine
 10
-6.9935898385
 20
-0.5748314052
 30
0.0
 11
-6.9935898385
 21
0.5748316048
 31
0.0
  0
LINE
  5
E8
330
1F
100
AcDbEntity
  8
SK3
100
AcDbLine
 10
-7.34
 20
-1.7664110512
 30
0.0
 11
-7.34
 21
-0.3999999002
 31
0.0
  0
LINE
  5
E9
330
1F
100
AcDbEntity
  8
SK3
100
AcDbLine
 10
-8.04
 20
-1.9214405536
 30
0.0
 11
-8.04
 21
-0.3999999002
 31
0.0
  0
LINE
  5
EA
330
1F
100
AcDbEntity
  8
SK1
  6
Continuous
100
AcDbLine
 10
3.56
 20
-4.6029771753
 30
0.0
 11
3.56
 21
-0.3999999002
 31
0.0
  0
LINE
  5
EB
330
1F
100
AcDbEntity
  8
SK1
  6
Continuous
100
AcDbLine
 10
11.66
 20
-3.4997610398
 30
0.0
 11
11.66
 21
3.4997612394
 31
0.0
  0
LINE
  5
EC
330
1F
100
AcDbEntity
  8
SK1
  6
Continuous
100
AcDbLine
 10
11.535
 20
-3.5826778842
 30
0.0
 11
11.535
 21
3.5826780837
 31
0.0
  0
LINE
  5
ED
330
1F
100
AcDbEntity
  8
SK1
  6
Continuous
100
AcDbLine
 10
7.0394228634
 20
-4.5765365126
 30
0.0
 11
7.0394228634
 21
-0.3999999002
 31
0.0
  0
LINE
  5
EE
330
1F
100
AcDbEntity
  8
SK1
  6
Continuous
100
AcDbLine
 10
6.66
 20
-4.492665092
 30
0.0
 11
6.66
 21
-0.3999999002
 31
0.0
  0
LINE
  5
EF
330
1F
100
AcDbEntity
  8
SK1
  6
Continuous
100
AcDbLine
 10
3.76
 20
-3.8371817703
 30
0.0
 11
3.76
 21
-0.3999999002
 31
0.0
  0
LINE
  5
F0
330
1F
100
AcDbEntity
  8
SK1
  6
Continuous
100
AcDbLine
 10
6.46
 20
-3.8371817703
 30
0.0
 11
6.46
 21
-0.3999999002
 31
0.0
  0
LINE
  5
F1
330
1F
100
AcDbEntity
  8
SK1
  6
Continuous
100
AcDbLine
 10
3.56
 20
-4.6528718304
 30
0.0
 11
3.56
 21
-5.3420808014
 31
0.0
  0
LINE
  5
F2
330
1F
100
AcDbEntity
  8
SK1
  6
Continuous
100
AcDbLine
 10
3.56
 20
-5.3420808014
 30
0.0
 11
-16.44
 21
-4.2657775703
 31
0.0
  0
LINE
  5
F3
330
1F
100
AcDbEntity
  8
SK3
100
AcDbLine
 10
-8.04
 20
-2.6605441796
 30
0.0
 11
-7.34
 21
-2.5055146772
 31
0.0
  0
LINE
  5
F4
330
1F
100
AcDbEntity
  8
SK3
100
AcDbLine
 10
-7.34
 20
-2.5055146772
 30
0.0
 11
-7.34
 21
-1.7664110512
 31
0.0
  0
ARC
  5
F5
330
1F
100
AcDbEntity
  8
SK3
100
AcDbCircle
 10
-201.5203032535
 20
867.8158432243
 30
0.0
 40
890.633040978413
100
AcDbArc
 50
282.5930604509
 51
282.6158958848
  0
LINE
  5
F6
330
1F
100
AcDbEntity
  8
SK3
100
AcDbLine
 10
-6.9935898385
 20
-1.3139350312
 30
0.0
 11
11.46
 21
-1.3139350312
 31
0.0
  0
LINE
  5
F7
330
1F
100
AcDbEntity
  8
SK1
  6
Continuous
100
AcDbLine
 10
6.66
 20
-5.231768718
 30
0.0
 11
6.66
 21
-4.6528718304
 31
0.0
  0
SPLINE
  5
F8
330
1F
100
AcDbEntity
  8
SK1
  6
Continuous
100
AcDbSpline
210
0.0
220
0.0
230
1.0
 70
     8
 71
     3
 72
    10
 73
     6
 74
     0
 42
0.000000042790812
 43
0.0000000001
 12
1.0
 22
0.0
 32
0.0
 13
1.0
 23
0.0
 33
0.0
 40
0.0
 40
0.0
 40
0.0
 40
0.0
 40
0.5
 40
0.5
 40
1.0
 40
1.0
 40
1.0
 40
1.0
 10
6.660000000000003
 20
-4.652871830441348
 30
0.0
 10
6.660000000000006
 20
-4.632921333738041
 30
0.0
 10
6.63821202617722
 20
-4.612780317750302
 30
0.0
 10
6.56437670067617
 20
-4.584556969914861
 30
0.0
 10
6.512157774181682
 20
-4.57628539635525
 30
0.0
 10
6.459999999999643
 20
-4.576285396354142
 30
0.0
  0
LINE
  5
F9
330
1F
100
AcDbEntity
  8
SK1
  6
Continuous
100
AcDbLine
 10
6.46
 20
-4.5762853964
 30
0.0
 11
3.76
 21
-4.5762853964
 31
0.0
  0
SPLINE
  5
FA
330
1F
100
AcDbEntity
  8
SK1
  6
Continuous
100
AcDbSpline
210
0.0
220
0.0
230
1.0
 70
     8
 71
     3
 72
    10
 73
     6
 74
     0
 42
0.0000000427691831
 43
0.0000000001
 12
1.0
 22
0.0
 32
0.0
 13
1.0
 23
0.0
 33
0.0
 40
0.0
 40
0.0
 40
0.0
 40
0.0
 40
0.5
 40
0.5
 40
1.0
 40
1.0
 40
1.0
 40
1.0
 10
3.760000000000003
 20
-4.576285396355304
 30
0.0
 10
3.70725252953188
 20
-4.576285396355305
 30
0.0
 10
3.655686903106353
 20
-4.584501871396582
 30
0.0
 10
3.581417235304665
 20
-4.6129529451746
 30
0.0
 10
3.560000000000002
 20
-4.632657828452391
 30
0.0
 10
3.560000000000004
 20
-4.652871830441347
 30
0.0
  0
LINE
  5
FB
330
1F
100
AcDbEntity
  8
SK1
  6
Continuous
100
AcDbLine
 10
6.66
 20
-4.492665092
 30
0.0
 11
7.0394228634
 21
-4.5765365126
 31
0.0
  0
SPLINE
  5
FC
330
1F
100
AcDbEntity
  8
SK1
  6
Continuous
100
AcDbSpline
210
0.0
220
0.0
230
1.0
 70
     8
 71
     3
 72
     8
 73
     4
 74
     0
 42
0.0000000021719653
 43
0.0000000001
 12
1.0
 22
0.0
 32
0.0
 13
1.0
 23
0.0
 33
0.0
 40
0.0
 40
0.0
 40
0.0
 40
0.0
 40
1.0
 40
1.0
 40
1.0
 40
1.0
 10
7.039422863405993
 20
-4.576536512583535
 30
0.0
 10
8.537993684327828
 20
-4.245280179726105
 30
0.0
 10
10.03653076651926
 20
-3.914001473999739
 30
0.0
 10
11.535
 20
-3.58267788416665
 30
0.0
  0
SPLINE
  5
FD
330
1F
100
AcDbEntity
  8
SK1
  6
Continuous
100
AcDbSpline
210
0.0
220
0.0
230
1.0
 70
     8
 71
     3
 72
    10
 73
     6
 74
     0
 42
0.0000000616132438
 43
0.0000000001
 12
1.0
 22
0.0
 32
0.0
 13
1.0
 23
0.0
 33
0.0
 40
0.0
 40
0.0
 40
0.0
 40
0.0
 40
0.5000000000000001
 40
0.5000000000000001
 40
1.0
 40
1.0
 40
1.0
 40
1.0
 10
11.535
 20
-3.58267788416665
 30
0.0
 10
11.57259151117949
 20
-3.574366098944135
 30
0.0
 10
11.60494850261214
 20
-3.561964037028624
 30
0.0
 10
11.64829447702993
 20
-3.533149909091426
 30
0.0
 10
11.66
 20
-3.516554091071264
 30
0.0
 10
11.66
 20
-3.499761039839772
 30
0.0
  0
LINE
  5
FE
330
1F
100
AcDbEntity
  8
SK1
  6
Continuous
100
AcDbLine
 10
6.66
 20
-5.231768718
 30
0.0
 11
7.0394228634
 21
-5.3156401386
 31
0.0
  0
SPLINE
  5
FF
330
1F
100
AcDbEntity
  8
SK1
  6
Continuous
100
AcDbSpline
210
0.0
220
0.0
230
1.0
 70
     8
 71
     3
 72
     8
 73
     4
 74
     0
 42
0.0000000021719653
 43
0.0000000001
 12
1.0
 22
0.0
 32
0.0
 13
1.0
 23
0.0
 33
0.0
 40
0.0
 40
0.0
 40
0.0
 40
0.0
 40
1.0
 40
1.0
 40
1.0
 40
1.0
 10
7.039422863405993
 20
-5.315640138592564
 30
0.0
 10
8.537993684327828
 20
-4.984383805735135
 30
0.0
 10
10.03653076651926
 20
-4.653105100008769
 30
0.0
 10
11.535
 20
-4.321781510175681
 30
0.0
  0
SPLINE
  5
100
330
1F
100
AcDbEntity
  8
SK1
  6
Continuous
100
AcDbSpline
210
0.0
220
0.0
230
1.0
 70
     8
 71
     3
 72
    10
 73
     6
 74
     0
 42
0.0000000616132438
 43
0.0000000001
 12
1.0
 22
0.0
 32
0.0
 13
1.0
 23
0.0
 33
0.0
 40
0.0
 40
0.0
 40
0.0
 40
0.0
 40
0.5000000000000001
 40
0.5000000000000001
 40
1.0
 40
1.0
 40
1.0
 40
1.0
 10
11.535
 20
-4.321781510175681
 30
0.0
 10
11.57259151117949
 20
-4.313469724953165
 30
0.0
 10
11.60494850261214
 20
-4.301067663037654
 30
0.0
 10
11.64829447702993
 20
-4.272253535100456
 30
0.0
 10
11.66
 20
-4.255657717080294
 30
0.0
 10
11.66
 20
-4.238864665848801
 30
0.0
  0
LINE
  5
101
330
1F
100
AcDbEntity
  8
SK1
  6
Continuous
100
AcDbLine
 10
11.66
 20
-4.2388646658
 30
0.0
 11
11.66
 21
-3.4997610398
 31
0.0
  0
LINE
  5
102
330
1F
100
AcDbEntity
  8
SK1
  6
Continuous
100
AcDbLine
 10
3.56
 20
-4.6029771753
 30
0.0
 11
-16.44
 21
-3.5266739442
 31
0.0
  0
LINE
  5
103
330
1F
100
AcDbEntity
  8
SK3
100
AcDbLine
 10
-8.04
 20
-1.9214405536
 30
0.0
 11
-7.34
 21
-1.7664110512
 31
0.0
  0
ARC
  5
104
330
1F
100
AcDbEntity
  8
SK3
100
AcDbCircle
 10
-201.5203032571
 20
868.5549468665
 30
0.0
 40
890.6330409950756
100
AcDbArc
 50
282.5930604509
 51
282.6158958848
  0
LINE
  5
105
330
1F
100
AcDbEntity
  8
SK3
100
AcDbLine
 10
-6.9935898385
 20
-0.5748314052
 30
0.0
 11
11.46
 21
-0.5748314052
 31
0.0
  0
SPLINE
  5
106
330
1F
100
AcDbEntity
  8
SK1
  6
Continuous
100
AcDbSpline
210
0.0
220
0.0
230
1.0
 70
     8
 71
     3
 72
    10
 73
     6
 74
     0
 42
0.000000042790812
 43
0.0000000001
 12
1.0
 22
0.0
 32
0.0
 13
1.0
 23
0.0
 33
0.0
 40
0.0
 40
0.0
 40
0.0
 40
0.0
 40
0.5
 40
0.5
 40
1.0
 40
1.0
 40
1.0
 40
1.0
 10
6.660000000000003
 20
-3.913768204432317
 30
0.0
 10
6.660000000000006
 20
-3.893817707729012
 30
0.0
 10
6.63821202617722
 20
-3.873676691741272
 30
0.0
 10
6.56437670067617
 20
-3.84545334390583
 30
0.0
 10
6.512157774181682
 20
-3.83718177034622
 30
0.0
 10
6.459999999999643
 20
-3.837181770345112
 30
0.0
  0
LINE
  5
107
330
1F
100
AcDbEntity
  8
SK1
  6
Continuous
100
AcDbLine
 10
6.46
 20
-3.8371817703
 30
0.0
 11
3.76
 21
-3.8371817703
 31
0.0
  0
SPLINE
  5
108
330
1F
100
AcDbEntity
  8
SK1
  6
Continuous
100
AcDbSpline
210
0.0
220
0.0
230
1.0
 70
     8
 71
     3
 72
    10
 73
     6
 74
     0
 42
0.0000000427691831
 43
0.0000000001
 12
1.0
 22
0.0
 32
0.0
 13
1.0
 23
0.0
 33
0.0
 40
0.0
 40
0.0
 40
0.0
 40
0.0
 40
0.5
 40
0.5
 40
1.0
 40
1.0
 40
1.0
 40
1.0
 10
3.760000000000003
 20
-3.837181770346274
 30
0.0
 10
3.70725252953188
 20
-3.837181770346275
 30
0.0
 10
3.655686903106353
 20
-3.845398245387552
 30
0.0
 10
3.581417235304665
 20
-3.873849319165569
 30
0.0
 10
3.560000000000002
 20
-3.893554202443362
 30
0.0
 10
3.560000000000004
 20
-3.913768204432317
 30
0.0
  0
LINE
  5
109
330
1F
100
AcDbEntity
  8
SK3
100
AcDbLine
 10
-21.34
 20
-3.9503592855
 30
0.0
 11
-21.34
 21
-0.3999999002
 31
0.0
  0
LINE
  5
10A
330
1F
100
AcDbEntity
  8
SK3
100
AcDbLine
 10
-21.34
 20
-3.9503592855
 30
0.0
 11
-22.34
 21
-4.3594376922
 31
0.0
  0
LINE
  5
10B
330
1F
100
AcDbEntity
  8
SK3
100
AcDbLine
 10
-21.34
 20
-4.5160447104
 30
0.0
 11
-22.34
 21
-4.9251231171
 31
0.0
  0
LINE
  5
10C
330
1F
100
AcDbEntity
  8
SK3
100
AcDbLine
 10
-7.34
 20
-3.6639021169
 30
0.0
 11
-7.34
 21
-2.5055146772
 31
0.0
  0
LINE
  5
10D
330
1F
100
AcDbEntity
  8
SK3
100
AcDbLine
 10
-8.04
 20
-3.9503592855
 30
0.0
 11
-8.04
 21
-2.6605441796
 31
0.0
  0
LINE
  5
10E
330
1F
100
AcDbEntity
  8
SK1
  6
Continuous
100
AcDbLine
 10
-22.34
 20
-6.1450478363
 30
0.0
 11
-22.34
 21
-0.3999999002
 31
0.0
  0
LINE
  5
10F
330
1F
100
AcDbEntity
  8
SK1
  6
Continuous
100
AcDbLine
 10
-22.0817519303
 20
-6.35531225
 30
0.0
 11
-22.0817519303
 21
-0.3999999002
 31
0.0
  0
LINE
  5
110
330
1F
100
AcDbEntity
  8
SK1
  6
Continuous
100
AcDbLine
 10
3.56
 20
-8.9051928864
 30
0.0
 11
3.56
 21
-5.3420808014
 31
0.0
  0
LINE
  5
111
330
1F
100
AcDbEntity
  8
SK1
  6
Continuous
100
AcDbLine
 10
7.0394228634
 20
-8.8563369121
 30
0.0
 11
7.0394228634
 21
-5.3156401386
 31
0.0
  0
LINE
  5
112
330
1F
100
AcDbEntity
  8
SK1
  6
Continuous
100
AcDbLine
 10
6.66
 20
-8.7013627344
 30
0.0
 11
6.66
 21
-5.231768718
 31
0.0
  0
LINE
  5
113
330
1F
100
AcDbEntity
  8
SK1
  6
Continuous
100
AcDbLine
 10
3.76
 20
-7.4901874849
 30
0.0
 11
3.76
 21
-4.5762853964
 31
0.0
  0
LINE
  5
114
330
1F
100
AcDbEntity
  8
SK1
  6
Continuous
100
AcDbLine
 10
6.46
 20
-7.4901874849
 30
0.0
 11
6.46
 21
-4.5762853964
 31
0.0
  0
LINE
  5
115
330
1F
100
AcDbEntity
  8
SK1
  6
Continuous
100
AcDbLine
 10
6.66
 20
-9.2670481594
 30
0.0
 11
7.0394228634
 21
-9.4220223371
 31
0.0
  0
LINE
  5
116
330
1F
100
AcDbEntity
  8
SK1
  6
Continuous
100
AcDbLine
 10
7.0394228634
 20
-9.4220223371
 30
0.0
 11
8.9106517703
 21
-8.6576972065
 31
0.0
  0
SPLINE
  5
117
330
1F
100
AcDbEntity
  8
SK1
  6
Continuous
100
AcDbSpline
210
0.0
220
0.0
230
1.0
 70
     8
 71
     3
 72
    10
 73
     6
 74
     0
 42
0.0000000360933571
 43
0.0000000001
 12
1.0
 22
0.0
 32
0.0
 13
1.0
 23
0.0
 33
0.0
 40
0.0
 40
0.0
 40
0.0
 40
0.0
 40
0.5
 40
0.5
 40
1.0
 40
1.0
 40
1.0
 40
1.0
 10
6.660000000002338
 20
-7.63170076271825
 30
0.0
 10
6.659999999999906
 20
-7.594812493762978
 30
0.0
 10
6.63879967045787
 20
-7.558112712548052
 30
0.0
 10
6.564197273849285
 20
-7.505268694722132
 30
0.0
 10
6.512839104340816
 20
-7.490187484877639
 30
0.0
 10
6.460000000000004
 20
-7.4901874848782
 30
0.0
  0
LINE
  5
118
330
1F
100
AcDbEntity
  8
SK1
  6
Continuous
100
AcDbLine
 10
6.46
 20
-7.4901874849
 30
0.0
 11
3.76
 21
-7.4901874849
 31
0.0
  0
SPLINE
  5
119
330
1F
100
AcDbEntity
  8
SK1
  6
Continuous
100
AcDbSpline
210
0.0
220
0.0
230
1.0
 70
     8
 71
     3
 72
    10
 73
     6
 74
     0
 42
0.0000000361019767
 43
0.0000000001
 12
1.0
 22
0.0
 32
0.0
 13
1.0
 23
0.0
 33
0.0
 40
0.0
 40
0.0
 40
0.0
 40
0.0
 40
0.5
 40
0.5
 40
1.0
 40
1.0
 40
1.0
 40
1.0
 10
3.760000000000003
 20
-7.490187484878201
 30
0.0
 10
3.70712138358676
 20
-7.4901874848782
 30
0.0
 10
3.655400147046572
 20
-7.505555692488889
 30
0.0
 10
3.581612828136431
 20
-7.557818688635408
 30
0.0
 10
3.559999999999997
 20
-7.594780610984431
 30
0.0
 10
3.560000000000004
 20
-7.631700762718443
 30
0.0
  0
SPLINE
  5
11A
330
1F
100
AcDbEntity
  8
SK1
  6
Continuous
100
AcDbSpline
210
0.0
220
0.0
230
1.0
 70
     8
 71
     3
 72
    11
 73
     7
 74
     0
 42
0.0000000003880749
 43
0.0000000001
 12
1.0
 22
0.0
 32
0.0
 13
1.0
 23
0.0
 33
0.0
 40
0.0
 40
0.0
 40
0.0
 40
0.0
 40
0.8814146954795123
 40
0.8814146954795123
 40
0.8814146954795123
 40
1.0
 40
1.0
 40
1.0
 40
1.0
 10
3.559999999999997
 20
-8.905192886422824
 30
0.0
 10
-3.973698877841159
 20
-8.156158994720439
 30
0.0
 10
-11.50738262367857
 20
-7.407048984317303
 30
0.0
 10
-19.04102947641212
 20
-6.657753507846049
 30
0.0
 10
-20.0546043703871
 20
-6.556943488745575
 30
0.0
 10
-21.06817855554473
 20
-6.456129906227897
 30
0.0
 10
-22.08175193028802
 20
-6.355312250011389
 30
0.0
  0
SPLINE
  5
11B
330
1F
100
AcDbEntity
  8
SK1
  6
Continuous
100
AcDbSpline
210
0.0
220
0.0
230
1.0
 70
     8
 71
     3
 72
    10
 73
     6
 74
     0
 42
0.0000000269084072
 43
0.0000000001
 12
1.0
 22
0.0
 32
0.0
 13
1.0
 23
0.0
 33
0.0
 40
0.0
 40
0.0
 40
0.0
 40
0.0
 40
0.5
 40
0.5
 40
1.0
 40
1.0
 40
1.0
 40
1.0
 10
-22.08175193028802
 20
-6.355312250011389
 30
0.0
 10
-22.1533068454248
 20
-6.348194858202739
 30
0.0
 10
-22.21940242541917
 20
-6.322650470614623
 30
0.0
 10
-22.31354727266462
 20
-6.245950148481113
 30
0.0
 10
-22.34
 20
-6.195608084749191
 30
0.0
 10
-22.34000000000001
 20
-6.145047836302378
 30
0.0
  0
LINE
  5
11C
330
1F
100
AcDbEntity
  8
SK3
100
AcDbLine
 10
-21.34
 20
-3.9503592855
 30
0.0
 11
-8.04
 21
-3.9503592855
 31
0.0
  0
LINE
  5
11D
330
1F
100
AcDbEntity
  8
SK3
100
AcDbLine
 10
-8.04
 20
-3.9503592855
 30
0.0
 11
-7.34
 21
-3.6639021169
 31
0.0
  0
LINE
  5
11E
330
1F
100
AcDbEntity
  8
SK1
  6
Continuous
100
AcDbLine
 10
6.66
 20
-9.2670481594
 30
0.0
 11
6.66
 21
-8.7013627344
 31
0.0
  0
SPLINE
  5
11F
330
1F
100
AcDbEntity
  8
SK1
  6
Continuous
100
AcDbSpline
210
0.0
220
0.0
230
1.0
 70
     8
 71
     3
 72
    10
 73
     6
 74
     0
 42
0.0000000360933571
 43
0.0000000001
 12
1.0
 22
0.0
 32
0.0
 13
1.0
 23
0.0
 33
0.0
 40
0.0
 40
0.0
 40
0.0
 40
0.0
 40
0.5
 40
0.5
 40
1.0
 40
1.0
 40
1.0
 40
1.0
 10
6.660000000002338
 20
-8.19738618766749
 30
0.0
 10
6.659999999999902
 20
-8.160497918712217
 30
0.0
 10
6.638799670457872
 20
-8.123798137497289
 30
0.0
 10
6.564197273849288
 20
-8.070954119671372
 30
0.0
 10
6.512839104340816
 20
-8.055872909826878
 30
0.0
 10
6.460000000000004
 20
-8.05587290982744
 30
0.0
  0
LINE
  5
120
330
1F
100
AcDbEntity
  8
SK1
  6
Continuous
100
AcDbLine
 10
6.46
 20
-8.0558729098
 30
0.0
 11
3.76
 21
-8.0558729098
 31
0.0
  0
SPLINE
  5
121
330
1F
100
AcDbEntity
  8
SK1
  6
Continuous
100
AcDbSpline
210
0.0
220
0.0
230
1.0
 70
     8
 71
     3
 72
    10
 73
     6
 74
     0
 42
0.0000000361019767
 43
0.0000000001
 12
1.0
 22
0.0
 32
0.0
 13
1.0
 23
0.0
 33
0.0
 40
0.0
 40
0.0
 40
0.0
 40
0.0
 40
0.5
 40
0.5
 40
1.0
 40
1.0
 40
1.0
 40
1.0
 10
3.760000000000003
 20
-8.055872909827439
 30
0.0
 10
3.70712138358676
 20
-8.055872909827443
 30
0.0
 10
3.655400147046572
 20
-8.071241117438127
 30
0.0
 10
3.581612828136431
 20
-8.123504113584646
 30
0.0
 10
3.559999999999997
 20
-8.16046603593367
 30
0.0
 10
3.560000000000004
 20
-8.197386187667684
 30
0.0
  0
LINE
  5
122
330
1F
100
AcDbEntity
  8
SK1
  6
Continuous
100
AcDbLine
 10
3.56
 20
-8.9051928864
 30
0.0
 11
3.56
 21
-9.4708783114
 31
0.0
  0
SPLINE
  5
123
330
1F
100
AcDbEntity
  8
SK1
  6
Continuous
100
AcDbSpline
210
0.0
220
0.0
230
1.0
 70
     8
 71
     3
 72
    11
 73
     7
 74
     0
 42
0.0000000003880749
 43
0.0000000001
 12
1.0
 22
0.0
 32
0.0
 13
1.0
 23
0.0
 33
0.0
 40
0.0
 40
0.0
 40
0.0
 40
0.0
 40
0.8814146954795125
 40
0.8814146954795125
 40
0.8814146954795125
 40
1.0
 40
1.0
 40
1.0
 40
1.0
 10
3.559999999999997
 20
-9.470878311372065
 30
0.0
 10
-3.973698877841159
 20
-8.721844419669678
 30
0.0
 10
-11.50738262367857
 20
-7.97273440926654
 30
0.0
 10
-19.04102947641212
 20
-7.223438932795286
 30
0.0
 10
-20.05460437038711
 20
-7.122628913694812
 30
0.0
 10
-21.06817855554473
 20
-7.021815331177135
 30
0.0
 10
-22.08175193028802
 20
-6.920997674960628
 30
0.0
  0
SPLINE
  5
124
330
1F
100
AcDbEntity
  8
SK1
  6
Continuous
100
AcDbSpline
210
0.0
220
0.0
230
1.0
 70
     8
 71
     3
 72
    10
 73
     6
 74
     0
 42
0.0000000269084072
 43
0.0000000001
 12
1.0
 22
0.0
 32
0.0
 13
1.0
 23
0.0
 33
0.0
 40
0.0
 40
0.0
 40
0.0
 40
0.0
 40
0.4999999999999996
 40
0.4999999999999996
 40
1.0
 40
1.0
 40
1.0
 40
1.0
 10
-22.08175193028802
 20
-6.920997674960628
 30
0.0
 10
-22.15330684542488
 20
-6.913880283151973
 30
0.0
 10
-22.21940242541913
 20
-6.888335895563884
 30
0.0
 10
-22.31354727266464
 20
-6.811635573430321
 30
0.0
 10
-22.34
 20
-6.761293509698449
 30
0.0
 10
-22.34000000000001
 20
-6.710733261251615
 30
0.0
  0
LINE
  5
125
330
1F
100
AcDbEntity
  8
SK1
  6
Continuous
100
AcDbLine
 10
-22.34
 20
-6.7107332613
 30
0.0
 11
-22.34
 21
-6.1450478363
 31
0.0
  0
LINE
  5
126
330
1F
100
AcDbEntity
  8
SK3
100
AcDbLine
 10
-21.34
 20
-4.5160447104
 30
0.0
 11
-8.04
 21
-4.5160447104
 31
0.0
  0
LINE
  5
127
330
1F
100
AcDbEntity
  8
SK3
100
AcDbLine
 10
-8.04
 20
-4.5160447104
 30
0.0
 11
-7.34
 21
-4.2295875419
 31
0.0
  0
LINE
  5
128
330
1F
100
AcDbEntity
  8
SK3
100
AcDbLine
 10
-7.34
 20
-4.2295875419
 30
0.0
 11
-7.34
 21
-4.1224518015
 31
0.0
  0
LINE
  5
129
330
1F
100
AcDbEntity
  8
SK1
  6
Continuous
100
AcDbLine
 10
6.66
 20
-8.7013627344
 30
0.0
 11
7.0394228634
 21
-8.8563369121
 31
0.0
  0
LINE
  5
12A
330
1F
100
AcDbEntity
  8
SK1
  6
Continuous
100
AcDbLine
 10
7.0394228634
 20
-8.8563369121
 30
0.0
 11
8.9106517703
 21
-8.0920117815
 31
0.0
  0
ARC
  5
12B
330
1F
100
AcDbEntity
  8
SK3
100
AcDbCircle
 10
11.4662533752
 20
-2.3206331075
 30
0.0
 40
0.1938644478452257
100
AcDbArc
 50
1.9976790822
 51
91.848478017
  0
ARC
  5
12C
330
1F
100
AcDbEntity
  8
SK3
100
AcDbCircle
 10
11.4662533752
 20
-2.6267798533
 30
0.0
 40
0.1938644478452242
100
AcDbArc
 50
1.9976790822
 51
91.848478017
  0
LINE
  5
12D
330
1F
100
AcDbEntity
  8
SK3
100
AcDbLine
 10
-6.9935898385
 20
-2.1268695416
 30
0.0
 11
-6.9935898385
 21
-1.3139350312
 31
0.0
  0
LINE
  5
12E
330
1F
100
AcDbEntity
  8
SK3
100
AcDbLine
 10
-7.34
 20
-5.0035972836
 30
0.0
 11
-7.34
 21
-4.2295875419
 31
0.0
  0
LINE
  5
12F
330
1F
100
AcDbEntity
  8
SK3
100
AcDbLine
 10
-8.04
 20
-5.377871611
 30
0.0
 11
-8.04
 21
-4.5160447104
 31
0.0
  0
LINE
  5
130
330
1F
100
AcDbEntity
  8
SK1
  6
Continuous
100
AcDbLine
 10
3.56
 20
-11.8516736911
 30
0.0
 11
3.56
 21
-9.4708783114
 31
0.0
  0
LINE
  5
131
330
1F
100
AcDbEntity
  8
SK1
  6
Continuous
100
AcDbLine
 10
11.66
 20
-9.1882743346
 30
0.0
 11
11.66
 21
-4.2388646658
 31
0.0
  0
LINE
  5
132
330
1F
100
AcDbEntity
  8
SK1
  6
Continuous
100
AcDbLine
 10
11.535
 20
-9.3884533047
 30
0.0
 11
11.535
 21
-4.3217815102
 31
0.0
  0
LINE
  5
133
330
1F
100
AcDbEntity
  8
SK1
  6
Continuous
100
AcDbLine
 10
7.0394228634
 20
-11.7878402845
 30
0.0
 11
7.0394228634
 21
-9.4220223371
 31
0.0
  0
LINE
  5
134
330
1F
100
AcDbEntity
  8
SK1
  6
Continuous
100
AcDbLine
 10
6.66
 20
-11.5853567634
 30
0.0
 11
6.66
 21
-9.2670481594
 31
0.0
  0
LINE
  5
135
330
1F
100
AcDbEntity
  8
SK1
  6
Continuous
100
AcDbLine
 10
3.76
 20
-10.0028800384
 30
0.0
 11
3.76
 21
-8.0558729098
 31
0.0
  0
LINE
  5
136
330
1F
100
AcDbEntity
  8
SK1
  6
Continuous
100
AcDbLine
 10
6.46
 20
-10.0028800384
 30
0.0
 11
6.46
 21
-8.0558729098
 31
0.0
  0
LINE
  5
137
330
1F
100
AcDbEntity
  8
SK1
  6
Continuous
100
AcDbLine
 10
3.56
 20
-11.8516736911
 30
0.0
 11
3.56
 21
-12.157820437
 31
0.0
  0
LINE
  5
138
330
1F
100
AcDbEntity
  8
SK1
  6
Continuous
100
AcDbLine
 10
3.56
 20
-12.157820437
 30
0.0
 11
-16.44
 21
-9.5593945793
 31
0.0
  0
LINE
  5
139
330
1F
100
AcDbEntity
  8
SK3
100
AcDbLine
 10
-8.04
 20
-5.6840183569
 30
0.0
 11
-7.34
 21
-5.3097440295
 31
0.0
  0
LINE
  5
13A
330
1F
100
AcDbEntity
  8
SK3
100
AcDbLine
 10
-7.34
 20
-5.3097440295
 30
0.0
 11
-7.34
 21
-5.0035972836
 31
0.0
  0
LINE
  5
13B
330
1F
100
AcDbEntity
  8
SK3
100
AcDbLine
 10
-7.34
 20
-2.6200219299
 30
0.0
 11
-6.9935898385
 21
-2.4330162875
 31
0.0
  0
LINE
  5
13C
330
1F
100
AcDbEntity
  8
SK3
100
AcDbLine
 10
-6.9935898385
 20
-2.4330162875
 30
0.0
 11
11.46
 21
-2.4330162875
 31
0.0
  0
LINE
  5
13D
330
1F
100
AcDbEntity
  8
SK1
  6
Continuous
100
AcDbLine
 10
6.66
 20
-11.8915035093
 30
0.0
 11
6.66
 21
-11.5853567634
 31
0.0
  0
ARC
  5
13E
330
1F
100
AcDbEntity
  8
SK1
  6
Continuous
100
AcDbCircle
 10
6.4672716847
 20
-10.5017779979
 30
0.0
 40
0.1928883297862023
100
AcDbArc
 50
2.3339651308
 51
92.1605018627
  0
LINE
  5
13F
330
1F
100
AcDbEntity
  8
SK1
  6
Continuous
100
AcDbLine
 10
6.46
 20
-10.3090267843
 30
0.0
 11
3.76
 21
-10.3090267843
 31
0.0
  0
ARC
  5
140
330
1F
100
AcDbEntity
  8
SK1
  6
Continuous
100
AcDbCircle
 10
3.7527286759
 20
-10.501778388
 30
0.0
 40
0.192888705972886
100
AcDbArc
 50
87.8396095414
 51
177.6659234645
  0
LINE
  5
141
330
1F
100
AcDbEntity
  8
SK1
  6
Continuous
100
AcDbLine
 10
6.66
 20
-11.5853567634
 30
0.0
 11
7.0394228634
 21
-11.7878402845
 31
0.0
  0
LINE
  5
142
330
1F
100
AcDbEntity
  8
SK1
  6
Continuous
100
AcDbLine
 10
7.0394228634
 20
-11.7878402845
 30
0.0
 11
11.535
 21
-9.3884533047
 31
0.0
  0
ARC
  5
143
330
1F
100
AcDbEntity
  8
SK1
  6
Continuous
100
AcDbCircle
 10
11.4286092649
 20
-9.1829014832
 30
0.0
 40
0.2314531049789864
100
AcDbArc
 50
297.3654490732
 51
358.6698413103
  0
LINE
  5
144
330
1F
100
AcDbEntity
  8
SK1
  6
Continuous
100
AcDbLine
 10
6.66
 20
-11.8915035093
 30
0.0
 11
7.0394228634
 21
-12.0939870304
 31
0.0
  0
LINE
  5
145
330
1F
100
AcDbEntity
  8
SK1
  6
Continuous
100
AcDbLine
 10
7.0394228634
 20
-12.0939870304
 30
0.0
 11
11.535
 21
-9.6946000506
 31
0.0
  0
ARC
  5
146
330
1F
100
AcDbEntity
  8
SK1
  6
Continuous
100
AcDbCircle
 10
11.4286092649
 20
-9.4890482291
 30
0.0
 40
0.2314531049789708
100
AcDbArc
 50
297.3654490732
 51
358.6698413103
  0
LINE
  5
147
330
1F
100
AcDbEntity
  8
SK1
  6
Continuous
100
AcDbLine
 10
11.66
 20
-9.4944210804
 30
0.0
 11
11.66
 21
-9.1882743346
 31
0.0
  0
LINE
  5
148
330
1F
100
AcDbEntity
  8
SK1
  6
Continuous
100
AcDbLine
 10
3.56
 20
-11.8516736911
 30
0.0
 11
-16.44
 21
-9.2532478334
 31
0.0
  0
LINE
  5
149
330
1F
100
AcDbEntity
  8
SK3
100
AcDbLine
 10
-8.04
 20
-5.377871611
 30
0.0
 11
-7.34
 21
-5.0035972836
 31
0.0
  0
LINE
  5
14A
330
1F
100
AcDbEntity
  8
SK3
100
AcDbLine
 10
-7.34
 20
-2.313875184
 30
0.0
 11
-6.9935898385
 21
-2.1268695416
 31
0.0
  0
LINE
  5
14B
330
1F
100
AcDbEntity
  8
SK3
100
AcDbLine
 10
-6.9935898385
 20
-2.1268695416
 30
0.0
 11
11.46
 21
-2.1268695416
 31
0.0
  0
ARC
  5
14C
330
1F
100
AcDbEntity
  8
SK1
  6
Continuous
100
AcDbCircle
 10
6.4672716847
 20
-10.195631252
 30
0.0
 40
0.1928883297861991
100
AcDbArc
 50
2.3339651308
 51
92.1605018627
  0
LINE
  5
14D
330
1F
100
AcDbEntity
  8
SK1
  6
Continuous
100
AcDbLine
 10
6.46
 20
-10.0028800384
 30
0.0
 11
3.76
 21
-10.0028800384
 31
0.0
  0
ARC
  5
14E
330
1F
100
AcDbEntity
  8
SK1
  6
Continuous
100
AcDbCircle
 10
3.7527286759
 20
-10.1956316421
 30
0.0
 40
0.1928887059728819
100
AcDbArc
 50
87.8396095414
 51
177.6659234645
  0
LINE
  5
14F
330
1F
100
AcDbEntity
  8
SK3
100
AcDbLine
 10
-21.34
 20
-5.9866517191
 30
0.0
 11
-21.34
 21
-4.5160447104
 31
0.0
  0
LINE
  5
150
330
1F
100
AcDbEntity
  8
SK3
100
AcDbLine
 10
-21.34
 20
-5.9866517191
 30
0.0
 11
-22.34
 21
-6.5651759499
 31
0.0
  0
LINE
  5
151
330
1F
100
AcDbEntity
  8
SK3
100
AcDbLine
 10
-7.34
 20
-5.5815401063
 30
0.0
 11
-7.34
 21
-5.3097440295
 31
0.0
  0
LINE
  5
152
330
1F
100
AcDbEntity
  8
SK3
100
AcDbLine
 10
-8.04
 20
-5.9866517191
 30
0.0
 11
-8.04
 21
-5.6840183569
 31
0.0
  0
LINE
  5
153
330
1F
100
AcDbEntity
  8
SK1
  6
Continuous
100
AcDbLine
 10
-22.34
 20
-9.0904100329
 30
0.0
 11
-22.34
 21
-6.7107332613
 31
0.0
  0
LINE
  5
154
330
1F
100
AcDbEntity
  8
SK1
  6
Continuous
100
AcDbLine
 10
-22.0817519303
 20
-9.3877688184
 30
0.0
 11
-22.0817519303
 21
-6.920997675
 31
0.0
  0
LINE
  5
155
330
1F
100
AcDbEntity
  8
SK1
  6
Continuous
100
AcDbLine
 10
3.56
 20
-12.9938445969
 30
0.0
 11
3.56
 21
-12.157820437
 31
0.0
  0
LINE
  5
156
330
1F
100
AcDbEntity
  8
SK1
  6
Continuous
100
AcDbLine
 10
7.0394228634
 20
-12.9247518154
 30
0.0
 11
7.0394228634
 21
-12.0939870304
 31
0.0
  0
LINE
  5
157
330
1F
100
AcDbEntity
  8
SK1
  6
Continuous
100
AcDbLine
 10
6.66
 20
-12.7055852315
 30
0.0
 11
6.66
 21
-11.8915035093
 31
0.0
  0
LINE
  5
158
330
1F
100
AcDbEntity
  8
SK1
  6
Continuous
100
AcDbLine
 10
3.76
 20
-10.9927247672
 30
0.0
 11
3.76
 21
-10.3090267843
 31
0.0
  0
LINE
  5
159
330
1F
100
AcDbEntity
  8
SK1
  6
Continuous
100
AcDbLine
 10
6.46
 20
-10.9927247672
 30
0.0
 11
6.46
 21
-10.3090267843
 31
0.0
  0
SPLINE
  5
15A
330
1F
100
AcDbEntity
  8
SK1
  6
Continuous
100
AcDbSpline
210
0.0
220
0.0
230
1.0
 70
     8
 71
     3
 72
    10
 73
     6
 74
     0
 42
0.0000000310291255
 43
0.0000000001
 12
1.0
 22
0.0
 32
0.0
 13
1.0
 23
0.0
 33
0.0
 40
0.0
 40
0.0
 40
0.0
 40
0.0
 40
0.5
 40
0.5
 40
1.0
 40
1.0
 40
1.0
 40
1.0
 10
6.660000000002338
 20
-11.19285476393562
 30
0.0
 10
6.659999999999902
 20
-11.1406868736866
 30
0.0
 10
6.63879967045787
 20
-11.08878554535633
 30
0.0
 10
6.564197273849288
 20
-11.01405281865663
 30
0.0
 10
6.512839104340816
 20
-10.99272476715755
 30
0.0
 10
6.460000000000004
 20
-10.99272476715835
 30
0.0
  0
LINE
  5
15B
330
1F
100
AcDbEntity
  8
SK1
  6
Continuous
100
AcDbLine
 10
6.46
 20
-10.9927247672
 30
0.0
 11
3.76
 21
-10.9927247672
 31
0.0
  0
SPLINE
  5
15C
330
1F
100
AcDbEntity
  8
SK1
  6
Continuous
100
AcDbSpline
210
0.0
220
0.0
230
1.0
 70
     8
 71
     3
 72
    10
 73
     6
 74
     0
 42
0.0000000310369852
 43
0.0000000001
 12
1.0
 22
0.0
 32
0.0
 13
1.0
 23
0.0
 33
0.0
 40
0.0
 40
0.0
 40
0.0
 40
0.0
 40
0.5
 40
0.5
 40
1.0
 40
1.0
 40
1.0
 40
1.0
 10
3.760000000000003
 20
-10.99272476715835
 30
0.0
 10
3.70712138358676
 20
-10.99272476715835
 30
0.0
 10
3.655400147046572
 20
-11.01445869479074
 30
0.0
 10
3.581612828136431
 20
-11.0883697327514
 30
0.0
 10
3.559999999999999
 20
-11.14064178462877
 30
0.0
 10
3.560000000000004
 20
-11.19285476393589
 30
0.0
  0
SPLINE
  5
15D
330
1F
100
AcDbEntity
  8
SK1
  6
Continuous
100
AcDbSpline
210
0.0
220
0.0
230
1.0
 70
     8
 71
     3
 72
    11
 73
     7
 74
     0
 42
0.0000000003861887
 43
0.0000000001
 12
1.0
 22
0.0
 32
0.0
 13
1.0
 23
0.0
 33
0.0
 40
0.0
 40
0.0
 40
0.0
 40
0.0
 40
0.8814146954795125
 40
0.8814146954795125
 40
0.8814146954795125
 40
1.0
 40
1.0
 40
1.0
 40
1.0
 10
3.559999999999997
 20
-12.99384459685394
 30
0.0
 10
-3.973698877841159
 20
-11.93455070853132
 30
0.0
 10
-11.50738262367857
 20
-10.87514917210976
 30
0.0
 10
-19.04102947641212
 20
-9.815485347059301
 30
0.0
 10
-20.05460437038711
 20
-9.67291845082432
 30
0.0
 10
-21.06817855554473
 20
-9.530346515156403
 30
0.0
 10
-22.08175193028802
 20
-9.387768818408347
 30
0.0
  0
SPLINE
  5
15E
330
1F
100
AcDbEntity
  8
SK1
  6
Continuous
100
AcDbSpline
210
0.0
220
0.0
230
1.0
 70
     8
 71
     3
 72
    10
 73
     6
 74
     0
 42
0.0000000227964674
 43
0.0000000001
 12
1.0
 22
0.0
 32
0.0
 13
1.0
 23
0.0
 33
0.0
 40
0.0
 40
0.0
 40
0.0
 40
0.0
 40
0.5
 40
0.5
 40
1.0
 40
1.0
 40
1.0
 40
1.0
 10
-22.08175193028802
 20
-9.387768818408347
 30
0.0
 10
-22.15330684542488
 20
-9.377703306383824
 30
0.0
 10
-22.21940242541914
 20
-9.341578087014232
 30
0.0
 10
-22.31354727266465
 20
-9.233107451214568
 30
0.0
 10
-22.34000000000001
 20
-9.161913021927106
 30
0.0
 10
-22.34000000000001
 20
-9.090410032856637
 30
0.0
  0
LINE
  5
15F
330
1F
100
AcDbEntity
  8
SK3
100
AcDbLine
 10
-21.34
 20
-5.9866517191
 30
0.0
 11
-8.04
 21
-5.9866517191
 31
0.0
  0
LINE
  5
160
330
1F
100
AcDbEntity
  8
SK3
100
AcDbLine
 10
-8.04
 20
-5.9866517191
 30
0.0
 11
-7.34
 21
-5.5815401063
 31
0.0
  0
LINE
  5
161
330
1F
100
AcDbEntity
  8
SK1
  6
Continuous
100
AcDbLine
 10
6.66
 20
-12.7055852315
 30
0.0
 11
7.0394228634
 21
-12.9247518154
 31
0.0
  0
LINE
  5
162
330
1F
100
AcDbEntity
  8
SK1
  6
Continuous
100
AcDbLine
 10
7.0394228634
 20
-12.9247518154
 30
0.0
 11
8.9106517703
 21
-11.8438328496
 31
0.0
  0
LINE
  5
163
330
1F
100
AcDbEntity
  8
SK3
100
AcDbLine
 10
-6.9935898385
 20
-2.4330162875
 30
0.0
 11
-6.9935898385
 21
-2.4999999002
 31
0.0
  0
LINE
  5
164
330
1F
100
AcDbEntity
  8
SK1
  6
Continuous
100
AcDbLine
 10
11.66
 20
-10.118910987
 30
0.0
 11
11.66
 21
-9.4944210804
 31
0.0
  0
LINE
  5
165
330
1F
100
AcDbEntity
  8
SK1
  6
Continuous
100
AcDbLine
 10
11.535
 20
-9.6946000506
 30
0.0
 11
11.535
 21
-10.3354173379
 31
0.0
  0
LINE
  5
166
330
1F
100
AcDbEntity
  8
SK3
100
AcDbLine
 10
-16.44
 20
-2.6605441796
 30
0.0
 11
-8.04
 21
-2.6605441796
 31
0.0
  0
LINE
  5
167
330
1F
100
AcDbEntity
  8
SK1
  6
Continuous
100
AcDbLine
 10
-16.44
 20
-3.5266739442
 30
0.0
 11
-16.44
 21
-4.2657775703
 31
0.0
  0
SPLINE
  5
168
330
1F
100
AcDbEntity
  8
SK3
100
AcDbSpline
210
0.0
220
0.0
230
1.0
 70
     8
 71
     3
 72
    35
 73
    31
 74
     0
 42
0.0000000082336676
 43
0.0000000001
 12
1.0
 22
0.0
 32
0.0
 13
1.0
 23
0.0
 33
0.0
 40
0.0
 40
0.0
 40
0.0
 40
0.0
 40
0.1073073750052115
 40
0.1073073750052115
 40
0.1073073750052115
 40
0.2146045795106183
 40
0.2146045795106183
 40
0.2146045795106183
 40
0.3220542625358139
 40
0.3220542625358139
 40
0.3220542625358139
 40
0.4296083209397791
 40
0.4296083209397791
 40
0.4296083209397791
 40
0.4999991456542807
 40
0.4999991456542807
 40
0.4999991456542807
 40
0.607307180898296
 40
0.607307180898296
 40
0.607307180898296
 40
0.7146051037494158
 40
0.7146051037494158
 40
0.7146051037494158
 40
0.8220547570665453
 40
0.8220547570665453
 40
0.8220547570665453
 40
0.9296093240532743
 40
0.9296093240532743
 40
0.9296093240532743
 40
1.0
 40
1.0
 40
1.0
 40
1.0
 10
-16.44000000000001
 20
-1.921440553632547
 30
0.0
 10
-16.48471410018995
 20
-1.921440553632547
 30
0.0
 10
-16.53004459865582
 20
-1.928767101150117
 30
0.0
 10
-16.57223548305628
 20
-1.942777448406545
 30
0.0
 10
-16.61442409404361
 20
-1.956787040729577
 30
0.0
 10
-16.65463646908369
 20
-1.97786078648552
 30
0.0
 10
-16.68956031853172
 20
-2.004176016061939
 30
0.0
 10
-16.72453298943097
 20
-2.030528032754254
 30
0.0
 10
-16.75516706647987
 20
-2.062858264674225
 30
0.0
 10
-16.77893407568434
 20
-2.09840742281336
 30
0.0
 10
-16.80272278827819
 20
-2.133989043481312
 30
0.0
 10
-16.82028754224968
 20
-2.173775998603636
 30
0.0
 10
-16.83016379112925
 20
-2.214403243490422
 30
0.0
 10
-16.83668033045403
 20
-2.241209882548482
 30
0.0
 10
-16.84
 20
-2.268781511100981
 30
0.0
 10
-16.84
 20
-2.296100494419847
 30
0.0
 10
-16.84
 20
-2.337411051406047
 30
0.0
 10
-16.83228869652955
 20
-2.37908930754561
 30
0.0
 10
-16.81750983367222
 20
-2.417712797103076
 30
0.0
 10
-16.80273176240792
 20
-2.456334217889364
 30
0.0
 10
-16.78048190421514
 20
-2.492968726428585
 30
0.0
 10
-16.75260082625649
 20
-2.524677841416082
 30
0.0
 10
-16.72468095823795
 20
-2.556431072290026
 30
0.0
 10
-16.69034454172212
 20
-2.584125472930941
 30
0.0
 10
-16.6524230141933
 20
-2.605568591126564
 30
0.0
 10
-16.61446667298319
 20
-2.627031395076732
 30
0.0
 10
-16.57186830119436
 20
-2.642827071871697
 30
0.0
 10
-16.52815968392986
 20
-2.651705204282508
 30
0.0
 10
-16.49932009253044
 20
-2.657563127208056
 30
0.0
 10
-16.46956969171872
 20
-2.660544179641577
 30
0.0
 10
-16.44000000000001
 20
-2.660544179641577
 30
0.0
  0
SPLINE
  5
169
330
1F
100
AcDbEntity
  8
SK1
  6
Continuous
100
AcDbSpline
210
0.0
220
0.0
230
1.0
 70
     8
 71
     3
 72
    35
 73
    31
 74
     0
 42
0.00000000823004
 43
0.0000000001
 12
1.0
 22
0.0
 32
0.0
 13
1.0
 23
0.0
 33
0.0
 40
0.0
 40
0.0
 40
0.0
 40
0.0
 40
0.1084934408151499
 40
0.1084934408151499
 40
0.1084934408151499
 40
0.2170307975553543
 40
0.2170307975553543
 40
0.2170307975553543
 40
0.324917680709458
 40
0.324917680709458
 40
0.324917680709458
 40
0.4320481873540456
 40
0.4320481873540456
 40
0.4320481873540456
 40
0.5000306686835666
 40
0.5000306686835666
 40
0.5000306686835666
 40
0.6066330905592103
 40
0.6066330905592103
 40
0.6066330905592103
 40
0.7132246775477318
 40
0.7132246775477318
 40
0.7132246775477318
 40
0.8199907432062703
 40
0.8199907432062703
 40
0.8199907432062703
 40
0.9272816296957972
 40
0.9272816296957972
 40
0.9272816296957972
 40
1.0
 40
1.0
 40
1.0
 40
1.0
 10
-16.44000000000001
 20
-4.265777570254704
 30
0.0
 10
-16.48492548006689
 20
-4.263359494917529
 30
0.0
 10
-16.53051602352949
 20
-4.253836971084124
 30
0.0
 10
-16.57299630539353
 20
-4.237927071996181
 30
0.0
 10
-16.61548670814043
 20
-4.222013382391368
 30
0.0
 10
-16.6560392751991
 20
-4.199259712652756
 30
0.0
 10
-16.69120985678707
 20
-4.171477298546939
 30
0.0
 10
-16.72617106647197
 20
-4.143860274282591
 30
0.0
 10
-16.75678401250645
 20
-4.110500962573836
 30
0.0
 10
-16.78043050432316
 20
-4.074120263958024
 30
0.0
 10
-16.80391412581768
 20
-4.037990145265466
 30
0.0
 10
-16.82117820247634
 20
-3.997875346118266
 30
0.0
 10
-16.83075275527946
 20
-3.957080449070992
 30
0.0
 10
-16.83688076051545
 20
-3.930970473195535
 30
0.0
 10
-16.84000000000137
 20
-3.904207820730083
 30
0.0
 10
-16.8400000000014
 20
-3.877718481143821
 30
0.0
 10
-16.84000000000143
 20
-3.836530121499484
 30
0.0
 10
-16.83233281748798
 20
-3.795067350669521
 30
0.0
 10
-16.81764657137046
 20
-3.756783781898689
 30
0.0
 10
-16.80296114795613
 20
-3.718502357720423
 30
0.0
 10
-16.7808550248543
 20
-3.682347919677899
 30
0.0
 10
-16.75318834294549
 20
-3.651336757872226
 30
0.0
 10
-16.72547505298189
 20
-3.620273353808758
 30
0.0
 10
-16.69142664322298
 20
-3.593520992944584
 30
0.0
 10
-16.65388298470764
 20
-3.573290793892335
 30
0.0
 10
-16.61615462630381
 20
-3.552961070295675
 30
0.0
 10
-16.57387042903211
 20
-3.538661825582798
 30
0.0
 10
-16.53051572894425
 20
-3.531542298982171
 30
0.0
 10
-16.50090721956119
 20
-3.526680114034971
 30
0.0
 10
-16.47034756071448
 20
-3.525040512883387
 30
0.0
 10
-16.44000000000001
 20
-3.526673944245674
 30
0.0
  0
LINE
  5
16A
330
1F
100
AcDbEntity
  8
SK1
  6
Continuous
100
AcDbLine
 10
8.9106517703
 20
-8.6576972065
 30
0.0
 11
8.0878873718
 21
-8.4280794342
 31
0.0
  0
LINE
  5
16B
330
1F
100
AcDbEntity
  8
SK1
  6
Continuous
100
AcDbLine
 10
6.66
 20
-8.0295834395
 30
0.0
 11
4.7272411211
 21
-7.4901874849
 31
0.0
  0
SPLINE
  5
16C
330
1F
100
AcDbEntity
  8
SK1
  6
Continuous
100
AcDbSpline
210
0.0
220
0.0
230
1.0
 70
     8
 71
     3
 72
    35
 73
    31
 74
     0
 42
0.0000000082032285
 43
0.0000000001
 12
1.0
 22
0.0
 32
0.0
 13
1.0
 23
0.0
 33
0.0
 40
0.0
 40
0.0
 40
0.0
 40
0.0
 40
0.1412991659069538
 40
0.1412991659069538
 40
0.1412991659069538
 40
0.266124735225811
 40
0.266124735225811
 40
0.266124735225811
 40
0.3627014372687281
 40
0.3627014372687281
 40
0.3627014372687281
 40
0.4423479273212599
 40
0.4423479273212599
 40
0.4423479273212599
 40
0.5000159809671465
 40
0.5000159809671465
 40
0.5000159809671465
 40
0.5781281145240087
 40
0.5781281145240087
 40
0.5781281145240087
 40
0.6557356194163105
 40
0.6557356194163105
 40
0.6557356194163105
 40
0.7593655243390135
 40
0.7593655243390135
 40
0.7593655243390135
 40
0.8915296625956612
 40
0.8915296625956612
 40
0.8915296625956612
 40
1.0
 40
1.0
 40
1.0
 40
1.0
 10
8.910651770342401
 20
-8.092011781523343
 30
0.0
 10
8.969100060369497
 20
-8.068136762687933
 30
0.0
 10
9.028483245590552
 20
-8.051625001193472
 30
0.0
 10
9.084281165603226
 20
-8.044240502148787
 30
0.0
 10
9.133599149916456
 20
-8.037713581289296
 30
0.0
 10
9.18138941853198
 20
-8.038186545494051
 30
0.0
 10
9.223006689881615
 20
-8.047224924691031
 30
0.0
 10
9.255283183086771
 20
-8.054234687111206
 30
0.0
 10
9.284562056047239
 20
-8.066631525600945
 30
0.0
 10
9.307447386614005
 20
-8.084724539869423
 30
0.0
 10
9.326345022956527
 20
-8.099664905401319
 30
0.0
 10
9.341254011693097
 20
-8.118907012468686
 30
0.0
 10
9.350135684844306
 20
-8.141517619993996
 30
0.0
 10
9.356603451205311
 20
-8.15798300036371
 30
0.0
 10
9.360000000000003
 20
-8.176509448158221
 30
0.0
 10
9.360000000000003
 20
-8.196183688579984
 30
0.0
 10
9.360000000000003
 20
-8.222638319611775
 30
0.0
 10
9.353749244777882
 20
-8.251882900843459
 30
0.0
 10
9.342274699172707
 20
-8.281115238557975
 30
0.0
 10
9.330842196719813
 20
-8.3102404679243
 30
0.0
 10
9.31403756560632
 20
-8.3401051363466
 30
0.0
 10
9.293837766002333
 20
-8.368687099674522
 30
0.0
 10
9.266959402437191
 20
-8.406718982009727
 30
0.0
 10
9.233397317192875
 20
-8.44357164790069
 30
0.0
 10
9.197021622530116
 20
-8.47696345518898
 30
0.0
 10
9.150732146740975
 20
-8.51945581909727
 30
0.0
 10
9.09849703131653
 20
-8.557749136814511
 30
0.0
 10
9.045232150686589
 20
-8.589880938906926
 30
0.0
 10
9.001280423610925
 20
-8.616394622582039
 30
0.0
 10
8.95574932060398
 20
-8.6392757118241
 30
0.0
 10
8.910651770348089
 20
-8.65769720647026
 30
0.0
  0
LINE
  5
16D
330
1F
100
AcDbEntity
  8
SK3
100
AcDbLine
 10
-7.34
 20
-4.1224518015
 30
0.0
 11
-7.34
 21
-3.6639021169
 31
0.0
  0
LINE
  5
16E
330
1F
100
AcDbEntity
  8
SK3
100
AcDbLine
 10
-16.44
 20
-5.6840183569
 30
0.0
 11
-8.04
 21
-5.6840183569
 31
0.0
  0
LINE
  5
16F
330
1F
100
AcDbEntity
  8
SK1
  6
Continuous
100
AcDbLine
 10
-16.44
 20
-9.2532478334
 30
0.0
 11
-16.44
 21
-9.5593945793
 31
0.0
  0
SPLINE
  5
170
330
1F
100
AcDbEntity
  8
SK3
100
AcDbSpline
210
0.0
220
0.0
230
1.0
 70
     8
 71
     3
 72
    35
 73
    31
 74
     0
 42
0.0000000109089589
 43
0.0000000001
 12
1.0
 22
0.0
 32
0.0
 13
1.0
 23
0.0
 33
0.0
 40
0.0
 40
0.0
 40
0.0
 40
0.0
 40
0.1073073750052118
 40
0.1073073750052118
 40
0.1073073750052118
 40
0.214604579510618
 40
0.214604579510618
 40
0.214604579510618
 40
0.3220542625358152
 40
0.3220542625358152
 40
0.3220542625358152
 40
0.4296083209397796
 40
0.4296083209397796
 40
0.4296083209397796
 40
0.499999145654282
 40
0.499999145654282
 40
0.499999145654282
 40
0.6073071808982957
 40
0.6073071808982957
 40
0.6073071808982957
 40
0.7146051037494131
 40
0.7146051037494131
 40
0.7146051037494131
 40
0.822054757066542
 40
0.822054757066542
 40
0.822054757066542
 40
0.9296093240532743
 40
0.9296093240532743
 40
0.9296093240532743
 40
1.0
 40
1.0
 40
1.0
 40
1.0
 10
-16.44000000000001
 20
-5.377871610979452
 30
0.0
 10
-16.48471410018995
 20
-5.377871610979452
 30
0.0
 10
-16.53004459865582
 20
-5.381310904695592
 30
0.0
 10
-16.57223548305628
 20
-5.387827273867901
 30
0.0
 10
-16.61442409404361
 20
-5.394343291912248
 30
0.0
 10
-16.65463646908369
 20
-5.404107757118795
 30
0.0
 10
-16.68956031853172
 20
-5.416121166902164
 30
0.0
 10
-16.72453298943097
 20
-5.42815137071337
 30
0.0
 10
-16.75516706647987
 20
-5.442757876163392
 30
0.0
 10
-16.77893407568434
 20
-5.458511026522033
 30
0.0
 10
-16.80272278827818
 20
-5.474278562231107
 30
0.0
 10
-16.82028754224968
 20
-5.491621295568674
 30
0.0
 10
-16.83016379112925
 20
-5.508941242806411
 30
0.0
 10
-16.83668033045403
 20
-5.520369277747013
 30
0.0
 10
-16.84
 20
-5.531961201896111
 30
0.0
 10
-16.84
 20
-5.54327709529703
 30
0.0
 10
-16.84
 20
-5.5603884882699
 30
0.0
 10
-16.83228869652955
 20
-5.577248621623637
 30
0.0
 10
-16.81750983367222
 20
-5.592535137111993
 30
0.0
 10
-16.80273176240792
 20
-5.607820833816159
 30
0.0
 10
-16.78048190421514
 20
-5.621961308279918
 30
0.0
 10
-16.75260082625649
 20
-5.63398291277829
 30
0.0
 10
-16.72468095823796
 20
-5.646021242553894
 30
0.0
 10
-16.69034454172212
 20
-5.656277406886378
 30
0.0
 10
-16.65242301419331
 20
-5.664130237153914
 30
0.0
 10
-16.61446667298319
 20
-5.671990276675616
 30
0.0
 10
-16.57186830119436
 20
-5.677669058510056
 30
0.0
 10
-16.52815968392986
 20
-5.680853922623426
 30
0.0
 10
-16.49932009253044
 20
-5.682955343016948
 30
0.0
 10
-16.46956969171872
 20
-5.684018356871525
 30
0.0
 10
-16.44000000000001
 20
-5.684018356871525
 30
0.0
  0
SPLINE
  5
171
330
1F
100
AcDbEntity
  8
SK1
  6
Continuous
100
AcDbSpline
210
0.0
220
0.0
230
1.0
 70
     8
 71
     3
 72
    35
 73
    31
 74
     0
 42
0.0000000108614979
 43
0.0000000001
 12
1.0
 22
0.0
 32
0.0
 13
1.0
 23
0.0
 33
0.0
 40
0.0
 40
0.0
 40
0.0
 40
0.0
 40
0.1084934408151082
 40
0.1084934408151082
 40
0.1084934408151082
 40
0.2170307975552722
 40
0.2170307975552722
 40
0.2170307975552722
 40
0.3249176807093818
 40
0.3249176807093818
 40
0.3249176807093818
 40
0.4320481873539815
 40
0.4320481873539815
 40
0.4320481873539815
 40
0.5000306686835368
 40
0.5000306686835368
 40
0.5000306686835368
 40
0.6066330905591919
 40
0.6066330905591919
 40
0.6066330905591919
 40
0.7132246775477225
 40
0.7132246775477225
 40
0.7132246775477225
 40
0.8199907432062716
 40
0.8199907432062716
 40
0.8199907432062716
 40
0.9272816296958055
 40
0.9272816296958055
 40
0.9272816296958055
 40
1.0
 40
1.0
 40
1.0
 40
1.0
 10
-16.4400000000001
 20
-9.559394579263873
 30
0.0
 10
-16.48492548006687
 20
-9.553556828989493
 30
0.0
 10
-16.53051602352953
 20
-9.544944903953997
 30
0.0
 10
-16.57299630539355
 20
-9.534207712231593
 30
0.0
 10
-16.61548670814044
 20
-9.523467962384455
 30
0.0
 10
-16.65603927519908
 20
-9.510298091805478
 30
0.0
 10
-16.69120985678704
 20
-9.495671608106708
 30
0.0
 10
-16.72617106647195
 20
-9.481132196460452
 30
0.0
 10
-16.75678401250643
 20
-9.464741826583673
 30
0.0
 10
-16.78043050432314
 20
-9.447736023137047
 30
0.0
 10
-16.80391412581766
 20
-9.430847350836459
 30
0.0
 10
-16.82117820247633
 20
-9.412877213091264
 30
0.0
 10
-16.83075275527945
 20
-9.395232048897597
 30
0.0
 10
-16.83688076051545
 20
-9.38393860670846
 30
0.0
 10
-16.84000000000137
 20
-9.37261293305365
 30
0.0
 10
-16.8400000000014
 20
-9.361640689338707
 30
0.0
 10
-16.84000000000143
 20
-9.344579912162121
 30
0.0
 10
-16.83233281748799
 20
-9.327992566908366
 30
0.0
 10
-16.81764657137046
 20
-9.313296033668012
 30
0.0
 10
-16.80296114795613
 20
-9.298600323707122
 30
0.0
 10
-16.78085502485431
 20
-9.2853947340002
 30
0.0
 10
-16.75318834294549
 20
-9.27487247197576
 30
0.0
 10
-16.72547505298189
 20
-9.264332483858738
 30
0.0
 10
-16.69142664322298
 20
-9.256201608652347
 30
0.0
 10
-16.65388298470764
 20
-9.251257323299688
 30
0.0
 10
-16.61615462630381
 20
-9.246288714026836
 30
0.0
 10
-16.57387042903211
 20
-9.244406313005417
 30
0.0
 10
-16.53051572894425
 20
-9.245828831601813
 30
0.0
 10
-16.5009072195612
 20
-9.24680032154693
 30
0.0
 10
-16.47034756071448
 20
-9.249304381223771
 30
0.0
 10
-16.44000000000003
 20
-9.25324783337181
 30
0.0
  0
LINE
  5
172
330
1F
100
AcDbEntity
  8
SK3
100
AcDbLine
 10
-16.44
 20
-5.377871611
 30
0.0
 11
-8.04
 21
-5.377871611
 31
0.0
  0
SPLINE
  5
173
330
1F
100
AcDbEntity
  8
SK1
  6
Continuous
100
AcDbSpline
210
0.0
220
0.0
230
1.0
 70
     8
 71
     3
 72
    23
 73
    19
 74
     0
 42
0.0000000190698418
 43
0.0000000001
 12
1.0
 22
0.0
 32
0.0
 13
1.0
 23
0.0
 33
0.0
 40
0.0
 40
0.0
 40
0.0
 40
0.0
 40
0.2563391471390027
 40
0.2563391471390027
 40
0.2563391471390027
 40
0.4827925715084481
 40
0.4827925715084481
 40
0.4827925715084481
 40
0.657998060344557
 40
0.657998060344557
 40
0.657998060344557
 40
0.8024894534924059
 40
0.8024894534924059
 40
0.8024894534924059
 40
0.9071084694154612
 40
0.9071084694154612
 40
0.9071084694154612
 40
1.0
 40
1.0
 40
1.0
 40
1.0
 10
8.91065177034837
 20
-11.84383284963611
 30
0.0
 10
8.969100060379908
 20
-11.81006847420464
 30
0.0
 10
9.028483245596675
 20
-11.77613567993737
 30
0.0
 10
9.084281165609223
 20
-11.7445673529575
 30
0.0
 10
9.133599149922102
 20
-11.71666512551915
 30
0.0
 10
9.181389418537186
 20
-11.68988967779127
 30
0.0
 10
9.223006689886255
 20
-11.66673637653703
 30
0.0
 10
9.255283183090725
 20
-11.64877971223952
 30
0.0
 10
9.284562056050467
 20
-11.63260103949702
 30
0.0
 10
9.307447386616532
 20
-11.61999932692904
 30
0.0
 10
9.32634502295857
 20
-11.60959342168292
 30
0.0
 10
9.341254011694621
 20
-11.60141959227151
 30
0.0
 10
9.35013568484533
 20
-11.59655438835276
 30
0.0
 10
9.35660345120567
 20
-11.5930114745675
 30
0.0
 10
9.360000000000005
 20
-11.59115417341732
 30
0.0
 10
9.360000000000005
 20
-11.59115417341732
 30
0.0
 10
9.360000000000005
 20
-11.59115417341732
 30
0.0
 10
9.35731405536849
 20
-11.59262237055034
 30
0.0
 10
9.352231435455481
 20
-11.59540608966599
 30
0.0
  0
SPLINE
  5
174
330
1F
100
AcDbEntity
  8
SK1
  6
Continuous
100
AcDbSpline
210
0.0
220
0.0
230
1.0
 70
     8
 71
     3
 72
    20
 73
    16
 74
     0
 42
0.0000000193974395
 43
0.0000000001
 12
1.0
 22
0.0
 32
0.0
 13
1.0
 23
0.0
 33
0.0
 40
0.0
 40
0.0
 40
0.0
 40
0.0
 40
0.1562292605016282
 40
0.1562292605016282
 40
0.1562292605016282
 40
0.3114492314153021
 40
0.3114492314153021
 40
0.3114492314153021
 40
0.5187156658949355
 40
0.5187156658949355
 40
0.5187156658949355
 40
0.783052391118807
 40
0.783052391118807
 40
0.783052391118807
 40
1.0
 40
1.0
 40
1.0
 40
1.0
 10
9.360000000000008
 20
11.5911543729587
 30
0.0
 10
9.360000000000008
 20
11.5911543729587
 30
0.0
 10
9.353749244777887
 20
11.59457117492424
 30
0.0
 10
9.342274699172714
 20
11.60086275111814
 30
0.0
 10
9.33084219671982
 20
11.60713127474811
 30
0.0
 10
9.314037565606327
 20
11.61635840939335
 30
0.0
 10
9.293837766002342
 20
11.62749983569572
 30
0.0
 10
9.2669594024372
 20
11.64232489894686
 30
0.0
 10
9.233397317192885
 20
11.66091474420248
 30
0.0
 10
9.197021622530128
 20
11.68121591549451
 30
0.0
 10
9.15073214674099
 20
11.70704993971662
 30
0.0
 10
9.098497031316551
 20
11.73643471004577
 30
0.0
 10
9.045232150686608
 20
11.76671206345052
 30
0.0
 10
9.001280423609089
 20
11.79169554145212
 30
0.0
 10
8.95574932060014
 20
11.8177811216126
 30
0.0
 10
8.910651770342398
 20
11.84383304918094
 30
0.0
  0
LINE
  5
175
330
1F
100
AcDbEntity
  8
SK3
100
AcDbLine
 10
-16.44
 20
5.3778718105
 30
0.0
 11
-8.04
 21
5.3778718105
 31
0.0
  0
SPLINE
  5
176
330
1F
100
AcDbEntity
  8
SK3
100
AcDbSpline
210
0.0
220
0.0
230
1.0
 70
     8
 71
     3
 72
    35
 73
    31
 74
     0
 42
0.00000001090985
 43
0.0000000001
 12
1.0
 22
0.0
 32
0.0
 13
1.0
 23
0.0
 33
0.0
 40
0.0
 40
0.0
 40
0.0
 40
0.0
 40
0.1073073750052114
 40
0.1073073750052114
 40
0.1073073750052114
 40
0.2146045795106182
 40
0.2146045795106182
 40
0.2146045795106182
 40
0.3220542625358138
 40
0.3220542625358138
 40
0.3220542625358138
 40
0.429608320939779
 40
0.429608320939779
 40
0.429608320939779
 40
0.4999991456542819
 40
0.4999991456542819
 40
0.4999991456542819
 40
0.6073071808982974
 40
0.6073071808982974
 40
0.6073071808982974
 40
0.7146051037494162
 40
0.7146051037494162
 40
0.7146051037494162
 40
0.8220547570665483
 40
0.8220547570665483
 40
0.8220547570665483
 40
0.9296093240532771
 40
0.9296093240532771
 40
0.9296093240532771
 40
1.0
 40
1.0
 40
1.0
 40
1.0
 10
-16.44000000000001
 20
5.684018556412908
 30
0.0
 10
-16.48471410018995
 20
5.684018556412908
 30
0.0
 10
-16.53004459865582
 20
5.681555904713687
 30
0.0
 10
-16.57223548305628
 20
5.676761095118168
 30
0.0
 10
-16.61442409404361
 20
5.671966543886117
 30
0.0
 10
-16.65463646908369
 20
5.664701837254596
 30
0.0
 10
-16.68956031853172
 20
5.655376134724165
 30
0.0
 10
-16.72453298943097
 20
5.646037395419768
 30
0.0
 10
-16.75516706647987
 20
5.634363881606092
 30
0.0
 10
-16.77893407568434
 20
5.621093042354249
 30
0.0
 10
-16.80272278827819
 20
5.607810084531275
 30
0.0
 10
-16.82028754224968
 20
5.592549458103557
 30
0.0
 10
-16.83016379112925
 20
5.576416317499962
 30
0.0
 10
-16.83668033045403
 20
5.565771360446177
 30
0.0
 10
-16.84
 20
5.554593188239332
 30
0.0
 10
-16.84
 20
5.543277294838413
 30
0.0
 10
-16.84
 20
5.526165901865543
 30
0.0
 10
-16.83228869652955
 20
5.508331474978251
 30
0.0
 10
-16.81750983367222
 20
5.491326382945847
 30
0.0
 10
-16.80273176240792
 20
5.474322201748913
 30
0.0
 10
-16.78048190421514
 20
5.457685343974732
 30
0.0
 10
-16.75260082625649
 20
5.442977345110318
 30
0.0
 10
-16.72468095823795
 20
5.428248883473353
 30
0.0
 10
-16.69034454172211
 20
5.415058889529365
 30
0.0
 10
-16.6524230141933
 20
5.404721350401107
 30
0.0
 10
-16.61446667298319
 20
5.394374320943315
 30
0.0
 10
-16.57186830119435
 20
5.386609654436374
 30
0.0
 10
-16.52815968392985
 20
5.382235600049006
 30
0.0
 10
-16.49932009253044
 20
5.379349534344223
 30
0.0
 10
-16.46956969171872
 20
5.377871810520835
 30
0.0
 10
-16.44000000000001
 20
5.377871810520835
 30
0.0
  0
SPLINE
  5
177
330
1F
100
AcDbEntity
  8
SK1
  6
Continuous
100
AcDbSpline
210
0.0
220
0.0
230
1.0
 70
     8
 71
     3
 72
    35
 73
    31
 74
     0
 42
0.0000000108622717
 43
0.0000000001
 12
1.0
 22
0.0
 32
0.0
 13
1.0
 23
0.0
 33
0.0
 40
0.0
 40
0.0
 40
0.0
 40
0.0
 40
0.1084934408151502
 40
0.1084934408151502
 40
0.1084934408151502
 40
0.217030797555355
 40
0.217030797555355
 40
0.217030797555355
 40
0.324917680709459
 40
0.324917680709459
 40
0.324917680709459
 40
0.432048187354047
 40
0.432048187354047
 40
0.432048187354047
 40
0.5000306686835683
 40
0.5000306686835683
 40
0.5000306686835683
 40
0.6066330905592122
 40
0.6066330905592122
 40
0.6066330905592122
 40
0.713224677547734
 40
0.713224677547734
 40
0.713224677547734
 40
0.8199907432062727
 40
0.8199907432062727
 40
0.8199907432062727
 40
0.9272816296958
 40
0.9272816296958
 40
0.9272816296958
 40
1.0
 40
1.0
 40
1.0
 40
1.0
 10
-16.44000000000001
 20
9.253248032913195
 30
0.0
 10
-16.48492548006689
 20
9.247410282639347
 30
0.0
 10
-16.53051602352949
 20
9.244753705288657
 30
0.0
 10
-16.57299630539353
 20
9.245478922220972
 30
0.0
 10
-16.61548670814043
 20
9.246204311935461
 30
0.0
 10
-16.6560392751991
 20
9.250332972086579
 30
0.0
 10
-16.69120985678707
 20
9.257430414575754
 30
0.0
 10
-16.72617106647197
 20
9.264485605701042
 30
0.0
 10
-16.75678401250645
 20
9.274665434037741
 30
0.0
 10
-16.78043050432316
 20
9.286996294780284
 30
0.0
 10
-16.80391412581768
 20
9.299242224054872
 30
0.0
 10
-16.82117820247634
 20
9.313943410685107
 30
0.0
 10
-16.83075275527946
 20
9.3297842772194
 30
0.0
 10
-16.83688076051545
 20
9.339922913985106
 30
0.0
 10
-16.84000000000137
 20
9.350668645164923
 30
0.0
 10
-16.8400000000014
 20
9.361640888879858
 30
0.0
 10
-16.84000000000143
 20
9.37870166605644
 30
0.0
 10
-16.83233281748798
 20
9.396706388264777
 30
0.0
 10
-16.81764657137046
 20
9.414205920407236
 30
0.0
 10
-16.80296114795613
 20
9.431704472250109
 30
0.0
 10
-16.7808550248543
 20
9.44918338622997
 30
0.0
 10
-16.75318834294549
 20
9.465313822373837
 30
0.0
 10
-16.72547505298189
 20
9.48147143229496
 30
0.0
 10
-16.69142664322298
 20
9.496724999168295
 30
0.0
 10
-16.65388298470764
 20
9.509962922818568
 30
0.0
 10
-16.61615462630381
 20
9.52326597179543
 30
0.0
 10
-16.57387042903211
 20
9.534903099453992
 30
0.0
 10
-16.53051572894425
 20
9.544034371146369
 30
0.0
 10
-16.50090721956119
 20
9.550270450349661
 30
0.0
 10
-16.47034756071448
 20
9.555451326657229
 30
0.0
 10
-16.44000000000001
 20
9.559394778805267
 30
0.0
  0
LINE
  5
178
330
1F
100
AcDbEntity
  8
SK3
100
AcDbLine
 10
-16.44
 20
5.6840185564
 30
0.0
 11
-8.04
 21
5.6840185564
 31
0.0
  0
LINE
  5
179
330
1F
100
AcDbEntity
  8
SK1
  6
Continuous
100
AcDbLine
 10
-16.44
 20
9.5593947788
 30
0.0
 11
-16.44
 21
9.2532480329
 31
0.0
  0
SPLINE
  5
17A
330
1F
100
AcDbEntity
  8
SK1
  6
Continuous
100
AcDbSpline
210
0.0
220
0.0
230
1.0
 70
     8
 71
     3
 72
    35
 73
    31
 74
     0
 42
0.000000008203142
 43
0.0000000001
 12
1.0
 22
0.0
 32
0.0
 13
1.0
 23
0.0
 33
0.0
 40
0.0
 40
0.0
 40
0.0
 40
0.0
 40
0.1412991659069997
 40
0.1412991659069997
 40
0.1412991659069997
 40
0.2661247352258977
 40
0.2661247352258977
 40
0.2661247352258977
 40
0.3627014372688449
 40
0.3627014372688449
 40
0.3627014372688449
 40
0.4423479273214037
 40
0.4423479273214037
 40
0.4423479273214037
 40
0.5000159809673091
 40
0.5000159809673091
 40
0.5000159809673091
 40
0.5781281145241938
 40
0.5781281145241938
 40
0.5781281145241938
 40
0.6557356194165187
 40
0.6557356194165187
 40
0.6557356194165187
 40
0.7593655243392506
 40
0.7593655243392506
 40
0.7593655243392506
 40
0.8915296625959334
 40
0.8915296625959334
 40
0.8915296625959334
 40
1.0
 40
1.0
 40
1.0
 40
1.0
 10
8.910651770342394
 20
8.657697406013966
 30
0.0
 10
8.969100060369488
 20
8.633822387178558
 30
0.0
 10
9.028483245590543
 20
8.602345930821661
 30
0.0
 10
9.084281165603215
 20
8.565086073709855
 30
0.0
 10
9.133599149916446
 20
8.532153286105302
 30
0.0
 10
9.181389418531973
 20
8.493814120584787
 30
0.0
 10
9.223006689881608
 20
8.45203202873989
 30
0.0
 10
9.255283183086762
 20
8.419627708134646
 30
0.0
 10
9.284562056047228
 20
8.384350771230695
 30
0.0
 10
9.307447386613996
 20
8.348436244138895
 30
0.0
 10
9.326345022956518
 20
8.318779706278782
 30
0.0
 10
9.341254011693092
 20
8.287978058800874
 30
0.0
 10
9.350135684844298
 20
8.258487013909573
 30
0.0
 10
9.356603451205304
 20
8.237011196813901
 30
0.0
 10
9.360000000000007
 20
8.215858128543125
 30
0.0
 10
9.360000000000007
 20
8.196183888121361
 30
0.0
 10
9.360000000000007
 20
8.169729257089571
 30
0.0
 10
9.353749244777884
 20
8.145316763537494
 30
0.0
 10
9.342274699172709
 20
8.12498205820509
 30
0.0
 10
9.330842196719814
 20
8.104721859972335
 30
0.0
 10
9.314037565606322
 20
8.087906330507176
 30
0.0
 10
9.293837766002337
 20
8.075080723360248
 30
0.0
 10
9.266959402437193
 20
8.058014646537844
 30
0.0
 10
9.233397317192876
 20
8.04745199192979
 30
0.0
 10
9.197021622530118
 20
8.042770376414753
 30
0.0
 10
9.150732146740978
 20
8.036812839932042
 30
0.0
 10
9.098497031316537
 20
8.040075862941503
 30
0.0
 10
9.045232150686596
 20
8.050762704666864
 30
0.0
 10
9.001280423611055
 20
8.059580994415333
 30
0.0
 10
8.95574932060424
 20
8.073590486416908
 30
0.0
 10
8.91065177034847
 20
8.092011981062242
 30
0.0
  0
LINE
  5
17B
330
1F
100
AcDbEntity
  8
SK3
100
AcDbLine
 10
-7.34
 20
3.6639023165
 30
0.0
 11
-7.34
 21
4.1224520011
 31
0.0
  0
LINE
  5
17C
330
1F
100
AcDbEntity
  8
SK1
  6
Continuous
100
AcDbLine
 10
4.7272411211
 20
7.4901876844
 30
0.0
 11
6.66
 21
8.029583639
 31
0.0
  0
LINE
  5
17D
330
1F
100
AcDbEntity
  8
SK1
  6
Continuous
100
AcDbLine
 10
8.0878873718
 20
8.4280796337
 30
0.0
 11
8.9106517703
 21
8.657697406
 31
0.0
  0
LINE
  5
17E
330
1F
100
AcDbEntity
  8
SK3
100
AcDbLine
 10
-16.44
 20
1.9214407532
 30
0.0
 11
-8.04
 21
1.9214407532
 31
0.0
  0
SPLINE
  5
17F
330
1F
100
AcDbEntity
  8
SK3
100
AcDbSpline
210
0.0
220
0.0
230
1.0
 70
     8
 71
     3
 72
    35
 73
    31
 74
     0
 42
0.0000000082338381
 43
0.0000000001
 12
1.0
 22
0.0
 32
0.0
 13
1.0
 23
0.0
 33
0.0
 40
0.0
 40
0.0
 40
0.0
 40
0.0
 40
0.1073073750052119
 40
0.1073073750052119
 40
0.1073073750052119
 40
0.2146045795106181
 40
0.2146045795106181
 40
0.2146045795106181
 40
0.3220542625358138
 40
0.3220542625358138
 40
0.3220542625358138
 40
0.4296083209397786
 40
0.4296083209397786
 40
0.4296083209397786
 40
0.4999991456542834
 40
0.4999991456542834
 40
0.4999991456542834
 40
0.6073071808982979
 40
0.6073071808982979
 40
0.6073071808982979
 40
0.7146051037494162
 40
0.7146051037494162
 40
0.7146051037494162
 40
0.8220547570665486
 40
0.8220547570665486
 40
0.8220547570665486
 40
0.9296093240532771
 40
0.9296093240532771
 40
0.9296093240532771
 40
1.0
 40
1.0
 40
1.0
 40
1.0
 10
-16.44000000000001
 20
2.660544379182959
 30
0.0
 10
-16.48471410018995
 20
2.660544379182956
 30
0.0
 10
-16.53004459865582
 20
2.653622370034378
 30
0.0
 10
-16.57223548305628
 20
2.64032511610309
 30
0.0
 10
-16.61442409404361
 20
2.627028578680885
 30
0.0
 10
-16.65463646908369
 20
2.606990266829378
 30
0.0
 10
-16.68956031853172
 20
2.581788322048815
 30
0.0
 10
-16.72453298943097
 20
2.556551146457866
 30
0.0
 10
-16.75516706647987
 20
2.525435799451997
 30
0.0
 10
-16.77893407568434
 20
2.490914848239326
 30
0.0
 10
-16.80272278827819
 20
2.45636237342857
 30
0.0
 10
-16.82028754224968
 20
2.417437855226615
 30
0.0
 10
-16.83016379112925
 20
2.377302201743605
 30
0.0
 10
-16.83668033045403
 20
2.350819924166658
 30
0.0
 10
-16.84
 20
2.3234196772801
 30
0.0
 10
-16.84
 20
2.296100693961231
 30
0.0
 10
-16.84
 20
2.254790136975032
 30
0.0
 10
-16.83228869652955
 20
2.212708315240137
 30
0.0
 10
-16.81750983367222
 20
2.173372967970151
 30
0.0
 10
-16.80273176240792
 20
2.134039727600232
 30
0.0
 10
-16.78048190421514
 20
2.096371183236952
 30
0.0
 10
-16.75260082625649
 20
2.063549327269159
 30
0.0
 10
-16.72468095823795
 20
2.030681807293666
 30
0.0
 10
-16.69034454172211
 20
2.001772174637975
 30
0.0
 10
-16.6524230141933
 20
1.979299856333693
 30
0.0
 10
-16.61446667298319
 20
1.95680690742251
 30
0.0
 10
-16.57186830119435
 20
1.940147228906649
 30
0.0
 10
-16.52815968392985
 20
1.930776517756107
 30
0.0
 10
-16.49932009253044
 20
1.924593584100983
 30
0.0
 10
-16.46956969171871
 20
1.921440753173928
 30
0.0
 10
-16.44000000000001
 20
1.921440753173929
 30
0.0
  0
SPLINE
  5
180
330
1F
100
AcDbEntity
  8
SK1
  6
Continuous
100
AcDbSpline
210
0.0
220
0.0
230
1.0
 70
     8
 71
     3
 72
    35
 73
    31
 74
     0
 42
0.0000000082299211
 43
0.0000000001
 12
1.0
 22
0.0
 32
0.0
 13
1.0
 23
0.0
 33
0.0
 40
0.0
 40
0.0
 40
0.0
 40
0.0
 40
0.108493440815105
 40
0.108493440815105
 40
0.108493440815105
 40
0.2170307975552688
 40
0.2170307975552688
 40
0.2170307975552688
 40
0.3249176807093781
 40
0.3249176807093781
 40
0.3249176807093781
 40
0.4320481873539775
 40
0.4320481873539775
 40
0.4320481873539775
 40
0.5000306686835326
 40
0.5000306686835326
 40
0.5000306686835326
 40
0.6066330905591856
 40
0.6066330905591856
 40
0.6066330905591856
 40
0.7132246775477158
 40
0.7132246775477158
 40
0.7132246775477158
 40
0.8199907432062636
 40
0.8199907432062636
 40
0.8199907432062636
 40
0.9272816296957995
 40
0.9272816296957995
 40
0.9272816296957995
 40
1.0
 40
1.0
 40
1.0
 40
1.0
 10
-16.4400000000001
 20
3.526674143787051
 30
0.0
 10
-16.48492548006687
 20
3.524256068449655
 30
0.0
 10
-16.53051602352953
 20
3.529111025767081
 30
0.0
 10
-16.57299630539355
 20
3.540873829110827
 30
0.0
 10
-16.61548670814044
 20
3.552639434930206
 30
0.0
 10
-16.65603927519908
 20
3.571648112689318
 30
0.0
 10
-16.69120985678704
 20
3.596311895814438
 30
0.0
 10
-16.72617106647195
 20
3.620828854435205
 30
0.0
 10
-16.75678401250643
 20
3.651615675608372
 30
0.0
 10
-16.78043050432314
 20
3.686059949552832
 30
0.0
 10
-16.80391412581766
 20
3.720266981117406
 30
0.0
 10
-16.82117820247633
 20
3.759027736378056
 30
0.0
 10
-16.83075275527945
 20
3.799075268864258
 30
0.0
 10
-16.83688076051545
 20
3.824706908671439
 30
0.0
 10
-16.84000000000137
 20
3.851229341098366
 30
0.0
 10
-16.8400000000014
 20
3.877718680684638
 30
0.0
 10
-16.84000000000143
 20
3.918907040328973
 30
0.0
 10
-16.83233281748798
 20
3.960956907916521
 30
0.0
 10
-16.81764657137046
 20
4.000401516847921
 30
0.0
 10
-16.80296114795613
 20
4.039843916146892
 30
0.0
 10
-16.7808550248543
 20
4.077768423059685
 30
0.0
 10
-16.75318834294549
 20
4.111102566645775
 30
0.0
 10
-16.72547505298189
 20
4.144492865848784
 30
0.0
 10
-16.69142664322298
 20
4.17419554220201
 30
0.0
 10
-16.65388298470764
 20
4.197861078718546
 30
0.0
 10
-16.61615462630381
 20
4.221643040275389
 30
0.0
 10
-16.57387042903211
 20
4.239982825058612
 30
0.0
 10
-16.53051572894425
 20
4.251473874731289
 30
0.0
 10
-16.5009072195612
 20
4.259321532571502
 30
0.0
 10
-16.47034756071448
 20
4.264144338433797
 30
0.0
 10
-16.44000000000002
 20
4.265777769796085
 30
0.0
  0
LINE
  5
181
330
1F
100
AcDbEntity
  8
SK3
100
AcDbLine
 10
-16.44
 20
2.6605443792
 30
0.0
 11
-8.04
 21
2.6605443792
 31
0.0
  0
LINE
  5
182
330
1F
100
AcDbEntity
  8
SK1
  6
Continuous
100
AcDbLine
 10
-16.44
 20
4.2657777698
 30
0.0
 11
-16.44
 21
3.5266741438
 31
0.0
  0
SPLINE
  5
183
330
1F
100
AcDbEntity
  8
SK1
  6
Continuous
100
AcDbSpline
210
0.0
220
0.0
230
1.0
 70
     8
 71
     3
 72
    35
 73
    31
 74
     0
 42
0.0000000074655781
 43
0.0000000001
 12
1.0
 22
0.0
 32
0.0
 13
1.0
 23
0.0
 33
0.0
 40
0.0
 40
0.0
 40
0.0
 40
0.0
 40
0.1412991659077546
 40
0.1412991659077546
 40
0.1412991659077546
 40
0.2661247352263276
 40
0.2661247352263276
 40
0.2661247352263276
 40
0.3627014372678379
 40
0.3627014372678379
 40
0.3627014372678379
 40
0.4423479273198549
 40
0.4423479273198549
 40
0.4423479273198549
 40
0.5000159809610061
 40
0.5000159809610061
 40
0.5000159809610061
 40
0.5781281145181008
 40
0.5781281145181008
 40
0.5781281145181008
 40
0.6557356194106349
 40
0.6557356194106349
 40
0.6557356194106349
 40
0.759365524333649
 40
0.759365524333649
 40
0.759365524333649
 40
0.8915296625906877
 40
0.8915296625906877
 40
0.8915296625906877
 40
1.0
 40
1.0
 40
1.0
 40
1.0
 10
8.910651770351864
 20
0.4000000997706868
 30
0.0
 10
8.969100060385992
 20
0.4000000997706868
 30
0.0
 10
9.02848324560026
 20
0.389418462552738
 30
0.0
 10
9.084281165612737
 20
0.3682933942718316
 30
0.0
 10
9.133599149925406
 20
0.3496216268323147
 30
0.0
 10
9.181389418540235
 20
0.3221773067103442
 30
0.0
 10
9.22300668988897
 20
0.2862418070126981
 30
0.0
 10
9.255283183093042
 20
0.2583718416308569
 30
0.0
 10
9.28456205605236
 20
0.2246613917650754
 30
0.0
 10
9.307447386618017
 20
0.1864722930341162
 30
0.0
 10
9.326345022959773
 20
0.154937520225543
 30
0.0
 10
9.34125401169552
 20
0.1195512420305003
 30
0.0
 10
9.350135684845936
 20
0.0827098102958158
 30
0.0
 10
9.356603451205887
 20
0.0558813322837856
 30
0.0
 10
9.360000000000007
 20
0.0278236774022048
 30
0.0
 10
9.360000000000007
 20
0.0000000997706854
 30
0.0
 10
9.360000000000007
 20
-0.0374123982220492
 30
0.0
 10
9.353749244777887
 20
-0.0753536796602802
 30
0.0
 10
9.342274699172714
 20
-0.1104028719221211
 30
0.0
 10
9.330842196719818
 20
-0.1453236426692273
 30
0.0
 10
9.314037565606325
 20
-0.1783315271425779
 30
0.0
 10
9.29383776600234
 20
-0.2076111010178034
 30
0.0
 10
9.266959402437196
 20
-0.2465712415676911
 30
0.0
 10
9.233397317192882
 20
-0.2800989362246801
 30
0.0
 10
9.197021622530121
 20
-0.3070209116718959
 30
0.0
 10
9.150732146740983
 20
-0.3412801647861866
 30
0.0
 10
9.09849703131654
 20
-0.3660503237210185
 30
0.0
 10
9.045232150686601
 20
-0.381214200618839
 30
0.0
 10
9.001280423609083
 20
-0.3937267336606479
 30
0.0
 10
8.955749320600138
 20
-0.3999999002293148
 30
0.0
 10
8.910651770342398
 20
-0.3999999002293116
 30
0.0
  0
LINE
  5
184
330
1F
100
AcDbEntity
  8
SK1
  6
Continuous
100
AcDbLine
 10
-7.34
 20
-0.3999999002
 30
0.0
 11
-7.34
 21
0.4000000998
 31
0.0
  0
LINE
  5
185
330
1F
100
AcDbEntity
  8
SK3
100
AcDbLine
 10
-16.44
 20
-1.9214405536
 30
0.0
 11
-8.04
 21
-1.9214405536
 31
0.0
  0
ARC
  5
186
330
1F
100
AcDbEntity
  8
SK3
100
AcDbCircle
 10
11.46
 20
2.7000000998
 30
0.0
 40
0.2000000000000016
100
AcDbArc
 50
270.0
 51
0.0
  0
LINE
  5
187
330
1F
100
AcDbEntity
  8
SK3
100
AcDbLine
 10
11.46
 20
2.5000000998
 30
0.0
 11
-6.9935898385
 21
2.5000000998
 31
0.0
  0
LINE
  5
188
330
1F
100
AcDbEntity
  8
SK3
100
AcDbLine
 10
-6.9935898385
 20
2.5000000998
 30
0.0
 11
-7.34
 21
2.7000000998
 31
0.0
  0
ARC
  5
189
330
1F
100
AcDbEntity
  8
SK1
  6
Continuous
100
AcDbCircle
 10
11.41
 20
10.1189111865
 30
0.0
 40
0.2500000000000016
100
AcDbArc
 50
0.0
 51
60.0
  0
LINE
  5
18A
330
1F
100
AcDbEntity
  8
SK1
  6
Continuous
100
AcDbLine
 10
11.535
 20
10.3354175375
 30
0.0
 11
9.36
 21
11.591154373
 31
0.0
  0
ARC
  5
18B
330
1F
100
AcDbEntity
  8
SK3
100
AcDbCircle
 10
11.46
 20
-2.6999999002
 30
0.0
 40
0.2000000000000004
100
AcDbArc
 50
0.0
 51
90.0
  0
LINE
  5
18C
330
1F
100
AcDbEntity
  8
SK3
100
AcDbLine
 10
-6.9935898385
 20
-2.4999999002
 30
0.0
 11
11.46
 21
-2.4999999002
 31
0.0
  0
LINE
  5
18D
330
1F
100
AcDbEntity
  8
SK3
100
AcDbLine
 10
-7.34
 20
-2.6999999002
 30
0.0
 11
-6.9935898385
 21
-2.4999999002
 31
0.0
  0
ARC
  5
18E
330
1F
100
AcDbEntity
  8
SK1
  6
Continuous
100
AcDbCircle
 10
11.41
 20
-10.118910987
 30
0.0
 40
0.2499999999999998
100
AcDbArc
 50
300.0
 51
0.0
  0
LINE
  5
18F
330
1F
100
AcDbEntity
  8
SK1
  6
Continuous
100
AcDbLine
 10
9.36
 20
-11.5911541734
 30
0.0
 11
11.535
 21
-10.3354173379
 31
0.0
  0
LINE
  5
190
330
1F
100
AcDbEntity
  8
SK3
100
AcDbLine
 10
-16.84
 20
-2.2961004944
 30
0.0
 11
-16.84
 21
-3.8777184811
 31
0.0
  0
LINE
  5
191
330
1F
100
AcDbEntity
  8
SK3
100
AcDbLine
 10
9.2367296891
 20
-8.0505714143
 30
0.0
 11
-7.34
 21
-3.4243239127
 31
0.0
  0
LINE
  5
192
330
1F
100
AcDbEntity
  8
SK3
100
AcDbLine
 10
-16.84
 20
-5.5432770953
 30
0.0
 11
-16.84
 21
-9.3616406893
 31
0.0
  0
LINE
  5
193
330
1F
100
AcDbEntity
  8
SK3
100
AcDbLine
 10
9.36
 20
-11.5911541734
 30
0.0
 11
-7.34
 21
-4.9999999002
 31
0.0
  0
LINE
  5
194
330
1F
100
AcDbEntity
  8
SK3
100
AcDbLine
 10
9.2353732155
 20
8.0501930481
 30
0.0
 11
9.2367296891
 21
8.0505716139
 31
0.0
  0
LINE
  5
195
330
1F
100
AcDbEntity
  8
SK3
100
AcDbLine
 10
-7.34
 20
5.0000000998
 30
0.0
 11
9.36
 21
11.591154373
 31
0.0
  0
LINE
  5
196
330
1F
100
AcDbEntity
  8
SK3
100
AcDbLine
 10
-16.84
 20
9.3616408889
 30
0.0
 11
-16.84
 21
5.5432772948
 31
0.0
  0
LINE
  5
197
330
1F
100
AcDbEntity
  8
SK3
100
AcDbLine
 10
-7.34
 20
3.4243241123
 30
0.0
 11
9.2353732155
 21
8.0501930481
 31
0.0
  0
LINE
  5
198
330
1F
100
AcDbEntity
  8
SK3
100
AcDbLine
 10
-16.84
 20
3.8777186807
 30
0.0
 11
-16.84
 21
2.296100694
 31
0.0
  0
LINE
  5
199
330
1F
100
AcDbEntity
  8
SK1
  6
Continuous
100
AcDbLine
 10
0.0
 20
12.493273629
 30
0.0
 11
0.0
 21
-12.4932734294
 31
0.0
  0
LINE
  5
19B
330
1F
100
AcDbEntity
  8
SK4
  6
Continuous
100
AcDbLine
 10
11.66
 20
0.0000000998
 30
0.0
 11
-22.34
 21
0.0000000998
 31
0.0
  0
DIMENSION
  5
1B0
330
1F
100
AcDbEntity
  8
SK2
  6
Continuous
 62
   136
100
AcDbDimension
  2
DMBLK1
 10
21.7172925389
 20
2.5000000998
 30
0.0
 11
21.7172925389
 21
8.2728147201
 31
0.0
 70
   161
  1
\A1;ø <>
 71
     5
 42
-1.0
  3
DIN
100
AcDbAlignedDimension
 13
11.46
 23
2.5000000998
 33
0.0
 14
11.46
 24
-2.4999999002
 34
0.0
  0
DIMENSION
  5
1BB
330
1F
100
AcDbEntity
  8
SK2
  6
Continuous
 62
   136
100
AcDbDimension
  2
DMBLK2
 10
11.66
 20
-20.697192475
 30
0.0
 11
5.8300001547
 21
-20.697192475
 31
0.0
 70
   160
  1
\A1;<>
 71
     5
 42
-1.0
  3
DIN
100
AcDbAlignedDimension
 13
0.0
 23
-12.4932734294
 33
0.0
 14
11.66
 24
-6.7135695002
 34
0.0
100
AcDbRotatedDimension
  0
DIMENSION
  5
1C5
330
1F
100
AcDbEntity
  8
SK2
  6
Continuous
 62
   136
100
AcDbDimension
  2
DMBLK3
 10
-28.3530801535
 20
12.493273629
 30
0.0
 11
-28.3530801535
 21
0.0000003856
 31
0.0
 70
   161
  1
\A1;ø <>
 71
     5
 42
-1.0
  3
DIN
100
AcDbAlignedDimension
 13
0.0
 23
12.493273629
 33
0.0
 14
0.0
 24
-12.4932734294
 34
0.0
1001
ACAD
1000
DSTYLE
1002
{
1070
   271
1070
     1
1070
   272
1070
     1
1070
     0
1002
}
  0
DIMENSION
  5
1D0
330
1F
100
AcDbEntity
  8
SK2
  6
Continuous
 62
   136
100
AcDbDimension
  2
DMBLK4
 10
11.66
 20
19.4697516634
 30
0.0
 11
-5.3399990761
 21
19.4697516634
 31
0.0
 70
   160
  1
\A1;<>
 71
     5
 42
-1.0
  3
DIN
100
AcDbAlignedDimension
 13
-22.34
 23
9.0904102324
 33
0.0
 14
11.66
 24
9.49442128
 34
0.0
100
AcDbRotatedDimension
  0
ENDSEC
  0
SECTION
  2
OBJECTS
  0
DICTIONARY
  5
C
330
0
100
AcDbDictionary
281
     1
  3
ACAD_GROUP
350
D
  3
ACAD_LAYOUT
350
1A
  3
ACAD_MATERIAL
350
3B
  3
ACAD_MLEADERSTYLE
350
1DC
  3
ACAD_MLINESTYLE
350
17
  3
ACAD_PLOTSETTINGS
350
19
  3
ACAD_PLOTSTYLENAME
350
E
  3
ACAD_VISUALSTYLE
350
2A
  3
AcDbVariableDictionary
350
1DA
  0
DICTIONARY
  5
D
102
{ACAD_REACTORS
330
C
102
}
330
C
100
AcDbDictionary
281
     1
  0
DICTIONARY
  5
1A
102
{ACAD_REACTORS
330
C
102
}
330
C
100
AcDbDictionary
281
     1
  3
Layout1
350
1E
  3
Model
350
22
  0
DICTIONARY
  5
3B
102
{ACAD_REACTORS
330
C
102
}
330
C
100
AcDbDictionary
281
     1
  3
ByBlock
350
3D
  3
ByLayer
350
3C
  3
Global
350
3E
  0
DICTIONARY
  5
1DC
102
{ACAD_REACTORS
330
C
102
}
330
C
100
AcDbDictionary
281
     1
  0
DICTIONARY
  5
17
102
{ACAD_REACTORS
330
C
102
}
330
C
100
AcDbDictionary
281
     1
  3
Standard
350
18
  0
DICTIONARY
  5
19
102
{ACAD_REACTORS
330
C
102
}
330
C
100
AcDbDictionary
281
     1
  0
ACDBDICTIONARYWDFLT
  5
E
102
{ACAD_REACTORS
330
C
102
}
330
C
100
AcDbDictionary
281
     1
  3
Normal
350
F
100
AcDbDictionaryWithDefault
340
F
  0
DICTIONARY
  5
2A
102
{ACAD_REACTORS
330
C
102
}
330
C
100
AcDbDictionary
281
     1
  3
2dWireframe
350
2F
  3
3D Hidden
350
31
  3
3dWireframe
350
30
  3
Basic
350
32
  3
Brighten
350
36
  3
ColorChange
350
3A
  3
Conceptual
350
34
  3
Dim
350
35
  3
Facepattern
350
39
  3
Flat
350
2B
  3
FlatWithEdges
350
2C
  3
Gouraud
350
2D
  3
GouraudWithEdges
350
2E
  3
Linepattern
350
38
  3
Realistic
350
33
  3
Thicken
350
37
  0
DICTIONARY
  5
1DA
102
{ACAD_REACTORS
330
C
102
}
330
C
100
AcDbDictionary
281
     1
  3
DIMASSOC
350
1DF
  3
HIDETEXT
350
1E0
  3
PSOLHEIGHT
350
1DE
  3
PSOLWIDTH
350
1DD
  0
LAYOUT
  5
1E
102
{ACAD_REACTORS
330
1A
102
}
330
1A
100
AcDbPlotSettings
  1

  2
none_device
  4

  6

 40
0.0
 41
0.0
 42
0.0
 43
0.0
 44
0.0
 45
0.0
 46
0.0
 47
0.0
 48
0.0
 49
0.0
140
0.0
141
0.0
142
1.0
143
1.0
 70
   688
 72
     0
 73
     0
 74
     5
  7

 75
    16
147
1.0
148
0.0
149
0.0
100
AcDbLayout
  1
Layout1
 70
     1
 71
     1
 10
0.0
 20
0.0
 11
210.0
 21
297.0
 12
0.0
 22
0.0
 32
0.0
 14
0.0
 24
0.0
 34
0.0
 15
210.0
 25
297.0
 35
0.0
146
0.0
 13
0.0
 23
0.0
 33
0.0
 16
1.0
 26
0.0
 36
0.0
 17
0.0
 27
1.0
 37
0.0
 76
     0
330
1B
  0
LAYOUT
  5
22
102
{ACAD_REACTORS
330
1A
102
}
330
1A
100
AcDbPlotSettings
  1

  2
none_device
  4

  6

 40
0.0
 41
0.0
 42
0.0
 43
0.0
 44
0.0
 45
0.0
 46
0.0
 47
0.0
 48
0.0
 49
0.0
140
0.0
141
0.0
142
1.0
143
1.0
 70
  1712
 72
     0
 73
     0
 74
     0
  7

 75
     0
147
1.0
148
0.0
149
0.0
100
AcDbLayout
  1
Model
 70
     1
 71
     0
 10
0.0
 20
0.0
 11
210.0
 21
297.0
 12
0.0
 22
0.0
 32
0.0
 14
0.0
 24
0.0
 34
0.0
 15
210.0
 25
297.0
 35
0.0
146
0.0
 13
0.0
 23
0.0
 33
0.0
 16
1.0
 26
0.0
 36
0.0
 17
0.0
 27
1.0
 37
0.0
 76
     0
330
1F
331
29
  0
MATERIAL
  5
3D
102
{ACAD_REACTORS
330
3B
102
}
102
{ACAD_XDICTIONARY
360
203
102
}
330
3B
100
AcDbMaterial
  1
ByBlock
  0
MATERIAL
  5
3C
102
{ACAD_REACTORS
330
3B
102
}
102
{ACAD_XDICTIONARY
360
201
102
}
330
3B
100
AcDbMaterial
  1
ByLayer
  0
MATERIAL
  5
3E
102
{ACAD_REACTORS
330
3B
102
}
102
{ACAD_XDICTIONARY
360
205
102
}
330
3B
100
AcDbMaterial
  1
Global
  0
MLINESTYLE
  5
18
102
{ACAD_REACTORS
330
17
102
}
330
17
100
AcDbMlineStyle
  2
Standard
 70
     0
  3

 62
   256
 51
90.0
 52
90.0
 71
     2
 49
0.5
 62
   256
  6
BYLAYER
 49
-0.5
 62
   256
  6
BYLAYER
  0
ACDBPLACEHOLDER
  5
F
102
{ACAD_REACTORS
330
E
102
}
330
E
  0
VISUALSTYLE
  5
2F
102
{ACAD_REACTORS
330
2A
102
}
102
{ACAD_XDICTIONARY
360
1E9
102
}
330
2A
100
AcDbVisualStyle
  2
2dWireframe
 70
     4
 71
     0
 72
     2
 73
     0
 90
        0
 40
-0.6
 41
-30.0
 62
     5
 63
     7
 74
     1
 91
        4
 64
     7
 65
   257
 75
     1
175
     1
 42
1.0
 92
        0
 66
   257
 43
1.0
 76
     1
 77
     6
 78
     2
 67
     7
 79
     5
170
     0
171
     0
290
     0
174
     0
 93
        1
 44
0.0
173
     0
291
     0
 45
0.0
1001
ACAD
1000
AcDbSavedByObjectVersion
1070
     0
  0
VISUALSTYLE
  5
31
102
{ACAD_REACTORS
330
2A
102
}
102
{ACAD_XDICTIONARY
360
1ED
102
}
330
2A
100
AcDbVisualStyle
  2
3D Hidden
 70
     6
 71
     1
 72
     2
 73
     2
 90
        0
 40
-0.6
 41
-30.0
 62
     5
 63
     7
 74
     2
 91
        2
 64
     7
 65
   257
 75
     2
175
     1
 42
40.0
 92
        0
 66
   257
 43
1.0
 76
     1
 77
     6
 78
     2
 67
     7
 79
     3
170
     0
171
     0
290
     0
174
     0
 93
        1
 44
0.0
173
     0
291
     0
 45
0.0
1001
ACAD
1000
AcDbSavedByObjectVersion
1070
     0
  0
VISUALSTYLE
  5
30
102
{ACAD_REACTORS
330
2A
102
}
102
{ACAD_XDICTIONARY
360
1EB
102
}
330
2A
100
AcDbVisualStyle
  2
3dWireframe
 70
     5
 71
     0
 72
     2
 73
     0
 90
        0
 40
-0.6
 41
-30.0
 62
     5
 63
     7
 74
     1
 91
        4
 64
     7
 65
   257
 75
     1
175
     1
 42
1.0
 92
        0
 66
   257
 43
1.0
 76
     1
 77
     6
 78
     2
 67
     7
 79
     5
170
     0
171
     0
290
     0
174
     0
 93
        1
 44
0.0
173
     0
291
     0
 45
0.0
1001
ACAD
1000
AcDbSavedByObjectVersion
1070
     0
  0
VISUALSTYLE
  5
32
102
{ACAD_REACTORS
330
2A
102
}
102
{ACAD_XDICTIONARY
360
1EF
102
}
330
2A
100
AcDbVisualStyle
  2
Basic
 70
     7
 71
     1
 72
     0
 73
     1
 90
        0
 40
-0.6
 41
-30.0
 62
     5
 63
     7
 74
     0
 91
        4
 64
     7
 65
   257
 75
     1
175
     1
 42
1.0
 92
        8
 66
     7
 43
1.0
 76
     1
 77
     6
 78
     2
 67
     7
 79
     5
170
     0
171
     0
290
     0
174
     0
 93
        1
 44
0.0
173
     0
291
     1
 45
0.0
1001
ACAD
1000
AcDbSavedByObjectVersion
1070
     0
  0
VISUALSTYLE
  5
36
102
{ACAD_REACTORS
330
2A
102
}
102
{ACAD_XDICTIONARY
360
1F7
102
}
330
2A
100
AcDbVisualStyle
  2
Brighten
 70
    12
 71
     2
 72
     2
 73
     0
 90
        0
 40
-0.6
 41
-30.0
 62
     5
 63
     7
 74
     1
 91
        4
 64
     7
 65
   257
 75
     1
175
     1
 42
1.0
 92
        8
 66
     7
 43
1.0
 76
     1
 77
     6
 78
     2
 67
     7
 79
     5
170
     0
171
     0
290
     0
174
     0
 93
        1
 44
50.0
173
     0
291
     1
 45
0.0
1001
ACAD
1000
AcDbSavedByObjectVersion
1070
     0
  0
VISUALSTYLE
  5
3A
102
{ACAD_REACTORS
330
2A
102
}
102
{ACAD_XDICTIONARY
360
1FF
102
}
330
2A
100
AcDbVisualStyle
  2
ColorChange
 70
    16
 71
     2
 72
     2
 73
     3
 90
        0
 40
-0.6
 41
-30.0
 62
     5
 63
     8
 74
     1
 91
        4
 64
     7
 65
   257
 75
     1
175
     1
 42
1.0
 92
        8
 66
     8
 43
1.0
 76
     1
 77
     6
 78
     2
 67
     7
 79
     5
170
     0
171
     0
290
     0
174
     0
 93
        1
 44
0.0
173
     0
291
     1
 45
0.0
1001
ACAD
1000
AcDbSavedByObjectVersion
1070
     0
  0
VISUALSTYLE
  5
34
102
{ACAD_REACTORS
330
2A
102
}
102
{ACAD_XDICTIONARY
360
1F3
102
}
330
2A
100
AcDbVisualStyle
  2
Conceptual
 70
     9
 71
     3
 72
     2
 73
     0
 90
        0
 40
-0.6
 41
-30.0
 62
     5
 63
     7
 74
     2
 91
        2
 64
     7
 65
   257
 75
     1
175
     1
 42
40.0
 92
        8
 66
     7
 43
1.0
 76
     1
 77
     6
 78
     2
 67
     7
 79
     3
170
     0
171
     0
290
     0
174
     0
 93
        1
 44
0.0
173
     0
291
     0
 45
0.0
1001
ACAD
1000
AcDbSavedByObjectVersion
1070
     0
  0
VISUALSTYLE
  5
35
102
{ACAD_REACTORS
330
2A
102
}
102
{ACAD_XDICTIONARY
360
1F5
102
}
330
2A
100
AcDbVisualStyle
  2
Dim
 70
    11
 71
     2
 72
     2
 73
     0
 90
        0
 40
-0.6
 41
-30.0
 62
     5
 63
     7
 74
     1
 91
        4
 64
     7
 65
   257
 75
     1
175
     1
 42
1.0
 92
        8
 66
     7
 43
1.0
 76
     1
 77
     6
 78
     2
 67
     7
 79
     5
170
     0
171
     0
290
     0
174
     0
 93
        1
 44
-50.0
173
     0
291
     1
 45
0.0
1001
ACAD
1000
AcDbSavedByObjectVersion
1070
     0
  0
VISUALSTYLE
  5
39
102
{ACAD_REACTORS
330
2A
102
}
102
{ACAD_XDICTIONARY
360
1FD
102
}
330
2A
100
AcDbVisualStyle
  2
Facepattern
 70
    15
 71
     2
 72
     2
 73
     0
 90
        0
 40
-0.6
 41
-30.0
 62
     5
 63
     7
 74
     1
 91
        4
 64
     7
 65
   257
 75
     1
175
     1
 42
1.0
 92
        8
 66
     7
 43
1.0
 76
     1
 77
     6
 78
     2
 67
     7
 79
     5
170
     0
171
     0
290
     0
174
     0
 93
        1
 44
0.0
173
     0
291
     1
 45
0.0
1001
ACAD
1000
AcDbSavedByObjectVersion
1070
     0
  0
VISUALSTYLE
  5
2B
102
{ACAD_REACTORS
330
2A
102
}
102
{ACAD_XDICTIONARY
360
1E1
102
}
330
2A
100
AcDbVisualStyle
  2
Flat
 70
     0
 71
     2
 72
     1
 73
     1
 90
        2
 40
-0.6
 41
30.0
 62
     5
 63
     7
 74
     0
 91
        4
 64
     7
 65
   257
 75
     1
175
     1
 42
1.0
 92
        8
 66
     7
 43
1.0
 76
     1
 77
     6
 78
     2
 67
     7
 79
     5
170
     0
171
     0
290
     0
174
     0
 93
       13
 44
0.0
173
     0
291
     1
 45
0.0
1001
ACAD
1000
AcDbSavedByObjectVersion
1070
     0
  0
VISUALSTYLE
  5
2C
102
{ACAD_REACTORS
330
2A
102
}
102
{ACAD_XDICTIONARY
360
1E3
102
}
330
2A
100
AcDbVisualStyle
  2
FlatWithEdges
 70
     1
 71
     2
 72
     1
 73
     1
 90
        2
 40
-0.6
 41
30.0
 62
     5
 63
     7
 74
     1
 91
        4
 64
     7
 65
   257
 75
     1
175
     1
 42
1.0
 92
        0
 66
   257
 43
1.0
 76
     1
 77
     6
 78
     2
 67
     7
 79
     5
170
     0
171
     0
290
     0
174
     0
 93
       13
 44
0.0
173
     0
291
     1
 45
0.0
1001
ACAD
1000
AcDbSavedByObjectVersion
1070
     0
  0
VISUALSTYLE
  5
2D
102
{ACAD_REACTORS
330
2A
102
}
102
{ACAD_XDICTIONARY
360
1E5
102
}
330
2A
100
AcDbVisualStyle
  2
Gouraud
 70
     2
 71
     2
 72
     2
 73
     1
 90
        2
 40
-0.6
 41
30.0
 62
     5
 63
     7
 74
     0
 91
        4
 64
     7
 65
   257
 75
     1
175
     1
 42
1.0
 92
        0
 66
     7
 43
1.0
 76
     1
 77
     6
 78
     2
 67
     7
 79
     5
170
     0
171
     0
290
     0
174
     0
 93
       13
 44
0.0
173
     0
291
     1
 45
0.0
1001
ACAD
1000
AcDbSavedByObjectVersion
1070
     0
  0
VISUALSTYLE
  5
2E
102
{ACAD_REACTORS
330
2A
102
}
102
{ACAD_XDICTIONARY
360
1E7
102
}
330
2A
100
AcDbVisualStyle
  2
GouraudWithEdges
 70
     3
 71
     2
 72
     2
 73
     1
 90
        2
 40
-0.6
 41
30.0
 62
     5
 63
     7
 74
     1
 91
        4
 64
     7
 65
   257
 75
     1
175
     1
 42
1.0
 92
        0
 66
   257
 43
1.0
 76
     1
 77
     6
 78
     2
 67
     7
 79
     5
170
     0
171
     0
290
     0
174
     0
 93
       13
 44
0.0
173
     0
291
     1
 45
0.0
1001
ACAD
1000
AcDbSavedByObjectVersion
1070
     0
  0
VISUALSTYLE
  5
38
102
{ACAD_REACTORS
330
2A
102
}
102
{ACAD_XDICTIONARY
360
1FB
102
}
330
2A
100
AcDbVisualStyle
  2
Linepattern
 70
    14
 71
     2
 72
     2
 73
     0
 90
        0
 40
-0.6
 41
-30.0
 62
     5
 63
     7
 74
     1
 91
        4
 64
     7
 65
   257
 75
     7
175
     7
 42
1.0
 92
        8
 66
     7
 43
1.0
 76
     1
 77
     6
 78
     2
 67
     7
 79
     5
170
     0
171
     0
290
     0
174
     0
 93
        1
 44
0.0
173
     0
291
     1
 45
0.0
1001
ACAD
1000
AcDbSavedByObjectVersion
1070
     0
  0
VISUALSTYLE
  5
33
102
{ACAD_REACTORS
330
2A
102
}
102
{ACAD_XDICTIONARY
360
1F1
102
}
330
2A
100
AcDbVisualStyle
  2
Realistic
 70
     8
 71
     2
 72
     2
 73
     0
 90
        0
 40
-0.6
 41
-30.0
 62
     5
 63
     7
 74
     1
 91
        0
 64
     7
 65
   257
 75
     1
175
     1
 42
1.0
 92
        8
 66
     8
 43
1.0
 76
     1
 77
     6
 78
     2
 67
     7
 79
     5
170
     0
171
     0
290
     0
174
     0
 93
       13
 44
0.0
173
     0
291
     0
 45
0.0
1001
ACAD
1000
AcDbSavedByObjectVersion
1070
     0
  0
VISUALSTYLE
  5
37
102
{ACAD_REACTORS
330
2A
102
}
102
{ACAD_XDICTIONARY
360
1F9
102
}
330
2A
100
AcDbVisualStyle
  2
Thicken
 70
    13
 71
     2
 72
     2
 73
     0
 90
        0
 40
-0.6
 41
-30.0
 62
     5
 63
     7
 74
     1
 91
        4
 64
     7
 65
   257
 75
     1
175
     1
 42
1.0
 92
       12
 66
     7
 43
1.0
 76
     1
 77
     6
 78
     2
 67
     7
 79
     5
170
     0
171
     0
290
     0
174
     0
 93
        1
 44
0.0
173
     0
291
     1
 45
0.0
1001
ACAD
1000
AcDbSavedByObjectVersion
1070
     0
  0
DICTIONARYVAR
  5
1DF
102
{ACAD_REACTORS
330
1DA
102
}
330
1DA
100
DictionaryVariables
280
     0
  1
2
  0
DICTIONARYVAR
  5
1E0
102
{ACAD_REACTORS
330
1DA
102
}
330
1DA
100
DictionaryVariables
280
     0
  1
1
  0
DICTIONARYVAR
  5
1DE
102
{ACAD_REACTORS
330
1DA
102
}
330
1DA
100
DictionaryVariables
280
     0
  1
80.000000
  0
DICTIONARYVAR
  5
1DD
102
{ACAD_REACTORS
330
1DA
102
}
330
1DA
100
DictionaryVariables
280
     0
  1
5.000000
  0
DICTIONARY
  5
203
330
3D
100
AcDbDictionary
280
     1
281
     1
  3
ACAD_XREC_ROUNDTRIP
360
204
  0
DICTIONARY
  5
201
330
3C
100
AcDbDictionary
280
     1
281
     1
  3
ACAD_XREC_ROUNDTRIP
360
202
  0
DICTIONARY
  5
205
330
3E
100
AcDbDictionary
280
     1
281
     1
  3
ACAD_XREC_ROUNDTRIP
360
206
  0
DICTIONARY
  5
1E9
330
2F
100
AcDbDictionary
280
     1
281
     1
  3
ACAD_XREC_ROUNDTRIP
360
1EA
  0
DICTIONARY
  5
1ED
330
31
100
AcDbDictionary
280
     1
281
     1
  3
ACAD_XREC_ROUNDTRIP
360
1EE
  0
DICTIONARY
  5
1EB
330
30
100
AcDbDictionary
280
     1
281
     1
  3
ACAD_XREC_ROUNDTRIP
360
1EC
  0
DICTIONARY
  5
1EF
330
32
100
AcDbDictionary
280
     1
281
     1
  3
ACAD_XREC_ROUNDTRIP
360
1F0
  0
DICTIONARY
  5
1F7
330
36
100
AcDbDictionary
280
     1
281
     1
  3
ACAD_XREC_ROUNDTRIP
360
1F8
  0
DICTIONARY
  5
1FF
330
3A
100
AcDbDictionary
280
     1
281
     1
  3
ACAD_XREC_ROUNDTRIP
360
200
  0
DICTIONARY
  5
1F3
330
34
100
AcDbDictionary
280
     1
281
     1
  3
ACAD_XREC_ROUNDTRIP
360
1F4
  0
DICTIONARY
  5
1F5
330
35
100
AcDbDictionary
280
     1
281
     1
  3
ACAD_XREC_ROUNDTRIP
360
1F6
  0
DICTIONARY
  5
1FD
330
39
100
AcDbDictionary
280
     1
281
     1
  3
ACAD_XREC_ROUNDTRIP
360
1FE
  0
DICTIONARY
  5
1E1
330
2B
100
AcDbDictionary
280
     1
281
     1
  3
ACAD_XREC_ROUNDTRIP
360
1E2
  0
DICTIONARY
  5
1E3
330
2C
100
AcDbDictionary
280
     1
281
     1
  3
ACAD_XREC_ROUNDTRIP
360
1E4
  0
DICTIONARY
  5
1E5
330
2D
100
AcDbDictionary
280
     1
281
     1
  3
ACAD_XREC_ROUNDTRIP
360
1E6
  0
DICTIONARY
  5
1E7
330
2E
100
AcDbDictionary
280
     1
281
     1
  3
ACAD_XREC_ROUNDTRIP
360
1E8
  0
DICTIONARY
  5
1FB
330
38
100
AcDbDictionary
280
     1
281
     1
  3
ACAD_XREC_ROUNDTRIP
360
1FC
  0
DICTIONARY
  5
1F1
330
33
100
AcDbDictionary
280
     1
281
     1
  3
ACAD_XREC_ROUNDTRIP
360
1F2
  0
DICTIONARY
  5
1F9
330
37
100
AcDbDictionary
280
     1
281
     1
  3
ACAD_XREC_ROUNDTRIP
360
1FA
  0
XRECORD
  5
204
102
{ACAD_REACTORS
330
203
102
}
330
203
100
AcDbXrecord
280
     1
102
MATERIAL
148
0.0
149
0.0
149
0.0
 93
        0
 94
      127
282
     0
 72
     1
 77
     1
171
     1
175
     1
179
     1
273
     0
  0
XRECORD
  5
202
102
{ACAD_REACTORS
330
201
102
}
330
201
100
AcDbXrecord
280
     1
102
MATERIAL
148
0.0
149
0.0
149
0.0
 93
        0
 94
      127
282
     0
 72
     1
 77
     1
171
     1
175
     1
179
     1
273
     0
  0
XRECORD
  5
206
102
{ACAD_REACTORS
330
205
102
}
330
205
100
AcDbXrecord
280
     1
102
MATERIAL
148
0.0
149
0.0
149
0.0
 93
        0
 94
      127
282
     0
 72
     1
 77
     1
171
     1
175
     1
179
     1
273
     0
  0
XRECORD
  5
1EA
102
{ACAD_REACTORS
330
1E9
102
}
330
1E9
100
AcDbXrecord
280
     1
102
RTVSPropertyOp0
 70
     1
102
RTVSPropertyOp1
 70
     1
102
RTVSPropertyOp2
 70
     1
102
RTVSPropertyOp3
 70
     1
102
RTVSPropertyOp4
 70
     1
102
RTVSPropertyOp5
 70
     1
102
RTVSPropertyOp6
 70
     1
102
RTVSPropertyOp7
 70
     1
102
RTVSPropertyOp8
 70
     1
102
RTVSPropertyOp9
 70
     1
102
RTVSPropertyOp10
 70
     1
102
RTVSPropertyOp11
 70
     1
102
RTVSPropertyOp12
 70
     1
102
RTVSPropertyOp13
 70
     1
102
RTVSPropertyOp14
 70
     1
102
RTVSPropertyOp15
 70
     1
102
RTVSPropertyOp16
 70
     1
102
RTVSPropertyOp17
 70
     1
102
RTVSPropertyOp18
 70
     1
102
RTVSPropertyOp19
 70
     1
102
RTVSPropertyOp20
 70
     1
102
RTVSPropertyOp21
 70
     1
102
RTVSPropertyOp22
 70
     1
102
RTVSPropertyOp23
 70
     1
102
RTVSPropertyOp24
 70
     1
102
RTVSPropertyOp25
 70
     1
102
RTVSPropertyOp26
 70
     1
102
RTVSPropertyOp27
 70
     1
102
RTVSPropertyOp28
 70
     1
102
RTVSPropertyOp29
 70
     1
102
RTVSPropertyOp30
 70
     1
102
RTVSPropertyOp31
 70
     1
102
RTVSPropertyOp32
 70
     1
  0
XRECORD
  5
1EE
102
{ACAD_REACTORS
330
1ED
102
}
330
1ED
100
AcDbXrecord
280
     1
102
RTVSPropertyOp0
 70
     1
102
RTVSPropertyOp1
 70
     1
102
RTVSPropertyOp2
 70
     1
102
RTVSPropertyOp3
 70
     1
102
RTVSPropertyOp4
 70
     1
102
RTVSPropertyOp5
 70
     1
102
RTVSPropertyOp6
 70
     1
102
RTVSPropertyOp7
 70
     1
102
RTVSPropertyOp8
 70
     1
102
RTVSPropertyOp9
 70
     1
102
RTVSPropertyOp10
 70
     1
102
RTVSPropertyOp11
 70
     1
102
RTVSPropertyOp12
 70
     1
102
RTVSPropertyOp13
 70
     1
102
RTVSPropertyOp14
 70
     1
102
RTVSPropertyOp15
 70
     1
102
RTVSPropertyOp16
 70
     1
102
RTVSPropertyOp17
 70
     1
102
RTVSPropertyOp18
 70
     1
102
RTVSPropertyOp19
 70
     1
102
RTVSPropertyOp20
 70
     1
102
RTVSPropertyOp21
 70
     1
102
RTVSPropertyOp22
 70
     1
102
RTVSPropertyOp23
 70
     1
102
RTVSPropertyOp24
 70
     1
102
RTVSPropertyOp25
 70
     1
102
RTVSPropertyOp26
 70
     1
102
RTVSPropertyOp27
 70
     1
102
RTVSPropertyOp28
 70
     1
102
RTVSPropertyOp29
 70
     1
102
RTVSPropertyOp30
 70
     1
102
RTVSPropertyOp31
 70
     1
102
RTVSPropertyOp32
 70
     1
  0
XRECORD
  5
1EC
102
{ACAD_REACTORS
330
1EB
102
}
330
1EB
100
AcDbXrecord
280
     1
102
RTVSPropertyOp0
 70
     1
102
RTVSPropertyOp1
 70
     1
102
RTVSPropertyOp2
 70
     1
102
RTVSPropertyOp3
 70
     1
102
RTVSPropertyOp4
 70
     1
102
RTVSPropertyOp5
 70
     1
102
RTVSPropertyOp6
 70
     1
102
RTVSPropertyOp7
 70
     1
102
RTVSPropertyOp8
 70
     1
102
RTVSPropertyOp9
 70
     1
102
RTVSPropertyOp10
 70
     1
102
RTVSPropertyOp11
 70
     1
102
RTVSPropertyOp12
 70
     1
102
RTVSPropertyOp13
 70
     1
102
RTVSPropertyOp14
 70
     1
102
RTVSPropertyOp15
 70
     1
102
RTVSPropertyOp16
 70
     1
102
RTVSPropertyOp17
 70
     1
102
RTVSPropertyOp18
 70
     1
102
RTVSPropertyOp19
 70
     1
102
RTVSPropertyOp20
 70
     1
102
RTVSPropertyOp21
 70
     1
102
RTVSPropertyOp22
 70
     1
102
RTVSPropertyOp23
 70
     1
102
RTVSPropertyOp24
 70
     1
102
RTVSPropertyOp25
 70
     1
102
RTVSPropertyOp26
 70
     1
102
RTVSPropertyOp27
 70
     1
102
RTVSPropertyOp28
 70
     1
102
RTVSPropertyOp29
 70
     1
102
RTVSPropertyOp30
 70
     1
102
RTVSPropertyOp31
 70
     1
102
RTVSPropertyOp32
 70
     1
  0
XRECORD
  5
1F0
102
{ACAD_REACTORS
330
1EF
102
}
330
1EF
100
AcDbXrecord
280
     1
102
RTVSPropertyOp0
 70
     1
102
RTVSPropertyOp1
 70
     1
102
RTVSPropertyOp2
 70
     1
102
RTVSPropertyOp3
 70
     1
102
RTVSPropertyOp4
 70
     1
102
RTVSPropertyOp5
 70
     1
102
RTVSPropertyOp6
 70
     1
102
RTVSPropertyOp7
 70
     1
102
RTVSPropertyOp8
 70
     1
102
RTVSPropertyOp9
 70
     1
102
RTVSPropertyOp10
 70
     1
102
RTVSPropertyOp11
 70
     1
102
RTVSPropertyOp12
 70
     1
102
RTVSPropertyOp13
 70
     1
102
RTVSPropertyOp14
 70
     1
102
RTVSPropertyOp15
 70
     1
102
RTVSPropertyOp16
 70
     1
102
RTVSPropertyOp17
 70
     1
102
RTVSPropertyOp18
 70
     1
102
RTVSPropertyOp19
 70
     1
102
RTVSPropertyOp20
 70
     1
102
RTVSPropertyOp21
 70
     1
102
RTVSPropertyOp22
 70
     1
102
RTVSPropertyOp23
 70
     1
102
RTVSPropertyOp24
 70
     1
102
RTVSPropertyOp25
 70
     1
102
RTVSPropertyOp26
 70
     1
102
RTVSPropertyOp27
 70
     1
102
RTVSPropertyOp28
 70
     1
102
RTVSPropertyOp29
 70
     1
102
RTVSPropertyOp30
 70
     1
102
RTVSPropertyOp31
 70
     1
102
RTVSPropertyOp32
 70
     1
  0
XRECORD
  5
1F8
102
{ACAD_REACTORS
330
1F7
102
}
330
1F7
100
AcDbXrecord
280
     1
102
RTVSPropertyOp0
 70
     1
102
RTVSPropertyOp1
 70
     1
102
RTVSPropertyOp2
 70
     1
102
RTVSPropertyOp3
 70
     1
102
RTVSPropertyOp4
 70
     1
102
RTVSPropertyOp5
 70
     1
102
RTVSPropertyOp6
 70
     1
102
RTVSPropertyOp7
 70
     1
102
RTVSPropertyOp8
 70
     1
102
RTVSPropertyOp9
 70
     1
102
RTVSPropertyOp10
 70
     1
102
RTVSPropertyOp11
 70
     1
102
RTVSPropertyOp12
 70
     1
102
RTVSPropertyOp13
 70
     1
102
RTVSPropertyOp14
 70
     1
102
RTVSPropertyOp15
 70
     1
102
RTVSPropertyOp16
 70
     1
102
RTVSPropertyOp17
 70
     1
102
RTVSPropertyOp18
 70
     1
102
RTVSPropertyOp19
 70
     1
102
RTVSPropertyOp20
 70
     1
102
RTVSPropertyOp21
 70
     1
102
RTVSPropertyOp22
 70
     1
102
RTVSPropertyOp23
 70
     1
102
RTVSPropertyOp24
 70
     1
102
RTVSPropertyOp25
 70
     1
102
RTVSPropertyOp26
 70
     1
102
RTVSPropertyOp27
 70
     1
102
RTVSPropertyOp28
 70
     1
102
RTVSPropertyOp29
 70
     1
102
RTVSPropertyOp30
 70
     1
102
RTVSPropertyOp31
 70
     1
102
RTVSPropertyOp32
 70
     1
  0
XRECORD
  5
200
102
{ACAD_REACTORS
330
1FF
102
}
330
1FF
100
AcDbXrecord
280
     1
102
RTVSPropertyOp0
 70
     1
102
RTVSPropertyOp1
 70
     1
102
RTVSPropertyOp2
 70
     1
102
RTVSPropertyOp3
 70
     1
102
RTVSPropertyOp4
 70
     1
102
RTVSPropertyOp5
 70
     1
102
RTVSPropertyOp6
 70
     1
102
RTVSPropertyOp7
 70
     1
102
RTVSPropertyOp8
 70
     1
102
RTVSPropertyOp9
 70
     1
102
RTVSPropertyOp10
 70
     1
102
RTVSPropertyOp11
 70
     1
102
RTVSPropertyOp12
 70
     1
102
RTVSPropertyOp13
 70
     1
102
RTVSPropertyOp14
 70
     1
102
RTVSPropertyOp15
 70
     1
102
RTVSPropertyOp16
 70
     1
102
RTVSPropertyOp17
 70
     1
102
RTVSPropertyOp18
 70
     1
102
RTVSPropertyOp19
 70
     1
102
RTVSPropertyOp20
 70
     1
102
RTVSPropertyOp21
 70
     1
102
RTVSPropertyOp22
 70
     1
102
RTVSPropertyOp23
 70
     1
102
RTVSPropertyOp24
 70
     1
102
RTVSPropertyOp25
 70
     1
102
RTVSPropertyOp26
 70
     1
102
RTVSPropertyOp27
 70
     1
102
RTVSPropertyOp28
 70
     1
102
RTVSPropertyOp29
 70
     1
102
RTVSPropertyOp30
 70
     1
102
RTVSPropertyOp31
 70
     1
102
RTVSPropertyOp32
 70
     1
  0
XRECORD
  5
1F4
102
{ACAD_REACTORS
330
1F3
102
}
330
1F3
100
AcDbXrecord
280
     1
102
RTVSPropertyOp0
 70
     1
102
RTVSPropertyOp1
 70
     1
102
RTVSPropertyOp2
 70
     1
102
RTVSPropertyOp3
 70
     1
102
RTVSPropertyOp4
 70
     1
102
RTVSPropertyOp5
 70
     1
102
RTVSPropertyOp6
 70
     1
102
RTVSPropertyOp7
 70
     1
102
RTVSPropertyOp8
 70
     1
102
RTVSPropertyOp9
 70
     1
102
RTVSPropertyOp10
 70
     1
102
RTVSPropertyOp11
 70
     1
102
RTVSPropertyOp12
 70
     1
102
RTVSPropertyOp13
 70
     1
102
RTVSPropertyOp14
 70
     1
102
RTVSPropertyOp15
 70
     1
102
RTVSPropertyOp16
 70
     1
102
RTVSPropertyOp17
 70
     1
102
RTVSPropertyOp18
 70
     1
102
RTVSPropertyOp19
 70
     1
102
RTVSPropertyOp20
 70
     1
102
RTVSPropertyOp21
 70
     1
102
RTVSPropertyOp22
 70
     1
102
RTVSPropertyOp23
 70
     1
102
RTVSPropertyOp24
 70
     1
102
RTVSPropertyOp25
 70
     1
102
RTVSPropertyOp26
 70
     1
102
RTVSPropertyOp27
 70
     1
102
RTVSPropertyOp28
 70
     1
102
RTVSPropertyOp29
 70
     1
102
RTVSPropertyOp30
 70
     1
102
RTVSPropertyOp31
 70
     1
102
RTVSPropertyOp32
 70
     1
  0
XRECORD
  5
1F6
102
{ACAD_REACTORS
330
1F5
102
}
330
1F5
100
AcDbXrecord
280
     1
102
RTVSPropertyOp0
 70
     1
102
RTVSPropertyOp1
 70
     1
102
RTVSPropertyOp2
 70
     1
102
RTVSPropertyOp3
 70
     1
102
RTVSPropertyOp4
 70
     1
102
RTVSPropertyOp5
 70
     1
102
RTVSPropertyOp6
 70
     1
102
RTVSPropertyOp7
 70
     1
102
RTVSPropertyOp8
 70
     1
102
RTVSPropertyOp9
 70
     1
102
RTVSPropertyOp10
 70
     1
102
RTVSPropertyOp11
 70
     1
102
RTVSPropertyOp12
 70
     1
102
RTVSPropertyOp13
 70
     1
102
RTVSPropertyOp14
 70
     1
102
RTVSPropertyOp15
 70
     1
102
RTVSPropertyOp16
 70
     1
102
RTVSPropertyOp17
 70
     1
102
RTVSPropertyOp18
 70
     1
102
RTVSPropertyOp19
 70
     1
102
RTVSPropertyOp20
 70
     1
102
RTVSPropertyOp21
 70
     1
102
RTVSPropertyOp22
 70
     1
102
RTVSPropertyOp23
 70
     1
102
RTVSPropertyOp24
 70
     1
102
RTVSPropertyOp25
 70
     1
102
RTVSPropertyOp26
 70
     1
102
RTVSPropertyOp27
 70
     1
102
RTVSPropertyOp28
 70
     1
102
RTVSPropertyOp29
 70
     1
102
RTVSPropertyOp30
 70
     1
102
RTVSPropertyOp31
 70
     1
102
RTVSPropertyOp32
 70
     1
  0
XRECORD
  5
1FE
102
{ACAD_REACTORS
330
1FD
102
}
330
1FD
100
AcDbXrecord
280
     1
102
RTVSPropertyOp0
 70
     1
102
RTVSPropertyOp1
 70
     1
102
RTVSPropertyOp2
 70
     1
102
RTVSPropertyOp3
 70
     1
102
RTVSPropertyOp4
 70
     1
102
RTVSPropertyOp5
 70
     1
102
RTVSPropertyOp6
 70
     1
102
RTVSPropertyOp7
 70
     1
102
RTVSPropertyOp8
 70
     1
102
RTVSPropertyOp9
 70
     1
102
RTVSPropertyOp10
 70
     1
102
RTVSPropertyOp11
 70
     1
102
RTVSPropertyOp12
 70
     1
102
RTVSPropertyOp13
 70
     1
102
RTVSPropertyOp14
 70
     1
102
RTVSPropertyOp15
 70
     1
102
RTVSPropertyOp16
 70
     1
102
RTVSPropertyOp17
 70
     1
102
RTVSPropertyOp18
 70
     1
102
RTVSPropertyOp19
 70
     1
102
RTVSPropertyOp20
 70
     1
102
RTVSPropertyOp21
 70
     1
102
RTVSPropertyOp22
 70
     1
102
RTVSPropertyOp23
 70
     1
102
RTVSPropertyOp24
 70
     1
102
RTVSPropertyOp25
 70
     1
102
RTVSPropertyOp26
 70
     1
102
RTVSPropertyOp27
 70
     1
102
RTVSPropertyOp28
 70
     1
102
RTVSPropertyOp29
 70
     1
102
RTVSPropertyOp30
 70
     1
102
RTVSPropertyOp31
 70
     1
102
RTVSPropertyOp32
 70
     1
  0
XRECORD
  5
1E2
102
{ACAD_REACTORS
330
1E1
102
}
330
1E1
100
AcDbXrecord
280
     1
102
RTVSPropertyOp0
 70
     1
102
RTVSPropertyOp1
 70
     1
102
RTVSPropertyOp2
 70
     1
102
RTVSPropertyOp3
 70
     1
102
RTVSPropertyOp4
 70
     1
102
RTVSPropertyOp5
 70
     1
102
RTVSPropertyOp6
 70
     1
102
RTVSPropertyOp7
 70
     1
102
RTVSPropertyOp8
 70
     1
102
RTVSPropertyOp9
 70
     1
102
RTVSPropertyOp10
 70
     1
102
RTVSPropertyOp11
 70
     1
102
RTVSPropertyOp12
 70
     1
102
RTVSPropertyOp13
 70
     1
102
RTVSPropertyOp14
 70
     1
102
RTVSPropertyOp15
 70
     1
102
RTVSPropertyOp16
 70
     1
102
RTVSPropertyOp17
 70
     1
102
RTVSPropertyOp18
 70
     1
102
RTVSPropertyOp19
 70
     1
102
RTVSPropertyOp20
 70
     1
102
RTVSPropertyOp21
 70
     1
102
RTVSPropertyOp22
 70
     1
102
RTVSPropertyOp23
 70
     1
102
RTVSPropertyOp24
 70
     1
102
RTVSPropertyOp25
 70
     1
102
RTVSPropertyOp26
 70
     1
102
RTVSPropertyOp27
 70
     1
102
RTVSPropertyOp28
 70
     1
102
RTVSPropertyOp29
 70
     1
102
RTVSPropertyOp30
 70
     1
102
RTVSPropertyOp31
 70
     1
102
RTVSPropertyOp32
 70
     1
  0
XRECORD
  5
1E4
102
{ACAD_REACTORS
330
1E3
102
}
330
1E3
100
AcDbXrecord
280
     1
102
RTVSPropertyOp0
 70
     1
102
RTVSPropertyOp1
 70
     1
102
RTVSPropertyOp2
 70
     1
102
RTVSPropertyOp3
 70
     1
102
RTVSPropertyOp4
 70
     1
102
RTVSPropertyOp5
 70
     1
102
RTVSPropertyOp6
 70
     1
102
RTVSPropertyOp7
 70
     1
102
RTVSPropertyOp8
 70
     1
102
RTVSPropertyOp9
 70
     1
102
RTVSPropertyOp10
 70
     1
102
RTVSPropertyOp11
 70
     1
102
RTVSPropertyOp12
 70
     1
102
RTVSPropertyOp13
 70
     1
102
RTVSPropertyOp14
 70
     1
102
RTVSPropertyOp15
 70
     1
102
RTVSPropertyOp16
 70
     1
102
RTVSPropertyOp17
 70
     1
102
RTVSPropertyOp18
 70
     1
102
RTVSPropertyOp19
 70
     1
102
RTVSPropertyOp20
 70
     1
102
RTVSPropertyOp21
 70
     1
102
RTVSPropertyOp22
 70
     1
102
RTVSPropertyOp23
 70
     1
102
RTVSPropertyOp24
 70
     1
102
RTVSPropertyOp25
 70
     1
102
RTVSPropertyOp26
 70
     1
102
RTVSPropertyOp27
 70
     1
102
RTVSPropertyOp28
 70
     1
102
RTVSPropertyOp29
 70
     1
102
RTVSPropertyOp30
 70
     1
102
RTVSPropertyOp31
 70
     1
102
RTVSPropertyOp32
 70
     1
  0
XRECORD
  5
1E6
102
{ACAD_REACTORS
330
1E5
102
}
330
1E5
100
AcDbXrecord
280
     1
102
RTVSPropertyOp0
 70
     1
102
RTVSPropertyOp1
 70
     1
102
RTVSPropertyOp2
 70
     1
102
RTVSPropertyOp3
 70
     1
102
RTVSPropertyOp4
 70
     1
102
RTVSPropertyOp5
 70
     1
102
RTVSPropertyOp6
 70
     1
102
RTVSPropertyOp7
 70
     1
102
RTVSPropertyOp8
 70
     1
102
RTVSPropertyOp9
 70
     1
102
RTVSPropertyOp10
 70
     1
102
RTVSPropertyOp11
 70
     1
102
RTVSPropertyOp12
 70
     1
102
RTVSPropertyOp13
 70
     1
102
RTVSPropertyOp14
 70
     1
102
RTVSPropertyOp15
 70
     1
102
RTVSPropertyOp16
 70
     1
102
RTVSPropertyOp17
 70
     1
102
RTVSPropertyOp18
 70
     1
102
RTVSPropertyOp19
 70
     1
102
RTVSPropertyOp20
 70
     1
102
RTVSPropertyOp21
 70
     1
102
RTVSPropertyOp22
 70
     1
102
RTVSPropertyOp23
 70
     1
102
RTVSPropertyOp24
 70
     1
102
RTVSPropertyOp25
 70
     1
102
RTVSPropertyOp26
 70
     1
102
RTVSPropertyOp27
 70
     1
102
RTVSPropertyOp28
 70
     1
102
RTVSPropertyOp29
 70
     1
102
RTVSPropertyOp30
 70
     1
102
RTVSPropertyOp31
 70
     1
102
RTVSPropertyOp32
 70
     1
  0
XRECORD
  5
1E8
102
{ACAD_REACTORS
330
1E7
102
}
330
1E7
100
AcDbXrecord
280
     1
102
RTVSPropertyOp0
 70
     1
102
RTVSPropertyOp1
 70
     1
102
RTVSPropertyOp2
 70
     1
102
RTVSPropertyOp3
 70
     1
102
RTVSPropertyOp4
 70
     1
102
RTVSPropertyOp5
 70
     1
102
RTVSPropertyOp6
 70
     1
102
RTVSPropertyOp7
 70
     1
102
RTVSPropertyOp8
 70
     1
102
RTVSPropertyOp9
 70
     1
102
RTVSPropertyOp10
 70
     1
102
RTVSPropertyOp11
 70
     1
102
RTVSPropertyOp12
 70
     1
102
RTVSPropertyOp13
 70
     1
102
RTVSPropertyOp14
 70
     1
102
RTVSPropertyOp15
 70
     1
102
RTVSPropertyOp16
 70
     1
102
RTVSPropertyOp17
 70
     1
102
RTVSPropertyOp18
 70
     1
102
RTVSPropertyOp19
 70
     1
102
RTVSPropertyOp20
 70
     1
102
RTVSPropertyOp21
 70
     1
102
RTVSPropertyOp22
 70
     1
102
RTVSPropertyOp23
 70
     1
102
RTVSPropertyOp24
 70
     1
102
RTVSPropertyOp25
 70
     1
102
RTVSPropertyOp26
 70
     1
102
RTVSPropertyOp27
 70
     1
102
RTVSPropertyOp28
 70
     1
102
RTVSPropertyOp29
 70
     1
102
RTVSPropertyOp30
 70
     1
102
RTVSPropertyOp31
 70
     1
102
RTVSPropertyOp32
 70
     1
  0
XRECORD
  5
1FC
102
{ACAD_REACTORS
330
1FB
102
}
330
1FB
100
AcDbXrecord
280
     1
102
RTVSPropertyOp0
 70
     1
102
RTVSPropertyOp1
 70
     1
102
RTVSPropertyOp2
 70
     1
102
RTVSPropertyOp3
 70
     1
102
RTVSPropertyOp4
 70
     1
102
RTVSPropertyOp5
 70
     1
102
RTVSPropertyOp6
 70
     1
102
RTVSPropertyOp7
 70
     1
102
RTVSPropertyOp8
 70
     1
102
RTVSPropertyOp9
 70
     1
102
RTVSPropertyOp10
 70
     1
102
RTVSPropertyOp11
 70
     1
102
RTVSPropertyOp12
 70
     1
102
RTVSPropertyOp13
 70
     1
102
RTVSPropertyOp14
 70
     1
102
RTVSPropertyOp15
 70
     1
102
RTVSPropertyOp16
 70
     1
102
RTVSPropertyOp17
 70
     1
102
RTVSPropertyOp18
 70
     1
102
RTVSPropertyOp19
 70
     1
102
RTVSPropertyOp20
 70
     1
102
RTVSPropertyOp21
 70
     1
102
RTVSPropertyOp22
 70
     1
102
RTVSPropertyOp23
 70
     1
102
RTVSPropertyOp24
 70
     1
102
RTVSPropertyOp25
 70
     1
102
RTVSPropertyOp26
 70
     1
102
RTVSPropertyOp27
 70
     1
102
RTVSPropertyOp28
 70
     1
102
RTVSPropertyOp29
 70
     1
102
RTVSPropertyOp30
 70
     1
102
RTVSPropertyOp31
 70
     1
102
RTVSPropertyOp32
 70
     1
  0
XRECORD
  5
1F2
102
{ACAD_REACTORS
330
1F1
102
}
330
1F1
100
AcDbXrecord
280
     1
102
RTVSPropertyOp0
 70
     1
102
RTVSPropertyOp1
 70
     1
102
RTVSPropertyOp2
 70
     1
102
RTVSPropertyOp3
 70
     1
102
RTVSPropertyOp4
 70
     1
102
RTVSPropertyOp5
 70
     1
102
RTVSPropertyOp6
 70
     1
102
RTVSPropertyOp7
 70
     1
102
RTVSPropertyOp8
 70
     1
102
RTVSPropertyOp9
 70
     1
102
RTVSPropertyOp10
 70
     1
102
RTVSPropertyOp11
 70
     1
102
RTVSPropertyOp12
 70
     1
102
RTVSPropertyOp13
 70
     1
102
RTVSPropertyOp14
 70
     1
102
RTVSPropertyOp15
 70
     1
102
RTVSPropertyOp16
 70
     1
102
RTVSPropertyOp17
 70
     1
102
RTVSPropertyOp18
 70
     1
102
RTVSPropertyOp19
 70
     1
102
RTVSPropertyOp20
 70
     1
102
RTVSPropertyOp21
 70
     1
102
RTVSPropertyOp22
 70
     1
102
RTVSPropertyOp23
 70
     1
102
RTVSPropertyOp24
 70
     1
102
RTVSPropertyOp25
 70
     1
102
RTVSPropertyOp26
 70
     1
102
RTVSPropertyOp27
 70
     1
102
RTVSPropertyOp28
 70
     1
102
RTVSPropertyOp29
 70
     1
102
RTVSPropertyOp30
 70
     1
102
RTVSPropertyOp31
 70
     1
102
RTVSPropertyOp32
 70
     1
  0
XRECORD
  5
1FA
102
{ACAD_REACTORS
330
1F9
102
}
330
1F9
100
AcDbXrecord
280
     1
102
RTVSPropertyOp0
 70
     1
102
RTVSPropertyOp1
 70
     1
102
RTVSPropertyOp2
 70
     1
102
RTVSPropertyOp3
 70
     1
102
RTVSPropertyOp4
 70
     1
102
RTVSPropertyOp5
 70
     1
102
RTVSPropertyOp6
 70
     1
102
RTVSPropertyOp7
 70
     1
102
RTVSPropertyOp8
 70
     1
102
RTVSPropertyOp9
 70
     1
102
RTVSPropertyOp10
 70
     1
102
RTVSPropertyOp11
 70
     1
102
RTVSPropertyOp12
 70
     1
102
RTVSPropertyOp13
 70
     1
102
RTVSPropertyOp14
 70
     1
102
RTVSPropertyOp15
 70
     1
102
RTVSPropertyOp16
 70
     1
102
RTVSPropertyOp17
 70
     1
102
RTVSPropertyOp18
 70
     1
102
RTVSPropertyOp19
 70
     1
102
RTVSPropertyOp20
 70
     1
102
RTVSPropertyOp21
 70
     1
102
RTVSPropertyOp22
 70
     1
102
RTVSPropertyOp23
 70
     1
102
RTVSPropertyOp24
 70
     1
102
RTVSPropertyOp25
 70
     1
102
RTVSPropertyOp26
 70
     1
102
RTVSPropertyOp27
 70
     1
102
RTVSPropertyOp28
 70
     1
102
RTVSPropertyOp29
 70
     1
102
RTVSPropertyOp30
 70
     1
102
RTVSPropertyOp31
 70
     1
102
RTVSPropertyOp32
 70
     1
  0
ENDSEC
  0
EOF
