  0
SECTION
  2
HEADER
  9
$ACADVER
  1
AC1015
  9
$ACADMAINTVER
 70
     6
  9
$DWGCODEPAGE
  3
ANSI_1252
  9
$INSBASE
 10
0.0
 20
0.0
 30
0.0
  9
$EXTMIN
 10
0.0
 20
0.0
 30
0.0
  9
$EXTMAX
 10
210.0
 20
297.0
 30
0.0
  9
$LIMMIN
 10
0.0
 20
0.0
  9
$LIMMAX
 10
210.0
 20
297.0
  9
$ORTHOMODE
 70
     0
  9
$REGENMODE
 70
     1
  9
$FILLMODE
 70
     1
  9
$QTEXTMODE
 70
     0
  9
$MIRRTEXT
 70
     1
  9
$LTSCALE
 40
1.0
  9
$ATTMODE
 70
     1
  9
$TEXTSIZE
 40
2.5
  9
$TRACEWID
 40
1.0
  9
$TEXTSTYLE
  7
Standard
  9
$CLAYER
  8
0
  9
$CELTYPE
  6
ByLayer
  9
$CECOLOR
 62
   256
  9
$CELTSCALE
 40
1.0
  9
$DISPSILH
 70
     0
  9
$DIMSCALE
 40
1.0
  9
$DIMASZ
 40
2.5
  9
$DIMEXO
 40
0.625
  9
$DIMDLI
 40
3.75
  9
$DIMRND
 40
0.0
  9
$DIMDLE
 40
0.0
  9
$DIMEXE
 40
1.25
  9
$DIMTP
 40
0.0
  9
$DIMTM
 40
0.0
  9
$DIMTXT
 40
2.5
  9
$DIMCEN
 40
2.5
  9
$DIMTSZ
 40
0.0
  9
$DIMTOL
 70
     0
  9
$DIMLIM
 70
     0
  9
$DIMTIH
 70
     0
  9
$DIMTOH
 70
     0
  9
$DIMSE1
 70
     0
  9
$DIMSE2
 70
     0
  9
$DIMTAD
 70
     1
  9
$DIMZIN
 70
     8
  9
$DIMBLK
  1

  9
$DIMASO
 70
     1
  9
$DIMSHO
 70
     1
  9
$DIMPOST
  1

  9
$DIMAPOST
  1

  9
$DIMALT
 70
     0
  9
$DIMALTD
 70
     3
  9
$DIMALTF
 40
0.0393700787
  9
$DIMLFAC
 40
1.0
  9
$DIMTOFL
 70
     1
  9
$DIMTVP
 40
0.0
  9
$DIMTIX
 70
     0
  9
$DIMSOXD
 70
     0
  9
$DIMSAH
 70
     0
  9
$DIMBLK1
  1

  9
$DIMBLK2
  1

  9
$DIMSTYLE
  2
ISO-25
  9
$DIMCLRD
 70
     0
  9
$DIMCLRE
 70
     0
  9
$DIMCLRT
 70
     0
  9
$DIMTFAC
 40
1.0
  9
$DIMGAP
 40
0.625
  9
$DIMJUST
 70
     0
  9
$DIMSD1
 70
     0
  9
$DIMSD2
 70
     0
  9
$DIMTOLJ
 70
     0
  9
$DIMTZIN
 70
     8
  9
$DIMALTZ
 70
     0
  9
$DIMALTTZ
 70
     0
  9
$DIMUPT
 70
     0
  9
$DIMDEC
 70
     2
  9
$DIMTDEC
 70
     2
  9
$DIMALTU
 70
     2
  9
$DIMALTTD
 70
     3
  9
$DIMTXSTY
  7
Standard
  9
$DIMAUNIT
 70
     0
  9
$DIMADEC
 70
     0
  9
$DIMALTRND
 40
0.0
  9
$DIMAZIN
 70
     0
  9
$DIMDSEP
 70
    44
  9
$DIMATFIT
 70
     3
  9
$DIMFRAC
 70
     0
  9
$DIMLDRBLK
  1

  9
$DIMLUNIT
 70
     2
  9
$DIMLWD
 70
    -2
  9
$DIMLWE
 70
    -2
  9
$DIMTMOVE
 70
     0
  9
$LUNITS
 70
     2
  9
$LUPREC
 70
     4
  9
$SKETCHINC
 40
1.0
  9
$FILLETRAD
 40
10.0
  9
$AUNITS
 70
     0
  9
$AUPREC
 70
     0
  9
$MENU
  1
.
  9
$ELEVATION
 40
0.0
  9
$PELEVATION
 40
0.0
  9
$THICKNESS
 40
0.0
  9
$LIMCHECK
 70
     0
  9
$CHAMFERA
 40
10.0
  9
$CHAMFERB
 40
10.0
  9
$CHAMFERC
 40
20.0
  9
$CHAMFERD
 40
0.0
  9
$SKPOLY
 70
     0
  9
$TDCREATE
 40
2457569.343633854
  9
$TDUCREATE
 40
2457569.260300521
  9
$TDUPDATE
 40
2457569.343667442
  9
$TDUUPDATE
 40
2457569.260334109
  9
$TDINDWG
 40
0.0000000116
  9
$TDUSRTIMER
 40
0.0000000116
  9
$USRTIMER
 70
     1
  9
$ANGBASE
 50
0.0
  9
$ANGDIR
 70
     0
  9
$PDMODE
 70
     0
  9
$PDSIZE
 40
0.0
  9
$PLINEWID
 40
0.0
  9
$SPLFRAME
 70
     0
  9
$SPLINETYPE
 70
     6
  9
$SPLINESEGS
 70
     8
  9
$HANDSEED
  5
178
  9
$SURFTAB1
 70
     6
  9
$SURFTAB2
 70
     6
  9
$SURFTYPE
 70
     6
  9
$SURFU
 70
     6
  9
$SURFV
 70
     6
  9
$UCSBASE
  2

  9
$UCSNAME
  2

  9
$UCSORG
 10
0.0
 20
0.0
 30
0.0
  9
$UCSXDIR
 10
1.0
 20
0.0
 30
0.0
  9
$UCSYDIR
 10
0.0
 20
1.0
 30
0.0
  9
$UCSORTHOREF
  2

  9
$UCSORTHOVIEW
 70
     0
  9
$UCSORGTOP
 10
0.0
 20
0.0
 30
0.0
  9
$UCSORGBOTTOM
 10
0.0
 20
0.0
 30
0.0
  9
$UCSORGLEFT
 10
0.0
 20
0.0
 30
0.0
  9
$UCSORGRIGHT
 10
0.0
 20
0.0
 30
0.0
  9
$UCSORGFRONT
 10
0.0
 20
0.0
 30
0.0
  9
$UCSORGBACK
 10
0.0
 20
0.0
 30
0.0
  9
$PUCSBASE
  2

  9
$PUCSNAME
  2

  9
$PUCSORG
 10
0.0
 20
0.0
 30
0.0
  9
$PUCSXDIR
 10
1.0
 20
0.0
 30
0.0
  9
$PUCSYDIR
 10
0.0
 20
1.0
 30
0.0
  9
$PUCSORTHOREF
  2

  9
$PUCSORTHOVIEW
 70
     0
  9
$PUCSORGTOP
 10
0.0
 20
0.0
 30
0.0
  9
$PUCSORGBOTTOM
 10
0.0
 20
0.0
 30
0.0
  9
$PUCSORGLEFT
 10
0.0
 20
0.0
 30
0.0
  9
$PUCSORGRIGHT
 10
0.0
 20
0.0
 30
0.0
  9
$PUCSORGFRONT
 10
0.0
 20
0.0
 30
0.0
  9
$PUCSORGBACK
 10
0.0
 20
0.0
 30
0.0
  9
$USERI1
 70
     0
  9
$USERI2
 70
     0
  9
$USERI3
 70
     0
  9
$USERI4
 70
     0
  9
$USERI5
 70
     0
  9
$USERR1
 40
0.0
  9
$USERR2
 40
0.0
  9
$USERR3
 40
0.0
  9
$USERR4
 40
0.0
  9
$USERR5
 40
0.0
  9
$WORLDVIEW
 70
     1
  9
$SHADEDGE
 70
     3
  9
$SHADEDIF
 70
    70
  9
$TILEMODE
 70
     1
  9
$MAXACTVP
 70
    64
  9
$PINSBASE
 10
0.0
 20
0.0
 30
0.0
  9
$PLIMCHECK
 70
     0
  9
$PEXTMIN
 10
0.0
 20
0.0
 30
0.0
  9
$PEXTMAX
 10
210.0
 20
297.0
 30
0.0
  9
$PLIMMIN
 10
0.0
 20
0.0
  9
$PLIMMAX
 10
210.0
 20
297.0
  9
$UNITMODE
 70
     0
  9
$VISRETAIN
 70
     1
  9
$PLINEGEN
 70
     0
  9
$PSLTSCALE
 70
     1
  9
$TREEDEPTH
 70
  3020
  9
$CMLSTYLE
  2
Standard
  9
$CMLJUST
 70
     0
  9
$CMLSCALE
 40
20.0
  9
$PROXYGRAPHICS
 70
     1
  9
$MEASUREMENT
 70
     1
  9
$CELWEIGHT
370
    -1
  9
$ENDCAPS
280
     0
  9
$JOINSTYLE
280
     0
  9
$LWDISPLAY
290
     0
  9
$INSUNITS
 70
     4
  9
$HYPERLINKBASE
  1

  9
$STYLESHEET
  1

  9
$XEDIT
290
     1
  9
$CEPSNTYPE
380
     0
  9
$PSTYLEMODE
290
     1
  9
$FINGERPRINTGUID
  2
{24C08870-6031-4481-B6D0-2C64E77E3859}
  9
$VERSIONGUID
  2
{FAEB1C32-E019-11D5-929B-00C0DF256EC4}
  9
$EXTNAMES
290
     1
  9
$PSVPSCALE
 40
0.0
  9
$OLESTARTUP
290
     0
  0
ENDSEC
  0
SECTION
  2
CLASSES
  0
CLASS
  1
ACDBDICTIONARYWDFLT
  2
AcDbDictionaryWithDefault
  3
ObjectDBX Classes
 90
        0
280
     0
281
     0
  0
CLASS
  1
VISUALSTYLE
  2
AcDbVisualStyle
  3
ObjectDBX Classes
 90
     4095
280
     0
281
     0
  0
CLASS
  1
MATERIAL
  2
AcDbMaterial
  3
ObjectDBX Classes
 90
     1153
280
     0
281
     0
  0
CLASS
  1
DICTIONARYVAR
  2
AcDbDictionaryVar
  3
ObjectDBX Classes
 90
        0
280
     0
281
     0
  0
CLASS
  1
ACDBPLACEHOLDER
  2
AcDbPlaceHolder
  3
ObjectDBX Classes
 90
        0
280
     0
281
     0
  0
CLASS
  1
LAYOUT
  2
AcDbLayout
  3
ObjectDBX Classes
 90
        0
280
     0
281
     0
  0
ENDSEC
  0
SECTION
  2
TABLES
  0
TABLE
  2
VPORT
  5
8
330
0
100
AcDbSymbolTable
 70
     1
  0
VPORT
  5
29
330
8
100
AcDbSymbolTableRecord
100
AcDbViewportTableRecord
  2
*Active
 70
     0
 10
0.0
 20
0.0
 11
1.0
 21
1.0
 12
344.1869158879
 22
148.5
 13
0.0
 23
0.0
 14
10.0
 24
10.0
 15
10.0
 25
10.0
 16
0.0
 26
0.0
 36
1.0
 17
0.0
 27
0.0
 37
0.0
 40
297.0
 41
1.9729729729
 42
50.0
 43
0.0
 44
0.0
 50
0.0
 51
0.0
 71
     0
 72
   100
 73
     1
 74
     3
 75
     0
 76
     0
 77
     0
 78
     0
281
     0
 65
     1
110
0.0
120
0.0
130
0.0
111
1.0
121
0.0
131
0.0
112
0.0
122
1.0
132
0.0
 79
     0
146
0.0
  0
ENDTAB
  0
TABLE
  2
LTYPE
  5
5
330
0
100
AcDbSymbolTable
 70
     2
  0
LTYPE
  5
14
330
5
100
AcDbSymbolTableRecord
100
AcDbLinetypeTableRecord
  2
ByBlock
 70
     0
  3

 72
    65
 73
     0
 40
0.0
  0
LTYPE
  5
15
330
5
100
AcDbSymbolTableRecord
100
AcDbLinetypeTableRecord
  2
ByLayer
 70
     0
  3

 72
    65
 73
     0
 40
0.0
  0
LTYPE
  5
16
330
5
100
AcDbSymbolTableRecord
100
AcDbLinetypeTableRecord
  2
Continuous
 70
     0
  3
Solid line
 72
    65
 73
     0
 40
0.0
  0
LTYPE
  5
43
330
5
100
AcDbSymbolTableRecord
100
AcDbLinetypeTableRecord
  2
HIDDEN2
 70
     0
  3
Hidden (.5x) _ _ _ _ _ _ _ _ _ _ _ _ _ _ _ _ _ 
 72
    65
 73
     2
 40
4.7625
 49
3.175
 74
     4
 75
     0
340
0
 46
0.0
 50
0.0
 44
0.0
 45
0.0
 49
-1.5875
 74
     4
 75
     0
340
0
 46
0.0
 50
0.0
 44
0.0
 45
0.0
  0
ENDTAB
  0
TABLE
  2
LAYER
  5
2
330
0
100
AcDbSymbolTable
 70
     5
  0
LAYER
  5
10
330
2
100
AcDbSymbolTableRecord
100
AcDbLayerTableRecord
  2
0
 70
     0
 62
     7
  6
Continuous
370
    -3
390
F
  0
LAYER
  5
3F
330
2
100
AcDbSymbolTableRecord
100
AcDbLayerTableRecord
  2
SK1
 70
     0
 62
     4
  6
Continuous
370
    18
390
F
  0
LAYER
  5
42
330
2
100
AcDbSymbolTableRecord
100
AcDbLayerTableRecord
  2
SK3
 70
     0
 62
     1
  6
HIDDEN2
370
    15
390
F
  0
LAYER
  5
F4
330
2
100
AcDbSymbolTableRecord
100
AcDbLayerTableRecord
  2
SK4
 70
     0
 62
     2
  6
Continuous
370
    13
390
F
  0
LAYER
  5
F6
330
2
100
AcDbSymbolTableRecord
100
AcDbLayerTableRecord
  2
SK2
 70
     0
 62
     7
  6
Continuous
370
    15
390
F
  0
ENDTAB
  0
TABLE
  2
STYLE
  5
3
330
0
100
AcDbSymbolTable
 70
     2
  0
STYLE
  5
11
330
3
100
AcDbSymbolTableRecord
100
AcDbTextStyleTableRecord
  2
Standard
 70
     0
 40
0.0
 41
1.0
 50
0.0
 71
     0
 42
2.5
  3
txt
  4

  0
STYLE
  5
109
330
3
100
AcDbSymbolTableRecord
100
AcDbTextStyleTableRecord
  2
SEACAD_Solid_Edge_ISO
 70
     0
 40
0.0
 41
1.0
 50
0.0
 71
     0
 42
0.2
  3
seiso.ttf
  4

1001
ACAD
1000
Solid Edge ISO
1071
        0
  0
ENDTAB
  0
TABLE
  2
VIEW
  5
6
330
0
100
AcDbSymbolTable
 70
     0
  0
ENDTAB
  0
TABLE
  2
UCS
  5
7
330
0
100
AcDbSymbolTable
 70
     0
  0
ENDTAB
  0
TABLE
  2
APPID
  5
9
330
0
100
AcDbSymbolTable
 70
     1
  0
APPID
  5
12
330
9
100
AcDbSymbolTableRecord
100
AcDbRegAppTableRecord
  2
ACAD
 70
     0
  0
ENDTAB
  0
TABLE
  2
DIMSTYLE
  5
A
330
0
100
AcDbSymbolTable
 70
     3
100
AcDbDimStyleTable
  0
DIMSTYLE
105
27
330
A
100
AcDbSymbolTableRecord
100
AcDbDimStyleTableRecord
  2
ISO-25
 70
     0
 41
2.5
 42
0.625
 43
3.75
 44
1.25
 73
     0
 74
     0
 77
     1
 78
     8
140
2.5
141
2.5
143
0.0393700787
147
0.625
171
     3
172
     1
178
     0
271
     2
272
     2
274
     3
278
    44
283
     0
284
     8
340
11
  0
DIMSTYLE
105
F7
330
A
100
AcDbSymbolTableRecord
100
AcDbDimStyleTableRecord
  2
Standard
 70
     0
178
     0
340
11
  0
DIMSTYLE
105
10A
102
{ACAD_REACTORS
330
10B
330
115
330
135
330
140
102
}
330
A
100
AcDbSymbolTableRecord
100
AcDbDimStyleTableRecord
  2
DIN
 70
     0
 41
3.5
 42
0.0
 44
1.75
 73
     0
 74
     0
 77
     1
 78
     8
140
3.5
141
1.75
147
1.75
172
     1
173
     1
178
     0
179
     3
271
     2
272
     2
278
    44
284
     8
340
109
343
104
344
104
  0
ENDTAB
  0
TABLE
  2
BLOCK_RECORD
  5
1
330
0
100
AcDbSymbolTable
 70
    10
  0
BLOCK_RECORD
  5
1F
330
1
100
AcDbSymbolTableRecord
100
AcDbBlockTableRecord
  2
*Model_Space
340
22
  0
BLOCK_RECORD
  5
1B
330
1
100
AcDbSymbolTableRecord
100
AcDbBlockTableRecord
  2
*Paper_Space
340
1E
  0
BLOCK_RECORD
  5
F8
330
1
100
AcDbSymbolTableRecord
100
AcDbBlockTableRecord
  2
_OBLIQUE
340
0
  0
BLOCK_RECORD
  5
FC
330
1
100
AcDbSymbolTableRecord
100
AcDbBlockTableRecord
  2
_DOT
340
0
  0
BLOCK_RECORD
  5
104
330
1
100
AcDbSymbolTableRecord
100
AcDbBlockTableRecord
  2
_SE_FILLED
340
0
  0
BLOCK_RECORD
  5
10C
330
1
100
AcDbSymbolTableRecord
100
AcDbBlockTableRecord
  2
DMBLK37
340
0
  0
BLOCK_RECORD
  5
116
330
1
100
AcDbSymbolTableRecord
100
AcDbBlockTableRecord
  2
DMBLK38
340
0
  0
BLOCK_RECORD
  5
11F
330
1
100
AcDbSymbolTableRecord
100
AcDbBlockTableRecord
  2
Nullpunkt
340
0
102
{BLKREFS
331
129
102
}
  0
BLOCK_RECORD
  5
12A
330
1
100
AcDbSymbolTableRecord
100
AcDbBlockTableRecord
  2
Einfügepunkt
340
0
102
{BLKREFS
331
134
102
}
  0
BLOCK_RECORD
  5
136
330
1
100
AcDbSymbolTableRecord
100
AcDbBlockTableRecord
  2
DMBLK39
340
0
  0
BLOCK_RECORD
  5
141
330
1
100
AcDbSymbolTableRecord
100
AcDbBlockTableRecord
  2
DMBLK40
340
0
  0
ENDTAB
  0
ENDSEC
  0
SECTION
  2
BLOCKS
  0
BLOCK
  5
20
330
1F
100
AcDbEntity
  8
0
100
AcDbBlockBegin
  2
*Model_Space
 70
     0
 10
0.0
 20
0.0
 30
0.0
  3
*Model_Space
  1

  0
ENDBLK
  5
21
330
1F
100
AcDbEntity
  8
0
100
AcDbBlockEnd
  0
BLOCK
  5
1C
330
1B
100
AcDbEntity
 67
     1
  8
0
100
AcDbBlockBegin
  2
*Paper_Space
 70
     0
 10
0.0
 20
0.0
 30
0.0
  3
*Paper_Space
  1

  0
ENDBLK
  5
1D
330
1B
100
AcDbEntity
 67
     1
  8
0
100
AcDbBlockEnd
  0
BLOCK
  5
F9
330
F8
100
AcDbEntity
  8
0
100
AcDbBlockBegin
  2
_OBLIQUE
 70
     0
 10
0.0
 20
0.0
 30
0.0
  3
_OBLIQUE
  1

  0
LINE
  5
FB
330
F8
100
AcDbEntity
  8
0
  6
ByBlock
 62
     0
370
    -2
100
AcDbLine
 10
-0.5
 20
-0.5
 30
0.0
 11
0.5
 21
0.5
 31
0.0
  0
ENDBLK
  5
FA
330
F8
100
AcDbEntity
  8
0
100
AcDbBlockEnd
  0
BLOCK
  5
FD
330
FC
100
AcDbEntity
  8
0
100
AcDbBlockBegin
  2
_DOT
 70
     0
 10
0.0
 20
0.0
 30
0.0
  3
_DOT
  1

  0
POLYLINE
  5
FF
330
FC
100
AcDbEntity
  8
0
  6
ByBlock
 62
     0
100
AcDb2dPolyline
 66
     1
 10
0.0
 20
0.0
 30
0.0
 70
     1
 40
0.5
 41
0.5
  0
VERTEX
  5
101
330
FF
100
AcDbEntity
  8
0
  6
ByBlock
 62
     0
100
AcDbVertex
100
AcDb2dVertex
 10
-0.25
 20
0.0
 30
0.0
 42
1.0
  0
VERTEX
  5
102
330
FF
100
AcDbEntity
  8
0
  6
ByBlock
 62
     0
100
AcDbVertex
100
AcDb2dVertex
 10
0.25
 20
0.0
 30
0.0
 42
1.0
  0
SEQEND
  5
103
330
FF
100
AcDbEntity
  8
0
  6
ByBlock
 62
     0
  0
LINE
  5
100
330
FC
100
AcDbEntity
  8
0
  6
ByBlock
 62
     0
370
    -2
100
AcDbLine
 10
-0.5
 20
0.0
 30
0.0
 11
-1.0
 21
0.0
 31
0.0
  0
ENDBLK
  5
FE
330
FC
100
AcDbEntity
  8
0
100
AcDbBlockEnd
  0
BLOCK
  5
107
330
104
100
AcDbEntity
  8
0
100
AcDbBlockBegin
  2
_SE_FILLED
 70
     0
 10
0.0
 20
0.0
 30
0.0
  3
_SE_FILLED
  1

  0
SOLID
  5
105
330
104
100
AcDbEntity
  8
0
 62
     0
100
AcDbTrace
 10
0.0
 20
0.0
 30
0.0
 11
-1.0
 21
-0.1665
 31
0.0
 12
-1.0
 22
0.1665
 32
0.0
 13
0.0
 23
0.0
 33
0.0
  0
LINE
  5
106
330
104
100
AcDbEntity
  8
0
 62
     0
100
AcDbLine
 10
0.0
 20
0.0
 30
0.0
 11
-1.0
 21
0.0
 31
0.0
  0
ENDBLK
  5
108
330
104
100
AcDbEntity
  8
0
100
AcDbBlockEnd
  0
BLOCK
  5
113
330
10C
100
AcDbEntity
  8
0
100
AcDbBlockBegin
  2
DMBLK37
 70
     0
 10
0.0
 20
0.0
 30
0.0
  3
DMBLK37
  1

  0
HATCH
  5
10D
330
10C
100
AcDbEntity
  8
SK2
  6
Continuous
 62
   136
100
AcDbHatch
 10
0.0
 20
0.0
 30
0.0
210
0.0
220
0.0
230
1.0
  2
SOLID
 70
     1
 71
     0
 91
        1
 92
        1
 93
        3
 72
     1
 10
4.099999891966664
 20
20.58333336908922
 11
4.099999891966664
 21
19.41666666641141
 72
     1
 10
4.099999891966664
 20
19.41666666641141
 11
7.600000000000082
 21
20.00000001775031
 72
     1
 10
7.600000000000082
 20
20.00000001775031
 11
4.099999891966664
 21
20.58333336908922
 97
        0
 75
     0
 76
     1
 98
        0
  0
HATCH
  5
10E
330
10C
100
AcDbEntity
  8
SK2
  6
Continuous
 62
   136
100
AcDbHatch
 10
0.0
 20
0.0
 30
0.0
210
0.0
220
0.0
230
1.0
  2
SOLID
 70
     1
 71
     0
 91
        1
 92
        1
 93
        3
 72
     1
 10
-20.40000039860598
 20
20.58333336908922
 11
-23.9000005066394
 21
20.00000001775031
 72
     1
 10
-23.9000005066394
 20
20.00000001775031
 11
-20.40000039860598
 21
19.41666666641141
 72
     1
 10
-20.40000039860598
 20
19.41666666641141
 11
-20.40000039860598
 21
20.58333336908922
 97
        0
 75
     0
 76
     1
 98
        0
  0
LINE
  5
10F
330
10C
100
AcDbEntity
  8
SK2
  6
Continuous
 62
   136
100
AcDbLine
 10
7.6
 20
7.7343811272
 30
0.0
 11
7.6
 21
21.7500000718
 31
0.0
  0
LINE
  5
110
330
10C
100
AcDbEntity
  8
SK2
  6
Continuous
 62
   136
100
AcDbLine
 10
-23.9
 20
6.3677371654
 30
0.0
 11
-23.9
 21
21.7500000718
 31
0.0
  0
LINE
  5
111
330
10C
100
AcDbEntity
  8
SK2
  6
Continuous
 62
   136
100
AcDbLine
 10
7.6
 20
20.0000000178
 30
0.0
 11
-23.9000005066
 21
20.0000000178
 31
0.0
  0
TEXT
  5
112
330
10C
100
AcDbEntity
  8
SK2
  6
Continuous
 62
   136
100
AcDbText
 10
-11.0931820715
 20
20.8750000178
 30
0.0
 40
3.5
  1
31,5
  7
SEACAD_Solid_Edge_ISO
 11
-11.0931820715
 21
24.3750000178
 31
0.0
100
AcDbText
 73
     3
  0
ENDBLK
  5
114
330
10C
100
AcDbEntity
  8
0
100
AcDbBlockEnd
  0
BLOCK
  5
11D
330
116
100
AcDbEntity
  8
0
100
AcDbBlockBegin
  2
DMBLK38
 70
     0
 10
0.0
 20
0.0
 30
0.0
  3
DMBLK38
  1

  0
HATCH
  5
117
330
116
100
AcDbEntity
  8
SK2
  6
Continuous
 62
   136
100
AcDbHatch
 10
0.0
 20
0.0
 30
0.0
210
0.0
220
0.0
230
1.0
  2
SOLID
 70
     1
 71
     0
 91
        1
 92
        1
 93
        3
 72
     1
 10
11.10000010806476
 20
-19.72029807320112
 11
11.10000010806476
 21
-18.55363137052331
 72
     1
 10
11.10000010806476
 20
-18.55363137052331
 11
7.600000000031345
 21
-19.13696472186222
 72
     1
 10
7.600000000031345
 20
-19.13696472186221
 11
11.10000010806476
 21
-19.72029807320112
 97
        0
 75
     0
 76
     1
 98
        0
  0
HATCH
  5
118
330
116
100
AcDbEntity
  8
SK2
  6
Continuous
 62
   136
100
AcDbHatch
 10
0.0
 20
0.0
 30
0.0
210
0.0
220
0.0
230
1.0
  2
SOLID
 70
     1
 71
     0
 91
        1
 92
        1
 93
        3
 72
     1
 10
-3.500000108033419
 20
-19.72029807320112
 11
0.0
 21
-19.13696472186221
 72
     1
 10
0.0
 20
-19.13696472186221
 11
-3.500000108033419
 21
-18.55363137052331
 72
     1
 10
-3.500000108033419
 20
-18.55363137052331
 11
-3.500000108033419
 21
-19.72029807320112
 97
        0
 75
     0
 76
     1
 98
        0
  0
LINE
  5
119
330
116
100
AcDbEntity
  8
SK2
  6
Continuous
 62
   136
100
AcDbLine
 10
7.6
 20
-7.7343810408
 30
0.0
 11
7.6
 21
-20.8869647759
 31
0.0
  0
LINE
  5
11A
330
116
100
AcDbEntity
  8
SK2
  6
Continuous
 62
   136
100
AcDbLine
 10
0.0
 20
-9.9919966977
 30
0.0
 11
0.0
 21
-20.8869647759
 31
0.0
  0
LINE
  5
11B
330
116
100
AcDbEntity
  8
SK2
  6
Continuous
 62
   136
100
AcDbLine
 10
20.069147332
 20
-19.1369647219
 30
0.0
 11
-7.0000003442
 21
-19.1369647219
 31
0.0
  0
TEXT
  5
11C
330
116
100
AcDbEntity
  8
SK2
  6
Continuous
 62
   136
100
AcDbText
 10
13.8327838824
 20
-18.2619647219
 30
0.0
 40
3.5
  1
7,6
  7
SEACAD_Solid_Edge_ISO
 11
13.8327838824
 21
-14.7619647219
 31
0.0
100
AcDbText
 73
     3
  0
ENDBLK
  5
11E
330
116
100
AcDbEntity
  8
0
100
AcDbBlockEnd
  0
BLOCK
  5
127
330
11F
100
AcDbEntity
  8
0
100
AcDbBlockBegin
  2
Nullpunkt
 70
     0
 10
0.0
 20
0.0
 30
0.0
  3
Nullpunkt
  1

  0
HATCH
  5
120
330
11F
100
AcDbEntity
  8
SK2
  6
Continuous
 62
     7
100
AcDbHatch
 10
0.0
 20
0.0
 30
0.0
210
0.0
220
0.0
230
1.0
  2
SOLID
 70
     1
 71
     0
 91
        1
 92
        1
 93
        3
 72
     1
 10
-1.0
 20
0.0
 11
0.0000000000000009
 21
0.0
 72
     1
 10
0.0
 20
0.0
 11
0.0
 21
1.000000000000001
 72
     2
 10
0.0
 20
0.0
 40
1.0
 50
90.0
 51
180.0
 73
     1
 97
        0
 75
     0
 76
     1
 98
        0
  0
HATCH
  5
121
330
11F
100
AcDbEntity
  8
SK2
  6
Continuous
 62
     7
100
AcDbHatch
 10
0.0
 20
0.0
 30
0.0
210
0.0
220
0.0
230
1.0
  2
SOLID
 70
     1
 71
     0
 91
        1
 92
        1
 93
        3
 72
     2
 10
0.0
 20
0.0
 40
1.0
 50
270.0
 51
360.0
 73
     1
 72
     1
 10
1.0
 20
0.0
 11
-0.0000000000000009
 21
0.0
 72
     1
 10
0.0
 20
0.0
 11
0.0
 21
-1.000000000000001
 97
        0
 75
     0
 76
     1
 98
        0
  0
CIRCLE
  5
122
330
11F
100
AcDbEntity
  8
SK2
  6
Continuous
 62
     7
100
AcDbCircle
 10
0.0
 20
0.0
 30
0.0
 40
1.0
  0
LINE
  5
123
330
11F
100
AcDbEntity
  8
SK1
  6
Continuous
100
AcDbLine
 10
-1.0
 20
0.0
 30
0.0
 11
1.0
 21
0.0
 31
0.0
  0
LINE
  5
124
330
11F
100
AcDbEntity
  8
SK1
  6
Continuous
100
AcDbLine
 10
0.0
 20
1.0
 30
0.0
 11
0.0
 21
-1.0
 31
0.0
  0
POINT
  5
125
330
11F
100
AcDbEntity
  8
SK1
  6
Continuous
100
AcDbPoint
 10
0.0
 20
0.0
 30
0.0
  0
POINT
  5
126
330
11F
100
AcDbEntity
  8
SK1
  6
Continuous
100
AcDbPoint
 10
0.0
 20
0.0
 30
0.0
  0
ENDBLK
  5
128
330
11F
100
AcDbEntity
  8
0
100
AcDbBlockEnd
  0
BLOCK
  5
132
330
12A
100
AcDbEntity
  8
0
100
AcDbBlockBegin
  2
Einfügepunkt
 70
     0
 10
0.0
 20
0.0
 30
0.0
  3
Einfügepunkt
  1

  0
HATCH
  5
12B
330
12A
100
AcDbEntity
  8
SK2
  6
Continuous
 62
     7
100
AcDbHatch
 10
0.0
 20
0.0
 30
0.0
210
0.0
220
0.0
230
1.0
  2
SOLID
 70
     1
 71
     0
 91
        1
 92
        1
 93
        3
 72
     1
 10
-0.4502381196756744
 20
-0.0000000000000018
 11
0.0000000000000033
 21
-0.0000000000000018
 72
     1
 10
0.0
 20
-0.0000000000000018
 11
0.0
 21
0.4502381196756812
 72
     2
 10
0.0
 20
-0.0000000000000018
 40
0.4502381196756812
 50
90.0
 51
180.0
 73
     1
 97
        0
 75
     0
 76
     1
 98
        0
  0
HATCH
  5
12C
330
12A
100
AcDbEntity
  8
SK2
  6
Continuous
 62
     7
100
AcDbHatch
 10
0.0
 20
0.0
 30
0.0
210
0.0
220
0.0
230
1.0
  2
SOLID
 70
     1
 71
     0
 91
        1
 92
        1
 93
        3
 72
     2
 10
0.0
 20
-0.0000000000000018
 40
0.4502381196756812
 50
270.0
 51
360.0
 73
     1
 72
     1
 10
0.4502381196756815
 20
-0.0000000000000018
 11
0.0000000000000038
 21
-0.0000000000000018
 72
     1
 10
0.0
 20
-0.0000000000000018
 11
0.0
 21
-0.4502381196756812
 97
        0
 75
     0
 76
     1
 98
        0
  0
CIRCLE
  5
12D
330
12A
100
AcDbEntity
  8
SK2
  6
Continuous
 62
     7
100
AcDbCircle
 10
0.0
 20
0.0
 30
0.0
 40
0.4502381196756812
  0
LINE
  5
12E
330
12A
100
AcDbEntity
  8
SK1
  6
Continuous
100
AcDbLine
 10
-0.4502381197
 20
0.0
 30
0.0
 11
0.4502381197
 21
0.0
 31
0.0
  0
LINE
  5
12F
330
12A
100
AcDbEntity
  8
SK1
  6
Continuous
100
AcDbLine
 10
0.0
 20
0.4502381197
 30
0.0
 11
0.0
 21
-0.4502381197
 31
0.0
  0
POINT
  5
130
330
12A
100
AcDbEntity
  8
SK2
  6
Continuous
 62
     7
100
AcDbPoint
 10
0.0
 20
0.0
 30
0.0
  0
POINT
  5
131
330
12A
100
AcDbEntity
  8
SK2
  6
Continuous
 62
     7
100
AcDbPoint
 10
0.0
 20
0.0
 30
0.0
  0
ENDBLK
  5
133
330
12A
100
AcDbEntity
  8
0
100
AcDbBlockEnd
  0
BLOCK
  5
13E
330
136
100
AcDbEntity
  8
0
100
AcDbBlockBegin
  2
DMBLK39
 70
     0
 10
0.0
 20
0.0
 30
0.0
  3
DMBLK39
  1

  0
HATCH
  5
137
330
136
100
AcDbEntity
  8
SK2
  6
Continuous
 62
   136
100
AcDbHatch
 10
0.0
 20
0.0
 30
0.0
210
0.0
220
0.0
230
1.0
  2
SOLID
 70
     1
 71
     0
 91
        1
 92
        1
 93
        3
 72
     1
 10
17.46574095400671
 20
-8.500000008262713
 11
16.88240760266781
 21
-4.999999900229296
 72
     1
 10
16.88240760266781
 20
-4.999999900229296
 11
16.2990742513289
 21
-8.500000008262713
 72
     1
 10
16.2990742513289
 20
-8.500000008262713
 11
17.46574095400671
 21
-8.500000008262713
 97
        0
 75
     0
 76
     1
 98
        0
  0
HATCH
  5
138
330
136
100
AcDbEntity
  8
SK2
  6
Continuous
 62
   136
100
AcDbHatch
 10
0.0
 20
0.0
 30
0.0
210
0.0
220
0.0
230
1.0
  2
SOLID
 70
     1
 71
     0
 91
        1
 92
        1
 93
        3
 72
     1
 10
17.46574095400671
 20
8.500000207804122
 11
16.2990742513289
 21
8.500000207804122
 72
     1
 10
16.2990742513289
 20
8.500000207804122
 11
16.88240760266781
 21
5.000000099770703
 72
     1
 10
16.88240760266781
 20
5.000000099770702
 11
17.46574095400671
 21
8.50000020780412
 97
        0
 75
     0
 76
     1
 98
        0
  0
LINE
  5
139
330
136
100
AcDbEntity
  8
SK2
  6
Continuous
 62
   136
100
AcDbLine
 10
7.2
 20
-4.9999999002
 30
0.0
 11
18.6324076567
 21
-4.9999999002
 31
0.0
  0
LINE
  5
13A
330
136
100
AcDbEntity
  8
SK2
  6
Continuous
 62
   136
100
AcDbLine
 10
7.2
 20
5.0000000998
 30
0.0
 11
18.6324076567
 21
5.0000000998
 31
0.0
  0
LINE
  5
13B
330
136
100
AcDbEntity
  8
SK2
  6
Continuous
 62
   136
100
AcDbLine
 10
16.8824076027
 20
-12.0000001163
 30
0.0
 11
16.8824076027
 21
20.0227266058
 31
0.0
  0
TEXT
  5
13C
330
136
100
AcDbEntity
  8
SK2
  6
Continuous
 62
   136
100
AcDbText
 10
16.0074076027
 20
15.2977270372
 30
0.0
 40
3.5
  1
10
 50
90.0
  7
SEACAD_Solid_Edge_ISO
 11
12.5074076027
 21
15.2977270372
 31
0.0
100
AcDbText
 73
     3
  0
TEXT
  5
13D
330
136
100
AcDbEntity
  8
SK2
  6
Continuous
 62
   136
100
AcDbText
 10
16.0074076027
 20
11.2249997645
 30
0.0
 40
3.5
  1
ø
 50
90.0
  7
SEACAD_Solid_Edge_ISO
 11
12.5074076027
 21
11.2249997645
 31
0.0
100
AcDbText
 73
     3
  0
ENDBLK
  5
13F
330
136
100
AcDbEntity
  8
0
100
AcDbBlockEnd
  0
BLOCK
  5
149
330
141
100
AcDbEntity
  8
0
100
AcDbBlockBegin
  2
DMBLK40
 70
     0
 10
0.0
 20
0.0
 30
0.0
  3
DMBLK40
  1

  0
HATCH
  5
142
330
141
100
AcDbEntity
  8
SK2
  6
Continuous
 62
   136
100
AcDbHatch
 10
0.0
 20
0.0
 30
0.0
210
0.0
220
0.0
230
1.0
  2
SOLID
 70
     1
 71
     0
 91
        1
 92
        1
 93
        3
 72
     1
 10
-30.96713443907599
 20
6.491996789174722
 11
-29.80046773639818
 21
6.491996789174722
 72
     1
 10
-29.80046773639818
 20
6.491996789174722
 11
-30.38380108773708
 21
9.991996897208141
 72
     1
 10
-30.38380108773708
 20
9.991996897208141
 11
-30.96713443907599
 21
6.491996789174722
 97
        0
 75
     0
 76
     1
 98
        0
  0
HATCH
  5
143
330
141
100
AcDbEntity
  8
SK2
  6
Continuous
 62
   136
100
AcDbHatch
 10
0.0
 20
0.0
 30
0.0
210
0.0
220
0.0
230
1.0
  2
SOLID
 70
     1
 71
     0
 91
        1
 92
        1
 93
        3
 72
     1
 10
-30.96713443907599
 20
-6.491996837956263
 11
-30.38380108773708
 21
-9.991996945989682
 72
     1
 10
-30.38380108773708
 20
-9.991996945989682
 11
-29.80046773639818
 21
-6.491996837956263
 72
     1
 10
-29.80046773639818
 20
-6.491996837956263
 11
-30.96713443907599
 21
-6.491996837956263
 97
        0
 75
     0
 76
     1
 98
        0
  0
LINE
  5
144
330
141
100
AcDbEntity
  8
SK2
  6
Continuous
 62
   136
100
AcDbLine
 10
0.0
 20
9.9919968972
 30
0.0
 11
-32.1338011418
 21
9.9919968972
 31
0.0
  0
LINE
  5
145
330
141
100
AcDbEntity
  8
SK2
  6
Continuous
 62
   136
100
AcDbLine
 10
0.0
 20
-9.9919966977
 30
0.0
 11
-32.1338011418
 21
-9.9919966977
 31
0.0
  0
LINE
  5
146
330
141
100
AcDbEntity
  8
SK2
  6
Continuous
 62
   136
100
AcDbLine
 10
-30.3838010877
 20
9.9919968972
 30
0.0
 11
-30.3838010877
 21
-9.991996946
 31
0.0
  0
TEXT
  5
147
330
141
100
AcDbEntity
  8
SK2
  6
Continuous
 62
   136
100
AcDbText
 10
-31.2588010877
 20
-0.0715909335
 30
0.0
 40
3.5
  1
20
 50
90.0
  7
SEACAD_Solid_Edge_ISO
 11
-34.7588010877
 21
-0.0715909335
 31
0.0
100
AcDbText
 73
     3
  0
TEXT
  5
148
330
141
100
AcDbEntity
  8
SK2
  6
Continuous
 62
   136
100
AcDbText
 10
-31.2588010877
 20
-4.1443182062
 30
0.0
 40
3.5
  1
ø
 50
90.0
  7
SEACAD_Solid_Edge_ISO
 11
-34.7588010877
 21
-4.1443182062
 31
0.0
100
AcDbText
 73
     3
  0
ENDBLK
  5
14A
330
141
100
AcDbEntity
  8
0
100
AcDbBlockEnd
  0
ENDSEC
  0
SECTION
  2
ENTITIES
  0
LINE
  5
40
330
1F
100
AcDbEntity
  8
SK1
  6
Continuous
100
AcDbLine
 10
0.2
 20
5.8624808125
 30
0.0
 11
0.2
 21
0.4000000998
 31
0.0
  0
LINE
  5
41
330
1F
100
AcDbEntity
  8
SK1
  6
Continuous
100
AcDbLine
 10
2.6
 20
-8.6999999002
 30
0.0
 11
2.6
 21
-6.4281660379
 31
0.0
  0
LINE
  5
44
330
1F
100
AcDbEntity
  8
SK3
100
AcDbLine
 10
-13.4
 20
4.0907293652
 30
0.0
 11
-13.4
 21
5.3851649069
 31
0.0
  0
LINE
  5
45
330
1F
100
AcDbEntity
  8
SK3
100
AcDbLine
 10
-17.4
 20
4.0907293652
 30
0.0
 11
-17.4
 21
5.3851649069
 31
0.0
  0
LINE
  5
46
330
1F
100
AcDbEntity
  8
SK3
100
AcDbLine
 10
-22.15
 20
-4.1541162496
 30
0.0
 11
-22.15
 21
-1.856291191
 31
0.0
  0
LINE
  5
47
330
1F
100
AcDbEntity
  8
SK3
100
AcDbLine
 10
-22.15
 20
1.8562913905
 30
0.0
 11
-22.15
 21
4.1541164491
 31
0.0
  0
ARC
  5
48
330
1F
100
AcDbEntity
  8
SK3
100
AcDbCircle
 10
-27.1313393149
 20
-4.4868949217
 30
0.0
 40
5.633277674492274
100
AcDbArc
 50
27.8381604481
 51
40.5350465142
  0
LINE
  5
49
330
1F
100
AcDbEntity
  8
SK3
100
AcDbLine
 10
-22.85
 20
-0.8257542485
 30
0.0
 11
-22.85
 21
-0.3999999002
 31
0.0
  0
ARC
  5
4A
330
1F
100
AcDbEntity
  8
SK3
100
AcDbCircle
 10
-27.0463243589
 20
4.4291480704
 30
0.0
 40
5.531146691504527
100
AcDbArc
 50
319.3472357552
 51
332.2795572825
  0
ARC
  5
4B
330
1F
100
AcDbEntity
  8
SK3
100
AcDbCircle
 10
-27.0463243589
 20
-1.5812595696
 30
0.0
 40
5.531146691504511
100
AcDbArc
 50
319.3472357552
 51
332.2795572825
  0
LINE
  5
4C
330
1F
100
AcDbEntity
  8
SK3
100
AcDbLine
 10
-22.85
 20
5.1846533916
 30
0.0
 11
-22.85
 21
5.2347398259
 31
0.0
  0
ARC
  5
4D
330
1F
100
AcDbEntity
  8
SK3
100
AcDbCircle
 10
-27.1313393149
 20
1.5235127184
 30
0.0
 40
5.63327767449224
100
AcDbArc
 50
27.8381604481
 51
40.5350465142
  0
LINE
  5
4E
330
1F
100
AcDbEntity
  8
SK3
100
AcDbLine
 10
-17.8907477288
 20
-4.1541162496
 30
0.0
 11
-17.8907477288
 21
-3.4877217056
 31
0.0
  0
LINE
  5
4F
330
1F
100
AcDbEntity
  8
SK3
100
AcDbLine
 10
-17.8907477288
 20
1.8562913905
 30
0.0
 11
-17.8907477288
 21
2.9220364802
 31
0.0
  0
LINE
  5
50
330
1F
100
AcDbEntity
  8
SK3
100
AcDbLine
 10
-17.4866025404
 20
0.825754448
 30
0.0
 11
-22.85
 21
0.825754448
 31
0.0
  0
LINE
  5
51
330
1F
100
AcDbEntity
  8
SK3
100
AcDbLine
 10
-17.4866025404
 20
0.825754448
 30
0.0
 11
-17.4866025404
 21
0.4000000998
 31
0.0
  0
ARC
  5
52
330
1F
100
AcDbEntity
  8
SK3
100
AcDbCircle
 10
-11.3815661974
 20
2.1959289724
 30
0.0
 40
6.797348188970583
100
AcDbArc
 50
153.9159114792
 51
163.2568914871
  0
LINE
  5
53
330
1F
100
AcDbEntity
  8
SK3
100
AcDbLine
 10
-17.8907477288
 20
4.1541164491
 30
0.0
 11
-22.15
 21
4.1541164491
 31
0.0
  0
LINE
  5
54
330
1F
100
AcDbEntity
  8
SK3
100
AcDbLine
 10
-22.15
 20
1.8562913905
 30
0.0
 11
-17.8907477288
 21
1.8562913905
 31
0.0
  0
ARC
  5
55
330
1F
100
AcDbEntity
  8
SK3
100
AcDbCircle
 10
-11.3983867714
 20
3.8078823506
 30
0.0
 40
6.779340534115936
100
AcDbArc
 50
196.7306748402
 51
206.0965221935
  0
LINE
  5
56
330
1F
100
AcDbEntity
  8
SK3
100
AcDbLine
 10
-17.4866025404
 20
5.1846533916
 30
0.0
 11
-22.85
 21
5.1846533916
 31
0.0
  0
LINE
  5
57
330
1F
100
AcDbEntity
  8
SK3
100
AcDbLine
 10
-17.4866025404
 20
-5.184653192
 30
0.0
 11
-22.85
 21
-5.184653192
 31
0.0
  0
LINE
  5
58
330
1F
100
AcDbEntity
  8
SK3
100
AcDbLine
 10
-17.4866025404
 20
-5.184653192
 30
0.0
 11
-17.4866025404
 21
-5.2347396263
 31
0.0
  0
ARC
  5
59
330
1F
100
AcDbEntity
  8
SK3
100
AcDbCircle
 10
-11.3815661974
 20
-3.8144786676
 30
0.0
 40
6.79734818897052
100
AcDbArc
 50
153.9159114792
 51
163.2568914871
  0
LINE
  5
5A
330
1F
100
AcDbEntity
  8
SK3
100
AcDbLine
 10
-17.8907477288
 20
-1.856291191
 30
0.0
 11
-22.15
 21
-1.856291191
 31
0.0
  0
LINE
  5
5B
330
1F
100
AcDbEntity
  8
SK3
100
AcDbLine
 10
-22.15
 20
-4.1541162496
 30
0.0
 11
-17.8907477288
 21
-4.1541162496
 31
0.0
  0
ARC
  5
5C
330
1F
100
AcDbEntity
  8
SK3
100
AcDbCircle
 10
-11.3983867714
 20
-2.2025252895
 30
0.0
 40
6.77934053411595
100
AcDbArc
 50
196.7306748402
 51
206.0965221935
  0
LINE
  5
5D
330
1F
100
AcDbEntity
  8
SK3
100
AcDbLine
 10
-17.4866025404
 20
-0.8257542485
 30
0.0
 11
-22.85
 21
-0.8257542485
 31
0.0
  0
LINE
  5
5E
330
1F
100
AcDbEntity
  8
SK1
  6
Continuous
100
AcDbLine
 10
3.1794228634
 20
10.4309402074
 30
0.0
 11
3.1794228634
 21
7.6532061523
 31
0.0
  0
LINE
  5
5F
330
1F
100
AcDbEntity
  8
SK1
  6
Continuous
100
AcDbLine
 10
2.8
 20
10.2118803151
 30
0.0
 11
2.8
 21
7.4981909512
 31
0.0
  0
LINE
  5
60
330
1F
100
AcDbEntity
  8
SK1
  6
Continuous
100
AcDbLine
 10
0.0
 20
7.3482515053
 30
0.0
 11
0.0
 21
9.9919968972
 31
0.0
  0
LINE
  5
61
330
1F
100
AcDbEntity
  8
SK1
  6
Continuous
100
AcDbLine
 10
7.475
 20
-5.8978498212
 30
0.0
 11
7.475
 21
-7.9508873918
 31
0.0
  0
LINE
  5
62
330
1F
100
AcDbEntity
  8
SK1
  6
Continuous
100
AcDbLine
 10
7.6
 20
5.1788719362
 30
0.0
 11
7.6
 21
-5.1788717367
 31
0.0
  0
LINE
  5
63
330
1F
100
AcDbEntity
  8
SK1
  6
Continuous
100
AcDbLine
 10
7.475
 20
5.8978500208
 30
0.0
 11
7.475
 21
7.9508875913
 31
0.0
  0
SPLINE
  5
64
330
1F
100
AcDbEntity
  8
SK1
  6
Continuous
100
AcDbSpline
210
0.0
220
0.0
230
1.0
 70
     8
 71
     3
 72
    10
 73
     6
 74
     0
 42
0.0000000469833378
 43
0.0000000001
 12
1.0
 22
0.0
 32
0.0
 13
1.0
 23
0.0
 33
0.0
 40
0.0
 40
0.0
 40
0.0
 40
0.0
 40
0.4999999999999958
 40
0.4999999999999958
 40
1.0
 40
1.0
 40
1.0
 40
1.0
 10
7.475000000021395
 20
5.897850020768188
 30
0.0
 10
7.512646290612091
 20
5.882461500605327
 30
0.0
 10
7.544707906803564
 20
5.859830540978645
 30
0.0
 10
7.588450517183626
 20
5.806115161537274
 30
0.0
 10
7.600000000000002
 20
5.775348067625579
 30
0.0
 10
7.599999999999996
 20
5.744557361173675
 30
0.0
  0
SPLINE
  5
65
330
1F
100
AcDbEntity
  8
SK1
  6
Continuous
100
AcDbSpline
210
0.0
220
0.0
230
1.0
 70
     8
 71
     3
 72
    10
 73
     6
 74
     0
 42
0.0000000469833378
 43
0.0000000001
 12
1.0
 22
0.0
 32
0.0
 13
1.0
 23
0.0
 33
0.0
 40
0.0
 40
0.0
 40
0.0
 40
0.0
 40
0.5000000000000043
 40
0.5000000000000043
 40
1.0
 40
1.0
 40
1.0
 40
1.0
 10
7.475000000021395
 20
5.332164595818951
 30
0.0
 10
7.512646290612143
 20
5.316776075656064
 30
0.0
 10
7.544707906803651
 20
5.294145116029342
 30
0.0
 10
7.588450517183713
 20
5.240429736587881
 30
0.0
 10
7.600000000000065
 20
5.209662642676133
 30
0.0
 10
7.600000000002108
 20
5.178871936224269
 30
0.0
  0
LINE
  5
66
330
1F
100
AcDbEntity
  8
SK1
  6
Continuous
100
AcDbLine
 10
-21.9
 20
4.6036817049
 30
0.0
 11
-21.9
 21
5.1693671298
 31
0.0
  0
LINE
  5
67
330
1F
100
AcDbEntity
  8
SK1
  6
Continuous
100
AcDbLine
 10
2.8
 20
-10.2118801156
 30
0.0
 11
2.8
 21
-7.4981907517
 31
0.0
  0
LINE
  5
68
330
1F
100
AcDbEntity
  8
SK1
  6
Continuous
100
AcDbLine
 10
3.1794228634
 20
-10.4309400079
 30
0.0
 11
3.1794228634
 21
-7.6532059528
 31
0.0
  0
LINE
  5
69
330
1F
100
AcDbEntity
  8
SK3
100
AcDbLine
 10
-17.8907477288
 20
3.4877219051
 30
0.0
 11
-17.8907477288
 21
4.1541164491
 31
0.0
  0
LINE
  5
6A
330
1F
100
AcDbEntity
  8
SK1
  6
Continuous
100
AcDbLine
 10
2.6
 20
8.7000000998
 30
0.0
 11
2.6
 21
6.4281662374
 31
0.0
  0
LINE
  5
6B
330
1F
100
AcDbEntity
  8
SK3
100
AcDbLine
 10
-21.9
 20
4.6036817049
 30
0.0
 11
-21.9
 21
2.9220364802
 31
0.0
  0
SPLINE
  5
6C
330
1F
100
AcDbEntity
  8
SK1
  6
Continuous
100
AcDbSpline
210
0.0
220
0.0
230
1.0
 70
     8
 71
     3
 72
    14
 73
    10
 74
     0
 42
0.0000000004543777
 43
0.0000000001
 12
1.0
 22
0.0
 32
0.0
 13
1.0
 23
0.0
 33
0.0
 40
0.0
 40
0.0
 40
0.0
 40
0.0
 40
0.1262870314118738
 40
0.1262870314118738
 40
0.1262870314118738
 40
0.7066593980270073
 40
0.7066593980270073
 40
0.7066593980270073
 40
1.0
 40
1.0
 40
1.0
 40
1.0
 10
-21.9
 20
4.60368170485415
 30
0.0
 10
-20.97811389537408
 20
4.695449670139909
 30
0.0
 10
-20.05622611036515
 20
4.787209195279704
 30
0.0
 10
-19.13433690055793
 20
4.878961562139517
 30
0.0
 10
-14.89764675055235
 20
5.300624322457489
 30
0.0
 10
-10.66092758007111
 20
5.722141294521025
 30
0.0
 10
-6.424193716651306
 20
6.143584389484092
 30
0.0
 10
-4.282799444233771
 20
6.356596549038381
 30
0.0
 10
-2.141401209850116
 20
6.569588794443844
 30
0.0
 10
0.0
 20
6.782566080358361
 30
0.0
  0
SPLINE
  5
6D
330
1F
100
AcDbEntity
  8
SK3
100
AcDbSpline
210
0.0
220
0.0
230
1.0
 70
     8
 71
     3
 72
    10
 73
     6
 74
     0
 42
0.0000000180361291
 43
0.0000000001
 12
1.0
 22
0.0
 32
0.0
 13
1.0
 23
0.0
 33
0.0
 40
0.0
 40
0.0
 40
0.0
 40
0.0
 40
0.5
 40
0.5
 40
1.0
 40
1.0
 40
1.0
 40
1.0
 10
7.599999999999996
 20
3.525043940228038
 30
0.0
 10
7.599999999999999
 20
3.450707311267402
 30
0.0
 10
7.55680387188918
 20
3.377081024670557
 30
0.0
 10
7.409743220199383
 20
3.272455839966572
 30
0.0
 10
7.305031236221823
 20
3.241359424637301
 30
0.0
 10
7.199999999999998
 20
3.241359424637302
 30
0.0
  0
LINE
  5
6E
330
1F
100
AcDbEntity
  8
SK3
100
AcDbLine
 10
7.2
 20
3.2413594246
 30
0.0
 11
-13.4
 21
3.2413594246
 31
0.0
  0
LINE
  5
6F
330
1F
100
AcDbEntity
  8
SK3
100
AcDbLine
 10
-13.4
 20
3.5250439402
 30
0.0
 11
-17.4
 21
3.5250439402
 31
0.0
  0
LINE
  5
70
330
1F
100
AcDbEntity
  8
SK3
100
AcDbLine
 10
-17.4
 20
3.5250439402
 30
0.0
 11
-17.8907477288
 21
2.9220364802
 31
0.0
  0
LINE
  5
71
330
1F
100
AcDbEntity
  8
SK3
100
AcDbLine
 10
-17.8907477288
 20
2.9220364802
 30
0.0
 11
-21.9
 21
2.9220364802
 31
0.0
  0
LINE
  5
72
330
1F
100
AcDbEntity
  8
SK1
  6
Continuous
100
AcDbLine
 10
7.6
 20
5.1788719362
 30
0.0
 11
7.6
 21
5.7445573612
 31
0.0
  0
SPLINE
  5
73
330
1F
100
AcDbEntity
  8
SK1
  6
Continuous
100
AcDbSpline
210
0.0
220
0.0
230
1.0
 70
     8
 71
     3
 72
    11
 73
     7
 74
     0
 42
0.0000000021549893
 43
0.0000000001
 12
1.0
 22
0.0
 32
0.0
 13
1.0
 23
0.0
 33
0.0
 40
0.0
 40
0.0
 40
0.0
 40
0.0
 40
0.4944560431410441
 40
0.4944560431410441
 40
0.4944560431410441
 40
1.0
 40
1.0
 40
1.0
 40
1.0
 10
7.475000000021395
 20
5.897850020768188
 30
0.0
 10
6.767062100942795
 20
6.187230898456211
 30
0.0
 10
6.059090128052384
 20
6.476570098765756
 30
0.0
 10
5.351096154602446
 20
6.765882375772247
 30
0.0
 10
4.627225784256272
 20
7.061682330229335
 30
0.0
 10
3.903332191396821
 20
7.3574538708351
 30
0.0
 10
3.179422863405987
 20
7.653206152336525
 30
0.0
  0
LINE
  5
74
330
1F
100
AcDbEntity
  8
SK1
  6
Continuous
100
AcDbLine
 10
3.1794228634
 20
7.6532061523
 30
0.0
 11
2.8
 21
7.4981909512
 31
0.0
  0
LINE
  5
75
330
1F
100
AcDbEntity
  8
SK1
  6
Continuous
100
AcDbLine
 10
2.8
 20
7.4981909512
 30
0.0
 11
2.8
 21
6.9325055263
 31
0.0
  0
SPLINE
  5
76
330
1F
100
AcDbEntity
  8
SK1
  6
Continuous
100
AcDbSpline
210
0.0
220
0.0
230
1.0
 70
     8
 71
     3
 72
    10
 73
     6
 74
     0
 42
0.0000000361022747
 43
0.0000000001
 12
1.0
 22
0.0
 32
0.0
 13
1.0
 23
0.0
 33
0.0
 40
0.0
 40
0.0
 40
0.0
 40
0.0
 40
0.5
 40
0.5
 40
1.0
 40
1.0
 40
1.0
 40
1.0
 10
2.799999999999997
 20
6.569733935845285
 30
0.0
 10
2.800000000000004
 20
6.53284684596436
 30
0.0
 10
2.778440850106138
 20
6.495904378225839
 30
0.0
 10
2.704775281368407
 20
6.443622593017786
 30
0.0
 10
2.65214359355455
 20
6.428166237420165
 30
0.0
 10
2.6000000000009
 20
6.428166237415015
 30
0.0
  0
LINE
  5
77
330
1F
100
AcDbEntity
  8
SK1
  6
Continuous
100
AcDbLine
 10
2.6
 20
6.4281662374
 30
0.0
 11
0.2
 21
6.4281662374
 31
0.0
  0
SPLINE
  5
78
330
1F
100
AcDbEntity
  8
SK1
  6
Continuous
100
AcDbSpline
210
0.0
220
0.0
230
1.0
 70
     8
 71
     3
 72
    10
 73
     6
 74
     0
 42
0.000000036101554
 43
0.0000000001
 12
1.0
 22
0.0
 32
0.0
 13
1.0
 23
0.0
 33
0.0
 40
0.0
 40
0.0
 40
0.0
 40
0.0
 40
0.5
 40
0.5
 40
1.0
 40
1.0
 40
1.0
 40
1.0
 10
0.1999999999999988
 20
6.428166237419949
 30
0.0
 10
0.1477708908094316
 20
6.428166237419947
 30
0.0
 10
0.0951825507247758
 20
6.443654413928154
 30
0.0
 10
0.0216115616243802
 20
6.495865287352339
 30
0.0
 10
-0.0000000000000104
 20
6.53276934599223
 30
0.0
 10
-0.0000000000001405
 20
6.569733935845294
 30
0.0
  0
LINE
  5
79
330
1F
100
AcDbEntity
  8
SK1
  6
Continuous
100
AcDbLine
 10
0.0
 20
6.7825660804
 30
0.0
 11
0.0
 21
7.3482515053
 31
0.0
  0
SPLINE
  5
7A
330
1F
100
AcDbEntity
  8
SK1
  6
Continuous
100
AcDbSpline
210
0.0
220
0.0
230
1.0
 70
     8
 71
     3
 72
    11
 73
     7
 74
     0
 42
0.0000000021549893
 43
0.0000000001
 12
1.0
 22
0.0
 32
0.0
 13
1.0
 23
0.0
 33
0.0
 40
0.0
 40
0.0
 40
0.0
 40
0.0
 40
0.4944560431410441
 40
0.4944560431410441
 40
0.4944560431410441
 40
1.0
 40
1.0
 40
1.0
 40
1.0
 10
7.475000000021395
 20
5.332164595818951
 30
0.0
 10
6.767062100942795
 20
5.621545473506974
 30
0.0
 10
6.059090128052384
 20
5.910884673816517
 30
0.0
 10
5.351096154602446
 20
6.20019695082301
 30
0.0
 10
4.627225784256272
 20
6.495996905280097
 30
0.0
 10
3.903332191396821
 20
6.791768445885862
 30
0.0
 10
3.179422863405987
 20
7.087520727387287
 30
0.0
  0
LINE
  5
7B
330
1F
100
AcDbEntity
  8
SK1
  6
Continuous
100
AcDbLine
 10
3.1794228634
 20
7.0875207274
 30
0.0
 11
2.8
 21
6.9325055263
 31
0.0
  0
SPLINE
  5
7C
330
1F
100
AcDbEntity
  8
SK1
  6
Continuous
100
AcDbSpline
210
0.0
220
0.0
230
1.0
 70
     8
 71
     3
 72
    10
 73
     6
 74
     0
 42
0.0000000361022747
 43
0.0000000001
 12
1.0
 22
0.0
 32
0.0
 13
1.0
 23
0.0
 33
0.0
 40
0.0
 40
0.0
 40
0.0
 40
0.0
 40
0.5
 40
0.5
 40
1.0
 40
1.0
 40
1.0
 40
1.0
 10
2.799999999999997
 20
6.004048510896046
 30
0.0
 10
2.800000000000004
 20
5.967161421015121
 30
0.0
 10
2.778440850106138
 20
5.9302189532766
 30
0.0
 10
2.704775281368407
 20
5.877937168068548
 30
0.0
 10
2.65214359355455
 20
5.862480812470927
 30
0.0
 10
2.6000000000009
 20
5.862480812465776
 30
0.0
  0
LINE
  5
7D
330
1F
100
AcDbEntity
  8
SK1
  6
Continuous
100
AcDbLine
 10
2.6
 20
5.8624808125
 30
0.0
 11
0.2
 21
5.8624808125
 31
0.0
  0
SPLINE
  5
7E
330
1F
100
AcDbEntity
  8
SK1
  6
Continuous
100
AcDbSpline
210
0.0
220
0.0
230
1.0
 70
     8
 71
     3
 72
    10
 73
     6
 74
     0
 42
0.000000036101554
 43
0.0000000001
 12
1.0
 22
0.0
 32
0.0
 13
1.0
 23
0.0
 33
0.0
 40
0.0
 40
0.0
 40
0.0
 40
0.0
 40
0.5
 40
0.5
 40
1.0
 40
1.0
 40
1.0
 40
1.0
 10
0.1999999999999988
 20
5.862480812470709
 30
0.0
 10
0.1477708908094316
 20
5.862480812470707
 30
0.0
 10
0.0951825507247758
 20
5.877968988978913
 30
0.0
 10
0.0216115616243802
 20
5.9301798624031
 30
0.0
 10
-0.0000000000000104
 20
5.96708392104299
 30
0.0
 10
-0.0000000000001405
 20
6.004048510896055
 30
0.0
  0
LINE
  5
7F
330
1F
100
AcDbEntity
  8
SK3
100
AcDbLine
 10
-17.4
 20
4.0907293652
 30
0.0
 11
-17.8907477288
 21
3.4877219051
 31
0.0
  0
LINE
  5
80
330
1F
100
AcDbEntity
  8
SK3
100
AcDbLine
 10
-17.8907477288
 20
3.4877219051
 30
0.0
 11
-21.9
 21
3.4877219051
 31
0.0
  0
SPLINE
  5
81
330
1F
100
AcDbEntity
  8
SK1
  6
Continuous
100
AcDbSpline
210
0.0
220
0.0
230
1.0
 70
     8
 71
     3
 72
    14
 73
    10
 74
     0
 42
0.0000000004543777
 43
0.0000000001
 12
1.0
 22
0.0
 32
0.0
 13
1.0
 23
0.0
 33
0.0
 40
0.0
 40
0.0
 40
0.0
 40
0.0
 40
0.1262870314118738
 40
0.1262870314118738
 40
0.1262870314118738
 40
0.7066593980270073
 40
0.7066593980270073
 40
0.7066593980270073
 40
1.0
 40
1.0
 40
1.0
 40
1.0
 10
-21.9
 20
5.169367129803388
 30
0.0
 10
-20.97811389537408
 20
5.261135095089147
 30
0.0
 10
-20.05622611036515
 20
5.352894620228942
 30
0.0
 10
-19.13433690055793
 20
5.444646987088755
 30
0.0
 10
-14.89764675055235
 20
5.866309747406728
 30
0.0
 10
-10.66092758007111
 20
6.287826719470264
 30
0.0
 10
-6.424193716651306
 20
6.709269814433331
 30
0.0
 10
-4.282799444233771
 20
6.922281973987618
 30
0.0
 10
-2.141401209850116
 20
7.135274219393083
 30
0.0
 10
0.0
 20
7.348251505307601
 30
0.0
  0
SPLINE
  5
82
330
1F
100
AcDbEntity
  8
SK3
100
AcDbSpline
210
0.0
220
0.0
230
1.0
 70
     8
 71
     3
 72
    10
 73
     6
 74
     0
 42
0.0000000180361291
 43
0.0000000001
 12
1.0
 22
0.0
 32
0.0
 13
1.0
 23
0.0
 33
0.0
 40
0.0
 40
0.0
 40
0.0
 40
0.0
 40
0.5
 40
0.5
 40
1.0
 40
1.0
 40
1.0
 40
1.0
 10
7.599999999999996
 20
4.090729365177276
 30
0.0
 10
7.599999999999999
 20
4.01639273621664
 30
0.0
 10
7.55680387188918
 20
3.942766449619796
 30
0.0
 10
7.409743220199383
 20
3.83814126491581
 30
0.0
 10
7.305031236221823
 20
3.80704484958654
 30
0.0
 10
7.199999999999998
 20
3.80704484958654
 30
0.0
  0
LINE
  5
83
330
1F
100
AcDbEntity
  8
SK3
100
AcDbLine
 10
7.2
 20
3.8070448496
 30
0.0
 11
-13.4
 21
3.8070448496
 31
0.0
  0
LINE
  5
84
330
1F
100
AcDbEntity
  8
SK3
100
AcDbLine
 10
-13.4
 20
3.8070448496
 30
0.0
 11
-13.4
 21
4.0907293652
 31
0.0
  0
LINE
  5
85
330
1F
100
AcDbEntity
  8
SK3
100
AcDbLine
 10
-13.4
 20
4.0907293652
 30
0.0
 11
-17.4
 21
4.0907293652
 31
0.0
  0
SPLINE
  5
86
330
1F
100
AcDbEntity
  8
SK3
100
AcDbSpline
210
0.0
220
0.0
230
1.0
 70
     8
 71
     3
 72
    10
 73
     6
 74
     0
 42
0.0000000206721841
 43
0.0000000001
 12
1.0
 22
0.0
 32
0.0
 13
1.0
 23
0.0
 33
0.0
 40
0.0
 40
0.0
 40
0.0
 40
0.0
 40
0.5
 40
0.5
 40
1.0
 40
1.0
 40
1.0
 40
1.0
 10
-23.6
 20
-5.485435160990287
 30
0.0
 10
-23.67939648671043
 20
-5.485435160990285
 30
0.0
 10
-23.75702548684056
 20
-5.518177917308154
 30
0.0
 10
-23.86764638343129
 20
-5.629296821777207
 30
0.0
 10
-23.90000000000015
 20
-5.707795305709318
 30
0.0
 10
-23.90000000000314
 20
-5.786190356825426
 30
0.0
  0
SPLINE
  5
87
330
1F
100
AcDbEntity
  8
SK3
100
AcDbSpline
210
0.0
220
0.0
230
1.0
 70
     8
 71
     3
 72
    10
 73
     6
 74
     0
 42
0.0000000206669675
 43
0.0000000001
 12
1.0
 22
0.0
 32
0.0
 13
1.0
 23
0.0
 33
0.0
 40
0.0
 40
0.0
 40
0.0
 40
0.0
 40
0.5
 40
0.5
 40
1.0
 40
1.0
 40
1.0
 40
1.0
 10
-23.90000000000317
 20
5.78619055636611
 30
0.0
 10
-23.89999999999987
 20
5.707860081919166
 30
0.0
 10
-23.8682626730222
 20
5.629920427488991
 30
0.0
 10
-23.75642557915956
 20
5.517571166975355
 30
0.0
 10
-23.67933718179599
 20
5.485435360531172
 30
0.0
 10
-23.6
 20
5.485435360531692
 30
0.0
  0
LINE
  5
88
330
1F
100
AcDbEntity
  8
SK1
  6
Continuous
100
AcDbLine
 10
-23.6417519303
 20
6.6653770145
 30
0.0
 11
-23.6417519303
 21
0.4000000998
 31
0.0
  0
LINE
  5
89
330
1F
100
AcDbEntity
  8
SK1
  6
Continuous
100
AcDbLine
 10
-23.9
 20
-6.3677369658
 30
0.0
 11
-23.9
 21
-0.3999999002
 31
0.0
  0
LINE
  5
8A
330
1F
100
AcDbEntity
  8
SK1
  6
Continuous
100
AcDbLine
 10
0.0
 20
-9.9919966977
 30
0.0
 11
0.0
 21
-7.3482513058
 31
0.0
  0
LINE
  5
8B
330
1F
100
AcDbEntity
  8
SK3
100
AcDbLine
 10
-22.85
 20
-5.2347396263
 30
0.0
 11
-22.85
 21
-5.184653192
 31
0.0
  0
LINE
  5
8C
330
1F
100
AcDbEntity
  8
SK3
100
AcDbLine
 10
-17.4866025404
 20
5.2347398259
 30
0.0
 11
-17.4866025404
 21
5.1846533916
 31
0.0
  0
LINE
  5
8D
330
1F
100
AcDbEntity
  8
SK3
100
AcDbLine
 10
-23.1
 20
-5.485435161
 30
0.0
 11
-23.1
 21
-0.3999999002
 31
0.0
  0
LINE
  5
8E
330
1F
100
AcDbEntity
  8
SK3
100
AcDbLine
 10
-17.4
 20
-5.3851647074
 30
0.0
 11
-17.4
 21
-4.0907291656
 31
0.0
  0
LINE
  5
8F
330
1F
100
AcDbEntity
  8
SK3
100
AcDbLine
 10
-13.4
 20
-5.3851647074
 30
0.0
 11
-13.4
 21
-4.0907291656
 31
0.0
  0
LINE
  5
90
330
1F
100
AcDbEntity
  8
SK1
  6
Continuous
100
AcDbLine
 10
0.2
 20
8.6907998328
 30
0.0
 11
0.2
 21
6.4281662374
 31
0.0
  0
LINE
  5
91
330
1F
100
AcDbEntity
  8
SK1
  6
Continuous
100
AcDbLine
 10
2.1
 20
8.6907998328
 30
0.0
 11
2.1
 21
8.7000000998
 31
0.0
  0
LINE
  5
92
330
1F
100
AcDbEntity
  8
SK3
100
AcDbLine
 10
2.1
 20
-4.983974218
 30
0.0
 11
2.1
 21
-8.6907996333
 31
0.0
  0
LINE
  5
93
330
1F
100
AcDbEntity
  8
SK1
  6
Continuous
100
AcDbLine
 10
2.1
 20
-8.6907996333
 30
0.0
 11
2.1
 21
-8.6999999002
 31
0.0
  0
LINE
  5
94
330
1F
100
AcDbEntity
  8
SK3
100
AcDbLine
 10
2.1
 20
8.6907998328
 30
0.0
 11
2.1
 21
4.9839744175
 31
0.0
  0
SPLINE
  5
95
330
1F
100
AcDbEntity
  8
SK1
  6
Continuous
100
AcDbSpline
210
0.0
220
0.0
230
1.0
 70
     8
 71
     3
 72
    11
 73
     7
 74
     0
 42
0.0000000004188543
 43
0.0000000001
 12
1.0
 22
0.0
 32
0.0
 13
1.0
 23
0.0
 33
0.0
 40
0.0
 40
0.0
 40
0.0
 40
0.0
 40
0.7353591746509419
 40
0.7353591746509419
 40
0.7353591746509419
 40
1.0
 40
1.0
 40
1.0
 40
1.0
 10
0.0
 20
9.991996897208141
 30
0.0
 10
-5.795104603931676
 20
9.176895716998489
 30
0.0
 10
-11.59018951954745
 20
8.361654494764782
 30
0.0
 10
-17.385226371923
 20
7.546071768060388
 30
0.0
 10
-19.47074238861951
 20
7.252560116139525
 30
0.0
 10
-21.55625190026024
 20
6.959002235612409
 30
0.0
 10
-23.64175193028802
 20
6.665377014513953
 30
0.0
  0
ARC
  5
96
330
1F
100
AcDbEntity
  8
SK1
  6
Continuous
100
AcDbCircle
 10
-23.5996297504
 20
6.36797482
 30
0.0
 40
0.3003703436640572
100
AcDbArc
 50
98.0613957409
 51
180.0453327334
  0
LINE
  5
97
330
1F
100
AcDbEntity
  8
SK3
100
AcDbLine
 10
-23.6
 20
5.4854353605
 30
0.0
 11
-23.1
 21
5.4854353605
 31
0.0
  0
LINE
  5
98
330
1F
100
AcDbEntity
  8
SK3
100
AcDbLine
 10
-23.1
 20
5.4854353605
 30
0.0
 11
-22.85
 21
5.2347398259
 31
0.0
  0
LINE
  5
99
330
1F
100
AcDbEntity
  8
SK3
100
AcDbLine
 10
-17.4866025404
 20
5.2347398259
 30
0.0
 11
-17.4
 21
5.3851649069
 31
0.0
  0
LINE
  5
9A
330
1F
100
AcDbEntity
  8
SK3
100
AcDbLine
 10
-17.4
 20
5.3851649069
 30
0.0
 11
-13.4
 21
5.3851649069
 31
0.0
  0
LINE
  5
9B
330
1F
100
AcDbEntity
  8
SK3
100
AcDbLine
 10
-13.4
 20
4.9839744175
 30
0.0
 11
2.1
 21
4.9839744175
 31
0.0
  0
LINE
  5
9C
330
1F
100
AcDbEntity
  8
SK3
100
AcDbLine
 10
2.1
 20
-4.983974218
 30
0.0
 11
-13.4
 21
-4.983974218
 31
0.0
  0
LINE
  5
9D
330
1F
100
AcDbEntity
  8
SK3
100
AcDbLine
 10
-13.4
 20
-5.3851647074
 30
0.0
 11
-17.4
 21
-5.3851647074
 31
0.0
  0
LINE
  5
9E
330
1F
100
AcDbEntity
  8
SK3
100
AcDbLine
 10
-17.4
 20
-5.3851647074
 30
0.0
 11
-17.4866025404
 21
-5.2347396263
 31
0.0
  0
LINE
  5
9F
330
1F
100
AcDbEntity
  8
SK3
100
AcDbLine
 10
-22.85
 20
-5.2347396263
 30
0.0
 11
-23.1
 21
-5.485435161
 31
0.0
  0
LINE
  5
A0
330
1F
100
AcDbEntity
  8
SK3
100
AcDbLine
 10
-23.1
 20
-5.485435161
 30
0.0
 11
-23.6
 21
-5.485435161
 31
0.0
  0
ARC
  5
A1
330
1F
100
AcDbEntity
  8
SK1
  6
Continuous
100
AcDbCircle
 10
-23.5996295685
 20
-6.3679744627
 30
0.0
 40
0.3003705253420345
100
AcDbArc
 50
179.9546973833
 51
261.9385741424
  0
SPLINE
  5
A2
330
1F
100
AcDbEntity
  8
SK1
  6
Continuous
100
AcDbSpline
210
0.0
220
0.0
230
1.0
 70
     8
 71
     3
 72
    11
 73
     7
 74
     0
 42
0.0000000004188543
 43
0.0000000001
 12
1.0
 22
0.0
 32
0.0
 13
1.0
 23
0.0
 33
0.0
 40
0.0
 40
0.0
 40
0.0
 40
0.0
 40
0.4910201573330228
 40
0.4910201573330228
 40
0.4910201573330228
 40
1.0
 40
1.0
 40
1.0
 40
1.0
 10
-23.64175193028802
 20
-6.665376814972547
 30
0.0
 10
-19.77227128331199
 20
-7.210175229810929
 30
0.0
 10
-15.90275882788117
 20
-7.754747730566538
 30
0.0
 10
-12.03323027602602
 20
-8.299205788189177
 30
0.0
 10
-8.022168805546219
 20
-8.863578090384868
 30
0.0
 10
-4.011089454676686
 20
-9.427823318256928
 30
0.0
 10
0.0
 20
-9.991996697666735
 30
0.0
  0
SPLINE
  5
A3
330
1F
100
AcDbEntity
  8
SK1
  6
Continuous
100
AcDbSpline
210
0.0
220
0.0
230
1.0
 70
     8
 71
     3
 72
    10
 73
     6
 74
     0
 42
0.0000000310231735
 43
0.0000000001
 12
1.0
 22
0.0
 32
0.0
 13
1.0
 23
0.0
 33
0.0
 40
0.0
 40
0.0
 40
0.0
 40
0.0
 40
0.5
 40
0.5
 40
1.0
 40
1.0
 40
1.0
 40
1.0
 10
-0.0000000000000035
 20
8.891006791928797
 30
0.0
 10
-0.0000000000000069
 20
8.838827846172133
 30
0.0
 10
0.0211908836106403
 20
8.786914832017985
 30
0.0
 10
0.0957851820281765
 20
8.712146843039033
 30
0.0
 10
0.1471502738570555
 20
8.690799832820945
 30
0.0
 10
0.1999999999999988
 20
8.690799832821742
 30
0.0
  0
LINE
  5
A4
330
1F
100
AcDbEntity
  8
SK1
  6
Continuous
100
AcDbLine
 10
0.2
 20
8.6907998328
 30
0.0
 11
2.1
 21
8.6907998328
 31
0.0
  0
LINE
  5
A5
330
1F
100
AcDbEntity
  8
SK1
  6
Continuous
100
AcDbLine
 10
2.1
 20
-8.6907996333
 30
0.0
 11
0.2
 21
-8.6907996333
 31
0.0
  0
SPLINE
  5
A6
330
1F
100
AcDbEntity
  8
SK1
  6
Continuous
100
AcDbSpline
210
0.0
220
0.0
230
1.0
 70
     8
 71
     3
 72
    10
 73
     6
 74
     0
 42
0.0000000310310407
 43
0.0000000001
 12
1.0
 22
0.0
 32
0.0
 13
1.0
 23
0.0
 33
0.0
 40
0.0
 40
0.0
 40
0.0
 40
0.0
 40
0.5
 40
0.5
 40
1.0
 40
1.0
 40
1.0
 40
1.0
 10
0.1999999999999988
 20
-8.690799633280335
 30
0.0
 10
0.1471111354501165
 20
-8.690799633280333
 30
0.0
 10
0.0953825998800638
 20
-8.71255281988516
 30
0.0
 10
0.0216036209834056
 20
-8.78649827758392
 30
0.0
 10
-0.0000000000000069
 20
-8.83878293042849
 30
0.0
 10
-0.0000000000000035
 20
-8.891006592387392
 30
0.0
  0
LINE
  5
A7
330
1F
100
AcDbEntity
  8
SK3
100
AcDbLine
 10
-22.85
 20
-5.2347396263
 30
0.0
 11
-17.4866025404
 21
-5.2347396263
 31
0.0
  0
LINE
  5
A8
330
1F
100
AcDbEntity
  8
SK3
100
AcDbLine
 10
-17.4866025404
 20
5.2347398259
 30
0.0
 11
-22.85
 21
5.2347398259
 31
0.0
  0
LINE
  5
A9
330
1F
100
AcDbEntity
  8
SK1
  6
Continuous
100
AcDbLine
 10
7.6
 20
-7.7343810408
 30
0.0
 11
7.6
 21
-5.7445571616
 31
0.0
  0
LINE
  5
AA
330
1F
100
AcDbEntity
  8
SK1
  6
Continuous
100
AcDbLine
 10
7.475
 20
-5.3321643963
 30
0.0
 11
7.475
 21
5.3321645958
 31
0.0
  0
SPLINE
  5
AB
330
1F
100
AcDbEntity
  8
SK1
  6
Continuous
100
AcDbSpline
210
0.0
220
0.0
230
1.0
 70
     8
 71
     3
 72
    10
 73
     6
 74
     0
 42
0.0000000469791461
 43
0.0000000001
 12
1.0
 22
0.0
 32
0.0
 13
1.0
 23
0.0
 33
0.0
 40
0.0
 40
0.0
 40
0.0
 40
0.0
 40
0.5000000000000043
 40
0.5000000000000043
 40
1.0
 40
1.0
 40
1.0
 40
1.0
 10
7.474999999999997
 20
-5.33216439625866
 30
0.0
 10
7.512989614354954
 20
-5.316635537074223
 30
0.0
 10
7.544632236045814
 20
-5.294247808066722
 30
0.0
 10
7.588566126533372
 20
-5.240277592310396
 30
0.0
 10
7.599999999999999
 20
-5.20958452612552
 30
0.0
 10
7.599999999999996
 20
-5.178871736683027
 30
0.0
  0
SPLINE
  5
AC
330
1F
100
AcDbEntity
  8
SK1
  6
Continuous
100
AcDbSpline
210
0.0
220
0.0
230
1.0
 70
     8
 71
     3
 72
    10
 73
     6
 74
     0
 42
0.0000000469791461
 43
0.0000000001
 12
1.0
 22
0.0
 32
0.0
 13
1.0
 23
0.0
 33
0.0
 40
0.0
 40
0.0
 40
0.0
 40
0.0
 40
0.5000000000000042
 40
0.5000000000000042
 40
1.0
 40
1.0
 40
1.0
 40
1.0
 10
7.474999999999997
 20
-5.897849821207899
 30
0.0
 10
7.512989614356008
 20
-5.882320962023032
 30
0.0
 10
7.544632236047649
 20
-5.859933233014625
 30
0.0
 10
7.5885661265352
 20
-5.805963017256477
 30
0.0
 10
7.600000000001252
 20
-5.775269951070514
 30
0.0
 10
7.600000000042205
 20
-5.74455716162771
 30
0.0
  0
LINE
  5
AD
330
1F
100
AcDbEntity
  8
SK1
  6
Continuous
100
AcDbLine
 10
2.8
 20
-6.9325053267
 30
0.0
 11
2.8
 21
6.9325055263
 31
0.0
  0
LINE
  5
AE
330
1F
100
AcDbEntity
  8
SK1
  6
Continuous
100
AcDbLine
 10
3.1794228634
 20
-7.0875205278
 30
0.0
 11
3.1794228634
 21
7.0875207274
 31
0.0
  0
LINE
  5
AF
330
1F
100
AcDbEntity
  8
SK3
100
AcDbLine
 10
-17.8907477288
 20
-2.9220362806
 30
0.0
 11
-17.8907477288
 21
-1.856291191
 31
0.0
  0
LINE
  5
B0
330
1F
100
AcDbEntity
  8
SK1
  6
Continuous
100
AcDbLine
 10
2.6
 20
-5.8624806129
 30
0.0
 11
2.6
 21
5.8624808125
 31
0.0
  0
LINE
  5
B1
330
1F
100
AcDbEntity
  8
SK1
  6
Continuous
100
AcDbLine
 10
7.6
 20
5.7445573612
 30
0.0
 11
7.6
 21
7.7343812404
 31
0.0
  0
LINE
  5
B2
330
1F
100
AcDbEntity
  8
SK1
  6
Continuous
100
AcDbLine
 10
0.0
 20
-6.7825658808
 30
0.0
 11
0.0
 21
-0.3999999002
 31
0.0
  0
LINE
  5
B3
330
1F
100
AcDbEntity
  8
SK3
100
AcDbLine
 10
-17.4
 20
-3.5250437407
 30
0.0
 11
-17.4
 21
-0.3999999002
 31
0.0
  0
LINE
  5
B4
330
1F
100
AcDbEntity
  8
SK3
100
AcDbLine
 10
-13.4
 20
-3.5250437407
 30
0.0
 11
-13.4
 21
-0.3999999002
 31
0.0
  0
LINE
  5
B5
330
1F
100
AcDbEntity
  8
SK1
  6
Continuous
100
AcDbLine
 10
0.2
 20
-6.4281660379
 30
0.0
 11
0.2
 21
-8.6907996333
 31
0.0
  0
LINE
  5
B6
330
1F
100
AcDbEntity
  8
SK3
100
AcDbLine
 10
-21.9
 20
-4.6036815053
 30
0.0
 11
-21.9
 21
-2.9220362806
 31
0.0
  0
SPLINE
  5
B7
330
1F
100
AcDbEntity
  8
SK1
  6
Continuous
100
AcDbSpline
210
0.0
220
0.0
230
1.0
 70
     8
 71
     3
 72
    14
 73
    10
 74
     0
 42
0.0000000004543777
 43
0.0000000001
 12
1.0
 22
0.0
 32
0.0
 13
1.0
 23
0.0
 33
0.0
 40
0.0
 40
0.0
 40
0.0
 40
0.0
 40
0.1288209168060282
 40
0.1288209168060282
 40
0.1288209168060282
 40
0.7098123964363411
 40
0.7098123964363411
 40
0.7098123964363411
 40
1.0
 40
1.0
 40
1.0
 40
1.0
 10
-21.9
 20
-5.16936693026198
 30
0.0
 10
-20.95961671709619
 20
-5.262976173342871
 30
0.0
 10
-20.01923168589122
 20
-5.356576635145646
 30
0.0
 10
-19.07884517708423
 20
-5.450169673345866
 30
0.0
 10
-14.83763526863656
 20
-5.872280919369665
 30
0.0
 10
-10.5963963709911
 20
-6.294246533792371
 30
0.0
 10
-6.355142796162054
 20
-6.71613835023
 30
0.0
 10
-4.236765411965784
 20
-6.926860502714123
 30
0.0
 10
-2.118384162248729
 20
-7.137563225772247
 30
0.0
 10
0.0
 20
-7.34825130576619
 30
0.0
  0
SPLINE
  5
B8
330
1F
100
AcDbEntity
  8
SK3
100
AcDbSpline
210
0.0
220
0.0
230
1.0
 70
     8
 71
     3
 72
    10
 73
     6
 74
     0
 42
0.0000000180369853
 43
0.0000000001
 12
1.0
 22
0.0
 32
0.0
 13
1.0
 23
0.0
 33
0.0
 40
0.0
 40
0.0
 40
0.0
 40
0.0
 40
0.5
 40
0.5
 40
1.0
 40
1.0
 40
1.0
 40
1.0
 10
7.599999999999996
 20
-4.090729165635868
 30
0.0
 10
7.600000000000002
 20
-4.016560954412106
 30
0.0
 10
7.556442617997837
 20
-3.942331564144452
 30
0.0
 10
7.409141093603015
 20
-3.837891528407277
 30
0.0
 10
7.304986648234587
 20
-3.807044650045133
 30
0.0
 10
7.199999999999998
 20
-3.807044650045131
 30
0.0
  0
LINE
  5
B9
330
1F
100
AcDbEntity
  8
SK3
100
AcDbLine
 10
7.2
 20
-3.80704465
 30
0.0
 11
-13.4
 21
-3.80704465
 31
0.0
  0
LINE
  5
BA
330
1F
100
AcDbEntity
  8
SK3
100
AcDbLine
 10
-13.4
 20
-3.80704465
 30
0.0
 11
-13.4
 21
-4.0907291656
 31
0.0
  0
LINE
  5
BB
330
1F
100
AcDbEntity
  8
SK3
100
AcDbLine
 10
-13.4
 20
-4.0907291656
 30
0.0
 11
-17.4
 21
-4.0907291656
 31
0.0
  0
LINE
  5
BC
330
1F
100
AcDbEntity
  8
SK3
100
AcDbLine
 10
-17.4
 20
-4.0907291656
 30
0.0
 11
-17.8907477288
 21
-3.4877217056
 31
0.0
  0
LINE
  5
BD
330
1F
100
AcDbEntity
  8
SK3
100
AcDbLine
 10
-17.8907477288
 20
-3.4877217056
 30
0.0
 11
-21.9
 21
-3.4877217056
 31
0.0
  0
SPLINE
  5
BE
330
1F
100
AcDbEntity
  8
SK1
  6
Continuous
100
AcDbSpline
210
0.0
220
0.0
230
1.0
 70
     8
 71
     3
 72
    11
 73
     7
 74
     0
 42
0.0000000021549893
 43
0.0000000001
 12
1.0
 22
0.0
 32
0.0
 13
1.0
 23
0.0
 33
0.0
 40
0.0
 40
0.0
 40
0.0
 40
0.0
 40
0.6869089114221177
 40
0.6869089114221177
 40
0.6869089114221177
 40
1.0
 40
1.0
 40
1.0
 40
1.0
 10
7.474999999999997
 20
-5.33216439625866
 30
0.0
 10
6.491517527577952
 20
-5.734178501532394
 30
0.0
 10
5.507970186946499
 20
-6.136113262850031
 30
0.0
 10
4.524387219208102
 20
-6.538004417775336
 30
0.0
 10
4.076072949086998
 20
-6.721185243082576
 30
0.0
 10
3.627750961592693
 20
-6.904356624891458
 30
0.0
 10
3.179422863405987
 20
-7.087520527845877
 30
0.0
  0
LINE
  5
BF
330
1F
100
AcDbEntity
  8
SK1
  6
Continuous
100
AcDbLine
 10
3.1794228634
 20
-7.0875205278
 30
0.0
 11
2.8
 21
-6.9325053267
 31
0.0
  0
SPLINE
  5
C0
330
1F
100
AcDbEntity
  8
SK1
  6
Continuous
100
AcDbSpline
210
0.0
220
0.0
230
1.0
 70
     8
 71
     3
 72
    10
 73
     6
 74
     0
 42
0.0000000360920709
 43
0.0000000001
 12
1.0
 22
0.0
 32
0.0
 13
1.0
 23
0.0
 33
0.0
 40
0.0
 40
0.0
 40
0.0
 40
0.0
 40
0.5
 40
0.5
 40
1.0
 40
1.0
 40
1.0
 40
1.0
 10
2.799999999999997
 20
-6.004048311354638
 30
0.0
 10
2.799999999999998
 20
-5.96684578682049
 30
0.0
 10
2.778429845123121
 20
-5.930151195691526
 30
0.0
 10
2.704463532564422
 20
-5.8777757238062
 30
0.0
 10
2.652543534305947
 20
-5.862480612929301
 30
0.0
 10
2.599999999999998
 20
-5.862480612929302
 30
0.0
  0
LINE
  5
C1
330
1F
100
AcDbEntity
  8
SK1
  6
Continuous
100
AcDbLine
 10
2.6
 20
-5.8624806129
 30
0.0
 11
0.2
 21
-5.8624806129
 31
0.0
  0
SPLINE
  5
C2
330
1F
100
AcDbEntity
  8
SK1
  6
Continuous
100
AcDbSpline
210
0.0
220
0.0
230
1.0
 70
     8
 71
     3
 72
    10
 73
     6
 74
     0
 42
0.0000000360942195
 43
0.0000000001
 12
1.0
 22
0.0
 32
0.0
 13
1.0
 23
0.0
 33
0.0
 40
0.0
 40
0.0
 40
0.0
 40
0.0
 40
0.5
 40
0.5
 40
1.0
 40
1.0
 40
1.0
 40
1.0
 10
0.1999999999999988
 20
-5.862480612929301
 30
0.0
 10
0.1472873428742059
 20
-5.8624806129293
 30
0.0
 10
0.095488339197208
 20
-5.877836334861446
 30
0.0
 10
0.0217619733438069
 20
-5.929988889401026
 30
0.0
 10
-0.0000000000000017
 20
-5.966840983702776
 30
0.0
 10
-0.0000000000000017
 20
-6.004048311354637
 30
0.0
  0
LINE
  5
C3
330
1F
100
AcDbEntity
  8
SK1
  6
Continuous
100
AcDbLine
 10
-21.9
 20
-5.1693669303
 30
0.0
 11
-21.9
 21
-4.6036815053
 31
0.0
  0
LINE
  5
C4
330
1F
100
AcDbEntity
  8
SK1
  6
Continuous
100
AcDbLine
 10
7.6
 20
-5.1788717367
 30
0.0
 11
7.6
 21
-5.7445571616
 31
0.0
  0
SPLINE
  5
C5
330
1F
100
AcDbEntity
  8
SK1
  6
Continuous
100
AcDbSpline
210
0.0
220
0.0
230
1.0
 70
     8
 71
     3
 72
    11
 73
     7
 74
     0
 42
0.0000000021549893
 43
0.0000000001
 12
1.0
 22
0.0
 32
0.0
 13
1.0
 23
0.0
 33
0.0
 40
0.0
 40
0.0
 40
0.0
 40
0.0
 40
0.686908911422118
 40
0.686908911422118
 40
0.686908911422118
 40
1.0
 40
1.0
 40
1.0
 40
1.0
 10
7.474999999999997
 20
-5.897849821207899
 30
0.0
 10
6.49151752757795
 20
-6.299863926481633
 30
0.0
 10
5.507970186946498
 20
-6.701798687799271
 30
0.0
 10
4.5243872192081
 20
-7.103689842724576
 30
0.0
 10
4.076072949086998
 20
-7.286870668031816
 30
0.0
 10
3.627750961592693
 20
-7.470042049840696
 30
0.0
 10
3.179422863405987
 20
-7.653205952795115
 30
0.0
  0
LINE
  5
C6
330
1F
100
AcDbEntity
  8
SK1
  6
Continuous
100
AcDbLine
 10
3.1794228634
 20
-7.6532059528
 30
0.0
 11
2.8
 21
-7.4981907517
 31
0.0
  0
LINE
  5
C7
330
1F
100
AcDbEntity
  8
SK1
  6
Continuous
100
AcDbLine
 10
2.8
 20
-7.4981907517
 30
0.0
 11
2.8
 21
-6.9325053267
 31
0.0
  0
SPLINE
  5
C8
330
1F
100
AcDbEntity
  8
SK1
  6
Continuous
100
AcDbSpline
210
0.0
220
0.0
230
1.0
 70
     8
 71
     3
 72
    10
 73
     6
 74
     0
 42
0.0000000360920709
 43
0.0000000001
 12
1.0
 22
0.0
 32
0.0
 13
1.0
 23
0.0
 33
0.0
 40
0.0
 40
0.0
 40
0.0
 40
0.0
 40
0.5
 40
0.5
 40
1.0
 40
1.0
 40
1.0
 40
1.0
 10
2.799999999999997
 20
-6.569733736303875
 30
0.0
 10
2.799999999999998
 20
-6.532531211769728
 30
0.0
 10
2.778429845123121
 20
-6.495836620640764
 30
0.0
 10
2.704463532564422
 20
-6.443461148755438
 30
0.0
 10
2.652543534305947
 20
-6.428166037878539
 30
0.0
 10
2.599999999999998
 20
-6.42816603787854
 30
0.0
  0
LINE
  5
C9
330
1F
100
AcDbEntity
  8
SK1
  6
Continuous
100
AcDbLine
 10
2.6
 20
-6.4281660379
 30
0.0
 11
0.2
 21
-6.4281660379
 31
0.0
  0
SPLINE
  5
CA
330
1F
100
AcDbEntity
  8
SK1
  6
Continuous
100
AcDbSpline
210
0.0
220
0.0
230
1.0
 70
     8
 71
     3
 72
    10
 73
     6
 74
     0
 42
0.0000000360942195
 43
0.0000000001
 12
1.0
 22
0.0
 32
0.0
 13
1.0
 23
0.0
 33
0.0
 40
0.0
 40
0.0
 40
0.0
 40
0.0
 40
0.5
 40
0.5
 40
1.0
 40
1.0
 40
1.0
 40
1.0
 10
0.1999999999999988
 20
-6.428166037878539
 30
0.0
 10
0.1472873428742059
 20
-6.428166037878538
 30
0.0
 10
0.0954883391972097
 20
-6.443521759810685
 30
0.0
 10
0.0217619733438052
 20
-6.495674314350263
 30
0.0
 10
-0.0000000000000017
 20
-6.532526408652013
 30
0.0
 10
-0.0000000000000017
 20
-6.569733736303876
 30
0.0
  0
LINE
  5
CB
330
1F
100
AcDbEntity
  8
SK1
  6
Continuous
100
AcDbLine
 10
0.0
 20
-6.7825658808
 30
0.0
 11
0.0
 21
-7.3482513058
 31
0.0
  0
LINE
  5
CC
330
1F
100
AcDbEntity
  8
SK3
100
AcDbLine
 10
-17.4
 20
-3.5250437407
 30
0.0
 11
-17.8907477288
 21
-2.9220362806
 31
0.0
  0
LINE
  5
CD
330
1F
100
AcDbEntity
  8
SK3
100
AcDbLine
 10
-17.8907477288
 20
-2.9220362806
 30
0.0
 11
-21.9
 21
-2.9220362806
 31
0.0
  0
SPLINE
  5
CE
330
1F
100
AcDbEntity
  8
SK1
  6
Continuous
100
AcDbSpline
210
0.0
220
0.0
230
1.0
 70
     8
 71
     3
 72
    14
 73
    10
 74
     0
 42
0.0000000004543777
 43
0.0000000001
 12
1.0
 22
0.0
 32
0.0
 13
1.0
 23
0.0
 33
0.0
 40
0.0
 40
0.0
 40
0.0
 40
0.0
 40
0.1288209168060282
 40
0.1288209168060282
 40
0.1288209168060282
 40
0.7098123964363411
 40
0.7098123964363411
 40
0.7098123964363411
 40
1.0
 40
1.0
 40
1.0
 40
1.0
 10
-21.9
 20
-4.603681505312743
 30
0.0
 10
-20.95961671709619
 20
-4.697290748393634
 30
0.0
 10
-20.01923168589122
 20
-4.790891210196408
 30
0.0
 10
-19.07884517708423
 20
-4.884484248396628
 30
0.0
 10
-14.83763526863656
 20
-5.306595494420427
 30
0.0
 10
-10.5963963709911
 20
-5.728561108843132
 30
0.0
 10
-6.355142796162054
 20
-6.150452925280762
 30
0.0
 10
-4.236765411965784
 20
-6.361175077764885
 30
0.0
 10
-2.118384162248729
 20
-6.571877800823009
 30
0.0
 10
0.0
 20
-6.782565880816954
 30
0.0
  0
SPLINE
  5
CF
330
1F
100
AcDbEntity
  8
SK3
100
AcDbSpline
210
0.0
220
0.0
230
1.0
 70
     8
 71
     3
 72
    10
 73
     6
 74
     0
 42
0.0000000180369853
 43
0.0000000001
 12
1.0
 22
0.0
 32
0.0
 13
1.0
 23
0.0
 33
0.0
 40
0.0
 40
0.0
 40
0.0
 40
0.0
 40
0.5
 40
0.5
 40
1.0
 40
1.0
 40
1.0
 40
1.0
 10
7.599999999999996
 20
-3.52504374068663
 30
0.0
 10
7.600000000000002
 20
-3.450875529462868
 30
0.0
 10
7.556442617997837
 20
-3.376646139195214
 30
0.0
 10
7.409141093603015
 20
-3.272206103458039
 30
0.0
 10
7.304986648234587
 20
-3.241359225095894
 30
0.0
 10
7.199999999999998
 20
-3.241359225095894
 30
0.0
  0
LINE
  5
D0
330
1F
100
AcDbEntity
  8
SK3
100
AcDbLine
 10
7.2
 20
-3.2413592251
 30
0.0
 11
-13.4
 21
-3.2413592251
 31
0.0
  0
LINE
  5
D1
330
1F
100
AcDbEntity
  8
SK3
100
AcDbLine
 10
-13.4
 20
-3.5250437407
 30
0.0
 11
-17.4
 21
-3.5250437407
 31
0.0
  0
LINE
  5
D2
330
1F
100
AcDbEntity
  8
SK3
100
AcDbLine
 10
-23.6
 20
0.4000000998
 30
0.0
 11
-23.6183252967
 21
0.4000000998
 31
0.0
  0
LINE
  5
D3
330
1F
100
AcDbEntity
  8
SK3
100
AcDbLine
 10
-23.6
 20
-0.3999999002
 30
0.0
 11
-23.6183252967
 21
-0.3999999002
 31
0.0
  0
LINE
  5
D4
330
1F
100
AcDbEntity
  8
SK3
100
AcDbLine
 10
-17.4866025404
 20
-0.3999999002
 30
0.0
 11
-17.4866025404
 21
-0.8257542485
 31
0.0
  0
LINE
  5
D5
330
1F
100
AcDbEntity
  8
SK3
100
AcDbLine
 10
-22.85
 20
0.4000000998
 30
0.0
 11
-22.85
 21
0.825754448
 31
0.0
  0
LINE
  5
D6
330
1F
100
AcDbEntity
  8
SK1
  6
Continuous
100
AcDbLine
 10
-23.6417519303
 20
-0.3999999002
 30
0.0
 11
-23.6417519303
 21
-6.665376815
 31
0.0
  0
LINE
  5
D7
330
1F
100
AcDbEntity
  8
SK1
  6
Continuous
100
AcDbLine
 10
-23.9
 20
0.4000000998
 30
0.0
 11
-23.9
 21
6.3677371654
 31
0.0
  0
LINE
  5
D8
330
1F
100
AcDbEntity
  8
SK1
  6
Continuous
100
AcDbLine
 10
0.0
 20
0.4000000998
 30
0.0
 11
0.0
 21
6.7825660804
 31
0.0
  0
LINE
  5
D9
330
1F
100
AcDbEntity
  8
SK3
100
AcDbLine
 10
-23.1
 20
0.4000000998
 30
0.0
 11
-23.1
 21
5.4854353605
 31
0.0
  0
LINE
  5
DA
330
1F
100
AcDbEntity
  8
SK3
100
AcDbLine
 10
-17.4
 20
0.4000000998
 30
0.0
 11
-17.4
 21
3.5250439402
 31
0.0
  0
LINE
  5
DB
330
1F
100
AcDbEntity
  8
SK3
100
AcDbLine
 10
-13.4
 20
0.4000000998
 30
0.0
 11
-13.4
 21
3.5250439402
 31
0.0
  0
LINE
  5
DC
330
1F
100
AcDbEntity
  8
SK1
  6
Continuous
100
AcDbLine
 10
0.2
 20
-0.3999999002
 30
0.0
 11
0.2
 21
-5.8624806129
 31
0.0
  0
LINE
  5
DD
330
1F
100
AcDbEntity
  8
SK1
  6
Continuous
100
AcDbLine
 10
2.1
 20
0.4000000998
 30
0.0
 11
2.1
 21
-0.3999999002
 31
0.0
  0
LINE
  5
DE
330
1F
100
AcDbEntity
  8
SK1
  6
Continuous
100
AcDbLine
 10
0.0
 20
-0.3999999002
 30
0.0
 11
-23.6417519303
 21
-0.3999999002
 31
0.0
  0
LINE
  5
DF
330
1F
100
AcDbEntity
  8
SK1
  6
Continuous
100
AcDbLine
 10
-23.6417519303
 20
-0.3999999002
 30
0.0
 11
-23.9
 21
-0.3999999002
 31
0.0
  0
LINE
  5
E0
330
1F
100
AcDbEntity
  8
SK1
  6
Continuous
100
AcDbLine
 10
0.0
 20
0.4000000998
 30
0.0
 11
0.2
 21
0.4000000998
 31
0.0
  0
LINE
  5
E1
330
1F
100
AcDbEntity
  8
SK1
  6
Continuous
100
AcDbLine
 10
0.2
 20
0.4000000998
 30
0.0
 11
2.1
 21
0.4000000998
 31
0.0
  0
LINE
  5
E2
330
1F
100
AcDbEntity
  8
SK1
  6
Continuous
100
AcDbLine
 10
0.0
 20
-0.3999999002
 30
0.0
 11
0.2
 21
-0.3999999002
 31
0.0
  0
LINE
  5
E3
330
1F
100
AcDbEntity
  8
SK1
  6
Continuous
100
AcDbLine
 10
0.2
 20
-0.3999999002
 30
0.0
 11
2.1
 21
-0.3999999002
 31
0.0
  0
LINE
  5
E4
330
1F
100
AcDbEntity
  8
SK1
  6
Continuous
100
AcDbLine
 10
0.0
 20
0.4000000998
 30
0.0
 11
-23.6417519303
 21
0.4000000998
 31
0.0
  0
LINE
  5
E5
330
1F
100
AcDbEntity
  8
SK1
  6
Continuous
100
AcDbLine
 10
-23.6417519303
 20
0.4000000998
 30
0.0
 11
-23.9
 21
0.4000000998
 31
0.0
  0
LINE
  5
E6
330
1F
100
AcDbEntity
  8
SK1
  6
Continuous
100
AcDbLine
 10
2.1
 20
-8.6999999002
 30
0.0
 11
2.6
 21
-8.6999999002
 31
0.0
  0
ARC
  5
E7
330
1F
100
AcDbEntity
  8
SK1
  6
Continuous
100
AcDbCircle
 10
2.6
 20
-8.8999999002
 30
0.0
 40
0.1999999999999997
100
AcDbArc
 50
0.0
 51
90.0
  0
LINE
  5
E8
330
1F
100
AcDbEntity
  8
SK3
100
AcDbLine
 10
2.1
 20
-4.9999999002
 30
0.0
 11
7.2
 21
-4.9999999002
 31
0.0
  0
LINE
  5
E9
330
1F
100
AcDbEntity
  8
SK1
  6
Continuous
100
AcDbLine
 10
3.1794228634
 20
-10.4309400079
 30
0.0
 11
7.475
 21
-7.9508873918
 31
0.0
  0
LINE
  5
EA
330
1F
100
AcDbEntity
  8
SK1
  6
Continuous
100
AcDbLine
 10
2.8
 20
-10.2118801156
 30
0.0
 11
3.1794228634
 21
-10.4309400079
 31
0.0
  0
ARC
  5
EB
330
1F
100
AcDbEntity
  8
SK3
100
AcDbCircle
 10
7.2
 20
-5.3999999002
 30
0.0
 40
0.3999999999999996
100
AcDbArc
 50
0.0
 51
90.0
  0
ARC
  5
EC
330
1F
100
AcDbEntity
  8
SK1
  6
Continuous
100
AcDbCircle
 10
7.35
 20
-7.7343810408
 30
0.0
 40
0.2500000000000002
100
AcDbArc
 50
300.0
 51
360.0
  0
ARC
  5
ED
330
1F
100
AcDbEntity
  8
SK1
  6
Continuous
100
AcDbCircle
 10
7.35
 20
7.7343812404
 30
0.0
 40
0.2500000000000002
100
AcDbArc
 50
0.0
 51
60.0
  0
ARC
  5
EE
330
1F
100
AcDbEntity
  8
SK3
100
AcDbCircle
 10
7.2
 20
5.4000000998
 30
0.0
 40
0.3999999999999993
100
AcDbArc
 50
270.0
 51
0.0
  0
LINE
  5
EF
330
1F
100
AcDbEntity
  8
SK1
  6
Continuous
100
AcDbLine
 10
3.1794228634
 20
10.4309402074
 30
0.0
 11
2.8
 21
10.2118803151
 31
0.0
  0
LINE
  5
F0
330
1F
100
AcDbEntity
  8
SK1
  6
Continuous
100
AcDbLine
 10
7.475
 20
7.9508875913
 30
0.0
 11
3.1794228634
 21
10.4309402074
 31
0.0
  0
ARC
  5
F1
330
1F
100
AcDbEntity
  8
SK1
  6
Continuous
100
AcDbCircle
 10
2.6
 20
8.9000000998
 30
0.0
 40
0.1999999999999994
100
AcDbArc
 50
270.0
 51
0.0
  0
LINE
  5
F2
330
1F
100
AcDbEntity
  8
SK3
100
AcDbLine
 10
7.2
 20
5.0000000998
 30
0.0
 11
2.1
 21
5.0000000998
 31
0.0
  0
LINE
  5
F3
330
1F
100
AcDbEntity
  8
SK1
  6
Continuous
100
AcDbLine
 10
2.6
 20
8.7000000998
 30
0.0
 11
2.1
 21
8.7000000998
 31
0.0
  0
LINE
  5
F5
330
1F
100
AcDbEntity
  8
SK4
  6
Continuous
100
AcDbLine
 10
7.6
 20
0.0000000998
 30
0.0
 11
-23.9
 21
0.0000000998
 31
0.0
  0
DIMENSION
  5
10B
330
1F
100
AcDbEntity
  8
SK2
  6
Continuous
 62
   136
100
AcDbDimension
  2
DMBLK37
 10
-23.9
 20
20.0000000178
 30
0.0
 11
-8.1500002533
 21
20.0000000178
 31
0.0
 70
   160
  1
\A1;<>
 71
     5
 42
-1.0
  3
DIN
100
AcDbAlignedDimension
 13
7.6
 23
5.7445573612
 33
0.0
 14
-23.9
 24
6.3677371654
 34
0.0
100
AcDbRotatedDimension
  0
DIMENSION
  5
115
330
1F
100
AcDbEntity
  8
SK2
  6
Continuous
 62
   136
100
AcDbDimension
  2
DMBLK38
 10
0.0
 20
-19.1369647219
 30
0.0
 11
12.6077838824
 21
-19.1369647219
 31
0.0
 70
   160
  1
\A1;<>
 71
     5
 42
-1.0
  3
DIN
100
AcDbAlignedDimension
 13
7.6
 23
-7.7343810408
 33
0.0
 14
0.0
 24
-9.9919966977
 34
0.0
100
AcDbRotatedDimension
  0
INSERT
  5
129
330
1F
100
AcDbEntity
  8
SK2
 62
     7
100
AcDbBlockReference
  2
Nullpunkt
 10
0.0
 20
0.0000000998
 30
0.0
  0
INSERT
  5
134
330
1F
100
AcDbEntity
  8
SK2
 62
     7
100
AcDbBlockReference
  2
Einfügepunkt
 10
7.6
 20
0.0000000998
 30
0.0
  0
DIMENSION
  5
135
330
1F
100
AcDbEntity
  8
SK2
  6
Continuous
 62
   136
100
AcDbDimension
  2
DMBLK39
 10
16.8824076027
 20
-4.9999999002
 30
0.0
 11
16.8824076027
 21
9.9999997645
 31
0.0
 70
   161
  1
\A1;ø <>
 71
     5
 42
-1.0
  3
DIN
100
AcDbAlignedDimension
 13
7.2
 23
-4.9999999002
 33
0.0
 14
7.2
 24
5.0000000998
 34
0.0
  0
DIMENSION
  5
140
330
1F
100
AcDbEntity
  8
SK2
  6
Continuous
 62
   136
100
AcDbDimension
  2
DMBLK40
 10
-30.3838010877
 20
9.9919968972
 30
0.0
 11
-30.3838010877
 21
-0.0000000244
 31
0.0
 70
   161
  1
\A1;ø <>
 71
     5
 42
-1.0
  3
DIN
100
AcDbAlignedDimension
 13
0.0
 23
9.9919968972
 33
0.0
 14
0.0
 24
-9.9919966977
 34
0.0
1001
ACAD
1000
DSTYLE
1002
{
1070
   271
1070
     0
1070
   272
1070
     0
1070
     0
1002
}
  0
ENDSEC
  0
SECTION
  2
OBJECTS
  0
DICTIONARY
  5
C
330
0
100
AcDbDictionary
281
     1
  3
ACAD_GROUP
350
D
  3
ACAD_LAYOUT
350
1A
  3
ACAD_MATERIAL
350
3B
  3
ACAD_MLEADERSTYLE
350
14D
  3
ACAD_MLINESTYLE
350
17
  3
ACAD_PLOTSETTINGS
350
19
  3
ACAD_PLOTSTYLENAME
350
E
  3
ACAD_VISUALSTYLE
350
2A
  3
AcDbVariableDictionary
350
14B
  0
DICTIONARY
  5
D
102
{ACAD_REACTORS
330
C
102
}
330
C
100
AcDbDictionary
281
     1
  0
DICTIONARY
  5
1A
102
{ACAD_REACTORS
330
C
102
}
330
C
100
AcDbDictionary
281
     1
  3
Layout1
350
1E
  3
Model
350
22
  0
DICTIONARY
  5
3B
102
{ACAD_REACTORS
330
C
102
}
330
C
100
AcDbDictionary
281
     1
  3
ByBlock
350
3D
  3
ByLayer
350
3C
  3
Global
350
3E
  0
DICTIONARY
  5
14D
102
{ACAD_REACTORS
330
C
102
}
330
C
100
AcDbDictionary
281
     1
  0
DICTIONARY
  5
17
102
{ACAD_REACTORS
330
C
102
}
330
C
100
AcDbDictionary
281
     1
  3
Standard
350
18
  0
DICTIONARY
  5
19
102
{ACAD_REACTORS
330
C
102
}
330
C
100
AcDbDictionary
281
     1
  0
ACDBDICTIONARYWDFLT
  5
E
102
{ACAD_REACTORS
330
C
102
}
330
C
100
AcDbDictionary
281
     1
  3
Normal
350
F
100
AcDbDictionaryWithDefault
340
F
  0
DICTIONARY
  5
2A
102
{ACAD_REACTORS
330
C
102
}
330
C
100
AcDbDictionary
281
     1
  3
2dWireframe
350
2F
  3
3D Hidden
350
31
  3
3dWireframe
350
30
  3
Basic
350
32
  3
Brighten
350
36
  3
ColorChange
350
3A
  3
Conceptual
350
34
  3
Dim
350
35
  3
Facepattern
350
39
  3
Flat
350
2B
  3
FlatWithEdges
350
2C
  3
Gouraud
350
2D
  3
GouraudWithEdges
350
2E
  3
Linepattern
350
38
  3
Realistic
350
33
  3
Thicken
350
37
  0
DICTIONARY
  5
14B
102
{ACAD_REACTORS
330
C
102
}
330
C
100
AcDbDictionary
281
     1
  3
DIMASSOC
350
150
  3
HIDETEXT
350
151
  3
PSOLHEIGHT
350
14F
  3
PSOLWIDTH
350
14E
  0
LAYOUT
  5
1E
102
{ACAD_REACTORS
330
1A
102
}
330
1A
100
AcDbPlotSettings
  1

  2
none_device
  4

  6

 40
0.0
 41
0.0
 42
0.0
 43
0.0
 44
0.0
 45
0.0
 46
0.0
 47
0.0
 48
0.0
 49
0.0
140
0.0
141
0.0
142
1.0
143
1.0
 70
   688
 72
     0
 73
     0
 74
     5
  7

 75
    16
147
1.0
148
0.0
149
0.0
100
AcDbLayout
  1
Layout1
 70
     1
 71
     1
 10
0.0
 20
0.0
 11
210.0
 21
297.0
 12
0.0
 22
0.0
 32
0.0
 14
0.0
 24
0.0
 34
0.0
 15
210.0
 25
297.0
 35
0.0
146
0.0
 13
0.0
 23
0.0
 33
0.0
 16
1.0
 26
0.0
 36
0.0
 17
0.0
 27
1.0
 37
0.0
 76
     0
330
1B
  0
LAYOUT
  5
22
102
{ACAD_REACTORS
330
1A
102
}
330
1A
100
AcDbPlotSettings
  1

  2
none_device
  4

  6

 40
0.0
 41
0.0
 42
0.0
 43
0.0
 44
0.0
 45
0.0
 46
0.0
 47
0.0
 48
0.0
 49
0.0
140
0.0
141
0.0
142
1.0
143
1.0
 70
  1712
 72
     0
 73
     0
 74
     0
  7

 75
     0
147
1.0
148
0.0
149
0.0
100
AcDbLayout
  1
Model
 70
     1
 71
     0
 10
0.0
 20
0.0
 11
210.0
 21
297.0
 12
0.0
 22
0.0
 32
0.0
 14
0.0
 24
0.0
 34
0.0
 15
210.0
 25
297.0
 35
0.0
146
0.0
 13
0.0
 23
0.0
 33
0.0
 16
1.0
 26
0.0
 36
0.0
 17
0.0
 27
1.0
 37
0.0
 76
     0
330
1F
331
29
  0
MATERIAL
  5
3D
102
{ACAD_REACTORS
330
3B
102
}
102
{ACAD_XDICTIONARY
360
174
102
}
330
3B
100
AcDbMaterial
  1
ByBlock
  0
MATERIAL
  5
3C
102
{ACAD_REACTORS
330
3B
102
}
102
{ACAD_XDICTIONARY
360
172
102
}
330
3B
100
AcDbMaterial
  1
ByLayer
  0
MATERIAL
  5
3E
102
{ACAD_REACTORS
330
3B
102
}
102
{ACAD_XDICTIONARY
360
176
102
}
330
3B
100
AcDbMaterial
  1
Global
  0
MLINESTYLE
  5
18
102
{ACAD_REACTORS
330
17
102
}
330
17
100
AcDbMlineStyle
  2
Standard
 70
     0
  3

 62
   256
 51
90.0
 52
90.0
 71
     2
 49
0.5
 62
   256
  6
BYLAYER
 49
-0.5
 62
   256
  6
BYLAYER
  0
ACDBPLACEHOLDER
  5
F
102
{ACAD_REACTORS
330
E
102
}
330
E
  0
VISUALSTYLE
  5
2F
102
{ACAD_REACTORS
330
2A
102
}
102
{ACAD_XDICTIONARY
360
15A
102
}
330
2A
100
AcDbVisualStyle
  2
2dWireframe
 70
     4
 71
     0
 72
     2
 73
     0
 90
        0
 40
-0.6
 41
-30.0
 62
     5
 63
     7
 74
     1
 91
        4
 64
     7
 65
   257
 75
     1
175
     1
 42
1.0
 92
        0
 66
   257
 43
1.0
 76
     1
 77
     6
 78
     2
 67
     7
 79
     5
170
     0
171
     0
290
     0
174
     0
 93
        1
 44
0.0
173
     0
291
     0
 45
0.0
1001
ACAD
1000
AcDbSavedByObjectVersion
1070
     0
  0
VISUALSTYLE
  5
31
102
{ACAD_REACTORS
330
2A
102
}
102
{ACAD_XDICTIONARY
360
15E
102
}
330
2A
100
AcDbVisualStyle
  2
3D Hidden
 70
     6
 71
     1
 72
     2
 73
     2
 90
        0
 40
-0.6
 41
-30.0
 62
     5
 63
     7
 74
     2
 91
        2
 64
     7
 65
   257
 75
     2
175
     1
 42
40.0
 92
        0
 66
   257
 43
1.0
 76
     1
 77
     6
 78
     2
 67
     7
 79
     3
170
     0
171
     0
290
     0
174
     0
 93
        1
 44
0.0
173
     0
291
     0
 45
0.0
1001
ACAD
1000
AcDbSavedByObjectVersion
1070
     0
  0
VISUALSTYLE
  5
30
102
{ACAD_REACTORS
330
2A
102
}
102
{ACAD_XDICTIONARY
360
15C
102
}
330
2A
100
AcDbVisualStyle
  2
3dWireframe
 70
     5
 71
     0
 72
     2
 73
     0
 90
        0
 40
-0.6
 41
-30.0
 62
     5
 63
     7
 74
     1
 91
        4
 64
     7
 65
   257
 75
     1
175
     1
 42
1.0
 92
        0
 66
   257
 43
1.0
 76
     1
 77
     6
 78
     2
 67
     7
 79
     5
170
     0
171
     0
290
     0
174
     0
 93
        1
 44
0.0
173
     0
291
     0
 45
0.0
1001
ACAD
1000
AcDbSavedByObjectVersion
1070
     0
  0
VISUALSTYLE
  5
32
102
{ACAD_REACTORS
330
2A
102
}
102
{ACAD_XDICTIONARY
360
160
102
}
330
2A
100
AcDbVisualStyle
  2
Basic
 70
     7
 71
     1
 72
     0
 73
     1
 90
        0
 40
-0.6
 41
-30.0
 62
     5
 63
     7
 74
     0
 91
        4
 64
     7
 65
   257
 75
     1
175
     1
 42
1.0
 92
        8
 66
     7
 43
1.0
 76
     1
 77
     6
 78
     2
 67
     7
 79
     5
170
     0
171
     0
290
     0
174
     0
 93
        1
 44
0.0
173
     0
291
     1
 45
0.0
1001
ACAD
1000
AcDbSavedByObjectVersion
1070
     0
  0
VISUALSTYLE
  5
36
102
{ACAD_REACTORS
330
2A
102
}
102
{ACAD_XDICTIONARY
360
168
102
}
330
2A
100
AcDbVisualStyle
  2
Brighten
 70
    12
 71
     2
 72
     2
 73
     0
 90
        0
 40
-0.6
 41
-30.0
 62
     5
 63
     7
 74
     1
 91
        4
 64
     7
 65
   257
 75
     1
175
     1
 42
1.0
 92
        8
 66
     7
 43
1.0
 76
     1
 77
     6
 78
     2
 67
     7
 79
     5
170
     0
171
     0
290
     0
174
     0
 93
        1
 44
50.0
173
     0
291
     1
 45
0.0
1001
ACAD
1000
AcDbSavedByObjectVersion
1070
     0
  0
VISUALSTYLE
  5
3A
102
{ACAD_REACTORS
330
2A
102
}
102
{ACAD_XDICTIONARY
360
170
102
}
330
2A
100
AcDbVisualStyle
  2
ColorChange
 70
    16
 71
     2
 72
     2
 73
     3
 90
        0
 40
-0.6
 41
-30.0
 62
     5
 63
     8
 74
     1
 91
        4
 64
     7
 65
   257
 75
     1
175
     1
 42
1.0
 92
        8
 66
     8
 43
1.0
 76
     1
 77
     6
 78
     2
 67
     7
 79
     5
170
     0
171
     0
290
     0
174
     0
 93
        1
 44
0.0
173
     0
291
     1
 45
0.0
1001
ACAD
1000
AcDbSavedByObjectVersion
1070
     0
  0
VISUALSTYLE
  5
34
102
{ACAD_REACTORS
330
2A
102
}
102
{ACAD_XDICTIONARY
360
164
102
}
330
2A
100
AcDbVisualStyle
  2
Conceptual
 70
     9
 71
     3
 72
     2
 73
     0
 90
        0
 40
-0.6
 41
-30.0
 62
     5
 63
     7
 74
     2
 91
        2
 64
     7
 65
   257
 75
     1
175
     1
 42
40.0
 92
        8
 66
     7
 43
1.0
 76
     1
 77
     6
 78
     2
 67
     7
 79
     3
170
     0
171
     0
290
     0
174
     0
 93
        1
 44
0.0
173
     0
291
     0
 45
0.0
1001
ACAD
1000
AcDbSavedByObjectVersion
1070
     0
  0
VISUALSTYLE
  5
35
102
{ACAD_REACTORS
330
2A
102
}
102
{ACAD_XDICTIONARY
360
166
102
}
330
2A
100
AcDbVisualStyle
  2
Dim
 70
    11
 71
     2
 72
     2
 73
     0
 90
        0
 40
-0.6
 41
-30.0
 62
     5
 63
     7
 74
     1
 91
        4
 64
     7
 65
   257
 75
     1
175
     1
 42
1.0
 92
        8
 66
     7
 43
1.0
 76
     1
 77
     6
 78
     2
 67
     7
 79
     5
170
     0
171
     0
290
     0
174
     0
 93
        1
 44
-50.0
173
     0
291
     1
 45
0.0
1001
ACAD
1000
AcDbSavedByObjectVersion
1070
     0
  0
VISUALSTYLE
  5
39
102
{ACAD_REACTORS
330
2A
102
}
102
{ACAD_XDICTIONARY
360
16E
102
}
330
2A
100
AcDbVisualStyle
  2
Facepattern
 70
    15
 71
     2
 72
     2
 73
     0
 90
        0
 40
-0.6
 41
-30.0
 62
     5
 63
     7
 74
     1
 91
        4
 64
     7
 65
   257
 75
     1
175
     1
 42
1.0
 92
        8
 66
     7
 43
1.0
 76
     1
 77
     6
 78
     2
 67
     7
 79
     5
170
     0
171
     0
290
     0
174
     0
 93
        1
 44
0.0
173
     0
291
     1
 45
0.0
1001
ACAD
1000
AcDbSavedByObjectVersion
1070
     0
  0
VISUALSTYLE
  5
2B
102
{ACAD_REACTORS
330
2A
102
}
102
{ACAD_XDICTIONARY
360
152
102
}
330
2A
100
AcDbVisualStyle
  2
Flat
 70
     0
 71
     2
 72
     1
 73
     1
 90
        2
 40
-0.6
 41
30.0
 62
     5
 63
     7
 74
     0
 91
        4
 64
     7
 65
   257
 75
     1
175
     1
 42
1.0
 92
        8
 66
     7
 43
1.0
 76
     1
 77
     6
 78
     2
 67
     7
 79
     5
170
     0
171
     0
290
     0
174
     0
 93
       13
 44
0.0
173
     0
291
     1
 45
0.0
1001
ACAD
1000
AcDbSavedByObjectVersion
1070
     0
  0
VISUALSTYLE
  5
2C
102
{ACAD_REACTORS
330
2A
102
}
102
{ACAD_XDICTIONARY
360
154
102
}
330
2A
100
AcDbVisualStyle
  2
FlatWithEdges
 70
     1
 71
     2
 72
     1
 73
     1
 90
        2
 40
-0.6
 41
30.0
 62
     5
 63
     7
 74
     1
 91
        4
 64
     7
 65
   257
 75
     1
175
     1
 42
1.0
 92
        0
 66
   257
 43
1.0
 76
     1
 77
     6
 78
     2
 67
     7
 79
     5
170
     0
171
     0
290
     0
174
     0
 93
       13
 44
0.0
173
     0
291
     1
 45
0.0
1001
ACAD
1000
AcDbSavedByObjectVersion
1070
     0
  0
VISUALSTYLE
  5
2D
102
{ACAD_REACTORS
330
2A
102
}
102
{ACAD_XDICTIONARY
360
156
102
}
330
2A
100
AcDbVisualStyle
  2
Gouraud
 70
     2
 71
     2
 72
     2
 73
     1
 90
        2
 40
-0.6
 41
30.0
 62
     5
 63
     7
 74
     0
 91
        4
 64
     7
 65
   257
 75
     1
175
     1
 42
1.0
 92
        0
 66
     7
 43
1.0
 76
     1
 77
     6
 78
     2
 67
     7
 79
     5
170
     0
171
     0
290
     0
174
     0
 93
       13
 44
0.0
173
     0
291
     1
 45
0.0
1001
ACAD
1000
AcDbSavedByObjectVersion
1070
     0
  0
VISUALSTYLE
  5
2E
102
{ACAD_REACTORS
330
2A
102
}
102
{ACAD_XDICTIONARY
360
158
102
}
330
2A
100
AcDbVisualStyle
  2
GouraudWithEdges
 70
     3
 71
     2
 72
     2
 73
     1
 90
        2
 40
-0.6
 41
30.0
 62
     5
 63
     7
 74
     1
 91
        4
 64
     7
 65
   257
 75
     1
175
     1
 42
1.0
 92
        0
 66
   257
 43
1.0
 76
     1
 77
     6
 78
     2
 67
     7
 79
     5
170
     0
171
     0
290
     0
174
     0
 93
       13
 44
0.0
173
     0
291
     1
 45
0.0
1001
ACAD
1000
AcDbSavedByObjectVersion
1070
     0
  0
VISUALSTYLE
  5
38
102
{ACAD_REACTORS
330
2A
102
}
102
{ACAD_XDICTIONARY
360
16C
102
}
330
2A
100
AcDbVisualStyle
  2
Linepattern
 70
    14
 71
     2
 72
     2
 73
     0
 90
        0
 40
-0.6
 41
-30.0
 62
     5
 63
     7
 74
     1
 91
        4
 64
     7
 65
   257
 75
     7
175
     7
 42
1.0
 92
        8
 66
     7
 43
1.0
 76
     1
 77
     6
 78
     2
 67
     7
 79
     5
170
     0
171
     0
290
     0
174
     0
 93
        1
 44
0.0
173
     0
291
     1
 45
0.0
1001
ACAD
1000
AcDbSavedByObjectVersion
1070
     0
  0
VISUALSTYLE
  5
33
102
{ACAD_REACTORS
330
2A
102
}
102
{ACAD_XDICTIONARY
360
162
102
}
330
2A
100
AcDbVisualStyle
  2
Realistic
 70
     8
 71
     2
 72
     2
 73
     0
 90
        0
 40
-0.6
 41
-30.0
 62
     5
 63
     7
 74
     1
 91
        0
 64
     7
 65
   257
 75
     1
175
     1
 42
1.0
 92
        8
 66
     8
 43
1.0
 76
     1
 77
     6
 78
     2
 67
     7
 79
     5
170
     0
171
     0
290
     0
174
     0
 93
       13
 44
0.0
173
     0
291
     0
 45
0.0
1001
ACAD
1000
AcDbSavedByObjectVersion
1070
     0
  0
VISUALSTYLE
  5
37
102
{ACAD_REACTORS
330
2A
102
}
102
{ACAD_XDICTIONARY
360
16A
102
}
330
2A
100
AcDbVisualStyle
  2
Thicken
 70
    13
 71
     2
 72
     2
 73
     0
 90
        0
 40
-0.6
 41
-30.0
 62
     5
 63
     7
 74
     1
 91
        4
 64
     7
 65
   257
 75
     1
175
     1
 42
1.0
 92
       12
 66
     7
 43
1.0
 76
     1
 77
     6
 78
     2
 67
     7
 79
     5
170
     0
171
     0
290
     0
174
     0
 93
        1
 44
0.0
173
     0
291
     1
 45
0.0
1001
ACAD
1000
AcDbSavedByObjectVersion
1070
     0
  0
DICTIONARYVAR
  5
150
102
{ACAD_REACTORS
330
14B
102
}
330
14B
100
DictionaryVariables
280
     0
  1
2
  0
DICTIONARYVAR
  5
151
102
{ACAD_REACTORS
330
14B
102
}
330
14B
100
DictionaryVariables
280
     0
  1
1
  0
DICTIONARYVAR
  5
14F
102
{ACAD_REACTORS
330
14B
102
}
330
14B
100
DictionaryVariables
280
     0
  1
80.000000
  0
DICTIONARYVAR
  5
14E
102
{ACAD_REACTORS
330
14B
102
}
330
14B
100
DictionaryVariables
280
     0
  1
5.000000
  0
DICTIONARY
  5
174
330
3D
100
AcDbDictionary
280
     1
281
     1
  3
ACAD_XREC_ROUNDTRIP
360
175
  0
DICTIONARY
  5
172
330
3C
100
AcDbDictionary
280
     1
281
     1
  3
ACAD_XREC_ROUNDTRIP
360
173
  0
DICTIONARY
  5
176
330
3E
100
AcDbDictionary
280
     1
281
     1
  3
ACAD_XREC_ROUNDTRIP
360
177
  0
DICTIONARY
  5
15A
330
2F
100
AcDbDictionary
280
     1
281
     1
  3
ACAD_XREC_ROUNDTRIP
360
15B
  0
DICTIONARY
  5
15E
330
31
100
AcDbDictionary
280
     1
281
     1
  3
ACAD_XREC_ROUNDTRIP
360
15F
  0
DICTIONARY
  5
15C
330
30
100
AcDbDictionary
280
     1
281
     1
  3
ACAD_XREC_ROUNDTRIP
360
15D
  0
DICTIONARY
  5
160
330
32
100
AcDbDictionary
280
     1
281
     1
  3
ACAD_XREC_ROUNDTRIP
360
161
  0
DICTIONARY
  5
168
330
36
100
AcDbDictionary
280
     1
281
     1
  3
ACAD_XREC_ROUNDTRIP
360
169
  0
DICTIONARY
  5
170
330
3A
100
AcDbDictionary
280
     1
281
     1
  3
ACAD_XREC_ROUNDTRIP
360
171
  0
DICTIONARY
  5
164
330
34
100
AcDbDictionary
280
     1
281
     1
  3
ACAD_XREC_ROUNDTRIP
360
165
  0
DICTIONARY
  5
166
330
35
100
AcDbDictionary
280
     1
281
     1
  3
ACAD_XREC_ROUNDTRIP
360
167
  0
DICTIONARY
  5
16E
330
39
100
AcDbDictionary
280
     1
281
     1
  3
ACAD_XREC_ROUNDTRIP
360
16F
  0
DICTIONARY
  5
152
330
2B
100
AcDbDictionary
280
     1
281
     1
  3
ACAD_XREC_ROUNDTRIP
360
153
  0
DICTIONARY
  5
154
330
2C
100
AcDbDictionary
280
     1
281
     1
  3
ACAD_XREC_ROUNDTRIP
360
155
  0
DICTIONARY
  5
156
330
2D
100
AcDbDictionary
280
     1
281
     1
  3
ACAD_XREC_ROUNDTRIP
360
157
  0
DICTIONARY
  5
158
330
2E
100
AcDbDictionary
280
     1
281
     1
  3
ACAD_XREC_ROUNDTRIP
360
159
  0
DICTIONARY
  5
16C
330
38
100
AcDbDictionary
280
     1
281
     1
  3
ACAD_XREC_ROUNDTRIP
360
16D
  0
DICTIONARY
  5
162
330
33
100
AcDbDictionary
280
     1
281
     1
  3
ACAD_XREC_ROUNDTRIP
360
163
  0
DICTIONARY
  5
16A
330
37
100
AcDbDictionary
280
     1
281
     1
  3
ACAD_XREC_ROUNDTRIP
360
16B
  0
XRECORD
  5
175
102
{ACAD_REACTORS
330
174
102
}
330
174
100
AcDbXrecord
280
     1
102
MATERIAL
148
0.0
149
0.0
149
0.0
 93
        0
 94
      127
282
     0
 72
     1
 77
     1
171
     1
175
     1
179
     1
273
     0
  0
XRECORD
  5
173
102
{ACAD_REACTORS
330
172
102
}
330
172
100
AcDbXrecord
280
     1
102
MATERIAL
148
0.0
149
0.0
149
0.0
 93
        0
 94
      127
282
     0
 72
     1
 77
     1
171
     1
175
     1
179
     1
273
     0
  0
XRECORD
  5
177
102
{ACAD_REACTORS
330
176
102
}
330
176
100
AcDbXrecord
280
     1
102
MATERIAL
148
0.0
149
0.0
149
0.0
 93
        0
 94
      127
282
     0
 72
     1
 77
     1
171
     1
175
     1
179
     1
273
     0
  0
XRECORD
  5
15B
102
{ACAD_REACTORS
330
15A
102
}
330
15A
100
AcDbXrecord
280
     1
102
RTVSPropertyOp0
 70
     1
102
RTVSPropertyOp1
 70
     1
102
RTVSPropertyOp2
 70
     1
102
RTVSPropertyOp3
 70
     1
102
RTVSPropertyOp4
 70
     1
102
RTVSPropertyOp5
 70
     1
102
RTVSPropertyOp6
 70
     1
102
RTVSPropertyOp7
 70
     1
102
RTVSPropertyOp8
 70
     1
102
RTVSPropertyOp9
 70
     1
102
RTVSPropertyOp10
 70
     1
102
RTVSPropertyOp11
 70
     1
102
RTVSPropertyOp12
 70
     1
102
RTVSPropertyOp13
 70
     1
102
RTVSPropertyOp14
 70
     1
102
RTVSPropertyOp15
 70
     1
102
RTVSPropertyOp16
 70
     1
102
RTVSPropertyOp17
 70
     1
102
RTVSPropertyOp18
 70
     1
102
RTVSPropertyOp19
 70
     1
102
RTVSPropertyOp20
 70
     1
102
RTVSPropertyOp21
 70
     1
102
RTVSPropertyOp22
 70
     1
102
RTVSPropertyOp23
 70
     1
102
RTVSPropertyOp24
 70
     1
102
RTVSPropertyOp25
 70
     1
102
RTVSPropertyOp26
 70
     1
102
RTVSPropertyOp27
 70
     1
102
RTVSPropertyOp28
 70
     1
102
RTVSPropertyOp29
 70
     1
102
RTVSPropertyOp30
 70
     1
102
RTVSPropertyOp31
 70
     1
102
RTVSPropertyOp32
 70
     1
  0
XRECORD
  5
15F
102
{ACAD_REACTORS
330
15E
102
}
330
15E
100
AcDbXrecord
280
     1
102
RTVSPropertyOp0
 70
     1
102
RTVSPropertyOp1
 70
     1
102
RTVSPropertyOp2
 70
     1
102
RTVSPropertyOp3
 70
     1
102
RTVSPropertyOp4
 70
     1
102
RTVSPropertyOp5
 70
     1
102
RTVSPropertyOp6
 70
     1
102
RTVSPropertyOp7
 70
     1
102
RTVSPropertyOp8
 70
     1
102
RTVSPropertyOp9
 70
     1
102
RTVSPropertyOp10
 70
     1
102
RTVSPropertyOp11
 70
     1
102
RTVSPropertyOp12
 70
     1
102
RTVSPropertyOp13
 70
     1
102
RTVSPropertyOp14
 70
     1
102
RTVSPropertyOp15
 70
     1
102
RTVSPropertyOp16
 70
     1
102
RTVSPropertyOp17
 70
     1
102
RTVSPropertyOp18
 70
     1
102
RTVSPropertyOp19
 70
     1
102
RTVSPropertyOp20
 70
     1
102
RTVSPropertyOp21
 70
     1
102
RTVSPropertyOp22
 70
     1
102
RTVSPropertyOp23
 70
     1
102
RTVSPropertyOp24
 70
     1
102
RTVSPropertyOp25
 70
     1
102
RTVSPropertyOp26
 70
     1
102
RTVSPropertyOp27
 70
     1
102
RTVSPropertyOp28
 70
     1
102
RTVSPropertyOp29
 70
     1
102
RTVSPropertyOp30
 70
     1
102
RTVSPropertyOp31
 70
     1
102
RTVSPropertyOp32
 70
     1
  0
XRECORD
  5
15D
102
{ACAD_REACTORS
330
15C
102
}
330
15C
100
AcDbXrecord
280
     1
102
RTVSPropertyOp0
 70
     1
102
RTVSPropertyOp1
 70
     1
102
RTVSPropertyOp2
 70
     1
102
RTVSPropertyOp3
 70
     1
102
RTVSPropertyOp4
 70
     1
102
RTVSPropertyOp5
 70
     1
102
RTVSPropertyOp6
 70
     1
102
RTVSPropertyOp7
 70
     1
102
RTVSPropertyOp8
 70
     1
102
RTVSPropertyOp9
 70
     1
102
RTVSPropertyOp10
 70
     1
102
RTVSPropertyOp11
 70
     1
102
RTVSPropertyOp12
 70
     1
102
RTVSPropertyOp13
 70
     1
102
RTVSPropertyOp14
 70
     1
102
RTVSPropertyOp15
 70
     1
102
RTVSPropertyOp16
 70
     1
102
RTVSPropertyOp17
 70
     1
102
RTVSPropertyOp18
 70
     1
102
RTVSPropertyOp19
 70
     1
102
RTVSPropertyOp20
 70
     1
102
RTVSPropertyOp21
 70
     1
102
RTVSPropertyOp22
 70
     1
102
RTVSPropertyOp23
 70
     1
102
RTVSPropertyOp24
 70
     1
102
RTVSPropertyOp25
 70
     1
102
RTVSPropertyOp26
 70
     1
102
RTVSPropertyOp27
 70
     1
102
RTVSPropertyOp28
 70
     1
102
RTVSPropertyOp29
 70
     1
102
RTVSPropertyOp30
 70
     1
102
RTVSPropertyOp31
 70
     1
102
RTVSPropertyOp32
 70
     1
  0
XRECORD
  5
161
102
{ACAD_REACTORS
330
160
102
}
330
160
100
AcDbXrecord
280
     1
102
RTVSPropertyOp0
 70
     1
102
RTVSPropertyOp1
 70
     1
102
RTVSPropertyOp2
 70
     1
102
RTVSPropertyOp3
 70
     1
102
RTVSPropertyOp4
 70
     1
102
RTVSPropertyOp5
 70
     1
102
RTVSPropertyOp6
 70
     1
102
RTVSPropertyOp7
 70
     1
102
RTVSPropertyOp8
 70
     1
102
RTVSPropertyOp9
 70
     1
102
RTVSPropertyOp10
 70
     1
102
RTVSPropertyOp11
 70
     1
102
RTVSPropertyOp12
 70
     1
102
RTVSPropertyOp13
 70
     1
102
RTVSPropertyOp14
 70
     1
102
RTVSPropertyOp15
 70
     1
102
RTVSPropertyOp16
 70
     1
102
RTVSPropertyOp17
 70
     1
102
RTVSPropertyOp18
 70
     1
102
RTVSPropertyOp19
 70
     1
102
RTVSPropertyOp20
 70
     1
102
RTVSPropertyOp21
 70
     1
102
RTVSPropertyOp22
 70
     1
102
RTVSPropertyOp23
 70
     1
102
RTVSPropertyOp24
 70
     1
102
RTVSPropertyOp25
 70
     1
102
RTVSPropertyOp26
 70
     1
102
RTVSPropertyOp27
 70
     1
102
RTVSPropertyOp28
 70
     1
102
RTVSPropertyOp29
 70
     1
102
RTVSPropertyOp30
 70
     1
102
RTVSPropertyOp31
 70
     1
102
RTVSPropertyOp32
 70
     1
  0
XRECORD
  5
169
102
{ACAD_REACTORS
330
168
102
}
330
168
100
AcDbXrecord
280
     1
102
RTVSPropertyOp0
 70
     1
102
RTVSPropertyOp1
 70
     1
102
RTVSPropertyOp2
 70
     1
102
RTVSPropertyOp3
 70
     1
102
RTVSPropertyOp4
 70
     1
102
RTVSPropertyOp5
 70
     1
102
RTVSPropertyOp6
 70
     1
102
RTVSPropertyOp7
 70
     1
102
RTVSPropertyOp8
 70
     1
102
RTVSPropertyOp9
 70
     1
102
RTVSPropertyOp10
 70
     1
102
RTVSPropertyOp11
 70
     1
102
RTVSPropertyOp12
 70
     1
102
RTVSPropertyOp13
 70
     1
102
RTVSPropertyOp14
 70
     1
102
RTVSPropertyOp15
 70
     1
102
RTVSPropertyOp16
 70
     1
102
RTVSPropertyOp17
 70
     1
102
RTVSPropertyOp18
 70
     1
102
RTVSPropertyOp19
 70
     1
102
RTVSPropertyOp20
 70
     1
102
RTVSPropertyOp21
 70
     1
102
RTVSPropertyOp22
 70
     1
102
RTVSPropertyOp23
 70
     1
102
RTVSPropertyOp24
 70
     1
102
RTVSPropertyOp25
 70
     1
102
RTVSPropertyOp26
 70
     1
102
RTVSPropertyOp27
 70
     1
102
RTVSPropertyOp28
 70
     1
102
RTVSPropertyOp29
 70
     1
102
RTVSPropertyOp30
 70
     1
102
RTVSPropertyOp31
 70
     1
102
RTVSPropertyOp32
 70
     1
  0
XRECORD
  5
171
102
{ACAD_REACTORS
330
170
102
}
330
170
100
AcDbXrecord
280
     1
102
RTVSPropertyOp0
 70
     1
102
RTVSPropertyOp1
 70
     1
102
RTVSPropertyOp2
 70
     1
102
RTVSPropertyOp3
 70
     1
102
RTVSPropertyOp4
 70
     1
102
RTVSPropertyOp5
 70
     1
102
RTVSPropertyOp6
 70
     1
102
RTVSPropertyOp7
 70
     1
102
RTVSPropertyOp8
 70
     1
102
RTVSPropertyOp9
 70
     1
102
RTVSPropertyOp10
 70
     1
102
RTVSPropertyOp11
 70
     1
102
RTVSPropertyOp12
 70
     1
102
RTVSPropertyOp13
 70
     1
102
RTVSPropertyOp14
 70
     1
102
RTVSPropertyOp15
 70
     1
102
RTVSPropertyOp16
 70
     1
102
RTVSPropertyOp17
 70
     1
102
RTVSPropertyOp18
 70
     1
102
RTVSPropertyOp19
 70
     1
102
RTVSPropertyOp20
 70
     1
102
RTVSPropertyOp21
 70
     1
102
RTVSPropertyOp22
 70
     1
102
RTVSPropertyOp23
 70
     1
102
RTVSPropertyOp24
 70
     1
102
RTVSPropertyOp25
 70
     1
102
RTVSPropertyOp26
 70
     1
102
RTVSPropertyOp27
 70
     1
102
RTVSPropertyOp28
 70
     1
102
RTVSPropertyOp29
 70
     1
102
RTVSPropertyOp30
 70
     1
102
RTVSPropertyOp31
 70
     1
102
RTVSPropertyOp32
 70
     1
  0
XRECORD
  5
165
102
{ACAD_REACTORS
330
164
102
}
330
164
100
AcDbXrecord
280
     1
102
RTVSPropertyOp0
 70
     1
102
RTVSPropertyOp1
 70
     1
102
RTVSPropertyOp2
 70
     1
102
RTVSPropertyOp3
 70
     1
102
RTVSPropertyOp4
 70
     1
102
RTVSPropertyOp5
 70
     1
102
RTVSPropertyOp6
 70
     1
102
RTVSPropertyOp7
 70
     1
102
RTVSPropertyOp8
 70
     1
102
RTVSPropertyOp9
 70
     1
102
RTVSPropertyOp10
 70
     1
102
RTVSPropertyOp11
 70
     1
102
RTVSPropertyOp12
 70
     1
102
RTVSPropertyOp13
 70
     1
102
RTVSPropertyOp14
 70
     1
102
RTVSPropertyOp15
 70
     1
102
RTVSPropertyOp16
 70
     1
102
RTVSPropertyOp17
 70
     1
102
RTVSPropertyOp18
 70
     1
102
RTVSPropertyOp19
 70
     1
102
RTVSPropertyOp20
 70
     1
102
RTVSPropertyOp21
 70
     1
102
RTVSPropertyOp22
 70
     1
102
RTVSPropertyOp23
 70
     1
102
RTVSPropertyOp24
 70
     1
102
RTVSPropertyOp25
 70
     1
102
RTVSPropertyOp26
 70
     1
102
RTVSPropertyOp27
 70
     1
102
RTVSPropertyOp28
 70
     1
102
RTVSPropertyOp29
 70
     1
102
RTVSPropertyOp30
 70
     1
102
RTVSPropertyOp31
 70
     1
102
RTVSPropertyOp32
 70
     1
  0
XRECORD
  5
167
102
{ACAD_REACTORS
330
166
102
}
330
166
100
AcDbXrecord
280
     1
102
RTVSPropertyOp0
 70
     1
102
RTVSPropertyOp1
 70
     1
102
RTVSPropertyOp2
 70
     1
102
RTVSPropertyOp3
 70
     1
102
RTVSPropertyOp4
 70
     1
102
RTVSPropertyOp5
 70
     1
102
RTVSPropertyOp6
 70
     1
102
RTVSPropertyOp7
 70
     1
102
RTVSPropertyOp8
 70
     1
102
RTVSPropertyOp9
 70
     1
102
RTVSPropertyOp10
 70
     1
102
RTVSPropertyOp11
 70
     1
102
RTVSPropertyOp12
 70
     1
102
RTVSPropertyOp13
 70
     1
102
RTVSPropertyOp14
 70
     1
102
RTVSPropertyOp15
 70
     1
102
RTVSPropertyOp16
 70
     1
102
RTVSPropertyOp17
 70
     1
102
RTVSPropertyOp18
 70
     1
102
RTVSPropertyOp19
 70
     1
102
RTVSPropertyOp20
 70
     1
102
RTVSPropertyOp21
 70
     1
102
RTVSPropertyOp22
 70
     1
102
RTVSPropertyOp23
 70
     1
102
RTVSPropertyOp24
 70
     1
102
RTVSPropertyOp25
 70
     1
102
RTVSPropertyOp26
 70
     1
102
RTVSPropertyOp27
 70
     1
102
RTVSPropertyOp28
 70
     1
102
RTVSPropertyOp29
 70
     1
102
RTVSPropertyOp30
 70
     1
102
RTVSPropertyOp31
 70
     1
102
RTVSPropertyOp32
 70
     1
  0
XRECORD
  5
16F
102
{ACAD_REACTORS
330
16E
102
}
330
16E
100
AcDbXrecord
280
     1
102
RTVSPropertyOp0
 70
     1
102
RTVSPropertyOp1
 70
     1
102
RTVSPropertyOp2
 70
     1
102
RTVSPropertyOp3
 70
     1
102
RTVSPropertyOp4
 70
     1
102
RTVSPropertyOp5
 70
     1
102
RTVSPropertyOp6
 70
     1
102
RTVSPropertyOp7
 70
     1
102
RTVSPropertyOp8
 70
     1
102
RTVSPropertyOp9
 70
     1
102
RTVSPropertyOp10
 70
     1
102
RTVSPropertyOp11
 70
     1
102
RTVSPropertyOp12
 70
     1
102
RTVSPropertyOp13
 70
     1
102
RTVSPropertyOp14
 70
     1
102
RTVSPropertyOp15
 70
     1
102
RTVSPropertyOp16
 70
     1
102
RTVSPropertyOp17
 70
     1
102
RTVSPropertyOp18
 70
     1
102
RTVSPropertyOp19
 70
     1
102
RTVSPropertyOp20
 70
     1
102
RTVSPropertyOp21
 70
     1
102
RTVSPropertyOp22
 70
     1
102
RTVSPropertyOp23
 70
     1
102
RTVSPropertyOp24
 70
     1
102
RTVSPropertyOp25
 70
     1
102
RTVSPropertyOp26
 70
     1
102
RTVSPropertyOp27
 70
     1
102
RTVSPropertyOp28
 70
     1
102
RTVSPropertyOp29
 70
     1
102
RTVSPropertyOp30
 70
     1
102
RTVSPropertyOp31
 70
     1
102
RTVSPropertyOp32
 70
     1
  0
XRECORD
  5
153
102
{ACAD_REACTORS
330
152
102
}
330
152
100
AcDbXrecord
280
     1
102
RTVSPropertyOp0
 70
     1
102
RTVSPropertyOp1
 70
     1
102
RTVSPropertyOp2
 70
     1
102
RTVSPropertyOp3
 70
     1
102
RTVSPropertyOp4
 70
     1
102
RTVSPropertyOp5
 70
     1
102
RTVSPropertyOp6
 70
     1
102
RTVSPropertyOp7
 70
     1
102
RTVSPropertyOp8
 70
     1
102
RTVSPropertyOp9
 70
     1
102
RTVSPropertyOp10
 70
     1
102
RTVSPropertyOp11
 70
     1
102
RTVSPropertyOp12
 70
     1
102
RTVSPropertyOp13
 70
     1
102
RTVSPropertyOp14
 70
     1
102
RTVSPropertyOp15
 70
     1
102
RTVSPropertyOp16
 70
     1
102
RTVSPropertyOp17
 70
     1
102
RTVSPropertyOp18
 70
     1
102
RTVSPropertyOp19
 70
     1
102
RTVSPropertyOp20
 70
     1
102
RTVSPropertyOp21
 70
     1
102
RTVSPropertyOp22
 70
     1
102
RTVSPropertyOp23
 70
     1
102
RTVSPropertyOp24
 70
     1
102
RTVSPropertyOp25
 70
     1
102
RTVSPropertyOp26
 70
     1
102
RTVSPropertyOp27
 70
     1
102
RTVSPropertyOp28
 70
     1
102
RTVSPropertyOp29
 70
     1
102
RTVSPropertyOp30
 70
     1
102
RTVSPropertyOp31
 70
     1
102
RTVSPropertyOp32
 70
     1
  0
XRECORD
  5
155
102
{ACAD_REACTORS
330
154
102
}
330
154
100
AcDbXrecord
280
     1
102
RTVSPropertyOp0
 70
     1
102
RTVSPropertyOp1
 70
     1
102
RTVSPropertyOp2
 70
     1
102
RTVSPropertyOp3
 70
     1
102
RTVSPropertyOp4
 70
     1
102
RTVSPropertyOp5
 70
     1
102
RTVSPropertyOp6
 70
     1
102
RTVSPropertyOp7
 70
     1
102
RTVSPropertyOp8
 70
     1
102
RTVSPropertyOp9
 70
     1
102
RTVSPropertyOp10
 70
     1
102
RTVSPropertyOp11
 70
     1
102
RTVSPropertyOp12
 70
     1
102
RTVSPropertyOp13
 70
     1
102
RTVSPropertyOp14
 70
     1
102
RTVSPropertyOp15
 70
     1
102
RTVSPropertyOp16
 70
     1
102
RTVSPropertyOp17
 70
     1
102
RTVSPropertyOp18
 70
     1
102
RTVSPropertyOp19
 70
     1
102
RTVSPropertyOp20
 70
     1
102
RTVSPropertyOp21
 70
     1
102
RTVSPropertyOp22
 70
     1
102
RTVSPropertyOp23
 70
     1
102
RTVSPropertyOp24
 70
     1
102
RTVSPropertyOp25
 70
     1
102
RTVSPropertyOp26
 70
     1
102
RTVSPropertyOp27
 70
     1
102
RTVSPropertyOp28
 70
     1
102
RTVSPropertyOp29
 70
     1
102
RTVSPropertyOp30
 70
     1
102
RTVSPropertyOp31
 70
     1
102
RTVSPropertyOp32
 70
     1
  0
XRECORD
  5
157
102
{ACAD_REACTORS
330
156
102
}
330
156
100
AcDbXrecord
280
     1
102
RTVSPropertyOp0
 70
     1
102
RTVSPropertyOp1
 70
     1
102
RTVSPropertyOp2
 70
     1
102
RTVSPropertyOp3
 70
     1
102
RTVSPropertyOp4
 70
     1
102
RTVSPropertyOp5
 70
     1
102
RTVSPropertyOp6
 70
     1
102
RTVSPropertyOp7
 70
     1
102
RTVSPropertyOp8
 70
     1
102
RTVSPropertyOp9
 70
     1
102
RTVSPropertyOp10
 70
     1
102
RTVSPropertyOp11
 70
     1
102
RTVSPropertyOp12
 70
     1
102
RTVSPropertyOp13
 70
     1
102
RTVSPropertyOp14
 70
     1
102
RTVSPropertyOp15
 70
     1
102
RTVSPropertyOp16
 70
     1
102
RTVSPropertyOp17
 70
     1
102
RTVSPropertyOp18
 70
     1
102
RTVSPropertyOp19
 70
     1
102
RTVSPropertyOp20
 70
     1
102
RTVSPropertyOp21
 70
     1
102
RTVSPropertyOp22
 70
     1
102
RTVSPropertyOp23
 70
     1
102
RTVSPropertyOp24
 70
     1
102
RTVSPropertyOp25
 70
     1
102
RTVSPropertyOp26
 70
     1
102
RTVSPropertyOp27
 70
     1
102
RTVSPropertyOp28
 70
     1
102
RTVSPropertyOp29
 70
     1
102
RTVSPropertyOp30
 70
     1
102
RTVSPropertyOp31
 70
     1
102
RTVSPropertyOp32
 70
     1
  0
XRECORD
  5
159
102
{ACAD_REACTORS
330
158
102
}
330
158
100
AcDbXrecord
280
     1
102
RTVSPropertyOp0
 70
     1
102
RTVSPropertyOp1
 70
     1
102
RTVSPropertyOp2
 70
     1
102
RTVSPropertyOp3
 70
     1
102
RTVSPropertyOp4
 70
     1
102
RTVSPropertyOp5
 70
     1
102
RTVSPropertyOp6
 70
     1
102
RTVSPropertyOp7
 70
     1
102
RTVSPropertyOp8
 70
     1
102
RTVSPropertyOp9
 70
     1
102
RTVSPropertyOp10
 70
     1
102
RTVSPropertyOp11
 70
     1
102
RTVSPropertyOp12
 70
     1
102
RTVSPropertyOp13
 70
     1
102
RTVSPropertyOp14
 70
     1
102
RTVSPropertyOp15
 70
     1
102
RTVSPropertyOp16
 70
     1
102
RTVSPropertyOp17
 70
     1
102
RTVSPropertyOp18
 70
     1
102
RTVSPropertyOp19
 70
     1
102
RTVSPropertyOp20
 70
     1
102
RTVSPropertyOp21
 70
     1
102
RTVSPropertyOp22
 70
     1
102
RTVSPropertyOp23
 70
     1
102
RTVSPropertyOp24
 70
     1
102
RTVSPropertyOp25
 70
     1
102
RTVSPropertyOp26
 70
     1
102
RTVSPropertyOp27
 70
     1
102
RTVSPropertyOp28
 70
     1
102
RTVSPropertyOp29
 70
     1
102
RTVSPropertyOp30
 70
     1
102
RTVSPropertyOp31
 70
     1
102
RTVSPropertyOp32
 70
     1
  0
XRECORD
  5
16D
102
{ACAD_REACTORS
330
16C
102
}
330
16C
100
AcDbXrecord
280
     1
102
RTVSPropertyOp0
 70
     1
102
RTVSPropertyOp1
 70
     1
102
RTVSPropertyOp2
 70
     1
102
RTVSPropertyOp3
 70
     1
102
RTVSPropertyOp4
 70
     1
102
RTVSPropertyOp5
 70
     1
102
RTVSPropertyOp6
 70
     1
102
RTVSPropertyOp7
 70
     1
102
RTVSPropertyOp8
 70
     1
102
RTVSPropertyOp9
 70
     1
102
RTVSPropertyOp10
 70
     1
102
RTVSPropertyOp11
 70
     1
102
RTVSPropertyOp12
 70
     1
102
RTVSPropertyOp13
 70
     1
102
RTVSPropertyOp14
 70
     1
102
RTVSPropertyOp15
 70
     1
102
RTVSPropertyOp16
 70
     1
102
RTVSPropertyOp17
 70
     1
102
RTVSPropertyOp18
 70
     1
102
RTVSPropertyOp19
 70
     1
102
RTVSPropertyOp20
 70
     1
102
RTVSPropertyOp21
 70
     1
102
RTVSPropertyOp22
 70
     1
102
RTVSPropertyOp23
 70
     1
102
RTVSPropertyOp24
 70
     1
102
RTVSPropertyOp25
 70
     1
102
RTVSPropertyOp26
 70
     1
102
RTVSPropertyOp27
 70
     1
102
RTVSPropertyOp28
 70
     1
102
RTVSPropertyOp29
 70
     1
102
RTVSPropertyOp30
 70
     1
102
RTVSPropertyOp31
 70
     1
102
RTVSPropertyOp32
 70
     1
  0
XRECORD
  5
163
102
{ACAD_REACTORS
330
162
102
}
330
162
100
AcDbXrecord
280
     1
102
RTVSPropertyOp0
 70
     1
102
RTVSPropertyOp1
 70
     1
102
RTVSPropertyOp2
 70
     1
102
RTVSPropertyOp3
 70
     1
102
RTVSPropertyOp4
 70
     1
102
RTVSPropertyOp5
 70
     1
102
RTVSPropertyOp6
 70
     1
102
RTVSPropertyOp7
 70
     1
102
RTVSPropertyOp8
 70
     1
102
RTVSPropertyOp9
 70
     1
102
RTVSPropertyOp10
 70
     1
102
RTVSPropertyOp11
 70
     1
102
RTVSPropertyOp12
 70
     1
102
RTVSPropertyOp13
 70
     1
102
RTVSPropertyOp14
 70
     1
102
RTVSPropertyOp15
 70
     1
102
RTVSPropertyOp16
 70
     1
102
RTVSPropertyOp17
 70
     1
102
RTVSPropertyOp18
 70
     1
102
RTVSPropertyOp19
 70
     1
102
RTVSPropertyOp20
 70
     1
102
RTVSPropertyOp21
 70
     1
102
RTVSPropertyOp22
 70
     1
102
RTVSPropertyOp23
 70
     1
102
RTVSPropertyOp24
 70
     1
102
RTVSPropertyOp25
 70
     1
102
RTVSPropertyOp26
 70
     1
102
RTVSPropertyOp27
 70
     1
102
RTVSPropertyOp28
 70
     1
102
RTVSPropertyOp29
 70
     1
102
RTVSPropertyOp30
 70
     1
102
RTVSPropertyOp31
 70
     1
102
RTVSPropertyOp32
 70
     1
  0
XRECORD
  5
16B
102
{ACAD_REACTORS
330
16A
102
}
330
16A
100
AcDbXrecord
280
     1
102
RTVSPropertyOp0
 70
     1
102
RTVSPropertyOp1
 70
     1
102
RTVSPropertyOp2
 70
     1
102
RTVSPropertyOp3
 70
     1
102
RTVSPropertyOp4
 70
     1
102
RTVSPropertyOp5
 70
     1
102
RTVSPropertyOp6
 70
     1
102
RTVSPropertyOp7
 70
     1
102
RTVSPropertyOp8
 70
     1
102
RTVSPropertyOp9
 70
     1
102
RTVSPropertyOp10
 70
     1
102
RTVSPropertyOp11
 70
     1
102
RTVSPropertyOp12
 70
     1
102
RTVSPropertyOp13
 70
     1
102
RTVSPropertyOp14
 70
     1
102
RTVSPropertyOp15
 70
     1
102
RTVSPropertyOp16
 70
     1
102
RTVSPropertyOp17
 70
     1
102
RTVSPropertyOp18
 70
     1
102
RTVSPropertyOp19
 70
     1
102
RTVSPropertyOp20
 70
     1
102
RTVSPropertyOp21
 70
     1
102
RTVSPropertyOp22
 70
     1
102
RTVSPropertyOp23
 70
     1
102
RTVSPropertyOp24
 70
     1
102
RTVSPropertyOp25
 70
     1
102
RTVSPropertyOp26
 70
     1
102
RTVSPropertyOp27
 70
     1
102
RTVSPropertyOp28
 70
     1
102
RTVSPropertyOp29
 70
     1
102
RTVSPropertyOp30
 70
     1
102
RTVSPropertyOp31
 70
     1
102
RTVSPropertyOp32
 70
     1
  0
ENDSEC
  0
EOF
