  0
SECTION
  2
HEADER
  9
$ACADVER
  1
AC1015
  9
$ACADMAINTVER
 70
     6
  9
$DWGCODEPAGE
  3
ANSI_1252
  9
$INSBASE
 10
0.0
 20
0.0
 30
0.0
  9
$EXTMIN
 10
0.0
 20
0.0
 30
0.0
  9
$EXTMAX
 10
210.0
 20
297.0
 30
0.0
  9
$LIMMIN
 10
0.0
 20
0.0
  9
$LIMMAX
 10
210.0
 20
297.0
  9
$ORTHOMODE
 70
     0
  9
$REGENMODE
 70
     1
  9
$FILLMODE
 70
     1
  9
$QTEXTMODE
 70
     0
  9
$MIRRTEXT
 70
     1
  9
$LTSCALE
 40
1.0
  9
$ATTMODE
 70
     1
  9
$TEXTSIZE
 40
2.5
  9
$TRACEWID
 40
1.0
  9
$TEXTSTYLE
  7
Standard
  9
$CLAYER
  8
0
  9
$CELTYPE
  6
ByLayer
  9
$CECOLOR
 62
   256
  9
$CELTSCALE
 40
1.0
  9
$DISPSILH
 70
     0
  9
$DIMSCALE
 40
1.0
  9
$DIMASZ
 40
2.5
  9
$DIMEXO
 40
0.625
  9
$DIMDLI
 40
3.75
  9
$DIMRND
 40
0.0
  9
$DIMDLE
 40
0.0
  9
$DIMEXE
 40
1.25
  9
$DIMTP
 40
0.0
  9
$DIMTM
 40
0.0
  9
$DIMTXT
 40
2.5
  9
$DIMCEN
 40
2.5
  9
$DIMTSZ
 40
0.0
  9
$DIMTOL
 70
     0
  9
$DIMLIM
 70
     0
  9
$DIMTIH
 70
     0
  9
$DIMTOH
 70
     0
  9
$DIMSE1
 70
     0
  9
$DIMSE2
 70
     0
  9
$DIMTAD
 70
     1
  9
$DIMZIN
 70
     8
  9
$DIMBLK
  1

  9
$DIMASO
 70
     1
  9
$DIMSHO
 70
     1
  9
$DIMPOST
  1

  9
$DIMAPOST
  1

  9
$DIMALT
 70
     0
  9
$DIMALTD
 70
     3
  9
$DIMALTF
 40
0.0393700787
  9
$DIMLFAC
 40
1.0
  9
$DIMTOFL
 70
     1
  9
$DIMTVP
 40
0.0
  9
$DIMTIX
 70
     0
  9
$DIMSOXD
 70
     0
  9
$DIMSAH
 70
     0
  9
$DIMBLK1
  1

  9
$DIMBLK2
  1

  9
$DIMSTYLE
  2
ISO-25
  9
$DIMCLRD
 70
     0
  9
$DIMCLRE
 70
     0
  9
$DIMCLRT
 70
     0
  9
$DIMTFAC
 40
1.0
  9
$DIMGAP
 40
0.625
  9
$DIMJUST
 70
     0
  9
$DIMSD1
 70
     0
  9
$DIMSD2
 70
     0
  9
$DIMTOLJ
 70
     0
  9
$DIMTZIN
 70
     8
  9
$DIMALTZ
 70
     0
  9
$DIMALTTZ
 70
     0
  9
$DIMUPT
 70
     0
  9
$DIMDEC
 70
     2
  9
$DIMTDEC
 70
     2
  9
$DIMALTU
 70
     2
  9
$DIMALTTD
 70
     3
  9
$DIMTXSTY
  7
Standard
  9
$DIMAUNIT
 70
     0
  9
$DIMADEC
 70
     0
  9
$DIMALTRND
 40
0.0
  9
$DIMAZIN
 70
     0
  9
$DIMDSEP
 70
    44
  9
$DIMATFIT
 70
     3
  9
$DIMFRAC
 70
     0
  9
$DIMLDRBLK
  1

  9
$DIMLUNIT
 70
     2
  9
$DIMLWD
 70
    -2
  9
$DIMLWE
 70
    -2
  9
$DIMTMOVE
 70
     0
  9
$LUNITS
 70
     2
  9
$LUPREC
 70
     4
  9
$SKETCHINC
 40
1.0
  9
$FILLETRAD
 40
10.0
  9
$AUNITS
 70
     0
  9
$AUPREC
 70
     0
  9
$MENU
  1
.
  9
$ELEVATION
 40
0.0
  9
$PELEVATION
 40
0.0
  9
$THICKNESS
 40
0.0
  9
$LIMCHECK
 70
     0
  9
$CHAMFERA
 40
10.0
  9
$CHAMFERB
 40
10.0
  9
$CHAMFERC
 40
20.0
  9
$CHAMFERD
 40
0.0
  9
$SKPOLY
 70
     0
  9
$TDCREATE
 40
2457561.578959375
  9
$TDUCREATE
 40
2457561.495626042
  9
$TDUPDATE
 40
2457561.578961702
  9
$TDUUPDATE
 40
2457561.495628368
  9
$TDINDWG
 40
0.0000000116
  9
$TDUSRTIMER
 40
0.0000000116
  9
$USRTIMER
 70
     1
  9
$ANGBASE
 50
0.0
  9
$ANGDIR
 70
     0
  9
$PDMODE
 70
     0
  9
$PDSIZE
 40
0.0
  9
$PLINEWID
 40
0.0
  9
$SPLFRAME
 70
     0
  9
$SPLINETYPE
 70
     6
  9
$SPLINESEGS
 70
     8
  9
$HANDSEED
  5
1D3
  9
$SURFTAB1
 70
     6
  9
$SURFTAB2
 70
     6
  9
$SURFTYPE
 70
     6
  9
$SURFU
 70
     6
  9
$SURFV
 70
     6
  9
$UCSBASE
  2

  9
$UCSNAME
  2

  9
$UCSORG
 10
0.0
 20
0.0
 30
0.0
  9
$UCSXDIR
 10
1.0
 20
0.0
 30
0.0
  9
$UCSYDIR
 10
0.0
 20
1.0
 30
0.0
  9
$UCSORTHOREF
  2

  9
$UCSORTHOVIEW
 70
     0
  9
$UCSORGTOP
 10
0.0
 20
0.0
 30
0.0
  9
$UCSORGBOTTOM
 10
0.0
 20
0.0
 30
0.0
  9
$UCSORGLEFT
 10
0.0
 20
0.0
 30
0.0
  9
$UCSORGRIGHT
 10
0.0
 20
0.0
 30
0.0
  9
$UCSORGFRONT
 10
0.0
 20
0.0
 30
0.0
  9
$UCSORGBACK
 10
0.0
 20
0.0
 30
0.0
  9
$PUCSBASE
  2

  9
$PUCSNAME
  2

  9
$PUCSORG
 10
0.0
 20
0.0
 30
0.0
  9
$PUCSXDIR
 10
1.0
 20
0.0
 30
0.0
  9
$PUCSYDIR
 10
0.0
 20
1.0
 30
0.0
  9
$PUCSORTHOREF
  2

  9
$PUCSORTHOVIEW
 70
     0
  9
$PUCSORGTOP
 10
0.0
 20
0.0
 30
0.0
  9
$PUCSORGBOTTOM
 10
0.0
 20
0.0
 30
0.0
  9
$PUCSORGLEFT
 10
0.0
 20
0.0
 30
0.0
  9
$PUCSORGRIGHT
 10
0.0
 20
0.0
 30
0.0
  9
$PUCSORGFRONT
 10
0.0
 20
0.0
 30
0.0
  9
$PUCSORGBACK
 10
0.0
 20
0.0
 30
0.0
  9
$USERI1
 70
     0
  9
$USERI2
 70
     0
  9
$USERI3
 70
     0
  9
$USERI4
 70
     0
  9
$USERI5
 70
     0
  9
$USERR1
 40
0.0
  9
$USERR2
 40
0.0
  9
$USERR3
 40
0.0
  9
$USERR4
 40
0.0
  9
$USERR5
 40
0.0
  9
$WORLDVIEW
 70
     1
  9
$SHADEDGE
 70
     3
  9
$SHADEDIF
 70
    70
  9
$TILEMODE
 70
     1
  9
$MAXACTVP
 70
    64
  9
$PINSBASE
 10
0.0
 20
0.0
 30
0.0
  9
$PLIMCHECK
 70
     0
  9
$PEXTMIN
 10
0.0
 20
0.0
 30
0.0
  9
$PEXTMAX
 10
210.0
 20
297.0
 30
0.0
  9
$PLIMMIN
 10
0.0
 20
0.0
  9
$PLIMMAX
 10
210.0
 20
297.0
  9
$UNITMODE
 70
     0
  9
$VISRETAIN
 70
     1
  9
$PLINEGEN
 70
     0
  9
$PSLTSCALE
 70
     1
  9
$TREEDEPTH
 70
  3020
  9
$CMLSTYLE
  2
Standard
  9
$CMLJUST
 70
     0
  9
$CMLSCALE
 40
20.0
  9
$PROXYGRAPHICS
 70
     1
  9
$MEASUREMENT
 70
     1
  9
$CELWEIGHT
370
    -1
  9
$ENDCAPS
280
     0
  9
$JOINSTYLE
280
     0
  9
$LWDISPLAY
290
     0
  9
$INSUNITS
 70
     4
  9
$HYPERLINKBASE
  1

  9
$STYLESHEET
  1

  9
$XEDIT
290
     1
  9
$CEPSNTYPE
380
     0
  9
$PSTYLEMODE
290
     1
  9
$FINGERPRINTGUID
  2
{DCA9FCDC-D7BF-4C11-B427-A46DB8D7A3C4}
  9
$VERSIONGUID
  2
{FAEB1C32-E019-11D5-929B-00C0DF256EC4}
  9
$EXTNAMES
290
     1
  9
$PSVPSCALE
 40
0.0
  9
$OLESTARTUP
290
     0
  0
ENDSEC
  0
SECTION
  2
CLASSES
  0
CLASS
  1
ACDBDICTIONARYWDFLT
  2
AcDbDictionaryWithDefault
  3
ObjectDBX Classes
 90
        0
280
     0
281
     0
  0
CLASS
  1
VISUALSTYLE
  2
AcDbVisualStyle
  3
ObjectDBX Classes
 90
     4095
280
     0
281
     0
  0
CLASS
  1
MATERIAL
  2
AcDbMaterial
  3
ObjectDBX Classes
 90
     1153
280
     0
281
     0
  0
CLASS
  1
DICTIONARYVAR
  2
AcDbDictionaryVar
  3
ObjectDBX Classes
 90
        0
280
     0
281
     0
  0
CLASS
  1
ACDBPLACEHOLDER
  2
AcDbPlaceHolder
  3
ObjectDBX Classes
 90
        0
280
     0
281
     0
  0
CLASS
  1
LAYOUT
  2
AcDbLayout
  3
ObjectDBX Classes
 90
        0
280
     0
281
     0
  0
ENDSEC
  0
SECTION
  2
TABLES
  0
TABLE
  2
VPORT
  5
8
330
0
100
AcDbSymbolTable
 70
     1
  0
VPORT
  5
29
330
8
100
AcDbSymbolTableRecord
100
AcDbViewportTableRecord
  2
*Active
 70
     0
 10
0.0
 20
0.0
 11
1.0
 21
1.0
 12
344.1869158879
 22
148.5
 13
0.0
 23
0.0
 14
10.0
 24
10.0
 15
10.0
 25
10.0
 16
0.0
 26
0.0
 36
1.0
 17
0.0
 27
0.0
 37
0.0
 40
297.0
 41
1.9729729729
 42
50.0
 43
0.0
 44
0.0
 50
0.0
 51
0.0
 71
     0
 72
   100
 73
     1
 74
     3
 75
     0
 76
     0
 77
     0
 78
     0
281
     0
 65
     1
110
0.0
120
0.0
130
0.0
111
1.0
121
0.0
131
0.0
112
0.0
122
1.0
132
0.0
 79
     0
146
0.0
  0
ENDTAB
  0
TABLE
  2
LTYPE
  5
5
330
0
100
AcDbSymbolTable
 70
     2
  0
LTYPE
  5
14
330
5
100
AcDbSymbolTableRecord
100
AcDbLinetypeTableRecord
  2
ByBlock
 70
     0
  3

 72
    65
 73
     0
 40
0.0
  0
LTYPE
  5
15
330
5
100
AcDbSymbolTableRecord
100
AcDbLinetypeTableRecord
  2
ByLayer
 70
     0
  3

 72
    65
 73
     0
 40
0.0
  0
LTYPE
  5
16
330
5
100
AcDbSymbolTableRecord
100
AcDbLinetypeTableRecord
  2
Continuous
 70
     0
  3
Solid line
 72
    65
 73
     0
 40
0.0
  0
LTYPE
  5
66
330
5
100
AcDbSymbolTableRecord
100
AcDbLinetypeTableRecord
  2
HIDDEN2
 70
     0
  3
Hidden (.5x) _ _ _ _ _ _ _ _ _ _ _ _ _ _ _ _ _ 
 72
    65
 73
     2
 40
4.7625
 49
3.175
 74
     4
 75
     0
340
0
 46
0.0
 50
0.0
 44
0.0
 45
0.0
 49
-1.5875
 74
     4
 75
     0
340
0
 46
0.0
 50
0.0
 44
0.0
 45
0.0
  0
ENDTAB
  0
TABLE
  2
LAYER
  5
2
330
0
100
AcDbSymbolTable
 70
     5
  0
LAYER
  5
10
330
2
100
AcDbSymbolTableRecord
100
AcDbLayerTableRecord
  2
0
 70
     0
 62
     7
  6
Continuous
370
    -3
390
F
  0
LAYER
  5
3F
330
2
100
AcDbSymbolTableRecord
100
AcDbLayerTableRecord
  2
SK2
 70
     0
 62
     7
  6
Continuous
370
    15
390
F
  0
LAYER
  5
40
330
2
100
AcDbSymbolTableRecord
100
AcDbLayerTableRecord
  2
SK1
 70
     0
 62
     4
  6
Continuous
370
    18
390
F
  0
LAYER
  5
65
330
2
100
AcDbSymbolTableRecord
100
AcDbLayerTableRecord
  2
SK3
 70
     0
 62
     1
  6
HIDDEN2
370
    15
390
F
  0
LAYER
  5
166
330
2
100
AcDbSymbolTableRecord
100
AcDbLayerTableRecord
  2
SK4
 70
     0
 62
     2
  6
Continuous
370
    13
390
F
  0
ENDTAB
  0
TABLE
  2
STYLE
  5
3
330
0
100
AcDbSymbolTable
 70
     2
  0
STYLE
  5
11
330
3
100
AcDbSymbolTableRecord
100
AcDbTextStyleTableRecord
  2
Standard
 70
     0
 40
0.0
 41
1.0
 50
0.0
 71
     0
 42
2.5
  3
txt
  4

  0
STYLE
  5
17A
330
3
100
AcDbSymbolTableRecord
100
AcDbTextStyleTableRecord
  2
SEACAD_Solid_Edge_ISO
 70
     0
 40
0.0
 41
1.0
 50
0.0
 71
     0
 42
0.2
  3
seiso.ttf
  4

1001
ACAD
1000
Solid Edge ISO
1071
        0
  0
ENDTAB
  0
TABLE
  2
VIEW
  5
6
330
0
100
AcDbSymbolTable
 70
     0
  0
ENDTAB
  0
TABLE
  2
UCS
  5
7
330
0
100
AcDbSymbolTable
 70
     0
  0
ENDTAB
  0
TABLE
  2
APPID
  5
9
330
0
100
AcDbSymbolTable
 70
     1
  0
APPID
  5
12
330
9
100
AcDbSymbolTableRecord
100
AcDbRegAppTableRecord
  2
ACAD
 70
     0
  0
ENDTAB
  0
TABLE
  2
DIMSTYLE
  5
A
330
0
100
AcDbSymbolTable
 70
     3
100
AcDbDimStyleTable
  0
DIMSTYLE
105
27
330
A
100
AcDbSymbolTableRecord
100
AcDbDimStyleTableRecord
  2
ISO-25
 70
     0
 41
2.5
 42
0.625
 43
3.75
 44
1.25
 73
     0
 74
     0
 77
     1
 78
     8
140
2.5
141
2.5
143
0.0393700787
147
0.625
171
     3
172
     1
178
     0
271
     2
272
     2
274
     3
278
    44
283
     0
284
     8
340
11
  0
DIMSTYLE
105
168
330
A
100
AcDbSymbolTableRecord
100
AcDbDimStyleTableRecord
  2
Standard
 70
     0
178
     0
340
11
  0
DIMSTYLE
105
17B
102
{ACAD_REACTORS
330
17C
330
187
330
191
330
19C
102
}
330
A
100
AcDbSymbolTableRecord
100
AcDbDimStyleTableRecord
  2
DIN
 70
     0
 41
3.5
 42
0.0
 44
1.75
 73
     0
 74
     0
 77
     1
 78
     8
140
3.5
141
1.75
147
1.75
172
     1
173
     1
178
     0
179
     3
271
     2
272
     2
278
    44
284
     8
340
17A
343
175
344
175
  0
ENDTAB
  0
TABLE
  2
BLOCK_RECORD
  5
1
330
0
100
AcDbSymbolTable
 70
    10
  0
BLOCK_RECORD
  5
1F
330
1
100
AcDbSymbolTableRecord
100
AcDbBlockTableRecord
  2
*Model_Space
340
22
  0
BLOCK_RECORD
  5
1B
330
1
100
AcDbSymbolTableRecord
100
AcDbBlockTableRecord
  2
*Paper_Space
340
1E
  0
BLOCK_RECORD
  5
41
330
1
100
AcDbSymbolTableRecord
100
AcDbBlockTableRecord
  2
Nullpunkt
340
0
102
{BLKREFS
331
4B
102
}
  0
BLOCK_RECORD
  5
4C
330
1
100
AcDbSymbolTableRecord
100
AcDbBlockTableRecord
  2
Einfügepunkt
340
0
102
{BLKREFS
331
56
102
}
  0
BLOCK_RECORD
  5
169
330
1
100
AcDbSymbolTableRecord
100
AcDbBlockTableRecord
  2
_OBLIQUE
340
0
  0
BLOCK_RECORD
  5
16D
330
1
100
AcDbSymbolTableRecord
100
AcDbBlockTableRecord
  2
_DOT
340
0
  0
BLOCK_RECORD
  5
175
330
1
100
AcDbSymbolTableRecord
100
AcDbBlockTableRecord
  2
_SE_FILLED
340
0
  0
BLOCK_RECORD
  5
17D
330
1
100
AcDbSymbolTableRecord
100
AcDbBlockTableRecord
  2
DMBLK90
340
0
  0
BLOCK_RECORD
  5
188
330
1
100
AcDbSymbolTableRecord
100
AcDbBlockTableRecord
  2
DMBLK91
340
0
  0
BLOCK_RECORD
  5
192
330
1
100
AcDbSymbolTableRecord
100
AcDbBlockTableRecord
  2
DMBLK92
340
0
  0
BLOCK_RECORD
  5
19D
330
1
100
AcDbSymbolTableRecord
100
AcDbBlockTableRecord
  2
DMBLK93
340
0
  0
ENDTAB
  0
ENDSEC
  0
SECTION
  2
BLOCKS
  0
BLOCK
  5
20
330
1F
100
AcDbEntity
  8
0
100
AcDbBlockBegin
  2
*Model_Space
 70
     0
 10
0.0
 20
0.0
 30
0.0
  3
*Model_Space
  1

  0
ENDBLK
  5
21
330
1F
100
AcDbEntity
  8
0
100
AcDbBlockEnd
  0
BLOCK
  5
1C
330
1B
100
AcDbEntity
 67
     1
  8
0
100
AcDbBlockBegin
  2
*Paper_Space
 70
     0
 10
0.0
 20
0.0
 30
0.0
  3
*Paper_Space
  1

  0
ENDBLK
  5
1D
330
1B
100
AcDbEntity
 67
     1
  8
0
100
AcDbBlockEnd
  0
BLOCK
  5
49
330
41
100
AcDbEntity
  8
0
100
AcDbBlockBegin
  2
Nullpunkt
 70
     0
 10
0.0
 20
0.0
 30
0.0
  3
Nullpunkt
  1

  0
HATCH
  5
42
330
41
100
AcDbEntity
  8
SK2
  6
Continuous
 62
     7
100
AcDbHatch
 10
0.0
 20
0.0
 30
0.0
210
0.0
220
0.0
230
1.0
  2
SOLID
 70
     1
 71
     0
 91
        1
 92
        1
 93
        3
 72
     1
 10
-1.0
 20
0.0
 11
0.0000000000000009
 21
0.0
 72
     1
 10
0.0
 20
0.0
 11
0.0
 21
1.000000000000001
 72
     2
 10
0.0
 20
0.0
 40
1.0
 50
90.0
 51
180.0
 73
     1
 97
        0
 75
     0
 76
     1
 98
        0
  0
HATCH
  5
43
330
41
100
AcDbEntity
  8
SK2
  6
Continuous
 62
     7
100
AcDbHatch
 10
0.0
 20
0.0
 30
0.0
210
0.0
220
0.0
230
1.0
  2
SOLID
 70
     1
 71
     0
 91
        1
 92
        1
 93
        3
 72
     2
 10
0.0
 20
0.0
 40
1.0
 50
270.0
 51
360.0
 73
     1
 72
     1
 10
1.0
 20
0.0
 11
-0.0000000000000009
 21
0.0
 72
     1
 10
0.0
 20
0.0
 11
0.0
 21
-1.000000000000001
 97
        0
 75
     0
 76
     1
 98
        0
  0
CIRCLE
  5
44
330
41
100
AcDbEntity
  8
SK2
  6
Continuous
 62
     7
100
AcDbCircle
 10
0.0
 20
0.0
 30
0.0
 40
1.0
  0
LINE
  5
45
330
41
100
AcDbEntity
  8
SK1
  6
Continuous
100
AcDbLine
 10
-1.0
 20
0.0
 30
0.0
 11
1.0
 21
0.0
 31
0.0
  0
LINE
  5
46
330
41
100
AcDbEntity
  8
SK1
  6
Continuous
100
AcDbLine
 10
0.0
 20
1.0
 30
0.0
 11
0.0
 21
-1.0
 31
0.0
  0
POINT
  5
47
330
41
100
AcDbEntity
  8
SK1
  6
Continuous
100
AcDbPoint
 10
0.0
 20
0.0
 30
0.0
  0
POINT
  5
48
330
41
100
AcDbEntity
  8
SK1
  6
Continuous
100
AcDbPoint
 10
0.0
 20
0.0
 30
0.0
  0
ENDBLK
  5
4A
330
41
100
AcDbEntity
  8
0
100
AcDbBlockEnd
  0
BLOCK
  5
54
330
4C
100
AcDbEntity
  8
0
100
AcDbBlockBegin
  2
Einfügepunkt
 70
     0
 10
0.0
 20
0.0
 30
0.0
  3
Einfügepunkt
  1

  0
HATCH
  5
4D
330
4C
100
AcDbEntity
  8
SK2
  6
Continuous
 62
     7
100
AcDbHatch
 10
0.0
 20
0.0
 30
0.0
210
0.0
220
0.0
230
1.0
  2
SOLID
 70
     1
 71
     0
 91
        1
 92
        1
 93
        3
 72
     1
 10
-0.4502381196756744
 20
-0.0000000000000018
 11
0.0000000000000033
 21
-0.0000000000000018
 72
     1
 10
0.0
 20
-0.0000000000000018
 11
0.0
 21
0.4502381196756812
 72
     2
 10
0.0
 20
-0.0000000000000018
 40
0.4502381196756812
 50
90.0
 51
180.0
 73
     1
 97
        0
 75
     0
 76
     1
 98
        0
  0
HATCH
  5
4E
330
4C
100
AcDbEntity
  8
SK2
  6
Continuous
 62
     7
100
AcDbHatch
 10
0.0
 20
0.0
 30
0.0
210
0.0
220
0.0
230
1.0
  2
SOLID
 70
     1
 71
     0
 91
        1
 92
        1
 93
        3
 72
     2
 10
0.0
 20
-0.0000000000000018
 40
0.4502381196756812
 50
270.0
 51
360.0
 73
     1
 72
     1
 10
0.4502381196756815
 20
-0.0000000000000018
 11
0.0000000000000038
 21
-0.0000000000000018
 72
     1
 10
0.0
 20
-0.0000000000000018
 11
0.0
 21
-0.4502381196756812
 97
        0
 75
     0
 76
     1
 98
        0
  0
CIRCLE
  5
4F
330
4C
100
AcDbEntity
  8
SK2
  6
Continuous
 62
     7
100
AcDbCircle
 10
0.0
 20
0.0
 30
0.0
 40
0.4502381196756812
  0
LINE
  5
50
330
4C
100
AcDbEntity
  8
SK1
  6
Continuous
100
AcDbLine
 10
-0.4502381197
 20
0.0
 30
0.0
 11
0.4502381197
 21
0.0
 31
0.0
  0
LINE
  5
51
330
4C
100
AcDbEntity
  8
SK1
  6
Continuous
100
AcDbLine
 10
0.0
 20
0.4502381197
 30
0.0
 11
0.0
 21
-0.4502381197
 31
0.0
  0
POINT
  5
52
330
4C
100
AcDbEntity
  8
SK2
  6
Continuous
 62
     7
100
AcDbPoint
 10
0.0
 20
0.0
 30
0.0
  0
POINT
  5
53
330
4C
100
AcDbEntity
  8
SK2
  6
Continuous
 62
     7
100
AcDbPoint
 10
0.0
 20
0.0
 30
0.0
  0
ENDBLK
  5
55
330
4C
100
AcDbEntity
  8
0
100
AcDbBlockEnd
  0
BLOCK
  5
16A
330
169
100
AcDbEntity
  8
0
100
AcDbBlockBegin
  2
_OBLIQUE
 70
     0
 10
0.0
 20
0.0
 30
0.0
  3
_OBLIQUE
  1

  0
LINE
  5
16C
330
169
100
AcDbEntity
  8
0
  6
ByBlock
 62
     0
370
    -2
100
AcDbLine
 10
-0.5
 20
-0.5
 30
0.0
 11
0.5
 21
0.5
 31
0.0
  0
ENDBLK
  5
16B
330
169
100
AcDbEntity
  8
0
100
AcDbBlockEnd
  0
BLOCK
  5
16E
330
16D
100
AcDbEntity
  8
0
100
AcDbBlockBegin
  2
_DOT
 70
     0
 10
0.0
 20
0.0
 30
0.0
  3
_DOT
  1

  0
POLYLINE
  5
170
330
16D
100
AcDbEntity
  8
0
  6
ByBlock
 62
     0
100
AcDb2dPolyline
 66
     1
 10
0.0
 20
0.0
 30
0.0
 70
     1
 40
0.5
 41
0.5
  0
VERTEX
  5
172
330
170
100
AcDbEntity
  8
0
  6
ByBlock
 62
     0
100
AcDbVertex
100
AcDb2dVertex
 10
-0.25
 20
0.0
 30
0.0
 42
1.0
  0
VERTEX
  5
173
330
170
100
AcDbEntity
  8
0
  6
ByBlock
 62
     0
100
AcDbVertex
100
AcDb2dVertex
 10
0.25
 20
0.0
 30
0.0
 42
1.0
  0
SEQEND
  5
174
330
170
100
AcDbEntity
  8
0
  6
ByBlock
 62
     0
  0
LINE
  5
171
330
16D
100
AcDbEntity
  8
0
  6
ByBlock
 62
     0
370
    -2
100
AcDbLine
 10
-0.5
 20
0.0
 30
0.0
 11
-1.0
 21
0.0
 31
0.0
  0
ENDBLK
  5
16F
330
16D
100
AcDbEntity
  8
0
100
AcDbBlockEnd
  0
BLOCK
  5
178
330
175
100
AcDbEntity
  8
0
100
AcDbBlockBegin
  2
_SE_FILLED
 70
     0
 10
0.0
 20
0.0
 30
0.0
  3
_SE_FILLED
  1

  0
SOLID
  5
176
330
175
100
AcDbEntity
  8
0
 62
     0
100
AcDbTrace
 10
0.0
 20
0.0
 30
0.0
 11
-1.0
 21
-0.1665
 31
0.0
 12
-1.0
 22
0.1665
 32
0.0
 13
0.0
 23
0.0
 33
0.0
  0
LINE
  5
177
330
175
100
AcDbEntity
  8
0
 62
     0
100
AcDbLine
 10
0.0
 20
0.0
 30
0.0
 11
-1.0
 21
0.0
 31
0.0
  0
ENDBLK
  5
179
330
175
100
AcDbEntity
  8
0
100
AcDbBlockEnd
  0
BLOCK
  5
185
330
17D
100
AcDbEntity
  8
0
100
AcDbBlockBegin
  2
DMBLK90
 70
     0
 10
0.0
 20
0.0
 30
0.0
  3
DMBLK90
  1

  0
HATCH
  5
17E
330
17D
100
AcDbEntity
  8
SK2
  6
Continuous
 62
   136
100
AcDbHatch
 10
0.0
 20
0.0
 30
0.0
210
0.0
220
0.0
230
1.0
  2
SOLID
 70
     1
 71
     0
 91
        1
 92
        1
 93
        3
 72
     1
 10
19.5883007103453
 20
2.499999991737284
 11
19.0049673590064
 21
6.000000099770702
 72
     1
 10
19.0049673590064
 20
6.000000099770702
 11
18.4216340076675
 21
2.499999991737283
 72
     1
 10
18.4216340076675
 20
2.499999991737284
 11
19.58830071034531
 21
2.499999991737284
 97
        0
 75
     0
 76
     1
 98
        0
  0
HATCH
  5
17F
330
17D
100
AcDbEntity
  8
SK2
  6
Continuous
 62
   136
100
AcDbHatch
 10
0.0
 20
0.0
 30
0.0
210
0.0
220
0.0
230
1.0
  2
SOLID
 70
     1
 71
     0
 91
        1
 92
        1
 93
        3
 72
     1
 10
19.5883007103453
 20
-2.499999896504007
 11
18.4216340076675
 21
-2.499999896504007
 72
     1
 10
18.4216340076675
 20
-2.499999896504007
 11
19.0049673590064
 21
-6.000000004537426
 72
     1
 10
19.0049673590064
 20
-6.000000004537426
 11
19.5883007103453
 21
-2.499999896504008
 97
        0
 75
     0
 76
     1
 98
        0
  0
LINE
  5
180
330
17D
100
AcDbEntity
  8
SK2
  6
Continuous
 62
   136
100
AcDbLine
 10
10.755
 20
6.0000000998
 30
0.0
 11
20.754967413
 21
6.0000000998
 31
0.0
  0
LINE
  5
181
330
17D
100
AcDbEntity
  8
SK2
  6
Continuous
 62
   136
100
AcDbLine
 10
10.755
 20
-5.9999999002
 30
0.0
 11
20.754967413
 21
-5.9999999002
 31
0.0
  0
LINE
  5
182
330
17D
100
AcDbEntity
  8
SK2
  6
Continuous
 62
   136
100
AcDbLine
 10
19.004967359
 20
6.0000000998
 30
0.0
 11
19.004967359
 21
-6.0000000045
 31
0.0
  0
TEXT
  5
183
330
17D
100
AcDbEntity
  8
SK2
  6
Continuous
 62
   136
100
AcDbText
 10
18.129967359
 20
0.2465909567
 30
0.0
 40
3.5
  1
12
 50
90.0
  7
SEACAD_Solid_Edge_ISO
 11
14.629967359
 21
0.2465909567
 31
0.0
100
AcDbText
 73
     3
  0
TEXT
  5
184
330
17D
100
AcDbEntity
  8
SK2
  6
Continuous
 62
   136
100
AcDbText
 10
18.129967359
 20
-3.826136316
 30
0.0
 40
3.5
  1
ø
 50
90.0
  7
SEACAD_Solid_Edge_ISO
 11
14.629967359
 21
-3.826136316
 31
0.0
100
AcDbText
 73
     3
  0
ENDBLK
  5
186
330
17D
100
AcDbEntity
  8
0
100
AcDbBlockEnd
  0
BLOCK
  5
18F
330
188
100
AcDbEntity
  8
0
100
AcDbBlockBegin
  2
DMBLK91
 70
     0
 10
0.0
 20
0.0
 30
0.0
  3
DMBLK91
  1

  0
HATCH
  5
189
330
188
100
AcDbEntity
  8
SK2
  6
Continuous
 62
   136
100
AcDbHatch
 10
0.0
 20
0.0
 30
0.0
210
0.0
220
0.0
230
1.0
  2
SOLID
 70
     1
 71
     0
 91
        1
 92
        1
 93
        3
 72
     1
 10
7.654999891966583
 20
-18.3084794717665
 11
11.155
 21
-17.7251461204276
 72
     1
 10
11.155
 20
-17.7251461204276
 11
7.654999891966582
 21
-17.14181276908869
 72
     1
 10
7.654999891966583
 20
-17.14181276908869
 11
7.654999891966583
 21
-18.3084794717665
 97
        0
 75
     0
 76
     1
 98
        0
  0
HATCH
  5
18A
330
188
100
AcDbEntity
  8
SK2
  6
Continuous
 62
   136
100
AcDbHatch
 10
0.0
 20
0.0
 30
0.0
210
0.0
220
0.0
230
1.0
  2
SOLID
 70
     1
 71
     0
 91
        1
 92
        1
 93
        3
 72
     1
 10
3.500000151544811
 20
-18.3084794717665
 11
3.500000151544811
 21
-17.14181276908869
 72
     1
 10
3.500000151544811
 20
-17.14181276908869
 11
0.0000000435113923
 21
-17.7251461204276
 72
     1
 10
0.0000000435113924
 20
-17.7251461204276
 11
3.500000151544811
 21
-18.3084794717665
 97
        0
 75
     0
 76
     1
 98
        0
  0
LINE
  5
18B
330
188
100
AcDbEntity
  8
SK2
  6
Continuous
 62
   136
100
AcDbLine
 10
11.155
 20
-7.0254539382
 30
0.0
 11
11.155
 21
-19.4751461744
 31
0.0
  0
LINE
  5
18C
330
188
100
AcDbEntity
  8
SK2
  6
Continuous
 62
   136
100
AcDbLine
 10
0.0
 20
-9.9958765026
 30
0.0
 11
0.0
 21
-19.4751461744
 31
0.0
  0
LINE
  5
18D
330
188
100
AcDbEntity
  8
SK2
  6
Continuous
 62
   136
100
AcDbLine
 10
11.155
 20
-17.7251461204
 30
0.0
 11
0.0000000435
 21
-17.7251461204
 31
0.0
  0
TEXT
  5
18E
330
188
100
AcDbEntity
  8
SK2
  6
Continuous
 62
   136
100
AcDbText
 10
2.0377272945
 20
-16.8501461204
 30
0.0
 40
3.5
  1
11,16
  7
SEACAD_Solid_Edge_ISO
 11
2.0377272945
 21
-13.3501461204
 31
0.0
100
AcDbText
 73
     3
  0
ENDBLK
  5
190
330
188
100
AcDbEntity
  8
0
100
AcDbBlockEnd
  0
BLOCK
  5
19A
330
192
100
AcDbEntity
  8
0
100
AcDbBlockBegin
  2
DMBLK92
 70
     0
 10
0.0
 20
0.0
 30
0.0
  3
DMBLK92
  1

  0
HATCH
  5
193
330
192
100
AcDbEntity
  8
SK2
  6
Continuous
 62
   136
100
AcDbHatch
 10
0.0
 20
0.0
 30
0.0
210
0.0
220
0.0
230
1.0
  2
SOLID
 70
     1
 71
     0
 91
        1
 92
        1
 93
        3
 72
     1
 10
-26.443231307591
 20
6.495876594105679
 11
-25.27656460491319
 21
6.495876594105679
 72
     1
 10
-25.27656460491319
 20
6.495876594105679
 11
-25.8598979562521
 21
9.995876702139098
 72
     1
 10
-25.8598979562521
 20
9.995876702139098
 11
-26.443231307591
 21
6.495876594105679
 97
        0
 75
     0
 76
     1
 98
        0
  0
HATCH
  5
194
330
192
100
AcDbEntity
  8
SK2
  6
Continuous
 62
   136
100
AcDbHatch
 10
0.0
 20
0.0
 30
0.0
210
0.0
220
0.0
230
1.0
  2
SOLID
 70
     1
 71
     0
 91
        1
 92
        1
 93
        3
 72
     1
 10
-26.443231307591
 20
-6.495876812717002
 11
-25.8598979562521
 21
-9.99587692075042
 72
     1
 10
-25.8598979562521
 20
-9.99587692075042
 11
-25.27656460491319
 21
-6.495876812717002
 72
     1
 10
-25.27656460491319
 20
-6.495876812717002
 11
-26.443231307591
 21
-6.495876812717002
 97
        0
 75
     0
 76
     1
 98
        0
  0
LINE
  5
195
330
192
100
AcDbEntity
  8
SK2
  6
Continuous
 62
   136
100
AcDbLine
 10
0.0
 20
9.9958767021
 30
0.0
 11
-27.6098980103
 21
9.9958767021
 31
0.0
  0
LINE
  5
196
330
192
100
AcDbEntity
  8
SK2
  6
Continuous
 62
   136
100
AcDbLine
 10
0.0
 20
-9.9958765026
 30
0.0
 11
-27.6098980103
 21
-9.9958765026
 31
0.0
  0
LINE
  5
197
330
192
100
AcDbEntity
  8
SK2
  6
Continuous
 62
   136
100
AcDbLine
 10
-25.8598979563
 20
9.9958767021
 30
0.0
 11
-25.8598979563
 21
-9.9958769208
 31
0.0
  0
TEXT
  5
198
330
192
100
AcDbEntity
  8
SK2
  6
Continuous
 62
   136
100
AcDbText
 10
-26.7348979563
 20
-0.0715910184
 30
0.0
 40
3.5
  1
20
 50
90.0
  7
SEACAD_Solid_Edge_ISO
 11
-30.2348979563
 21
-0.0715910184
 31
0.0
100
AcDbText
 73
     3
  0
TEXT
  5
199
330
192
100
AcDbEntity
  8
SK2
  6
Continuous
 62
   136
100
AcDbText
 10
-26.7348979563
 20
-4.1443182911
 30
0.0
 40
3.5
  1
ø
 50
90.0
  7
SEACAD_Solid_Edge_ISO
 11
-30.2348979563
 21
-4.1443182911
 31
0.0
100
AcDbText
 73
     3
  0
ENDBLK
  5
19B
330
192
100
AcDbEntity
  8
0
100
AcDbBlockEnd
  0
BLOCK
  5
1A4
330
19D
100
AcDbEntity
  8
0
100
AcDbBlockBegin
  2
DMBLK93
 70
     0
 10
0.0
 20
0.0
 30
0.0
  3
DMBLK93
  1

  0
HATCH
  5
19E
330
19D
100
AcDbEntity
  8
SK2
  6
Continuous
 62
   136
100
AcDbHatch
 10
0.0
 20
0.0
 30
0.0
210
0.0
220
0.0
230
1.0
  2
SOLID
 70
     1
 71
     0
 91
        1
 92
        1
 93
        3
 72
     1
 10
7.654999891966583
 20
16.10615980533326
 11
7.654999891966583
 21
14.93949310265545
 72
     1
 10
7.654999891966583
 20
14.93949310265545
 11
11.155
 21
15.52282645399436
 72
     1
 10
11.155
 20
15.52282645399436
 11
7.654999891966582
 21
16.10615980533326
 97
        0
 75
     0
 76
     1
 98
        0
  0
HATCH
  5
19F
330
19D
100
AcDbEntity
  8
SK2
  6
Continuous
 62
   136
100
AcDbHatch
 10
0.0
 20
0.0
 30
0.0
210
0.0
220
0.0
230
1.0
  2
SOLID
 70
     1
 71
     0
 91
        1
 92
        1
 93
        3
 72
     1
 10
-16.84500039860606
 20
16.10615980533326
 11
-20.34500050663948
 21
15.52282645399436
 72
     1
 10
-20.34500050663948
 20
15.52282645399436
 11
-16.84500039860606
 21
14.93949310265545
 72
     1
 10
-16.84500039860606
 20
14.93949310265545
 11
-16.84500039860606
 21
16.10615980533326
 97
        0
 75
     0
 76
     1
 98
        0
  0
LINE
  5
1A0
330
19D
100
AcDbEntity
  8
SK2
  6
Continuous
 62
   136
100
AcDbLine
 10
11.155
 20
7.2550642418
 30
0.0
 11
11.155
 21
17.272826508
 31
0.0
  0
LINE
  5
1A1
330
19D
100
AcDbEntity
  8
SK2
  6
Continuous
 62
   136
100
AcDbLine
 10
-20.345
 20
6.8737445935
 30
0.0
 11
-20.345
 21
17.272826508
 31
0.0
  0
LINE
  5
1A2
330
19D
100
AcDbEntity
  8
SK2
  6
Continuous
 62
   136
100
AcDbLine
 10
11.155
 20
15.522826454
 30
0.0
 11
-20.3450005066
 21
15.522826454
 31
0.0
  0
TEXT
  5
1A3
330
19D
100
AcDbEntity
  8
SK2
  6
Continuous
 62
   136
100
AcDbText
 10
-7.5381820715
 20
16.397826454
 30
0.0
 40
3.5
  1
31,5
  7
SEACAD_Solid_Edge_ISO
 11
-7.5381820715
 21
19.897826454
 31
0.0
100
AcDbText
 73
     3
  0
ENDBLK
  5
1A5
330
19D
100
AcDbEntity
  8
0
100
AcDbBlockEnd
  0
ENDSEC
  0
SECTION
  2
ENTITIES
  0
INSERT
  5
4B
330
1F
100
AcDbEntity
  8
SK2
 62
     7
100
AcDbBlockReference
  2
Nullpunkt
 10
0.0
 20
0.0000000998
 30
0.0
  0
INSERT
  5
56
330
1F
100
AcDbEntity
  8
SK2
 62
     7
100
AcDbBlockReference
  2
Einfügepunkt
 10
11.155
 20
0.0000000998
 30
0.0
  0
LINE
  5
57
330
1F
100
AcDbEntity
  8
SK1
  6
Continuous
100
AcDbLine
 10
-20.345
 20
0.3000000998
 30
0.0
 11
-20.345
 21
4.6483394091
 31
0.0
  0
LINE
  5
58
330
1F
100
AcDbEntity
  8
SK1
  6
Continuous
100
AcDbLine
 10
-20.0867519303
 20
0.3000000998
 30
0.0
 11
-20.0867519303
 21
4.8585986768
 31
0.0
  0
LINE
  5
59
330
1F
100
AcDbEntity
  8
SK1
  6
Continuous
100
AcDbLine
 10
3.0993307596
 20
0.3000000998
 30
0.0
 11
3.0993307596
 21
3.7148547038
 31
0.0
  0
LINE
  5
5A
330
1F
100
AcDbEntity
  8
SK1
  6
Continuous
100
AcDbLine
 10
3.555
 20
0.3000000998
 30
0.0
 11
3.555
 21
3.5632058848
 31
0.0
  0
LINE
  5
5B
330
1F
100
AcDbEntity
  8
SK1
  6
Continuous
100
AcDbLine
 10
3.755
 20
0.3000000998
 30
0.0
 11
3.755
 21
3.0502021158
 31
0.0
  0
LINE
  5
5C
330
1F
100
AcDbEntity
  8
SK1
  6
Continuous
100
AcDbLine
 10
-20.345
 20
0.3000000998
 30
0.0
 11
-20.0867519303
 21
0.3000000998
 31
0.0
  0
LINE
  5
5D
330
1F
100
AcDbEntity
  8
SK1
  6
Continuous
100
AcDbLine
 10
-20.0867519303
 20
0.3000000998
 30
0.0
 11
3.0993307596
 21
0.3000000998
 31
0.0
  0
LINE
  5
5E
330
1F
100
AcDbEntity
  8
SK1
  6
Continuous
100
AcDbLine
 10
3.0993307596
 20
0.3000000998
 30
0.0
 11
3.555
 21
0.3000000998
 31
0.0
  0
LINE
  5
5F
330
1F
100
AcDbEntity
  8
SK1
  6
Continuous
100
AcDbLine
 10
3.755
 20
-0.2999999002
 30
0.0
 11
3.555
 21
-0.2999999002
 31
0.0
  0
LINE
  5
60
330
1F
100
AcDbEntity
  8
SK1
  6
Continuous
100
AcDbLine
 10
3.755
 20
0.3000000998
 30
0.0
 11
3.555
 21
0.3000000998
 31
0.0
  0
LINE
  5
61
330
1F
100
AcDbEntity
  8
SK1
  6
Continuous
100
AcDbLine
 10
-20.345
 20
-0.2999999002
 30
0.0
 11
-20.0867519303
 21
-0.2999999002
 31
0.0
  0
LINE
  5
62
330
1F
100
AcDbEntity
  8
SK1
  6
Continuous
100
AcDbLine
 10
-20.0867519303
 20
-0.2999999002
 30
0.0
 11
3.0993307596
 21
-0.2999999002
 31
0.0
  0
LINE
  5
63
330
1F
100
AcDbEntity
  8
SK1
  6
Continuous
100
AcDbLine
 10
3.0993307596
 20
-0.2999999002
 30
0.0
 11
3.555
 21
-0.2999999002
 31
0.0
  0
LINE
  5
64
330
1F
100
AcDbEntity
  8
SK1
  6
Continuous
100
AcDbLine
 10
5.3527667851
 20
-0.2999999002
 30
0.0
 11
3.755
 21
-0.2999999002
 31
0.0
  0
LINE
  5
67
330
1F
100
AcDbEntity
  8
SK3
100
AcDbLine
 10
5.3527667851
 20
-0.2999999002
 30
0.0
 11
5.6741434433
 21
-0.2999999002
 31
0.0
  0
ARC
  5
68
330
1F
100
AcDbEntity
  8
SK1
  6
Continuous
100
AcDbCircle
 10
5.3550339403
 20
0.0000000998
 30
0.0
 40
0.3000085665318081
100
AcDbArc
 50
269.5670135042
 51
90.4329864958
  0
ARC
  5
69
330
1F
100
AcDbEntity
  8
SK3
100
AcDbCircle
 10
5.674847788
 20
0.0000000998
 30
0.0
 40
0.3000008268347465
100
AcDbArc
 50
269.8654803082
 51
90.1345196918
  0
SPLINE
  5
6A
330
1F
100
AcDbEntity
  8
SK3
100
AcDbSpline
210
0.0
220
0.0
230
1.0
 70
     8
 71
     3
 72
     8
 73
     4
 74
     0
 42
0.0000001576054753
 43
0.0000000001
 12
1.0
 22
0.0
 32
0.0
 13
1.0
 23
0.0
 33
0.0
 40
0.0
 40
0.0
 40
0.0
 40
0.0
 40
1.0
 40
1.0
 40
1.0
 40
1.0
 10
-18.00705013280058
 20
2.29610069396124
 30
0.0
 10
-18.00705013280058
 20
2.317104524487474
 30
0.0
 10
-18.00439314990742
 20
2.3382525251968
 30
0.0
 10
-17.99922763593204
 20
2.358742941824566
 30
0.0
  0
LINE
  5
6B
330
1F
100
AcDbEntity
  8
SK1
  6
Continuous
100
AcDbLine
 10
5.3527667851
 20
0.3000000998
 30
0.0
 11
3.755
 21
0.3000000998
 31
0.0
  0
LINE
  5
6C
330
1F
100
AcDbEntity
  8
SK3
100
AcDbLine
 10
5.6741434433
 20
0.3000000998
 30
0.0
 11
5.3527667851
 21
0.3000000998
 31
0.0
  0
LINE
  5
6D
330
1F
100
AcDbEntity
  8
SK1
  6
Continuous
100
AcDbLine
 10
11.155
 20
7.7343812404
 30
0.0
 11
11.155
 21
7.2550642438
 31
0.0
  0
LINE
  5
6E
330
1F
100
AcDbEntity
  8
SK1
  6
Continuous
100
AcDbLine
 10
3.0993307596
 20
-7.1641561702
 30
0.0
 11
3.0993307596
 21
-4.2691822238
 31
0.0
  0
LINE
  5
6F
330
1F
100
AcDbEntity
  8
SK1
  6
Continuous
100
AcDbLine
 10
3.555
 20
-6.8839456901
 30
0.0
 11
3.555
 21
-4.1175334048
 31
0.0
  0
SPLINE
  5
70
330
1F
100
AcDbEntity
  8
SK1
  6
Continuous
100
AcDbSpline
210
0.0
220
0.0
230
1.0
 70
     8
 71
     3
 72
    10
 73
     6
 74
     0
 42
0.0000000163112609
 43
0.0000000001
 12
1.0
 22
0.0
 32
0.0
 13
1.0
 23
0.0
 33
0.0
 40
0.0
 40
0.0
 40
0.0
 40
0.0
 40
0.5
 40
0.5
 40
1.0
 40
1.0
 40
1.0
 40
1.0
 10
3.099330759615954
 20
-7.588420238865192
 30
0.0
 10
3.213332587605491
 20
-7.599754125526682
 30
0.0
 10
3.331761943216988
 20
-7.574439826652369
 30
0.0
 10
3.503067280621873
 20
-7.469104121003057
 30
0.0
 10
3.554999999999994
 20
-7.389305584098216
 30
0.0
 10
3.554999999999996
 20
-7.308209758810301
 30
0.0
  0
SPLINE
  5
71
330
1F
100
AcDbEntity
  8
SK1
  6
Continuous
100
AcDbSpline
210
0.0
220
0.0
230
1.0
 70
     8
 71
     3
 72
    10
 73
     6
 74
     0
 42
0.0000000163112609
 43
0.0000000001
 12
1.0
 22
0.0
 32
0.0
 13
1.0
 23
0.0
 33
0.0
 40
0.0
 40
0.0
 40
0.0
 40
0.0
 40
0.5
 40
0.5
 40
1.0
 40
1.0
 40
1.0
 40
1.0
 10
3.099330759615954
 20
-7.164156170153264
 30
0.0
 10
3.213332587605495
 20
-7.175490056814751
 30
0.0
 10
3.331761943216986
 20
-7.15017575794044
 30
0.0
 10
3.50306728062187
 20
-7.044840052291131
 30
0.0
 10
3.554999999999994
 20
-6.965041515386289
 30
0.0
 10
3.554999999999996
 20
-6.883945690098374
 30
0.0
  0
LINE
  5
72
330
1F
100
AcDbEntity
  8
SK1
  6
Continuous
100
AcDbLine
 10
3.755
 20
-5.9360383254
 30
0.0
 11
3.755
 21
-3.6045296357
 31
0.0
  0
LINE
  5
73
330
1F
100
AcDbEntity
  8
SK1
  6
Continuous
100
AcDbLine
 10
-20.0867519303
 20
-4.8585984772
 30
0.0
 11
-20.0867519303
 21
-0.2999999002
 31
0.0
  0
LINE
  5
74
330
1F
100
AcDbEntity
  8
SK1
  6
Continuous
100
AcDbLine
 10
-20.345
 20
-4.6483392096
 30
0.0
 11
-20.345
 21
-0.2999999002
 31
0.0
  0
SPLINE
  5
75
330
1F
100
AcDbEntity
  8
SK1
  6
Continuous
100
AcDbSpline
210
0.0
220
0.0
230
1.0
 70
     8
 71
     3
 72
    10
 73
     6
 74
     0
 42
0.0000000269130255
 43
0.0000000001
 12
1.0
 22
0.0
 32
0.0
 13
1.0
 23
0.0
 33
0.0
 40
0.0
 40
0.0
 40
0.0
 40
0.0
 40
0.5
 40
0.5
 40
1.0
 40
1.0
 40
1.0
 40
1.0
 10
-20.34500000000014
 20
-4.648339209564577
 30
0.0
 10
-20.34500000000001
 20
-4.698878897659144
 30
0.0
 10
-20.31826377619246
 20
-4.749437458098511
 30
0.0
 10
-20.22485489205889
 20
-4.825602161104169
 30
0.0
 10
-20.15828210193434
 20
-4.851483778679341
 30
0.0
 10
-20.08675193028802
 20
-4.858598477209447
 30
0.0
  0
SPLINE
  5
76
330
1F
100
AcDbEntity
  8
SK1
  6
Continuous
100
AcDbSpline
210
0.0
220
0.0
230
1.0
 70
     8
 71
     3
 72
    11
 73
     7
 74
     0
 42
0.0000000004291766
 43
0.0000000001
 12
1.0
 22
0.0
 32
0.0
 13
1.0
 23
0.0
 33
0.0
 40
0.0
 40
0.0
 40
0.0
 40
0.0
 40
0.5381671552188961
 40
0.5381671552188961
 40
0.5381671552188961
 40
1.0
 40
1.0
 40
1.0
 40
1.0
 10
-20.08675193028802
 20
-4.858598477209447
 30
0.0
 10
-15.92744457914447
 20
-5.272301076061103
 30
0.0
 10
-11.76812064058487
 20
-5.685920292656313
 30
0.0
 10
-7.608788294740508
 20
-6.099497225452899
 30
0.0
 10
-4.039420912747567
 20
-6.454411882691992
 30
0.0
 10
-0.4700470807934929
 20
-6.80929410689809
 30
0.0
 10
3.099330759615954
 20
-7.164156170153264
 30
0.0
  0
SPLINE
  5
77
330
1F
100
AcDbEntity
  8
SK1
  6
Continuous
100
AcDbSpline
210
0.0
220
0.0
230
1.0
 70
     8
 71
     3
 72
    10
 73
     6
 74
     0
 42
0.0000000361028879
 43
0.0000000001
 12
1.0
 22
0.0
 32
0.0
 13
1.0
 23
0.0
 33
0.0
 40
0.0
 40
0.0
 40
0.0
 40
0.0
 40
0.5
 40
0.5
 40
1.0
 40
1.0
 40
1.0
 40
1.0
 10
3.754999999999984
 20
-6.360302394161023
 30
0.0
 10
3.702123214864995
 20
-6.360302394161022
 30
0.0
 10
3.65040331984685
 20
-6.375668240347723
 30
0.0
 10
3.576614556171774
 20
-6.427926912266875
 30
0.0
 10
3.55499999999998
 20
-6.46488721631092
 30
0.0
 10
3.554999999999985
 20
-6.501806011991819
 30
0.0
  0
LINE
  5
78
330
1F
100
AcDbEntity
  8
SK1
  6
Continuous
100
AcDbLine
 10
3.555
 20
-6.8839456901
 30
0.0
 11
3.555
 21
-7.3082097588
 31
0.0
  0
SPLINE
  5
79
330
1F
100
AcDbEntity
  8
SK1
  6
Continuous
100
AcDbSpline
210
0.0
220
0.0
230
1.0
 70
     8
 71
     3
 72
    10
 73
     6
 74
     0
 42
0.0000000361028879
 43
0.0000000001
 12
1.0
 22
0.0
 32
0.0
 13
1.0
 23
0.0
 33
0.0
 40
0.0
 40
0.0
 40
0.0
 40
0.0
 40
0.5
 40
0.5
 40
1.0
 40
1.0
 40
1.0
 40
1.0
 10
3.754999999999984
 20
-5.936038325449093
 30
0.0
 10
3.702123214864995
 20
-5.936038325449096
 30
0.0
 10
3.65040331984685
 20
-5.951404171635795
 30
0.0
 10
3.576614556171774
 20
-6.003662843554946
 30
0.0
 10
3.55499999999998
 20
-6.040623147598993
 30
0.0
 10
3.554999999999985
 20
-6.077541943279888
 30
0.0
  0
LINE
  5
7A
330
1F
100
AcDbEntity
  8
SK1
  6
Continuous
100
AcDbLine
 10
-20.345
 20
-4.6483392096
 30
0.0
 11
-20.345
 21
-5.0726032783
 31
0.0
  0
SPLINE
  5
7B
330
1F
100
AcDbEntity
  8
SK1
  6
Continuous
100
AcDbSpline
210
0.0
220
0.0
230
1.0
 70
     8
 71
     3
 72
    10
 73
     6
 74
     0
 42
0.0000000269130255
 43
0.0000000001
 12
1.0
 22
0.0
 32
0.0
 13
1.0
 23
0.0
 33
0.0
 40
0.0
 40
0.0
 40
0.0
 40
0.0
 40
0.5
 40
0.5
 40
1.0
 40
1.0
 40
1.0
 40
1.0
 10
-20.34500000000014
 20
-5.072603278276504
 30
0.0
 10
-20.34500000000001
 20
-5.123142966371083
 30
0.0
 10
-20.31826377619246
 20
-5.173701526810436
 30
0.0
 10
-20.22485489205889
 20
-5.249866229816103
 30
0.0
 10
-20.15828210193434
 20
-5.27574784739127
 30
0.0
 10
-20.08675193028802
 20
-5.282862545921377
 30
0.0
  0
SPLINE
  5
7C
330
1F
100
AcDbEntity
  8
SK1
  6
Continuous
100
AcDbSpline
210
0.0
220
0.0
230
1.0
 70
     8
 71
     3
 72
    11
 73
     7
 74
     0
 42
0.0000000004291766
 43
0.0000000001
 12
1.0
 22
0.0
 32
0.0
 13
1.0
 23
0.0
 33
0.0
 40
0.0
 40
0.0
 40
0.0
 40
0.0
 40
0.5381671552188961
 40
0.5381671552188961
 40
0.5381671552188961
 40
1.0
 40
1.0
 40
1.0
 40
1.0
 10
-20.08675193028802
 20
-5.282862545921377
 30
0.0
 10
-15.92744457914447
 20
-5.696565144773031
 30
0.0
 10
-11.76812064058487
 20
-6.110184361368242
 30
0.0
 10
-7.608788294740508
 20
-6.523761294164827
 30
0.0
 10
-4.039420912747567
 20
-6.87867595140392
 30
0.0
 10
-0.4700470807934929
 20
-7.233558175610018
 30
0.0
 10
3.099330759615954
 20
-7.588420238865192
 30
0.0
  0
LINE
  5
7D
330
1F
100
AcDbEntity
  8
SK3
100
AcDbLine
 10
5.6741434433
 20
-4.4494660021
 30
0.0
 11
-20.345
 21
-4.4494660021
 31
0.0
  0
LINE
  5
7E
330
1F
100
AcDbEntity
  8
SK1
  6
Continuous
100
AcDbLine
 10
5.3527667851
 20
-6.3603023942
 30
0.0
 11
3.755
 21
-6.3603023942
 31
0.0
  0
ELLIPSE
  5
7F
330
1F
100
AcDbEntity
  8
SK1
  6
Continuous
100
AcDbEllipse
 10
-56.2365179466
 20
-0.2121319388
 30
0.0
 11
62.19999994935348
 21
8.409242075146944E-9
 31
0.0
210
0.0
220
0.0
230
1.0
 40
0.7071067815
 41
-0.1402475115618458
 42
-0.1307326924324501
  0
SPLINE
  5
80
330
1F
100
AcDbEntity
  8
SK1
  6
Continuous
100
AcDbSpline
210
0.0
220
0.0
230
1.0
 70
     8
 71
     3
 72
    35
 73
    31
 74
     0
 42
0.0000000122277584
 43
0.0000000001
 12
1.0
 22
0.0
 32
0.0
 13
1.0
 23
0.0
 33
0.0
 40
0.0
 40
0.0
 40
0.0
 40
0.0
 40
0.1085404134398861
 40
0.1085404134398861
 40
0.1085404134398861
 40
0.2171239349288787
 40
0.2171239349288787
 40
0.2171239349288787
 40
0.3250645473203439
 40
0.3250645473203439
 40
0.3250645473203439
 40
0.4322119245858615
 40
0.4322119245858615
 40
0.4322119245858615
 40
0.5000323130330007
 40
0.5000323130330007
 40
0.5000323130330007
 40
0.6065859804322089
 40
0.6065859804322089
 40
0.6065859804322089
 40
0.7131270380193963
 40
0.7131270380193963
 40
0.7131270380193963
 40
0.8198706598330417
 40
0.8198706598330417
 40
0.8198706598330417
 40
0.9271911654844045
 40
0.9271911654844045
 40
0.9271911654844045
 40
1.0
 40
1.0
 40
1.0
 40
1.0
 10
5.352766785120238
 20
-5.936038325449093
 30
0.0
 10
5.386811622912721
 20
-5.936038325449092
 30
0.0
 10
5.42132753336692
 20
-5.940315034575055
 30
0.0
 10
5.453461039091036
 20
-5.948522077059586
 30
0.0
 10
5.485602025437928
 20
-5.956731030128958
 30
0.0
 10
5.516248151168933
 20
-5.969101841517968
 30
0.0
 10
5.542809349873914
 20
-5.984568744033926
 30
0.0
 10
5.569214111390795
 20
-5.99994455131111
 30
0.0
 10
5.592315288117058
 20
-6.01880633053751
 30
0.0
 10
5.610148602793675
 20
-6.03951743254423
 30
0.0
 10
5.627853066866552
 20
-6.060078891142194
 30
0.0
 10
5.640857207082202
 20
-6.083030957434678
 30
0.0
 10
5.648060671462821
 20
-6.106412931906472
 30
0.0
 10
5.65265956350311
 20
-6.121340634828679
 30
0.0
 10
5.655000000000014
 20
-6.136657189279732
 30
0.0
 10
5.655000000000014
 20
-6.151828896552263
 30
0.0
 10
5.655000000000014
 20
-6.175464425446743
 30
0.0
 10
5.64922524731442
 20
-6.199282157588459
 30
0.0
 10
5.638160386628797
 20
-6.221330280484032
 30
0.0
 10
5.627096249031196
 20
-6.243376962536018
 30
0.0
 10
5.61043946798691
 20
-6.264262911640104
 30
0.0
 10
5.589581027176889
 20
-6.282329615931869
 30
0.0
 10
5.568681898211501
 20
-6.300431562592795
 30
0.0
 10
5.542994620088521
 20
-6.316202754563696
 30
0.0
 10
5.514646708056849
 20
-6.328437434808852
 30
0.0
 10
5.48614574917871
 20
-6.340738168568885
 30
0.0
 10
5.454179757062107
 20
-6.349804460193291
 30
0.0
 10
5.421372115468477
 20
-6.354973965365564
 30
0.0
 10
5.398945283850841
 20
-6.358507764700518
 30
0.0
 10
5.375782771453546
 20
-6.360302394161022
 30
0.0
 10
5.352766785120238
 20
-6.360302394161022
 30
0.0
  0
SPLINE
  5
81
330
1F
100
AcDbEntity
  8
SK3
100
AcDbSpline
210
0.0
220
0.0
230
1.0
 70
     8
 71
     3
 72
    35
 73
    31
 74
     0
 42
0.0000000122674813
 43
0.0000000001
 12
1.0
 22
0.0
 32
0.0
 13
1.0
 23
0.0
 33
0.0
 40
0.0
 40
0.0
 40
0.0
 40
0.0
 40
0.1077842904312192
 40
0.1077842904312192
 40
0.1077842904312192
 40
0.2155922120754945
 40
0.2155922120754945
 40
0.2155922120754945
 40
0.3230688415642703
 40
0.3230688415642703
 40
0.3230688415642703
 40
0.4303218169492664
 40
0.4303218169492664
 40
0.4303218169492664
 40
0.5000091041820605
 40
0.5000091041820605
 40
0.5000091041820605
 40
0.6072073787889507
 40
0.6072073787889507
 40
0.6072073787889507
 40
0.714405344427672
 40
0.714405344427672
 40
0.714405344427672
 40
0.8216082817798374
 40
0.8216082817798374
 40
0.8216082817798374
 40
0.9288934385228381
 40
0.9288934385228381
 40
0.9288934385228381
 40
1.0
 40
1.0
 40
1.0
 40
1.0
 10
5.674143443279958
 20
-4.449466002132925
 30
0.0
 10
5.70786756560642
 20
-4.449466002132925
 30
0.0
 10
5.742058052381146
 20
-4.44557971743094
 30
0.0
 10
5.773885632156559
 20
-4.438076247145626
 30
0.0
 10
5.80571745862753
 20
-4.430571775686042
 30
0.0
 10
5.836063525908417
 20
-4.419236917182941
 30
0.0
 10
5.862387980549305
 20
-4.404919484431595
 30
0.0
 10
5.8886328602561
 20
-4.390645331162507
 30
0.0
 10
5.911606194418136
 20
-4.373007318070289
 30
0.0
 10
5.92939668769027
 20
-4.353370700402045
 30
0.0
 10
5.947151060211852
 20
-4.333773951744603
 30
0.0
 10
5.960234826189119
 20
-4.311641820993487
 30
0.0
 10
5.967566758969851
 20
-4.288740109874747
 30
0.0
 10
5.972369972866836
 20
-4.273736996725734
 30
0.0
 10
5.974815375408927
 20
-4.258185904818094
 30
0.0
 10
5.974815375408948
 20
-4.242640587348848
 30
0.0
 10
5.974815375408983
 20
-4.218922987994013
 30
0.0
 10
5.969031833431645
 20
-4.194668492298312
 30
0.0
 10
5.95794150222256
 20
-4.171917859038249
 30
0.0
 10
5.94685118648541
 20
-4.14916725751721
 30
0.0
 10
5.930147724518705
 20
-4.127296181913801
 30
0.0
 10
5.909211587160828
 20
-4.108197004070647
 30
0.0
 10
5.888274188861778
 20
-4.089096675922675
 30
0.0
 10
5.862526783918026
 20
-4.072247230998114
 30
0.0
 10
5.834101680719076
 20
-4.059131570956339
 30
0.0
 10
5.80565394072427
 20
-4.046005466044169
 30
0.0
 10
5.773743673763647
 20
-4.036261978017919
 30
0.0
 10
5.741006780410148
 20
-4.03075503729979
 30
0.0
 10
5.719136370554629
 20
-4.027076036691668
 30
0.0
 10
5.696570715501104
 20
-4.025201933420997
 30
0.0
 10
5.674143443279958
 20
-4.025201933420997
 30
0.0
  0
LINE
  5
82
330
1F
100
AcDbEntity
  8
SK1
  6
Continuous
100
AcDbLine
 10
5.3527667851
 20
-5.9360383254
 30
0.0
 11
3.755
 21
-5.9360383254
 31
0.0
  0
LINE
  5
83
330
1F
100
AcDbEntity
  8
SK3
100
AcDbLine
 10
5.6741434433
 20
-4.0252019334
 30
0.0
 11
-20.345
 21
-4.0252019334
 31
0.0
  0
ARC
  5
84
330
1F
100
AcDbEntity
  8
SK3
100
AcDbCircle
 10
10.7694552043
 20
6.0367384654
 30
0.0
 40
0.3858604307977898
100
AcDbArc
 50
267.853068158
 51
357.6823664561
  0
ARC
  5
85
330
1F
100
AcDbEntity
  8
SK3
100
AcDbCircle
 10
10.7694552043
 20
5.807128406
 30
0.0
 40
0.3858604308406182
100
AcDbArc
 50
267.853068164
 51
357.6823664535
  0
LINE
  5
86
330
1F
100
AcDbEntity
  8
SK1
  6
Continuous
100
AcDbLine
 10
11.03
 20
7.4552365628
 30
0.0
 11
11.03
 21
7.9508875913
 31
0.0
  0
LINE
  5
87
330
1F
100
AcDbEntity
  8
SK1
  6
Continuous
100
AcDbLine
 10
11.155
 20
7.0254541844
 30
0.0
 11
11.155
 21
3.2347561235
 31
0.0
  0
LINE
  5
88
330
1F
100
AcDbEntity
  8
SK1
  6
Continuous
100
AcDbLine
 10
6.8344228634
 20
9.69438827
 30
0.0
 11
6.8344228634
 21
10.3732051805
 31
0.0
  0
LINE
  5
89
330
1F
100
AcDbEntity
  8
SK1
  6
Continuous
100
AcDbLine
 10
6.6344228634
 20
9.69438827
 30
0.0
 11
6.6344228634
 21
10.3732051805
 31
0.0
  0
LINE
  5
8A
330
1F
100
AcDbEntity
  8
SK1
  6
Continuous
100
AcDbLine
 10
6.355
 20
9.5452801728
 30
0.0
 11
6.355
 21
10.2118803151
 31
0.0
  0
LINE
  5
8B
330
1F
100
AcDbEntity
  8
SK1
  6
Continuous
100
AcDbLine
 10
6.155
 20
8.7000000998
 30
0.0
 11
6.155
 21
8.1477769537
 31
0.0
  0
LINE
  5
8C
330
1F
100
AcDbEntity
  8
SK1
  6
Continuous
100
AcDbLine
 10
3.0993307596
 20
9.7523902461
 30
0.0
 11
3.0993307596
 21
10.4316470597
 31
0.0
  0
LINE
  5
8D
330
1F
100
AcDbEntity
  8
SK1
  6
Continuous
100
AcDbLine
 10
3.555
 20
9.3862776105
 30
0.0
 11
3.555
 21
10.0353695984
 31
0.0
  0
LINE
  5
8E
330
1F
100
AcDbEntity
  8
SK1
  6
Continuous
100
AcDbLine
 10
3.755
 20
8.1477769537
 30
0.0
 11
3.755
 21
8.6948261475
 31
0.0
  0
ARC
  5
8F
330
1F
100
AcDbEntity
  8
SK1
  6
Continuous
100
AcDbCircle
 10
3.1648752219
 20
9.1377351207
 30
0.0
 40
0.390583895462135
100
AcDbArc
 50
2.7783367359
 51
99.6605982965
  0
LINE
  5
90
330
1F
100
AcDbEntity
  8
SK1
  6
Continuous
100
AcDbLine
 10
6.355
 20
9.3156701134
 30
0.0
 11
6.6344228634
 21
9.4647782106
 31
0.0
  0
ARC
  5
91
330
1F
100
AcDbEntity
  8
SK1
  6
Continuous
100
AcDbCircle
 10
6.7344228634
 20
9.2752681495
 30
0.0
 40
0.2142756711599712
100
AcDbArc
 50
62.180443737
 51
117.819556263
  0
SPLINE
  5
92
330
1F
100
AcDbEntity
  8
SK1
  6
Continuous
100
AcDbSpline
210
0.0
220
0.0
230
1.0
 70
     8
 71
     3
 72
     8
 73
     4
 74
     0
 42
0.0000000021027405
 43
0.0000000001
 12
1.0
 22
0.0
 32
0.0
 13
1.0
 23
0.0
 33
0.0
 40
0.0
 40
0.0
 40
0.0
 40
0.0
 40
1.0
 40
1.0
 40
1.0
 40
1.0
 10
6.834422863405975
 20
9.464778210596482
 30
0.0
 10
8.232993216536642
 20
8.718465676693205
 30
0.0
 10
9.631532561912927
 20
7.972103527236608
 30
0.0
 10
11.03
 20
7.225626503332635
 30
0.0
  0
ARC
  5
93
330
1F
100
AcDbEntity
  8
SK1
  6
Continuous
100
AcDbCircle
 10
10.9264792456
 20
7.021866697
 30
0.0
 40
0.2285489121905381
100
AcDbArc
 50
0.8993975237
 51
63.0670226642
  0
LINE
  5
94
330
1F
100
AcDbEntity
  8
SK3
100
AcDbLine
 10
10.755
 20
5.4215388325
 30
0.0
 11
-17.7063782007
 21
5.4215388325
 31
0.0
  0
LINE
  5
95
330
1F
100
AcDbEntity
  8
SK1
  6
Continuous
100
AcDbLine
 10
6.355
 20
9.5452801728
 30
0.0
 11
6.355
 21
9.3156701134
 31
0.0
  0
ARC
  5
96
330
1F
100
AcDbEntity
  8
SK1
  6
Continuous
100
AcDbCircle
 10
6.1622842399
 20
8.3405151223
 30
0.0
 40
0.1928757677871503
100
AcDbArc
 50
267.8356250557
 51
357.6660087198
  0
LINE
  5
97
330
1F
100
AcDbEntity
  8
SK1
  6
Continuous
100
AcDbLine
 10
6.155
 20
8.1477769537
 30
0.0
 11
3.755
 21
8.1477769537
 31
0.0
  0
ARC
  5
98
330
1F
100
AcDbEntity
  8
SK1
  6
Continuous
100
AcDbCircle
 10
3.7477175423
 20
8.3405170503
 30
0.0
 40
0.1928776270569773
100
AcDbArc
 50
182.3345419563
 51
272.1638242694
  0
LINE
  5
99
330
1F
100
AcDbEntity
  8
SK1
  6
Continuous
100
AcDbLine
 10
3.555
 20
9.1566675511
 30
0.0
 11
3.555
 21
9.3862776105
 31
0.0
  0
ARC
  5
9A
330
1F
100
AcDbEntity
  8
SK1
  6
Continuous
100
AcDbCircle
 10
6.1622842399
 20
8.1109050629
 30
0.0
 40
0.192875767787155
100
AcDbArc
 50
267.8356250557
 51
357.6660087198
  0
LINE
  5
9B
330
1F
100
AcDbEntity
  8
SK1
  6
Continuous
100
AcDbLine
 10
6.155
 20
7.9181668943
 30
0.0
 11
3.755
 21
7.9181668943
 31
0.0
  0
ARC
  5
9C
330
1F
100
AcDbEntity
  8
SK1
  6
Continuous
100
AcDbCircle
 10
3.7477175423
 20
8.1109069909
 30
0.0
 40
0.1928776270569734
100
AcDbArc
 50
182.3345419563
 51
272.1638242694
  0
ARC
  5
9D
330
1F
100
AcDbEntity
  8
SK1
  6
Continuous
100
AcDbCircle
 10
3.1648752219
 20
9.3673451801
 30
0.0
 40
0.3905838954621347
100
AcDbArc
 50
2.7783367359
 51
99.6605982965
  0
LINE
  5
9E
330
1F
100
AcDbEntity
  8
SK1
  6
Continuous
100
AcDbLine
 10
6.355
 20
9.5452801728
 30
0.0
 11
6.6344228634
 21
9.69438827
 31
0.0
  0
ARC
  5
9F
330
1F
100
AcDbEntity
  8
SK1
  6
Continuous
100
AcDbCircle
 10
6.7344228634
 20
9.5048782089
 30
0.0
 40
0.2142756711599595
100
AcDbArc
 50
62.180443737
 51
117.819556263
  0
SPLINE
  5
A0
330
1F
100
AcDbEntity
  8
SK1
  6
Continuous
100
AcDbSpline
210
0.0
220
0.0
230
1.0
 70
     8
 71
     3
 72
     8
 73
     4
 74
     0
 42
0.0000000021027405
 43
0.0000000001
 12
1.0
 22
0.0
 32
0.0
 13
1.0
 23
0.0
 33
0.0
 40
0.0
 40
0.0
 40
0.0
 40
0.0
 40
1.0
 40
1.0
 40
1.0
 40
1.0
 10
6.834422863405975
 20
9.694388270015532
 30
0.0
 10
8.232993216536643
 20
8.94807573611226
 30
0.0
 10
9.631532561912927
 20
8.201713586655663
 30
0.0
 10
11.03
 20
7.45523656275169
 30
0.0
  0
ARC
  5
A1
330
1F
100
AcDbEntity
  8
SK1
  6
Continuous
100
AcDbCircle
 10
10.9264792456
 20
7.2514767564
 30
0.0
 40
0.2285489121905366
100
AcDbArc
 50
0.8993975237
 51
63.0670226642
  0
LINE
  5
A2
330
1F
100
AcDbEntity
  8
SK1
  6
Continuous
100
AcDbLine
 10
11.155
 20
7.2550642438
 30
0.0
 11
11.155
 21
7.0254541844
 31
0.0
  0
LINE
  5
A3
330
1F
100
AcDbEntity
  8
SK3
100
AcDbLine
 10
10.755
 20
5.6511488919
 30
0.0
 11
-17.7063782007
 21
5.6511488919
 31
0.0
  0
LINE
  5
A4
330
1F
100
AcDbEntity
  8
SK1
  6
Continuous
100
AcDbLine
 10
3.0993307596
 20
-10.4316468601
 30
0.0
 11
3.0993307596
 21
-9.7523900466
 31
0.0
  0
LINE
  5
A5
330
1F
100
AcDbEntity
  8
SK1
  6
Continuous
100
AcDbLine
 10
3.555
 20
-10.0353693989
 30
0.0
 11
3.555
 21
-9.386277411
 31
0.0
  0
SPLINE
  5
A6
330
1F
100
AcDbEntity
  8
SK1
  6
Continuous
100
AcDbSpline
210
0.0
220
0.0
230
1.0
 70
     8
 71
     3
 72
    10
 73
     6
 74
     0
 42
0.0000000141888833
 43
0.0000000001
 12
1.0
 22
0.0
 32
0.0
 13
1.0
 23
0.0
 33
0.0
 40
0.0
 40
0.0
 40
0.0
 40
0.0
 40
0.5
 40
0.5
 40
1.0
 40
1.0
 40
1.0
 40
1.0
 10
3.099330759615954
 20
-10.43164686011601
 30
0.0
 10
3.213332587605538
 20
-10.4476753963471
 30
0.0
 10
3.331761943217003
 20
-10.41187557155707
 30
0.0
 10
3.503067280621877
 20
-10.26290838802567
 30
0.0
 10
3.554999999999996
 20
-10.15005621487736
 30
0.0
 10
3.554999999999996
 20
-10.03536939890331
 30
0.0
  0
LINE
  5
A7
330
1F
100
AcDbEntity
  8
SK1
  6
Continuous
100
AcDbLine
 10
3.755
 20
-8.6948259479
 30
0.0
 11
3.755
 21
-8.1477767542
 31
0.0
  0
LINE
  5
A8
330
1F
100
AcDbEntity
  8
SK1
  6
Continuous
100
AcDbLine
 10
-20.0867519303
 20
-7.1710959019
 30
0.0
 11
-20.0867519303
 21
-5.2828625459
 31
0.0
  0
LINE
  5
A9
330
1F
100
AcDbEntity
  8
SK1
  6
Continuous
100
AcDbLine
 10
-20.345
 20
-6.873744394
 30
0.0
 11
-20.345
 21
-5.0726032783
 31
0.0
  0
SPLINE
  5
AA
330
1F
100
AcDbEntity
  8
SK1
  6
Continuous
100
AcDbSpline
210
0.0
220
0.0
230
1.0
 70
     8
 71
     3
 72
    10
 73
     6
 74
     0
 42
0.0000000228003628
 43
0.0000000001
 12
1.0
 22
0.0
 32
0.0
 13
1.0
 23
0.0
 33
0.0
 40
0.0
 40
0.0
 40
0.0
 40
0.0
 40
0.5
 40
0.5
 40
1.0
 40
1.0
 40
1.0
 40
1.0
 10
-20.34500000000014
 20
-6.873744394003235
 30
0.0
 10
-20.34500000000001
 20
-6.945218306344693
 30
0.0
 10
-20.31826377619246
 20
-7.016718908212083
 30
0.0
 10
-20.22485489205889
 20
-7.124432064176818
 30
0.0
 10
-20.15828210193434
 20
-7.161034198767775
 30
0.0
 10
-20.08675193028802
 20
-7.171095901921245
 30
0.0
  0
SPLINE
  5
AB
330
1F
100
AcDbEntity
  8
SK1
  6
Continuous
100
AcDbSpline
210
0.0
220
0.0
230
1.0
 70
     8
 71
     3
 72
    11
 73
     7
 74
     0
 42
0.0000000004270909
 43
0.0000000001
 12
1.0
 22
0.0
 32
0.0
 13
1.0
 23
0.0
 33
0.0
 40
0.0
 40
0.0
 40
0.0
 40
0.0
 40
0.5381671552188961
 40
0.5381671552188961
 40
0.5381671552188961
 40
1.0
 40
1.0
 40
1.0
 40
1.0
 10
-20.08675193028802
 20
-7.171095901921245
 30
0.0
 10
-15.92744457914447
 20
-7.756159728006253
 30
0.0
 10
-11.76812064058487
 20
-8.341105633773335
 30
0.0
 10
-7.608788294740508
 20
-8.925991741218933
 30
0.0
 10
-4.039420912747567
 20
-9.427916862971456
 30
0.0
 10
-0.4700470807934929
 20
-9.929796117488848
 30
0.0
 10
3.099330759615954
 20
-10.43164686011601
 30
0.0
  0
SPLINE
  5
AC
330
1F
100
AcDbEntity
  8
SK1
  6
Continuous
100
AcDbSpline
210
0.0
220
0.0
230
1.0
 70
     8
 71
     3
 72
    10
 73
     6
 74
     0
 42
0.0000000310380488
 43
0.0000000001
 12
1.0
 22
0.0
 32
0.0
 13
1.0
 23
0.0
 33
0.0
 40
0.0
 40
0.0
 40
0.0
 40
0.0
 40
0.5
 40
0.5
 40
1.0
 40
1.0
 40
1.0
 40
1.0
 10
3.754999999999984
 20
-8.694825947942961
 30
0.0
 10
3.702123214864995
 20
-8.694825947942963
 30
0.0
 10
3.65040331984685
 20
-8.716556536017535
 30
0.0
 10
3.576614556171774
 20
-8.790461458597205
 30
0.0
 10
3.554999999999978
 20
-8.842731221845726
 30
0.0
 10
3.554999999999985
 20
-8.894942283404136
 30
0.0
  0
ARC
  5
AD
330
1F
100
AcDbEntity
  8
SK1
  6
Continuous
100
AcDbCircle
 10
5.3530620856
 20
-17.5075460599
 30
0.0
 40
8.812720116865247
100
AcDbArc
 50
88.0676492869
 51
90.0019198919
  0
ARC
  5
AE
330
1F
100
AcDbEntity
  8
SK3
100
AcDbCircle
 10
5.6743595739
 20
-12.0107265952
 30
0.0
 40
6.018231392214831
100
AcDbArc
 50
87.1383605232
 51
90.0020576429
  0
SPLINE
  5
AF
330
1F
100
AcDbEntity
  8
SK1
  6
Continuous
100
AcDbSpline
210
0.0
220
0.0
230
1.0
 70
     8
 71
     3
 72
    14
 73
    10
 74
     0
 42
0.0000000004805137
 43
0.0000000001
 12
1.0
 22
0.0
 32
0.0
 13
1.0
 23
0.0
 33
0.0
 40
0.0
 40
0.0
 40
0.0
 40
0.0
 40
0.0930726460150641
 40
0.0930726460150641
 40
0.0930726460150641
 40
0.7506217268761227
 40
0.7506217268761227
 40
0.7506217268761227
 40
1.0
 40
1.0
 40
1.0
 40
1.0
 10
-17.53829342754905
 20
6.841598539773646
 30
0.0
 10
-16.89803006911974
 20
6.924798086984513
 30
0.0
 10
-16.25776635793768
 20
7.007995317153871
 30
0.0
 10
-15.6175023294546
 20
7.091190462975823
 30
0.0
 10
-11.09410000465085
 20
7.678955977329331
 30
0.0
 10
-6.570682434496304
 20
8.266621348225897
 30
0.0
 10
-2.047257135582126
 20
8.85423592847571
 30
0.0
 10
-0.33172893776039
 20
9.077091246128843
 30
0.0
 10
1.38380043701514
 20
9.299938830567122
 30
0.0
 10
3.099330759615951
 20
9.52278018668411
 30
0.0
  0
SPLINE
  5
B0
330
1F
100
AcDbEntity
  8
SK3
100
AcDbSpline
210
0.0
220
0.0
230
1.0
 70
     8
 71
     3
 72
    35
 73
    31
 74
     0
 42
0.0000000145207879
 43
0.0000000001
 12
1.0
 22
0.0
 32
0.0
 13
1.0
 23
0.0
 33
0.0
 40
0.0
 40
0.0
 40
0.0
 40
0.0
 40
0.1077842904312125
 40
0.1077842904312125
 40
0.1077842904312125
 40
0.2155922120754821
 40
0.2155922120754821
 40
0.2155922120754821
 40
0.323068841564256
 40
0.323068841564256
 40
0.323068841564256
 40
0.4303218169492537
 40
0.4303218169492537
 40
0.4303218169492537
 40
0.5000091041823834
 40
0.5000091041823834
 40
0.5000091041823834
 40
0.6072073787889494
 40
0.6072073787889494
 40
0.6072073787889494
 40
0.7144053444276703
 40
0.7144053444276703
 40
0.7144053444276703
 40
0.8216082817798357
 40
0.8216082817798357
 40
0.8216082817798357
 40
0.928893438522836
 40
0.928893438522836
 40
0.928893438522836
 40
1.0
 40
1.0
 40
1.0
 40
1.0
 10
-17.70637820067292
 20
5.651148891946975
 30
0.0
 10
-17.74010232299938
 20
5.651148891946975
 30
0.0
 10
-17.77429280977411
 20
5.649206715266872
 30
0.0
 10
-17.80612038954952
 20
5.645430554114069
 30
0.0
 10
-17.83795221602049
 20
5.641653889115014
 30
0.0
 10
-17.86829828330137
 20
5.635933575896553
 30
0.0
 10
-17.89462273794226
 20
5.62863022596199
 30
0.0
 10
-17.92086761764905
 20
5.621348952974418
 30
0.0
 10
-17.94384095181109
 20
5.612286809822692
 30
0.0
 10
-17.96163144508323
 20
5.602068005591111
 30
0.0
 10
-17.97938581760481
 20
5.591869949006765
 30
0.0
 10
-17.99246958358208
 20
5.580233056804943
 30
0.0
 10
-17.99980151636282
 20
5.568032370641268
 30
0.0
 10
-18.00460473025981
 20
5.560039593417739
 30
0.0
 10
-18.00705013280058
 20
5.551690360028335
 30
0.0
 10
-18.00705013280058
 20
5.543277294838422
 30
0.0
 10
-18.00705013280058
 20
5.530441422562822
 30
0.0
 10
-18.00126659082455
 20
5.517154406365258
 30
0.0
 10
-17.99017625961552
 20
5.504558617093225
 30
0.0
 10
-17.97908594387837
 20
5.491962845393301
 30
0.0
 10
-17.96238248191167
 20
5.479714835005885
 30
0.0
 10
-17.94144634455379
 20
5.468935922575562
 30
0.0
 10
-17.92050894625474
 20
5.458156360953164
 30
0.0
 10
-17.89476154131099
 20
5.448555247304589
 30
0.0
 10
-17.86633643811204
 20
5.441048846442179
 30
0.0
 10
-17.83788869811724
 20
5.433536467734665
 30
0.0
 10
-17.80597843115661
 20
5.427920856318472
 30
0.0
 10
-17.77324153780311
 20
5.424744366644452
 30
0.0
 10
-17.75137112794759
 20
5.422622261461091
 30
0.0
 10
-17.72880547289407
 20
5.421538832527921
 30
0.0
 10
-17.70637820067292
 20
5.421538832527921
 30
0.0
  0
SPLINE
  5
B1
330
1F
100
AcDbEntity
  8
SK1
  6
Continuous
100
AcDbSpline
210
0.0
220
0.0
230
1.0
 70
     8
 71
     3
 72
    35
 73
    31
 74
     0
 42
0.0000000142236325
 43
0.0000000001
 12
1.0
 22
0.0
 32
0.0
 13
1.0
 23
0.0
 33
0.0
 40
0.0
 40
0.0
 40
0.0
 40
0.0
 40
0.1117233164449564
 40
0.1117233164449564
 40
0.1117233164449564
 40
0.2235899350060531
 40
0.2235899350060531
 40
0.2235899350060531
 40
0.3332067637954378
 40
0.3332067637954378
 40
0.3332067637954378
 40
0.4396516738575531
 40
0.4396516738575531
 40
0.4396516738575531
 40
0.5001354043579104
 40
0.5001354043579104
 40
0.5001354043579104
 40
0.6039399458435024
 40
0.6039399458435024
 40
0.6039399458435024
 40
0.7076832859491134
 40
0.7076832859491134
 40
0.7076832859491134
 40
0.8123929054524548
 40
0.8123929054524548
 40
0.8123929054524548
 40
0.9195822626685418
 40
0.9195822626685418
 40
0.9195822626685418
 40
1.0
 40
1.0
 40
1.0
 40
1.0
 10
-17.53829342754905
 20
6.841598539773646
 30
0.0
 10
-17.57338212824882
 20
6.837038909783885
 30
0.0
 10
-17.60899343211493
 20
6.834941534055551
 30
0.0
 10
-17.64218671612916
 20
6.835494056510989
 30
0.0
 10
-17.67540449287597
 20
6.836046986662899
 30
0.0
 10
-17.70712965240538
 20
6.839275292297063
 30
0.0
 10
-17.73452605073211
 20
6.844879427603182
 30
0.0
 10
-17.76137216597266
 20
6.850370998446088
 30
0.0
 10
-17.78482158612429
 20
6.858301263160328
 30
0.0
 10
-17.80268948156549
 20
6.867919958932149
 30
0.0
 10
-17.82004828366987
 20
6.877264598145802
 30
0.0
 10
-17.8326286460608
 20
6.888464592653722
 30
0.0
 10
-17.83926001630303
 20
6.900503791339695
 30
0.0
 10
-17.84306617142637
 20
6.907413834978606
 30
0.0
 10
-17.84500000000033
 20
6.914684469167192
 30
0.0
 10
-17.84500000000033
 20
6.922099256938264
 30
0.0
 10
-17.84500000000034
 20
6.934704843557911
 30
0.0
 10
-17.83930340949029
 20
6.948012006347295
 30
0.0
 10
-17.82842379463959
 20
6.960942036609401
 30
0.0
 10
-17.81754774094802
 20
6.973867834562195
 30
0.0
 10
-17.80120354425114
 20
6.986772017503322
 30
0.0
 10
-17.78081497472952
 20
6.99869516423529
 30
0.0
 10
-17.76023282233507
 20
7.010731517388868
 30
0.0
 10
-17.73498879019686
 20
7.022095619460115
 30
0.0
 10
-17.70718462574694
 20
7.032011551010229
 30
0.0
 10
-17.67872539013857
 20
7.042161103706531
 30
0.0
 10
-17.64683596567109
 20
7.051069119407445
 30
0.0
 10
-17.61407969174231
 20
7.058150739167897
 30
0.0
 10
-17.58935674216669
 20
7.063495624505951
 30
0.0
 10
-17.56372367144028
 20
7.067904045294126
 30
0.0
 10
-17.53829342754905
 20
7.071208599192701
 30
0.0
  0
SPLINE
  5
B2
330
1F
100
AcDbEntity
  8
SK1
  6
Continuous
100
AcDbSpline
210
0.0
220
0.0
230
1.0
 70
     8
 71
     3
 72
    14
 73
    10
 74
     0
 42
0.0000000004805137
 43
0.0000000001
 12
1.0
 22
0.0
 32
0.0
 13
1.0
 23
0.0
 33
0.0
 40
0.0
 40
0.0
 40
0.0
 40
0.0
 40
0.0930726460150641
 40
0.0930726460150641
 40
0.0930726460150641
 40
0.7506217268761227
 40
0.7506217268761227
 40
0.7506217268761227
 40
1.0
 40
1.0
 40
1.0
 40
1.0
 10
-17.53829342754905
 20
7.071208599192701
 30
0.0
 10
-16.89803006911974
 20
7.154408146403566
 30
0.0
 10
-16.25776635793768
 20
7.237605376572925
 30
0.0
 10
-15.6175023294546
 20
7.320800522394876
 30
0.0
 10
-11.09410000465085
 20
7.908566036748383
 30
0.0
 10
-6.570682434496304
 20
8.496231407644949
 30
0.0
 10
-2.047257135582126
 20
9.083845987894763
 30
0.0
 10
-0.33172893776039
 20
9.3067013055479
 30
0.0
 10
1.38380043701514
 20
9.529548889986176
 30
0.0
 10
3.099330759615951
 20
9.752390246103165
 30
0.0
  0
ELLIPSE
  5
B3
330
1F
100
AcDbEntity
  8
SK1
  6
Continuous
100
AcDbEllipse
 10
44.2042816058
 20
0.1148052946
 30
0.0
 11
-62.19999836598589
 21
-1.121062835976144E-6
 31
0.0
210
0.0
220
0.0
230
1.0
 40
0.9238795444
 41
-0.1213516092650302
 42
-0.1173039058919683
  0
LINE
  5
B4
330
1F
100
AcDbEntity
  8
SK1
  6
Continuous
100
AcDbLine
 10
5.3527667851
 20
-8.6948259479
 30
0.0
 11
3.755
 21
-8.6948259479
 31
0.0
  0
LINE
  5
B5
330
1F
100
AcDbEntity
  8
SK3
100
AcDbLine
 10
5.6741434433
 20
-5.9924952069
 30
0.0
 11
-20.345
 21
-5.9924952069
 31
0.0
  0
SPLINE
  5
B6
330
1F
100
AcDbEntity
  8
SK3
100
AcDbSpline
210
0.0
220
0.0
230
1.0
 70
     8
 71
     3
 72
    10
 73
     6
 74
     0
 42
0.0000000213882019
 43
0.0000000001
 12
1.0
 22
0.0
 32
0.0
 13
1.0
 23
0.0
 33
0.0
 40
0.0
 40
0.0
 40
0.0
 40
0.0
 40
0.5
 40
0.5
 40
1.0
 40
1.0
 40
1.0
 40
1.0
 10
11.15500000000472
 20
2.72364570408133
 30
0.0
 10
11.1549999999998
 20
2.683707817628548
 30
0.0
 10
11.11261705436338
 20
2.643969686188671
 30
0.0
 10
10.9634481415922
 20
2.586739629669355
 30
0.0
 10
10.86070985221529
 20
2.57039263189735
 30
0.0
 10
10.755
 20
2.570392631897498
 30
0.0
  0
SPLINE
  5
B7
330
1F
100
AcDbEntity
  8
SK3
100
AcDbSpline
210
0.0
220
0.0
230
1.0
 70
     8
 71
     3
 72
    10
 73
     6
 74
     0
 42
0.0000000213882019
 43
0.0000000001
 12
1.0
 22
0.0
 32
0.0
 13
1.0
 23
0.0
 33
0.0
 40
0.0
 40
0.0
 40
0.0
 40
0.0
 40
0.5
 40
0.5
 40
1.0
 40
1.0
 40
1.0
 40
1.0
 10
11.15500000000472
 20
2.169317984574559
 30
0.0
 10
11.1549999999998
 20
2.129380098121777
 30
0.0
 10
11.11261705436338
 20
2.089641966681899
 30
0.0
 10
10.9634481415922
 20
2.032411910162583
 30
0.0
 10
10.86070985221529
 20
2.016064912390578
 30
0.0
 10
10.755
 20
2.016064912390727
 30
0.0
  0
LINE
  5
B8
330
1F
100
AcDbEntity
  8
SK1
  6
Continuous
100
AcDbLine
 10
11.03
 20
3.3176702129
 30
0.0
 11
11.03
 21
7.2256265033
 31
0.0
  0
LINE
  5
B9
330
1F
100
AcDbEntity
  8
SK1
  6
Continuous
100
AcDbLine
 10
11.155
 20
2.680428404
 30
0.0
 11
11.155
 21
-2.6804282045
 31
0.0
  0
LINE
  5
BA
330
1F
100
AcDbEntity
  8
SK1
  6
Continuous
100
AcDbLine
 10
6.8344228634
 20
4.2451572182
 30
0.0
 11
6.8344228634
 21
9.4647782106
 31
0.0
  0
LINE
  5
BB
330
1F
100
AcDbEntity
  8
SK1
  6
Continuous
100
AcDbLine
 10
6.6344228634
 20
4.2451572182
 30
0.0
 11
6.6344228634
 21
9.4647782106
 31
0.0
  0
LINE
  5
BC
330
1F
100
AcDbEntity
  8
SK1
  6
Continuous
100
AcDbLine
 10
6.355
 20
4.1833946221
 30
0.0
 11
6.355
 21
9.3156701134
 31
0.0
  0
LINE
  5
BD
330
1F
100
AcDbEntity
  8
SK1
  6
Continuous
100
AcDbLine
 10
6.155
 20
3.6045298353
 30
0.0
 11
6.155
 21
7.9181668943
 31
0.0
  0
LINE
  5
BE
330
1F
100
AcDbEntity
  8
SK1
  6
Continuous
100
AcDbLine
 10
3.0993307596
 20
4.2691824234
 30
0.0
 11
3.0993307596
 21
7.1641563697
 31
0.0
  0
LINE
  5
BF
330
1F
100
AcDbEntity
  8
SK1
  6
Continuous
100
AcDbLine
 10
3.555
 20
4.1175336043
 30
0.0
 11
3.555
 21
6.8839458896
 31
0.0
  0
LINE
  5
C0
330
1F
100
AcDbEntity
  8
SK1
  6
Continuous
100
AcDbLine
 10
3.755
 20
3.6045298353
 30
0.0
 11
3.755
 21
5.936038525
 31
0.0
  0
SPLINE
  5
C1
330
1F
100
AcDbEntity
  8
SK1
  6
Continuous
100
AcDbSpline
210
0.0
220
0.0
230
1.0
 70
     8
 71
     3
 72
    10
 73
     6
 74
     0
 42
0.0000000190345776
 43
0.0000000001
 12
1.0
 22
0.0
 32
0.0
 13
1.0
 23
0.0
 33
0.0
 40
0.0
 40
0.0
 40
0.0
 40
0.0
 40
0.5
 40
0.5
 40
1.0
 40
1.0
 40
1.0
 40
1.0
 10
3.099330759615954
 20
3.714854703847609
 30
0.0
 10
3.213332587605497
 20
3.720988559108307
 30
0.0
 10
3.33176194321699
 20
3.707288559279593
 30
0.0
 10
3.503067280621873
 20
3.650281286176039
 30
0.0
 10
3.554999999999996
 20
3.607094629205768
 30
0.0
 10
3.554999999999992
 20
3.563205884821809
 30
0.0
  0
LINE
  5
C2
330
1F
100
AcDbEntity
  8
SK1
  6
Continuous
100
AcDbLine
 10
6.355
 20
3.6290669026
 30
0.0
 11
6.6344228634
 21
3.6908294987
 31
0.0
  0
ARC
  5
C3
330
1F
100
AcDbEntity
  8
SK1
  6
Continuous
100
AcDbCircle
 10
6.7344228634
 20
3.207981983
 30
0.0
 40
0.4930940310551373
100
AcDbArc
 50
78.2991936809
 51
101.7008063191
  0
LINE
  5
C4
330
1F
100
AcDbEntity
  8
SK1
  6
Continuous
100
AcDbLine
 10
6.8344228634
 20
3.6908294987
 30
0.0
 11
11.03
 21
2.7633424933
 31
0.0
  0
SPLINE
  5
C5
330
1F
100
AcDbEntity
  8
SK1
  6
Continuous
100
AcDbSpline
210
0.0
220
0.0
230
1.0
 70
     8
 71
     3
 72
     8
 73
     4
 74
     0
 42
0.0000000587426104
 43
0.0000000001
 12
1.0
 22
0.0
 32
0.0
 13
1.0
 23
0.0
 33
0.0
 40
0.0
 40
0.0
 40
0.0
 40
0.0
 40
1.0
 40
1.0
 40
1.0
 40
1.0
 10
11.03
 20
2.763342493348125
 30
0.0
 10
11.10629747165011
 20
2.746473135638051
 30
0.0
 10
11.155
 20
2.713969998965966
 30
0.0
 10
11.155
 20
2.680428404019612
 30
0.0
  0
LINE
  5
C6
330
1F
100
AcDbEntity
  8
SK3
100
AcDbLine
 10
10.755
 20
2.0160649124
 30
0.0
 11
-17.7063782007
 21
2.0160649124
 31
0.0
  0
LINE
  5
C7
330
1F
100
AcDbEntity
  8
SK1
  6
Continuous
100
AcDbLine
 10
6.355
 20
4.1833946221
 30
0.0
 11
6.355
 21
3.6811110414
 31
0.0
  0
SPLINE
  5
C8
330
1F
100
AcDbEntity
  8
SK1
  6
Continuous
100
AcDbSpline
210
0.0
220
0.0
230
1.0
 70
     8
 71
     3
 72
    10
 73
     6
 74
     0
 42
0.0000000427808113
 43
0.0000000001
 12
1.0
 22
0.0
 32
0.0
 13
1.0
 23
0.0
 33
0.0
 40
0.0
 40
0.0
 40
0.0
 40
0.0
 40
0.5
 40
0.5
 40
1.0
 40
1.0
 40
1.0
 40
1.0
 10
6.354999999999982
 20
3.681111041407139
 30
0.0
 10
6.354999999999998
 20
3.661148012900987
 30
0.0
 10
6.333797885669118
 20
3.641287041062028
 30
0.0
 10
6.259194095999031
 20
3.612690469447568
 30
0.0
 10
6.207837205997878
 20
3.60452983528023
 30
0.0
 10
6.15499999999999
 20
3.604529835280532
 30
0.0
  0
LINE
  5
C9
330
1F
100
AcDbEntity
  8
SK1
  6
Continuous
100
AcDbLine
 10
6.155
 20
3.6045298353
 30
0.0
 11
3.755
 21
3.6045298353
 31
0.0
  0
SPLINE
  5
CA
330
1F
100
AcDbEntity
  8
SK1
  6
Continuous
100
AcDbSpline
210
0.0
220
0.0
230
1.0
 70
     8
 71
     3
 72
    10
 73
     6
 74
     0
 42
0.0000000427872622
 43
0.0000000001
 12
1.0
 22
0.0
 32
0.0
 13
1.0
 23
0.0
 33
0.0
 40
0.0
 40
0.0
 40
0.0
 40
0.0
 40
0.5
 40
0.5
 40
1.0
 40
1.0
 40
1.0
 40
1.0
 10
3.754999999999984
 20
3.604529835280532
 30
0.0
 10
3.70212321486493
 20
3.604529835280533
 30
0.0
 10
3.650403319846719
 20
3.612845771312245
 30
0.0
 10
3.576614556171625
 20
3.641127960753772
 30
0.0
 10
3.554999999999876
 20
3.661130733162665
 30
0.0
 10
3.55499999999764
 20
3.681111041407241
 30
0.0
  0
LINE
  5
CB
330
1F
100
AcDbEntity
  8
SK1
  6
Continuous
100
AcDbLine
 10
3.555
 20
3.6811110414
 30
0.0
 11
3.555
 21
4.1175336043
 31
0.0
  0
SPLINE
  5
CC
330
1F
100
AcDbEntity
  8
SK1
  6
Continuous
100
AcDbSpline
210
0.0
220
0.0
230
1.0
 70
     8
 71
     3
 72
    10
 73
     6
 74
     0
 42
0.0000000427808113
 43
0.0000000001
 12
1.0
 22
0.0
 32
0.0
 13
1.0
 23
0.0
 33
0.0
 40
0.0
 40
0.0
 40
0.0
 40
0.0
 40
0.5
 40
0.5
 40
1.0
 40
1.0
 40
1.0
 40
1.0
 10
6.354999999999982
 20
3.126783321900365
 30
0.0
 10
6.354999999999998
 20
3.106820293394212
 30
0.0
 10
6.333797885669118
 20
3.086959321555254
 30
0.0
 10
6.259194095999031
 20
3.058362749940797
 30
0.0
 10
6.207837205997878
 20
3.050202115773458
 30
0.0
 10
6.15499999999999
 20
3.05020211577376
 30
0.0
  0
LINE
  5
CD
330
1F
100
AcDbEntity
  8
SK1
  6
Continuous
100
AcDbLine
 10
6.155
 20
3.0502021158
 30
0.0
 11
3.755
 21
3.0502021158
 31
0.0
  0
SPLINE
  5
CE
330
1F
100
AcDbEntity
  8
SK1
  6
Continuous
100
AcDbSpline
210
0.0
220
0.0
230
1.0
 70
     8
 71
     3
 72
    10
 73
     6
 74
     0
 42
0.0000000427872622
 43
0.0000000001
 12
1.0
 22
0.0
 32
0.0
 13
1.0
 23
0.0
 33
0.0
 40
0.0
 40
0.0
 40
0.0
 40
0.0
 40
0.5
 40
0.5
 40
1.0
 40
1.0
 40
1.0
 40
1.0
 10
3.754999999999984
 20
3.05020211577376
 30
0.0
 10
3.702123214864926
 20
3.050202115773761
 30
0.0
 10
3.65040331984672
 20
3.058518051805471
 30
0.0
 10
3.576614556171628
 20
3.086800241246999
 30
0.0
 10
3.554999999999878
 20
3.106803013655894
 30
0.0
 10
3.55499999999764
 20
3.126783321900469
 30
0.0
  0
SPLINE
  5
CF
330
1F
100
AcDbEntity
  8
SK1
  6
Continuous
100
AcDbSpline
210
0.0
220
0.0
230
1.0
 70
     8
 71
     3
 72
    10
 73
     6
 74
     0
 42
0.0000000190345776
 43
0.0000000001
 12
1.0
 22
0.0
 32
0.0
 13
1.0
 23
0.0
 33
0.0
 40
0.0
 40
0.0
 40
0.0
 40
0.0
 40
0.5
 40
0.5
 40
1.0
 40
1.0
 40
1.0
 40
1.0
 10
3.099330759615954
 20
4.269182423354381
 30
0.0
 10
3.213332587605491
 20
4.27531627861508
 30
0.0
 10
3.331761943216988
 20
4.261616278786365
 30
0.0
 10
3.503067280621873
 20
4.204609005682812
 30
0.0
 10
3.554999999999996
 20
4.161422348712537
 30
0.0
 10
3.554999999999992
 20
4.117533604328583
 30
0.0
  0
LINE
  5
D0
330
1F
100
AcDbEntity
  8
SK1
  6
Continuous
100
AcDbLine
 10
6.355
 20
4.1833946221
 30
0.0
 11
6.6344228634
 21
4.2451572182
 31
0.0
  0
ARC
  5
D1
330
1F
100
AcDbEntity
  8
SK1
  6
Continuous
100
AcDbCircle
 10
6.7344228634
 20
3.7623097025
 30
0.0
 40
0.4930940310552659
100
AcDbArc
 50
78.2991936809
 51
101.7008063191
  0
LINE
  5
D2
330
1F
100
AcDbEntity
  8
SK1
  6
Continuous
100
AcDbLine
 10
6.8344228634
 20
4.2451572182
 30
0.0
 11
11.03
 21
3.3176702129
 31
0.0
  0
SPLINE
  5
D3
330
1F
100
AcDbEntity
  8
SK1
  6
Continuous
100
AcDbSpline
210
0.0
220
0.0
230
1.0
 70
     8
 71
     3
 72
     8
 73
     4
 74
     0
 42
0.0000000587426104
 43
0.0000000001
 12
1.0
 22
0.0
 32
0.0
 13
1.0
 23
0.0
 33
0.0
 40
0.0
 40
0.0
 40
0.0
 40
0.0
 40
1.0
 40
1.0
 40
1.0
 40
1.0
 10
11.03
 20
3.317670212854898
 30
0.0
 10
11.10629747165015
 20
3.300800855144814
 30
0.0
 10
11.155
 20
3.268297718472752
 30
0.0
 10
11.155
 20
3.234756123526385
 30
0.0
  0
LINE
  5
D4
330
1F
100
AcDbEntity
  8
SK1
  6
Continuous
100
AcDbLine
 10
11.155
 20
3.2347561235
 30
0.0
 11
11.155
 21
2.7236457041
 31
0.0
  0
LINE
  5
D5
330
1F
100
AcDbEntity
  8
SK3
100
AcDbLine
 10
10.755
 20
2.5703926319
 30
0.0
 11
-17.7063782007
 21
2.5703926319
 31
0.0
  0
SPLINE
  5
D6
330
1F
100
AcDbEntity
  8
SK3
100
AcDbSpline
210
0.0
220
0.0
230
1.0
 70
     8
 71
     3
 72
     8
 73
     4
 74
     0
 42
0.0000004965083696
 43
0.0000000001
 12
1.0
 22
0.0
 32
0.0
 13
1.0
 23
0.0
 33
0.0
 40
0.0
 40
0.0
 40
0.0
 40
0.0
 40
1.0
 40
1.0
 40
1.0
 40
1.0
 10
5.97481537540895
 20
-4.242640587348422
 30
0.0
 10
5.974815375408959
 20
-4.249333451746399
 30
0.0
 10
5.974354825726777
 20
-4.256035655798562
 30
0.0
 10
5.973444439510169
 20
-4.262703568119112
 30
0.0
  0
LINE
  5
D7
330
1F
100
AcDbEntity
  8
SK1
  6
Continuous
100
AcDbLine
 10
-17.5382934275
 20
2.6042729025
 30
0.0
 11
3.0993307596
 21
3.7148547038
 31
0.0
  0
SPLINE
  5
D8
330
1F
100
AcDbEntity
  8
SK3
100
AcDbSpline
210
0.0
220
0.0
230
1.0
 70
     8
 71
     3
 72
    35
 73
    31
 74
     0
 42
0.0000000109635311
 43
0.0000000001
 12
1.0
 22
0.0
 32
0.0
 13
1.0
 23
0.0
 33
0.0
 40
0.0
 40
0.0
 40
0.0
 40
0.0
 40
0.1077842904312128
 40
0.1077842904312128
 40
0.1077842904312128
 40
0.2155922120754852
 40
0.2155922120754852
 40
0.2155922120754852
 40
0.3230688415642674
 40
0.3230688415642674
 40
0.3230688415642674
 40
0.4303218169492603
 40
0.4303218169492603
 40
0.4303218169492603
 40
0.5000091041823826
 40
0.5000091041823826
 40
0.5000091041823826
 40
0.6072073787889487
 40
0.6072073787889487
 40
0.6072073787889487
 40
0.7144053444276702
 40
0.7144053444276702
 40
0.7144053444276702
 40
0.8216082817798381
 40
0.8216082817798381
 40
0.8216082817798381
 40
0.9288934385228391
 40
0.9288934385228391
 40
0.9288934385228391
 40
1.0
 40
1.0
 40
1.0
 40
1.0
 10
-17.70637820067292
 20
2.570392631897498
 30
0.0
 10
-17.74010232299938
 20
2.570392631897498
 30
0.0
 10
-17.77429280977411
 20
2.565153890790253
 30
0.0
 10
-17.80612038954952
 20
2.555065446704241
 30
0.0
 10
-17.83795221602049
 20
2.544975656535648
 30
0.0
 10
-17.86829828330137
 20
2.529751882204251
 30
0.0
 10
-17.89462273794226
 20
2.510600065984666
 30
0.0
 10
-17.92086761764905
 20
2.491506142873761
 30
0.0
 10
-17.94384095181109
 20
2.467977487445358
 30
0.0
 10
-17.96163144508323
 20
2.441912553374058
 30
0.0
 10
-17.97938581760481
 20
2.415900539981649
 30
0.0
 10
-17.99246958358209
 20
2.386642586959835
 30
0.0
 10
-17.99980151636282
 20
2.35652642879933
 30
0.0
 10
-18.00460473025982
 20
2.336797067698143
 30
0.0
 10
-18.00705013280058
 20
2.31641163004385
 30
0.0
 10
-18.00705013280058
 20
2.296100693961236
 30
0.0
 10
-18.00705013280058
 20
2.265112157028593
 30
0.0
 10
-18.00126659082455
 20
2.233582708936913
 30
0.0
 10
-17.99017625961552
 20
2.204140809367878
 30
0.0
 10
-17.97908594387837
 20
2.174698950872587
 30
0.0
 10
-17.96238248191166
 20
2.146534483052011
 30
0.0
 10
-17.94144634455379
 20
2.122022716488169
 30
0.0
 10
-17.92050894625474
 20
2.097509473630247
 30
0.0
 10
-17.89476154131099
 20
2.075976872678859
 30
0.0
 10
-17.86633643811204
 20
2.059248693805325
 30
0.0
 10
-17.83788869811723
 20
2.042507193172938
 30
0.0
 10
-17.80597843115661
 20
2.030119186263695
 30
0.0
 10
-17.77324153780311
 20
2.023120176305251
 30
0.0
 10
-17.75137112794759
 20
2.018444374764734
 30
0.0
 10
-17.72880547289407
 20
2.016064912390727
 30
0.0
 10
-17.70637820067292
 20
2.016064912390727
 30
0.0
  0
SPLINE
  5
D9
330
1F
100
AcDbEntity
  8
SK1
  6
Continuous
100
AcDbSpline
210
0.0
220
0.0
230
1.0
 70
     8
 71
     3
 72
    35
 73
    31
 74
     0
 42
0.0000000108421314
 43
0.0000000001
 12
1.0
 22
0.0
 32
0.0
 13
1.0
 23
0.0
 33
0.0
 40
0.0
 40
0.0
 40
0.0
 40
0.0
 40
0.1117233164449537
 40
0.1117233164449537
 40
0.1117233164449537
 40
0.2235899350060406
 40
0.2235899350060406
 40
0.2235899350060406
 40
0.3332067637954372
 40
0.3332067637954372
 40
0.3332067637954372
 40
0.4396516738575498
 40
0.4396516738575498
 40
0.4396516738575498
 40
0.5001354043579116
 40
0.5001354043579116
 40
0.5001354043579116
 40
0.6039399458435005
 40
0.6039399458435005
 40
0.6039399458435005
 40
0.7076832859491151
 40
0.7076832859491151
 40
0.7076832859491151
 40
0.8123929054524579
 40
0.8123929054524579
 40
0.8123929054524579
 40
0.919582262668546
 40
0.919582262668546
 40
0.919582262668546
 40
1.0
 40
1.0
 40
1.0
 40
1.0
 10
-17.53829342754905
 20
2.604272902511471
 30
0.0
 10
-17.57338212824882
 20
2.602384241930308
 30
0.0
 10
-17.60899343211493
 20
2.606120521445496
 30
0.0
 10
-17.64218671612915
 20
2.615271202305631
 30
0.0
 10
-17.67540449287597
 20
2.624428635290056
 30
0.0
 10
-17.70712965240537
 20
2.639283859075093
 30
0.0
 10
-17.7345260507321
 20
2.658665057450071
 30
0.0
 10
-17.76137216597265
 20
2.677656965761138
 30
0.0
 10
-17.78482158612429
 20
2.701547319377711
 30
0.0
 10
-17.80268948156549
 20
2.728294200008097
 30
0.0
 10
-17.82004828366987
 20
2.754279006629577
 30
0.0
 10
-17.83262864606081
 20
2.783697982964133
 30
0.0
 10
-17.83926001630303
 20
2.814013283623243
 30
0.0
 10
-17.84306617142637
 20
2.831413116946475
 30
0.0
 10
-17.84500000000033
 20
2.849326569561778
 30
0.0
 10
-17.84500000000034
 20
2.86722745076082
 30
0.0
 10
-17.84500000000034
 20
2.897660028939642
 30
0.0
 10
-17.8393034094903
 20
2.928730670403819
 30
0.0
 10
-17.8284237946396
 20
2.957867218054917
 30
0.0
 10
-17.81754774094803
 20
2.986994228614501
 30
0.0
 10
-17.80120354425114
 20
3.01498478546807
 30
0.0
 10
-17.78081497472951
 20
3.039640353244093
 30
0.0
 10
-17.76023282233507
 20
3.064530017661168
 30
0.0
 10
-17.73498879019686
 20
3.086693537837617
 30
0.0
 10
-17.70718462574693
 20
3.104513113073572
 30
0.0
 10
-17.67872539013857
 20
3.122752520734765
 30
0.0
 10
-17.64683596567109
 20
3.136934200065685
 30
0.0
 10
-17.61407969174231
 20
3.146099815560145
 30
0.0
 10
-17.58935674216669
 20
3.153017606337925
 30
0.0
 10
-17.56372367144028
 20
3.15723183097586
 30
0.0
 10
-17.53829342754905
 20
3.158600622018243
 30
0.0
  0
LINE
  5
DA
330
1F
100
AcDbEntity
  8
SK1
  6
Continuous
100
AcDbLine
 10
-17.5382934275
 20
3.158600622
 30
0.0
 11
3.0993307596
 21
4.2691824234
 31
0.0
  0
ELLIPSE
  5
DB
330
1F
100
AcDbEntity
  8
SK1
  6
Continuous
100
AcDbEllipse
 10
44.2042816127
 20
0.2771640276
 30
0.0
 11
-62.19999837289213
 21
-7.932966092379467E-8
 31
0.0
210
0.0
220
0.0
230
1.0
 40
0.3826834373
 41
-0.1213515930947677
 42
-0.0992881738254736
  0
SPLINE
  5
DC
330
1F
100
AcDbEntity
  8
SK3
100
AcDbSpline
210
0.0
220
0.0
230
1.0
 70
     8
 71
     3
 72
    10
 73
     6
 74
     0
 42
0.0000000213860444
 43
0.0000000001
 12
1.0
 22
0.0
 32
0.0
 13
1.0
 23
0.0
 33
0.0
 40
0.0
 40
0.0
 40
0.0
 40
0.0
 40
0.5000000000000001
 40
0.5000000000000001
 40
1.0
 40
1.0
 40
1.0
 40
1.0
 10
11.155
 20
-2.169317785033374
 30
0.0
 10
11.155
 20
-2.128981070239997
 30
0.0
 10
11.11179906749444
 20
-2.089318724605021
 30
0.0
 10
10.9641741048
 20
-2.032699453159482
 30
0.0
 10
10.8605688481222
 20
-2.016064712849333
 30
0.0
 10
10.755
 20
-2.016064712849332
 30
0.0
  0
SPLINE
  5
DD
330
1F
100
AcDbEntity
  8
SK1
  6
Continuous
100
AcDbSpline
210
0.0
220
0.0
230
1.0
 70
     8
 71
     3
 72
     8
 73
     4
 74
     0
 42
0.0000004304275588
 43
0.0000000001
 12
1.0
 22
0.0
 32
0.0
 13
1.0
 23
0.0
 33
0.0
 40
0.0
 40
0.0
 40
0.0
 40
0.0
 40
1.0
 40
1.0
 40
1.0
 40
1.0
 10
11.155
 20
-2.723645504540146
 30
0.0
 10
11.155
 20
-2.716092109023599
 30
0.0
 10
11.15348512595459
 20
-2.708562360782142
 30
0.0
 10
11.15053804436828
 20
-2.701126377712543
 30
0.0
  0
SPLINE
  5
DE
330
1F
100
AcDbEntity
  8
SK3
100
AcDbSpline
210
0.0
220
0.0
230
1.0
 70
     8
 71
     3
 72
    10
 73
     6
 74
     0
 42
0.0000000227973718
 43
0.0000000001
 12
1.0
 22
0.0
 32
0.0
 13
1.0
 23
0.0
 33
0.0
 40
0.0
 40
0.0
 40
0.0
 40
0.0
 40
0.4483493435650304
 40
0.4483493435650304
 40
1.0
 40
1.0
 40
1.0
 40
1.0
 10
11.15053804436828
 20
-2.701126377712543
 30
0.0
 10
11.13774709275361
 20
-2.668852653058018
 30
0.0
 10
11.09797704781512
 20
-2.638345222219062
 30
0.0
 10
10.9641741048
 20
-2.587027172666254
 30
0.0
 10
10.8605688481222
 20
-2.570392432356104
 30
0.0
 10
10.755
 20
-2.570392432356104
 30
0.0
  0
LINE
  5
DF
330
1F
100
AcDbEntity
  8
SK1
  6
Continuous
100
AcDbLine
 10
11.03
 20
-2.7633422938
 30
0.0
 11
11.03
 21
2.7633424933
 31
0.0
  0
LINE
  5
E0
330
1F
100
AcDbEntity
  8
SK1
  6
Continuous
100
AcDbLine
 10
11.155
 20
-3.234755924
 30
0.0
 11
11.155
 21
-7.0254539848
 31
0.0
  0
LINE
  5
E1
330
1F
100
AcDbEntity
  8
SK1
  6
Continuous
100
AcDbLine
 10
6.8344228634
 20
-3.6908292992
 30
0.0
 11
6.8344228634
 21
3.6908294987
 31
0.0
  0
LINE
  5
E2
330
1F
100
AcDbEntity
  8
SK1
  6
Continuous
100
AcDbLine
 10
6.6344228634
 20
-3.6908292992
 30
0.0
 11
6.6344228634
 21
3.6908294987
 31
0.0
  0
LINE
  5
E3
330
1F
100
AcDbEntity
  8
SK1
  6
Continuous
100
AcDbLine
 10
6.355
 20
-3.6290667031
 30
0.0
 11
6.355
 21
3.6290669026
 31
0.0
  0
LINE
  5
E4
330
1F
100
AcDbEntity
  8
SK1
  6
Continuous
100
AcDbLine
 10
6.155
 20
-3.0502019162
 30
0.0
 11
6.155
 21
3.0502021158
 31
0.0
  0
LINE
  5
E5
330
1F
100
AcDbEntity
  8
SK1
  6
Continuous
100
AcDbLine
 10
3.0993307596
 20
-3.7148545043
 30
0.0
 11
3.0993307596
 21
-0.2999999002
 31
0.0
  0
LINE
  5
E6
330
1F
100
AcDbEntity
  8
SK1
  6
Continuous
100
AcDbLine
 10
3.555
 20
-3.5632056853
 30
0.0
 11
3.555
 21
-0.2999999002
 31
0.0
  0
LINE
  5
E7
330
1F
100
AcDbEntity
  8
SK1
  6
Continuous
100
AcDbLine
 10
3.755
 20
-3.0502019162
 30
0.0
 11
3.755
 21
-0.2999999002
 31
0.0
  0
SPLINE
  5
E8
330
1F
100
AcDbEntity
  8
SK1
  6
Continuous
100
AcDbSpline
210
0.0
220
0.0
230
1.0
 70
     8
 71
     3
 72
    10
 73
     6
 74
     0
 42
0.0000000190346736
 43
0.0000000001
 12
1.0
 22
0.0
 32
0.0
 13
1.0
 23
0.0
 33
0.0
 40
0.0
 40
0.0
 40
0.0
 40
0.0
 40
0.5
 40
0.5
 40
1.0
 40
1.0
 40
1.0
 40
1.0
 10
3.099330759615954
 20
-4.269182223812988
 30
0.0
 10
3.211681619315759
 20
-4.275227248914491
 30
0.0
 10
3.332132258017276
 20
-4.261538813004449
 30
0.0
 10
3.503179982377719
 20
-4.204525203389531
 30
0.0
 10
3.554999999999994
 20
-4.16149535908956
 30
0.0
 10
3.554999999999992
 20
-4.117533404787189
 30
0.0
  0
LINE
  5
E9
330
1F
100
AcDbEntity
  8
SK1
  6
Continuous
100
AcDbLine
 10
6.355
 20
-4.1833944226
 30
0.0
 11
6.6344228634
 21
-4.2451570187
 31
0.0
  0
ARC
  5
EA
330
1F
100
AcDbEntity
  8
SK1
  6
Continuous
100
AcDbCircle
 10
6.7344228634
 20
-3.7628737165
 30
0.0
 40
0.4925415551723106
100
AcDbArc
 50
258.2858832066
 51
281.7141167934
  0
SPLINE
  5
EB
330
1F
100
AcDbEntity
  8
SK1
  6
Continuous
100
AcDbSpline
210
0.0
220
0.0
230
1.0
 70
     8
 71
     3
 72
     8
 73
     4
 74
     0
 42
0.0000000023272749
 43
0.0000000001
 12
1.0
 22
0.0
 32
0.0
 13
1.0
 23
0.0
 33
0.0
 40
0.0
 40
0.0
 40
0.0
 40
0.0
 40
1.0
 40
1.0
 40
1.0
 40
1.0
 10
6.834422863405975
 20
-4.245157018673059
 30
0.0
 10
8.232993216536642
 20
-3.936024245361293
 30
0.0
 10
9.631532561912925
 20
-3.626870920614434
 30
0.0
 10
11.03
 20
-3.317670013313504
 30
0.0
  0
SPLINE
  5
EC
330
1F
100
AcDbEntity
  8
SK1
  6
Continuous
100
AcDbSpline
210
0.0
220
0.0
230
1.0
 70
     8
 71
     3
 72
    10
 73
     6
 74
     0
 42
0.0000000616158575
 43
0.0000000001
 12
1.0
 22
0.0
 32
0.0
 13
1.0
 23
0.0
 33
0.0
 40
0.0
 40
0.0
 40
0.0
 40
0.0
 40
0.5000000000000001
 40
0.5000000000000001
 40
1.0
 40
1.0
 40
1.0
 40
1.0
 10
11.03
 20
-3.317670013313504
 30
0.0
 10
11.0679968972541
 20
-3.309268905940092
 30
0.0
 10
11.09965472780035
 20
-3.29713463244202
 30
0.0
 10
11.14345795263913
 20
-3.268052628539656
 30
0.0
 10
11.155
 20
-3.251364529747811
 30
0.0
 10
11.155
 20
-3.234755923984991
 30
0.0
  0
LINE
  5
ED
330
1F
100
AcDbEntity
  8
SK1
  6
Continuous
100
AcDbLine
 10
11.155
 20
-3.234755924
 30
0.0
 11
11.155
 21
-2.7236455045
 31
0.0
  0
LINE
  5
EE
330
1F
100
AcDbEntity
  8
SK3
100
AcDbLine
 10
10.755
 20
-2.5703924324
 30
0.0
 11
-17.7063782007
 21
-2.5703924324
 31
0.0
  0
SPLINE
  5
EF
330
1F
100
AcDbEntity
  8
SK1
  6
Continuous
100
AcDbSpline
210
0.0
220
0.0
230
1.0
 70
     8
 71
     3
 72
    10
 73
     6
 74
     0
 42
0.0000000427791171
 43
0.0000000001
 12
1.0
 22
0.0
 32
0.0
 13
1.0
 23
0.0
 33
0.0
 40
0.0
 40
0.0
 40
0.0
 40
0.0
 40
0.5
 40
0.5
 40
1.0
 40
1.0
 40
1.0
 40
1.0
 10
6.354999999999982
 20
-3.126783122358974
 30
0.0
 10
6.354999999999992
 20
-3.106640111211839
 30
0.0
 10
6.333233388451607
 20
-3.086716112447152
 30
0.0
 10
6.259491392687906
 20
-3.058503235356095
 30
0.0
 10
6.207718345166863
 20
-3.050201916232367
 30
0.0
 10
6.15499999999999
 20
-3.050201916232367
 30
0.0
  0
LINE
  5
F0
330
1F
100
AcDbEntity
  8
SK1
  6
Continuous
100
AcDbLine
 10
6.155
 20
-3.0502019162
 30
0.0
 11
3.755
 21
-3.0502019162
 31
0.0
  0
SPLINE
  5
F1
330
1F
100
AcDbEntity
  8
SK1
  6
Continuous
100
AcDbSpline
210
0.0
220
0.0
230
1.0
 70
     8
 71
     3
 72
    10
 73
     6
 74
     0
 42
0.0000000427788303
 43
0.0000000001
 12
1.0
 22
0.0
 32
0.0
 13
1.0
 23
0.0
 33
0.0
 40
0.0
 40
0.0
 40
0.0
 40
0.0
 40
0.5
 40
0.5
 40
1.0
 40
1.0
 40
1.0
 40
1.0
 10
3.754999999999984
 20
-3.050201916232367
 30
0.0
 10
3.702533462467253
 20
-3.050201916232369
 30
0.0
 10
3.650758715274605
 20
-3.058392827990755
 30
0.0
 10
3.576370132854546
 20
-3.086882548628037
 30
0.0
 10
3.554999999999985
 20
-3.106731560802821
 30
0.0
 10
3.554999999999982
 20
-3.126783122358973
 30
0.0
  0
LINE
  5
F2
330
1F
100
AcDbEntity
  8
SK1
  6
Continuous
100
AcDbLine
 10
6.355
 20
-4.1833944226
 30
0.0
 11
6.355
 21
-3.6811108419
 31
0.0
  0
SPLINE
  5
F3
330
1F
100
AcDbEntity
  8
SK1
  6
Continuous
100
AcDbSpline
210
0.0
220
0.0
230
1.0
 70
     8
 71
     3
 72
    10
 73
     6
 74
     0
 42
0.0000000427791171
 43
0.0000000001
 12
1.0
 22
0.0
 32
0.0
 13
1.0
 23
0.0
 33
0.0
 40
0.0
 40
0.0
 40
0.0
 40
0.0
 40
0.5
 40
0.5
 40
1.0
 40
1.0
 40
1.0
 40
1.0
 10
6.354999999999982
 20
-3.681110841865745
 30
0.0
 10
6.354999999999992
 20
-3.660967830718611
 30
0.0
 10
6.333233388451605
 20
-3.641043831953924
 30
0.0
 10
6.259491392687906
 20
-3.612830954862868
 30
0.0
 10
6.207718345166863
 20
-3.60452963573914
 30
0.0
 10
6.15499999999999
 20
-3.60452963573914
 30
0.0
  0
LINE
  5
F4
330
1F
100
AcDbEntity
  8
SK1
  6
Continuous
100
AcDbLine
 10
6.155
 20
-3.6045296357
 30
0.0
 11
3.755
 21
-3.6045296357
 31
0.0
  0
SPLINE
  5
F5
330
1F
100
AcDbEntity
  8
SK1
  6
Continuous
100
AcDbSpline
210
0.0
220
0.0
230
1.0
 70
     8
 71
     3
 72
    10
 73
     6
 74
     0
 42
0.0000000427788303
 43
0.0000000001
 12
1.0
 22
0.0
 32
0.0
 13
1.0
 23
0.0
 33
0.0
 40
0.0
 40
0.0
 40
0.0
 40
0.0
 40
0.5
 40
0.5
 40
1.0
 40
1.0
 40
1.0
 40
1.0
 10
3.754999999999984
 20
-3.60452963573914
 30
0.0
 10
3.702533462467253
 20
-3.60452963573914
 30
0.0
 10
3.650758715274607
 20
-3.612720547497527
 30
0.0
 10
3.576370132854549
 20
-3.641210268134808
 30
0.0
 10
3.554999999999985
 20
-3.661059280309591
 30
0.0
 10
3.554999999999982
 20
-3.681110841865745
 30
0.0
  0
LINE
  5
F6
330
1F
100
AcDbEntity
  8
SK1
  6
Continuous
100
AcDbLine
 10
3.555
 20
-3.6811108419
 30
0.0
 11
3.555
 21
-4.1175334048
 31
0.0
  0
SPLINE
  5
F7
330
1F
100
AcDbEntity
  8
SK1
  6
Continuous
100
AcDbSpline
210
0.0
220
0.0
230
1.0
 70
     8
 71
     3
 72
    10
 73
     6
 74
     0
 42
0.0000000190346736
 43
0.0000000001
 12
1.0
 22
0.0
 32
0.0
 13
1.0
 23
0.0
 33
0.0
 40
0.0
 40
0.0
 40
0.0
 40
0.0
 40
0.5
 40
0.5
 40
1.0
 40
1.0
 40
1.0
 40
1.0
 10
3.099330759615954
 20
-3.714854504306216
 30
0.0
 10
3.211681619315759
 20
-3.720899529407719
 30
0.0
 10
3.332132258017276
 20
-3.707211093497676
 30
0.0
 10
3.503179982377719
 20
-3.65019748388276
 30
0.0
 10
3.554999999999996
 20
-3.607167639582789
 30
0.0
 10
3.554999999999992
 20
-3.563205685280417
 30
0.0
  0
LINE
  5
F8
330
1F
100
AcDbEntity
  8
SK1
  6
Continuous
100
AcDbLine
 10
6.355
 20
-3.6290667031
 30
0.0
 11
6.6344228634
 21
-3.6908292992
 31
0.0
  0
ARC
  5
F9
330
1F
100
AcDbEntity
  8
SK1
  6
Continuous
100
AcDbCircle
 10
6.7344228634
 20
-3.208545997
 30
0.0
 40
0.4925415551722883
100
AcDbArc
 50
258.2858832066
 51
281.7141167934
  0
SPLINE
  5
FA
330
1F
100
AcDbEntity
  8
SK1
  6
Continuous
100
AcDbSpline
210
0.0
220
0.0
230
1.0
 70
     8
 71
     3
 72
     8
 73
     4
 74
     0
 42
0.0000000023272749
 43
0.0000000001
 12
1.0
 22
0.0
 32
0.0
 13
1.0
 23
0.0
 33
0.0
 40
0.0
 40
0.0
 40
0.0
 40
0.0
 40
1.0
 40
1.0
 40
1.0
 40
1.0
 10
6.834422863405975
 20
-3.690829299166286
 30
0.0
 10
8.232993216536643
 20
-3.381696525854519
 30
0.0
 10
9.631532561912927
 20
-3.072543201107663
 30
0.0
 10
11.03
 20
-2.763342293806732
 30
0.0
  0
SPLINE
  5
FB
330
1F
100
AcDbEntity
  8
SK1
  6
Continuous
100
AcDbSpline
210
0.0
220
0.0
230
1.0
 70
     8
 71
     3
 72
    10
 73
     6
 74
     0
 42
0.0000000616158575
 43
0.0000000001
 12
1.0
 22
0.0
 32
0.0
 13
1.0
 23
0.0
 33
0.0
 40
0.0
 40
0.0
 40
0.0
 40
0.0
 40
0.5
 40
0.5
 40
1.0
 40
1.0
 40
1.0
 40
1.0
 10
11.03
 20
-2.763342293806732
 30
0.0
 10
11.0679968972541
 20
-2.754941186433321
 30
0.0
 10
11.09965472780035
 20
-2.742806912935249
 30
0.0
 10
11.14345795263913
 20
-2.713724909032885
 30
0.0
 10
11.155
 20
-2.69703681024104
 30
0.0
 10
11.155
 20
-2.680428204478219
 30
0.0
  0
LINE
  5
FC
330
1F
100
AcDbEntity
  8
SK3
100
AcDbLine
 10
10.755
 20
-2.0160647128
 30
0.0
 11
-17.7063782007
 21
-2.0160647128
 31
0.0
  0
LINE
  5
FD
330
1F
100
AcDbEntity
  8
SK1
  6
Continuous
100
AcDbLine
 10
-17.5382934275
 20
-3.1586004225
 30
0.0
 11
3.0993307596
 21
-4.2691822238
 31
0.0
  0
ELLIPSE
  5
FE
330
1F
100
AcDbEntity
  8
SK1
  6
Continuous
100
AcDbEllipse
 10
44.2042816062
 20
-0.2771638283
 30
0.0
 11
-62.19999836638497
 21
7.959331058511704E-8
 31
0.0
210
0.0
220
0.0
230
1.0
 40
0.3826834373
 41
0.0992150701387432
 42
0.1213515931027513
  0
SPLINE
  5
FF
330
1F
100
AcDbEntity
  8
SK3
100
AcDbSpline
210
0.0
220
0.0
230
1.0
 70
     8
 71
     3
 72
    35
 73
    31
 74
     0
 42
0.0000000109633574
 43
0.0000000001
 12
1.0
 22
0.0
 32
0.0
 13
1.0
 23
0.0
 33
0.0
 40
0.0
 40
0.0
 40
0.0
 40
0.0
 40
0.1077842904312124
 40
0.1077842904312124
 40
0.1077842904312124
 40
0.2155922120754819
 40
0.2155922120754819
 40
0.2155922120754819
 40
0.3230688415642558
 40
0.3230688415642558
 40
0.3230688415642558
 40
0.4303218169492536
 40
0.4303218169492536
 40
0.4303218169492536
 40
0.5000091041823833
 40
0.5000091041823833
 40
0.5000091041823833
 40
0.6072073787889493
 40
0.6072073787889493
 40
0.6072073787889493
 40
0.7144053444276703
 40
0.7144053444276703
 40
0.7144053444276703
 40
0.8216082817798356
 40
0.8216082817798356
 40
0.8216082817798356
 40
0.9288934385228359
 40
0.9288934385228359
 40
0.9288934385228359
 40
1.0
 40
1.0
 40
1.0
 40
1.0
 10
-17.70637820067292
 20
-2.016064712849332
 30
0.0
 10
-17.74010232299938
 20
-2.016064712849332
 30
0.0
 10
-17.77429280977411
 20
-2.021531234892859
 30
0.0
 10
-17.80612038954952
 20
-2.032022288189737
 30
0.0
 10
-17.83795221602049
 20
-2.042514741288603
 30
0.0
 10
-17.86829828330137
 20
-2.058324096200106
 30
0.0
 10
-17.89462273794226
 20
-2.078105504507354
 30
0.0
 10
-17.92086761764905
 20
-2.097827116542132
 30
0.0
 10
-17.94384095181109
 20
-2.122039517001651
 30
0.0
 10
-17.96163144508323
 20
-2.14868209603606
 30
0.0
 10
-17.97938581760481
 20
-2.175270581575891
 30
0.0
 10
-17.99246958358208
 20
-2.2050106833448
 30
0.0
 10
-17.99980151636282
 20
-2.235400676498285
 30
0.0
 10
-18.00460473025981
 20
-2.255309429321015
 30
0.0
 10
-18.00705013280058
 20
-2.275789558337225
 30
0.0
 10
-18.00705013280058
 20
-2.296100494419841
 30
0.0
 10
-18.00705013280058
 20
-2.327089031352484
 30
0.0
 10
-18.00126659082455
 20
-2.358391388260311
 30
0.0
 10
-17.99017625961552
 20
-2.387432732660835
 30
0.0
 10
-17.97908594387837
 20
-2.41647403654642
 30
0.0
 10
-17.96238248191167
 20
-2.444056598527887
 30
0.0
 10
-17.94144634455379
 20
-2.467942558809872
 30
0.0
 10
-17.92050894625474
 20
-2.491829957694891
 30
0.0
 10
-17.89476154131099
 20
-2.512680540344936
 30
0.0
 10
-17.86633643811204
 20
-2.52883135691928
 30
0.0
 10
-17.83788869811724
 20
-2.544995035460567
 30
0.0
 10
-17.80597843115661
 20
-2.556898711426197
 30
0.0
 10
-17.77324153780311
 20
-2.563620316558594
 30
0.0
 10
-17.75137112794759
 20
-2.568110793328797
 30
0.0
 10
-17.72880547289407
 20
-2.570392432356104
 30
0.0
 10
-17.70637820067292
 20
-2.570392432356104
 30
0.0
  0
SPLINE
  5
100
330
1F
100
AcDbEntity
  8
SK1
  6
Continuous
100
AcDbSpline
210
0.0
220
0.0
230
1.0
 70
     8
 71
     3
 72
    35
 73
    31
 74
     0
 42
0.0000000108424396
 43
0.0000000001
 12
1.0
 22
0.0
 32
0.0
 13
1.0
 23
0.0
 33
0.0
 40
0.0
 40
0.0
 40
0.0
 40
0.0
 40
0.1117233164449576
 40
0.1117233164449576
 40
0.1117233164449576
 40
0.2235899350060508
 40
0.2235899350060508
 40
0.2235899350060508
 40
0.3332067637954363
 40
0.3332067637954363
 40
0.3332067637954363
 40
0.4396516738575525
 40
0.4396516738575525
 40
0.4396516738575525
 40
0.5001354043579116
 40
0.5001354043579116
 40
0.5001354043579116
 40
0.6039399458434997
 40
0.6039399458434997
 40
0.6039399458434997
 40
0.7076832859491093
 40
0.7076832859491093
 40
0.7076832859491093
 40
0.8123929054524552
 40
0.8123929054524552
 40
0.8123929054524552
 40
0.9195822626685407
 40
0.9195822626685407
 40
0.9195822626685407
 40
1.0
 40
1.0
 40
1.0
 40
1.0
 10
-17.53829342754905
 20
-3.15860042247685
 30
0.0
 10
-17.57338212824882
 20
-3.156711761895688
 30
0.0
 10
-17.60899343211494
 20
-3.149330489004159
 30
0.0
 10
-17.64218671612916
 20
-3.136941994482247
 30
0.0
 10
-17.67540449287597
 20
-3.124544358711058
 30
0.0
 10
-17.70712965240538
 20
-3.106764205396333
 30
0.0
 10
-17.73452605073211
 20
-3.084959187105512
 30
0.0
 10
-17.76137216597266
 20
-3.063592143639562
 30
0.0
 10
-17.78482158612429
 20
-3.037736346259357
 30
0.0
 10
-17.80268948156549
 20
-3.009529240692514
 30
0.0
 10
-17.82004828366987
 20
-2.982125813966428
 30
0.0
 10
-17.8326286460608
 20
-2.951721093150883
 30
0.0
 10
-17.83926001630303
 20
-2.920887982497324
 30
0.0
 10
-17.84306617142637
 20
-2.903190945867491
 30
0.0
 10
-17.84500000000033
 20
-2.885128132418588
 30
0.0
 10
-17.84500000000033
 20
-2.867227251219546
 30
0.0
 10
-17.84500000000034
 20
-2.836794673040724
 30
0.0
 10
-17.83930340949029
 20
-2.806161313279838
 30
0.0
 10
-17.8284237946396
 20
-2.777886042693032
 30
0.0
 10
-17.81754774094803
 20
-2.749620027281078
 30
0.0
 10
-17.80120354425114
 20
-2.722939585101506
 30
0.0
 10
-17.78081497472952
 20
-2.699994493496614
 30
0.0
 10
-17.76023282233508
 20
-2.676831545668651
 30
0.0
 10
-17.73498879019686
 20
-2.656851696916435
 30
0.0
 10
-17.70718462574694
 20
-2.641566943492134
 30
0.0
 10
-17.67872539013857
 20
-2.625922078504325
 30
0.0
 10
-17.6468359656711
 20
-2.614774170958236
 30
0.0
 10
-17.61407969174231
 20
-2.608893652978924
 30
0.0
 10
-17.5893567421667
 20
-2.604455304777382
 30
0.0
 10
-17.56372367144028
 20
-2.602903911927696
 30
0.0
 10
-17.53829342754905
 20
-2.604272702970079
 30
0.0
  0
LINE
  5
101
330
1F
100
AcDbEntity
  8
SK1
  6
Continuous
100
AcDbLine
 10
-17.5382934275
 20
-2.604272703
 30
0.0
 11
3.0993307596
 21
-3.7148545043
 31
0.0
  0
ARC
  5
102
330
1F
100
AcDbEntity
  8
SK3
100
AcDbCircle
 10
10.7694480062
 20
-5.8071359885
 30
0.0
 40
0.3858679378446286
100
AcDbArc
 50
2.3187449045
 51
92.1458204822
  0
ARC
  5
103
330
1F
100
AcDbEntity
  8
SK3
100
AcDbCircle
 10
10.7694480062
 20
-6.0367460479
 30
0.0
 40
0.3858679378446297
100
AcDbArc
 50
2.3187449045
 51
92.1458204822
  0
LINE
  5
104
330
1F
100
AcDbEntity
  8
SK1
  6
Continuous
100
AcDbLine
 10
11.03
 20
-7.2256263038
 30
0.0
 11
11.03
 21
-3.3176700133
 31
0.0
  0
LINE
  5
105
330
1F
100
AcDbEntity
  8
SK1
  6
Continuous
100
AcDbLine
 10
11.155
 20
-7.7343810408
 30
0.0
 11
11.155
 21
-7.2550640442
 31
0.0
  0
LINE
  5
106
330
1F
100
AcDbEntity
  8
SK1
  6
Continuous
100
AcDbLine
 10
6.8344228634
 20
-9.4647780111
 30
0.0
 11
6.8344228634
 21
-4.2451570187
 31
0.0
  0
LINE
  5
107
330
1F
100
AcDbEntity
  8
SK1
  6
Continuous
100
AcDbLine
 10
6.6344228634
 20
-9.4647780111
 30
0.0
 11
6.6344228634
 21
-4.2451570187
 31
0.0
  0
LINE
  5
108
330
1F
100
AcDbEntity
  8
SK1
  6
Continuous
100
AcDbLine
 10
6.355
 20
-9.3156699139
 30
0.0
 11
6.355
 21
-4.1833944226
 31
0.0
  0
LINE
  5
109
330
1F
100
AcDbEntity
  8
SK1
  6
Continuous
100
AcDbLine
 10
6.155
 20
-7.9181666947
 30
0.0
 11
6.155
 21
-3.6045296357
 31
0.0
  0
LINE
  5
10A
330
1F
100
AcDbEntity
  8
SK1
  6
Continuous
100
AcDbLine
 10
3.0993307596
 20
-9.5227799871
 30
0.0
 11
3.0993307596
 21
-7.5884202389
 31
0.0
  0
LINE
  5
10B
330
1F
100
AcDbEntity
  8
SK1
  6
Continuous
100
AcDbLine
 10
3.555
 20
-9.1566673515
 30
0.0
 11
3.555
 21
-7.3082097588
 31
0.0
  0
LINE
  5
10C
330
1F
100
AcDbEntity
  8
SK1
  6
Continuous
100
AcDbLine
 10
3.755
 20
-7.9181666947
 30
0.0
 11
3.755
 21
-6.3603023942
 31
0.0
  0
ARC
  5
10D
330
1F
100
AcDbEntity
  8
SK1
  6
Continuous
100
AcDbCircle
 10
3.1648834537
 20
-9.3673552259
 30
0.0
 40
0.3905751769059479
100
AcDbArc
 50
260.3379590525
 51
357.2231059151
  0
LINE
  5
10E
330
1F
100
AcDbEntity
  8
SK1
  6
Continuous
100
AcDbLine
 10
6.355
 20
-9.5452799733
 30
0.0
 11
6.6344228634
 21
-9.6943880705
 31
0.0
  0
ARC
  5
10F
330
1F
100
AcDbEntity
  8
SK1
  6
Continuous
100
AcDbCircle
 10
6.7344228634
 20
-9.5028907726
 30
0.0
 40
0.2160352172652664
100
AcDbArc
 50
242.4264103557
 51
297.5735896443
  0
LINE
  5
110
330
1F
100
AcDbEntity
  8
SK1
  6
Continuous
100
AcDbLine
 10
6.8344228634
 20
-9.6943880705
 30
0.0
 11
11.03
 21
-7.4552363632
 31
0.0
  0
ARC
  5
111
330
1F
100
AcDbEntity
  8
SK1
  6
Continuous
100
AcDbCircle
 10
10.92361756
 20
-7.2496895431
 30
0.0
 40
0.2314448504484395
100
AcDbArc
 50
297.3641944883
 51
358.6693853238
  0
LINE
  5
112
330
1F
100
AcDbEntity
  8
SK1
  6
Continuous
100
AcDbLine
 10
11.155
 20
-7.2550640442
 30
0.0
 11
11.155
 21
-7.0254539848
 31
0.0
  0
LINE
  5
113
330
1F
100
AcDbEntity
  8
SK3
100
AcDbLine
 10
10.755
 20
-5.6511486924
 30
0.0
 11
-17.7063782007
 21
-5.6511486924
 31
0.0
  0
ARC
  5
114
330
1F
100
AcDbEntity
  8
SK1
  6
Continuous
100
AcDbCircle
 10
6.1622772448
 20
-8.1109124304
 30
0.0
 40
0.1928830653693322
100
AcDbArc
 50
2.3361525744
 51
92.1622136513
  0
LINE
  5
115
330
1F
100
AcDbEntity
  8
SK1
  6
Continuous
100
AcDbLine
 10
6.155
 20
-7.9181666947
 30
0.0
 11
3.755
 21
-7.9181666947
 31
0.0
  0
ARC
  5
116
330
1F
100
AcDbEntity
  8
SK1
  6
Continuous
100
AcDbCircle
 10
3.7477231138
 20
-8.1109128184
 30
0.0
 40
0.1928834395199253
100
AcDbArc
 50
87.837897152
 51
177.6637366217
  0
LINE
  5
117
330
1F
100
AcDbEntity
  8
SK1
  6
Continuous
100
AcDbLine
 10
6.355
 20
-9.5452799733
 30
0.0
 11
6.355
 21
-9.3156699139
 31
0.0
  0
ARC
  5
118
330
1F
100
AcDbEntity
  8
SK1
  6
Continuous
100
AcDbCircle
 10
6.1622772448
 20
-8.3405224898
 30
0.0
 40
0.1928830653693277
100
AcDbArc
 50
2.3361525744
 51
92.1622136513
  0
LINE
  5
119
330
1F
100
AcDbEntity
  8
SK1
  6
Continuous
100
AcDbLine
 10
6.155
 20
-8.1477767542
 30
0.0
 11
3.755
 21
-8.1477767542
 31
0.0
  0
ARC
  5
11A
330
1F
100
AcDbEntity
  8
SK1
  6
Continuous
100
AcDbCircle
 10
3.7477231138
 20
-8.3405228778
 30
0.0
 40
0.1928834395199231
100
AcDbArc
 50
87.837897152
 51
177.6637366217
  0
LINE
  5
11B
330
1F
100
AcDbEntity
  8
SK1
  6
Continuous
100
AcDbLine
 10
3.555
 20
-9.1566673515
 30
0.0
 11
3.555
 21
-9.386277411
 31
0.0
  0
ARC
  5
11C
330
1F
100
AcDbEntity
  8
SK1
  6
Continuous
100
AcDbCircle
 10
3.1648834537
 20
-9.1377451665
 30
0.0
 40
0.3905751769059475
100
AcDbArc
 50
260.3379590525
 51
357.2231059151
  0
LINE
  5
11D
330
1F
100
AcDbEntity
  8
SK1
  6
Continuous
100
AcDbLine
 10
6.355
 20
-9.3156699139
 30
0.0
 11
6.6344228634
 21
-9.4647780111
 31
0.0
  0
ARC
  5
11E
330
1F
100
AcDbEntity
  8
SK1
  6
Continuous
100
AcDbCircle
 10
6.7344228634
 20
-9.2732807132
 30
0.0
 40
0.2160352172659374
100
AcDbArc
 50
242.4264103558
 51
297.5735896442
  0
LINE
  5
11F
330
1F
100
AcDbEntity
  8
SK1
  6
Continuous
100
AcDbLine
 10
6.8344228634
 20
-9.4647780111
 30
0.0
 11
11.03
 21
-7.2256263038
 31
0.0
  0
ARC
  5
120
330
1F
100
AcDbEntity
  8
SK1
  6
Continuous
100
AcDbCircle
 10
10.92361756
 20
-7.0200794837
 30
0.0
 40
0.2314448504483772
100
AcDbArc
 50
297.3641944883
 51
358.6693853238
  0
LINE
  5
121
330
1F
100
AcDbEntity
  8
SK3
100
AcDbLine
 10
10.755
 20
-5.421538633
 30
0.0
 11
-17.7063782007
 21
-5.421538633
 31
0.0
  0
SPLINE
  5
122
330
1F
100
AcDbEntity
  8
SK3
100
AcDbSpline
210
0.0
220
0.0
230
1.0
 70
     8
 71
     3
 72
    11
 73
     7
 74
     0
 42
0.0000002548799739
 43
0.0000000001
 12
1.0
 22
0.0
 32
0.0
 13
1.0
 23
0.0
 33
0.0
 40
0.0
 40
0.0
 40
0.0
 40
0.0
 40
0.3207486689638237
 40
0.3207486689638237
 40
0.3207486689638237
 40
1.0
 40
1.0
 40
1.0
 40
1.0
 10
5.963234674832344
 20
4.300586862555903
 30
0.0
 10
5.964848221983366
 20
4.296667353020792
 30
0.0
 10
5.966294134722319
 20
4.292715423993883
 30
0.0
 10
5.967566758969851
 20
4.288740309416146
 30
0.0
 10
5.9702840432211
 20
4.28025271674302
 30
0.0
 10
5.972246730003471
 20
4.271589748129234
 30
0.0
 10
5.973438960534334
 20
4.262851663108504
 30
0.0
  0
SPLINE
  5
123
330
1F
100
AcDbEntity
  8
SK1
  6
Continuous
100
AcDbSpline
210
0.0
220
0.0
230
1.0
 70
     8
 71
     3
 72
    11
 73
     7
 74
     0
 42
0.0000000004805137
 43
0.0000000001
 12
1.0
 22
0.0
 32
0.0
 13
1.0
 23
0.0
 33
0.0
 40
0.0
 40
0.0
 40
0.0
 40
0.0
 40
0.5891272137665046
 40
0.5891272137665046
 40
0.5891272137665046
 40
1.0
 40
1.0
 40
1.0
 40
1.0
 10
-17.53829342754905
 20
-7.071208399651301
 30
0.0
 10
-13.48558208326286
 20
-7.597841299038397
 30
0.0
 10
-9.432857073331943
 20
-8.124384436822197
 30
0.0
 10
-5.380124802805638
 20
-8.6508798632153
 30
0.0
 10
-2.5536429137623
 20
-9.01807159660138
 30
0.0
 10
0.2728426508558056
 20
-9.385239180787647
 30
0.0
 10
3.099330759615954
 20
-9.752390046561748
 30
0.0
  0
ELLIPSE
  5
124
330
1F
100
AcDbEntity
  8
SK1
  6
Continuous
100
AcDbEllipse
 10
44.2042816071
 20
-0.1148050948
 30
0.0
 11
-62.1999983672602
 21
1.119400490310251E-6
 31
0.0
210
0.0
220
0.0
230
1.0
 40
0.9238795444
 41
0.1172942522853924
 42
0.1213516092390645
  0
SPLINE
  5
125
330
1F
100
AcDbEntity
  8
SK3
100
AcDbSpline
210
0.0
220
0.0
230
1.0
 70
     8
 71
     3
 72
    35
 73
    31
 74
     0
 42
0.0000000145198831
 43
0.0000000001
 12
1.0
 22
0.0
 32
0.0
 13
1.0
 23
0.0
 33
0.0
 40
0.0
 40
0.0
 40
0.0
 40
0.0
 40
0.1077842904312129
 40
0.1077842904312129
 40
0.1077842904312129
 40
0.2155922120754879
 40
0.2155922120754879
 40
0.2155922120754879
 40
0.323068841564271
 40
0.323068841564271
 40
0.323068841564271
 40
0.4303218169492601
 40
0.4303218169492601
 40
0.4303218169492601
 40
0.5000091041823823
 40
0.5000091041823823
 40
0.5000091041823823
 40
0.607207378788948
 40
0.607207378788948
 40
0.607207378788948
 40
0.7144053444276718
 40
0.7144053444276718
 40
0.7144053444276718
 40
0.8216082817798378
 40
0.8216082817798378
 40
0.8216082817798378
 40
0.9288934385228391
 40
0.9288934385228391
 40
0.9288934385228391
 40
1.0
 40
1.0
 40
1.0
 40
1.0
 10
-17.70637820067292
 20
-5.421538632986523
 30
0.0
 10
-17.74010232299938
 20
-5.421538632986523
 30
0.0
 10
-17.77429280977411
 20
-5.424030721492242
 30
0.0
 10
-17.80612038954952
 20
-5.428778867262253
 30
0.0
 10
-17.83795221602049
 20
-5.433527646568643
 30
0.0
 10
-17.86829828330137
 20
-5.440661676365468
 30
0.0
 10
-17.89462273794226
 20
-5.449484996056834
 30
0.0
 10
-17.92086761764906
 20
-5.458281644157374
 30
0.0
 10
-17.9438409518111
 20
-5.468994493836438
 30
0.0
 10
-17.96163144508323
 20
-5.480607856372198
 30
0.0
 10
-17.97938581760481
 20
-5.492197639833178
 30
0.0
 10
-17.99246958358209
 20
-5.504998542079306
 30
0.0
 10
-17.99980151636282
 20
-5.517860324396883
 30
0.0
 10
-18.00460473025982
 20
-5.526286191547532
 30
0.0
 10
-18.00705013280058
 20
-5.53486403010711
 30
0.0
 10
-18.00705013280058
 20
-5.543277095297023
 30
0.0
 10
-18.00705013280058
 20
-5.556112967572623
 30
0.0
 10
-18.00126659082455
 20
-5.568851737154236
 30
0.0
 10
-17.99017625961552
 20
-5.58048050070597
 30
0.0
 10
-17.97908594387837
 20
-5.592109248034673
 30
0.0
 10
-17.96238248191166
 20
-5.602952413453278
 30
0.0
 10
-17.94144634455379
 20
-5.612220495870526
 30
0.0
 10
-17.92050894625473
 20
-5.621489136485614
 30
0.0
 10
-17.89476154131099
 20
-5.629443712301303
 30
0.0
 10
-17.86633643811204
 20
-5.635556237270607
 30
0.0
 10
-17.83788869811723
 20
-5.641673630049146
 30
0.0
 10
-17.80597843115661
 20
-5.646119963132591
 30
0.0
 10
-17.77324153780311
 20
-5.6486267383133
 30
0.0
 10
-17.75137112794759
 20
-5.650301429922726
 30
0.0
 10
-17.72880547289407
 20
-5.651148692405576
 30
0.0
 10
-17.70637820067292
 20
-5.651148692405576
 30
0.0
  0
SPLINE
  5
126
330
1F
100
AcDbEntity
  8
SK1
  6
Continuous
100
AcDbSpline
210
0.0
220
0.0
230
1.0
 70
     8
 71
     3
 72
    35
 73
    31
 74
     0
 42
0.0000000142229688
 43
0.0000000001
 12
1.0
 22
0.0
 32
0.0
 13
1.0
 23
0.0
 33
0.0
 40
0.0
 40
0.0
 40
0.0
 40
0.0
 40
0.1117233164449608
 40
0.1117233164449608
 40
0.1117233164449608
 40
0.2235899350060592
 40
0.2235899350060592
 40
0.2235899350060592
 40
0.3332067637954462
 40
0.3332067637954462
 40
0.3332067637954462
 40
0.4396516738575623
 40
0.4396516738575623
 40
0.4396516738575623
 40
0.5001354043579133
 40
0.5001354043579133
 40
0.5001354043579133
 40
0.6039399458435005
 40
0.6039399458435005
 40
0.6039399458435005
 40
0.7076832859491151
 40
0.7076832859491151
 40
0.7076832859491151
 40
0.8123929054524551
 40
0.8123929054524551
 40
0.8123929054524551
 40
0.9195822626685459
 40
0.9195822626685459
 40
0.9195822626685459
 40
1.0
 40
1.0
 40
1.0
 40
1.0
 10
-17.53829342754905
 20
-7.071208399651301
 30
0.0
 10
-17.57338212824882
 20
-7.066648769661541
 30
0.0
 10
-17.60899343211493
 20
-7.05994635294595
 30
0.0
 10
-17.64218671612916
 20
-7.051577056835811
 30
0.0
 10
-17.67540449287597
 20
-7.043201585171261
 30
0.0
 10
-17.70712965240538
 20
-7.032911874997541
 30
0.0
 10
-17.73452605073211
 20
-7.021456120777849
 30
0.0
 10
-17.76137216597266
 20
-7.010230466431551
 30
0.0
 10
-17.7848215861243
 20
-6.997555200727067
 30
0.0
 10
-17.80268948156549
 20
-6.98441121010953
 30
0.0
 10
-17.82004828366987
 20
-6.971641718999483
 30
0.0
 10
-17.83262864606082
 20
-6.958061926796531
 30
0.0
 10
-17.83926001630304
 20
-6.944772624199227
 30
0.0
 10
-17.84306617142638
 20
-6.937145068306736
 30
0.0
 10
-17.84500000000034
 20
-6.929513845167984
 30
0.0
 10
-17.84500000000034
 20
-6.922099057396912
 30
0.0
 10
-17.84500000000035
 20
-6.909493470777264
 30
0.0
 10
-17.8393034094903
 20
-6.897241999406541
 30
0.0
 10
-17.8284237946396
 20
-6.886391275914008
 30
0.0
 10
-17.81754774094803
 20
-6.875544104123761
 30
0.0
 10
-17.80120354425114
 20
-6.865802817796874
 30
0.0
 10
-17.78081497472951
 20
-6.858009125835364
 30
0.0
 10
-17.76023282233507
 20
-6.850141435289595
 30
0.0
 10
-17.73498879019686
 20
-6.844049182386493
 30
0.0
 10
-17.70718462574694
 20
-6.840252852032275
 30
0.0
 10
-17.67872539013857
 20
-6.836367079446211
 30
0.0
 10
-17.64683596567109
 20
-6.834783236733363
 30
0.0
 10
-17.61407969174231
 20
-6.835632543947701
 30
0.0
 10
-17.58935674216669
 20
-6.836273562504326
 30
0.0
 10
-17.56372367144028
 20
-6.838293786333672
 30
0.0
 10
-17.53829342754905
 20
-6.841598340232246
 30
0.0
  0
SPLINE
  5
127
330
1F
100
AcDbEntity
  8
SK1
  6
Continuous
100
AcDbSpline
210
0.0
220
0.0
230
1.0
 70
     8
 71
     3
 72
    11
 73
     7
 74
     0
 42
0.0000000004805137
 43
0.0000000001
 12
1.0
 22
0.0
 32
0.0
 13
1.0
 23
0.0
 33
0.0
 40
0.0
 40
0.0
 40
0.0
 40
0.0
 40
0.5891272137665047
 40
0.5891272137665047
 40
0.5891272137665047
 40
1.0
 40
1.0
 40
1.0
 40
1.0
 10
-17.53829342754905
 20
-6.841598340232246
 30
0.0
 10
-13.48558208326286
 20
-7.368231239619342
 30
0.0
 10
-9.432857073331943
 20
-7.894774377403145
 30
0.0
 10
-5.380124802805638
 20
-8.421269803796246
 30
0.0
 10
-2.5536429137623
 20
-8.788461537182325
 30
0.0
 10
0.2728426508558056
 20
-9.155629121368595
 30
0.0
 10
3.099330759615954
 20
-9.522779987142696
 30
0.0
  0
LINE
  5
128
330
1F
100
AcDbEntity
  8
SK1
  6
Continuous
100
AcDbLine
 10
11.03
 20
-7.4552363632
 30
0.0
 11
11.03
 21
-7.9508873918
 31
0.0
  0
LINE
  5
129
330
1F
100
AcDbEntity
  8
SK1
  6
Continuous
100
AcDbLine
 10
6.8344228634
 20
-10.373204981
 30
0.0
 11
6.8344228634
 21
-9.6943880705
 31
0.0
  0
LINE
  5
12A
330
1F
100
AcDbEntity
  8
SK1
  6
Continuous
100
AcDbLine
 10
6.6344228634
 20
-9.6943880705
 30
0.0
 11
6.6344228634
 21
-10.373204981
 31
0.0
  0
LINE
  5
12B
330
1F
100
AcDbEntity
  8
SK1
  6
Continuous
100
AcDbLine
 10
6.355
 20
-10.2118801156
 30
0.0
 11
6.355
 21
-9.5452799733
 31
0.0
  0
LINE
  5
12C
330
1F
100
AcDbEntity
  8
SK1
  6
Continuous
100
AcDbLine
 10
6.155
 20
-8.1477767542
 30
0.0
 11
6.155
 21
-8.6999999002
 31
0.0
  0
SPLINE
  5
12D
330
1F
100
AcDbEntity
  8
SK1
  6
Continuous
100
AcDbSpline
210
0.0
220
0.0
230
1.0
 70
     8
 71
     3
 72
    11
 73
     7
 74
     0
 42
0.0000000004270909
 43
0.0000000001
 12
1.0
 22
0.0
 32
0.0
 13
1.0
 23
0.0
 33
0.0
 40
0.0
 40
0.0
 40
0.0
 40
0.0
 40
0.5381671552188961
 40
0.5381671552188961
 40
0.5381671552188961
 40
1.0
 40
1.0
 40
1.0
 40
1.0
 10
-20.08675193028802
 20
7.171096101462647
 30
0.0
 10
-15.92744457914447
 20
7.756159927547653
 30
0.0
 10
-11.76812064058487
 20
8.341105833314735
 30
0.0
 10
-7.608788294740508
 20
8.925991940760332
 30
0.0
 10
-4.039420912747567
 20
9.427917062512854
 30
0.0
 10
-0.4700470807934929
 20
9.929796317030249
 30
0.0
 10
3.099330759615954
 20
10.43164705965741
 30
0.0
  0
SPLINE
  5
12E
330
1F
100
AcDbEntity
  8
SK1
  6
Continuous
100
AcDbSpline
210
0.0
220
0.0
230
1.0
 70
     8
 71
     3
 72
    10
 73
     6
 74
     0
 42
0.0000000310380488
 43
0.0000000001
 12
1.0
 22
0.0
 32
0.0
 13
1.0
 23
0.0
 33
0.0
 40
0.0
 40
0.0
 40
0.0
 40
0.0
 40
0.5
 40
0.5
 40
1.0
 40
1.0
 40
1.0
 40
1.0
 10
3.754999999999984
 20
8.694826147484363
 30
0.0
 10
3.702123214864995
 20
8.694826147484363
 30
0.0
 10
3.65040331984685
 20
8.716556735558934
 30
0.0
 10
3.576614556171774
 20
8.790461658138604
 30
0.0
 10
3.554999999999978
 20
8.842731421387128
 30
0.0
 10
3.554999999999985
 20
8.894942482945535
 30
0.0
  0
SPLINE
  5
12F
330
1F
100
AcDbEntity
  8
SK1
  6
Continuous
100
AcDbSpline
210
0.0
220
0.0
230
1.0
 70
     8
 71
     3
 72
    10
 73
     6
 74
     0
 42
0.0000000228003628
 43
0.0000000001
 12
1.0
 22
0.0
 32
0.0
 13
1.0
 23
0.0
 33
0.0
 40
0.0
 40
0.0
 40
0.0
 40
0.0
 40
0.5
 40
0.5
 40
1.0
 40
1.0
 40
1.0
 40
1.0
 10
-20.34500000000014
 20
6.873744593544635
 30
0.0
 10
-20.34500000000001
 20
6.945218505886094
 30
0.0
 10
-20.31826377619246
 20
7.016719107753486
 30
0.0
 10
-20.22485489205889
 20
7.124432263718219
 30
0.0
 10
-20.15828210193434
 20
7.161034398309178
 30
0.0
 10
-20.08675193028802
 20
7.171096101462647
 30
0.0
  0
SPLINE
  5
130
330
1F
100
AcDbEntity
  8
SK1
  6
Continuous
100
AcDbSpline
210
0.0
220
0.0
230
1.0
 70
     8
 71
     3
 72
    10
 73
     6
 74
     0
 42
0.0000000141888833
 43
0.0000000001
 12
1.0
 22
0.0
 32
0.0
 13
1.0
 23
0.0
 33
0.0
 40
0.0
 40
0.0
 40
0.0
 40
0.0
 40
0.5
 40
0.5
 40
1.0
 40
1.0
 40
1.0
 40
1.0
 10
3.099330759615954
 20
10.43164705965741
 30
0.0
 10
3.213332587605489
 20
10.44767559588849
 30
0.0
 10
3.331761943216991
 20
10.41187577109847
 30
0.0
 10
3.503067280621877
 20
10.26290858756708
 30
0.0
 10
3.554999999999996
 20
10.15005641441872
 30
0.0
 10
3.554999999999996
 20
10.03536959844471
 30
0.0
  0
LINE
  5
131
330
1F
100
AcDbEntity
  8
SK3
100
AcDbLine
 10
5.6741434433
 20
5.9924954064
 30
0.0
 11
-20.345
 21
5.9924954064
 31
0.0
  0
LINE
  5
132
330
1F
100
AcDbEntity
  8
SK1
  6
Continuous
100
AcDbLine
 10
5.3527667851
 20
8.6948261475
 30
0.0
 11
3.755
 21
8.6948261475
 31
0.0
  0
ARC
  5
133
330
1F
100
AcDbEntity
  8
SK1
  6
Continuous
100
AcDbCircle
 10
5.3530620856
 20
17.5075462594
 30
0.0
 40
8.812720116850082
100
AcDbArc
 50
269.9980801081
 51
271.9634294869
  0
ARC
  5
134
330
1F
100
AcDbEntity
  8
SK3
100
AcDbCircle
 10
5.6743595739
 20
12.0107267947
 30
0.0
 40
6.018231392214738
100
AcDbArc
 50
269.9979423571
 51
272.8616394768
  0
SPLINE
  5
135
330
1F
100
AcDbEntity
  8
SK3
100
AcDbSpline
210
0.0
220
0.0
230
1.0
 70
     8
 71
     3
 72
    11
 73
     7
 74
     0
 42
0.0000003399333582
 43
0.0000000001
 12
1.0
 22
0.0
 32
0.0
 13
1.0
 23
0.0
 33
0.0
 40
0.0
 40
0.0
 40
0.0
 40
0.0
 40
0.2457852632154121
 40
0.2457852632154121
 40
0.2457852632154121
 40
1.0
 40
1.0
 40
1.0
 40
1.0
 10
-17.99546518550663
 20
-5.574335232207566
 30
0.0
 10
-17.99708044246139
 20
-5.572254285984624
 30
0.0
 10
-17.99852777573748
 20
-5.570151736307073
 30
0.0
 10
-17.99980151636282
 20
-5.568032171099867
 30
0.0
 10
-18.00374236194126
 20
-5.561474415926708
 30
0.0
 10
-18.00609603536449
 20
-5.554676710555862
 30
0.0
 10
-18.00681416030781
 20
-5.547800670467101
 30
0.0
  0
LINE
  5
136
330
1F
100
AcDbEntity
  8
SK1
  6
Continuous
100
AcDbLine
 10
-20.0867519303
 20
5.2828627455
 30
0.0
 11
-20.0867519303
 21
7.1710961015
 31
0.0
  0
LINE
  5
137
330
1F
100
AcDbEntity
  8
SK1
  6
Continuous
100
AcDbLine
 10
3.0993307596
 20
7.5884204384
 30
0.0
 11
3.0993307596
 21
9.5227801867
 31
0.0
  0
SPLINE
  5
138
330
1F
100
AcDbEntity
  8
SK1
  6
Continuous
100
AcDbSpline
210
0.0
220
0.0
230
1.0
 70
     8
 71
     3
 72
    11
 73
     7
 74
     0
 42
0.0000000004291766
 43
0.0000000001
 12
1.0
 22
0.0
 32
0.0
 13
1.0
 23
0.0
 33
0.0
 40
0.0
 40
0.0
 40
0.0
 40
0.0
 40
0.538167155218896
 40
0.538167155218896
 40
0.538167155218896
 40
1.0
 40
1.0
 40
1.0
 40
1.0
 10
-20.08675193028802
 20
4.858598676750851
 30
0.0
 10
-15.92744457914447
 20
5.272301275602505
 30
0.0
 10
-11.76812064058487
 20
5.685920492197718
 30
0.0
 10
-7.608788294740508
 20
6.099497424994303
 30
0.0
 10
-4.039420912747567
 20
6.454412082233397
 30
0.0
 10
-0.4700470807934912
 20
6.809294306439492
 30
0.0
 10
3.099330759615954
 20
7.164156369694667
 30
0.0
  0
SPLINE
  5
139
330
1F
100
AcDbEntity
  8
SK1
  6
Continuous
100
AcDbSpline
210
0.0
220
0.0
230
1.0
 70
     8
 71
     3
 72
    11
 73
     7
 74
     0
 42
0.0000000004291766
 43
0.0000000001
 12
1.0
 22
0.0
 32
0.0
 13
1.0
 23
0.0
 33
0.0
 40
0.0
 40
0.0
 40
0.0
 40
0.0
 40
0.538167155218896
 40
0.538167155218896
 40
0.538167155218896
 40
1.0
 40
1.0
 40
1.0
 40
1.0
 10
-20.08675193028802
 20
5.28286274546278
 30
0.0
 10
-15.92744457914447
 20
5.696565344314434
 30
0.0
 10
-11.76812064058487
 20
6.110184560909645
 30
0.0
 10
-7.608788294740508
 20
6.523761493706231
 30
0.0
 10
-4.039420912747567
 20
6.878676150945324
 30
0.0
 10
-0.4700470807934912
 20
7.233558375151422
 30
0.0
 10
3.099330759615954
 20
7.588420438406594
 30
0.0
  0
LINE
  5
13A
330
1F
100
AcDbEntity
  8
SK1
  6
Continuous
100
AcDbLine
 10
-20.345
 20
5.0726034778
 30
0.0
 11
-20.345
 21
6.8737445935
 31
0.0
  0
LINE
  5
13B
330
1F
100
AcDbEntity
  8
SK1
  6
Continuous
100
AcDbLine
 10
3.555
 20
7.3082099584
 30
0.0
 11
3.555
 21
9.1566675511
 31
0.0
  0
LINE
  5
13C
330
1F
100
AcDbEntity
  8
SK1
  6
Continuous
100
AcDbLine
 10
3.755
 20
6.3603025937
 30
0.0
 11
3.755
 21
7.9181668943
 31
0.0
  0
LINE
  5
13D
330
1F
100
AcDbEntity
  8
SK1
  6
Continuous
100
AcDbLine
 10
-20.345
 20
4.6483394091
 30
0.0
 11
-20.345
 21
5.0726034778
 31
0.0
  0
SPLINE
  5
13E
330
1F
100
AcDbEntity
  8
SK1
  6
Continuous
100
AcDbSpline
210
0.0
220
0.0
230
1.0
 70
     8
 71
     3
 72
    10
 73
     6
 74
     0
 42
0.0000000269130255
 43
0.0000000001
 12
1.0
 22
0.0
 32
0.0
 13
1.0
 23
0.0
 33
0.0
 40
0.0
 40
0.0
 40
0.0
 40
0.0
 40
0.5
 40
0.5
 40
1.0
 40
1.0
 40
1.0
 40
1.0
 10
-20.34500000000014
 20
5.072603477817908
 30
0.0
 10
-20.34500000000001
 20
5.123143165912485
 30
0.0
 10
-20.31826377619246
 20
5.173701726351839
 30
0.0
 10
-20.22485489205889
 20
5.249866429357507
 30
0.0
 10
-20.15828210193434
 20
5.275748046932671
 30
0.0
 10
-20.08675193028802
 20
5.28286274546278
 30
0.0
  0
SPLINE
  5
13F
330
1F
100
AcDbEntity
  8
SK1
  6
Continuous
100
AcDbSpline
210
0.0
220
0.0
230
1.0
 70
     8
 71
     3
 72
    10
 73
     6
 74
     0
 42
0.0000000163112609
 43
0.0000000001
 12
1.0
 22
0.0
 32
0.0
 13
1.0
 23
0.0
 33
0.0
 40
0.0
 40
0.0
 40
0.0
 40
0.0
 40
0.5
 40
0.5
 40
1.0
 40
1.0
 40
1.0
 40
1.0
 10
3.099330759615954
 20
7.588420438406594
 30
0.0
 10
3.213332587605491
 20
7.599754325068084
 30
0.0
 10
3.331761943216988
 20
7.574440026193773
 30
0.0
 10
3.503067280621873
 20
7.469104320544462
 30
0.0
 10
3.554999999999996
 20
7.389305783639621
 30
0.0
 10
3.554999999999996
 20
7.308209958351705
 30
0.0
  0
SPLINE
  5
140
330
1F
100
AcDbEntity
  8
SK1
  6
Continuous
100
AcDbSpline
210
0.0
220
0.0
230
1.0
 70
     8
 71
     3
 72
    10
 73
     6
 74
     0
 42
0.0000000361028879
 43
0.0000000001
 12
1.0
 22
0.0
 32
0.0
 13
1.0
 23
0.0
 33
0.0
 40
0.0
 40
0.0
 40
0.0
 40
0.0
 40
0.5
 40
0.5
 40
1.0
 40
1.0
 40
1.0
 40
1.0
 10
3.754999999999984
 20
5.936038524990496
 30
0.0
 10
3.702123214864995
 20
5.936038524990498
 30
0.0
 10
3.65040331984685
 20
5.951404371177198
 30
0.0
 10
3.576614556171774
 20
6.003663043096351
 30
0.0
 10
3.55499999999998
 20
6.040623347140395
 30
0.0
 10
3.554999999999985
 20
6.077542142821294
 30
0.0
  0
SPLINE
  5
141
330
1F
100
AcDbEntity
  8
SK1
  6
Continuous
100
AcDbSpline
210
0.0
220
0.0
230
1.0
 70
     8
 71
     3
 72
    10
 73
     6
 74
     0
 42
0.0000000361028879
 43
0.0000000001
 12
1.0
 22
0.0
 32
0.0
 13
1.0
 23
0.0
 33
0.0
 40
0.0
 40
0.0
 40
0.0
 40
0.0
 40
0.5
 40
0.5
 40
1.0
 40
1.0
 40
1.0
 40
1.0
 10
3.754999999999984
 20
6.360302593702426
 30
0.0
 10
3.702123214864995
 20
6.360302593702426
 30
0.0
 10
3.65040331984685
 20
6.375668439889125
 30
0.0
 10
3.576614556171774
 20
6.427927111808278
 30
0.0
 10
3.554999999999978
 20
6.464887415852322
 30
0.0
 10
3.554999999999985
 20
6.501806211533222
 30
0.0
  0
LINE
  5
142
330
1F
100
AcDbEntity
  8
SK1
  6
Continuous
100
AcDbLine
 10
3.555
 20
6.8839458896
 30
0.0
 11
3.555
 21
7.3082099584
 31
0.0
  0
SPLINE
  5
143
330
1F
100
AcDbEntity
  8
SK1
  6
Continuous
100
AcDbSpline
210
0.0
220
0.0
230
1.0
 70
     8
 71
     3
 72
    10
 73
     6
 74
     0
 42
0.0000000269130255
 43
0.0000000001
 12
1.0
 22
0.0
 32
0.0
 13
1.0
 23
0.0
 33
0.0
 40
0.0
 40
0.0
 40
0.0
 40
0.0
 40
0.5
 40
0.5
 40
1.0
 40
1.0
 40
1.0
 40
1.0
 10
-20.34500000000014
 20
4.64833940910598
 30
0.0
 10
-20.34500000000001
 20
4.698879097200559
 30
0.0
 10
-20.31826377619244
 20
4.749437657639911
 30
0.0
 10
-20.22485489205889
 20
4.82560236064558
 30
0.0
 10
-20.15828210193434
 20
4.851483978220745
 30
0.0
 10
-20.08675193028802
 20
4.858598676750851
 30
0.0
  0
SPLINE
  5
144
330
1F
100
AcDbEntity
  8
SK1
  6
Continuous
100
AcDbSpline
210
0.0
220
0.0
230
1.0
 70
     8
 71
     3
 72
    10
 73
     6
 74
     0
 42
0.0000000163112609
 43
0.0000000001
 12
1.0
 22
0.0
 32
0.0
 13
1.0
 23
0.0
 33
0.0
 40
0.0
 40
0.0
 40
0.0
 40
0.0
 40
0.5
 40
0.5
 40
1.0
 40
1.0
 40
1.0
 40
1.0
 10
3.099330759615954
 20
7.164156369694667
 30
0.0
 10
3.213332587605489
 20
7.175490256356159
 30
0.0
 10
3.331761943216991
 20
7.150175957481843
 30
0.0
 10
3.503067280621877
 20
7.044840251832532
 30
0.0
 10
3.554999999999996
 20
6.965041714927692
 30
0.0
 10
3.554999999999996
 20
6.883945889639776
 30
0.0
  0
LINE
  5
145
330
1F
100
AcDbEntity
  8
SK3
100
AcDbLine
 10
5.6741434433
 20
4.025202133
 30
0.0
 11
-20.345
 21
4.025202133
 31
0.0
  0
LINE
  5
146
330
1F
100
AcDbEntity
  8
SK1
  6
Continuous
100
AcDbLine
 10
5.3527667851
 20
5.936038525
 30
0.0
 11
3.755
 21
5.936038525
 31
0.0
  0
SPLINE
  5
147
330
1F
100
AcDbEntity
  8
SK1
  6
Continuous
100
AcDbSpline
210
0.0
220
0.0
230
1.0
 70
     8
 71
     3
 72
    35
 73
    31
 74
     0
 42
0.0000000122280144
 43
0.0000000001
 12
1.0
 22
0.0
 32
0.0
 13
1.0
 23
0.0
 33
0.0
 40
0.0
 40
0.0
 40
0.0
 40
0.0
 40
0.1085404134398866
 40
0.1085404134398866
 40
0.1085404134398866
 40
0.2171239349288791
 40
0.2171239349288791
 40
0.2171239349288791
 40
0.3250645473203544
 40
0.3250645473203544
 40
0.3250645473203544
 40
0.4322119245858694
 40
0.4322119245858694
 40
0.4322119245858694
 40
0.5000323130330004
 40
0.5000323130330004
 40
0.5000323130330004
 40
0.6065859804322081
 40
0.6065859804322081
 40
0.6065859804322081
 40
0.7131270380193951
 40
0.7131270380193951
 40
0.7131270380193951
 40
0.8198706598330452
 40
0.8198706598330452
 40
0.8198706598330452
 40
0.9271911654844008
 40
0.9271911654844008
 40
0.9271911654844008
 40
1.0
 40
1.0
 40
1.0
 40
1.0
 10
5.352766785120238
 20
6.360302593702425
 30
0.0
 10
5.386811622912721
 20
6.360302593702425
 30
0.0
 10
5.42132753336692
 20
6.356318420422444
 30
0.0
 10
5.453461039091036
 20
6.348628606130031
 30
0.0
 10
5.485602025437928
 20
6.340937001662575
 30
0.0
 10
5.516248151168933
 20
6.329318871006698
 30
0.0
 10
5.542809349873914
 20
6.314660482860432
 30
0.0
 10
5.569214111390798
 20
6.300088428055108
 30
0.0
 10
5.592315288117058
 20
6.282101428070774
 30
0.0
 10
5.610148602793675
 20
6.26212657380973
 30
0.0
 10
5.627853066866549
 20
6.242296043364969
 30
0.0
 10
5.640857207082204
 20
6.219952731321939
 30
0.0
 10
5.648060671462822
 20
6.196912224899081
 30
0.0
 10
5.65265956350311
 20
6.182202524677976
 30
0.0
 10
5.655000000000013
 20
6.167000803366196
 30
0.0
 10
5.655000000000013
 20
6.151829096093667
 30
0.0
 10
5.655000000000013
 20
6.128193567199188
 30
0.0
 10
5.64922524731442
 20
6.104088429644555
 30
0.0
 10
5.638160386628798
 20
6.081533483689555
 30
0.0
 10
5.627096249031196
 20
6.058980011699001
 30
0.0
 10
5.610439467986912
 20
6.037358046732811
 30
0.0
 10
5.589581027176889
 20
6.018499359818883
 30
0.0
 10
5.568681898211501
 20
5.999603885630671
 30
0.0
 10
5.542994620088519
 20
5.982967540079121
 30
0.0
 10
5.514646708056846
 20
5.96999828829008
 30
0.0
 10
5.486145749178706
 20
5.956959017125886
 30
0.0
 10
5.454179757062109
 20
5.947271688004592
 30
0.0
 10
5.421372115468481
 20
5.941742658266945
 30
0.0
 10
5.398945283850843
 20
5.937963093113464
 30
0.0
 10
5.375782771453546
 20
5.936038524990496
 30
0.0
 10
5.352766785120238
 20
5.936038524990495
 30
0.0
  0
SPLINE
  5
148
330
1F
100
AcDbEntity
  8
SK3
100
AcDbSpline
210
0.0
220
0.0
230
1.0
 70
     8
 71
     3
 72
    35
 73
    31
 74
     0
 42
0.0000000122671061
 43
0.0000000001
 12
1.0
 22
0.0
 32
0.0
 13
1.0
 23
0.0
 33
0.0
 40
0.0
 40
0.0
 40
0.0
 40
0.0
 40
0.1077842904312189
 40
0.1077842904312189
 40
0.1077842904312189
 40
0.2155922120754939
 40
0.2155922120754939
 40
0.2155922120754939
 40
0.3230688415642683
 40
0.3230688415642683
 40
0.3230688415642683
 40
0.4303218169492671
 40
0.4303218169492671
 40
0.4303218169492671
 40
0.5000091041820613
 40
0.5000091041820613
 40
0.5000091041820613
 40
0.6072073787889511
 40
0.6072073787889511
 40
0.6072073787889511
 40
0.7144053444276728
 40
0.7144053444276728
 40
0.7144053444276728
 40
0.8216082817798379
 40
0.8216082817798379
 40
0.8216082817798379
 40
0.9288934385228371
 40
0.9288934385228371
 40
0.9288934385228371
 40
1.0
 40
1.0
 40
1.0
 40
1.0
 10
5.674143443279958
 20
4.0252021329624
 30
0.0
 10
5.70786756560642
 20
4.0252021329624
 30
0.0
 10
5.742058052381146
 20
4.029509301954235
 30
0.0
 10
5.773885632156559
 20
4.037756697058588
 30
0.0
 10
5.80571745862753
 20
4.046005192597734
 30
0.0
 10
5.836063525908417
 20
4.058422062926034
 30
0.0
 10
5.862387980549305
 20
4.07390283016463
 30
0.0
 10
5.8886328602561
 20
4.089336801332818
 30
0.0
 10
5.911606194418134
 20
4.108238210504454
 30
0.0
 10
5.92939668769027
 20
4.12894217688965
 30
0.0
 10
5.947151060211852
 20
4.149604107183222
 30
0.0
 10
5.960234826189126
 20
4.172627132652464
 30
0.0
 10
5.967566758969856
 20
4.196034824861802
 30
0.0
 10
5.972369972866843
 20
4.211369410690483
 30
0.0
 10
5.974815375408933
 20
4.227095469420576
 30
0.0
 10
5.974815375408955
 20
4.242640786889825
 30
0.0
 10
5.974815375408988
 20
4.26635838624466
 30
0.0
 10
5.969031833431643
 20
4.290193272146717
 30
0.0
 10
5.95794150222256
 20
4.312203775963118
 30
0.0
 10
5.94685118648541
 20
4.334214249073037
 30
0.0
 10
5.930147724518705
 20
4.355010102887237
 30
0.0
 10
5.909211587160825
 20
4.372952941500142
 30
0.0
 10
5.888274188861776
 20
4.390896860773895
 30
0.0
 10
5.862526783918027
 20
4.406486100199642
 30
0.0
 10
5.834101680719078
 20
4.418534933819286
 30
0.0
 10
5.80565394072427
 20
4.430593362724656
 30
0.0
 10
5.773743673763647
 20
4.439441923859371
 30
0.0
 10
5.741006780410149
 20
4.44443628729549
 30
0.0
 10
5.719136370554629
 20
4.447772852379289
 30
0.0
 10
5.696570715501104
 20
4.449466201674328
 30
0.0
 10
5.674143443279958
 20
4.449466201674327
 30
0.0
  0
SPLINE
  5
149
330
1F
100
AcDbEntity
  8
SK3
100
AcDbSpline
210
0.0
220
0.0
230
1.0
 70
     8
 71
     3
 72
     8
 73
     4
 74
     0
 42
0.0000007067240913
 43
0.0000000001
 12
1.0
 22
0.0
 32
0.0
 13
1.0
 23
0.0
 33
0.0
 40
0.0
 40
0.0
 40
0.0
 40
0.0
 40
1.0
 40
1.0
 40
1.0
 40
1.0
 10
-17.99547118797719
 20
-2.372112597314322
 30
0.0
 10
-17.99688102203577
 20
-2.367600940315481
 30
0.0
 10
-17.99816285707866
 20
-2.363060010832399
 30
0.0
 10
-17.99931292069394
 20
-2.358498139697553
 30
0.0
  0
LINE
  5
14A
330
1F
100
AcDbEntity
  8
SK1
  6
Continuous
100
AcDbLine
 10
5.3527667851
 20
6.3603025937
 30
0.0
 11
3.755
 21
6.3603025937
 31
0.0
  0
LINE
  5
14B
330
1F
100
AcDbEntity
  8
SK3
100
AcDbLine
 10
5.6741434433
 20
4.4494662017
 30
0.0
 11
-20.345
 21
4.4494662017
 31
0.0
  0
ELLIPSE
  5
14C
330
1F
100
AcDbEntity
  8
SK1
  6
Continuous
100
AcDbEllipse
 10
-56.2365179463
 20
0.2121321384
 30
0.0
 11
62.19999994911397
 21
-8.548132186452394E-9
 31
0.0
210
0.0
220
0.0
230
1.0
 40
0.7071067815
 41
0.1307058806827296
 42
0.1402475115636669
  0
LINE
  5
14D
330
1F
100
AcDbEntity
  8
SK3
100
AcDbLine
 10
5.9748153754
 20
-5.9999999002
 30
0.0
 11
10.755
 21
-5.9999999002
 31
0.0
  0
LINE
  5
14E
330
1F
100
AcDbEntity
  8
SK3
100
AcDbLine
 10
10.755
 20
6.0000000998
 30
0.0
 11
5.9748153754
 21
6.0000000998
 31
0.0
  0
ARC
  5
14F
330
1F
100
AcDbEntity
  8
SK3
100
AcDbCircle
 10
-25.4958993693
 20
0.026542598
 30
0.0
 40
31.76033003073816
100
AcDbArc
 50
348.7285010111
 51
352.259544933
  0
ARC
  5
150
330
1F
100
AcDbEntity
  8
SK3
100
AcDbCircle
 10
10.755
 20
6.4000000998
 30
0.0
 40
0.4000000000000015
100
AcDbArc
 50
270.0
 51
0.0
  0
ARC
  5
151
330
1F
100
AcDbEntity
  8
SK1
  6
Continuous
100
AcDbCircle
 10
10.905
 20
7.7343812404
 30
0.0
 40
0.2500000000000002
100
AcDbArc
 50
0.0
 51
60.0
  0
LINE
  5
152
330
1F
100
AcDbEntity
  8
SK1
  6
Continuous
100
AcDbLine
 10
11.03
 20
7.9508875913
 30
0.0
 11
6.8344228634
 21
10.3732051805
 31
0.0
  0
ARC
  5
153
330
1F
100
AcDbEntity
  8
SK1
  6
Continuous
100
AcDbCircle
 10
6.7344228634
 20
10.2000000998
 30
0.0
 40
0.2000000000000005
100
AcDbArc
 50
60.0
 51
120.0
  0
LINE
  5
154
330
1F
100
AcDbEntity
  8
SK1
  6
Continuous
100
AcDbLine
 10
6.6344228634
 20
10.3732051805
 30
0.0
 11
6.355
 21
10.2118803151
 31
0.0
  0
ARC
  5
155
330
1F
100
AcDbEntity
  8
SK1
  6
Continuous
100
AcDbCircle
 10
6.155
 20
8.9000000998
 30
0.0
 40
0.1999999999999953
100
AcDbArc
 50
270.0
 51
0.0
  0
LINE
  5
156
330
1F
100
AcDbEntity
  8
SK1
  6
Continuous
100
AcDbLine
 10
6.155
 20
8.7000000998
 30
0.0
 11
5.655
 21
8.7000000998
 31
0.0
  0
ARC
  5
157
330
1F
100
AcDbEntity
  8
SK3
100
AcDbCircle
 10
-56.2365179972
 20
0.0000000998
 30
0.0
 40
62.5
100
AcDbArc
 50
351.9983994703
 51
354.491099821
  0
ARC
  5
158
330
1F
100
AcDbEntity
  8
SK3
100
AcDbCircle
 10
35.8623130311
 20
-0.0967623503
 30
0.0
 40
54.16404526972115
100
AcDbArc
 50
172.5478500271
 51
174.0274444455
  0
ARC
  5
159
330
1F
100
AcDbEntity
  8
SK3
100
AcDbCircle
 10
-7.8256705944
 20
-0.217605517
 30
0.0
 40
10.49472355129013
100
AcDbArc
 50
162.461551096
 51
165.8119698032
  0
ARC
  5
15A
330
1F
100
AcDbEntity
  8
SK3
100
AcDbCircle
 10
-8.1896280419
 20
0.1187292885
 30
0.0
 40
10.11763514694858
100
AcDbArc
 50
194.1503566485
 51
197.6265888591
  0
ARC
  5
15B
330
1F
100
AcDbEntity
  8
SK3
100
AcDbCircle
 10
33.9150546904
 20
-0.1218257994
 30
0.0
 40
52.20461446096923
100
AcDbArc
 50
185.9563280805
 51
187.4912368237
  0
ARC
  5
15C
330
1F
100
AcDbEntity
  8
SK3
100
AcDbCircle
 10
10.755
 20
-6.3999999002
 30
0.0
 40
0.3999999999999999
100
AcDbArc
 50
0.0
 51
90.0
  0
ARC
  5
15D
330
1F
100
AcDbEntity
  8
SK1
  6
Continuous
100
AcDbCircle
 10
10.905
 20
-7.7343810408
 30
0.0
 40
0.2500000000000014
100
AcDbArc
 50
300.0
 51
0.0
  0
LINE
  5
15E
330
1F
100
AcDbEntity
  8
SK1
  6
Continuous
100
AcDbLine
 10
6.8344228634
 20
-10.373204981
 30
0.0
 11
11.03
 21
-7.9508873918
 31
0.0
  0
ARC
  5
15F
330
1F
100
AcDbEntity
  8
SK1
  6
Continuous
100
AcDbCircle
 10
6.7344228634
 20
-10.1999999002
 30
0.0
 40
0.2000000000000005
100
AcDbArc
 50
240.0
 51
300.0
  0
LINE
  5
160
330
1F
100
AcDbEntity
  8
SK1
  6
Continuous
100
AcDbLine
 10
6.355
 20
-10.2118801156
 30
0.0
 11
6.6344228634
 21
-10.373204981
 31
0.0
  0
ARC
  5
161
330
1F
100
AcDbEntity
  8
SK1
  6
Continuous
100
AcDbCircle
 10
6.155
 20
-8.8999999002
 30
0.0
 40
0.1999999999999995
100
AcDbArc
 50
0.0
 51
90.0
  0
LINE
  5
162
330
1F
100
AcDbEntity
  8
SK1
  6
Continuous
100
AcDbLine
 10
5.655
 20
-8.6999999002
 30
0.0
 11
6.155
 21
-8.6999999002
 31
0.0
  0
ARC
  5
163
330
1F
100
AcDbEntity
  8
SK3
100
AcDbCircle
 10
-56.2365179972
 20
0.0000000998
 30
0.0
 40
62.5
100
AcDbArc
 50
5.5088992841
 51
8.0016006759
  0
ARC
  5
164
330
1F
100
AcDbEntity
  8
SK3
100
AcDbCircle
 10
-25.2615702846
 20
0.0091522982
 30
0.0
 40
31.52332873016044
100
AcDbArc
 50
7.7335325978
 51
11.2908220655
  0
LINE
  5
165
330
1F
100
AcDbEntity
  8
SK1
  6
Continuous
100
AcDbLine
 10
0.0
 20
9.9958767021
 30
0.0
 11
0.0
 21
-9.9958765026
 31
0.0
  0
LINE
  5
167
330
1F
100
AcDbEntity
  8
SK4
  6
Continuous
100
AcDbLine
 10
11.155
 20
0.0000000998
 30
0.0
 11
-20.345
 21
0.0000000998
 31
0.0
  0
DIMENSION
  5
17C
330
1F
100
AcDbEntity
  8
SK2
  6
Continuous
 62
   136
100
AcDbDimension
  2
DMBLK90
 10
19.004967359
 20
6.0000000998
 30
0.0
 11
19.004967359
 21
0.0000000476
 31
0.0
 70
   161
  1
\A1;ø <>
 71
     5
 42
-1.0
  3
DIN
100
AcDbAlignedDimension
 13
10.755
 23
6.0000000998
 33
0.0
 14
10.755
 24
-5.9999999002
 34
0.0
  0
DIMENSION
  5
187
330
1F
100
AcDbEntity
  8
SK2
  6
Continuous
 62
   136
100
AcDbDimension
  2
DMBLK91
 10
0.0
 20
-17.7251461204
 30
0.0
 11
5.5775000218
 21
-17.7251461204
 31
0.0
 70
   160
  1
\A1;<>
 71
     5
 42
-1.0
  3
DIN
100
AcDbAlignedDimension
 13
11.155
 23
-3.234755924
 33
0.0
 14
0.0
 24
-9.9958765026
 34
0.0
100
AcDbRotatedDimension
  0
DIMENSION
  5
191
330
1F
100
AcDbEntity
  8
SK2
  6
Continuous
 62
   136
100
AcDbDimension
  2
DMBLK92
 10
-25.8598979563
 20
9.9958767021
 30
0.0
 11
-25.8598979563
 21
-0.0000001093
 31
0.0
 70
   161
  1
\A1;ø <>
 71
     5
 42
-1.0
  3
DIN
100
AcDbAlignedDimension
 13
0.0
 23
9.9958767021
 33
0.0
 14
0.0
 24
-9.9958765026
 34
0.0
1001
ACAD
1000
DSTYLE
1002
{
1070
   271
1070
     1
1070
   272
1070
     1
1070
     0
1002
}
  0
DIMENSION
  5
19C
330
1F
100
AcDbEntity
  8
SK2
  6
Continuous
 62
   136
100
AcDbDimension
  2
DMBLK93
 10
11.155
 20
15.522826454
 30
0.0
 11
-4.5950002533
 21
15.522826454
 31
0.0
 70
   161
  1
\A1;<>
 71
     5
 42
-1.0
  3
DIN
100
AcDbAlignedDimension
 13
11.155
 23
7.0254541844
 33
0.0
 14
-20.345
 24
6.8737445935
 34
0.0
  0
ENDSEC
  0
SECTION
  2
OBJECTS
  0
DICTIONARY
  5
C
330
0
100
AcDbDictionary
281
     1
  3
ACAD_GROUP
350
D
  3
ACAD_LAYOUT
350
1A
  3
ACAD_MATERIAL
350
3B
  3
ACAD_MLEADERSTYLE
350
1A8
  3
ACAD_MLINESTYLE
350
17
  3
ACAD_PLOTSETTINGS
350
19
  3
ACAD_PLOTSTYLENAME
350
E
  3
ACAD_VISUALSTYLE
350
2A
  3
AcDbVariableDictionary
350
1A6
  0
DICTIONARY
  5
D
102
{ACAD_REACTORS
330
C
102
}
330
C
100
AcDbDictionary
281
     1
  0
DICTIONARY
  5
1A
102
{ACAD_REACTORS
330
C
102
}
330
C
100
AcDbDictionary
281
     1
  3
Layout1
350
1E
  3
Model
350
22
  0
DICTIONARY
  5
3B
102
{ACAD_REACTORS
330
C
102
}
330
C
100
AcDbDictionary
281
     1
  3
ByBlock
350
3D
  3
ByLayer
350
3C
  3
Global
350
3E
  0
DICTIONARY
  5
1A8
102
{ACAD_REACTORS
330
C
102
}
330
C
100
AcDbDictionary
281
     1
  0
DICTIONARY
  5
17
102
{ACAD_REACTORS
330
C
102
}
330
C
100
AcDbDictionary
281
     1
  3
Standard
350
18
  0
DICTIONARY
  5
19
102
{ACAD_REACTORS
330
C
102
}
330
C
100
AcDbDictionary
281
     1
  0
ACDBDICTIONARYWDFLT
  5
E
102
{ACAD_REACTORS
330
C
102
}
330
C
100
AcDbDictionary
281
     1
  3
Normal
350
F
100
AcDbDictionaryWithDefault
340
F
  0
DICTIONARY
  5
2A
102
{ACAD_REACTORS
330
C
102
}
330
C
100
AcDbDictionary
281
     1
  3
2dWireframe
350
2F
  3
3D Hidden
350
31
  3
3dWireframe
350
30
  3
Basic
350
32
  3
Brighten
350
36
  3
ColorChange
350
3A
  3
Conceptual
350
34
  3
Dim
350
35
  3
Facepattern
350
39
  3
Flat
350
2B
  3
FlatWithEdges
350
2C
  3
Gouraud
350
2D
  3
GouraudWithEdges
350
2E
  3
Linepattern
350
38
  3
Realistic
350
33
  3
Thicken
350
37
  0
DICTIONARY
  5
1A6
102
{ACAD_REACTORS
330
C
102
}
330
C
100
AcDbDictionary
281
     1
  3
DIMASSOC
350
1AB
  3
HIDETEXT
350
1AC
  3
PSOLHEIGHT
350
1AA
  3
PSOLWIDTH
350
1A9
  0
LAYOUT
  5
1E
102
{ACAD_REACTORS
330
1A
102
}
330
1A
100
AcDbPlotSettings
  1

  2
none_device
  4

  6

 40
0.0
 41
0.0
 42
0.0
 43
0.0
 44
0.0
 45
0.0
 46
0.0
 47
0.0
 48
0.0
 49
0.0
140
0.0
141
0.0
142
1.0
143
1.0
 70
   688
 72
     0
 73
     0
 74
     5
  7

 75
    16
147
1.0
148
0.0
149
0.0
100
AcDbLayout
  1
Layout1
 70
     1
 71
     1
 10
0.0
 20
0.0
 11
210.0
 21
297.0
 12
0.0
 22
0.0
 32
0.0
 14
0.0
 24
0.0
 34
0.0
 15
210.0
 25
297.0
 35
0.0
146
0.0
 13
0.0
 23
0.0
 33
0.0
 16
1.0
 26
0.0
 36
0.0
 17
0.0
 27
1.0
 37
0.0
 76
     0
330
1B
  0
LAYOUT
  5
22
102
{ACAD_REACTORS
330
1A
102
}
330
1A
100
AcDbPlotSettings
  1

  2
none_device
  4

  6

 40
0.0
 41
0.0
 42
0.0
 43
0.0
 44
0.0
 45
0.0
 46
0.0
 47
0.0
 48
0.0
 49
0.0
140
0.0
141
0.0
142
1.0
143
1.0
 70
  1712
 72
     0
 73
     0
 74
     0
  7

 75
     0
147
1.0
148
0.0
149
0.0
100
AcDbLayout
  1
Model
 70
     1
 71
     0
 10
0.0
 20
0.0
 11
210.0
 21
297.0
 12
0.0
 22
0.0
 32
0.0
 14
0.0
 24
0.0
 34
0.0
 15
210.0
 25
297.0
 35
0.0
146
0.0
 13
0.0
 23
0.0
 33
0.0
 16
1.0
 26
0.0
 36
0.0
 17
0.0
 27
1.0
 37
0.0
 76
     0
330
1F
331
29
  0
MATERIAL
  5
3D
102
{ACAD_REACTORS
330
3B
102
}
102
{ACAD_XDICTIONARY
360
1CF
102
}
330
3B
100
AcDbMaterial
  1
ByBlock
  0
MATERIAL
  5
3C
102
{ACAD_REACTORS
330
3B
102
}
102
{ACAD_XDICTIONARY
360
1CD
102
}
330
3B
100
AcDbMaterial
  1
ByLayer
  0
MATERIAL
  5
3E
102
{ACAD_REACTORS
330
3B
102
}
102
{ACAD_XDICTIONARY
360
1D1
102
}
330
3B
100
AcDbMaterial
  1
Global
  0
MLINESTYLE
  5
18
102
{ACAD_REACTORS
330
17
102
}
330
17
100
AcDbMlineStyle
  2
Standard
 70
     0
  3

 62
   256
 51
90.0
 52
90.0
 71
     2
 49
0.5
 62
   256
  6
BYLAYER
 49
-0.5
 62
   256
  6
BYLAYER
  0
ACDBPLACEHOLDER
  5
F
102
{ACAD_REACTORS
330
E
102
}
330
E
  0
VISUALSTYLE
  5
2F
102
{ACAD_REACTORS
330
2A
102
}
102
{ACAD_XDICTIONARY
360
1B5
102
}
330
2A
100
AcDbVisualStyle
  2
2dWireframe
 70
     4
 71
     0
 72
     2
 73
     0
 90
        0
 40
-0.6
 41
-30.0
 62
     5
 63
     7
 74
     1
 91
        4
 64
     7
 65
   257
 75
     1
175
     1
 42
1.0
 92
        0
 66
   257
 43
1.0
 76
     1
 77
     6
 78
     2
 67
     7
 79
     5
170
     0
171
     0
290
     0
174
     0
 93
        1
 44
0.0
173
     0
291
     0
 45
0.0
1001
ACAD
1000
AcDbSavedByObjectVersion
1070
     0
  0
VISUALSTYLE
  5
31
102
{ACAD_REACTORS
330
2A
102
}
102
{ACAD_XDICTIONARY
360
1B9
102
}
330
2A
100
AcDbVisualStyle
  2
3D Hidden
 70
     6
 71
     1
 72
     2
 73
     2
 90
        0
 40
-0.6
 41
-30.0
 62
     5
 63
     7
 74
     2
 91
        2
 64
     7
 65
   257
 75
     2
175
     1
 42
40.0
 92
        0
 66
   257
 43
1.0
 76
     1
 77
     6
 78
     2
 67
     7
 79
     3
170
     0
171
     0
290
     0
174
     0
 93
        1
 44
0.0
173
     0
291
     0
 45
0.0
1001
ACAD
1000
AcDbSavedByObjectVersion
1070
     0
  0
VISUALSTYLE
  5
30
102
{ACAD_REACTORS
330
2A
102
}
102
{ACAD_XDICTIONARY
360
1B7
102
}
330
2A
100
AcDbVisualStyle
  2
3dWireframe
 70
     5
 71
     0
 72
     2
 73
     0
 90
        0
 40
-0.6
 41
-30.0
 62
     5
 63
     7
 74
     1
 91
        4
 64
     7
 65
   257
 75
     1
175
     1
 42
1.0
 92
        0
 66
   257
 43
1.0
 76
     1
 77
     6
 78
     2
 67
     7
 79
     5
170
     0
171
     0
290
     0
174
     0
 93
        1
 44
0.0
173
     0
291
     0
 45
0.0
1001
ACAD
1000
AcDbSavedByObjectVersion
1070
     0
  0
VISUALSTYLE
  5
32
102
{ACAD_REACTORS
330
2A
102
}
102
{ACAD_XDICTIONARY
360
1BB
102
}
330
2A
100
AcDbVisualStyle
  2
Basic
 70
     7
 71
     1
 72
     0
 73
     1
 90
        0
 40
-0.6
 41
-30.0
 62
     5
 63
     7
 74
     0
 91
        4
 64
     7
 65
   257
 75
     1
175
     1
 42
1.0
 92
        8
 66
     7
 43
1.0
 76
     1
 77
     6
 78
     2
 67
     7
 79
     5
170
     0
171
     0
290
     0
174
     0
 93
        1
 44
0.0
173
     0
291
     1
 45
0.0
1001
ACAD
1000
AcDbSavedByObjectVersion
1070
     0
  0
VISUALSTYLE
  5
36
102
{ACAD_REACTORS
330
2A
102
}
102
{ACAD_XDICTIONARY
360
1C3
102
}
330
2A
100
AcDbVisualStyle
  2
Brighten
 70
    12
 71
     2
 72
     2
 73
     0
 90
        0
 40
-0.6
 41
-30.0
 62
     5
 63
     7
 74
     1
 91
        4
 64
     7
 65
   257
 75
     1
175
     1
 42
1.0
 92
        8
 66
     7
 43
1.0
 76
     1
 77
     6
 78
     2
 67
     7
 79
     5
170
     0
171
     0
290
     0
174
     0
 93
        1
 44
50.0
173
     0
291
     1
 45
0.0
1001
ACAD
1000
AcDbSavedByObjectVersion
1070
     0
  0
VISUALSTYLE
  5
3A
102
{ACAD_REACTORS
330
2A
102
}
102
{ACAD_XDICTIONARY
360
1CB
102
}
330
2A
100
AcDbVisualStyle
  2
ColorChange
 70
    16
 71
     2
 72
     2
 73
     3
 90
        0
 40
-0.6
 41
-30.0
 62
     5
 63
     8
 74
     1
 91
        4
 64
     7
 65
   257
 75
     1
175
     1
 42
1.0
 92
        8
 66
     8
 43
1.0
 76
     1
 77
     6
 78
     2
 67
     7
 79
     5
170
     0
171
     0
290
     0
174
     0
 93
        1
 44
0.0
173
     0
291
     1
 45
0.0
1001
ACAD
1000
AcDbSavedByObjectVersion
1070
     0
  0
VISUALSTYLE
  5
34
102
{ACAD_REACTORS
330
2A
102
}
102
{ACAD_XDICTIONARY
360
1BF
102
}
330
2A
100
AcDbVisualStyle
  2
Conceptual
 70
     9
 71
     3
 72
     2
 73
     0
 90
        0
 40
-0.6
 41
-30.0
 62
     5
 63
     7
 74
     2
 91
        2
 64
     7
 65
   257
 75
     1
175
     1
 42
40.0
 92
        8
 66
     7
 43
1.0
 76
     1
 77
     6
 78
     2
 67
     7
 79
     3
170
     0
171
     0
290
     0
174
     0
 93
        1
 44
0.0
173
     0
291
     0
 45
0.0
1001
ACAD
1000
AcDbSavedByObjectVersion
1070
     0
  0
VISUALSTYLE
  5
35
102
{ACAD_REACTORS
330
2A
102
}
102
{ACAD_XDICTIONARY
360
1C1
102
}
330
2A
100
AcDbVisualStyle
  2
Dim
 70
    11
 71
     2
 72
     2
 73
     0
 90
        0
 40
-0.6
 41
-30.0
 62
     5
 63
     7
 74
     1
 91
        4
 64
     7
 65
   257
 75
     1
175
     1
 42
1.0
 92
        8
 66
     7
 43
1.0
 76
     1
 77
     6
 78
     2
 67
     7
 79
     5
170
     0
171
     0
290
     0
174
     0
 93
        1
 44
-50.0
173
     0
291
     1
 45
0.0
1001
ACAD
1000
AcDbSavedByObjectVersion
1070
     0
  0
VISUALSTYLE
  5
39
102
{ACAD_REACTORS
330
2A
102
}
102
{ACAD_XDICTIONARY
360
1C9
102
}
330
2A
100
AcDbVisualStyle
  2
Facepattern
 70
    15
 71
     2
 72
     2
 73
     0
 90
        0
 40
-0.6
 41
-30.0
 62
     5
 63
     7
 74
     1
 91
        4
 64
     7
 65
   257
 75
     1
175
     1
 42
1.0
 92
        8
 66
     7
 43
1.0
 76
     1
 77
     6
 78
     2
 67
     7
 79
     5
170
     0
171
     0
290
     0
174
     0
 93
        1
 44
0.0
173
     0
291
     1
 45
0.0
1001
ACAD
1000
AcDbSavedByObjectVersion
1070
     0
  0
VISUALSTYLE
  5
2B
102
{ACAD_REACTORS
330
2A
102
}
102
{ACAD_XDICTIONARY
360
1AD
102
}
330
2A
100
AcDbVisualStyle
  2
Flat
 70
     0
 71
     2
 72
     1
 73
     1
 90
        2
 40
-0.6
 41
30.0
 62
     5
 63
     7
 74
     0
 91
        4
 64
     7
 65
   257
 75
     1
175
     1
 42
1.0
 92
        8
 66
     7
 43
1.0
 76
     1
 77
     6
 78
     2
 67
     7
 79
     5
170
     0
171
     0
290
     0
174
     0
 93
       13
 44
0.0
173
     0
291
     1
 45
0.0
1001
ACAD
1000
AcDbSavedByObjectVersion
1070
     0
  0
VISUALSTYLE
  5
2C
102
{ACAD_REACTORS
330
2A
102
}
102
{ACAD_XDICTIONARY
360
1AF
102
}
330
2A
100
AcDbVisualStyle
  2
FlatWithEdges
 70
     1
 71
     2
 72
     1
 73
     1
 90
        2
 40
-0.6
 41
30.0
 62
     5
 63
     7
 74
     1
 91
        4
 64
     7
 65
   257
 75
     1
175
     1
 42
1.0
 92
        0
 66
   257
 43
1.0
 76
     1
 77
     6
 78
     2
 67
     7
 79
     5
170
     0
171
     0
290
     0
174
     0
 93
       13
 44
0.0
173
     0
291
     1
 45
0.0
1001
ACAD
1000
AcDbSavedByObjectVersion
1070
     0
  0
VISUALSTYLE
  5
2D
102
{ACAD_REACTORS
330
2A
102
}
102
{ACAD_XDICTIONARY
360
1B1
102
}
330
2A
100
AcDbVisualStyle
  2
Gouraud
 70
     2
 71
     2
 72
     2
 73
     1
 90
        2
 40
-0.6
 41
30.0
 62
     5
 63
     7
 74
     0
 91
        4
 64
     7
 65
   257
 75
     1
175
     1
 42
1.0
 92
        0
 66
     7
 43
1.0
 76
     1
 77
     6
 78
     2
 67
     7
 79
     5
170
     0
171
     0
290
     0
174
     0
 93
       13
 44
0.0
173
     0
291
     1
 45
0.0
1001
ACAD
1000
AcDbSavedByObjectVersion
1070
     0
  0
VISUALSTYLE
  5
2E
102
{ACAD_REACTORS
330
2A
102
}
102
{ACAD_XDICTIONARY
360
1B3
102
}
330
2A
100
AcDbVisualStyle
  2
GouraudWithEdges
 70
     3
 71
     2
 72
     2
 73
     1
 90
        2
 40
-0.6
 41
30.0
 62
     5
 63
     7
 74
     1
 91
        4
 64
     7
 65
   257
 75
     1
175
     1
 42
1.0
 92
        0
 66
   257
 43
1.0
 76
     1
 77
     6
 78
     2
 67
     7
 79
     5
170
     0
171
     0
290
     0
174
     0
 93
       13
 44
0.0
173
     0
291
     1
 45
0.0
1001
ACAD
1000
AcDbSavedByObjectVersion
1070
     0
  0
VISUALSTYLE
  5
38
102
{ACAD_REACTORS
330
2A
102
}
102
{ACAD_XDICTIONARY
360
1C7
102
}
330
2A
100
AcDbVisualStyle
  2
Linepattern
 70
    14
 71
     2
 72
     2
 73
     0
 90
        0
 40
-0.6
 41
-30.0
 62
     5
 63
     7
 74
     1
 91
        4
 64
     7
 65
   257
 75
     7
175
     7
 42
1.0
 92
        8
 66
     7
 43
1.0
 76
     1
 77
     6
 78
     2
 67
     7
 79
     5
170
     0
171
     0
290
     0
174
     0
 93
        1
 44
0.0
173
     0
291
     1
 45
0.0
1001
ACAD
1000
AcDbSavedByObjectVersion
1070
     0
  0
VISUALSTYLE
  5
33
102
{ACAD_REACTORS
330
2A
102
}
102
{ACAD_XDICTIONARY
360
1BD
102
}
330
2A
100
AcDbVisualStyle
  2
Realistic
 70
     8
 71
     2
 72
     2
 73
     0
 90
        0
 40
-0.6
 41
-30.0
 62
     5
 63
     7
 74
     1
 91
        0
 64
     7
 65
   257
 75
     1
175
     1
 42
1.0
 92
        8
 66
     8
 43
1.0
 76
     1
 77
     6
 78
     2
 67
     7
 79
     5
170
     0
171
     0
290
     0
174
     0
 93
       13
 44
0.0
173
     0
291
     0
 45
0.0
1001
ACAD
1000
AcDbSavedByObjectVersion
1070
     0
  0
VISUALSTYLE
  5
37
102
{ACAD_REACTORS
330
2A
102
}
102
{ACAD_XDICTIONARY
360
1C5
102
}
330
2A
100
AcDbVisualStyle
  2
Thicken
 70
    13
 71
     2
 72
     2
 73
     0
 90
        0
 40
-0.6
 41
-30.0
 62
     5
 63
     7
 74
     1
 91
        4
 64
     7
 65
   257
 75
     1
175
     1
 42
1.0
 92
       12
 66
     7
 43
1.0
 76
     1
 77
     6
 78
     2
 67
     7
 79
     5
170
     0
171
     0
290
     0
174
     0
 93
        1
 44
0.0
173
     0
291
     1
 45
0.0
1001
ACAD
1000
AcDbSavedByObjectVersion
1070
     0
  0
DICTIONARYVAR
  5
1AB
102
{ACAD_REACTORS
330
1A6
102
}
330
1A6
100
DictionaryVariables
280
     0
  1
2
  0
DICTIONARYVAR
  5
1AC
102
{ACAD_REACTORS
330
1A6
102
}
330
1A6
100
DictionaryVariables
280
     0
  1
1
  0
DICTIONARYVAR
  5
1AA
102
{ACAD_REACTORS
330
1A6
102
}
330
1A6
100
DictionaryVariables
280
     0
  1
80.000000
  0
DICTIONARYVAR
  5
1A9
102
{ACAD_REACTORS
330
1A6
102
}
330
1A6
100
DictionaryVariables
280
     0
  1
5.000000
  0
DICTIONARY
  5
1CF
330
3D
100
AcDbDictionary
280
     1
281
     1
  3
ACAD_XREC_ROUNDTRIP
360
1D0
  0
DICTIONARY
  5
1CD
330
3C
100
AcDbDictionary
280
     1
281
     1
  3
ACAD_XREC_ROUNDTRIP
360
1CE
  0
DICTIONARY
  5
1D1
330
3E
100
AcDbDictionary
280
     1
281
     1
  3
ACAD_XREC_ROUNDTRIP
360
1D2
  0
DICTIONARY
  5
1B5
330
2F
100
AcDbDictionary
280
     1
281
     1
  3
ACAD_XREC_ROUNDTRIP
360
1B6
  0
DICTIONARY
  5
1B9
330
31
100
AcDbDictionary
280
     1
281
     1
  3
ACAD_XREC_ROUNDTRIP
360
1BA
  0
DICTIONARY
  5
1B7
330
30
100
AcDbDictionary
280
     1
281
     1
  3
ACAD_XREC_ROUNDTRIP
360
1B8
  0
DICTIONARY
  5
1BB
330
32
100
AcDbDictionary
280
     1
281
     1
  3
ACAD_XREC_ROUNDTRIP
360
1BC
  0
DICTIONARY
  5
1C3
330
36
100
AcDbDictionary
280
     1
281
     1
  3
ACAD_XREC_ROUNDTRIP
360
1C4
  0
DICTIONARY
  5
1CB
330
3A
100
AcDbDictionary
280
     1
281
     1
  3
ACAD_XREC_ROUNDTRIP
360
1CC
  0
DICTIONARY
  5
1BF
330
34
100
AcDbDictionary
280
     1
281
     1
  3
ACAD_XREC_ROUNDTRIP
360
1C0
  0
DICTIONARY
  5
1C1
330
35
100
AcDbDictionary
280
     1
281
     1
  3
ACAD_XREC_ROUNDTRIP
360
1C2
  0
DICTIONARY
  5
1C9
330
39
100
AcDbDictionary
280
     1
281
     1
  3
ACAD_XREC_ROUNDTRIP
360
1CA
  0
DICTIONARY
  5
1AD
330
2B
100
AcDbDictionary
280
     1
281
     1
  3
ACAD_XREC_ROUNDTRIP
360
1AE
  0
DICTIONARY
  5
1AF
330
2C
100
AcDbDictionary
280
     1
281
     1
  3
ACAD_XREC_ROUNDTRIP
360
1B0
  0
DICTIONARY
  5
1B1
330
2D
100
AcDbDictionary
280
     1
281
     1
  3
ACAD_XREC_ROUNDTRIP
360
1B2
  0
DICTIONARY
  5
1B3
330
2E
100
AcDbDictionary
280
     1
281
     1
  3
ACAD_XREC_ROUNDTRIP
360
1B4
  0
DICTIONARY
  5
1C7
330
38
100
AcDbDictionary
280
     1
281
     1
  3
ACAD_XREC_ROUNDTRIP
360
1C8
  0
DICTIONARY
  5
1BD
330
33
100
AcDbDictionary
280
     1
281
     1
  3
ACAD_XREC_ROUNDTRIP
360
1BE
  0
DICTIONARY
  5
1C5
330
37
100
AcDbDictionary
280
     1
281
     1
  3
ACAD_XREC_ROUNDTRIP
360
1C6
  0
XRECORD
  5
1D0
102
{ACAD_REACTORS
330
1CF
102
}
330
1CF
100
AcDbXrecord
280
     1
102
MATERIAL
148
0.0
149
0.0
149
0.0
 93
        0
 94
      127
282
     0
 72
     1
 77
     1
171
     1
175
     1
179
     1
273
     0
  0
XRECORD
  5
1CE
102
{ACAD_REACTORS
330
1CD
102
}
330
1CD
100
AcDbXrecord
280
     1
102
MATERIAL
148
0.0
149
0.0
149
0.0
 93
        0
 94
      127
282
     0
 72
     1
 77
     1
171
     1
175
     1
179
     1
273
     0
  0
XRECORD
  5
1D2
102
{ACAD_REACTORS
330
1D1
102
}
330
1D1
100
AcDbXrecord
280
     1
102
MATERIAL
148
0.0
149
0.0
149
0.0
 93
        0
 94
      127
282
     0
 72
     1
 77
     1
171
     1
175
     1
179
     1
273
     0
  0
XRECORD
  5
1B6
102
{ACAD_REACTORS
330
1B5
102
}
330
1B5
100
AcDbXrecord
280
     1
102
RTVSPropertyOp0
 70
     1
102
RTVSPropertyOp1
 70
     1
102
RTVSPropertyOp2
 70
     1
102
RTVSPropertyOp3
 70
     1
102
RTVSPropertyOp4
 70
     1
102
RTVSPropertyOp5
 70
     1
102
RTVSPropertyOp6
 70
     1
102
RTVSPropertyOp7
 70
     1
102
RTVSPropertyOp8
 70
     1
102
RTVSPropertyOp9
 70
     1
102
RTVSPropertyOp10
 70
     1
102
RTVSPropertyOp11
 70
     1
102
RTVSPropertyOp12
 70
     1
102
RTVSPropertyOp13
 70
     1
102
RTVSPropertyOp14
 70
     1
102
RTVSPropertyOp15
 70
     1
102
RTVSPropertyOp16
 70
     1
102
RTVSPropertyOp17
 70
     1
102
RTVSPropertyOp18
 70
     1
102
RTVSPropertyOp19
 70
     1
102
RTVSPropertyOp20
 70
     1
102
RTVSPropertyOp21
 70
     1
102
RTVSPropertyOp22
 70
     1
102
RTVSPropertyOp23
 70
     1
102
RTVSPropertyOp24
 70
     1
102
RTVSPropertyOp25
 70
     1
102
RTVSPropertyOp26
 70
     1
102
RTVSPropertyOp27
 70
     1
102
RTVSPropertyOp28
 70
     1
102
RTVSPropertyOp29
 70
     1
102
RTVSPropertyOp30
 70
     1
102
RTVSPropertyOp31
 70
     1
102
RTVSPropertyOp32
 70
     1
  0
XRECORD
  5
1BA
102
{ACAD_REACTORS
330
1B9
102
}
330
1B9
100
AcDbXrecord
280
     1
102
RTVSPropertyOp0
 70
     1
102
RTVSPropertyOp1
 70
     1
102
RTVSPropertyOp2
 70
     1
102
RTVSPropertyOp3
 70
     1
102
RTVSPropertyOp4
 70
     1
102
RTVSPropertyOp5
 70
     1
102
RTVSPropertyOp6
 70
     1
102
RTVSPropertyOp7
 70
     1
102
RTVSPropertyOp8
 70
     1
102
RTVSPropertyOp9
 70
     1
102
RTVSPropertyOp10
 70
     1
102
RTVSPropertyOp11
 70
     1
102
RTVSPropertyOp12
 70
     1
102
RTVSPropertyOp13
 70
     1
102
RTVSPropertyOp14
 70
     1
102
RTVSPropertyOp15
 70
     1
102
RTVSPropertyOp16
 70
     1
102
RTVSPropertyOp17
 70
     1
102
RTVSPropertyOp18
 70
     1
102
RTVSPropertyOp19
 70
     1
102
RTVSPropertyOp20
 70
     1
102
RTVSPropertyOp21
 70
     1
102
RTVSPropertyOp22
 70
     1
102
RTVSPropertyOp23
 70
     1
102
RTVSPropertyOp24
 70
     1
102
RTVSPropertyOp25
 70
     1
102
RTVSPropertyOp26
 70
     1
102
RTVSPropertyOp27
 70
     1
102
RTVSPropertyOp28
 70
     1
102
RTVSPropertyOp29
 70
     1
102
RTVSPropertyOp30
 70
     1
102
RTVSPropertyOp31
 70
     1
102
RTVSPropertyOp32
 70
     1
  0
XRECORD
  5
1B8
102
{ACAD_REACTORS
330
1B7
102
}
330
1B7
100
AcDbXrecord
280
     1
102
RTVSPropertyOp0
 70
     1
102
RTVSPropertyOp1
 70
     1
102
RTVSPropertyOp2
 70
     1
102
RTVSPropertyOp3
 70
     1
102
RTVSPropertyOp4
 70
     1
102
RTVSPropertyOp5
 70
     1
102
RTVSPropertyOp6
 70
     1
102
RTVSPropertyOp7
 70
     1
102
RTVSPropertyOp8
 70
     1
102
RTVSPropertyOp9
 70
     1
102
RTVSPropertyOp10
 70
     1
102
RTVSPropertyOp11
 70
     1
102
RTVSPropertyOp12
 70
     1
102
RTVSPropertyOp13
 70
     1
102
RTVSPropertyOp14
 70
     1
102
RTVSPropertyOp15
 70
     1
102
RTVSPropertyOp16
 70
     1
102
RTVSPropertyOp17
 70
     1
102
RTVSPropertyOp18
 70
     1
102
RTVSPropertyOp19
 70
     1
102
RTVSPropertyOp20
 70
     1
102
RTVSPropertyOp21
 70
     1
102
RTVSPropertyOp22
 70
     1
102
RTVSPropertyOp23
 70
     1
102
RTVSPropertyOp24
 70
     1
102
RTVSPropertyOp25
 70
     1
102
RTVSPropertyOp26
 70
     1
102
RTVSPropertyOp27
 70
     1
102
RTVSPropertyOp28
 70
     1
102
RTVSPropertyOp29
 70
     1
102
RTVSPropertyOp30
 70
     1
102
RTVSPropertyOp31
 70
     1
102
RTVSPropertyOp32
 70
     1
  0
XRECORD
  5
1BC
102
{ACAD_REACTORS
330
1BB
102
}
330
1BB
100
AcDbXrecord
280
     1
102
RTVSPropertyOp0
 70
     1
102
RTVSPropertyOp1
 70
     1
102
RTVSPropertyOp2
 70
     1
102
RTVSPropertyOp3
 70
     1
102
RTVSPropertyOp4
 70
     1
102
RTVSPropertyOp5
 70
     1
102
RTVSPropertyOp6
 70
     1
102
RTVSPropertyOp7
 70
     1
102
RTVSPropertyOp8
 70
     1
102
RTVSPropertyOp9
 70
     1
102
RTVSPropertyOp10
 70
     1
102
RTVSPropertyOp11
 70
     1
102
RTVSPropertyOp12
 70
     1
102
RTVSPropertyOp13
 70
     1
102
RTVSPropertyOp14
 70
     1
102
RTVSPropertyOp15
 70
     1
102
RTVSPropertyOp16
 70
     1
102
RTVSPropertyOp17
 70
     1
102
RTVSPropertyOp18
 70
     1
102
RTVSPropertyOp19
 70
     1
102
RTVSPropertyOp20
 70
     1
102
RTVSPropertyOp21
 70
     1
102
RTVSPropertyOp22
 70
     1
102
RTVSPropertyOp23
 70
     1
102
RTVSPropertyOp24
 70
     1
102
RTVSPropertyOp25
 70
     1
102
RTVSPropertyOp26
 70
     1
102
RTVSPropertyOp27
 70
     1
102
RTVSPropertyOp28
 70
     1
102
RTVSPropertyOp29
 70
     1
102
RTVSPropertyOp30
 70
     1
102
RTVSPropertyOp31
 70
     1
102
RTVSPropertyOp32
 70
     1
  0
XRECORD
  5
1C4
102
{ACAD_REACTORS
330
1C3
102
}
330
1C3
100
AcDbXrecord
280
     1
102
RTVSPropertyOp0
 70
     1
102
RTVSPropertyOp1
 70
     1
102
RTVSPropertyOp2
 70
     1
102
RTVSPropertyOp3
 70
     1
102
RTVSPropertyOp4
 70
     1
102
RTVSPropertyOp5
 70
     1
102
RTVSPropertyOp6
 70
     1
102
RTVSPropertyOp7
 70
     1
102
RTVSPropertyOp8
 70
     1
102
RTVSPropertyOp9
 70
     1
102
RTVSPropertyOp10
 70
     1
102
RTVSPropertyOp11
 70
     1
102
RTVSPropertyOp12
 70
     1
102
RTVSPropertyOp13
 70
     1
102
RTVSPropertyOp14
 70
     1
102
RTVSPropertyOp15
 70
     1
102
RTVSPropertyOp16
 70
     1
102
RTVSPropertyOp17
 70
     1
102
RTVSPropertyOp18
 70
     1
102
RTVSPropertyOp19
 70
     1
102
RTVSPropertyOp20
 70
     1
102
RTVSPropertyOp21
 70
     1
102
RTVSPropertyOp22
 70
     1
102
RTVSPropertyOp23
 70
     1
102
RTVSPropertyOp24
 70
     1
102
RTVSPropertyOp25
 70
     1
102
RTVSPropertyOp26
 70
     1
102
RTVSPropertyOp27
 70
     1
102
RTVSPropertyOp28
 70
     1
102
RTVSPropertyOp29
 70
     1
102
RTVSPropertyOp30
 70
     1
102
RTVSPropertyOp31
 70
     1
102
RTVSPropertyOp32
 70
     1
  0
XRECORD
  5
1CC
102
{ACAD_REACTORS
330
1CB
102
}
330
1CB
100
AcDbXrecord
280
     1
102
RTVSPropertyOp0
 70
     1
102
RTVSPropertyOp1
 70
     1
102
RTVSPropertyOp2
 70
     1
102
RTVSPropertyOp3
 70
     1
102
RTVSPropertyOp4
 70
     1
102
RTVSPropertyOp5
 70
     1
102
RTVSPropertyOp6
 70
     1
102
RTVSPropertyOp7
 70
     1
102
RTVSPropertyOp8
 70
     1
102
RTVSPropertyOp9
 70
     1
102
RTVSPropertyOp10
 70
     1
102
RTVSPropertyOp11
 70
     1
102
RTVSPropertyOp12
 70
     1
102
RTVSPropertyOp13
 70
     1
102
RTVSPropertyOp14
 70
     1
102
RTVSPropertyOp15
 70
     1
102
RTVSPropertyOp16
 70
     1
102
RTVSPropertyOp17
 70
     1
102
RTVSPropertyOp18
 70
     1
102
RTVSPropertyOp19
 70
     1
102
RTVSPropertyOp20
 70
     1
102
RTVSPropertyOp21
 70
     1
102
RTVSPropertyOp22
 70
     1
102
RTVSPropertyOp23
 70
     1
102
RTVSPropertyOp24
 70
     1
102
RTVSPropertyOp25
 70
     1
102
RTVSPropertyOp26
 70
     1
102
RTVSPropertyOp27
 70
     1
102
RTVSPropertyOp28
 70
     1
102
RTVSPropertyOp29
 70
     1
102
RTVSPropertyOp30
 70
     1
102
RTVSPropertyOp31
 70
     1
102
RTVSPropertyOp32
 70
     1
  0
XRECORD
  5
1C0
102
{ACAD_REACTORS
330
1BF
102
}
330
1BF
100
AcDbXrecord
280
     1
102
RTVSPropertyOp0
 70
     1
102
RTVSPropertyOp1
 70
     1
102
RTVSPropertyOp2
 70
     1
102
RTVSPropertyOp3
 70
     1
102
RTVSPropertyOp4
 70
     1
102
RTVSPropertyOp5
 70
     1
102
RTVSPropertyOp6
 70
     1
102
RTVSPropertyOp7
 70
     1
102
RTVSPropertyOp8
 70
     1
102
RTVSPropertyOp9
 70
     1
102
RTVSPropertyOp10
 70
     1
102
RTVSPropertyOp11
 70
     1
102
RTVSPropertyOp12
 70
     1
102
RTVSPropertyOp13
 70
     1
102
RTVSPropertyOp14
 70
     1
102
RTVSPropertyOp15
 70
     1
102
RTVSPropertyOp16
 70
     1
102
RTVSPropertyOp17
 70
     1
102
RTVSPropertyOp18
 70
     1
102
RTVSPropertyOp19
 70
     1
102
RTVSPropertyOp20
 70
     1
102
RTVSPropertyOp21
 70
     1
102
RTVSPropertyOp22
 70
     1
102
RTVSPropertyOp23
 70
     1
102
RTVSPropertyOp24
 70
     1
102
RTVSPropertyOp25
 70
     1
102
RTVSPropertyOp26
 70
     1
102
RTVSPropertyOp27
 70
     1
102
RTVSPropertyOp28
 70
     1
102
RTVSPropertyOp29
 70
     1
102
RTVSPropertyOp30
 70
     1
102
RTVSPropertyOp31
 70
     1
102
RTVSPropertyOp32
 70
     1
  0
XRECORD
  5
1C2
102
{ACAD_REACTORS
330
1C1
102
}
330
1C1
100
AcDbXrecord
280
     1
102
RTVSPropertyOp0
 70
     1
102
RTVSPropertyOp1
 70
     1
102
RTVSPropertyOp2
 70
     1
102
RTVSPropertyOp3
 70
     1
102
RTVSPropertyOp4
 70
     1
102
RTVSPropertyOp5
 70
     1
102
RTVSPropertyOp6
 70
     1
102
RTVSPropertyOp7
 70
     1
102
RTVSPropertyOp8
 70
     1
102
RTVSPropertyOp9
 70
     1
102
RTVSPropertyOp10
 70
     1
102
RTVSPropertyOp11
 70
     1
102
RTVSPropertyOp12
 70
     1
102
RTVSPropertyOp13
 70
     1
102
RTVSPropertyOp14
 70
     1
102
RTVSPropertyOp15
 70
     1
102
RTVSPropertyOp16
 70
     1
102
RTVSPropertyOp17
 70
     1
102
RTVSPropertyOp18
 70
     1
102
RTVSPropertyOp19
 70
     1
102
RTVSPropertyOp20
 70
     1
102
RTVSPropertyOp21
 70
     1
102
RTVSPropertyOp22
 70
     1
102
RTVSPropertyOp23
 70
     1
102
RTVSPropertyOp24
 70
     1
102
RTVSPropertyOp25
 70
     1
102
RTVSPropertyOp26
 70
     1
102
RTVSPropertyOp27
 70
     1
102
RTVSPropertyOp28
 70
     1
102
RTVSPropertyOp29
 70
     1
102
RTVSPropertyOp30
 70
     1
102
RTVSPropertyOp31
 70
     1
102
RTVSPropertyOp32
 70
     1
  0
XRECORD
  5
1CA
102
{ACAD_REACTORS
330
1C9
102
}
330
1C9
100
AcDbXrecord
280
     1
102
RTVSPropertyOp0
 70
     1
102
RTVSPropertyOp1
 70
     1
102
RTVSPropertyOp2
 70
     1
102
RTVSPropertyOp3
 70
     1
102
RTVSPropertyOp4
 70
     1
102
RTVSPropertyOp5
 70
     1
102
RTVSPropertyOp6
 70
     1
102
RTVSPropertyOp7
 70
     1
102
RTVSPropertyOp8
 70
     1
102
RTVSPropertyOp9
 70
     1
102
RTVSPropertyOp10
 70
     1
102
RTVSPropertyOp11
 70
     1
102
RTVSPropertyOp12
 70
     1
102
RTVSPropertyOp13
 70
     1
102
RTVSPropertyOp14
 70
     1
102
RTVSPropertyOp15
 70
     1
102
RTVSPropertyOp16
 70
     1
102
RTVSPropertyOp17
 70
     1
102
RTVSPropertyOp18
 70
     1
102
RTVSPropertyOp19
 70
     1
102
RTVSPropertyOp20
 70
     1
102
RTVSPropertyOp21
 70
     1
102
RTVSPropertyOp22
 70
     1
102
RTVSPropertyOp23
 70
     1
102
RTVSPropertyOp24
 70
     1
102
RTVSPropertyOp25
 70
     1
102
RTVSPropertyOp26
 70
     1
102
RTVSPropertyOp27
 70
     1
102
RTVSPropertyOp28
 70
     1
102
RTVSPropertyOp29
 70
     1
102
RTVSPropertyOp30
 70
     1
102
RTVSPropertyOp31
 70
     1
102
RTVSPropertyOp32
 70
     1
  0
XRECORD
  5
1AE
102
{ACAD_REACTORS
330
1AD
102
}
330
1AD
100
AcDbXrecord
280
     1
102
RTVSPropertyOp0
 70
     1
102
RTVSPropertyOp1
 70
     1
102
RTVSPropertyOp2
 70
     1
102
RTVSPropertyOp3
 70
     1
102
RTVSPropertyOp4
 70
     1
102
RTVSPropertyOp5
 70
     1
102
RTVSPropertyOp6
 70
     1
102
RTVSPropertyOp7
 70
     1
102
RTVSPropertyOp8
 70
     1
102
RTVSPropertyOp9
 70
     1
102
RTVSPropertyOp10
 70
     1
102
RTVSPropertyOp11
 70
     1
102
RTVSPropertyOp12
 70
     1
102
RTVSPropertyOp13
 70
     1
102
RTVSPropertyOp14
 70
     1
102
RTVSPropertyOp15
 70
     1
102
RTVSPropertyOp16
 70
     1
102
RTVSPropertyOp17
 70
     1
102
RTVSPropertyOp18
 70
     1
102
RTVSPropertyOp19
 70
     1
102
RTVSPropertyOp20
 70
     1
102
RTVSPropertyOp21
 70
     1
102
RTVSPropertyOp22
 70
     1
102
RTVSPropertyOp23
 70
     1
102
RTVSPropertyOp24
 70
     1
102
RTVSPropertyOp25
 70
     1
102
RTVSPropertyOp26
 70
     1
102
RTVSPropertyOp27
 70
     1
102
RTVSPropertyOp28
 70
     1
102
RTVSPropertyOp29
 70
     1
102
RTVSPropertyOp30
 70
     1
102
RTVSPropertyOp31
 70
     1
102
RTVSPropertyOp32
 70
     1
  0
XRECORD
  5
1B0
102
{ACAD_REACTORS
330
1AF
102
}
330
1AF
100
AcDbXrecord
280
     1
102
RTVSPropertyOp0
 70
     1
102
RTVSPropertyOp1
 70
     1
102
RTVSPropertyOp2
 70
     1
102
RTVSPropertyOp3
 70
     1
102
RTVSPropertyOp4
 70
     1
102
RTVSPropertyOp5
 70
     1
102
RTVSPropertyOp6
 70
     1
102
RTVSPropertyOp7
 70
     1
102
RTVSPropertyOp8
 70
     1
102
RTVSPropertyOp9
 70
     1
102
RTVSPropertyOp10
 70
     1
102
RTVSPropertyOp11
 70
     1
102
RTVSPropertyOp12
 70
     1
102
RTVSPropertyOp13
 70
     1
102
RTVSPropertyOp14
 70
     1
102
RTVSPropertyOp15
 70
     1
102
RTVSPropertyOp16
 70
     1
102
RTVSPropertyOp17
 70
     1
102
RTVSPropertyOp18
 70
     1
102
RTVSPropertyOp19
 70
     1
102
RTVSPropertyOp20
 70
     1
102
RTVSPropertyOp21
 70
     1
102
RTVSPropertyOp22
 70
     1
102
RTVSPropertyOp23
 70
     1
102
RTVSPropertyOp24
 70
     1
102
RTVSPropertyOp25
 70
     1
102
RTVSPropertyOp26
 70
     1
102
RTVSPropertyOp27
 70
     1
102
RTVSPropertyOp28
 70
     1
102
RTVSPropertyOp29
 70
     1
102
RTVSPropertyOp30
 70
     1
102
RTVSPropertyOp31
 70
     1
102
RTVSPropertyOp32
 70
     1
  0
XRECORD
  5
1B2
102
{ACAD_REACTORS
330
1B1
102
}
330
1B1
100
AcDbXrecord
280
     1
102
RTVSPropertyOp0
 70
     1
102
RTVSPropertyOp1
 70
     1
102
RTVSPropertyOp2
 70
     1
102
RTVSPropertyOp3
 70
     1
102
RTVSPropertyOp4
 70
     1
102
RTVSPropertyOp5
 70
     1
102
RTVSPropertyOp6
 70
     1
102
RTVSPropertyOp7
 70
     1
102
RTVSPropertyOp8
 70
     1
102
RTVSPropertyOp9
 70
     1
102
RTVSPropertyOp10
 70
     1
102
RTVSPropertyOp11
 70
     1
102
RTVSPropertyOp12
 70
     1
102
RTVSPropertyOp13
 70
     1
102
RTVSPropertyOp14
 70
     1
102
RTVSPropertyOp15
 70
     1
102
RTVSPropertyOp16
 70
     1
102
RTVSPropertyOp17
 70
     1
102
RTVSPropertyOp18
 70
     1
102
RTVSPropertyOp19
 70
     1
102
RTVSPropertyOp20
 70
     1
102
RTVSPropertyOp21
 70
     1
102
RTVSPropertyOp22
 70
     1
102
RTVSPropertyOp23
 70
     1
102
RTVSPropertyOp24
 70
     1
102
RTVSPropertyOp25
 70
     1
102
RTVSPropertyOp26
 70
     1
102
RTVSPropertyOp27
 70
     1
102
RTVSPropertyOp28
 70
     1
102
RTVSPropertyOp29
 70
     1
102
RTVSPropertyOp30
 70
     1
102
RTVSPropertyOp31
 70
     1
102
RTVSPropertyOp32
 70
     1
  0
XRECORD
  5
1B4
102
{ACAD_REACTORS
330
1B3
102
}
330
1B3
100
AcDbXrecord
280
     1
102
RTVSPropertyOp0
 70
     1
102
RTVSPropertyOp1
 70
     1
102
RTVSPropertyOp2
 70
     1
102
RTVSPropertyOp3
 70
     1
102
RTVSPropertyOp4
 70
     1
102
RTVSPropertyOp5
 70
     1
102
RTVSPropertyOp6
 70
     1
102
RTVSPropertyOp7
 70
     1
102
RTVSPropertyOp8
 70
     1
102
RTVSPropertyOp9
 70
     1
102
RTVSPropertyOp10
 70
     1
102
RTVSPropertyOp11
 70
     1
102
RTVSPropertyOp12
 70
     1
102
RTVSPropertyOp13
 70
     1
102
RTVSPropertyOp14
 70
     1
102
RTVSPropertyOp15
 70
     1
102
RTVSPropertyOp16
 70
     1
102
RTVSPropertyOp17
 70
     1
102
RTVSPropertyOp18
 70
     1
102
RTVSPropertyOp19
 70
     1
102
RTVSPropertyOp20
 70
     1
102
RTVSPropertyOp21
 70
     1
102
RTVSPropertyOp22
 70
     1
102
RTVSPropertyOp23
 70
     1
102
RTVSPropertyOp24
 70
     1
102
RTVSPropertyOp25
 70
     1
102
RTVSPropertyOp26
 70
     1
102
RTVSPropertyOp27
 70
     1
102
RTVSPropertyOp28
 70
     1
102
RTVSPropertyOp29
 70
     1
102
RTVSPropertyOp30
 70
     1
102
RTVSPropertyOp31
 70
     1
102
RTVSPropertyOp32
 70
     1
  0
XRECORD
  5
1C8
102
{ACAD_REACTORS
330
1C7
102
}
330
1C7
100
AcDbXrecord
280
     1
102
RTVSPropertyOp0
 70
     1
102
RTVSPropertyOp1
 70
     1
102
RTVSPropertyOp2
 70
     1
102
RTVSPropertyOp3
 70
     1
102
RTVSPropertyOp4
 70
     1
102
RTVSPropertyOp5
 70
     1
102
RTVSPropertyOp6
 70
     1
102
RTVSPropertyOp7
 70
     1
102
RTVSPropertyOp8
 70
     1
102
RTVSPropertyOp9
 70
     1
102
RTVSPropertyOp10
 70
     1
102
RTVSPropertyOp11
 70
     1
102
RTVSPropertyOp12
 70
     1
102
RTVSPropertyOp13
 70
     1
102
RTVSPropertyOp14
 70
     1
102
RTVSPropertyOp15
 70
     1
102
RTVSPropertyOp16
 70
     1
102
RTVSPropertyOp17
 70
     1
102
RTVSPropertyOp18
 70
     1
102
RTVSPropertyOp19
 70
     1
102
RTVSPropertyOp20
 70
     1
102
RTVSPropertyOp21
 70
     1
102
RTVSPropertyOp22
 70
     1
102
RTVSPropertyOp23
 70
     1
102
RTVSPropertyOp24
 70
     1
102
RTVSPropertyOp25
 70
     1
102
RTVSPropertyOp26
 70
     1
102
RTVSPropertyOp27
 70
     1
102
RTVSPropertyOp28
 70
     1
102
RTVSPropertyOp29
 70
     1
102
RTVSPropertyOp30
 70
     1
102
RTVSPropertyOp31
 70
     1
102
RTVSPropertyOp32
 70
     1
  0
XRECORD
  5
1BE
102
{ACAD_REACTORS
330
1BD
102
}
330
1BD
100
AcDbXrecord
280
     1
102
RTVSPropertyOp0
 70
     1
102
RTVSPropertyOp1
 70
     1
102
RTVSPropertyOp2
 70
     1
102
RTVSPropertyOp3
 70
     1
102
RTVSPropertyOp4
 70
     1
102
RTVSPropertyOp5
 70
     1
102
RTVSPropertyOp6
 70
     1
102
RTVSPropertyOp7
 70
     1
102
RTVSPropertyOp8
 70
     1
102
RTVSPropertyOp9
 70
     1
102
RTVSPropertyOp10
 70
     1
102
RTVSPropertyOp11
 70
     1
102
RTVSPropertyOp12
 70
     1
102
RTVSPropertyOp13
 70
     1
102
RTVSPropertyOp14
 70
     1
102
RTVSPropertyOp15
 70
     1
102
RTVSPropertyOp16
 70
     1
102
RTVSPropertyOp17
 70
     1
102
RTVSPropertyOp18
 70
     1
102
RTVSPropertyOp19
 70
     1
102
RTVSPropertyOp20
 70
     1
102
RTVSPropertyOp21
 70
     1
102
RTVSPropertyOp22
 70
     1
102
RTVSPropertyOp23
 70
     1
102
RTVSPropertyOp24
 70
     1
102
RTVSPropertyOp25
 70
     1
102
RTVSPropertyOp26
 70
     1
102
RTVSPropertyOp27
 70
     1
102
RTVSPropertyOp28
 70
     1
102
RTVSPropertyOp29
 70
     1
102
RTVSPropertyOp30
 70
     1
102
RTVSPropertyOp31
 70
     1
102
RTVSPropertyOp32
 70
     1
  0
XRECORD
  5
1C6
102
{ACAD_REACTORS
330
1C5
102
}
330
1C5
100
AcDbXrecord
280
     1
102
RTVSPropertyOp0
 70
     1
102
RTVSPropertyOp1
 70
     1
102
RTVSPropertyOp2
 70
     1
102
RTVSPropertyOp3
 70
     1
102
RTVSPropertyOp4
 70
     1
102
RTVSPropertyOp5
 70
     1
102
RTVSPropertyOp6
 70
     1
102
RTVSPropertyOp7
 70
     1
102
RTVSPropertyOp8
 70
     1
102
RTVSPropertyOp9
 70
     1
102
RTVSPropertyOp10
 70
     1
102
RTVSPropertyOp11
 70
     1
102
RTVSPropertyOp12
 70
     1
102
RTVSPropertyOp13
 70
     1
102
RTVSPropertyOp14
 70
     1
102
RTVSPropertyOp15
 70
     1
102
RTVSPropertyOp16
 70
     1
102
RTVSPropertyOp17
 70
     1
102
RTVSPropertyOp18
 70
     1
102
RTVSPropertyOp19
 70
     1
102
RTVSPropertyOp20
 70
     1
102
RTVSPropertyOp21
 70
     1
102
RTVSPropertyOp22
 70
     1
102
RTVSPropertyOp23
 70
     1
102
RTVSPropertyOp24
 70
     1
102
RTVSPropertyOp25
 70
     1
102
RTVSPropertyOp26
 70
     1
102
RTVSPropertyOp27
 70
     1
102
RTVSPropertyOp28
 70
     1
102
RTVSPropertyOp29
 70
     1
102
RTVSPropertyOp30
 70
     1
102
RTVSPropertyOp31
 70
     1
102
RTVSPropertyOp32
 70
     1
  0
ENDSEC
  0
EOF
