  0
SECTION
  2
HEADER
  9
$ACADVER
  1
AC1015
  9
$ACADMAINTVER
 70
     6
  9
$DWGCODEPAGE
  3
ANSI_1252
  9
$INSBASE
 10
0.0
 20
0.0
 30
0.0
  9
$EXTMIN
 10
0.0
 20
0.0
 30
0.0
  9
$EXTMAX
 10
210.0
 20
297.0
 30
0.0
  9
$LIMMIN
 10
0.0
 20
0.0
  9
$LIMMAX
 10
210.0
 20
297.0
  9
$ORTHOMODE
 70
     0
  9
$REGENMODE
 70
     1
  9
$FILLMODE
 70
     1
  9
$QTEXTMODE
 70
     0
  9
$MIRRTEXT
 70
     1
  9
$LTSCALE
 40
1.0
  9
$ATTMODE
 70
     1
  9
$TEXTSIZE
 40
2.5
  9
$TRACEWID
 40
1.0
  9
$TEXTSTYLE
  7
Standard
  9
$CLAYER
  8
0
  9
$CELTYPE
  6
ByLayer
  9
$CECOLOR
 62
   256
  9
$CELTSCALE
 40
1.0
  9
$DISPSILH
 70
     0
  9
$DIMSCALE
 40
1.0
  9
$DIMASZ
 40
2.5
  9
$DIMEXO
 40
0.625
  9
$DIMDLI
 40
3.75
  9
$DIMRND
 40
0.0
  9
$DIMDLE
 40
0.0
  9
$DIMEXE
 40
1.25
  9
$DIMTP
 40
0.0
  9
$DIMTM
 40
0.0
  9
$DIMTXT
 40
2.5
  9
$DIMCEN
 40
2.5
  9
$DIMTSZ
 40
0.0
  9
$DIMTOL
 70
     0
  9
$DIMLIM
 70
     0
  9
$DIMTIH
 70
     0
  9
$DIMTOH
 70
     0
  9
$DIMSE1
 70
     0
  9
$DIMSE2
 70
     0
  9
$DIMTAD
 70
     1
  9
$DIMZIN
 70
     8
  9
$DIMBLK
  1

  9
$DIMASO
 70
     1
  9
$DIMSHO
 70
     1
  9
$DIMPOST
  1

  9
$DIMAPOST
  1

  9
$DIMALT
 70
     0
  9
$DIMALTD
 70
     3
  9
$DIMALTF
 40
0.0393700787
  9
$DIMLFAC
 40
1.0
  9
$DIMTOFL
 70
     1
  9
$DIMTVP
 40
0.0
  9
$DIMTIX
 70
     0
  9
$DIMSOXD
 70
     0
  9
$DIMSAH
 70
     0
  9
$DIMBLK1
  1

  9
$DIMBLK2
  1

  9
$DIMSTYLE
  2
ISO-25
  9
$DIMCLRD
 70
     0
  9
$DIMCLRE
 70
     0
  9
$DIMCLRT
 70
     0
  9
$DIMTFAC
 40
1.0
  9
$DIMGAP
 40
0.625
  9
$DIMJUST
 70
     0
  9
$DIMSD1
 70
     0
  9
$DIMSD2
 70
     0
  9
$DIMTOLJ
 70
     0
  9
$DIMTZIN
 70
     8
  9
$DIMALTZ
 70
     0
  9
$DIMALTTZ
 70
     0
  9
$DIMUPT
 70
     0
  9
$DIMDEC
 70
     2
  9
$DIMTDEC
 70
     2
  9
$DIMALTU
 70
     2
  9
$DIMALTTD
 70
     3
  9
$DIMTXSTY
  7
Standard
  9
$DIMAUNIT
 70
     0
  9
$DIMADEC
 70
     0
  9
$DIMALTRND
 40
0.0
  9
$DIMAZIN
 70
     0
  9
$DIMDSEP
 70
    44
  9
$DIMATFIT
 70
     3
  9
$DIMFRAC
 70
     0
  9
$DIMLDRBLK
  1

  9
$DIMLUNIT
 70
     2
  9
$DIMLWD
 70
    -2
  9
$DIMLWE
 70
    -2
  9
$DIMTMOVE
 70
     0
  9
$LUNITS
 70
     2
  9
$LUPREC
 70
     4
  9
$SKETCHINC
 40
1.0
  9
$FILLETRAD
 40
10.0
  9
$AUNITS
 70
     0
  9
$AUPREC
 70
     0
  9
$MENU
  1
.
  9
$ELEVATION
 40
0.0
  9
$PELEVATION
 40
0.0
  9
$THICKNESS
 40
0.0
  9
$LIMCHECK
 70
     0
  9
$CHAMFERA
 40
10.0
  9
$CHAMFERB
 40
10.0
  9
$CHAMFERC
 40
20.0
  9
$CHAMFERD
 40
0.0
  9
$SKPOLY
 70
     0
  9
$TDCREATE
 40
2457561.503297246
  9
$TDUCREATE
 40
2457561.419963912
  9
$TDUPDATE
 40
2457561.503300058
  9
$TDUUPDATE
 40
2457561.419966725
  9
$TDINDWG
 40
0.0000000116
  9
$TDUSRTIMER
 40
0.0000000116
  9
$USRTIMER
 70
     1
  9
$ANGBASE
 50
0.0
  9
$ANGDIR
 70
     0
  9
$PDMODE
 70
     0
  9
$PDSIZE
 40
0.0
  9
$PLINEWID
 40
0.0
  9
$SPLFRAME
 70
     0
  9
$SPLINETYPE
 70
     6
  9
$SPLINESEGS
 70
     8
  9
$HANDSEED
  5
246
  9
$SURFTAB1
 70
     6
  9
$SURFTAB2
 70
     6
  9
$SURFTYPE
 70
     6
  9
$SURFU
 70
     6
  9
$SURFV
 70
     6
  9
$UCSBASE
  2

  9
$UCSNAME
  2

  9
$UCSORG
 10
0.0
 20
0.0
 30
0.0
  9
$UCSXDIR
 10
1.0
 20
0.0
 30
0.0
  9
$UCSYDIR
 10
0.0
 20
1.0
 30
0.0
  9
$UCSORTHOREF
  2

  9
$UCSORTHOVIEW
 70
     0
  9
$UCSORGTOP
 10
0.0
 20
0.0
 30
0.0
  9
$UCSORGBOTTOM
 10
0.0
 20
0.0
 30
0.0
  9
$UCSORGLEFT
 10
0.0
 20
0.0
 30
0.0
  9
$UCSORGRIGHT
 10
0.0
 20
0.0
 30
0.0
  9
$UCSORGFRONT
 10
0.0
 20
0.0
 30
0.0
  9
$UCSORGBACK
 10
0.0
 20
0.0
 30
0.0
  9
$PUCSBASE
  2

  9
$PUCSNAME
  2

  9
$PUCSORG
 10
0.0
 20
0.0
 30
0.0
  9
$PUCSXDIR
 10
1.0
 20
0.0
 30
0.0
  9
$PUCSYDIR
 10
0.0
 20
1.0
 30
0.0
  9
$PUCSORTHOREF
  2

  9
$PUCSORTHOVIEW
 70
     0
  9
$PUCSORGTOP
 10
0.0
 20
0.0
 30
0.0
  9
$PUCSORGBOTTOM
 10
0.0
 20
0.0
 30
0.0
  9
$PUCSORGLEFT
 10
0.0
 20
0.0
 30
0.0
  9
$PUCSORGRIGHT
 10
0.0
 20
0.0
 30
0.0
  9
$PUCSORGFRONT
 10
0.0
 20
0.0
 30
0.0
  9
$PUCSORGBACK
 10
0.0
 20
0.0
 30
0.0
  9
$USERI1
 70
     0
  9
$USERI2
 70
     0
  9
$USERI3
 70
     0
  9
$USERI4
 70
     0
  9
$USERI5
 70
     0
  9
$USERR1
 40
0.0
  9
$USERR2
 40
0.0
  9
$USERR3
 40
0.0
  9
$USERR4
 40
0.0
  9
$USERR5
 40
0.0
  9
$WORLDVIEW
 70
     1
  9
$SHADEDGE
 70
     3
  9
$SHADEDIF
 70
    70
  9
$TILEMODE
 70
     1
  9
$MAXACTVP
 70
    64
  9
$PINSBASE
 10
0.0
 20
0.0
 30
0.0
  9
$PLIMCHECK
 70
     0
  9
$PEXTMIN
 10
0.0
 20
0.0
 30
0.0
  9
$PEXTMAX
 10
210.0
 20
297.0
 30
0.0
  9
$PLIMMIN
 10
0.0
 20
0.0
  9
$PLIMMAX
 10
210.0
 20
297.0
  9
$UNITMODE
 70
     0
  9
$VISRETAIN
 70
     1
  9
$PLINEGEN
 70
     0
  9
$PSLTSCALE
 70
     1
  9
$TREEDEPTH
 70
  3020
  9
$CMLSTYLE
  2
Standard
  9
$CMLJUST
 70
     0
  9
$CMLSCALE
 40
20.0
  9
$PROXYGRAPHICS
 70
     1
  9
$MEASUREMENT
 70
     1
  9
$CELWEIGHT
370
    -1
  9
$ENDCAPS
280
     0
  9
$JOINSTYLE
280
     0
  9
$LWDISPLAY
290
     0
  9
$INSUNITS
 70
     4
  9
$HYPERLINKBASE
  1

  9
$STYLESHEET
  1

  9
$XEDIT
290
     1
  9
$CEPSNTYPE
380
     0
  9
$PSTYLEMODE
290
     1
  9
$FINGERPRINTGUID
  2
{45025F49-A84C-42ED-A9BE-3999DBFA9BCA}
  9
$VERSIONGUID
  2
{FAEB1C32-E019-11D5-929B-00C0DF256EC4}
  9
$EXTNAMES
290
     1
  9
$PSVPSCALE
 40
0.0
  9
$OLESTARTUP
290
     0
  0
ENDSEC
  0
SECTION
  2
CLASSES
  0
CLASS
  1
ACDBDICTIONARYWDFLT
  2
AcDbDictionaryWithDefault
  3
ObjectDBX Classes
 90
        0
280
     0
281
     0
  0
CLASS
  1
VISUALSTYLE
  2
AcDbVisualStyle
  3
ObjectDBX Classes
 90
     4095
280
     0
281
     0
  0
CLASS
  1
MATERIAL
  2
AcDbMaterial
  3
ObjectDBX Classes
 90
     1153
280
     0
281
     0
  0
CLASS
  1
DICTIONARYVAR
  2
AcDbDictionaryVar
  3
ObjectDBX Classes
 90
        0
280
     0
281
     0
  0
CLASS
  1
ACDBPLACEHOLDER
  2
AcDbPlaceHolder
  3
ObjectDBX Classes
 90
        0
280
     0
281
     0
  0
CLASS
  1
LAYOUT
  2
AcDbLayout
  3
ObjectDBX Classes
 90
        0
280
     0
281
     0
  0
ENDSEC
  0
SECTION
  2
TABLES
  0
TABLE
  2
VPORT
  5
8
330
0
100
AcDbSymbolTable
 70
     1
  0
VPORT
  5
29
330
8
100
AcDbSymbolTableRecord
100
AcDbViewportTableRecord
  2
*Active
 70
     0
 10
0.0
 20
0.0
 11
1.0
 21
1.0
 12
344.1869158879
 22
148.5
 13
0.0
 23
0.0
 14
10.0
 24
10.0
 15
10.0
 25
10.0
 16
0.0
 26
0.0
 36
1.0
 17
0.0
 27
0.0
 37
0.0
 40
297.0
 41
1.9729729729
 42
50.0
 43
0.0
 44
0.0
 50
0.0
 51
0.0
 71
     0
 72
   100
 73
     1
 74
     3
 75
     0
 76
     0
 77
     0
 78
     0
281
     0
 65
     1
110
0.0
120
0.0
130
0.0
111
1.0
121
0.0
131
0.0
112
0.0
122
1.0
132
0.0
 79
     0
146
0.0
  0
ENDTAB
  0
TABLE
  2
LTYPE
  5
5
330
0
100
AcDbSymbolTable
 70
     2
  0
LTYPE
  5
14
330
5
100
AcDbSymbolTableRecord
100
AcDbLinetypeTableRecord
  2
ByBlock
 70
     0
  3

 72
    65
 73
     0
 40
0.0
  0
LTYPE
  5
15
330
5
100
AcDbSymbolTableRecord
100
AcDbLinetypeTableRecord
  2
ByLayer
 70
     0
  3

 72
    65
 73
     0
 40
0.0
  0
LTYPE
  5
16
330
5
100
AcDbSymbolTableRecord
100
AcDbLinetypeTableRecord
  2
Continuous
 70
     0
  3
Solid line
 72
    65
 73
     0
 40
0.0
  0
LTYPE
  5
59
330
5
100
AcDbSymbolTableRecord
100
AcDbLinetypeTableRecord
  2
HIDDEN2
 70
     0
  3
Hidden (.5x) _ _ _ _ _ _ _ _ _ _ _ _ _ _ _ _ _ 
 72
    65
 73
     2
 40
4.7625
 49
3.175
 74
     4
 75
     0
340
0
 46
0.0
 50
0.0
 44
0.0
 45
0.0
 49
-1.5875
 74
     4
 75
     0
340
0
 46
0.0
 50
0.0
 44
0.0
 45
0.0
  0
ENDTAB
  0
TABLE
  2
LAYER
  5
2
330
0
100
AcDbSymbolTable
 70
     5
  0
LAYER
  5
10
330
2
100
AcDbSymbolTableRecord
100
AcDbLayerTableRecord
  2
0
 70
     0
 62
     7
  6
Continuous
370
    -3
390
F
  0
LAYER
  5
3F
330
2
100
AcDbSymbolTableRecord
100
AcDbLayerTableRecord
  2
SK2
 70
     0
 62
     7
  6
Continuous
370
    15
390
F
  0
LAYER
  5
40
330
2
100
AcDbSymbolTableRecord
100
AcDbLayerTableRecord
  2
SK1
 70
     0
 62
     4
  6
Continuous
370
    18
390
F
  0
LAYER
  5
58
330
2
100
AcDbSymbolTableRecord
100
AcDbLayerTableRecord
  2
SK3
 70
     0
 62
     1
  6
HIDDEN2
370
    15
390
F
  0
LAYER
  5
1D9
330
2
100
AcDbSymbolTableRecord
100
AcDbLayerTableRecord
  2
SK4
 70
     0
 62
     2
  6
Continuous
370
    13
390
F
  0
ENDTAB
  0
TABLE
  2
STYLE
  5
3
330
0
100
AcDbSymbolTable
 70
     2
  0
STYLE
  5
11
330
3
100
AcDbSymbolTableRecord
100
AcDbTextStyleTableRecord
  2
Standard
 70
     0
 40
0.0
 41
1.0
 50
0.0
 71
     0
 42
2.5
  3
txt
  4

  0
STYLE
  5
1ED
330
3
100
AcDbSymbolTableRecord
100
AcDbTextStyleTableRecord
  2
SEACAD_Solid_Edge_ISO
 70
     0
 40
0.0
 41
1.0
 50
0.0
 71
     0
 42
0.2
  3
seiso.ttf
  4

1001
ACAD
1000
Solid Edge ISO
1071
        0
  0
ENDTAB
  0
TABLE
  2
VIEW
  5
6
330
0
100
AcDbSymbolTable
 70
     0
  0
ENDTAB
  0
TABLE
  2
UCS
  5
7
330
0
100
AcDbSymbolTable
 70
     0
  0
ENDTAB
  0
TABLE
  2
APPID
  5
9
330
0
100
AcDbSymbolTable
 70
     1
  0
APPID
  5
12
330
9
100
AcDbSymbolTableRecord
100
AcDbRegAppTableRecord
  2
ACAD
 70
     0
  0
ENDTAB
  0
TABLE
  2
DIMSTYLE
  5
A
330
0
100
AcDbSymbolTable
 70
     3
100
AcDbDimStyleTable
  0
DIMSTYLE
105
27
330
A
100
AcDbSymbolTableRecord
100
AcDbDimStyleTableRecord
  2
ISO-25
 70
     0
 41
2.5
 42
0.625
 43
3.75
 44
1.25
 73
     0
 74
     0
 77
     1
 78
     8
140
2.5
141
2.5
143
0.0393700787
147
0.625
171
     3
172
     1
178
     0
271
     2
272
     2
274
     3
278
    44
283
     0
284
     8
340
11
  0
DIMSTYLE
105
1DB
330
A
100
AcDbSymbolTableRecord
100
AcDbDimStyleTableRecord
  2
Standard
 70
     0
178
     0
340
11
  0
DIMSTYLE
105
1EE
102
{ACAD_REACTORS
330
1EF
330
1FA
330
204
330
20F
102
}
330
A
100
AcDbSymbolTableRecord
100
AcDbDimStyleTableRecord
  2
DIN
 70
     0
 41
3.5
 42
0.0
 44
1.75
 73
     0
 74
     0
 77
     1
 78
     8
140
3.5
141
1.75
147
1.75
172
     1
173
     1
178
     0
179
     3
271
     2
272
     2
278
    44
284
     8
340
1ED
343
1E8
344
1E8
  0
ENDTAB
  0
TABLE
  2
BLOCK_RECORD
  5
1
330
0
100
AcDbSymbolTable
 70
    10
  0
BLOCK_RECORD
  5
1F
330
1
100
AcDbSymbolTableRecord
100
AcDbBlockTableRecord
  2
*Model_Space
340
22
  0
BLOCK_RECORD
  5
1B
330
1
100
AcDbSymbolTableRecord
100
AcDbBlockTableRecord
  2
*Paper_Space
340
1E
  0
BLOCK_RECORD
  5
41
330
1
100
AcDbSymbolTableRecord
100
AcDbBlockTableRecord
  2
Nullpunkt
340
0
102
{BLKREFS
331
4B
102
}
  0
BLOCK_RECORD
  5
4C
330
1
100
AcDbSymbolTableRecord
100
AcDbBlockTableRecord
  2
Einfügepunkt
340
0
102
{BLKREFS
331
56
102
}
  0
BLOCK_RECORD
  5
1DC
330
1
100
AcDbSymbolTableRecord
100
AcDbBlockTableRecord
  2
_OBLIQUE
340
0
  0
BLOCK_RECORD
  5
1E0
330
1
100
AcDbSymbolTableRecord
100
AcDbBlockTableRecord
  2
_DOT
340
0
  0
BLOCK_RECORD
  5
1E8
330
1
100
AcDbSymbolTableRecord
100
AcDbBlockTableRecord
  2
_SE_FILLED
340
0
  0
BLOCK_RECORD
  5
1F0
330
1
100
AcDbSymbolTableRecord
100
AcDbBlockTableRecord
  2
DMBLK21
340
0
  0
BLOCK_RECORD
  5
1FB
330
1
100
AcDbSymbolTableRecord
100
AcDbBlockTableRecord
  2
DMBLK22
340
0
  0
BLOCK_RECORD
  5
205
330
1
100
AcDbSymbolTableRecord
100
AcDbBlockTableRecord
  2
DMBLK23
340
0
  0
BLOCK_RECORD
  5
210
330
1
100
AcDbSymbolTableRecord
100
AcDbBlockTableRecord
  2
DMBLK24
340
0
  0
ENDTAB
  0
ENDSEC
  0
SECTION
  2
BLOCKS
  0
BLOCK
  5
20
330
1F
100
AcDbEntity
  8
0
100
AcDbBlockBegin
  2
*Model_Space
 70
     0
 10
0.0
 20
0.0
 30
0.0
  3
*Model_Space
  1

  0
ENDBLK
  5
21
330
1F
100
AcDbEntity
  8
0
100
AcDbBlockEnd
  0
BLOCK
  5
1C
330
1B
100
AcDbEntity
 67
     1
  8
0
100
AcDbBlockBegin
  2
*Paper_Space
 70
     0
 10
0.0
 20
0.0
 30
0.0
  3
*Paper_Space
  1

  0
ENDBLK
  5
1D
330
1B
100
AcDbEntity
 67
     1
  8
0
100
AcDbBlockEnd
  0
BLOCK
  5
49
330
41
100
AcDbEntity
  8
0
100
AcDbBlockBegin
  2
Nullpunkt
 70
     0
 10
0.0
 20
0.0
 30
0.0
  3
Nullpunkt
  1

  0
HATCH
  5
42
330
41
100
AcDbEntity
  8
SK2
  6
Continuous
 62
     7
100
AcDbHatch
 10
0.0
 20
0.0
 30
0.0
210
0.0
220
0.0
230
1.0
  2
SOLID
 70
     1
 71
     0
 91
        1
 92
        1
 93
        3
 72
     1
 10
-1.0
 20
0.0
 11
0.0000000000000009
 21
0.0
 72
     1
 10
0.0
 20
0.0
 11
0.0
 21
1.000000000000001
 72
     2
 10
0.0
 20
0.0
 40
1.0
 50
90.0
 51
180.0
 73
     1
 97
        0
 75
     0
 76
     1
 98
        0
  0
HATCH
  5
43
330
41
100
AcDbEntity
  8
SK2
  6
Continuous
 62
     7
100
AcDbHatch
 10
0.0
 20
0.0
 30
0.0
210
0.0
220
0.0
230
1.0
  2
SOLID
 70
     1
 71
     0
 91
        1
 92
        1
 93
        3
 72
     2
 10
0.0
 20
0.0
 40
1.0
 50
270.0
 51
360.0
 73
     1
 72
     1
 10
1.0
 20
0.0
 11
-0.0000000000000009
 21
0.0
 72
     1
 10
0.0
 20
0.0
 11
0.0
 21
-1.000000000000001
 97
        0
 75
     0
 76
     1
 98
        0
  0
CIRCLE
  5
44
330
41
100
AcDbEntity
  8
SK2
  6
Continuous
 62
     7
100
AcDbCircle
 10
0.0
 20
0.0
 30
0.0
 40
1.0
  0
LINE
  5
45
330
41
100
AcDbEntity
  8
SK1
  6
Continuous
100
AcDbLine
 10
-1.0
 20
0.0
 30
0.0
 11
1.0
 21
0.0
 31
0.0
  0
LINE
  5
46
330
41
100
AcDbEntity
  8
SK1
  6
Continuous
100
AcDbLine
 10
0.0
 20
1.0
 30
0.0
 11
0.0
 21
-1.0
 31
0.0
  0
POINT
  5
47
330
41
100
AcDbEntity
  8
SK1
  6
Continuous
100
AcDbPoint
 10
0.0
 20
0.0
 30
0.0
  0
POINT
  5
48
330
41
100
AcDbEntity
  8
SK1
  6
Continuous
100
AcDbPoint
 10
0.0
 20
0.0
 30
0.0
  0
ENDBLK
  5
4A
330
41
100
AcDbEntity
  8
0
100
AcDbBlockEnd
  0
BLOCK
  5
54
330
4C
100
AcDbEntity
  8
0
100
AcDbBlockBegin
  2
Einfügepunkt
 70
     0
 10
0.0
 20
0.0
 30
0.0
  3
Einfügepunkt
  1

  0
HATCH
  5
4D
330
4C
100
AcDbEntity
  8
SK2
  6
Continuous
 62
     7
100
AcDbHatch
 10
0.0
 20
0.0
 30
0.0
210
0.0
220
0.0
230
1.0
  2
SOLID
 70
     1
 71
     0
 91
        1
 92
        1
 93
        3
 72
     1
 10
-0.4502381196756744
 20
-0.0000000000000018
 11
0.0000000000000033
 21
-0.0000000000000018
 72
     1
 10
0.0
 20
-0.0000000000000018
 11
0.0
 21
0.4502381196756812
 72
     2
 10
0.0
 20
-0.0000000000000018
 40
0.4502381196756812
 50
90.0
 51
180.0
 73
     1
 97
        0
 75
     0
 76
     1
 98
        0
  0
HATCH
  5
4E
330
4C
100
AcDbEntity
  8
SK2
  6
Continuous
 62
     7
100
AcDbHatch
 10
0.0
 20
0.0
 30
0.0
210
0.0
220
0.0
230
1.0
  2
SOLID
 70
     1
 71
     0
 91
        1
 92
        1
 93
        3
 72
     2
 10
0.0
 20
-0.0000000000000018
 40
0.4502381196756812
 50
270.0
 51
360.0
 73
     1
 72
     1
 10
0.4502381196756815
 20
-0.0000000000000018
 11
0.0000000000000038
 21
-0.0000000000000018
 72
     1
 10
0.0
 20
-0.0000000000000018
 11
0.0
 21
-0.4502381196756812
 97
        0
 75
     0
 76
     1
 98
        0
  0
CIRCLE
  5
4F
330
4C
100
AcDbEntity
  8
SK2
  6
Continuous
 62
     7
100
AcDbCircle
 10
0.0
 20
0.0
 30
0.0
 40
0.4502381196756812
  0
LINE
  5
50
330
4C
100
AcDbEntity
  8
SK1
  6
Continuous
100
AcDbLine
 10
-0.4502381197
 20
0.0
 30
0.0
 11
0.4502381197
 21
0.0
 31
0.0
  0
LINE
  5
51
330
4C
100
AcDbEntity
  8
SK1
  6
Continuous
100
AcDbLine
 10
0.0
 20
0.4502381197
 30
0.0
 11
0.0
 21
-0.4502381197
 31
0.0
  0
POINT
  5
52
330
4C
100
AcDbEntity
  8
SK2
  6
Continuous
 62
     7
100
AcDbPoint
 10
0.0
 20
0.0
 30
0.0
  0
POINT
  5
53
330
4C
100
AcDbEntity
  8
SK2
  6
Continuous
 62
     7
100
AcDbPoint
 10
0.0
 20
0.0
 30
0.0
  0
ENDBLK
  5
55
330
4C
100
AcDbEntity
  8
0
100
AcDbBlockEnd
  0
BLOCK
  5
1DD
330
1DC
100
AcDbEntity
  8
0
100
AcDbBlockBegin
  2
_OBLIQUE
 70
     0
 10
0.0
 20
0.0
 30
0.0
  3
_OBLIQUE
  1

  0
LINE
  5
1DF
330
1DC
100
AcDbEntity
  8
0
  6
ByBlock
 62
     0
370
    -2
100
AcDbLine
 10
-0.5
 20
-0.5
 30
0.0
 11
0.5
 21
0.5
 31
0.0
  0
ENDBLK
  5
1DE
330
1DC
100
AcDbEntity
  8
0
100
AcDbBlockEnd
  0
BLOCK
  5
1E1
330
1E0
100
AcDbEntity
  8
0
100
AcDbBlockBegin
  2
_DOT
 70
     0
 10
0.0
 20
0.0
 30
0.0
  3
_DOT
  1

  0
POLYLINE
  5
1E3
330
1E0
100
AcDbEntity
  8
0
  6
ByBlock
 62
     0
100
AcDb2dPolyline
 66
     1
 10
0.0
 20
0.0
 30
0.0
 70
     1
 40
0.5
 41
0.5
  0
VERTEX
  5
1E5
330
1E3
100
AcDbEntity
  8
0
  6
ByBlock
 62
     0
100
AcDbVertex
100
AcDb2dVertex
 10
-0.25
 20
0.0
 30
0.0
 42
1.0
  0
VERTEX
  5
1E6
330
1E3
100
AcDbEntity
  8
0
  6
ByBlock
 62
     0
100
AcDbVertex
100
AcDb2dVertex
 10
0.25
 20
0.0
 30
0.0
 42
1.0
  0
SEQEND
  5
1E7
330
1E3
100
AcDbEntity
  8
0
  6
ByBlock
 62
     0
  0
LINE
  5
1E4
330
1E0
100
AcDbEntity
  8
0
  6
ByBlock
 62
     0
370
    -2
100
AcDbLine
 10
-0.5
 20
0.0
 30
0.0
 11
-1.0
 21
0.0
 31
0.0
  0
ENDBLK
  5
1E2
330
1E0
100
AcDbEntity
  8
0
100
AcDbBlockEnd
  0
BLOCK
  5
1EB
330
1E8
100
AcDbEntity
  8
0
100
AcDbBlockBegin
  2
_SE_FILLED
 70
     0
 10
0.0
 20
0.0
 30
0.0
  3
_SE_FILLED
  1

  0
SOLID
  5
1E9
330
1E8
100
AcDbEntity
  8
0
 62
     0
100
AcDbTrace
 10
0.0
 20
0.0
 30
0.0
 11
-1.0
 21
-0.1665
 31
0.0
 12
-1.0
 22
0.1665
 32
0.0
 13
0.0
 23
0.0
 33
0.0
  0
LINE
  5
1EA
330
1E8
100
AcDbEntity
  8
0
 62
     0
100
AcDbLine
 10
0.0
 20
0.0
 30
0.0
 11
-1.0
 21
0.0
 31
0.0
  0
ENDBLK
  5
1EC
330
1E8
100
AcDbEntity
  8
0
100
AcDbBlockEnd
  0
BLOCK
  5
1F8
330
1F0
100
AcDbEntity
  8
0
100
AcDbBlockBegin
  2
DMBLK21
 70
     0
 10
0.0
 20
0.0
 30
0.0
  3
DMBLK21
  1

  0
HATCH
  5
1F1
330
1F0
100
AcDbEntity
  8
SK2
  6
Continuous
 62
   136
100
AcDbHatch
 10
0.0
 20
0.0
 30
0.0
210
0.0
220
0.0
230
1.0
  2
SOLID
 70
     1
 71
     0
 91
        1
 92
        1
 93
        3
 72
     1
 10
19.66257461699347
 20
6.500000207804113
 11
18.49590791431566
 21
6.500000207804113
 72
     1
 10
18.49590791431566
 20
6.500000207804113
 11
19.07924126565456
 21
3.000000099770694
 72
     1
 10
19.07924126565456
 20
3.000000099770693
 11
19.66257461699347
 21
6.500000207804112
 97
        0
 75
     0
 76
     1
 98
        0
  0
HATCH
  5
1F2
330
1F0
100
AcDbEntity
  8
SK2
  6
Continuous
 62
   136
100
AcDbHatch
 10
0.0
 20
0.0
 30
0.0
210
0.0
220
0.0
230
1.0
  2
SOLID
 70
     1
 71
     0
 91
        1
 92
        1
 93
        3
 72
     1
 10
19.66257461699347
 20
-6.500000008262726
 11
19.07924126565456
 21
-2.999999900229307
 72
     1
 10
19.07924126565456
 20
-2.999999900229307
 11
18.49590791431566
 21
-6.500000008262726
 72
     1
 10
18.49590791431566
 20
-6.500000008262726
 11
19.66257461699347
 21
-6.500000008262726
 97
        0
 75
     0
 76
     1
 98
        0
  0
LINE
  5
1F3
330
1F0
100
AcDbEntity
  8
SK2
  6
Continuous
 62
   136
100
AcDbLine
 10
10.755
 20
3.0000000998
 30
0.0
 11
20.8292413197
 21
3.0000000998
 31
0.0
  0
LINE
  5
1F4
330
1F0
100
AcDbEntity
  8
SK2
  6
Continuous
 62
   136
100
AcDbLine
 10
10.755
 20
-2.9999999002
 30
0.0
 11
20.8292413197
 21
-2.9999999002
 31
0.0
  0
LINE
  5
1F5
330
1F0
100
AcDbEntity
  8
SK2
  6
Continuous
 62
   136
100
AcDbLine
 10
19.0792412657
 20
17.8780086144
 30
0.0
 11
19.0792412657
 21
-10.0000001685
 31
0.0
  0
TEXT
  5
1F6
330
1F0
100
AcDbEntity
  8
SK2
  6
Continuous
 62
   136
100
AcDbText
 10
18.2042412657
 20
14.5052810423
 30
0.0
 40
3.5
  1
6
 50
90.0
  7
SEACAD_Solid_Edge_ISO
 11
14.7042412657
 21
14.5052810423
 31
0.0
100
AcDbText
 73
     3
  0
TEXT
  5
1F7
330
1F0
100
AcDbEntity
  8
SK2
  6
Continuous
 62
   136
100
AcDbText
 10
18.2042412657
 20
10.4325537696
 30
0.0
 40
3.5
  1
ø
 50
90.0
  7
SEACAD_Solid_Edge_ISO
 11
14.7042412657
 21
10.4325537696
 31
0.0
100
AcDbText
 73
     3
  0
ENDBLK
  5
1F9
330
1F0
100
AcDbEntity
  8
0
100
AcDbBlockEnd
  0
BLOCK
  5
202
330
1FB
100
AcDbEntity
  8
0
100
AcDbBlockBegin
  2
DMBLK22
 70
     0
 10
0.0
 20
0.0
 30
0.0
  3
DMBLK22
  1

  0
HATCH
  5
1FC
330
1FB
100
AcDbEntity
  8
SK2
  6
Continuous
 62
   136
100
AcDbHatch
 10
0.0
 20
0.0
 30
0.0
210
0.0
220
0.0
230
1.0
  2
SOLID
 70
     1
 71
     0
 91
        1
 92
        1
 93
        3
 72
     1
 10
7.654999891966587
 20
-18.81793624978334
 11
11.155
 21
-18.23460289844444
 72
     1
 10
11.155
 20
-18.23460289844444
 11
7.654999891966586
 21
-17.65126954710553
 72
     1
 10
7.654999891966587
 20
-17.65126954710553
 11
7.654999891966587
 21
-18.81793624978334
 97
        0
 75
     0
 76
     1
 98
        0
  0
HATCH
  5
1FD
330
1FB
100
AcDbEntity
  8
SK2
  6
Continuous
 62
   136
100
AcDbHatch
 10
0.0
 20
0.0
 30
0.0
210
0.0
220
0.0
230
1.0
  2
SOLID
 70
     1
 71
     0
 91
        1
 92
        1
 93
        3
 72
     1
 10
3.500000151544814
 20
-18.81793624978334
 11
3.500000151544814
 21
-17.65126954710553
 72
     1
 10
3.500000151544814
 20
-17.65126954710553
 11
0.0000000435113958
 21
-18.23460289844444
 72
     1
 10
0.0000000435113959
 20
-18.23460289844444
 11
3.500000151544814
 21
-18.81793624978334
 97
        0
 75
     0
 76
     1
 98
        0
  0
LINE
  5
1FE
330
1FB
100
AcDbEntity
  8
SK2
  6
Continuous
 62
   136
100
AcDbLine
 10
11.155
 20
-7.0254539848
 30
0.0
 11
11.155
 21
-19.9846029525
 31
0.0
  0
LINE
  5
1FF
330
1FB
100
AcDbEntity
  8
SK2
  6
Continuous
 62
   136
100
AcDbLine
 10
0.0
 20
-9.9958769555
 30
0.0
 11
0.0
 21
-19.9846029525
 31
0.0
  0
LINE
  5
200
330
1FB
100
AcDbEntity
  8
SK2
  6
Continuous
 62
   136
100
AcDbLine
 10
11.155
 20
-18.2346028984
 30
0.0
 11
0.0000000435
 21
-18.2346028984
 31
0.0
  0
TEXT
  5
201
330
1FB
100
AcDbEntity
  8
SK2
  6
Continuous
 62
   136
100
AcDbText
 10
2.0377272945
 20
-17.3596028984
 30
0.0
 40
3.5
  1
11,16
  7
SEACAD_Solid_Edge_ISO
 11
2.0377272945
 21
-13.8596028984
 31
0.0
100
AcDbText
 73
     3
  0
ENDBLK
  5
203
330
1FB
100
AcDbEntity
  8
0
100
AcDbBlockEnd
  0
BLOCK
  5
20D
330
205
100
AcDbEntity
  8
0
100
AcDbBlockBegin
  2
DMBLK23
 70
     0
 10
0.0
 20
0.0
 30
0.0
  3
DMBLK23
  1

  0
HATCH
  5
206
330
205
100
AcDbEntity
  8
SK2
  6
Continuous
 62
   136
100
AcDbHatch
 10
0.0
 20
0.0
 30
0.0
210
0.0
220
0.0
230
1.0
  2
SOLID
 70
     1
 71
     0
 91
        1
 92
        1
 93
        3
 72
     1
 10
-26.58871693226198
 20
6.495877047049564
 11
-25.42205022958417
 21
6.495877047049564
 72
     1
 10
-25.42205022958417
 20
6.495877047049564
 11
-26.00538358092307
 21
9.995877155082983
 72
     1
 10
-26.00538358092307
 20
9.995877155082983
 11
-26.58871693226198
 21
6.495877047049564
 97
        0
 75
     0
 76
     1
 98
        0
  0
HATCH
  5
207
330
205
100
AcDbEntity
  8
SK2
  6
Continuous
 62
   136
100
AcDbHatch
 10
0.0
 20
0.0
 30
0.0
210
0.0
220
0.0
230
1.0
  2
SOLID
 70
     1
 71
     0
 91
        1
 92
        1
 93
        3
 72
     1
 10
-26.58871693226198
 20
-6.495876359773117
 11
-26.00538358092307
 21
-9.995876467806536
 72
     1
 10
-26.00538358092307
 20
-9.995876467806536
 11
-25.42205022958417
 21
-6.495876359773117
 72
     1
 10
-25.42205022958417
 20
-6.495876359773117
 11
-26.58871693226198
 21
-6.495876359773117
 97
        0
 75
     0
 76
     1
 98
        0
  0
LINE
  5
208
330
205
100
AcDbEntity
  8
SK2
  6
Continuous
 62
   136
100
AcDbLine
 10
0.0
 20
9.9958771551
 30
0.0
 11
-27.7553836349
 21
9.9958771551
 31
0.0
  0
LINE
  5
209
330
205
100
AcDbEntity
  8
SK2
  6
Continuous
 62
   136
100
AcDbLine
 10
0.0
 20
-9.9958769555
 30
0.0
 11
-27.7553836349
 21
-9.9958769555
 31
0.0
  0
LINE
  5
20A
330
205
100
AcDbEntity
  8
SK2
  6
Continuous
 62
   136
100
AcDbLine
 10
-26.0053835809
 20
9.9958771551
 30
0.0
 11
-26.0053835809
 21
-9.9958764678
 31
0.0
  0
TEXT
  5
20B
330
205
100
AcDbEntity
  8
SK2
  6
Continuous
 62
   136
100
AcDbText
 10
-26.8803835809
 20
-0.0715905655
 30
0.0
 40
3.5
  1
20
 50
90.0
  7
SEACAD_Solid_Edge_ISO
 11
-30.3803835809
 21
-0.0715905655
 31
0.0
100
AcDbText
 73
     3
  0
TEXT
  5
20C
330
205
100
AcDbEntity
  8
SK2
  6
Continuous
 62
   136
100
AcDbText
 10
-26.8803835809
 20
-4.1443178382
 30
0.0
 40
3.5
  1
ø
 50
90.0
  7
SEACAD_Solid_Edge_ISO
 11
-30.3803835809
 21
-4.1443178382
 31
0.0
100
AcDbText
 73
     3
  0
ENDBLK
  5
20E
330
205
100
AcDbEntity
  8
0
100
AcDbBlockEnd
  0
BLOCK
  5
217
330
210
100
AcDbEntity
  8
0
100
AcDbBlockBegin
  2
DMBLK24
 70
     0
 10
0.0
 20
0.0
 30
0.0
  3
DMBLK24
  1

  0
HATCH
  5
211
330
210
100
AcDbEntity
  8
SK2
  6
Continuous
 62
   136
100
AcDbHatch
 10
0.0
 20
0.0
 30
0.0
210
0.0
220
0.0
230
1.0
  2
SOLID
 70
     1
 71
     0
 91
        1
 92
        1
 93
        3
 72
     1
 10
-16.84499989196658
 20
17.12141788960382
 11
-20.345
 21
16.53808453826491
 72
     1
 10
-20.345
 20
16.53808453826491
 11
-16.84499989196658
 21
15.95475118692601
 72
     1
 10
-16.84499989196658
 20
15.95475118692601
 11
-16.84499989196658
 21
17.12141788960382
 97
        0
 75
     0
 76
     1
 98
        0
  0
HATCH
  5
212
330
210
100
AcDbEntity
  8
SK2
  6
Continuous
 62
   136
100
AcDbHatch
 10
0.0
 20
0.0
 30
0.0
210
0.0
220
0.0
230
1.0
  2
SOLID
 70
     1
 71
     0
 91
        1
 92
        1
 93
        3
 72
     1
 10
7.65500039860606
 20
17.12141788960382
 11
7.65500039860606
 21
15.95475118692601
 72
     1
 10
7.65500039860606
 20
15.95475118692601
 11
11.15500050663948
 21
16.53808453826491
 72
     1
 10
11.15500050663948
 20
16.53808453826491
 11
7.65500039860606
 21
17.12141788960382
 97
        0
 75
     0
 76
     1
 98
        0
  0
LINE
  5
213
330
210
100
AcDbEntity
  8
SK2
  6
Continuous
 62
   136
100
AcDbLine
 10
-20.345
 20
6.8737445935
 30
0.0
 11
-20.345
 21
18.2880845923
 31
0.0
  0
LINE
  5
214
330
210
100
AcDbEntity
  8
SK2
  6
Continuous
 62
   136
100
AcDbLine
 10
11.155
 20
7.4947227421
 30
0.0
 11
11.155
 21
18.2880845923
 31
0.0
  0
LINE
  5
215
330
210
100
AcDbEntity
  8
SK2
  6
Continuous
 62
   136
100
AcDbLine
 10
-20.345
 20
16.5380845383
 30
0.0
 11
11.1550005066
 21
16.5380845383
 31
0.0
  0
TEXT
  5
216
330
210
100
AcDbEntity
  8
SK2
  6
Continuous
 62
   136
100
AcDbText
 10
-7.5381815649
 20
17.4130845383
 30
0.0
 40
3.5
  1
31,5
  7
SEACAD_Solid_Edge_ISO
 11
-7.5381815649
 21
20.9130845383
 31
0.0
100
AcDbText
 73
     3
  0
ENDBLK
  5
218
330
210
100
AcDbEntity
  8
0
100
AcDbBlockEnd
  0
ENDSEC
  0
SECTION
  2
ENTITIES
  0
INSERT
  5
4B
330
1F
100
AcDbEntity
  8
SK2
 62
     7
100
AcDbBlockReference
  2
Nullpunkt
 10
0.0
 20
0.0000000998
 30
0.0
  0
INSERT
  5
56
330
1F
100
AcDbEntity
  8
SK2
 62
     7
100
AcDbBlockReference
  2
Einfügepunkt
 10
11.155
 20
0.0000000998
 30
0.0
  0
LINE
  5
57
330
1F
100
AcDbEntity
  8
SK1
  6
Continuous
100
AcDbLine
 10
11.155
 20
7.7343812404
 30
0.0
 11
11.155
 21
7.2550642438
 31
0.0
  0
LINE
  5
5A
330
1F
100
AcDbEntity
  8
SK3
100
AcDbLine
 10
-6.9985898385
 20
3.0000000998
 30
0.0
 11
-6.9985898385
 21
2.8725507142
 31
0.0
  0
ARC
  5
5B
330
1F
100
AcDbEntity
  8
SK3
100
AcDbCircle
 10
10.7688472617
 20
3.2587466156
 30
0.0
 40
0.3864440721311746
100
AcDbArc
 50
267.9465087203
 51
357.775066438
  0
ARC
  5
5C
330
1F
100
AcDbEntity
  8
SK3
100
AcDbCircle
 10
10.7688472617
 20
3.0291365562
 30
0.0
 40
0.3864440721311739
100
AcDbArc
 50
267.9465087203
 51
357.775066438
  0
LINE
  5
5D
330
1F
100
AcDbEntity
  8
SK1
  6
Continuous
100
AcDbLine
 10
11.03
 20
7.9508875913
 30
0.0
 11
11.03
 21
7.4552365628
 31
0.0
  0
LINE
  5
5E
330
1F
100
AcDbEntity
  8
SK1
  6
Continuous
100
AcDbLine
 10
11.155
 20
7.0254541844
 30
0.0
 11
11.155
 21
3.2347561235
 31
0.0
  0
LINE
  5
5F
330
1F
100
AcDbEntity
  8
SK3
100
AcDbLine
 10
-6.9985898385
 20
2.6429406548
 30
0.0
 11
-6.9985898385
 21
1.4194595823
 31
0.0
  0
LINE
  5
60
330
1F
100
AcDbEntity
  8
SK1
  6
Continuous
100
AcDbLine
 10
3.0993307596
 20
9.7523902461
 30
0.0
 11
3.0993307596
 21
10.4316470597
 31
0.0
  0
LINE
  5
61
330
1F
100
AcDbEntity
  8
SK1
  6
Continuous
100
AcDbLine
 10
3.555
 20
9.3862776105
 30
0.0
 11
3.555
 21
10.0353695984
 31
0.0
  0
LINE
  5
62
330
1F
100
AcDbEntity
  8
SK1
  6
Continuous
100
AcDbLine
 10
-20.0867519303
 20
6.7146809013
 30
0.0
 11
-20.0867519303
 21
7.1710961015
 31
0.0
  0
LINE
  5
63
330
1F
100
AcDbEntity
  8
SK1
  6
Continuous
100
AcDbLine
 10
6.6344228634
 20
9.69438827
 30
0.0
 11
6.6344228634
 21
10.3688661731
 31
0.0
  0
LINE
  5
64
330
1F
100
AcDbEntity
  8
SK1
  6
Continuous
100
AcDbLine
 10
6.8344228634
 20
9.69438827
 30
0.0
 11
6.8344228634
 21
10.3688661731
 31
0.0
  0
LINE
  5
65
330
1F
100
AcDbEntity
  8
SK1
  6
Continuous
100
AcDbLine
 10
6.355
 20
9.5452801728
 30
0.0
 11
6.355
 21
10.2074727318
 31
0.0
  0
LINE
  5
66
330
1F
100
AcDbEntity
  8
SK3
100
AcDbLine
 10
-7.345
 20
3.8887175042
 30
0.0
 11
-7.345
 21
4.0902494381
 31
0.0
  0
LINE
  5
67
330
1F
100
AcDbEntity
  8
SK3
100
AcDbLine
 10
-8.045
 20
4.2630139423
 30
0.0
 11
-8.045
 21
4.4899889639
 31
0.0
  0
LINE
  5
68
330
1F
100
AcDbEntity
  8
SK1
  6
Continuous
100
AcDbLine
 10
3.755
 20
8.1477769537
 30
0.0
 11
3.755
 21
8.6948261475
 31
0.0
  0
LINE
  5
69
330
1F
100
AcDbEntity
  8
SK1
  6
Continuous
100
AcDbLine
 10
6.155
 20
8.1477769537
 30
0.0
 11
6.155
 21
8.6948261475
 31
0.0
  0
ARC
  5
6A
330
1F
100
AcDbEntity
  8
SK1
  6
Continuous
100
AcDbCircle
 10
3.1648769152
 20
9.1377372281
 30
0.0
 40
0.3905821020576977
100
AcDbArc
 50
2.7780399913
 51
99.6608950409
  0
LINE
  5
6B
330
1F
100
AcDbEntity
  8
SK1
  6
Continuous
100
AcDbLine
 10
6.355
 20
9.3156701134
 30
0.0
 11
6.6344228634
 21
9.4647782106
 31
0.0
  0
ARC
  5
6C
330
1F
100
AcDbEntity
  8
SK1
  6
Continuous
100
AcDbCircle
 10
6.7344228634
 20
9.2752681495
 30
0.0
 40
0.2142756711599589
100
AcDbArc
 50
62.180443737
 51
117.819556263
  0
SPLINE
  5
6D
330
1F
100
AcDbEntity
  8
SK1
  6
Continuous
100
AcDbSpline
210
0.0
220
0.0
230
1.0
 70
     8
 71
     3
 72
     8
 73
     4
 74
     0
 42
0.0000000021027405
 43
0.0000000001
 12
1.0
 22
0.0
 32
0.0
 13
1.0
 23
0.0
 33
0.0
 40
0.0
 40
0.0
 40
0.0
 40
0.0
 40
1.0
 40
1.0
 40
1.0
 40
1.0
 10
6.834422863405979
 20
9.464778210596474
 30
0.0
 10
8.232993216536647
 20
8.718465676693198
 30
0.0
 10
9.63153256191293
 20
7.972103527236603
 30
0.0
 10
11.03
 20
7.22562650333263
 30
0.0
  0
ARC
  5
6E
330
1F
100
AcDbEntity
  8
SK1
  6
Continuous
100
AcDbCircle
 10
10.9264792456
 20
7.021866697
 30
0.0
 40
0.2285489121905374
100
AcDbArc
 50
0.8993975237
 51
63.0670226642
  0
LINE
  5
6F
330
1F
100
AcDbEntity
  8
SK3
100
AcDbLine
 10
10.755
 20
2.6429406548
 30
0.0
 11
-6.9985898385
 21
2.6429406548
 31
0.0
  0
LINE
  5
70
330
1F
100
AcDbEntity
  8
SK3
100
AcDbLine
 10
-6.9985898385
 20
2.6429406548
 30
0.0
 11
-7.345
 21
2.828588845
 31
0.0
  0
LINE
  5
71
330
1F
100
AcDbEntity
  8
SK3
100
AcDbLine
 10
-7.345
 20
3.6591074448
 30
0.0
 11
-8.045
 21
4.0334038828
 31
0.0
  0
LINE
  5
72
330
1F
100
AcDbEntity
  8
SK3
100
AcDbLine
 10
-8.045
 20
4.0334038828
 30
0.0
 11
-15.1645676232
 21
4.0334038828
 31
0.0
  0
LINE
  5
73
330
1F
100
AcDbEntity
  8
SK1
  6
Continuous
100
AcDbLine
 10
6.355
 20
9.5452801728
 30
0.0
 11
6.355
 21
9.3156701134
 31
0.0
  0
ARC
  5
74
330
1F
100
AcDbEntity
  8
SK1
  6
Continuous
100
AcDbCircle
 10
6.1622842399
 20
8.3405151223
 30
0.0
 40
0.1928757677871492
100
AcDbArc
 50
267.8356250557
 51
357.6660087198
  0
LINE
  5
75
330
1F
100
AcDbEntity
  8
SK1
  6
Continuous
100
AcDbLine
 10
6.155
 20
8.1477769537
 30
0.0
 11
3.755
 21
8.1477769537
 31
0.0
  0
ARC
  5
76
330
1F
100
AcDbEntity
  8
SK1
  6
Continuous
100
AcDbCircle
 10
3.7477240376
 20
8.3405240767
 30
0.0
 40
0.1928844032862179
100
AcDbArc
 50
182.3365487929
 51
272.161817433
  0
LINE
  5
77
330
1F
100
AcDbEntity
  8
SK1
  6
Continuous
100
AcDbLine
 10
3.555
 20
9.1566675511
 30
0.0
 11
3.555
 21
9.3862776105
 31
0.0
  0
ARC
  5
78
330
1F
100
AcDbEntity
  8
SK1
  6
Continuous
100
AcDbCircle
 10
6.1622842399
 20
8.1109050629
 30
0.0
 40
0.1928757677871548
100
AcDbArc
 50
267.8356250557
 51
357.6660087198
  0
LINE
  5
79
330
1F
100
AcDbEntity
  8
SK1
  6
Continuous
100
AcDbLine
 10
6.155
 20
7.9181668943
 30
0.0
 11
3.755
 21
7.9181668943
 31
0.0
  0
ARC
  5
7A
330
1F
100
AcDbEntity
  8
SK1
  6
Continuous
100
AcDbCircle
 10
3.7477240376
 20
8.1109140172
 30
0.0
 40
0.1928844032862213
100
AcDbArc
 50
182.3365487929
 51
272.161817433
  0
ARC
  5
7B
330
1F
100
AcDbEntity
  8
SK1
  6
Continuous
100
AcDbCircle
 10
3.1648769152
 20
9.3673472875
 30
0.0
 40
0.3905821020576984
100
AcDbArc
 50
2.7780399913
 51
99.6608950409
  0
LINE
  5
7C
330
1F
100
AcDbEntity
  8
SK1
  6
Continuous
100
AcDbLine
 10
6.355
 20
9.5452801728
 30
0.0
 11
6.6344228634
 21
9.69438827
 31
0.0
  0
ARC
  5
7D
330
1F
100
AcDbEntity
  8
SK1
  6
Continuous
100
AcDbCircle
 10
6.7344228634
 20
9.5048782089
 30
0.0
 40
0.2142756711599602
100
AcDbArc
 50
62.180443737
 51
117.819556263
  0
SPLINE
  5
7E
330
1F
100
AcDbEntity
  8
SK1
  6
Continuous
100
AcDbSpline
210
0.0
220
0.0
230
1.0
 70
     8
 71
     3
 72
     8
 73
     4
 74
     0
 42
0.0000000021027405
 43
0.0000000001
 12
1.0
 22
0.0
 32
0.0
 13
1.0
 23
0.0
 33
0.0
 40
0.0
 40
0.0
 40
0.0
 40
0.0
 40
1.0
 40
1.0
 40
1.0
 40
1.0
 10
6.834422863405979
 20
9.694388270015526
 30
0.0
 10
8.232993216536647
 20
8.948075736112253
 30
0.0
 10
9.63153256191293
 20
8.201713586655655
 30
0.0
 10
11.03
 20
7.455236562751684
 30
0.0
  0
ARC
  5
7F
330
1F
100
AcDbEntity
  8
SK1
  6
Continuous
100
AcDbCircle
 10
10.9264792456
 20
7.2514767564
 30
0.0
 40
0.2285489121905347
100
AcDbArc
 50
0.8993975237
 51
63.0670226642
  0
LINE
  5
80
330
1F
100
AcDbEntity
  8
SK1
  6
Continuous
100
AcDbLine
 10
11.155
 20
7.2550642438
 30
0.0
 11
11.155
 21
7.0254541844
 31
0.0
  0
LINE
  5
81
330
1F
100
AcDbEntity
  8
SK3
100
AcDbLine
 10
10.755
 20
2.8725507142
 30
0.0
 11
-6.9985898385
 21
2.8725507142
 31
0.0
  0
LINE
  5
82
330
1F
100
AcDbEntity
  8
SK3
100
AcDbLine
 10
-6.9985898385
 20
2.8725507142
 30
0.0
 11
-7.345
 21
3.0581989044
 31
0.0
  0
LINE
  5
83
330
1F
100
AcDbEntity
  8
SK3
100
AcDbLine
 10
-7.345
 20
3.6591074448
 30
0.0
 11
-7.345
 21
3.8887175042
 31
0.0
  0
LINE
  5
84
330
1F
100
AcDbEntity
  8
SK3
100
AcDbLine
 10
-7.345
 20
3.8887175042
 30
0.0
 11
-8.045
 21
4.2630139423
 31
0.0
  0
LINE
  5
85
330
1F
100
AcDbEntity
  8
SK3
100
AcDbLine
 10
-8.045
 20
4.2630139423
 30
0.0
 11
-15.1645676232
 21
4.2630139423
 31
0.0
  0
LINE
  5
86
330
1F
100
AcDbEntity
  8
SK3
100
AcDbLine
 10
-20.345
 20
5.0684797294
 30
0.0
 11
-19.345
 21
4.4899889639
 31
0.0
  0
SPLINE
  5
87
330
1F
100
AcDbEntity
  8
SK1
  6
Continuous
100
AcDbSpline
210
0.0
220
0.0
230
1.0
 70
     8
 71
     3
 72
    10
 73
     6
 74
     0
 42
0.0000000310301906
 43
0.0000000001
 12
1.0
 22
0.0
 32
0.0
 13
1.0
 23
0.0
 33
0.0
 40
0.0
 40
0.0
 40
0.0
 40
0.0
 40
0.5
 40
0.5
 40
1.0
 40
1.0
 40
1.0
 40
1.0
 10
3.554999999999989
 20
8.89494248294553
 30
0.0
 10
3.554999999999985
 20
8.842776575519713
 30
0.0
 10
3.576202114330861
 20
8.790877355017237
 30
0.0
 10
3.650805904000951
 20
8.716150912229462
 30
0.0
 10
3.702162794002102
 20
8.69482614748356
 30
0.0
 10
3.754999999999987
 20
8.694826147484356
 30
0.0
  0
LINE
  5
88
330
1F
100
AcDbEntity
  8
SK1
  6
Continuous
100
AcDbLine
 10
3.755
 20
8.6948261475
 30
0.0
 11
6.155
 21
8.6948261475
 31
0.0
  0
SPLINE
  5
89
330
1F
100
AcDbEntity
  8
SK1
  6
Continuous
100
AcDbSpline
210
0.0
220
0.0
230
1.0
 70
     8
 71
     3
 72
    10
 73
     6
 74
     0
 42
0.0000000310380488
 43
0.0000000001
 12
1.0
 22
0.0
 32
0.0
 13
1.0
 23
0.0
 33
0.0
 40
0.0
 40
0.0
 40
0.0
 40
0.0
 40
0.5
 40
0.5
 40
1.0
 40
1.0
 40
1.0
 40
1.0
 10
6.154999999999994
 20
8.694826147484356
 30
0.0
 10
6.207876785135052
 20
8.69482614748436
 30
0.0
 10
6.259596680153259
 20
8.716556735558985
 30
0.0
 10
6.333385443828353
 20
8.79046165813882
 30
0.0
 10
6.355000000000105
 20
8.842731421387446
 30
0.0
 10
6.355000000002342
 20
8.894942482945801
 30
0.0
  0
SPLINE
  5
8A
330
1F
100
AcDbEntity
  8
SK1
  6
Continuous
100
AcDbSpline
210
0.0
220
0.0
230
1.0
 70
     8
 71
     3
 72
     8
 73
     4
 74
     0
 42
0.0000000456806314
 43
0.0000000001
 12
1.0
 22
0.0
 32
0.0
 13
1.0
 23
0.0
 33
0.0
 40
0.0
 40
0.0
 40
0.0
 40
0.0
 40
1.0
 40
1.0
 40
1.0
 40
1.0
 10
6.834422863405979
 20
10.36886617313863
 30
0.0
 10
6.773348025217066
 20
10.40414250314187
 30
0.0
 10
6.695496286177636
 20
10.40414168560837
 30
0.0
 10
6.634422863405979
 20
10.36886617313863
 30
0.0
  0
LINE
  5
8B
330
1F
100
AcDbEntity
  8
SK1
  6
Continuous
100
AcDbLine
 10
6.6344228634
 20
10.3688661731
 30
0.0
 11
6.355
 21
10.2074727318
 31
0.0
  0
SPLINE
  5
8C
330
1F
100
AcDbEntity
  8
SK1
  6
Continuous
100
AcDbSpline
210
0.0
220
0.0
230
1.0
 70
     8
 71
     3
 72
    10
 73
     6
 74
     0
 42
0.000000014188687
 43
0.0000000001
 12
1.0
 22
0.0
 32
0.0
 13
1.0
 23
0.0
 33
0.0
 40
0.0
 40
0.0
 40
0.0
 40
0.0
 40
0.5
 40
0.5
 40
1.0
 40
1.0
 40
1.0
 40
1.0
 10
3.554999999999999
 20
10.03536959844471
 30
0.0
 10
3.554999999999999
 20
10.15005147117079
 30
0.0
 10
3.50325266366124
 20
10.26265215586928
 30
0.0
 10
3.331958030469479
 20
10.41180026432715
 30
0.0
 10
3.213336827326037
 20
10.44767619198872
 30
0.0
 10
3.099330759615958
 20
10.43164705965741
 30
0.0
  0
SPLINE
  5
8D
330
1F
100
AcDbEntity
  8
SK1
  6
Continuous
100
AcDbSpline
210
0.0
220
0.0
230
1.0
 70
     8
 71
     3
 72
    11
 73
     7
 74
     0
 42
0.0000000004270909
 43
0.0000000001
 12
1.0
 22
0.0
 32
0.0
 13
1.0
 23
0.0
 33
0.0
 40
0.0
 40
0.0
 40
0.0
 40
0.0
 40
0.7825090911972554
 40
0.7825090911972554
 40
0.7825090911972554
 40
1.0
 40
1.0
 40
1.0
 40
1.0
 10
3.099330759615958
 20
10.43164705965741
 30
0.0
 10
-2.948464760416151
 20
9.581333417143954
 30
0.0
 10
-8.996249679115717
 20
8.730944355506324
 30
0.0
 10
-15.0440087570162
 20
7.880371561186343
 30
0.0
 10
-16.72492548143144
 20
7.643962997801339
 30
0.0
 10
-18.40584010348681
 20
7.407539485342286
 30
0.0
 10
-20.08675193028802
 20
7.171096101462648
 30
0.0
  0
SPLINE
  5
8E
330
1F
100
AcDbEntity
  8
SK1
  6
Continuous
100
AcDbSpline
210
0.0
220
0.0
230
1.0
 70
     8
 71
     3
 72
    10
 73
     6
 74
     0
 42
0.0000000228017479
 43
0.0000000001
 12
1.0
 22
0.0
 32
0.0
 13
1.0
 23
0.0
 33
0.0
 40
0.0
 40
0.0
 40
0.0
 40
0.0
 40
0.5
 40
0.5
 40
1.0
 40
1.0
 40
1.0
 40
1.0
 10
-20.08675193028802
 20
7.171096101462648
 30
0.0
 10
-20.1577597533544
 20
7.161107873823311
 30
0.0
 10
-20.22463515093264
 20
7.124632880157167
 30
0.0
 10
-20.31829328036518
 20
7.016737753295613
 30
0.0
 10
-20.345
 20
6.94503719508685
 30
0.0
 10
-20.345
 20
6.873744593544644
 30
0.0
  0
LINE
  5
8F
330
1F
100
AcDbEntity
  8
SK3
100
AcDbLine
 10
-19.345
 20
4.4899889639
 30
0.0
 11
-8.045
 21
4.4899889639
 31
0.0
  0
LINE
  5
90
330
1F
100
AcDbEntity
  8
SK3
100
AcDbLine
 10
-8.045
 20
4.4899889639
 30
0.0
 11
-7.6753314476
 21
4.2760610756
 31
0.0
  0
SPLINE
  5
91
330
1F
100
AcDbEntity
  8
SK1
  6
Continuous
100
AcDbSpline
210
0.0
220
0.0
230
1.0
 70
     8
 71
     3
 72
    20
 73
    16
 74
     0
 42
0.0000000284496954
 43
0.0000000001
 12
1.0
 22
0.0
 32
0.0
 13
1.0
 23
0.0
 33
0.0
 40
0.0
 40
0.0
 40
0.0
 40
0.0
 40
0.1760428077523521
 40
0.1760428077523521
 40
0.1760428077523521
 40
0.3513480949860006
 40
0.3513480949860006
 40
0.3513480949860006
 40
0.5369900735600168
 40
0.5369900735600168
 40
0.5369900735600168
 40
0.7497882749025448
 40
0.7497882749025448
 40
0.7497882749025448
 40
1.0
 40
1.0
 40
1.0
 40
1.0
 10
9.155000000000003
 20
9.033419346039743
 30
0.0
 10
9.155000000000003
 20
9.033419346039745
 30
0.0
 10
9.150195127906244
 20
9.036036285399193
 30
0.0
 10
9.141239581252643
 20
9.040932327750014
 30
0.0
 10
9.13230517900201
 20
9.045816810349502
 30
0.0
 10
9.119062289291197
 20
9.0530688674186
 30
0.0
 10
9.102928940832076
 20
9.061953840805362
 30
0.0
 10
9.085830612137778
 20
9.071370249047694
 30
0.0
 10
9.065124338328282
 20
9.082821782100483
 30
0.0
 10
9.04251832278569
 20
9.095415024254297
 30
0.0
 10
9.016631449748866
 20
9.109835949522777
 30
0.0
 10
8.987675014816038
 20
9.126078096131568
 30
0.0
 10
8.957743265812432
 20
9.143020520020794
 30
0.0
 10
8.922634835100922
 20
9.162893128037387
 30
0.0
 10
8.885286476852686
 20
9.184240155847903
 30
0.0
 10
8.848508313107848
 20
9.205485311424981
 30
0.0
  0
SPLINE
  5
92
330
1F
100
AcDbEntity
  8
SK1
  6
Continuous
100
AcDbSpline
210
0.0
220
0.0
230
1.0
 70
     8
 71
     3
 72
    14
 73
    10
 74
     0
 42
0.0000000004331216
 43
0.0000000001
 12
1.0
 22
0.0
 32
0.0
 13
1.0
 23
0.0
 33
0.0
 40
0.0
 40
0.0
 40
0.0
 40
0.0
 40
0.1154011834178109
 40
0.1154011834178109
 40
0.1154011834178109
 40
0.6916976664572866
 40
0.6916976664572866
 40
0.6916976664572866
 40
1.0
 40
1.0
 40
1.0
 40
1.0
 10
-19.7964475360134
 20
6.548150611002963
 30
0.0
 10
-18.91571878792014
 20
6.662605794950872
 30
0.0
 10
-18.03498928107512
 20
6.77705599544946
 30
0.0
 10
-17.15425912189382
 20
6.891501910897627
 30
0.0
 10
-12.75602265578287
 20
7.463027926527082
 30
0.0
 10
-8.357770507927368
 20
8.034450936611448
 30
0.0
 10
-3.95951041066288
 20
8.605821706984194
 30
0.0
 10
-1.606565543948987
 20
8.911488923430777
 30
0.0
 10
0.7463817212656053
 20
9.217140380921164
 30
0.0
 10
3.099330759615394
 20
9.522780186686147
 30
0.0
  0
SPLINE
  5
93
330
1F
100
AcDbEntity
  8
SK3
100
AcDbSpline
210
0.0
220
0.0
230
1.0
 70
     8
 71
     3
 72
    18
 73
    14
 74
     0
 42
0.0000000069768291
 43
0.0000000001
 12
1.0
 22
0.0
 32
0.0
 13
1.0
 23
0.0
 33
0.0
 40
0.0
 40
0.0
 40
0.0
 40
0.0
 40
0.2499999999999999
 40
0.2499999999999999
 40
0.3749999999999999
 40
0.3749999999999999
 40
0.4999999999999999
 40
0.4999999999999999
 40
0.6249999999999999
 40
0.6249999999999999
 40
0.7499999999999998
 40
0.7499999999999998
 40
1.0
 40
1.0
 40
1.0
 40
1.0
 10
-15.16456762320276
 20
4.263013942252353
 30
0.0
 10
-15.29795404960822
 20
4.263013942252353
 30
0.0
 10
-15.42857942686621
 20
4.258110887062446
 30
0.0
 10
-15.61829373860263
 20
4.238507191479131
 30
0.0
 10
-15.68163450215752
 20
4.229773391011561
 30
0.0
 10
-15.79220653628085
 20
4.203322131006951
 30
0.0
 10
-15.84461321827708
 20
4.183771703446085
 30
0.0
 10
-15.84538261062333
 20
4.131708896790823
 30
0.0
 10
-15.79347765214685
 20
4.109219432582822
 30
0.0
 10
-15.68269034647982
 20
4.077481710312765
 30
0.0
 10
-15.62102601137231
 20
4.066493495766405
 30
0.0
 10
-15.42937069433156
 20
4.040489961207379
 30
0.0
 10
-15.29809399797156
 20
4.033403882833301
 30
0.0
 10
-15.16456762320276
 20
4.033403882833298
 30
0.0
  0
ARC
  5
94
330
1F
100
AcDbEntity
  8
SK1
  6
Continuous
100
AcDbCircle
 10
-19.9735304567
 20
7.7910824634
 30
0.0
 40
1.25548315423647
100
AcDbArc
 50
264.8259457903
 51
278.1084724815
  0
SPLINE
  5
95
330
1F
100
AcDbEntity
  8
SK1
  6
Continuous
100
AcDbSpline
210
0.0
220
0.0
230
1.0
 70
     8
 71
     3
 72
    14
 73
    10
 74
     0
 42
0.000000029859883
 43
0.0000000001
 12
1.0
 22
0.0
 32
0.0
 13
1.0
 23
0.0
 33
0.0
 40
0.0
 40
0.0
 40
0.0
 40
0.0
 40
0.25
 40
0.25
 40
0.5
 40
0.5
 40
0.75
 40
0.75
 40
1.0
 40
1.0
 40
1.0
 40
1.0
 10
-20.08675193028802
 20
6.540714978039906
 30
0.0
 10
-20.12658142445119
 20
6.544996476725542
 30
0.0
 10
-20.15828732149738
 20
6.546715213670453
 30
0.0
 10
-20.19913724773148
 20
6.55968877915053
 30
0.0
 10
-20.20891119667296
 20
6.571110750461477
 30
0.0
 10
-20.20885294418994
 20
6.606467579634503
 30
0.0
 10
-20.19906890126063
 20
6.630037538077456
 30
0.0
 10
-20.1584094905095
 20
6.677695210812801
 30
0.0
 10
-20.12659614113326
 20
6.701389954101144
 30
0.0
 10
-20.08675193028802
 20
6.714680901299281
 30
0.0
  0
SPLINE
  5
96
330
1F
100
AcDbEntity
  8
SK1
  6
Continuous
100
AcDbSpline
210
0.0
220
0.0
230
1.0
 70
     8
 71
     3
 72
    14
 73
    10
 74
     0
 42
0.0000000004331216
 43
0.0000000001
 12
1.0
 22
0.0
 32
0.0
 13
1.0
 23
0.0
 33
0.0
 40
0.0
 40
0.0
 40
0.0
 40
0.0
 40
0.1154011834175834
 40
0.1154011834175834
 40
0.1154011834175834
 40
0.6916976664572073
 40
0.6916976664572073
 40
0.6916976664572073
 40
1.0
 40
1.0
 40
1.0
 40
1.0
 10
-19.79644753600751
 20
6.777760670422783
 30
0.0
 10
-18.91571878791622
 20
6.892215854370437
 30
0.0
 10
-18.03498928107316
 20
7.006666054868768
 30
0.0
 10
-17.15425912189382
 20
7.121111970316681
 30
0.0
 10
-12.75602265578287
 20
7.692637985946135
 30
0.0
 10
-8.357770507927368
 20
8.264060996030503
 30
0.0
 10
-3.95951041066288
 20
8.835431766403248
 30
0.0
 10
-1.606565543948987
 20
9.141098982849831
 30
0.0
 10
0.7463817212656053
 20
9.446750440340217
 30
0.0
 10
3.099330759615396
 20
9.752390246105202
 30
0.0
  0
ELLIPSE
  5
97
330
1F
100
AcDbEntity
  8
SK1
  6
Continuous
100
AcDbEllipse
 10
2.5873085905
 20
37.0699864289
 30
0.0
 11
-39.69999999918253
 21
3.613558869579963E-9
 31
0.0
210
0.0
220
0.0
230
1.0
 40
0.9238795325
 41
0.9717894048715594
 42
0.9812426312690528
  0
ARC
  5
98
330
1F
100
AcDbEntity
  8
SK1
  6
Continuous
100
AcDbCircle
 10
-19.6096852371
 20
5.2186908336
 30
0.0
 40
1.570216199213161
100
AcDbArc
 50
96.8309597439
 51
107.6873245309
  0
LINE
  5
99
330
1F
100
AcDbEntity
  8
SK1
  6
Continuous
100
AcDbLine
 10
8.8485083131
 20
9.2054853114
 30
0.0
 11
6.8344228634
 21
10.3688661731
 31
0.0
  0
ARC
  5
9A
330
1F
100
AcDbEntity
  8
SK3
100
AcDbCircle
 10
-0.0170532369
 20
17.5042299156
 30
0.0
 40
15.28508017682124
100
AcDbArc
 50
239.931856187
 51
241.3525845063
  0
SPLINE
  5
9B
330
1F
100
AcDbEntity
  8
SK3
100
AcDbSpline
210
0.0
220
0.0
230
1.0
 70
     8
 71
     3
 72
    10
 73
     6
 74
     0
 42
0.0000000213759565
 43
0.0000000001
 12
1.0
 22
0.0
 32
0.0
 13
1.0
 23
0.0
 33
0.0
 40
0.0
 40
0.0
 40
0.0
 40
0.0
 40
0.5000000000000003
 40
0.5000000000000003
 40
1.0
 40
1.0
 40
1.0
 40
1.0
 10
11.15500000000386
 20
1.573212805013596
 30
0.0
 10
11.15499999999984
 20
1.533204700758947
 30
0.0
 10
11.1127544971761
 20
1.493393651090019
 30
0.0
 10
10.96373115798734
 20
1.435936550085467
 30
0.0
 10
10.86088760993815
 20
1.419459582300245
 30
0.0
 10
10.755
 20
1.419459582300393
 30
0.0
  0
SPLINE
  5
9C
330
1F
100
AcDbEntity
  8
SK3
100
AcDbSpline
210
0.0
220
0.0
230
1.0
 70
     8
 71
     3
 72
    10
 73
     6
 74
     0
 42
0.0000000213759565
 43
0.0000000001
 12
1.0
 22
0.0
 32
0.0
 13
1.0
 23
0.0
 33
0.0
 40
0.0
 40
0.0
 40
0.0
 40
0.0
 40
0.4999999999999999
 40
0.4999999999999999
 40
1.0
 40
1.0
 40
1.0
 40
1.0
 10
11.15500000000386
 20
1.018885085506821
 30
0.0
 10
11.15499999999984
 20
0.9788769812521709
 30
0.0
 10
11.11275449717611
 20
0.9390659315832466
 30
0.0
 10
10.96373115798734
 20
0.8816088305786943
 30
0.0
 10
10.86088760993815
 20
0.8651318627934708
 30
0.0
 10
10.755
 20
0.8651318627936169
 30
0.0
  0
LINE
  5
9D
330
1F
100
AcDbEntity
  8
SK1
  6
Continuous
100
AcDbLine
 10
11.03
 20
3.3176702129
 30
0.0
 11
11.03
 21
7.2256265033
 31
0.0
  0
LINE
  5
9E
330
1F
100
AcDbEntity
  8
SK1
  6
Continuous
100
AcDbLine
 10
11.155
 20
2.680428404
 30
0.0
 11
11.155
 21
-2.6804282045
 31
0.0
  0
LINE
  5
9F
330
1F
100
AcDbEntity
  8
SK3
100
AcDbLine
 10
-6.9985898385
 20
0.8651318628
 30
0.0
 11
-6.9985898385
 21
-0.8651316633
 31
0.0
  0
LINE
  5
A0
330
1F
100
AcDbEntity
  8
SK1
  6
Continuous
100
AcDbLine
 10
3.0993307596
 20
4.2691824234
 30
0.0
 11
3.0993307596
 21
7.1641563697
 31
0.0
  0
LINE
  5
A1
330
1F
100
AcDbEntity
  8
SK1
  6
Continuous
100
AcDbLine
 10
3.555
 20
4.1175336043
 30
0.0
 11
3.555
 21
6.8839458896
 31
0.0
  0
LINE
  5
A2
330
1F
100
AcDbEntity
  8
SK1
  6
Continuous
100
AcDbLine
 10
-20.0867519303
 20
2.955277878
 30
0.0
 11
-20.0867519303
 21
4.8585986768
 31
0.0
  0
LINE
  5
A3
330
1F
100
AcDbEntity
  8
SK1
  6
Continuous
100
AcDbLine
 10
6.6344228634
 20
4.2451572182
 30
0.0
 11
6.6344228634
 21
7.1197635791
 31
0.0
  0
LINE
  5
A4
330
1F
100
AcDbEntity
  8
SK1
  6
Continuous
100
AcDbLine
 10
6.8344228634
 20
4.2451572182
 30
0.0
 11
6.8344228634
 21
7.1197635791
 31
0.0
  0
LINE
  5
A5
330
1F
100
AcDbEntity
  8
SK1
  6
Continuous
100
AcDbLine
 10
6.355
 20
4.1833946221
 30
0.0
 11
6.355
 21
7.0056411823
 31
0.0
  0
LINE
  5
A6
330
1F
100
AcDbEntity
  8
SK3
100
AcDbLine
 10
-7.345
 20
1.8403696483
 30
0.0
 11
-7.345
 21
2.7407720449
 31
0.0
  0
LINE
  5
A7
330
1F
100
AcDbEntity
  8
SK3
100
AcDbLine
 10
-8.045
 20
1.9954083093
 30
0.0
 11
-8.045
 21
2.9627696387
 31
0.0
  0
LINE
  5
A8
330
1F
100
AcDbEntity
  8
SK1
  6
Continuous
100
AcDbLine
 10
3.755
 20
3.6045298353
 30
0.0
 11
3.755
 21
5.936038525
 31
0.0
  0
LINE
  5
A9
330
1F
100
AcDbEntity
  8
SK1
  6
Continuous
100
AcDbLine
 10
6.155
 20
3.6045298353
 30
0.0
 11
6.155
 21
5.936038525
 31
0.0
  0
SPLINE
  5
AA
330
1F
100
AcDbEntity
  8
SK1
  6
Continuous
100
AcDbSpline
210
0.0
220
0.0
230
1.0
 70
     8
 71
     3
 72
    10
 73
     6
 74
     0
 42
0.0000000190345776
 43
0.0000000001
 12
1.0
 22
0.0
 32
0.0
 13
1.0
 23
0.0
 33
0.0
 40
0.0
 40
0.0
 40
0.0
 40
0.0
 40
0.5
 40
0.5
 40
1.0
 40
1.0
 40
1.0
 40
1.0
 10
3.099330759615958
 20
3.714854703847603
 30
0.0
 10
3.213332587605502
 20
3.720988559108303
 30
0.0
 10
3.331761943216995
 20
3.707288559279585
 30
0.0
 10
3.503067280621877
 20
3.650281286176033
 30
0.0
 10
3.554999999999999
 20
3.607094629205758
 30
0.0
 10
3.554999999999996
 20
3.563205884821801
 30
0.0
  0
LINE
  5
AB
330
1F
100
AcDbEntity
  8
SK1
  6
Continuous
100
AcDbLine
 10
6.355
 20
3.6290669026
 30
0.0
 11
6.6344228634
 21
3.6908294987
 31
0.0
  0
ARC
  5
AC
330
1F
100
AcDbEntity
  8
SK1
  6
Continuous
100
AcDbCircle
 10
6.7344228634
 20
3.207981983
 30
0.0
 40
0.4930940310552039
100
AcDbArc
 50
78.2991936809
 51
101.7008063191
  0
LINE
  5
AD
330
1F
100
AcDbEntity
  8
SK1
  6
Continuous
100
AcDbLine
 10
6.8344228634
 20
3.6908294987
 30
0.0
 11
11.03
 21
2.7633424933
 31
0.0
  0
SPLINE
  5
AE
330
1F
100
AcDbEntity
  8
SK1
  6
Continuous
100
AcDbSpline
210
0.0
220
0.0
230
1.0
 70
     8
 71
     3
 72
     8
 73
     4
 74
     0
 42
0.0000000587426104
 43
0.0000000001
 12
1.0
 22
0.0
 32
0.0
 13
1.0
 23
0.0
 33
0.0
 40
0.0
 40
0.0
 40
0.0
 40
0.0
 40
1.0
 40
1.0
 40
1.0
 40
1.0
 10
11.03
 20
2.763342493348117
 30
0.0
 10
11.10629747165011
 20
2.746473135638039
 30
0.0
 10
11.155
 20
2.71396999896596
 30
0.0
 10
11.155
 20
2.680428404019603
 30
0.0
  0
LINE
  5
AF
330
1F
100
AcDbEntity
  8
SK3
100
AcDbLine
 10
10.755
 20
0.8651318628
 30
0.0
 11
-6.9985898385
 21
0.8651318628
 31
0.0
  0
LINE
  5
B0
330
1F
100
AcDbEntity
  8
SK3
100
AcDbLine
 10
-6.9985898385
 20
0.8651318628
 30
0.0
 11
-7.345
 21
0.942029861
 31
0.0
  0
LINE
  5
B1
330
1F
100
AcDbEntity
  8
SK3
100
AcDbLine
 10
-7.345
 20
1.2860419288
 30
0.0
 11
-8.045
 21
1.4410805898
 31
0.0
  0
LINE
  5
B2
330
1F
100
AcDbEntity
  8
SK3
100
AcDbLine
 10
-8.045
 20
1.4410805898
 30
0.0
 11
-15.1645676232
 21
1.4410805898
 31
0.0
  0
LINE
  5
B3
330
1F
100
AcDbEntity
  8
SK1
  6
Continuous
100
AcDbLine
 10
6.355
 20
4.1833946221
 30
0.0
 11
6.355
 21
3.6811110414
 31
0.0
  0
SPLINE
  5
B4
330
1F
100
AcDbEntity
  8
SK1
  6
Continuous
100
AcDbSpline
210
0.0
220
0.0
230
1.0
 70
     8
 71
     3
 72
    10
 73
     6
 74
     0
 42
0.0000000427808113
 43
0.0000000001
 12
1.0
 22
0.0
 32
0.0
 13
1.0
 23
0.0
 33
0.0
 40
0.0
 40
0.0
 40
0.0
 40
0.0
 40
0.5
 40
0.5
 40
1.0
 40
1.0
 40
1.0
 40
1.0
 10
6.354999999999985
 20
3.681111041407133
 30
0.0
 10
6.355
 20
3.661148012900981
 30
0.0
 10
6.33379788566912
 20
3.641287041062019
 30
0.0
 10
6.259194095999034
 20
3.612690469447559
 30
0.0
 10
6.20783720599788
 20
3.604529835280222
 30
0.0
 10
6.154999999999994
 20
3.604529835280526
 30
0.0
  0
LINE
  5
B5
330
1F
100
AcDbEntity
  8
SK1
  6
Continuous
100
AcDbLine
 10
6.155
 20
3.6045298353
 30
0.0
 11
3.755
 21
3.6045298353
 31
0.0
  0
SPLINE
  5
B6
330
1F
100
AcDbEntity
  8
SK1
  6
Continuous
100
AcDbSpline
210
0.0
220
0.0
230
1.0
 70
     8
 71
     3
 72
    10
 73
     6
 74
     0
 42
0.0000000427872622
 43
0.0000000001
 12
1.0
 22
0.0
 32
0.0
 13
1.0
 23
0.0
 33
0.0
 40
0.0
 40
0.0
 40
0.0
 40
0.0
 40
0.5
 40
0.5
 40
1.0
 40
1.0
 40
1.0
 40
1.0
 10
3.754999999999987
 20
3.604529835280527
 30
0.0
 10
3.702123214864933
 20
3.604529835280523
 30
0.0
 10
3.650403319846722
 20
3.612845771312239
 30
0.0
 10
3.576614556171628
 20
3.641127960753766
 30
0.0
 10
3.554999999999879
 20
3.661130733162662
 30
0.0
 10
3.554999999997643
 20
3.681111041407235
 30
0.0
  0
LINE
  5
B7
330
1F
100
AcDbEntity
  8
SK1
  6
Continuous
100
AcDbLine
 10
3.555
 20
3.6811110414
 30
0.0
 11
3.555
 21
4.1175336043
 31
0.0
  0
SPLINE
  5
B8
330
1F
100
AcDbEntity
  8
SK1
  6
Continuous
100
AcDbSpline
210
0.0
220
0.0
230
1.0
 70
     8
 71
     3
 72
    10
 73
     6
 74
     0
 42
0.0000000427808113
 43
0.0000000001
 12
1.0
 22
0.0
 32
0.0
 13
1.0
 23
0.0
 33
0.0
 40
0.0
 40
0.0
 40
0.0
 40
0.0
 40
0.5
 40
0.5
 40
1.0
 40
1.0
 40
1.0
 40
1.0
 10
6.354999999999985
 20
3.12678332190036
 30
0.0
 10
6.355
 20
3.106820293394207
 30
0.0
 10
6.333797885669123
 20
3.086959321555246
 30
0.0
 10
6.259194095999034
 20
3.058362749940788
 30
0.0
 10
6.207837205997881
 20
3.050202115773449
 30
0.0
 10
6.154999999999994
 20
3.050202115773754
 30
0.0
  0
LINE
  5
B9
330
1F
100
AcDbEntity
  8
SK1
  6
Continuous
100
AcDbLine
 10
6.155
 20
3.0502021158
 30
0.0
 11
3.755
 21
3.0502021158
 31
0.0
  0
SPLINE
  5
BA
330
1F
100
AcDbEntity
  8
SK1
  6
Continuous
100
AcDbSpline
210
0.0
220
0.0
230
1.0
 70
     8
 71
     3
 72
    10
 73
     6
 74
     0
 42
0.0000000427872622
 43
0.0000000001
 12
1.0
 22
0.0
 32
0.0
 13
1.0
 23
0.0
 33
0.0
 40
0.0
 40
0.0
 40
0.0
 40
0.0
 40
0.5
 40
0.5
 40
1.0
 40
1.0
 40
1.0
 40
1.0
 10
3.754999999999987
 20
3.050202115773753
 30
0.0
 10
3.70212321486493
 20
3.050202115773754
 30
0.0
 10
3.650403319846724
 20
3.058518051805467
 30
0.0
 10
3.576614556171632
 20
3.086800241246995
 30
0.0
 10
3.554999999999881
 20
3.106803013655888
 30
0.0
 10
3.554999999997643
 20
3.126783321900462
 30
0.0
  0
SPLINE
  5
BB
330
1F
100
AcDbEntity
  8
SK1
  6
Continuous
100
AcDbSpline
210
0.0
220
0.0
230
1.0
 70
     8
 71
     3
 72
    10
 73
     6
 74
     0
 42
0.0000000190345776
 43
0.0000000001
 12
1.0
 22
0.0
 32
0.0
 13
1.0
 23
0.0
 33
0.0
 40
0.0
 40
0.0
 40
0.0
 40
0.0
 40
0.5
 40
0.5
 40
1.0
 40
1.0
 40
1.0
 40
1.0
 10
3.099330759615958
 20
4.269182423354374
 30
0.0
 10
3.213332587605493
 20
4.275316278615072
 30
0.0
 10
3.331761943216995
 20
4.261616278786359
 30
0.0
 10
3.50306728062188
 20
4.204609005682807
 30
0.0
 10
3.554999999999999
 20
4.161422348712533
 30
0.0
 10
3.554999999999996
 20
4.117533604328579
 30
0.0
  0
LINE
  5
BC
330
1F
100
AcDbEntity
  8
SK1
  6
Continuous
100
AcDbLine
 10
6.355
 20
4.1833946221
 30
0.0
 11
6.6344228634
 21
4.2451572182
 31
0.0
  0
ARC
  5
BD
330
1F
100
AcDbEntity
  8
SK1
  6
Continuous
100
AcDbCircle
 10
6.7344228634
 20
3.7623097025
 30
0.0
 40
0.4930940310553376
100
AcDbArc
 50
78.2991936809
 51
101.7008063191
  0
LINE
  5
BE
330
1F
100
AcDbEntity
  8
SK1
  6
Continuous
100
AcDbLine
 10
6.8344228634
 20
4.2451572182
 30
0.0
 11
11.03
 21
3.3176702129
 31
0.0
  0
SPLINE
  5
BF
330
1F
100
AcDbEntity
  8
SK1
  6
Continuous
100
AcDbSpline
210
0.0
220
0.0
230
1.0
 70
     8
 71
     3
 72
     8
 73
     4
 74
     0
 42
0.0000000587426104
 43
0.0000000001
 12
1.0
 22
0.0
 32
0.0
 13
1.0
 23
0.0
 33
0.0
 40
0.0
 40
0.0
 40
0.0
 40
0.0
 40
1.0
 40
1.0
 40
1.0
 40
1.0
 10
11.03
 20
3.317670212854891
 30
0.0
 10
11.10629747165015
 20
3.300800855144808
 30
0.0
 10
11.155
 20
3.268297718472749
 30
0.0
 10
11.155
 20
3.234756123526378
 30
0.0
  0
LINE
  5
C0
330
1F
100
AcDbEntity
  8
SK1
  6
Continuous
100
AcDbLine
 10
11.155
 20
3.2347561235
 30
0.0
 11
11.155
 21
2.680428404
 31
0.0
  0
LINE
  5
C1
330
1F
100
AcDbEntity
  8
SK3
100
AcDbLine
 10
10.755
 20
1.4194595823
 30
0.0
 11
-6.9985898385
 21
1.4194595823
 31
0.0
  0
LINE
  5
C2
330
1F
100
AcDbEntity
  8
SK3
100
AcDbLine
 10
-6.9985898385
 20
1.4194595823
 30
0.0
 11
-7.345
 21
1.4963575805
 31
0.0
  0
LINE
  5
C3
330
1F
100
AcDbEntity
  8
SK3
100
AcDbLine
 10
-7.345
 20
1.4963575805
 30
0.0
 11
-7.345
 21
1.8403696483
 31
0.0
  0
LINE
  5
C4
330
1F
100
AcDbEntity
  8
SK3
100
AcDbLine
 10
-7.345
 20
1.8403696483
 30
0.0
 11
-8.045
 21
1.9954083093
 31
0.0
  0
LINE
  5
C5
330
1F
100
AcDbEntity
  8
SK3
100
AcDbLine
 10
-8.045
 20
1.9954083093
 30
0.0
 11
-15.1645676232
 21
1.9954083093
 31
0.0
  0
LINE
  5
C6
330
1F
100
AcDbEntity
  8
SK3
100
AcDbLine
 10
-19.345
 20
3.3870337074
 30
0.0
 11
-19.345
 21
4.4899889639
 31
0.0
  0
LINE
  5
C7
330
1F
100
AcDbEntity
  8
SK3
100
AcDbLine
 10
-20.345
 20
3.7960884505
 30
0.0
 11
-19.345
 21
3.3870337074
 31
0.0
  0
LINE
  5
C8
330
1F
100
AcDbEntity
  8
SK3
100
AcDbLine
 10
-20.345
 20
3.3718243818
 30
0.0
 11
-19.345
 21
2.9627696387
 31
0.0
  0
LINE
  5
C9
330
1F
100
AcDbEntity
  8
SK1
  6
Continuous
100
AcDbLine
 10
-20.0867519303
 20
5.2828627455
 30
0.0
 11
-20.0867519303
 21
6.540714978
 31
0.0
  0
LINE
  5
CA
330
1F
100
AcDbEntity
  8
SK1
  6
Continuous
100
AcDbLine
 10
-20.345
 20
5.0726034778
 30
0.0
 11
-20.345
 21
6.8737445935
 31
0.0
  0
LINE
  5
CB
330
1F
100
AcDbEntity
  8
SK3
100
AcDbLine
 10
-8.045
 20
3.3870337074
 30
0.0
 11
-8.045
 21
4.0334038828
 31
0.0
  0
LINE
  5
CC
330
1F
100
AcDbEntity
  8
SK1
  6
Continuous
100
AcDbLine
 10
3.0993307596
 20
7.5884204384
 30
0.0
 11
3.0993307596
 21
9.5227801867
 31
0.0
  0
LINE
  5
CD
330
1F
100
AcDbEntity
  8
SK1
  6
Continuous
100
AcDbLine
 10
3.555
 20
7.3082099584
 30
0.0
 11
3.555
 21
9.1566675511
 31
0.0
  0
LINE
  5
CE
330
1F
100
AcDbEntity
  8
SK1
  6
Continuous
100
AcDbLine
 10
6.6344228634
 20
7.5440276478
 30
0.0
 11
6.6344228634
 21
9.4647782106
 31
0.0
  0
LINE
  5
CF
330
1F
100
AcDbEntity
  8
SK1
  6
Continuous
100
AcDbLine
 10
6.8344228634
 20
7.5440276478
 30
0.0
 11
6.8344228634
 21
9.4647782106
 31
0.0
  0
LINE
  5
D0
330
1F
100
AcDbEntity
  8
SK1
  6
Continuous
100
AcDbLine
 10
6.355
 20
7.429905251
 30
0.0
 11
6.355
 21
9.3156701134
 31
0.0
  0
LINE
  5
D1
330
1F
100
AcDbEntity
  8
SK3
100
AcDbLine
 10
-7.345
 20
3.0437142424
 30
0.0
 11
-7.345
 21
3.6591074448
 31
0.0
  0
LINE
  5
D2
330
1F
100
AcDbEntity
  8
SK1
  6
Continuous
100
AcDbLine
 10
3.755
 20
6.3603025937
 30
0.0
 11
3.755
 21
7.9181668943
 31
0.0
  0
LINE
  5
D3
330
1F
100
AcDbEntity
  8
SK1
  6
Continuous
100
AcDbLine
 10
6.155
 20
6.3603025937
 30
0.0
 11
6.155
 21
7.9181668943
 31
0.0
  0
SPLINE
  5
D4
330
1F
100
AcDbEntity
  8
SK1
  6
Continuous
100
AcDbSpline
210
0.0
220
0.0
230
1.0
 70
     8
 71
     3
 72
    10
 73
     6
 74
     0
 42
0.0000000360942706
 43
0.0000000001
 12
1.0
 22
0.0
 32
0.0
 13
1.0
 23
0.0
 33
0.0
 40
0.0
 40
0.0
 40
0.0
 40
0.0
 40
0.5
 40
0.5
 40
1.0
 40
1.0
 40
1.0
 40
1.0
 10
3.554999999999989
 20
6.077542142821286
 30
0.0
 10
3.554999999999985
 20
6.040655275933743
 30
0.0
 10
3.576202114330865
 20
6.003956985178144
 30
0.0
 10
3.650805904000951
 20
5.951117410748958
 30
0.0
 10
3.702162794002099
 20
5.936038524989925
 30
0.0
 10
3.754999999999987
 20
5.936038524990488
 30
0.0
  0
LINE
  5
D5
330
1F
100
AcDbEntity
  8
SK1
  6
Continuous
100
AcDbLine
 10
3.755
 20
5.936038525
 30
0.0
 11
6.155
 21
5.936038525
 31
0.0
  0
SPLINE
  5
D6
330
1F
100
AcDbEntity
  8
SK1
  6
Continuous
100
AcDbSpline
210
0.0
220
0.0
230
1.0
 70
     8
 71
     3
 72
    10
 73
     6
 74
     0
 42
0.0000000361028879
 43
0.0000000001
 12
1.0
 22
0.0
 32
0.0
 13
1.0
 23
0.0
 33
0.0
 40
0.0
 40
0.0
 40
0.0
 40
0.0
 40
0.5
 40
0.5
 40
1.0
 40
1.0
 40
1.0
 40
1.0
 10
6.154999999999994
 20
5.936038524990488
 30
0.0
 10
6.207876785135052
 20
5.936038524990492
 30
0.0
 10
6.259596680153259
 20
5.951404371177231
 30
0.0
 10
6.333385443828353
 20
6.0036630430965
 30
0.0
 10
6.355000000000105
 20
6.040623347140618
 30
0.0
 10
6.355000000002342
 20
6.07754214282148
 30
0.0
  0
ARC
  5
D7
330
1F
100
AcDbEntity
  8
SK1
  6
Continuous
100
AcDbCircle
 10
6.7344228634
 20
7.2882684129
 30
0.0
 40
0.274613885724246
100
AcDbArc
 50
68.6448632119
 51
111.3551367881
  0
LINE
  5
D8
330
1F
100
AcDbEntity
  8
SK1
  6
Continuous
100
AcDbLine
 10
6.6344228634
 20
7.5440276478
 30
0.0
 11
6.355
 21
7.429905251
 31
0.0
  0
SPLINE
  5
D9
330
1F
100
AcDbEntity
  8
SK1
  6
Continuous
100
AcDbSpline
210
0.0
220
0.0
230
1.0
 70
     8
 71
     3
 72
    10
 73
     6
 74
     0
 42
0.0000000163110639
 43
0.0000000001
 12
1.0
 22
0.0
 32
0.0
 13
1.0
 23
0.0
 33
0.0
 40
0.0
 40
0.0
 40
0.0
 40
0.0
 40
0.5
 40
0.5
 40
1.0
 40
1.0
 40
1.0
 40
1.0
 10
3.554999999999999
 20
7.308209958351696
 30
0.0
 10
3.554999999999999
 20
7.38930228823548
 30
0.0
 10
3.503252663661244
 20
7.468922995952036
 30
0.0
 10
3.331958030469475
 20
7.574386634843741
 30
0.0
 10
3.213336827326037
 20
7.59975474657459
 30
0.0
 10
3.099330759615958
 20
7.588420438406586
 30
0.0
  0
SPLINE
  5
DA
330
1F
100
AcDbEntity
  8
SK1
  6
Continuous
100
AcDbSpline
210
0.0
220
0.0
230
1.0
 70
     8
 71
     3
 72
    11
 73
     7
 74
     0
 42
0.0000000004291766
 43
0.0000000001
 12
1.0
 22
0.0
 32
0.0
 13
1.0
 23
0.0
 33
0.0
 40
0.0
 40
0.0
 40
0.0
 40
0.0
 40
0.7825090911972554
 40
0.7825090911972554
 40
0.7825090911972554
 40
1.0
 40
1.0
 40
1.0
 40
1.0
 10
3.099330759615958
 20
7.588420438406586
 30
0.0
 10
-2.948464760416153
 20
6.987157895649889
 30
0.0
 10
-8.996249679115717
 20
6.385842023519055
 30
0.0
 10
-15.0440087570162
 20
5.784396232762605
 30
0.0
 10
-16.72492548143144
 20
5.617230134462499
 30
0.0
 10
-18.40584010348681
 20
5.45005346557076
 30
0.0
 10
-20.08675193028802
 20
5.282862745462775
 30
0.0
  0
SPLINE
  5
DB
330
1F
100
AcDbEntity
  8
SK1
  6
Continuous
100
AcDbSpline
210
0.0
220
0.0
230
1.0
 70
     8
 71
     3
 72
    10
 73
     6
 74
     0
 42
0.000000026914303
 43
0.0000000001
 12
1.0
 22
0.0
 32
0.0
 13
1.0
 23
0.0
 33
0.0
 40
0.0
 40
0.0
 40
0.0
 40
0.0
 40
0.5
 40
0.5
 40
1.0
 40
1.0
 40
1.0
 40
1.0
 10
-20.08675193028802
 20
5.282862745462775
 30
0.0
 10
-20.15775975335438
 20
5.275800001966968
 30
0.0
 10
-20.22463515093264
 20
5.250008286601894
 30
0.0
 10
-20.31829328036518
 20
5.173714910741118
 30
0.0
 10
-20.345
 20
5.123014959816831
 30
0.0
 10
-20.345
 20
5.072603477817911
 30
0.0
  0
LINE
  5
DC
330
1F
100
AcDbEntity
  8
SK1
  6
Continuous
100
AcDbLine
 10
-20.345
 20
5.0726034778
 30
0.0
 11
-20.345
 21
4.6483394091
 31
0.0
  0
LINE
  5
DD
330
1F
100
AcDbEntity
  8
SK3
100
AcDbLine
 10
-19.345
 20
3.3870337074
 30
0.0
 11
-8.045
 21
3.3870337074
 31
0.0
  0
LINE
  5
DE
330
1F
100
AcDbEntity
  8
SK3
100
AcDbLine
 10
-8.045
 20
3.3870337074
 30
0.0
 11
-7.6753314476
 21
3.2357638469
 31
0.0
  0
ARC
  5
DF
330
1F
100
AcDbEntity
  8
SK1
  6
Continuous
100
AcDbCircle
 10
6.7344228634
 20
6.8640043442
 30
0.0
 40
0.2746138857196211
100
AcDbArc
 50
68.6448632116
 51
111.3551367884
  0
LINE
  5
E0
330
1F
100
AcDbEntity
  8
SK1
  6
Continuous
100
AcDbLine
 10
6.6344228634
 20
7.1197635791
 30
0.0
 11
6.355
 21
7.0056411823
 31
0.0
  0
SPLINE
  5
E1
330
1F
100
AcDbEntity
  8
SK1
  6
Continuous
100
AcDbSpline
210
0.0
220
0.0
230
1.0
 70
     8
 71
     3
 72
    10
 73
     6
 74
     0
 42
0.0000000163110639
 43
0.0000000001
 12
1.0
 22
0.0
 32
0.0
 13
1.0
 23
0.0
 33
0.0
 40
0.0
 40
0.0
 40
0.0
 40
0.0
 40
0.5
 40
0.5
 40
1.0
 40
1.0
 40
1.0
 40
1.0
 10
3.554999999999999
 20
6.883945889639768
 30
0.0
 10
3.554999999999999
 20
6.965038219523545
 30
0.0
 10
3.503252663661246
 20
7.044658927240105
 30
0.0
 10
3.331958030469475
 20
7.150122566131814
 30
0.0
 10
3.213336827326037
 20
7.175490677862665
 30
0.0
 10
3.099330759615958
 20
7.164156369694659
 30
0.0
  0
SPLINE
  5
E2
330
1F
100
AcDbEntity
  8
SK1
  6
Continuous
100
AcDbSpline
210
0.0
220
0.0
230
1.0
 70
     8
 71
     3
 72
    11
 73
     7
 74
     0
 42
0.0000000004291766
 43
0.0000000001
 12
1.0
 22
0.0
 32
0.0
 13
1.0
 23
0.0
 33
0.0
 40
0.0
 40
0.0
 40
0.0
 40
0.0
 40
0.7825090911972554
 40
0.7825090911972554
 40
0.7825090911972554
 40
1.0
 40
1.0
 40
1.0
 40
1.0
 10
3.099330759615958
 20
7.164156369694659
 30
0.0
 10
-2.948464760416155
 20
6.562893826937962
 30
0.0
 10
-8.996249679115717
 20
5.96157795480713
 30
0.0
 10
-15.0440087570162
 20
5.360132164050681
 30
0.0
 10
-16.72492548143144
 20
5.192966065750576
 30
0.0
 10
-18.40584010348681
 20
5.025789396858836
 30
0.0
 10
-20.08675193028802
 20
4.858598676750849
 30
0.0
  0
SPLINE
  5
E3
330
1F
100
AcDbEntity
  8
SK1
  6
Continuous
100
AcDbSpline
210
0.0
220
0.0
230
1.0
 70
     8
 71
     3
 72
    10
 73
     6
 74
     0
 42
0.000000026914303
 43
0.0000000001
 12
1.0
 22
0.0
 32
0.0
 13
1.0
 23
0.0
 33
0.0
 40
0.0
 40
0.0
 40
0.0
 40
0.0
 40
0.5
 40
0.5
 40
1.0
 40
1.0
 40
1.0
 40
1.0
 10
-20.08675193028802
 20
4.858598676750849
 30
0.0
 10
-20.15775975335443
 20
4.851535933255034
 30
0.0
 10
-20.22463515093262
 20
4.825744217889981
 30
0.0
 10
-20.31829328036519
 20
4.749450842029172
 30
0.0
 10
-20.345
 20
4.698750891104912
 30
0.0
 10
-20.345
 20
4.648339409105981
 30
0.0
  0
LINE
  5
E4
330
1F
100
AcDbEntity
  8
SK3
100
AcDbLine
 10
-19.345
 20
2.9627696387
 30
0.0
 11
-8.045
 21
2.9627696387
 31
0.0
  0
LINE
  5
E5
330
1F
100
AcDbEntity
  8
SK3
100
AcDbLine
 10
-8.045
 20
2.9627696387
 30
0.0
 11
-7.6753314476
 21
2.8114997782
 31
0.0
  0
LINE
  5
E6
330
1F
100
AcDbEntity
  8
SK1
  6
Continuous
100
AcDbLine
 10
3.555
 20
7.3082099584
 30
0.0
 11
3.555
 21
6.8839458896
 31
0.0
  0
SPLINE
  5
E7
330
1F
100
AcDbEntity
  8
SK1
  6
Continuous
100
AcDbSpline
210
0.0
220
0.0
230
1.0
 70
     8
 71
     3
 72
    10
 73
     6
 74
     0
 42
0.0000000360942706
 43
0.0000000001
 12
1.0
 22
0.0
 32
0.0
 13
1.0
 23
0.0
 33
0.0
 40
0.0
 40
0.0
 40
0.0
 40
0.0
 40
0.5
 40
0.5
 40
1.0
 40
1.0
 40
1.0
 40
1.0
 10
3.554999999999989
 20
6.501806211533213
 30
0.0
 10
3.554999999999985
 20
6.464919344645668
 30
0.0
 10
3.576202114330861
 20
6.428221053890074
 30
0.0
 10
3.650805904000951
 20
6.375381479460889
 30
0.0
 10
3.702162794002102
 20
6.360302593701854
 30
0.0
 10
3.754999999999987
 20
6.360302593702416
 30
0.0
  0
LINE
  5
E8
330
1F
100
AcDbEntity
  8
SK1
  6
Continuous
100
AcDbLine
 10
3.755
 20
6.3603025937
 30
0.0
 11
6.155
 21
6.3603025937
 31
0.0
  0
SPLINE
  5
E9
330
1F
100
AcDbEntity
  8
SK1
  6
Continuous
100
AcDbSpline
210
0.0
220
0.0
230
1.0
 70
     8
 71
     3
 72
    10
 73
     6
 74
     0
 42
0.0000000361028879
 43
0.0000000001
 12
1.0
 22
0.0
 32
0.0
 13
1.0
 23
0.0
 33
0.0
 40
0.0
 40
0.0
 40
0.0
 40
0.0
 40
0.5
 40
0.5
 40
1.0
 40
1.0
 40
1.0
 40
1.0
 10
6.154999999999994
 20
6.360302593702417
 30
0.0
 10
6.207876785135052
 20
6.360302593702417
 30
0.0
 10
6.259596680153259
 20
6.375668439889158
 30
0.0
 10
6.333385443828356
 20
6.427927111808428
 30
0.0
 10
6.355000000000103
 20
6.464887415852543
 30
0.0
 10
6.355000000002342
 20
6.501806211533406
 30
0.0
  0
LINE
  5
EA
330
1F
100
AcDbEntity
  8
SK1
  6
Continuous
100
AcDbLine
 10
6.355
 20
7.0056411823
 30
0.0
 11
6.355
 21
7.429905251
 31
0.0
  0
LINE
  5
EB
330
1F
100
AcDbEntity
  8
SK1
  6
Continuous
100
AcDbLine
 10
8.8485083131
 20
6.7213931514
 30
0.0
 11
6.8344228634
 21
7.5440276478
 31
0.0
  0
ELLIPSE
  5
EC
330
1F
100
AcDbEntity
  8
SK1
  6
Continuous
100
AcDbEllipse
 10
-10.4916765899
 20
31.2371763116
 30
0.0
 11
39.69999999999801
 21
4.231802597018853E-12
 31
0.0
210
0.0
220
0.0
230
1.0
 40
0.7071067812
 41
-1.077275951837004
 42
-1.061963454988068
  0
LINE
  5
ED
330
1F
100
AcDbEntity
  8
SK3
100
AcDbLine
 10
-7.345
 20
2.7407528176
 30
0.0
 11
-7.345
 21
3.0437142424
 31
0.0
  0
ARC
  5
EE
330
1F
100
AcDbEntity
  8
SK3
100
AcDbCircle
 10
-8.1509686391
 20
2.0375375835
 30
0.0
 40
1.289176836660551
100
AcDbArc
 50
51.3045391994
 51
68.3493444422
  0
SPLINE
  5
EF
330
1F
100
AcDbEntity
  8
SK1
  6
Continuous
100
AcDbSpline
210
0.0
220
0.0
230
1.0
 70
     8
 71
     3
 72
    35
 73
    31
 74
     0
 42
0.0000000116612459
 43
0.0000000001
 12
1.0
 22
0.0
 32
0.0
 13
1.0
 23
0.0
 33
0.0
 40
0.0
 40
0.0
 40
0.0
 40
0.0
 40
0.1508068214299596
 40
0.1508068214299596
 40
0.1508068214299596
 40
0.2834623920043223
 40
0.2834623920043223
 40
0.2834623920043223
 40
0.3804548413058821
 40
0.3804548413058821
 40
0.3804548413058821
 40
0.4781444349905419
 40
0.4781444349905419
 40
0.4781444349905419
 40
0.5009075360950366
 40
0.5009075360950366
 40
0.5009075360950366
 40
0.5887691747689142
 40
0.5887691747689142
 40
0.5887691747689142
 40
0.676262722509929
 40
0.676262722509929
 40
0.676262722509929
 40
0.768915235000629
 40
0.768915235000629
 40
0.768915235000629
 40
0.8751212136232149
 40
0.8751212136232149
 40
0.8751212136232149
 40
1.0
 40
1.0
 40
1.0
 40
1.0
 10
8.848508313107846
 20
6.721393151399885
 30
0.0
 10
8.892600756233398
 20
6.703382930520011
 30
0.0
 10
8.937671645225286
 20
6.678284354194525
 30
0.0
 10
8.978786224734634
 20
6.648381527162248
 30
0.0
 10
9.01501020795012
 20
6.622035653814168
 30
0.0
 10
9.04942132815671
 20
6.590994870703743
 30
0.0
 10
9.077665002307128
 20
6.557912174470522
 30
0.0
 10
9.09844708316409
 20
6.533569475131069
 30
0.0
 10
9.116414041550088
 20
6.507478113941294
 30
0.0
 10
9.12954611257067
 20
6.481587472016952
 30
0.0
 10
9.142734373148516
 20
6.455586049111855
 30
0.0
 10
9.151350051527153
 20
6.428999259649696
 30
0.0
 10
9.154041183576213
 20
6.404619678857399
 30
0.0
 10
9.154679300690225
 20
6.398838829960948
 30
0.0
 10
9.155000000000006
 20
6.393150688554035
 30
0.0
 10
9.155000000000006
 20
6.387592106108606
 30
0.0
 10
9.155000000000006
 20
6.366444334208403
 30
0.0
 10
9.150195127906242
 20
6.34685348414931
 30
0.0
 10
9.14123958125264
 20
6.330437336619909
 30
0.0
 10
9.132305179002005
 20
6.314059948269816
 30
0.0
 10
9.119062289291183
 20
6.30037924976665
 30
0.0
 10
9.102928940832058
 20
6.290063529612513
 30
0.0
 10
9.08583061213776
 20
6.279130797677743
 30
0.0
 10
9.065124338328266
 20
6.271680349941373
 30
0.0
 10
9.042518322785673
 20
6.267734121223624
 30
0.0
 10
9.016631449748848
 20
6.263215168222016
 30
0.0
 10
8.987675014816022
 20
6.263161608655531
 30
0.0
 10
8.957743265812415
 20
6.267133453499186
 30
0.0
 10
8.922634835100911
 20
6.27179222701334
 30
0.0
 10
8.885286476852679
 20
6.282106489112411
 30
0.0
 10
8.848508313107844
 20
6.297129082687959
 30
0.0
  0
LINE
  5
F0
330
1F
100
AcDbEntity
  8
SK1
  6
Continuous
100
AcDbLine
 10
-19.796447536
 20
2.4827227906
 30
0.0
 11
3.0993307596
 21
3.7148547038
 31
0.0
  0
SPLINE
  5
F1
330
1F
100
AcDbEntity
  8
SK3
100
AcDbSpline
210
0.0
220
0.0
230
1.0
 70
     8
 71
     3
 72
    18
 73
    14
 74
     0
 42
0.0000000062711777
 43
0.0000000001
 12
1.0
 22
0.0
 32
0.0
 13
1.0
 23
0.0
 33
0.0
 40
0.0
 40
0.0
 40
0.0
 40
0.0
 40
0.2500000000000016
 40
0.2500000000000016
 40
0.3750000000000023
 40
0.3750000000000023
 40
0.5000000000000031
 40
0.5000000000000031
 40
0.6250000000000039
 40
0.6250000000000039
 40
0.7500000000000047
 40
0.7500000000000047
 40
1.0
 40
1.0
 40
1.0
 40
1.0
 10
-15.16456762320277
 20
1.995408309329889
 30
0.0
 10
-15.29795404960822
 20
1.995408309329889
 30
0.0
 10
-15.4285794268662
 20
1.981365464630173
 30
0.0
 10
-15.61829373860262
 20
1.928095108597215
 30
0.0
 10
-15.68163450215752
 20
1.904519517830856
 30
0.0
 10
-15.79220653628085
 20
1.835641955440933
 30
0.0
 10
-15.84461321827709
 20
1.785623183435141
 30
0.0
 10
-15.84538261062334
 20
1.659891215452035
 30
0.0
 10
-15.79347765214686
 20
1.608395274296034
 30
0.0
 10
-15.68269034647982
 20
1.536811829177182
 30
0.0
 10
-15.62102601137232
 20
1.512721133831323
 30
0.0
 10
-15.42937069433158
 20
1.455977954264671
 30
0.0
 10
-15.29809399797156
 20
1.441080589823112
 30
0.0
 10
-15.16456762320276
 20
1.441080589823114
 30
0.0
  0
ARC
  5
F2
330
1F
100
AcDbEntity
  8
SK1
  6
Continuous
100
AcDbCircle
 10
-19.8399065684
 20
3.0706414163
 30
0.0
 40
0.5895226865870776
100
AcDbArc
 50
245.2461526885
 51
274.2276235638
  0
SPLINE
  5
F3
330
1F
100
AcDbEntity
  8
SK1
  6
Continuous
100
AcDbSpline
210
0.0
220
0.0
230
1.0
 70
     8
 71
     3
 72
    14
 73
    10
 74
     0
 42
0.0000000192803852
 43
0.0000000001
 12
1.0
 22
0.0
 32
0.0
 13
1.0
 23
0.0
 33
0.0
 40
0.0
 40
0.0
 40
0.0
 40
0.0
 40
0.25
 40
0.25
 40
0.5
 40
0.5
 40
0.75
 40
0.75
 40
1.0
 40
1.0
 40
1.0
 40
1.0
 10
-20.08675193028802
 20
2.5352869867059
 30
0.0
 10
-20.12658142445119
 20
2.554627978325816
 30
0.0
 10
-20.15828732149736
 20
2.580626382144251
 30
0.0
 10
-20.19913724773149
 20
2.646832194864487
 30
0.0
 10
-20.20891119667295
 20
2.686673981680495
 30
0.0
 10
-20.20885294418994
 20
2.771967559079245
 30
0.0
 10
-20.19906890126064
 20
2.816615188063217
 30
0.0
 10
-20.1584094905095
 20
2.89693997137354
 30
0.0
 10
-20.12659614113326
 20
2.932198559578432
 30
0.0
 10
-20.08675193028802
 20
2.955277878029448
 30
0.0
  0
LINE
  5
F4
330
1F
100
AcDbEntity
  8
SK1
  6
Continuous
100
AcDbLine
 10
-19.796447536
 20
3.0370505101
 30
0.0
 11
3.0993307596
 21
4.2691824234
 31
0.0
  0
ELLIPSE
  5
F5
330
1F
100
AcDbEntity
  8
SK1
  6
Continuous
100
AcDbEllipse
 10
2.5873085912
 20
15.5845012541
 30
0.0
 11
-39.69999999999595
 21
3.946259474404188E-12
 31
0.0
210
0.0
220
0.0
230
1.0
 40
0.3826834324
 41
0.9717894047814509
 42
1.02736431455662
  0
ARC
  5
F6
330
1F
100
AcDbEntity
  8
SK1
  6
Continuous
100
AcDbCircle
 10
-19.7711334288
 20
2.3909847351
 30
0.0
 40
0.6465615126674507
100
AcDbArc
 50
92.2438117251
 51
119.2190079416
  0
LINE
  5
F7
330
1F
100
AcDbEntity
  8
SK1
  6
Continuous
100
AcDbLine
 10
8.8485083131
 20
6.2971290827
 30
0.0
 11
6.8344228634
 21
7.1197635791
 31
0.0
  0
ARC
  5
F8
330
1F
100
AcDbEntity
  8
SK3
100
AcDbCircle
 10
-7.3390112794
 20
3.5755068622
 30
0.0
 40
0.8347562997542055
100
AcDbArc
 50
246.2406387351
 51
269.5889442693
  0
SPLINE
  5
F9
330
1F
100
AcDbEntity
  8
SK3
100
AcDbSpline
210
0.0
220
0.0
230
1.0
 70
     8
 71
     3
 72
    10
 73
     6
 74
     0
 42
0.000000021380163
 43
0.0000000001
 12
1.0
 22
0.0
 32
0.0
 13
1.0
 23
0.0
 33
0.0
 40
0.0
 40
0.0
 40
0.0
 40
0.0
 40
0.5
 40
0.5
 40
1.0
 40
1.0
 40
1.0
 40
1.0
 10
11.15500000000028
 20
-1.0188848859656
 30
0.0
 10
11.15499999999999
 20
-0.978807365791818
 30
0.0
 10
11.11148439627334
 20
-0.9384963849534081
 30
0.0
 10
10.96420474956842
 20
-0.8818713100276298
 30
0.0
 10
10.85979089235729
 20
-0.8651316632522364
 30
0.0
 10
10.755
 20
-0.8651316632522382
 30
0.0
  0
SPLINE
  5
FA
330
1F
100
AcDbEntity
  8
SK3
100
AcDbSpline
210
0.0
220
0.0
230
1.0
 70
     8
 71
     3
 72
    10
 73
     6
 74
     0
 42
0.000000021380163
 43
0.0000000001
 12
1.0
 22
0.0
 32
0.0
 13
1.0
 23
0.0
 33
0.0
 40
0.0
 40
0.0
 40
0.0
 40
0.0
 40
0.5
 40
0.5
 40
1.0
 40
1.0
 40
1.0
 40
1.0
 10
11.15500000000028
 20
-1.573212605472372
 30
0.0
 10
11.15499999999999
 20
-1.533135085298588
 30
0.0
 10
11.11148439627334
 20
-1.492824104460177
 30
0.0
 10
10.96420474956841
 20
-1.436199029534398
 30
0.0
 10
10.85979089235728
 20
-1.419459382759007
 30
0.0
 10
10.75499999999999
 20
-1.419459382758962
 30
0.0
  0
LINE
  5
FB
330
1F
100
AcDbEntity
  8
SK1
  6
Continuous
100
AcDbLine
 10
11.03
 20
-2.7633422938
 30
0.0
 11
11.03
 21
2.7633424933
 31
0.0
  0
LINE
  5
FC
330
1F
100
AcDbEntity
  8
SK1
  6
Continuous
100
AcDbLine
 10
11.155
 20
-3.234755924
 30
0.0
 11
11.155
 21
-7.0254539848
 31
0.0
  0
LINE
  5
FD
330
1F
100
AcDbEntity
  8
SK3
100
AcDbLine
 10
-6.9985898385
 20
-1.4194593828
 30
0.0
 11
-6.9985898385
 21
-2.6429404553
 31
0.0
  0
LINE
  5
FE
330
1F
100
AcDbEntity
  8
SK1
  6
Continuous
100
AcDbLine
 10
3.0993307596
 20
-3.7148545043
 30
0.0
 11
3.0993307596
 21
-0.2999999002
 31
0.0
  0
LINE
  5
FF
330
1F
100
AcDbEntity
  8
SK1
  6
Continuous
100
AcDbLine
 10
3.555
 20
-3.5632056853
 30
0.0
 11
3.555
 21
-0.2999999002
 31
0.0
  0
LINE
  5
100
330
1F
100
AcDbEntity
  8
SK1
  6
Continuous
100
AcDbLine
 10
-20.0867519303
 20
-2.5352867872
 30
0.0
 11
-20.0867519303
 21
-0.2999999002
 31
0.0
  0
LINE
  5
101
330
1F
100
AcDbEntity
  8
SK1
  6
Continuous
100
AcDbLine
 10
6.6344228634
 20
-3.6908292992
 30
0.0
 11
6.6344228634
 21
-0.2999999002
 31
0.0
  0
LINE
  5
102
330
1F
100
AcDbEntity
  8
SK1
  6
Continuous
100
AcDbLine
 10
6.8344228634
 20
-3.6908292992
 30
0.0
 11
6.8344228634
 21
-0.2999999002
 31
0.0
  0
LINE
  5
103
330
1F
100
AcDbEntity
  8
SK1
  6
Continuous
100
AcDbLine
 10
6.355
 20
-3.6290667031
 30
0.0
 11
6.355
 21
-0.2999999002
 31
0.0
  0
LINE
  5
104
330
1F
100
AcDbEntity
  8
SK3
100
AcDbLine
 10
-7.345
 20
-1.2860417293
 30
0.0
 11
-7.345
 21
-0.2142123824
 31
0.0
  0
LINE
  5
105
330
1F
100
AcDbEntity
  8
SK3
100
AcDbLine
 10
-8.045
 20
-1.4410803903
 30
0.0
 11
-8.045
 21
-0.2999999002
 31
0.0
  0
LINE
  5
106
330
1F
100
AcDbEntity
  8
SK1
  6
Continuous
100
AcDbLine
 10
3.755
 20
-3.0502019162
 30
0.0
 11
3.755
 21
-0.2999999002
 31
0.0
  0
LINE
  5
107
330
1F
100
AcDbEntity
  8
SK1
  6
Continuous
100
AcDbLine
 10
6.155
 20
-3.0502019162
 30
0.0
 11
6.155
 21
-0.2999999002
 31
0.0
  0
SPLINE
  5
108
330
1F
100
AcDbEntity
  8
SK1
  6
Continuous
100
AcDbSpline
210
0.0
220
0.0
230
1.0
 70
     8
 71
     3
 72
    10
 73
     6
 74
     0
 42
0.0000000190350074
 43
0.0000000001
 12
1.0
 22
0.0
 32
0.0
 13
1.0
 23
0.0
 33
0.0
 40
0.0
 40
0.0
 40
0.0
 40
0.0
 40
0.5
 40
0.5
 40
1.0
 40
1.0
 40
1.0
 40
1.0
 10
3.099330759615958
 20
-4.269182223812995
 30
0.0
 10
3.211662709280635
 20
-4.275226231462227
 30
0.0
 10
3.33214625358603
 20
-4.261543254917225
 30
0.0
 10
3.503261414269274
 20
-4.204488948525866
 30
0.0
 10
3.554999999999997
 20
-4.161458225895785
 30
0.0
 10
3.554999999999996
 20
-4.117533404787194
 30
0.0
  0
LINE
  5
109
330
1F
100
AcDbEntity
  8
SK1
  6
Continuous
100
AcDbLine
 10
6.355
 20
-4.1833944226
 30
0.0
 11
6.6344228634
 21
-4.2451570187
 31
0.0
  0
ARC
  5
10A
330
1F
100
AcDbEntity
  8
SK1
  6
Continuous
100
AcDbCircle
 10
6.7344228634
 20
-3.7628737165
 30
0.0
 40
0.4925415551722572
100
AcDbArc
 50
258.2858832066
 51
281.7141167934
  0
SPLINE
  5
10B
330
1F
100
AcDbEntity
  8
SK1
  6
Continuous
100
AcDbSpline
210
0.0
220
0.0
230
1.0
 70
     8
 71
     3
 72
     8
 73
     4
 74
     0
 42
0.0000000023272749
 43
0.0000000001
 12
1.0
 22
0.0
 32
0.0
 13
1.0
 23
0.0
 33
0.0
 40
0.0
 40
0.0
 40
0.0
 40
0.0
 40
1.0
 40
1.0
 40
1.0
 40
1.0
 10
6.834422863405979
 20
-4.245157018673064
 30
0.0
 10
8.232993216536647
 20
-3.936024245361299
 30
0.0
 10
9.631532561912927
 20
-3.626870920614441
 30
0.0
 10
11.03
 20
-3.31767001331351
 30
0.0
  0
SPLINE
  5
10C
330
1F
100
AcDbEntity
  8
SK1
  6
Continuous
100
AcDbSpline
210
0.0
220
0.0
230
1.0
 70
     8
 71
     3
 72
    10
 73
     6
 74
     0
 42
0.0000000616158575
 43
0.0000000001
 12
1.0
 22
0.0
 32
0.0
 13
1.0
 23
0.0
 33
0.0
 40
0.0
 40
0.0
 40
0.0
 40
0.0
 40
0.5
 40
0.5
 40
1.0
 40
1.0
 40
1.0
 40
1.0
 10
11.03
 20
-3.31767001331351
 30
0.0
 10
11.06799689725411
 20
-3.309268905940099
 30
0.0
 10
11.09965472780036
 20
-3.297134632442027
 30
0.0
 10
11.14345795263913
 20
-3.268052628539663
 30
0.0
 10
11.15500000000001
 20
-3.251364529747819
 30
0.0
 10
11.155
 20
-3.234755923984998
 30
0.0
  0
LINE
  5
10D
330
1F
100
AcDbEntity
  8
SK1
  6
Continuous
100
AcDbLine
 10
11.155
 20
-3.234755924
 30
0.0
 11
11.155
 21
-2.6804282045
 31
0.0
  0
LINE
  5
10E
330
1F
100
AcDbEntity
  8
SK3
100
AcDbLine
 10
10.755
 20
-1.4194593828
 30
0.0
 11
-6.9985898385
 21
-1.4194593828
 31
0.0
  0
LINE
  5
10F
330
1F
100
AcDbEntity
  8
SK3
100
AcDbLine
 10
-6.9985898385
 20
-1.4194593828
 30
0.0
 11
-7.345
 21
-1.496357381
 31
0.0
  0
LINE
  5
110
330
1F
100
AcDbEntity
  8
SK3
100
AcDbLine
 10
-7.345
 20
-1.496357381
 30
0.0
 11
-7.345
 21
-1.8403694488
 31
0.0
  0
LINE
  5
111
330
1F
100
AcDbEntity
  8
SK3
100
AcDbLine
 10
-7.345
 20
-1.8403694488
 30
0.0
 11
-8.045
 21
-1.9954081098
 31
0.0
  0
LINE
  5
112
330
1F
100
AcDbEntity
  8
SK3
100
AcDbLine
 10
-8.045
 20
-1.9954081098
 30
0.0
 11
-15.1645676232
 21
-1.9954081098
 31
0.0
  0
SPLINE
  5
113
330
1F
100
AcDbEntity
  8
SK1
  6
Continuous
100
AcDbSpline
210
0.0
220
0.0
230
1.0
 70
     8
 71
     3
 72
    10
 73
     6
 74
     0
 42
0.0000000427791171
 43
0.0000000001
 12
1.0
 22
0.0
 32
0.0
 13
1.0
 23
0.0
 33
0.0
 40
0.0
 40
0.0
 40
0.0
 40
0.0
 40
0.5
 40
0.5
 40
1.0
 40
1.0
 40
1.0
 40
1.0
 10
6.354999999999985
 20
-3.12678312235898
 30
0.0
 10
6.354999999999996
 20
-3.106640111211846
 30
0.0
 10
6.33323338845161
 20
-3.086716112447159
 30
0.0
 10
6.259491392687909
 20
-3.058503235356103
 30
0.0
 10
6.207718345166866
 20
-3.050201916232374
 30
0.0
 10
6.154999999999994
 20
-3.050201916232374
 30
0.0
  0
LINE
  5
114
330
1F
100
AcDbEntity
  8
SK1
  6
Continuous
100
AcDbLine
 10
6.155
 20
-3.0502019162
 30
0.0
 11
3.755
 21
-3.0502019162
 31
0.0
  0
SPLINE
  5
115
330
1F
100
AcDbEntity
  8
SK1
  6
Continuous
100
AcDbSpline
210
0.0
220
0.0
230
1.0
 70
     8
 71
     3
 72
    10
 73
     6
 74
     0
 42
0.0000000427814578
 43
0.0000000001
 12
1.0
 22
0.0
 32
0.0
 13
1.0
 23
0.0
 33
0.0
 40
0.0
 40
0.0
 40
0.0
 40
0.0
 40
0.5
 40
0.5
 40
1.0
 40
1.0
 40
1.0
 40
1.0
 10
3.754999999999987
 20
-3.050201916232374
 30
0.0
 10
3.702834989257369
 20
-3.050201916232372
 30
0.0
 10
3.650952867567218
 20
-3.058328372438203
 30
0.0
 10
3.576273880841231
 20
-3.08690952280437
 30
0.0
 10
3.554999999999949
 20
-3.106806898732172
 30
0.0
 10
3.554999999999191
 20
-3.126783122359011
 30
0.0
  0
LINE
  5
116
330
1F
100
AcDbEntity
  8
SK1
  6
Continuous
100
AcDbLine
 10
6.355
 20
-4.1833944226
 30
0.0
 11
6.355
 21
-3.6811108419
 31
0.0
  0
SPLINE
  5
117
330
1F
100
AcDbEntity
  8
SK1
  6
Continuous
100
AcDbSpline
210
0.0
220
0.0
230
1.0
 70
     8
 71
     3
 72
    10
 73
     6
 74
     0
 42
0.0000000427791171
 43
0.0000000001
 12
1.0
 22
0.0
 32
0.0
 13
1.0
 23
0.0
 33
0.0
 40
0.0
 40
0.0
 40
0.0
 40
0.0
 40
0.5
 40
0.5
 40
1.0
 40
1.0
 40
1.0
 40
1.0
 10
6.354999999999985
 20
-3.681110841865751
 30
0.0
 10
6.354999999999996
 20
-3.660967830718618
 30
0.0
 10
6.333233388451609
 20
-3.64104383195393
 30
0.0
 10
6.259491392687909
 20
-3.612830954862875
 30
0.0
 10
6.207718345166866
 20
-3.604529635739146
 30
0.0
 10
6.154999999999994
 20
-3.604529635739146
 30
0.0
  0
LINE
  5
118
330
1F
100
AcDbEntity
  8
SK1
  6
Continuous
100
AcDbLine
 10
6.155
 20
-3.6045296357
 30
0.0
 11
3.755
 21
-3.6045296357
 31
0.0
  0
SPLINE
  5
119
330
1F
100
AcDbEntity
  8
SK1
  6
Continuous
100
AcDbSpline
210
0.0
220
0.0
230
1.0
 70
     8
 71
     3
 72
    10
 73
     6
 74
     0
 42
0.0000000427814578
 43
0.0000000001
 12
1.0
 22
0.0
 32
0.0
 13
1.0
 23
0.0
 33
0.0
 40
0.0
 40
0.0
 40
0.0
 40
0.0
 40
0.5
 40
0.5
 40
1.0
 40
1.0
 40
1.0
 40
1.0
 10
3.754999999999987
 20
-3.604529635739146
 30
0.0
 10
3.702834989257369
 20
-3.604529635739144
 30
0.0
 10
3.650952867567218
 20
-3.612656091944975
 30
0.0
 10
3.576273880841231
 20
-3.64123724231114
 30
0.0
 10
3.554999999999949
 20
-3.661134618238944
 30
0.0
 10
3.554999999999191
 20
-3.681110841865783
 30
0.0
  0
LINE
  5
11A
330
1F
100
AcDbEntity
  8
SK1
  6
Continuous
100
AcDbLine
 10
3.555
 20
-3.6811108419
 30
0.0
 11
3.555
 21
-4.1175334048
 31
0.0
  0
SPLINE
  5
11B
330
1F
100
AcDbEntity
  8
SK1
  6
Continuous
100
AcDbSpline
210
0.0
220
0.0
230
1.0
 70
     8
 71
     3
 72
    10
 73
     6
 74
     0
 42
0.0000000190350074
 43
0.0000000001
 12
1.0
 22
0.0
 32
0.0
 13
1.0
 23
0.0
 33
0.0
 40
0.0
 40
0.0
 40
0.0
 40
0.0
 40
0.5
 40
0.5
 40
1.0
 40
1.0
 40
1.0
 40
1.0
 10
3.099330759615958
 20
-3.714854504306223
 30
0.0
 10
3.211662709280635
 20
-3.720898511955455
 30
0.0
 10
3.33214625358603
 20
-3.707215535410453
 30
0.0
 10
3.503261414269272
 20
-3.650161229019095
 30
0.0
 10
3.554999999999999
 20
-3.607130506389014
 30
0.0
 10
3.554999999999996
 20
-3.563205685280423
 30
0.0
  0
LINE
  5
11C
330
1F
100
AcDbEntity
  8
SK1
  6
Continuous
100
AcDbLine
 10
6.355
 20
-3.6290667031
 30
0.0
 11
6.6344228634
 21
-3.6908292992
 31
0.0
  0
ARC
  5
11D
330
1F
100
AcDbEntity
  8
SK1
  6
Continuous
100
AcDbCircle
 10
6.7344228634
 20
-3.208545997
 30
0.0
 40
0.4925415551722881
100
AcDbArc
 50
258.2858832066
 51
281.7141167934
  0
SPLINE
  5
11E
330
1F
100
AcDbEntity
  8
SK1
  6
Continuous
100
AcDbSpline
210
0.0
220
0.0
230
1.0
 70
     8
 71
     3
 72
     8
 73
     4
 74
     0
 42
0.0000000023272749
 43
0.0000000001
 12
1.0
 22
0.0
 32
0.0
 13
1.0
 23
0.0
 33
0.0
 40
0.0
 40
0.0
 40
0.0
 40
0.0
 40
1.0
 40
1.0
 40
1.0
 40
1.0
 10
6.834422863405979
 20
-3.690829299166293
 30
0.0
 10
8.232993216536647
 20
-3.381696525854526
 30
0.0
 10
9.63153256191293
 20
-3.072543201107669
 30
0.0
 10
11.03
 20
-2.763342293806739
 30
0.0
  0
SPLINE
  5
11F
330
1F
100
AcDbEntity
  8
SK1
  6
Continuous
100
AcDbSpline
210
0.0
220
0.0
230
1.0
 70
     8
 71
     3
 72
    10
 73
     6
 74
     0
 42
0.0000000616158575
 43
0.0000000001
 12
1.0
 22
0.0
 32
0.0
 13
1.0
 23
0.0
 33
0.0
 40
0.0
 40
0.0
 40
0.0
 40
0.0
 40
0.5
 40
0.5
 40
1.0
 40
1.0
 40
1.0
 40
1.0
 10
11.03
 20
-2.763342293806739
 30
0.0
 10
11.06799689725411
 20
-2.754941186433328
 30
0.0
 10
11.09965472780036
 20
-2.742806912935256
 30
0.0
 10
11.14345795263913
 20
-2.713724909032891
 30
0.0
 10
11.15500000000001
 20
-2.697036810241047
 30
0.0
 10
11.155
 20
-2.680428204478226
 30
0.0
  0
LINE
  5
120
330
1F
100
AcDbEntity
  8
SK3
100
AcDbLine
 10
10.755
 20
-0.8651316633
 30
0.0
 11
-6.9985898385
 21
-0.8651316633
 31
0.0
  0
LINE
  5
121
330
1F
100
AcDbEntity
  8
SK3
100
AcDbLine
 10
-6.9985898385
 20
-0.8651316633
 30
0.0
 11
-7.345
 21
-0.9420296615
 31
0.0
  0
LINE
  5
122
330
1F
100
AcDbEntity
  8
SK3
100
AcDbLine
 10
-7.345
 20
-1.2860417293
 30
0.0
 11
-8.045
 21
-1.4410803903
 31
0.0
  0
LINE
  5
123
330
1F
100
AcDbEntity
  8
SK3
100
AcDbLine
 10
-8.045
 20
-1.4410803903
 30
0.0
 11
-15.1645676232
 21
-1.4410803903
 31
0.0
  0
LINE
  5
124
330
1F
100
AcDbEntity
  8
SK3
100
AcDbLine
 10
-19.345
 20
0.3000000998
 30
0.0
 11
-19.345
 21
2.9627696387
 31
0.0
  0
LINE
  5
125
330
1F
100
AcDbEntity
  8
SK1
  6
Continuous
100
AcDbLine
 10
-20.0867519303
 20
0.3000000998
 30
0.0
 11
-20.0867519303
 21
2.5352869867
 31
0.0
  0
LINE
  5
126
330
1F
100
AcDbEntity
  8
SK1
  6
Continuous
100
AcDbLine
 10
-20.345
 20
0.3000000998
 30
0.0
 11
-20.345
 21
4.6483394091
 31
0.0
  0
LINE
  5
127
330
1F
100
AcDbEntity
  8
SK3
100
AcDbLine
 10
-8.045
 20
0.3000000998
 30
0.0
 11
-8.045
 21
1.4410805898
 31
0.0
  0
LINE
  5
128
330
1F
100
AcDbEntity
  8
SK1
  6
Continuous
100
AcDbLine
 10
3.0993307596
 20
0.3000000998
 30
0.0
 11
3.0993307596
 21
3.7148547038
 31
0.0
  0
LINE
  5
129
330
1F
100
AcDbEntity
  8
SK1
  6
Continuous
100
AcDbLine
 10
3.555
 20
0.3000000998
 30
0.0
 11
3.555
 21
3.5632058848
 31
0.0
  0
LINE
  5
12A
330
1F
100
AcDbEntity
  8
SK1
  6
Continuous
100
AcDbLine
 10
6.6344228634
 20
0.3000000998
 30
0.0
 11
6.6344228634
 21
3.6908294987
 31
0.0
  0
LINE
  5
12B
330
1F
100
AcDbEntity
  8
SK1
  6
Continuous
100
AcDbLine
 10
6.8344228634
 20
0.3000000998
 30
0.0
 11
6.8344228634
 21
3.6908294987
 31
0.0
  0
LINE
  5
12C
330
1F
100
AcDbEntity
  8
SK1
  6
Continuous
100
AcDbLine
 10
6.355
 20
0.3000000998
 30
0.0
 11
6.355
 21
3.6290669026
 31
0.0
  0
LINE
  5
12D
330
1F
100
AcDbEntity
  8
SK3
100
AcDbLine
 10
-7.345
 20
0.214212582
 30
0.0
 11
-7.345
 21
1.2860419288
 31
0.0
  0
LINE
  5
12E
330
1F
100
AcDbEntity
  8
SK1
  6
Continuous
100
AcDbLine
 10
3.755
 20
0.3000000998
 30
0.0
 11
3.755
 21
3.0502021158
 31
0.0
  0
LINE
  5
12F
330
1F
100
AcDbEntity
  8
SK1
  6
Continuous
100
AcDbLine
 10
6.155
 20
0.3000000998
 30
0.0
 11
6.155
 21
3.0502021158
 31
0.0
  0
LINE
  5
130
330
1F
100
AcDbEntity
  8
SK1
  6
Continuous
100
AcDbLine
 10
3.555
 20
-0.2999999002
 30
0.0
 11
3.755
 21
-0.2999999002
 31
0.0
  0
LINE
  5
131
330
1F
100
AcDbEntity
  8
SK1
  6
Continuous
100
AcDbLine
 10
3.755
 20
-0.2999999002
 30
0.0
 11
6.155
 21
-0.2999999002
 31
0.0
  0
LINE
  5
132
330
1F
100
AcDbEntity
  8
SK1
  6
Continuous
100
AcDbLine
 10
6.155
 20
-0.2999999002
 30
0.0
 11
6.355
 21
-0.2999999002
 31
0.0
  0
LINE
  5
133
330
1F
100
AcDbEntity
  8
SK1
  6
Continuous
100
AcDbLine
 10
6.8344228634
 20
0.3000000998
 30
0.0
 11
6.6344228634
 21
0.3000000998
 31
0.0
  0
LINE
  5
134
330
1F
100
AcDbEntity
  8
SK1
  6
Continuous
100
AcDbLine
 10
6.6344228634
 20
0.3000000998
 30
0.0
 11
6.355
 21
0.3000000998
 31
0.0
  0
LINE
  5
135
330
1F
100
AcDbEntity
  8
SK1
  6
Continuous
100
AcDbLine
 10
3.555
 20
0.3000000998
 30
0.0
 11
3.0993307596
 21
0.3000000998
 31
0.0
  0
LINE
  5
136
330
1F
100
AcDbEntity
  8
SK1
  6
Continuous
100
AcDbLine
 10
3.0993307596
 20
0.3000000998
 30
0.0
 11
-20.0867519303
 21
0.3000000998
 31
0.0
  0
LINE
  5
137
330
1F
100
AcDbEntity
  8
SK1
  6
Continuous
100
AcDbLine
 10
-20.0867519303
 20
0.3000000998
 30
0.0
 11
-20.345
 21
0.3000000998
 31
0.0
  0
LINE
  5
138
330
1F
100
AcDbEntity
  8
SK1
  6
Continuous
100
AcDbLine
 10
6.8344228634
 20
-0.2999999002
 30
0.0
 11
6.6344228634
 21
-0.2999999002
 31
0.0
  0
LINE
  5
139
330
1F
100
AcDbEntity
  8
SK1
  6
Continuous
100
AcDbLine
 10
6.6344228634
 20
-0.2999999002
 30
0.0
 11
6.355
 21
-0.2999999002
 31
0.0
  0
LINE
  5
13A
330
1F
100
AcDbEntity
  8
SK1
  6
Continuous
100
AcDbLine
 10
3.555
 20
-0.2999999002
 30
0.0
 11
3.0993307596
 21
-0.2999999002
 31
0.0
  0
LINE
  5
13B
330
1F
100
AcDbEntity
  8
SK1
  6
Continuous
100
AcDbLine
 10
3.0993307596
 20
-0.2999999002
 30
0.0
 11
-20.0867519303
 21
-0.2999999002
 31
0.0
  0
LINE
  5
13C
330
1F
100
AcDbEntity
  8
SK1
  6
Continuous
100
AcDbLine
 10
-20.0867519303
 20
-0.2999999002
 30
0.0
 11
-20.345
 21
-0.2999999002
 31
0.0
  0
LINE
  5
13D
330
1F
100
AcDbEntity
  8
SK1
  6
Continuous
100
AcDbLine
 10
3.555
 20
0.3000000998
 30
0.0
 11
3.755
 21
0.3000000998
 31
0.0
  0
LINE
  5
13E
330
1F
100
AcDbEntity
  8
SK1
  6
Continuous
100
AcDbLine
 10
3.755
 20
0.3000000998
 30
0.0
 11
6.155
 21
0.3000000998
 31
0.0
  0
LINE
  5
13F
330
1F
100
AcDbEntity
  8
SK1
  6
Continuous
100
AcDbLine
 10
6.155
 20
0.3000000998
 30
0.0
 11
6.355
 21
0.3000000998
 31
0.0
  0
LINE
  5
140
330
1F
100
AcDbEntity
  8
SK1
  6
Continuous
100
AcDbLine
 10
8.8485083131
 20
0.3000000998
 30
0.0
 11
6.8344228634
 21
0.3000000998
 31
0.0
  0
LINE
  5
141
330
1F
100
AcDbEntity
  8
SK1
  6
Continuous
100
AcDbLine
 10
-7.345
 20
-0.2142123824
 30
0.0
 11
-7.345
 21
0.214212582
 31
0.0
  0
ARC
  5
142
330
1F
100
AcDbEntity
  8
SK1
  6
Continuous
100
AcDbCircle
 10
-7.6611244537
 20
-0.3241718807
 30
0.0
 40
0.6243336446980622
100
AcDbArc
 50
59.5797235177
 51
91.303903873
  0
ARC
  5
143
330
1F
100
AcDbEntity
  8
SK1
  6
Continuous
100
AcDbCircle
 10
8.8549155214
 20
0.0000000998
 30
0.0
 40
0.3000684127302601
100
AcDbArc
 50
268.7764993546
 51
91.2235006453
  0
LINE
  5
144
330
1F
100
AcDbEntity
  8
SK1
  6
Continuous
100
AcDbLine
 10
-19.796447536
 20
-3.0370503105
 30
0.0
 11
3.0993307596
 21
-4.2691822238
 31
0.0
  0
ELLIPSE
  5
145
330
1F
100
AcDbEntity
  8
SK1
  6
Continuous
100
AcDbEllipse
 10
2.5873085915
 20
-15.5845010548
 30
0.0
 11
-39.70000000042166
 21
1.314715847072032E-10
 31
0.0
210
0.0
220
0.0
230
1.0
 40
0.3826834324
 41
-1.027443847308789
 42
-0.9717894047768798
  0
SPLINE
  5
146
330
1F
100
AcDbEntity
  8
SK3
100
AcDbSpline
210
0.0
220
0.0
230
1.0
 70
     8
 71
     3
 72
    18
 73
    14
 74
     0
 42
0.0000000062711854
 43
0.0000000001
 12
1.0
 22
0.0
 32
0.0
 13
1.0
 23
0.0
 33
0.0
 40
0.0
 40
0.0
 40
0.0
 40
0.0
 40
0.2499999999999983
 40
0.2499999999999983
 40
0.3749999999999975
 40
0.3749999999999975
 40
0.4999999999999967
 40
0.4999999999999967
 40
0.6249999999999959
 40
0.6249999999999959
 40
0.7499999999999952
 40
0.7499999999999952
 40
1.0
 40
1.0
 40
1.0
 40
1.0
 10
-15.16456762320276
 20
-1.441080390281735
 30
0.0
 10
-15.2979540496082
 20
-1.441080390281735
 30
0.0
 10
-15.4285794268662
 20
-1.456036916520453
 30
0.0
 10
-15.61829373860262
 20
-1.51176888091139
 30
0.0
 10
-15.68163450215751
 20
-1.536376000646573
 30
0.0
 10
-15.79220653628084
 20
-1.607332323516991
 30
0.0
 10
-15.84461321827708
 20
-1.658519121699957
 30
0.0
 10
-15.84538261062334
 20
-1.784268169390262
 30
0.0
 10
-15.79347765214686
 20
-1.834604963572257
 30
0.0
 10
-15.68269034647984
 20
-1.904101520230667
 30
0.0
 10
-15.62102601137233
 20
-1.92718269376942
 30
0.0
 10
-15.42937069433158
 20
-1.981426133325723
 30
0.0
 10
-15.29809399797156
 20
-1.995408109788513
 30
0.0
 10
-15.16456762320276
 20
-1.995408109788507
 30
0.0
  0
ARC
  5
147
330
1F
100
AcDbEntity
  8
SK1
  6
Continuous
100
AcDbCircle
 10
-19.7714034403
 20
-2.3919431143
 30
0.0
 40
0.6455931391545046
100
AcDbArc
 50
240.7603779378
 51
267.7768023954
  0
SPLINE
  5
148
330
1F
100
AcDbEntity
  8
SK1
  6
Continuous
100
AcDbSpline
210
0.0
220
0.0
230
1.0
 70
     8
 71
     3
 72
    14
 73
    10
 74
     0
 42
0.0000000192805447
 43
0.0000000001
 12
1.0
 22
0.0
 32
0.0
 13
1.0
 23
0.0
 33
0.0
 40
0.0
 40
0.0
 40
0.0
 40
0.0
 40
0.2499999999999999
 40
0.2499999999999999
 40
0.4999999999999999
 40
0.4999999999999999
 40
0.7499999999999999
 40
0.7499999999999999
 40
1.0
 40
1.0
 40
1.0
 40
1.0
 10
-20.08675193028802
 20
-2.955277678488067
 30
0.0
 10
-20.12658142445119
 20
-2.932206884515074
 30
0.0
 10
-20.15828732149738
 20
-2.897158326179907
 30
0.0
 10
-20.19913724773148
 20
-2.816502733403093
 30
0.0
 10
-20.20891119667296
 20
-2.771579909449667
 30
0.0
 10
-20.20885294418995
 20
-2.686313404682062
 30
0.0
 10
-20.19906890126063
 20
-2.646742080688077
 30
0.0
 10
-20.1584094905095
 20
-2.580803355471289
 30
0.0
 10
-20.12659614113327
 20
-2.554634925130148
 30
0.0
 10
-20.08675193028802
 20
-2.535286787164526
 30
0.0
  0
LINE
  5
149
330
1F
100
AcDbEntity
  8
SK1
  6
Continuous
100
AcDbLine
 10
-19.796447536
 20
-2.482722591
 30
0.0
 11
3.0993307596
 21
-3.7148545043
 31
0.0
  0
ARC
  5
14A
330
1F
100
AcDbEntity
  8
SK1
  6
Continuous
100
AcDbCircle
 10
-19.8397445024
 20
-3.0715362838
 30
0.0
 40
0.5904034146916096
100
AcDbArc
 50
85.7944647339
 51
114.7317590126
  0
LINE
  5
14B
330
1F
100
AcDbEntity
  8
SK1
  6
Continuous
100
AcDbLine
 10
8.8485083131
 20
-0.2999999002
 30
0.0
 11
6.8344228634
 21
-0.2999999002
 31
0.0
  0
ARC
  5
14C
330
1F
100
AcDbEntity
  8
SK1
  6
Continuous
100
AcDbCircle
 10
-7.6676074373
 20
0.3491353083
 30
0.0
 40
0.6491811606107443
100
AcDbArc
 50
269.3182740663
 51
299.7980985424
  0
ARC
  5
14D
330
1F
100
AcDbEntity
  8
SK3
100
AcDbCircle
 10
10.7688390011
 20
-3.0291452583
 30
0.0
 40
0.3864526722095487
100
AcDbArc
 50
2.2262047929
 51
92.0522200495
  0
ARC
  5
14E
330
1F
100
AcDbEntity
  8
SK3
100
AcDbCircle
 10
10.7688390011
 20
-3.2587553177
 30
0.0
 40
0.3864526722095488
100
AcDbArc
 50
2.2262047929
 51
92.0522200495
  0
LINE
  5
14F
330
1F
100
AcDbEntity
  8
SK1
  6
Continuous
100
AcDbLine
 10
11.03
 20
-7.2256263038
 30
0.0
 11
11.03
 21
-3.3176700133
 31
0.0
  0
LINE
  5
150
330
1F
100
AcDbEntity
  8
SK1
  6
Continuous
100
AcDbLine
 10
11.155
 20
-7.7343810408
 30
0.0
 11
11.155
 21
-7.2550640442
 31
0.0
  0
LINE
  5
151
330
1F
100
AcDbEntity
  8
SK3
100
AcDbLine
 10
-6.9985898385
 20
-2.9999999002
 30
0.0
 11
-6.9985898385
 21
-2.8725505147
 31
0.0
  0
LINE
  5
152
330
1F
100
AcDbEntity
  8
SK1
  6
Continuous
100
AcDbLine
 10
3.0993307596
 20
-9.5227799871
 30
0.0
 11
3.0993307596
 21
-7.5884202389
 31
0.0
  0
LINE
  5
153
330
1F
100
AcDbEntity
  8
SK1
  6
Continuous
100
AcDbLine
 10
3.555
 20
-9.1566673515
 30
0.0
 11
3.555
 21
-7.3082097588
 31
0.0
  0
LINE
  5
154
330
1F
100
AcDbEntity
  8
SK1
  6
Continuous
100
AcDbLine
 10
-20.0867519303
 20
-6.5407147785
 30
0.0
 11
-20.0867519303
 21
-5.2828625459
 31
0.0
  0
LINE
  5
155
330
1F
100
AcDbEntity
  8
SK1
  6
Continuous
100
AcDbLine
 10
6.6344228634
 20
-9.4647780111
 30
0.0
 11
6.6344228634
 21
-7.5440274483
 31
0.0
  0
LINE
  5
156
330
1F
100
AcDbEntity
  8
SK1
  6
Continuous
100
AcDbLine
 10
6.8344228634
 20
-9.4647780111
 30
0.0
 11
6.8344228634
 21
-7.5440274483
 31
0.0
  0
LINE
  5
157
330
1F
100
AcDbEntity
  8
SK1
  6
Continuous
100
AcDbLine
 10
6.355
 20
-9.3156699139
 30
0.0
 11
6.355
 21
-7.4299050514
 31
0.0
  0
LINE
  5
158
330
1F
100
AcDbEntity
  8
SK3
100
AcDbLine
 10
-7.345
 20
-3.6591072452
 30
0.0
 11
-7.345
 21
-3.0437140429
 31
0.0
  0
LINE
  5
159
330
1F
100
AcDbEntity
  8
SK3
100
AcDbLine
 10
-8.045
 20
-4.0334036833
 30
0.0
 11
-8.045
 21
-3.3870335079
 31
0.0
  0
LINE
  5
15A
330
1F
100
AcDbEntity
  8
SK1
  6
Continuous
100
AcDbLine
 10
3.755
 20
-7.9181666947
 30
0.0
 11
3.755
 21
-6.3603023942
 31
0.0
  0
LINE
  5
15B
330
1F
100
AcDbEntity
  8
SK1
  6
Continuous
100
AcDbLine
 10
6.155
 20
-7.9181666947
 30
0.0
 11
6.155
 21
-6.3603023942
 31
0.0
  0
ARC
  5
15C
330
1F
100
AcDbEntity
  8
SK1
  6
Continuous
100
AcDbCircle
 10
3.1648834537
 20
-9.3673552259
 30
0.0
 40
0.3905751769059508
100
AcDbArc
 50
260.3379590525
 51
357.2231059151
  0
LINE
  5
15D
330
1F
100
AcDbEntity
  8
SK1
  6
Continuous
100
AcDbLine
 10
6.355
 20
-9.5452799733
 30
0.0
 11
6.6344228634
 21
-9.6943880705
 31
0.0
  0
ARC
  5
15E
330
1F
100
AcDbEntity
  8
SK1
  6
Continuous
100
AcDbCircle
 10
6.7344228634
 20
-9.5028907726
 30
0.0
 40
0.2160352172652715
100
AcDbArc
 50
242.4264103557
 51
297.5735896443
  0
LINE
  5
15F
330
1F
100
AcDbEntity
  8
SK1
  6
Continuous
100
AcDbLine
 10
6.8344228634
 20
-9.6943880705
 30
0.0
 11
11.03
 21
-7.4552363632
 31
0.0
  0
ARC
  5
160
330
1F
100
AcDbEntity
  8
SK1
  6
Continuous
100
AcDbCircle
 10
10.92361756
 20
-7.2496895431
 30
0.0
 40
0.2314448504484338
100
AcDbArc
 50
297.3641944883
 51
358.6693853238
  0
LINE
  5
161
330
1F
100
AcDbEntity
  8
SK1
  6
Continuous
100
AcDbLine
 10
11.155
 20
-7.2550640442
 30
0.0
 11
11.155
 21
-7.0254539848
 31
0.0
  0
LINE
  5
162
330
1F
100
AcDbEntity
  8
SK3
100
AcDbLine
 10
10.755
 20
-2.8725505147
 30
0.0
 11
-6.9985898385
 21
-2.8725505147
 31
0.0
  0
LINE
  5
163
330
1F
100
AcDbEntity
  8
SK3
100
AcDbLine
 10
-6.9985898385
 20
-2.8725505147
 30
0.0
 11
-7.345
 21
-3.0581987049
 31
0.0
  0
LINE
  5
164
330
1F
100
AcDbEntity
  8
SK3
100
AcDbLine
 10
-7.345
 20
-3.6591072452
 30
0.0
 11
-7.345
 21
-3.8887173046
 31
0.0
  0
LINE
  5
165
330
1F
100
AcDbEntity
  8
SK3
100
AcDbLine
 10
-7.345
 20
-3.8887173046
 30
0.0
 11
-8.045
 21
-4.2630137427
 31
0.0
  0
LINE
  5
166
330
1F
100
AcDbEntity
  8
SK3
100
AcDbLine
 10
-8.045
 20
-4.2630137427
 30
0.0
 11
-15.1645676232
 21
-4.2630137427
 31
0.0
  0
ARC
  5
167
330
1F
100
AcDbEntity
  8
SK1
  6
Continuous
100
AcDbCircle
 10
6.1622772448
 20
-8.1109124304
 30
0.0
 40
0.1928830653693288
100
AcDbArc
 50
2.3361525744
 51
92.1622136513
  0
LINE
  5
168
330
1F
100
AcDbEntity
  8
SK1
  6
Continuous
100
AcDbLine
 10
6.155
 20
-7.9181666947
 30
0.0
 11
3.755
 21
-7.9181666947
 31
0.0
  0
ARC
  5
169
330
1F
100
AcDbEntity
  8
SK1
  6
Continuous
100
AcDbCircle
 10
3.7477231138
 20
-8.1109128184
 30
0.0
 40
0.1928834395199221
100
AcDbArc
 50
87.837897152
 51
177.6637366217
  0
LINE
  5
16A
330
1F
100
AcDbEntity
  8
SK1
  6
Continuous
100
AcDbLine
 10
6.355
 20
-9.5452799733
 30
0.0
 11
6.355
 21
-9.3156699139
 31
0.0
  0
ARC
  5
16B
330
1F
100
AcDbEntity
  8
SK1
  6
Continuous
100
AcDbCircle
 10
6.1622772448
 20
-8.3405224898
 30
0.0
 40
0.1928830653693288
100
AcDbArc
 50
2.3361525744
 51
92.1622136513
  0
LINE
  5
16C
330
1F
100
AcDbEntity
  8
SK1
  6
Continuous
100
AcDbLine
 10
6.155
 20
-8.1477767542
 30
0.0
 11
3.755
 21
-8.1477767542
 31
0.0
  0
ARC
  5
16D
330
1F
100
AcDbEntity
  8
SK1
  6
Continuous
100
AcDbCircle
 10
3.7477231138
 20
-8.3405228778
 30
0.0
 40
0.1928834395199232
100
AcDbArc
 50
87.837897152
 51
177.6637366217
  0
LINE
  5
16E
330
1F
100
AcDbEntity
  8
SK1
  6
Continuous
100
AcDbLine
 10
3.555
 20
-9.1566673515
 30
0.0
 11
3.555
 21
-9.386277411
 31
0.0
  0
ARC
  5
16F
330
1F
100
AcDbEntity
  8
SK1
  6
Continuous
100
AcDbCircle
 10
3.1648834537
 20
-9.1377451665
 30
0.0
 40
0.3905751769059453
100
AcDbArc
 50
260.3379590525
 51
357.2231059151
  0
LINE
  5
170
330
1F
100
AcDbEntity
  8
SK1
  6
Continuous
100
AcDbLine
 10
6.355
 20
-9.3156699139
 30
0.0
 11
6.6344228634
 21
-9.4647780111
 31
0.0
  0
ARC
  5
171
330
1F
100
AcDbEntity
  8
SK1
  6
Continuous
100
AcDbCircle
 10
6.7344228634
 20
-9.2732807132
 30
0.0
 40
0.2160352172659383
100
AcDbArc
 50
242.4264103558
 51
297.5735896442
  0
LINE
  5
172
330
1F
100
AcDbEntity
  8
SK1
  6
Continuous
100
AcDbLine
 10
6.8344228634
 20
-9.4647780111
 30
0.0
 11
11.03
 21
-7.2256263038
 31
0.0
  0
ARC
  5
173
330
1F
100
AcDbEntity
  8
SK1
  6
Continuous
100
AcDbCircle
 10
10.92361756
 20
-7.0200794837
 30
0.0
 40
0.2314448504483781
100
AcDbArc
 50
297.3641944883
 51
358.6693853238
  0
LINE
  5
174
330
1F
100
AcDbEntity
  8
SK3
100
AcDbLine
 10
10.755
 20
-2.6429404553
 30
0.0
 11
-6.9985898385
 21
-2.6429404553
 31
0.0
  0
LINE
  5
175
330
1F
100
AcDbEntity
  8
SK3
100
AcDbLine
 10
-6.9985898385
 20
-2.6429404553
 30
0.0
 11
-7.345
 21
-2.8285886455
 31
0.0
  0
LINE
  5
176
330
1F
100
AcDbEntity
  8
SK3
100
AcDbLine
 10
-7.345
 20
-3.6591072452
 30
0.0
 11
-8.045
 21
-4.0334036833
 31
0.0
  0
LINE
  5
177
330
1F
100
AcDbEntity
  8
SK3
100
AcDbLine
 10
-8.045
 20
-4.0334036833
 30
0.0
 11
-15.1645676232
 21
-4.0334036833
 31
0.0
  0
LINE
  5
178
330
1F
100
AcDbEntity
  8
SK3
100
AcDbLine
 10
-19.345
 20
-2.9627694392
 30
0.0
 11
-19.345
 21
-0.2999999002
 31
0.0
  0
LINE
  5
179
330
1F
100
AcDbEntity
  8
SK3
100
AcDbLine
 10
-20.345
 20
-3.3718241823
 30
0.0
 11
-19.345
 21
-2.9627694392
 31
0.0
  0
LINE
  5
17A
330
1F
100
AcDbEntity
  8
SK3
100
AcDbLine
 10
-20.345
 20
-3.796088251
 30
0.0
 11
-19.345
 21
-3.3870335079
 31
0.0
  0
LINE
  5
17B
330
1F
100
AcDbEntity
  8
SK1
  6
Continuous
100
AcDbLine
 10
-20.0867519303
 20
-4.8585984772
 30
0.0
 11
-20.0867519303
 21
-2.9552776785
 31
0.0
  0
LINE
  5
17C
330
1F
100
AcDbEntity
  8
SK1
  6
Continuous
100
AcDbLine
 10
-20.345
 20
-4.6483392096
 30
0.0
 11
-20.345
 21
-0.2999999002
 31
0.0
  0
LINE
  5
17D
330
1F
100
AcDbEntity
  8
SK3
100
AcDbLine
 10
-8.045
 20
-2.9627694392
 30
0.0
 11
-8.045
 21
-1.9954081098
 31
0.0
  0
LINE
  5
17E
330
1F
100
AcDbEntity
  8
SK1
  6
Continuous
100
AcDbLine
 10
3.0993307596
 20
-7.1641561702
 30
0.0
 11
3.0993307596
 21
-4.2691822238
 31
0.0
  0
LINE
  5
17F
330
1F
100
AcDbEntity
  8
SK1
  6
Continuous
100
AcDbLine
 10
3.555
 20
-6.8839456901
 30
0.0
 11
3.555
 21
-4.1175334048
 31
0.0
  0
LINE
  5
180
330
1F
100
AcDbEntity
  8
SK1
  6
Continuous
100
AcDbLine
 10
6.6344228634
 20
-7.1197633796
 30
0.0
 11
6.6344228634
 21
-4.2451570187
 31
0.0
  0
LINE
  5
181
330
1F
100
AcDbEntity
  8
SK1
  6
Continuous
100
AcDbLine
 10
6.8344228634
 20
-7.1197633796
 30
0.0
 11
6.8344228634
 21
-4.2451570187
 31
0.0
  0
LINE
  5
182
330
1F
100
AcDbEntity
  8
SK1
  6
Continuous
100
AcDbLine
 10
6.355
 20
-7.0056409827
 30
0.0
 11
6.355
 21
-4.1833944226
 31
0.0
  0
LINE
  5
183
330
1F
100
AcDbEntity
  8
SK3
100
AcDbLine
 10
-7.345
 20
-2.7407718453
 30
0.0
 11
-7.345
 21
-1.8403694488
 31
0.0
  0
LINE
  5
184
330
1F
100
AcDbEntity
  8
SK1
  6
Continuous
100
AcDbLine
 10
3.755
 20
-5.9360383254
 30
0.0
 11
3.755
 21
-3.6045296357
 31
0.0
  0
LINE
  5
185
330
1F
100
AcDbEntity
  8
SK1
  6
Continuous
100
AcDbLine
 10
6.155
 20
-5.9360383254
 30
0.0
 11
6.155
 21
-3.6045296357
 31
0.0
  0
LINE
  5
186
330
1F
100
AcDbEntity
  8
SK1
  6
Continuous
100
AcDbLine
 10
3.555
 20
-7.3082097588
 30
0.0
 11
3.555
 21
-6.8839456901
 31
0.0
  0
SPLINE
  5
187
330
1F
100
AcDbEntity
  8
SK1
  6
Continuous
100
AcDbSpline
210
0.0
220
0.0
230
1.0
 70
     8
 71
     3
 72
    10
 73
     6
 74
     0
 42
0.0000000360942706
 43
0.0000000001
 12
1.0
 22
0.0
 32
0.0
 13
1.0
 23
0.0
 33
0.0
 40
0.0
 40
0.0
 40
0.0
 40
0.0
 40
0.5
 40
0.5
 40
1.0
 40
1.0
 40
1.0
 40
1.0
 10
3.554999999999989
 20
-6.501806011991825
 30
0.0
 10
3.554999999999984
 20
-6.464919145104279
 30
0.0
 10
3.576202114330861
 20
-6.428220854348681
 30
0.0
 10
3.650805904000951
 20
-6.375381279919497
 30
0.0
 10
3.7021627940021
 20
-6.360302394160463
 30
0.0
 10
3.754999999999987
 20
-6.360302394161028
 30
0.0
  0
LINE
  5
188
330
1F
100
AcDbEntity
  8
SK1
  6
Continuous
100
AcDbLine
 10
3.755
 20
-6.3603023942
 30
0.0
 11
6.155
 21
-6.3603023942
 31
0.0
  0
SPLINE
  5
189
330
1F
100
AcDbEntity
  8
SK1
  6
Continuous
100
AcDbSpline
210
0.0
220
0.0
230
1.0
 70
     8
 71
     3
 72
    10
 73
     6
 74
     0
 42
0.0000000361028879
 43
0.0000000001
 12
1.0
 22
0.0
 32
0.0
 13
1.0
 23
0.0
 33
0.0
 40
0.0
 40
0.0
 40
0.0
 40
0.0
 40
0.5
 40
0.5
 40
1.0
 40
1.0
 40
1.0
 40
1.0
 10
6.154999999999994
 20
-6.360302394161025
 30
0.0
 10
6.207876785135052
 20
-6.360302394161027
 30
0.0
 10
6.259596680153261
 20
-6.375668240347769
 30
0.0
 10
6.333385443828356
 20
-6.427926912267038
 30
0.0
 10
6.355000000000105
 20
-6.464887216311157
 30
0.0
 10
6.355000000002342
 20
-6.501806011992018
 30
0.0
  0
LINE
  5
18A
330
1F
100
AcDbEntity
  8
SK1
  6
Continuous
100
AcDbLine
 10
6.355
 20
-7.0056409827
 30
0.0
 11
6.355
 21
-7.4299050514
 31
0.0
  0
ARC
  5
18B
330
1F
100
AcDbEntity
  8
SK1
  6
Continuous
100
AcDbCircle
 10
6.7344228634
 20
-6.8640041447
 30
0.0
 40
0.274613885724191
100
AcDbArc
 50
248.6448632119
 51
291.3551367881
  0
LINE
  5
18C
330
1F
100
AcDbEntity
  8
SK1
  6
Continuous
100
AcDbLine
 10
6.6344228634
 20
-7.1197633796
 30
0.0
 11
6.355
 21
-7.0056409827
 31
0.0
  0
SPLINE
  5
18D
330
1F
100
AcDbEntity
  8
SK1
  6
Continuous
100
AcDbSpline
210
0.0
220
0.0
230
1.0
 70
     8
 71
     3
 72
    10
 73
     6
 74
     0
 42
0.0000000163110639
 43
0.0000000001
 12
1.0
 22
0.0
 32
0.0
 13
1.0
 23
0.0
 33
0.0
 40
0.0
 40
0.0
 40
0.0
 40
0.0
 40
0.5
 40
0.5
 40
1.0
 40
1.0
 40
1.0
 40
1.0
 10
3.554999999999999
 20
-6.883945690098379
 30
0.0
 10
3.554999999999996
 20
-6.965038019982194
 30
0.0
 10
3.503252663661228
 20
-7.044658727698728
 30
0.0
 10
3.331958030469475
 20
-7.150122366590423
 30
0.0
 10
3.213336827326045
 20
-7.175490478321277
 30
0.0
 10
3.099330759615958
 20
-7.164156170153269
 30
0.0
  0
SPLINE
  5
18E
330
1F
100
AcDbEntity
  8
SK1
  6
Continuous
100
AcDbSpline
210
0.0
220
0.0
230
1.0
 70
     8
 71
     3
 72
    11
 73
     7
 74
     0
 42
0.0000000004291766
 43
0.0000000001
 12
1.0
 22
0.0
 32
0.0
 13
1.0
 23
0.0
 33
0.0
 40
0.0
 40
0.0
 40
0.0
 40
0.0
 40
0.7825090911972554
 40
0.7825090911972554
 40
0.7825090911972554
 40
1.0
 40
1.0
 40
1.0
 40
1.0
 10
3.099330759615958
 20
-7.164156170153269
 30
0.0
 10
-2.948464760416153
 20
-6.562893627396573
 30
0.0
 10
-8.996249679115717
 20
-5.96157775526574
 30
0.0
 10
-15.0440087570162
 20
-5.360131964509291
 30
0.0
 10
-16.72492548143144
 20
-5.192965866209185
 30
0.0
 10
-18.40584010348681
 20
-5.025789197317446
 30
0.0
 10
-20.08675193028802
 20
-4.85859847720946
 30
0.0
  0
SPLINE
  5
18F
330
1F
100
AcDbEntity
  8
SK1
  6
Continuous
100
AcDbSpline
210
0.0
220
0.0
230
1.0
 70
     8
 71
     3
 72
    10
 73
     6
 74
     0
 42
0.000000026914303
 43
0.0000000001
 12
1.0
 22
0.0
 32
0.0
 13
1.0
 23
0.0
 33
0.0
 40
0.0
 40
0.0
 40
0.0
 40
0.0
 40
0.5
 40
0.5
 40
1.0
 40
1.0
 40
1.0
 40
1.0
 10
-20.08675193028802
 20
-4.85859847720946
 30
0.0
 10
-20.15775975335443
 20
-4.851535733713645
 30
0.0
 10
-20.22463515093262
 20
-4.825744018348592
 30
0.0
 10
-20.31829328036519
 20
-4.749450642487783
 30
0.0
 10
-20.345
 20
-4.698750691563524
 30
0.0
 10
-20.345
 20
-4.648339209564591
 30
0.0
  0
LINE
  5
190
330
1F
100
AcDbEntity
  8
SK3
100
AcDbLine
 10
-19.345
 20
-2.9627694392
 30
0.0
 11
-8.045
 21
-2.9627694392
 31
0.0
  0
LINE
  5
191
330
1F
100
AcDbEntity
  8
SK3
100
AcDbLine
 10
-8.045
 20
-2.9627694392
 30
0.0
 11
-7.6753314476
 21
-2.8114995786
 31
0.0
  0
ARC
  5
192
330
1F
100
AcDbEntity
  8
SK1
  6
Continuous
100
AcDbCircle
 10
6.7344228634
 20
-7.2882682134
 30
0.0
 40
0.2746138857232276
100
AcDbArc
 50
248.6448632119
 51
291.3551367881
  0
LINE
  5
193
330
1F
100
AcDbEntity
  8
SK1
  6
Continuous
100
AcDbLine
 10
6.6344228634
 20
-7.5440274483
 30
0.0
 11
6.355
 21
-7.4299050514
 31
0.0
  0
SPLINE
  5
194
330
1F
100
AcDbEntity
  8
SK1
  6
Continuous
100
AcDbSpline
210
0.0
220
0.0
230
1.0
 70
     8
 71
     3
 72
    10
 73
     6
 74
     0
 42
0.0000000163110639
 43
0.0000000001
 12
1.0
 22
0.0
 32
0.0
 13
1.0
 23
0.0
 33
0.0
 40
0.0
 40
0.0
 40
0.0
 40
0.0
 40
0.5
 40
0.5
 40
1.0
 40
1.0
 40
1.0
 40
1.0
 10
3.554999999999999
 20
-7.308209758810307
 30
0.0
 10
3.554999999999999
 20
-7.389302088694084
 30
0.0
 10
3.503252663661246
 20
-7.468922796410641
 30
0.0
 10
3.331958030469479
 20
-7.574386435302351
 30
0.0
 10
3.213336827326037
 20
-7.599754547033204
 30
0.0
 10
3.099330759615958
 20
-7.588420238865196
 30
0.0
  0
SPLINE
  5
195
330
1F
100
AcDbEntity
  8
SK1
  6
Continuous
100
AcDbSpline
210
0.0
220
0.0
230
1.0
 70
     8
 71
     3
 72
    11
 73
     7
 74
     0
 42
0.0000000004291766
 43
0.0000000001
 12
1.0
 22
0.0
 32
0.0
 13
1.0
 23
0.0
 33
0.0
 40
0.0
 40
0.0
 40
0.0
 40
0.0
 40
0.7825090911972554
 40
0.7825090911972554
 40
0.7825090911972554
 40
1.0
 40
1.0
 40
1.0
 40
1.0
 10
3.099330759615958
 20
-7.588420238865196
 30
0.0
 10
-2.948464760416151
 20
-6.987157696108499
 30
0.0
 10
-8.996249679115717
 20
-6.385841823977667
 30
0.0
 10
-15.0440087570162
 20
-5.784396033221216
 30
0.0
 10
-16.72492548143144
 20
-5.617229934921109
 30
0.0
 10
-18.40584010348681
 20
-5.450053266029372
 30
0.0
 10
-20.08675193028802
 20
-5.282862545921385
 30
0.0
  0
SPLINE
  5
196
330
1F
100
AcDbEntity
  8
SK1
  6
Continuous
100
AcDbSpline
210
0.0
220
0.0
230
1.0
 70
     8
 71
     3
 72
    10
 73
     6
 74
     0
 42
0.000000026914303
 43
0.0000000001
 12
1.0
 22
0.0
 32
0.0
 13
1.0
 23
0.0
 33
0.0
 40
0.0
 40
0.0
 40
0.0
 40
0.0
 40
0.5
 40
0.5
 40
1.0
 40
1.0
 40
1.0
 40
1.0
 10
-20.08675193028802
 20
-5.282862545921385
 30
0.0
 10
-20.15775975335443
 20
-5.275799802425572
 30
0.0
 10
-20.22463515093262
 20
-5.25000808706052
 30
0.0
 10
-20.31829328036519
 20
-5.17371471119971
 30
0.0
 10
-20.345
 20
-5.123014760275452
 30
0.0
 10
-20.345
 20
-5.07260327827652
 30
0.0
  0
LINE
  5
197
330
1F
100
AcDbEntity
  8
SK1
  6
Continuous
100
AcDbLine
 10
-20.345
 20
-5.0726032783
 30
0.0
 11
-20.345
 21
-4.6483392096
 31
0.0
  0
LINE
  5
198
330
1F
100
AcDbEntity
  8
SK3
100
AcDbLine
 10
-19.345
 20
-3.3870335079
 30
0.0
 11
-8.045
 21
-3.3870335079
 31
0.0
  0
LINE
  5
199
330
1F
100
AcDbEntity
  8
SK3
100
AcDbLine
 10
-8.045
 20
-3.3870335079
 30
0.0
 11
-7.6753314476
 21
-3.2357636474
 31
0.0
  0
SPLINE
  5
19A
330
1F
100
AcDbEntity
  8
SK1
  6
Continuous
100
AcDbSpline
210
0.0
220
0.0
230
1.0
 70
     8
 71
     3
 72
    10
 73
     6
 74
     0
 42
0.0000000360942706
 43
0.0000000001
 12
1.0
 22
0.0
 32
0.0
 13
1.0
 23
0.0
 33
0.0
 40
0.0
 40
0.0
 40
0.0
 40
0.0
 40
0.5
 40
0.5
 40
1.0
 40
1.0
 40
1.0
 40
1.0
 10
3.554999999999989
 20
-6.077541943279895
 30
0.0
 10
3.554999999999985
 20
-6.040655076392349
 30
0.0
 10
3.576202114330865
 20
-6.003956785636754
 30
0.0
 10
3.650805904000951
 20
-5.951117211207572
 30
0.0
 10
3.7021627940021
 20
-5.936038325448536
 30
0.0
 10
3.754999999999987
 20
-5.9360383254491
 30
0.0
  0
LINE
  5
19B
330
1F
100
AcDbEntity
  8
SK1
  6
Continuous
100
AcDbLine
 10
3.755
 20
-5.9360383254
 30
0.0
 11
6.155
 21
-5.9360383254
 31
0.0
  0
SPLINE
  5
19C
330
1F
100
AcDbEntity
  8
SK1
  6
Continuous
100
AcDbSpline
210
0.0
220
0.0
230
1.0
 70
     8
 71
     3
 72
    10
 73
     6
 74
     0
 42
0.0000000361028879
 43
0.0000000001
 12
1.0
 22
0.0
 32
0.0
 13
1.0
 23
0.0
 33
0.0
 40
0.0
 40
0.0
 40
0.0
 40
0.0
 40
0.5
 40
0.5
 40
1.0
 40
1.0
 40
1.0
 40
1.0
 10
6.154999999999994
 20
-5.936038325449099
 30
0.0
 10
6.207876785135052
 20
-5.9360383254491
 30
0.0
 10
6.259596680153259
 20
-5.951404171635842
 30
0.0
 10
6.333385443828353
 20
-6.00366284355511
 30
0.0
 10
6.355000000000105
 20
-6.040623147599232
 30
0.0
 10
6.355000000002342
 20
-6.07754194328009
 30
0.0
  0
LINE
  5
19D
330
1F
100
AcDbEntity
  8
SK1
  6
Continuous
100
AcDbLine
 10
8.8485083131
 20
-6.2971288831
 30
0.0
 11
6.8344228634
 21
-7.1197633796
 31
0.0
  0
LINE
  5
19E
330
1F
100
AcDbEntity
  8
SK3
100
AcDbLine
 10
-7.345
 20
-3.0437140429
 30
0.0
 11
-7.345
 21
-2.7407526198
 31
0.0
  0
ARC
  5
19F
330
1F
100
AcDbEntity
  8
SK3
100
AcDbCircle
 10
-7.3464937398
 20
-3.5405600885
 30
0.0
 40
0.7997896380596089
100
AcDbArc
 50
89.8929905694
 51
114.2774264258
  0
SPLINE
  5
1A0
330
1F
100
AcDbEntity
  8
SK1
  6
Continuous
100
AcDbSpline
210
0.0
220
0.0
230
1.0
 70
     8
 71
     3
 72
    35
 73
    31
 74
     0
 42
0.0000000116555483
 43
0.0000000001
 12
1.0
 22
0.0
 32
0.0
 13
1.0
 23
0.0
 33
0.0
 40
0.0
 40
0.0
 40
0.0
 40
0.0
 40
0.150806821430159
 40
0.150806821430159
 40
0.150806821430159
 40
0.2834623920041309
 40
0.2834623920041309
 40
0.2834623920041309
 40
0.3804548413057903
 40
0.3804548413057903
 40
0.3804548413057903
 40
0.4781444349905484
 40
0.4781444349905484
 40
0.4781444349905484
 40
0.5009075360950304
 40
0.5009075360950304
 40
0.5009075360950304
 40
0.5887691747690073
 40
0.5887691747690073
 40
0.5887691747690073
 40
0.676262722510116
 40
0.676262722510116
 40
0.676262722510116
 40
0.7689152350009193
 40
0.7689152350009193
 40
0.7689152350009193
 40
0.875121213623617
 40
0.875121213623617
 40
0.875121213623617
 40
1.0
 40
1.0
 40
1.0
 40
1.0
 10
8.848508313108308
 20
-6.29712888314638
 30
0.0
 10
8.892600756234327
 20
-6.279118662267057
 30
0.0
 10
8.937671645225766
 20
-6.267869922423627
 30
0.0
 10
8.978786224735101
 20
-6.264990349484735
 30
0.0
 10
9.015010207950425
 20
-6.262453302941863
 30
0.0
 10
9.049421328156853
 20
-6.266370131914885
 30
0.0
 10
9.077665002307157
 20
-6.277349598571074
 30
0.0
 10
9.098447083164116
 20
-6.28542843996405
 30
0.0
 10
9.11641404155011
 20
-6.297557784489125
 30
0.0
 10
9.129546112570688
 20
-6.313272521062959
 30
0.0
 10
9.14273437314853
 20
-6.329054497913609
 30
0.0
 10
9.151350051527162
 20
-6.348999755833793
 30
0.0
 10
9.154041183576219
 20
-6.371303765611403
 30
0.0
 10
9.154679300690228
 20
-6.37659245828449
 30
0.0
 10
9.155000000000005
 20
-6.3820333241218
 30
0.0
 10
9.155000000000005
 20
-6.387591906567218
 30
0.0
 10
9.155000000000005
 20
-6.408739678467422
 30
0.0
 10
9.150195127906231
 20
-6.432031439660564
 30
0.0
 10
9.141239581252629
 20
-6.455371636684458
 30
0.0
 10
9.132305179001994
 20
-6.478656726571919
 30
0.0
 10
9.119062289291179
 20
-6.502593382537315
 30
0.0
 10
9.102928940832054
 20
-6.52547435255633
 30
0.0
 10
9.085830612137757
 20
-6.549723896736246
 30
0.0
 10
9.065124338328262
 20
-6.573369257825837
 30
0.0
 10
9.04251832278567
 20
-6.59512502039176
 30
0.0
 10
9.016631449748845
 20
-6.62003824149002
 30
0.0
 10
8.98767501481602
 20
-6.643061665072713
 30
0.0
 10
8.957743265812415
 20
-6.663050025872669
 30
0.0
 10
8.922634835101057
 20
-6.686495364135205
 30
0.0
 10
8.885286476852992
 20
-6.706370358282051
 30
0.0
 10
8.848508313108304
 20
-6.721392951858308
 30
0.0
  0
SPLINE
  5
1A1
330
1F
100
AcDbEntity
  8
SK1
  6
Continuous
100
AcDbSpline
210
0.0
220
0.0
230
1.0
 70
     8
 71
     3
 72
    11
 73
     7
 74
     0
 42
0.0000000004331216
 43
0.0000000001
 12
1.0
 22
0.0
 32
0.0
 13
1.0
 23
0.0
 33
0.0
 40
0.0
 40
0.0
 40
0.0
 40
0.0
 40
0.5323113677984055
 40
0.5323113677984055
 40
0.5323113677984055
 40
1.0
 40
1.0
 40
1.0
 40
1.0
 10
-19.7964475360004
 20
-6.777760470882318
 30
0.0
 10
-15.73390752944559
 20
-7.305708224095357
 30
0.0
 10
-11.67135193695566
 20
-7.833553609798432
 30
0.0
 10
-7.608788294740497
 20
-8.361346099191898
 30
0.0
 10
-4.039420912747558
 20
-8.825064446032288
 30
0.0
 10
-0.4700470807934859
 20
-9.28874041707293
 30
0.0
 10
3.099330759615958
 20
-9.752390046561759
 30
0.0
  0
ELLIPSE
  5
1A2
330
1F
100
AcDbEntity
  8
SK1
  6
Continuous
100
AcDbEllipse
 10
2.587308591
 20
-37.0699862301
 30
0.0
 11
-39.69999999978918
 21
-9.349510834407961E-10
 31
0.0
210
0.0
220
0.0
230
1.0
 40
0.9238795325
 41
-0.9812135734659106
 42
-0.9717894048048583
  0
SPLINE
  5
1A3
330
1F
100
AcDbEntity
  8
SK3
100
AcDbSpline
210
0.0
220
0.0
230
1.0
 70
     8
 71
     3
 72
    18
 73
    14
 74
     0
 42
0.0000000069767698
 43
0.0000000001
 12
1.0
 22
0.0
 32
0.0
 13
1.0
 23
0.0
 33
0.0
 40
0.0
 40
0.0
 40
0.0
 40
0.0
 40
0.2499999999999999
 40
0.2499999999999999
 40
0.3749999999999999
 40
0.3749999999999999
 40
0.5
 40
0.5
 40
0.625
 40
0.625
 40
0.7500000000000001
 40
0.7500000000000001
 40
1.0
 40
1.0
 40
1.0
 40
1.0
 10
-15.16456762320276
 20
-4.033403683291913
 30
0.0
 10
-15.29795404960821
 20
-4.033403683291918
 30
0.0
 10
-15.4285794268662
 20
-4.040512560844991
 30
0.0
 10
-15.61829373860261
 20
-4.066059104711393
 30
0.0
 10
-15.68163450215751
 20
-4.077283236405457
 30
0.0
 10
-15.79220653628085
 20
-4.108753068155006
 30
0.0
 10
-15.84461321827708
 20
-4.131123360354026
 30
0.0
 10
-15.84538261062333
 20
-4.183227401070053
 30
0.0
 10
-15.79347765214685
 20
-4.202918436932601
 30
0.0
 10
-15.68269034647982
 20
-4.229617964778301
 30
0.0
 10
-15.62102601137231
 20
-4.238168978086431
 30
0.0
 10
-15.42937069433157
 20
-4.258137606410073
 30
0.0
 10
-15.29809399797155
 20
-4.263013742710971
 30
0.0
 10
-15.16456762320276
 20
-4.263013742710965
 30
0.0
  0
ARC
  5
1A4
330
1F
100
AcDbEntity
  8
SK1
  6
Continuous
100
AcDbCircle
 10
-19.6102004587
 20
-5.2210617759
 30
0.0
 40
1.567800625373639
100
AcDbArc
 50
252.3042868781
 51
263.1774288473
  0
SPLINE
  5
1A5
330
1F
100
AcDbEntity
  8
SK1
  6
Continuous
100
AcDbSpline
210
0.0
220
0.0
230
1.0
 70
     8
 71
     3
 72
    14
 73
    10
 74
     0
 42
0.0000000298605485
 43
0.0000000001
 12
1.0
 22
0.0
 32
0.0
 13
1.0
 23
0.0
 33
0.0
 40
0.0
 40
0.0
 40
0.0
 40
0.0
 40
0.25
 40
0.25
 40
0.5
 40
0.5
 40
0.75
 40
0.75
 40
1.0
 40
1.0
 40
1.0
 40
1.0
 10
-20.08675193028802
 20
-6.714680701757891
 30
0.0
 10
-20.12658142445119
 20
-6.701394663646482
 30
0.0
 10
-20.15828732149738
 20
-6.677826920925702
 30
0.0
 10
-20.19913724773148
 20
-6.629968500459727
 30
0.0
 10
-20.20891119667294
 20
-6.606279820380705
 30
0.0
 10
-20.20885294418993
 20
-6.570988350320961
 30
0.0
 10
-20.19906890126063
 20
-6.559673676231565
 30
0.0
 10
-20.1584094905095
 20
-6.546747020054709
 30
0.0
 10
-20.12659614113326
 20
-6.544997859165147
 30
0.0
 10
-20.08675193028802
 20
-6.540714778498518
 30
0.0
  0
SPLINE
  5
1A6
330
1F
100
AcDbEntity
  8
SK1
  6
Continuous
100
AcDbSpline
210
0.0
220
0.0
230
1.0
 70
     8
 71
     3
 72
    11
 73
     7
 74
     0
 42
0.0000000004331216
 43
0.0000000001
 12
1.0
 22
0.0
 32
0.0
 13
1.0
 23
0.0
 33
0.0
 40
0.0
 40
0.0
 40
0.0
 40
0.0
 40
0.5323113677986386
 40
0.5323113677986386
 40
0.5323113677986386
 40
1.0
 40
1.0
 40
1.0
 40
1.0
 10
-19.79644753601181
 20
-6.548150411461783
 30
0.0
 10
-15.7339075294532
 20
-7.076098164675312
 30
0.0
 10
-11.67135193695946
 20
-7.603943550378884
 30
0.0
 10
-7.608788294740497
 20
-8.131736039772843
 30
0.0
 10
-4.03942091274756
 20
-8.595454386613236
 30
0.0
 10
-0.4700470807934877
 20
-9.059130357653878
 30
0.0
 10
3.099330759615958
 20
-9.522779987142705
 30
0.0
  0
ARC
  5
1A7
330
1F
100
AcDbEntity
  8
SK1
  6
Continuous
100
AcDbCircle
 10
-19.9735803015
 20
-7.7930283187
 30
0.0
 40
1.257416804581746
100
AcDbArc
 50
81.9017863047
 51
95.1637954234
  0
LINE
  5
1A8
330
1F
100
AcDbEntity
  8
SK1
  6
Continuous
100
AcDbLine
 10
8.8485083131
 20
-6.7213929519
 30
0.0
 11
6.8344228634
 21
-7.5440274483
 31
0.0
  0
ELLIPSE
  5
1A9
330
1F
100
AcDbEntity
  8
SK1
  6
Continuous
100
AcDbEllipse
 10
-10.4916765899
 20
-31.2371761121
 30
0.0
 11
39.70000000000048
 21
-3.260216644815452E-12
 31
0.0
210
0.0
220
0.0
230
1.0
 40
0.7071067812
 41
1.061963454988043
 42
1.077427019097457
  0
ARC
  5
1AA
330
1F
100
AcDbEntity
  8
SK3
100
AcDbCircle
 10
-8.1813146694
 20
-1.9853412434
 30
0.0
 40
1.348916309140708
100
AcDbArc
 50
292.0307095929
 51
308.3154067651
  0
LINE
  5
1AB
330
1F
100
AcDbEntity
  8
SK1
  6
Continuous
100
AcDbLine
 10
11.03
 20
-7.4552363632
 30
0.0
 11
11.03
 21
-7.9508873918
 31
0.0
  0
LINE
  5
1AC
330
1F
100
AcDbEntity
  8
SK3
100
AcDbLine
 10
-19.345
 20
-4.4899887644
 30
0.0
 11
-19.345
 21
-3.3870335079
 31
0.0
  0
LINE
  5
1AD
330
1F
100
AcDbEntity
  8
SK3
100
AcDbLine
 10
-20.345
 20
-5.0684795299
 30
0.0
 11
-19.345
 21
-4.4899887644
 31
0.0
  0
LINE
  5
1AE
330
1F
100
AcDbEntity
  8
SK1
  6
Continuous
100
AcDbLine
 10
-20.0867519303
 20
-7.1710959019
 30
0.0
 11
-20.0867519303
 21
-6.7146807018
 31
0.0
  0
LINE
  5
1AF
330
1F
100
AcDbEntity
  8
SK1
  6
Continuous
100
AcDbLine
 10
-20.345
 20
-6.873744394
 30
0.0
 11
-20.345
 21
-5.0726032783
 31
0.0
  0
LINE
  5
1B0
330
1F
100
AcDbEntity
  8
SK3
100
AcDbLine
 10
-8.045
 20
-4.4899887644
 30
0.0
 11
-8.045
 21
-4.2630137427
 31
0.0
  0
LINE
  5
1B1
330
1F
100
AcDbEntity
  8
SK1
  6
Continuous
100
AcDbLine
 10
3.0993307596
 20
-10.4316468601
 30
0.0
 11
3.0993307596
 21
-9.7523900466
 31
0.0
  0
LINE
  5
1B2
330
1F
100
AcDbEntity
  8
SK1
  6
Continuous
100
AcDbLine
 10
3.555
 20
-10.0353693989
 30
0.0
 11
3.555
 21
-9.386277411
 31
0.0
  0
LINE
  5
1B3
330
1F
100
AcDbEntity
  8
SK1
  6
Continuous
100
AcDbLine
 10
6.6344228634
 20
-10.3688659736
 30
0.0
 11
6.6344228634
 21
-9.6943880705
 31
0.0
  0
LINE
  5
1B4
330
1F
100
AcDbEntity
  8
SK1
  6
Continuous
100
AcDbLine
 10
6.8344228634
 20
-10.3688659736
 30
0.0
 11
6.8344228634
 21
-9.6943880705
 31
0.0
  0
LINE
  5
1B5
330
1F
100
AcDbEntity
  8
SK1
  6
Continuous
100
AcDbLine
 10
6.355
 20
-10.2074725322
 30
0.0
 11
6.355
 21
-9.5452799733
 31
0.0
  0
LINE
  5
1B6
330
1F
100
AcDbEntity
  8
SK3
100
AcDbLine
 10
-7.345
 20
-4.0902492386
 30
0.0
 11
-7.345
 21
-3.8887173046
 31
0.0
  0
LINE
  5
1B7
330
1F
100
AcDbEntity
  8
SK1
  6
Continuous
100
AcDbLine
 10
3.755
 20
-8.6948259479
 30
0.0
 11
3.755
 21
-8.1477767542
 31
0.0
  0
LINE
  5
1B8
330
1F
100
AcDbEntity
  8
SK1
  6
Continuous
100
AcDbLine
 10
6.155
 20
-8.6948259479
 30
0.0
 11
6.155
 21
-8.1477767542
 31
0.0
  0
SPLINE
  5
1B9
330
1F
100
AcDbEntity
  8
SK1
  6
Continuous
100
AcDbSpline
210
0.0
220
0.0
230
1.0
 70
     8
 71
     3
 72
     8
 73
     4
 74
     0
 42
0.0000000456806314
 43
0.0000000001
 12
1.0
 22
0.0
 32
0.0
 13
1.0
 23
0.0
 33
0.0
 40
0.0
 40
0.0
 40
0.0
 40
0.0
 40
1.0
 40
1.0
 40
1.0
 40
1.0
 10
6.834422863405979
 20
-10.36886597359724
 30
0.0
 10
6.773348025216803
 20
-10.40414230360063
 30
0.0
 10
6.695496286177952
 20
-10.40414148606716
 30
0.0
 10
6.634422863405979
 20
-10.36886597359724
 30
0.0
  0
LINE
  5
1BA
330
1F
100
AcDbEntity
  8
SK1
  6
Continuous
100
AcDbLine
 10
6.6344228634
 20
-10.3688659736
 30
0.0
 11
6.355
 21
-10.2074725322
 31
0.0
  0
SPLINE
  5
1BB
330
1F
100
AcDbEntity
  8
SK1
  6
Continuous
100
AcDbSpline
210
0.0
220
0.0
230
1.0
 70
     8
 71
     3
 72
    10
 73
     6
 74
     0
 42
0.000000014188687
 43
0.0000000001
 12
1.0
 22
0.0
 32
0.0
 13
1.0
 23
0.0
 33
0.0
 40
0.0
 40
0.0
 40
0.0
 40
0.0
 40
0.5
 40
0.5
 40
1.0
 40
1.0
 40
1.0
 40
1.0
 10
3.554999999999999
 20
-10.03536939890332
 30
0.0
 10
3.554999999999999
 20
-10.15005127162939
 30
0.0
 10
3.503252663661246
 20
-10.26265195632789
 30
0.0
 10
3.331958030469475
 20
-10.41180006478576
 30
0.0
 10
3.213336827326037
 20
-10.44767599244733
 30
0.0
 10
3.099330759615958
 20
-10.43164686011602
 30
0.0
  0
SPLINE
  5
1BC
330
1F
100
AcDbEntity
  8
SK1
  6
Continuous
100
AcDbSpline
210
0.0
220
0.0
230
1.0
 70
     8
 71
     3
 72
    11
 73
     7
 74
     0
 42
0.0000000004270909
 43
0.0000000001
 12
1.0
 22
0.0
 32
0.0
 13
1.0
 23
0.0
 33
0.0
 40
0.0
 40
0.0
 40
0.0
 40
0.0
 40
0.7825090911972554
 40
0.7825090911972554
 40
0.7825090911972554
 40
1.0
 40
1.0
 40
1.0
 40
1.0
 10
3.099330759615958
 20
-10.43164686011602
 30
0.0
 10
-2.948464760416153
 20
-9.581333217602568
 30
0.0
 10
-8.996249679115717
 20
-8.730944155964938
 30
0.0
 10
-15.0440087570162
 20
-7.880371361644956
 30
0.0
 10
-16.72492548143144
 20
-7.643962798259952
 30
0.0
 10
-18.40584010348681
 20
-7.407539285800898
 30
0.0
 10
-20.08675193028802
 20
-7.171095901921259
 30
0.0
  0
SPLINE
  5
1BD
330
1F
100
AcDbEntity
  8
SK1
  6
Continuous
100
AcDbSpline
210
0.0
220
0.0
230
1.0
 70
     8
 71
     3
 72
    10
 73
     6
 74
     0
 42
0.0000000228017479
 43
0.0000000001
 12
1.0
 22
0.0
 32
0.0
 13
1.0
 23
0.0
 33
0.0
 40
0.0
 40
0.0
 40
0.0
 40
0.0
 40
0.5
 40
0.5
 40
1.0
 40
1.0
 40
1.0
 40
1.0
 10
-20.08675193028802
 20
-7.171095901921259
 30
0.0
 10
-20.15775975335443
 20
-7.161107674281917
 30
0.0
 10
-20.22463515093262
 20
-7.124632680615792
 30
0.0
 10
-20.31829328036519
 20
-7.016737553754208
 30
0.0
 10
-20.345
 20
-6.945036995545468
 30
0.0
 10
-20.345
 20
-6.873744394003255
 30
0.0
  0
LINE
  5
1BE
330
1F
100
AcDbEntity
  8
SK3
100
AcDbLine
 10
-19.345
 20
-4.4899887644
 30
0.0
 11
-8.045
 21
-4.4899887644
 31
0.0
  0
LINE
  5
1BF
330
1F
100
AcDbEntity
  8
SK3
100
AcDbLine
 10
-8.045
 20
-4.4899887644
 30
0.0
 11
-7.6753314476
 21
-4.276060876
 31
0.0
  0
SPLINE
  5
1C0
330
1F
100
AcDbEntity
  8
SK1
  6
Continuous
100
AcDbSpline
210
0.0
220
0.0
230
1.0
 70
     8
 71
     3
 72
    10
 73
     6
 74
     0
 42
0.0000000310301906
 43
0.0000000001
 12
1.0
 22
0.0
 32
0.0
 13
1.0
 23
0.0
 33
0.0
 40
0.0
 40
0.0
 40
0.0
 40
0.0
 40
0.5
 40
0.5
 40
1.0
 40
1.0
 40
1.0
 40
1.0
 10
3.554999999999989
 20
-8.894942283404143
 30
0.0
 10
3.554999999999985
 20
-8.842776375978326
 30
0.0
 10
3.576202114330861
 20
-8.790877155475851
 30
0.0
 10
3.650805904000951
 20
-8.716150712688078
 30
0.0
 10
3.702162794002102
 20
-8.694825947942173
 30
0.0
 10
3.754999999999987
 20
-8.69482594794297
 30
0.0
  0
LINE
  5
1C1
330
1F
100
AcDbEntity
  8
SK1
  6
Continuous
100
AcDbLine
 10
3.755
 20
-8.6948259479
 30
0.0
 11
6.155
 21
-8.6948259479
 31
0.0
  0
SPLINE
  5
1C2
330
1F
100
AcDbEntity
  8
SK1
  6
Continuous
100
AcDbSpline
210
0.0
220
0.0
230
1.0
 70
     8
 71
     3
 72
    10
 73
     6
 74
     0
 42
0.0000000310380488
 43
0.0000000001
 12
1.0
 22
0.0
 32
0.0
 13
1.0
 23
0.0
 33
0.0
 40
0.0
 40
0.0
 40
0.0
 40
0.0
 40
0.5
 40
0.5
 40
1.0
 40
1.0
 40
1.0
 40
1.0
 10
6.154999999999994
 20
-8.69482594794297
 30
0.0
 10
6.207876785135052
 20
-8.694825947942968
 30
0.0
 10
6.259596680153259
 20
-8.7165565360176
 30
0.0
 10
6.333385443828353
 20
-8.790461458597438
 30
0.0
 10
6.355000000000105
 20
-8.842731221846064
 30
0.0
 10
6.355000000002342
 20
-8.894942283404415
 30
0.0
  0
LINE
  5
1C3
330
1F
100
AcDbEntity
  8
SK1
  6
Continuous
100
AcDbLine
 10
8.8485083131
 20
-9.2054851119
 30
0.0
 11
6.8344228634
 21
-10.3688659736
 31
0.0
  0
ARC
  5
1C4
330
1F
100
AcDbEntity
  8
SK3
100
AcDbCircle
 10
0.1117875579
 20
-17.7332797735
 30
0.0
 40
15.54786039493568
100
AcDbArc
 50
118.6594222244
 51
120.0561370822
  0
SPLINE
  5
1C5
330
1F
100
AcDbEntity
  8
SK1
  6
Continuous
100
AcDbSpline
210
0.0
220
0.0
230
1.0
 70
     8
 71
     3
 72
    23
 73
    19
 74
     0
 42
0.0000000284242361
 43
0.0000000001
 12
1.0
 22
0.0
 32
0.0
 13
1.0
 23
0.0
 33
0.0
 40
0.0
 40
0.0
 40
0.0
 40
0.0
 40
0.2939089474024581
 40
0.2939089474024581
 40
0.2939089474024581
 40
0.5524427374849286
 40
0.5524427374849286
 40
0.5524427374849286
 40
0.7414723079639258
 40
0.7414723079639258
 40
0.7414723079639258
 40
0.9318605502183843
 40
0.9318605502183843
 40
0.9318605502183843
 40
0.976223789372965
 40
0.976223789372965
 40
0.976223789372965
 40
1.0
 40
1.0
 40
1.0
 40
1.0
 10
8.848508313107844
 20
-9.205485111883595
 30
0.0
 10
8.8926007562334
 20
-9.180014813253942
 30
0.0
 10
8.937671645225286
 20
-9.154313379513294
 30
0.0
 10
8.978786224734636
 20
-9.131132722190063
 30
0.0
 10
9.015010207950116
 20
-9.110709413674662
 30
0.0
 10
9.049421328156702
 20
-9.091529881771498
 30
0.0
 10
9.077665002307118
 20
-9.075900538251483
 30
0.0
 10
9.09844708316408
 20
-9.064400254009271
 30
0.0
 10
9.116414041550087
 20
-9.05452761734662
 30
0.0
 10
9.129546112570669
 20
-9.04733216566856
 30
0.0
 10
9.142734373148516
 20
-9.04010592606349
 30
0.0
 10
9.151350051527157
 20
-9.035409654072694
 30
0.0
 10
9.154041183576217
 20
-9.033942003733374
 30
0.0
 10
9.15467930069023
 20
-9.033593996730433
 30
0.0
 10
9.155000000000003
 20
-9.033419146498357
 30
0.0
 10
9.155000000000003
 20
-9.033419146498355
 30
0.0
 10
9.155000000000003
 20
-9.033419146498355
 30
0.0
 10
9.154907362917243
 20
-9.033469600625601
 30
0.0
 10
9.154723840063474
 20
-9.033569604479249
 30
0.0
  0
ARC
  5
1C6
330
1F
100
AcDbEntity
  8
SK3
100
AcDbCircle
 10
10.755
 20
3.4000000998
 30
0.0
 40
0.4000000000000015
100
AcDbArc
 50
270.0
 51
0.0
  0
ARC
  5
1C7
330
1F
100
AcDbEntity
  8
SK1
  6
Continuous
100
AcDbCircle
 10
10.905
 20
7.7343812404
 30
0.0
 40
0.2500000000000002
100
AcDbArc
 50
0.0
 51
60.0
  0
LINE
  5
1C8
330
1F
100
AcDbEntity
  8
SK3
100
AcDbLine
 10
10.755
 20
3.0000000998
 30
0.0
 11
-6.9985898385
 21
3.0000000998
 31
0.0
  0
LINE
  5
1C9
330
1F
100
AcDbEntity
  8
SK3
100
AcDbLine
 10
-6.9985898385
 20
3.0000000998
 30
0.0
 11
-7.345
 21
3.2000000998
 31
0.0
  0
LINE
  5
1CA
330
1F
100
AcDbEntity
  8
SK1
  6
Continuous
100
AcDbLine
 10
11.03
 20
7.9508875913
 30
0.0
 11
9.155
 21
9.033419346
 31
0.0
  0
ARC
  5
1CB
330
1F
100
AcDbEntity
  8
SK3
100
AcDbCircle
 10
-10.4916765899
 20
43.8760383488
 30
0.0
 40
40.00000000000001
100
AcDbArc
 50
274.512009624
 51
299.4173006569
  0
ARC
  5
1CC
330
1F
100
AcDbEntity
  8
SK3
100
AcDbCircle
 10
1.5766906254
 20
40.5456149235
 30
0.0
 40
40.36032334348531
100
AcDbArc
 50
237.3590493153
 51
244.4981012598
  0
ARC
  5
1CD
330
1F
100
AcDbEntity
  8
SK3
100
AcDbCircle
 10
-10.0691267642
 20
55.2840999551
 30
0.0
 40
52.61374387302494
100
AcDbArc
 50
272.9678940303
 51
291.3399583164
  0
ARC
  5
1CE
330
1F
100
AcDbEntity
  8
SK3
100
AcDbCircle
 10
-2.1296510764
 20
70.5572109249
 30
0.0
 40
70.36097020015832
100
AcDbArc
 50
255.2914780038
 51
259.0934104469
  0
ARC
  5
1CF
330
1F
100
AcDbEntity
  8
SK3
100
AcDbCircle
 10
-2.1004856059
 20
-70.6201212586
 30
0.0
 40
70.4288332465137
100
AcDbArc
 50
100.9216035011
 51
104.7164684202
  0
ARC
  5
1D0
330
1F
100
AcDbEntity
  8
SK3
100
AcDbCircle
 10
-10.0678158775
 20
-55.2818961825
 30
0.0
 40
52.61128355196003
100
AcDbArc
 50
68.6590739231
 51
87.0358904602
  0
ARC
  5
1D1
330
1F
100
AcDbEntity
  8
SK3
100
AcDbCircle
 10
1.5674507789
 20
-40.515217477
 30
0.0
 40
40.32954138602323
100
AcDbArc
 50
115.5099800375
 51
122.6530848698
  0
ARC
  5
1D2
330
1F
100
AcDbEntity
  8
SK3
100
AcDbCircle
 10
10.755
 20
-3.3999999002
 30
0.0
 40
0.4000000000000002
100
AcDbArc
 50
0.0
 51
90.0
  0
ARC
  5
1D3
330
1F
100
AcDbEntity
  8
SK1
  6
Continuous
100
AcDbCircle
 10
10.905
 20
-7.7343810408
 30
0.0
 40
0.2500000000000014
100
AcDbArc
 50
300.0
 51
0.0
  0
LINE
  5
1D4
330
1F
100
AcDbEntity
  8
SK3
100
AcDbLine
 10
-6.9985898385
 20
-2.9999999002
 30
0.0
 11
10.755
 21
-2.9999999002
 31
0.0
  0
LINE
  5
1D5
330
1F
100
AcDbEntity
  8
SK3
100
AcDbLine
 10
-7.345
 20
-3.1999999002
 30
0.0
 11
-6.9985898385
 21
-2.9999999002
 31
0.0
  0
LINE
  5
1D6
330
1F
100
AcDbEntity
  8
SK1
  6
Continuous
100
AcDbLine
 10
9.155
 20
-9.0334191465
 30
0.0
 11
11.03
 21
-7.9508873918
 31
0.0
  0
ARC
  5
1D7
330
1F
100
AcDbEntity
  8
SK3
100
AcDbCircle
 10
-10.4916765899
 20
-43.8760381493
 30
0.0
 40
40.00000000000001
100
AcDbArc
 50
60.5827903222
 51
85.4880228341
  0
LINE
  5
1D8
330
1F
100
AcDbEntity
  8
SK1
  6
Continuous
100
AcDbLine
 10
0.0
 20
9.9958771551
 30
0.0
 11
0.0
 21
-9.9958769555
 31
0.0
  0
LINE
  5
1DA
330
1F
100
AcDbEntity
  8
SK4
  6
Continuous
100
AcDbLine
 10
11.155
 20
0.0000000998
 30
0.0
 11
-20.345
 21
0.0000000998
 31
0.0
  0
DIMENSION
  5
1EF
330
1F
100
AcDbEntity
  8
SK2
  6
Continuous
 62
   136
100
AcDbDimension
  2
DMBLK21
 10
19.0792412657
 20
3.0000000998
 30
0.0
 11
19.0792412657
 21
9.2075537696
 31
0.0
 70
   161
  1
\A1;ø <>
 71
     5
 42
-1.0
  3
DIN
100
AcDbAlignedDimension
 13
10.755
 23
3.0000000998
 33
0.0
 14
10.755
 24
-2.9999999002
 34
0.0
  0
DIMENSION
  5
1FA
330
1F
100
AcDbEntity
  8
SK2
  6
Continuous
 62
   136
100
AcDbDimension
  2
DMBLK22
 10
0.0
 20
-18.2346028984
 30
0.0
 11
5.5775000218
 21
-18.2346028984
 31
0.0
 70
   160
  1
\A1;<>
 71
     5
 42
-1.0
  3
DIN
100
AcDbAlignedDimension
 13
11.155
 23
-7.0254539848
 33
0.0
 14
0.0
 24
-9.9958769555
 34
0.0
100
AcDbRotatedDimension
  0
DIMENSION
  5
204
330
1F
100
AcDbEntity
  8
SK2
  6
Continuous
 62
   136
100
AcDbDimension
  2
DMBLK23
 10
-26.0053835809
 20
9.9958771551
 30
0.0
 11
-26.0053835809
 21
0.0000003436
 31
0.0
 70
   161
  1
\A1;ø <>
 71
     5
 42
-1.0
  3
DIN
100
AcDbAlignedDimension
 13
0.0
 23
9.9958771551
 33
0.0
 14
0.0
 24
-9.9958769555
 34
0.0
1001
ACAD
1000
DSTYLE
1002
{
1070
   271
1070
     1
1070
   272
1070
     1
1070
     0
1002
}
  0
DIMENSION
  5
20F
330
1F
100
AcDbEntity
  8
SK2
  6
Continuous
 62
   136
100
AcDbDimension
  2
DMBLK24
 10
11.155
 20
16.5380845383
 30
0.0
 11
-4.5949997467
 21
16.5380845383
 31
0.0
 70
   160
  1
\A1;<>
 71
     5
 42
-1.0
  3
DIN
100
AcDbAlignedDimension
 13
-20.345
 23
6.8737445935
 33
0.0
 14
11.155
 24
7.4947227421
 34
0.0
100
AcDbRotatedDimension
  0
ENDSEC
  0
SECTION
  2
OBJECTS
  0
DICTIONARY
  5
C
330
0
100
AcDbDictionary
281
     1
  3
ACAD_GROUP
350
D
  3
ACAD_LAYOUT
350
1A
  3
ACAD_MATERIAL
350
3B
  3
ACAD_MLEADERSTYLE
350
21B
  3
ACAD_MLINESTYLE
350
17
  3
ACAD_PLOTSETTINGS
350
19
  3
ACAD_PLOTSTYLENAME
350
E
  3
ACAD_VISUALSTYLE
350
2A
  3
AcDbVariableDictionary
350
219
  0
DICTIONARY
  5
D
102
{ACAD_REACTORS
330
C
102
}
330
C
100
AcDbDictionary
281
     1
  0
DICTIONARY
  5
1A
102
{ACAD_REACTORS
330
C
102
}
330
C
100
AcDbDictionary
281
     1
  3
Layout1
350
1E
  3
Model
350
22
  0
DICTIONARY
  5
3B
102
{ACAD_REACTORS
330
C
102
}
330
C
100
AcDbDictionary
281
     1
  3
ByBlock
350
3D
  3
ByLayer
350
3C
  3
Global
350
3E
  0
DICTIONARY
  5
21B
102
{ACAD_REACTORS
330
C
102
}
330
C
100
AcDbDictionary
281
     1
  0
DICTIONARY
  5
17
102
{ACAD_REACTORS
330
C
102
}
330
C
100
AcDbDictionary
281
     1
  3
Standard
350
18
  0
DICTIONARY
  5
19
102
{ACAD_REACTORS
330
C
102
}
330
C
100
AcDbDictionary
281
     1
  0
ACDBDICTIONARYWDFLT
  5
E
102
{ACAD_REACTORS
330
C
102
}
330
C
100
AcDbDictionary
281
     1
  3
Normal
350
F
100
AcDbDictionaryWithDefault
340
F
  0
DICTIONARY
  5
2A
102
{ACAD_REACTORS
330
C
102
}
330
C
100
AcDbDictionary
281
     1
  3
2dWireframe
350
2F
  3
3D Hidden
350
31
  3
3dWireframe
350
30
  3
Basic
350
32
  3
Brighten
350
36
  3
ColorChange
350
3A
  3
Conceptual
350
34
  3
Dim
350
35
  3
Facepattern
350
39
  3
Flat
350
2B
  3
FlatWithEdges
350
2C
  3
Gouraud
350
2D
  3
GouraudWithEdges
350
2E
  3
Linepattern
350
38
  3
Realistic
350
33
  3
Thicken
350
37
  0
DICTIONARY
  5
219
102
{ACAD_REACTORS
330
C
102
}
330
C
100
AcDbDictionary
281
     1
  3
DIMASSOC
350
21E
  3
HIDETEXT
350
21F
  3
PSOLHEIGHT
350
21D
  3
PSOLWIDTH
350
21C
  0
LAYOUT
  5
1E
102
{ACAD_REACTORS
330
1A
102
}
330
1A
100
AcDbPlotSettings
  1

  2
none_device
  4

  6

 40
0.0
 41
0.0
 42
0.0
 43
0.0
 44
0.0
 45
0.0
 46
0.0
 47
0.0
 48
0.0
 49
0.0
140
0.0
141
0.0
142
1.0
143
1.0
 70
   688
 72
     0
 73
     0
 74
     5
  7

 75
    16
147
1.0
148
0.0
149
0.0
100
AcDbLayout
  1
Layout1
 70
     1
 71
     1
 10
0.0
 20
0.0
 11
210.0
 21
297.0
 12
0.0
 22
0.0
 32
0.0
 14
0.0
 24
0.0
 34
0.0
 15
210.0
 25
297.0
 35
0.0
146
0.0
 13
0.0
 23
0.0
 33
0.0
 16
1.0
 26
0.0
 36
0.0
 17
0.0
 27
1.0
 37
0.0
 76
     0
330
1B
  0
LAYOUT
  5
22
102
{ACAD_REACTORS
330
1A
102
}
330
1A
100
AcDbPlotSettings
  1

  2
none_device
  4

  6

 40
0.0
 41
0.0
 42
0.0
 43
0.0
 44
0.0
 45
0.0
 46
0.0
 47
0.0
 48
0.0
 49
0.0
140
0.0
141
0.0
142
1.0
143
1.0
 70
  1712
 72
     0
 73
     0
 74
     0
  7

 75
     0
147
1.0
148
0.0
149
0.0
100
AcDbLayout
  1
Model
 70
     1
 71
     0
 10
0.0
 20
0.0
 11
210.0
 21
297.0
 12
0.0
 22
0.0
 32
0.0
 14
0.0
 24
0.0
 34
0.0
 15
210.0
 25
297.0
 35
0.0
146
0.0
 13
0.0
 23
0.0
 33
0.0
 16
1.0
 26
0.0
 36
0.0
 17
0.0
 27
1.0
 37
0.0
 76
     0
330
1F
331
29
  0
MATERIAL
  5
3D
102
{ACAD_REACTORS
330
3B
102
}
102
{ACAD_XDICTIONARY
360
242
102
}
330
3B
100
AcDbMaterial
  1
ByBlock
  0
MATERIAL
  5
3C
102
{ACAD_REACTORS
330
3B
102
}
102
{ACAD_XDICTIONARY
360
240
102
}
330
3B
100
AcDbMaterial
  1
ByLayer
  0
MATERIAL
  5
3E
102
{ACAD_REACTORS
330
3B
102
}
102
{ACAD_XDICTIONARY
360
244
102
}
330
3B
100
AcDbMaterial
  1
Global
  0
MLINESTYLE
  5
18
102
{ACAD_REACTORS
330
17
102
}
330
17
100
AcDbMlineStyle
  2
Standard
 70
     0
  3

 62
   256
 51
90.0
 52
90.0
 71
     2
 49
0.5
 62
   256
  6
BYLAYER
 49
-0.5
 62
   256
  6
BYLAYER
  0
ACDBPLACEHOLDER
  5
F
102
{ACAD_REACTORS
330
E
102
}
330
E
  0
VISUALSTYLE
  5
2F
102
{ACAD_REACTORS
330
2A
102
}
102
{ACAD_XDICTIONARY
360
228
102
}
330
2A
100
AcDbVisualStyle
  2
2dWireframe
 70
     4
 71
     0
 72
     2
 73
     0
 90
        0
 40
-0.6
 41
-30.0
 62
     5
 63
     7
 74
     1
 91
        4
 64
     7
 65
   257
 75
     1
175
     1
 42
1.0
 92
        0
 66
   257
 43
1.0
 76
     1
 77
     6
 78
     2
 67
     7
 79
     5
170
     0
171
     0
290
     0
174
     0
 93
        1
 44
0.0
173
     0
291
     0
 45
0.0
1001
ACAD
1000
AcDbSavedByObjectVersion
1070
     0
  0
VISUALSTYLE
  5
31
102
{ACAD_REACTORS
330
2A
102
}
102
{ACAD_XDICTIONARY
360
22C
102
}
330
2A
100
AcDbVisualStyle
  2
3D Hidden
 70
     6
 71
     1
 72
     2
 73
     2
 90
        0
 40
-0.6
 41
-30.0
 62
     5
 63
     7
 74
     2
 91
        2
 64
     7
 65
   257
 75
     2
175
     1
 42
40.0
 92
        0
 66
   257
 43
1.0
 76
     1
 77
     6
 78
     2
 67
     7
 79
     3
170
     0
171
     0
290
     0
174
     0
 93
        1
 44
0.0
173
     0
291
     0
 45
0.0
1001
ACAD
1000
AcDbSavedByObjectVersion
1070
     0
  0
VISUALSTYLE
  5
30
102
{ACAD_REACTORS
330
2A
102
}
102
{ACAD_XDICTIONARY
360
22A
102
}
330
2A
100
AcDbVisualStyle
  2
3dWireframe
 70
     5
 71
     0
 72
     2
 73
     0
 90
        0
 40
-0.6
 41
-30.0
 62
     5
 63
     7
 74
     1
 91
        4
 64
     7
 65
   257
 75
     1
175
     1
 42
1.0
 92
        0
 66
   257
 43
1.0
 76
     1
 77
     6
 78
     2
 67
     7
 79
     5
170
     0
171
     0
290
     0
174
     0
 93
        1
 44
0.0
173
     0
291
     0
 45
0.0
1001
ACAD
1000
AcDbSavedByObjectVersion
1070
     0
  0
VISUALSTYLE
  5
32
102
{ACAD_REACTORS
330
2A
102
}
102
{ACAD_XDICTIONARY
360
22E
102
}
330
2A
100
AcDbVisualStyle
  2
Basic
 70
     7
 71
     1
 72
     0
 73
     1
 90
        0
 40
-0.6
 41
-30.0
 62
     5
 63
     7
 74
     0
 91
        4
 64
     7
 65
   257
 75
     1
175
     1
 42
1.0
 92
        8
 66
     7
 43
1.0
 76
     1
 77
     6
 78
     2
 67
     7
 79
     5
170
     0
171
     0
290
     0
174
     0
 93
        1
 44
0.0
173
     0
291
     1
 45
0.0
1001
ACAD
1000
AcDbSavedByObjectVersion
1070
     0
  0
VISUALSTYLE
  5
36
102
{ACAD_REACTORS
330
2A
102
}
102
{ACAD_XDICTIONARY
360
236
102
}
330
2A
100
AcDbVisualStyle
  2
Brighten
 70
    12
 71
     2
 72
     2
 73
     0
 90
        0
 40
-0.6
 41
-30.0
 62
     5
 63
     7
 74
     1
 91
        4
 64
     7
 65
   257
 75
     1
175
     1
 42
1.0
 92
        8
 66
     7
 43
1.0
 76
     1
 77
     6
 78
     2
 67
     7
 79
     5
170
     0
171
     0
290
     0
174
     0
 93
        1
 44
50.0
173
     0
291
     1
 45
0.0
1001
ACAD
1000
AcDbSavedByObjectVersion
1070
     0
  0
VISUALSTYLE
  5
3A
102
{ACAD_REACTORS
330
2A
102
}
102
{ACAD_XDICTIONARY
360
23E
102
}
330
2A
100
AcDbVisualStyle
  2
ColorChange
 70
    16
 71
     2
 72
     2
 73
     3
 90
        0
 40
-0.6
 41
-30.0
 62
     5
 63
     8
 74
     1
 91
        4
 64
     7
 65
   257
 75
     1
175
     1
 42
1.0
 92
        8
 66
     8
 43
1.0
 76
     1
 77
     6
 78
     2
 67
     7
 79
     5
170
     0
171
     0
290
     0
174
     0
 93
        1
 44
0.0
173
     0
291
     1
 45
0.0
1001
ACAD
1000
AcDbSavedByObjectVersion
1070
     0
  0
VISUALSTYLE
  5
34
102
{ACAD_REACTORS
330
2A
102
}
102
{ACAD_XDICTIONARY
360
232
102
}
330
2A
100
AcDbVisualStyle
  2
Conceptual
 70
     9
 71
     3
 72
     2
 73
     0
 90
        0
 40
-0.6
 41
-30.0
 62
     5
 63
     7
 74
     2
 91
        2
 64
     7
 65
   257
 75
     1
175
     1
 42
40.0
 92
        8
 66
     7
 43
1.0
 76
     1
 77
     6
 78
     2
 67
     7
 79
     3
170
     0
171
     0
290
     0
174
     0
 93
        1
 44
0.0
173
     0
291
     0
 45
0.0
1001
ACAD
1000
AcDbSavedByObjectVersion
1070
     0
  0
VISUALSTYLE
  5
35
102
{ACAD_REACTORS
330
2A
102
}
102
{ACAD_XDICTIONARY
360
234
102
}
330
2A
100
AcDbVisualStyle
  2
Dim
 70
    11
 71
     2
 72
     2
 73
     0
 90
        0
 40
-0.6
 41
-30.0
 62
     5
 63
     7
 74
     1
 91
        4
 64
     7
 65
   257
 75
     1
175
     1
 42
1.0
 92
        8
 66
     7
 43
1.0
 76
     1
 77
     6
 78
     2
 67
     7
 79
     5
170
     0
171
     0
290
     0
174
     0
 93
        1
 44
-50.0
173
     0
291
     1
 45
0.0
1001
ACAD
1000
AcDbSavedByObjectVersion
1070
     0
  0
VISUALSTYLE
  5
39
102
{ACAD_REACTORS
330
2A
102
}
102
{ACAD_XDICTIONARY
360
23C
102
}
330
2A
100
AcDbVisualStyle
  2
Facepattern
 70
    15
 71
     2
 72
     2
 73
     0
 90
        0
 40
-0.6
 41
-30.0
 62
     5
 63
     7
 74
     1
 91
        4
 64
     7
 65
   257
 75
     1
175
     1
 42
1.0
 92
        8
 66
     7
 43
1.0
 76
     1
 77
     6
 78
     2
 67
     7
 79
     5
170
     0
171
     0
290
     0
174
     0
 93
        1
 44
0.0
173
     0
291
     1
 45
0.0
1001
ACAD
1000
AcDbSavedByObjectVersion
1070
     0
  0
VISUALSTYLE
  5
2B
102
{ACAD_REACTORS
330
2A
102
}
102
{ACAD_XDICTIONARY
360
220
102
}
330
2A
100
AcDbVisualStyle
  2
Flat
 70
     0
 71
     2
 72
     1
 73
     1
 90
        2
 40
-0.6
 41
30.0
 62
     5
 63
     7
 74
     0
 91
        4
 64
     7
 65
   257
 75
     1
175
     1
 42
1.0
 92
        8
 66
     7
 43
1.0
 76
     1
 77
     6
 78
     2
 67
     7
 79
     5
170
     0
171
     0
290
     0
174
     0
 93
       13
 44
0.0
173
     0
291
     1
 45
0.0
1001
ACAD
1000
AcDbSavedByObjectVersion
1070
     0
  0
VISUALSTYLE
  5
2C
102
{ACAD_REACTORS
330
2A
102
}
102
{ACAD_XDICTIONARY
360
222
102
}
330
2A
100
AcDbVisualStyle
  2
FlatWithEdges
 70
     1
 71
     2
 72
     1
 73
     1
 90
        2
 40
-0.6
 41
30.0
 62
     5
 63
     7
 74
     1
 91
        4
 64
     7
 65
   257
 75
     1
175
     1
 42
1.0
 92
        0
 66
   257
 43
1.0
 76
     1
 77
     6
 78
     2
 67
     7
 79
     5
170
     0
171
     0
290
     0
174
     0
 93
       13
 44
0.0
173
     0
291
     1
 45
0.0
1001
ACAD
1000
AcDbSavedByObjectVersion
1070
     0
  0
VISUALSTYLE
  5
2D
102
{ACAD_REACTORS
330
2A
102
}
102
{ACAD_XDICTIONARY
360
224
102
}
330
2A
100
AcDbVisualStyle
  2
Gouraud
 70
     2
 71
     2
 72
     2
 73
     1
 90
        2
 40
-0.6
 41
30.0
 62
     5
 63
     7
 74
     0
 91
        4
 64
     7
 65
   257
 75
     1
175
     1
 42
1.0
 92
        0
 66
     7
 43
1.0
 76
     1
 77
     6
 78
     2
 67
     7
 79
     5
170
     0
171
     0
290
     0
174
     0
 93
       13
 44
0.0
173
     0
291
     1
 45
0.0
1001
ACAD
1000
AcDbSavedByObjectVersion
1070
     0
  0
VISUALSTYLE
  5
2E
102
{ACAD_REACTORS
330
2A
102
}
102
{ACAD_XDICTIONARY
360
226
102
}
330
2A
100
AcDbVisualStyle
  2
GouraudWithEdges
 70
     3
 71
     2
 72
     2
 73
     1
 90
        2
 40
-0.6
 41
30.0
 62
     5
 63
     7
 74
     1
 91
        4
 64
     7
 65
   257
 75
     1
175
     1
 42
1.0
 92
        0
 66
   257
 43
1.0
 76
     1
 77
     6
 78
     2
 67
     7
 79
     5
170
     0
171
     0
290
     0
174
     0
 93
       13
 44
0.0
173
     0
291
     1
 45
0.0
1001
ACAD
1000
AcDbSavedByObjectVersion
1070
     0
  0
VISUALSTYLE
  5
38
102
{ACAD_REACTORS
330
2A
102
}
102
{ACAD_XDICTIONARY
360
23A
102
}
330
2A
100
AcDbVisualStyle
  2
Linepattern
 70
    14
 71
     2
 72
     2
 73
     0
 90
        0
 40
-0.6
 41
-30.0
 62
     5
 63
     7
 74
     1
 91
        4
 64
     7
 65
   257
 75
     7
175
     7
 42
1.0
 92
        8
 66
     7
 43
1.0
 76
     1
 77
     6
 78
     2
 67
     7
 79
     5
170
     0
171
     0
290
     0
174
     0
 93
        1
 44
0.0
173
     0
291
     1
 45
0.0
1001
ACAD
1000
AcDbSavedByObjectVersion
1070
     0
  0
VISUALSTYLE
  5
33
102
{ACAD_REACTORS
330
2A
102
}
102
{ACAD_XDICTIONARY
360
230
102
}
330
2A
100
AcDbVisualStyle
  2
Realistic
 70
     8
 71
     2
 72
     2
 73
     0
 90
        0
 40
-0.6
 41
-30.0
 62
     5
 63
     7
 74
     1
 91
        0
 64
     7
 65
   257
 75
     1
175
     1
 42
1.0
 92
        8
 66
     8
 43
1.0
 76
     1
 77
     6
 78
     2
 67
     7
 79
     5
170
     0
171
     0
290
     0
174
     0
 93
       13
 44
0.0
173
     0
291
     0
 45
0.0
1001
ACAD
1000
AcDbSavedByObjectVersion
1070
     0
  0
VISUALSTYLE
  5
37
102
{ACAD_REACTORS
330
2A
102
}
102
{ACAD_XDICTIONARY
360
238
102
}
330
2A
100
AcDbVisualStyle
  2
Thicken
 70
    13
 71
     2
 72
     2
 73
     0
 90
        0
 40
-0.6
 41
-30.0
 62
     5
 63
     7
 74
     1
 91
        4
 64
     7
 65
   257
 75
     1
175
     1
 42
1.0
 92
       12
 66
     7
 43
1.0
 76
     1
 77
     6
 78
     2
 67
     7
 79
     5
170
     0
171
     0
290
     0
174
     0
 93
        1
 44
0.0
173
     0
291
     1
 45
0.0
1001
ACAD
1000
AcDbSavedByObjectVersion
1070
     0
  0
DICTIONARYVAR
  5
21E
102
{ACAD_REACTORS
330
219
102
}
330
219
100
DictionaryVariables
280
     0
  1
2
  0
DICTIONARYVAR
  5
21F
102
{ACAD_REACTORS
330
219
102
}
330
219
100
DictionaryVariables
280
     0
  1
1
  0
DICTIONARYVAR
  5
21D
102
{ACAD_REACTORS
330
219
102
}
330
219
100
DictionaryVariables
280
     0
  1
80.000000
  0
DICTIONARYVAR
  5
21C
102
{ACAD_REACTORS
330
219
102
}
330
219
100
DictionaryVariables
280
     0
  1
5.000000
  0
DICTIONARY
  5
242
330
3D
100
AcDbDictionary
280
     1
281
     1
  3
ACAD_XREC_ROUNDTRIP
360
243
  0
DICTIONARY
  5
240
330
3C
100
AcDbDictionary
280
     1
281
     1
  3
ACAD_XREC_ROUNDTRIP
360
241
  0
DICTIONARY
  5
244
330
3E
100
AcDbDictionary
280
     1
281
     1
  3
ACAD_XREC_ROUNDTRIP
360
245
  0
DICTIONARY
  5
228
330
2F
100
AcDbDictionary
280
     1
281
     1
  3
ACAD_XREC_ROUNDTRIP
360
229
  0
DICTIONARY
  5
22C
330
31
100
AcDbDictionary
280
     1
281
     1
  3
ACAD_XREC_ROUNDTRIP
360
22D
  0
DICTIONARY
  5
22A
330
30
100
AcDbDictionary
280
     1
281
     1
  3
ACAD_XREC_ROUNDTRIP
360
22B
  0
DICTIONARY
  5
22E
330
32
100
AcDbDictionary
280
     1
281
     1
  3
ACAD_XREC_ROUNDTRIP
360
22F
  0
DICTIONARY
  5
236
330
36
100
AcDbDictionary
280
     1
281
     1
  3
ACAD_XREC_ROUNDTRIP
360
237
  0
DICTIONARY
  5
23E
330
3A
100
AcDbDictionary
280
     1
281
     1
  3
ACAD_XREC_ROUNDTRIP
360
23F
  0
DICTIONARY
  5
232
330
34
100
AcDbDictionary
280
     1
281
     1
  3
ACAD_XREC_ROUNDTRIP
360
233
  0
DICTIONARY
  5
234
330
35
100
AcDbDictionary
280
     1
281
     1
  3
ACAD_XREC_ROUNDTRIP
360
235
  0
DICTIONARY
  5
23C
330
39
100
AcDbDictionary
280
     1
281
     1
  3
ACAD_XREC_ROUNDTRIP
360
23D
  0
DICTIONARY
  5
220
330
2B
100
AcDbDictionary
280
     1
281
     1
  3
ACAD_XREC_ROUNDTRIP
360
221
  0
DICTIONARY
  5
222
330
2C
100
AcDbDictionary
280
     1
281
     1
  3
ACAD_XREC_ROUNDTRIP
360
223
  0
DICTIONARY
  5
224
330
2D
100
AcDbDictionary
280
     1
281
     1
  3
ACAD_XREC_ROUNDTRIP
360
225
  0
DICTIONARY
  5
226
330
2E
100
AcDbDictionary
280
     1
281
     1
  3
ACAD_XREC_ROUNDTRIP
360
227
  0
DICTIONARY
  5
23A
330
38
100
AcDbDictionary
280
     1
281
     1
  3
ACAD_XREC_ROUNDTRIP
360
23B
  0
DICTIONARY
  5
230
330
33
100
AcDbDictionary
280
     1
281
     1
  3
ACAD_XREC_ROUNDTRIP
360
231
  0
DICTIONARY
  5
238
330
37
100
AcDbDictionary
280
     1
281
     1
  3
ACAD_XREC_ROUNDTRIP
360
239
  0
XRECORD
  5
243
102
{ACAD_REACTORS
330
242
102
}
330
242
100
AcDbXrecord
280
     1
102
MATERIAL
148
0.0
149
0.0
149
0.0
 93
        0
 94
      127
282
     0
 72
     1
 77
     1
171
     1
175
     1
179
     1
273
     0
  0
XRECORD
  5
241
102
{ACAD_REACTORS
330
240
102
}
330
240
100
AcDbXrecord
280
     1
102
MATERIAL
148
0.0
149
0.0
149
0.0
 93
        0
 94
      127
282
     0
 72
     1
 77
     1
171
     1
175
     1
179
     1
273
     0
  0
XRECORD
  5
245
102
{ACAD_REACTORS
330
244
102
}
330
244
100
AcDbXrecord
280
     1
102
MATERIAL
148
0.0
149
0.0
149
0.0
 93
        0
 94
      127
282
     0
 72
     1
 77
     1
171
     1
175
     1
179
     1
273
     0
  0
XRECORD
  5
229
102
{ACAD_REACTORS
330
228
102
}
330
228
100
AcDbXrecord
280
     1
102
RTVSPropertyOp0
 70
     1
102
RTVSPropertyOp1
 70
     1
102
RTVSPropertyOp2
 70
     1
102
RTVSPropertyOp3
 70
     1
102
RTVSPropertyOp4
 70
     1
102
RTVSPropertyOp5
 70
     1
102
RTVSPropertyOp6
 70
     1
102
RTVSPropertyOp7
 70
     1
102
RTVSPropertyOp8
 70
     1
102
RTVSPropertyOp9
 70
     1
102
RTVSPropertyOp10
 70
     1
102
RTVSPropertyOp11
 70
     1
102
RTVSPropertyOp12
 70
     1
102
RTVSPropertyOp13
 70
     1
102
RTVSPropertyOp14
 70
     1
102
RTVSPropertyOp15
 70
     1
102
RTVSPropertyOp16
 70
     1
102
RTVSPropertyOp17
 70
     1
102
RTVSPropertyOp18
 70
     1
102
RTVSPropertyOp19
 70
     1
102
RTVSPropertyOp20
 70
     1
102
RTVSPropertyOp21
 70
     1
102
RTVSPropertyOp22
 70
     1
102
RTVSPropertyOp23
 70
     1
102
RTVSPropertyOp24
 70
     1
102
RTVSPropertyOp25
 70
     1
102
RTVSPropertyOp26
 70
     1
102
RTVSPropertyOp27
 70
     1
102
RTVSPropertyOp28
 70
     1
102
RTVSPropertyOp29
 70
     1
102
RTVSPropertyOp30
 70
     1
102
RTVSPropertyOp31
 70
     1
102
RTVSPropertyOp32
 70
     1
  0
XRECORD
  5
22D
102
{ACAD_REACTORS
330
22C
102
}
330
22C
100
AcDbXrecord
280
     1
102
RTVSPropertyOp0
 70
     1
102
RTVSPropertyOp1
 70
     1
102
RTVSPropertyOp2
 70
     1
102
RTVSPropertyOp3
 70
     1
102
RTVSPropertyOp4
 70
     1
102
RTVSPropertyOp5
 70
     1
102
RTVSPropertyOp6
 70
     1
102
RTVSPropertyOp7
 70
     1
102
RTVSPropertyOp8
 70
     1
102
RTVSPropertyOp9
 70
     1
102
RTVSPropertyOp10
 70
     1
102
RTVSPropertyOp11
 70
     1
102
RTVSPropertyOp12
 70
     1
102
RTVSPropertyOp13
 70
     1
102
RTVSPropertyOp14
 70
     1
102
RTVSPropertyOp15
 70
     1
102
RTVSPropertyOp16
 70
     1
102
RTVSPropertyOp17
 70
     1
102
RTVSPropertyOp18
 70
     1
102
RTVSPropertyOp19
 70
     1
102
RTVSPropertyOp20
 70
     1
102
RTVSPropertyOp21
 70
     1
102
RTVSPropertyOp22
 70
     1
102
RTVSPropertyOp23
 70
     1
102
RTVSPropertyOp24
 70
     1
102
RTVSPropertyOp25
 70
     1
102
RTVSPropertyOp26
 70
     1
102
RTVSPropertyOp27
 70
     1
102
RTVSPropertyOp28
 70
     1
102
RTVSPropertyOp29
 70
     1
102
RTVSPropertyOp30
 70
     1
102
RTVSPropertyOp31
 70
     1
102
RTVSPropertyOp32
 70
     1
  0
XRECORD
  5
22B
102
{ACAD_REACTORS
330
22A
102
}
330
22A
100
AcDbXrecord
280
     1
102
RTVSPropertyOp0
 70
     1
102
RTVSPropertyOp1
 70
     1
102
RTVSPropertyOp2
 70
     1
102
RTVSPropertyOp3
 70
     1
102
RTVSPropertyOp4
 70
     1
102
RTVSPropertyOp5
 70
     1
102
RTVSPropertyOp6
 70
     1
102
RTVSPropertyOp7
 70
     1
102
RTVSPropertyOp8
 70
     1
102
RTVSPropertyOp9
 70
     1
102
RTVSPropertyOp10
 70
     1
102
RTVSPropertyOp11
 70
     1
102
RTVSPropertyOp12
 70
     1
102
RTVSPropertyOp13
 70
     1
102
RTVSPropertyOp14
 70
     1
102
RTVSPropertyOp15
 70
     1
102
RTVSPropertyOp16
 70
     1
102
RTVSPropertyOp17
 70
     1
102
RTVSPropertyOp18
 70
     1
102
RTVSPropertyOp19
 70
     1
102
RTVSPropertyOp20
 70
     1
102
RTVSPropertyOp21
 70
     1
102
RTVSPropertyOp22
 70
     1
102
RTVSPropertyOp23
 70
     1
102
RTVSPropertyOp24
 70
     1
102
RTVSPropertyOp25
 70
     1
102
RTVSPropertyOp26
 70
     1
102
RTVSPropertyOp27
 70
     1
102
RTVSPropertyOp28
 70
     1
102
RTVSPropertyOp29
 70
     1
102
RTVSPropertyOp30
 70
     1
102
RTVSPropertyOp31
 70
     1
102
RTVSPropertyOp32
 70
     1
  0
XRECORD
  5
22F
102
{ACAD_REACTORS
330
22E
102
}
330
22E
100
AcDbXrecord
280
     1
102
RTVSPropertyOp0
 70
     1
102
RTVSPropertyOp1
 70
     1
102
RTVSPropertyOp2
 70
     1
102
RTVSPropertyOp3
 70
     1
102
RTVSPropertyOp4
 70
     1
102
RTVSPropertyOp5
 70
     1
102
RTVSPropertyOp6
 70
     1
102
RTVSPropertyOp7
 70
     1
102
RTVSPropertyOp8
 70
     1
102
RTVSPropertyOp9
 70
     1
102
RTVSPropertyOp10
 70
     1
102
RTVSPropertyOp11
 70
     1
102
RTVSPropertyOp12
 70
     1
102
RTVSPropertyOp13
 70
     1
102
RTVSPropertyOp14
 70
     1
102
RTVSPropertyOp15
 70
     1
102
RTVSPropertyOp16
 70
     1
102
RTVSPropertyOp17
 70
     1
102
RTVSPropertyOp18
 70
     1
102
RTVSPropertyOp19
 70
     1
102
RTVSPropertyOp20
 70
     1
102
RTVSPropertyOp21
 70
     1
102
RTVSPropertyOp22
 70
     1
102
RTVSPropertyOp23
 70
     1
102
RTVSPropertyOp24
 70
     1
102
RTVSPropertyOp25
 70
     1
102
RTVSPropertyOp26
 70
     1
102
RTVSPropertyOp27
 70
     1
102
RTVSPropertyOp28
 70
     1
102
RTVSPropertyOp29
 70
     1
102
RTVSPropertyOp30
 70
     1
102
RTVSPropertyOp31
 70
     1
102
RTVSPropertyOp32
 70
     1
  0
XRECORD
  5
237
102
{ACAD_REACTORS
330
236
102
}
330
236
100
AcDbXrecord
280
     1
102
RTVSPropertyOp0
 70
     1
102
RTVSPropertyOp1
 70
     1
102
RTVSPropertyOp2
 70
     1
102
RTVSPropertyOp3
 70
     1
102
RTVSPropertyOp4
 70
     1
102
RTVSPropertyOp5
 70
     1
102
RTVSPropertyOp6
 70
     1
102
RTVSPropertyOp7
 70
     1
102
RTVSPropertyOp8
 70
     1
102
RTVSPropertyOp9
 70
     1
102
RTVSPropertyOp10
 70
     1
102
RTVSPropertyOp11
 70
     1
102
RTVSPropertyOp12
 70
     1
102
RTVSPropertyOp13
 70
     1
102
RTVSPropertyOp14
 70
     1
102
RTVSPropertyOp15
 70
     1
102
RTVSPropertyOp16
 70
     1
102
RTVSPropertyOp17
 70
     1
102
RTVSPropertyOp18
 70
     1
102
RTVSPropertyOp19
 70
     1
102
RTVSPropertyOp20
 70
     1
102
RTVSPropertyOp21
 70
     1
102
RTVSPropertyOp22
 70
     1
102
RTVSPropertyOp23
 70
     1
102
RTVSPropertyOp24
 70
     1
102
RTVSPropertyOp25
 70
     1
102
RTVSPropertyOp26
 70
     1
102
RTVSPropertyOp27
 70
     1
102
RTVSPropertyOp28
 70
     1
102
RTVSPropertyOp29
 70
     1
102
RTVSPropertyOp30
 70
     1
102
RTVSPropertyOp31
 70
     1
102
RTVSPropertyOp32
 70
     1
  0
XRECORD
  5
23F
102
{ACAD_REACTORS
330
23E
102
}
330
23E
100
AcDbXrecord
280
     1
102
RTVSPropertyOp0
 70
     1
102
RTVSPropertyOp1
 70
     1
102
RTVSPropertyOp2
 70
     1
102
RTVSPropertyOp3
 70
     1
102
RTVSPropertyOp4
 70
     1
102
RTVSPropertyOp5
 70
     1
102
RTVSPropertyOp6
 70
     1
102
RTVSPropertyOp7
 70
     1
102
RTVSPropertyOp8
 70
     1
102
RTVSPropertyOp9
 70
     1
102
RTVSPropertyOp10
 70
     1
102
RTVSPropertyOp11
 70
     1
102
RTVSPropertyOp12
 70
     1
102
RTVSPropertyOp13
 70
     1
102
RTVSPropertyOp14
 70
     1
102
RTVSPropertyOp15
 70
     1
102
RTVSPropertyOp16
 70
     1
102
RTVSPropertyOp17
 70
     1
102
RTVSPropertyOp18
 70
     1
102
RTVSPropertyOp19
 70
     1
102
RTVSPropertyOp20
 70
     1
102
RTVSPropertyOp21
 70
     1
102
RTVSPropertyOp22
 70
     1
102
RTVSPropertyOp23
 70
     1
102
RTVSPropertyOp24
 70
     1
102
RTVSPropertyOp25
 70
     1
102
RTVSPropertyOp26
 70
     1
102
RTVSPropertyOp27
 70
     1
102
RTVSPropertyOp28
 70
     1
102
RTVSPropertyOp29
 70
     1
102
RTVSPropertyOp30
 70
     1
102
RTVSPropertyOp31
 70
     1
102
RTVSPropertyOp32
 70
     1
  0
XRECORD
  5
233
102
{ACAD_REACTORS
330
232
102
}
330
232
100
AcDbXrecord
280
     1
102
RTVSPropertyOp0
 70
     1
102
RTVSPropertyOp1
 70
     1
102
RTVSPropertyOp2
 70
     1
102
RTVSPropertyOp3
 70
     1
102
RTVSPropertyOp4
 70
     1
102
RTVSPropertyOp5
 70
     1
102
RTVSPropertyOp6
 70
     1
102
RTVSPropertyOp7
 70
     1
102
RTVSPropertyOp8
 70
     1
102
RTVSPropertyOp9
 70
     1
102
RTVSPropertyOp10
 70
     1
102
RTVSPropertyOp11
 70
     1
102
RTVSPropertyOp12
 70
     1
102
RTVSPropertyOp13
 70
     1
102
RTVSPropertyOp14
 70
     1
102
RTVSPropertyOp15
 70
     1
102
RTVSPropertyOp16
 70
     1
102
RTVSPropertyOp17
 70
     1
102
RTVSPropertyOp18
 70
     1
102
RTVSPropertyOp19
 70
     1
102
RTVSPropertyOp20
 70
     1
102
RTVSPropertyOp21
 70
     1
102
RTVSPropertyOp22
 70
     1
102
RTVSPropertyOp23
 70
     1
102
RTVSPropertyOp24
 70
     1
102
RTVSPropertyOp25
 70
     1
102
RTVSPropertyOp26
 70
     1
102
RTVSPropertyOp27
 70
     1
102
RTVSPropertyOp28
 70
     1
102
RTVSPropertyOp29
 70
     1
102
RTVSPropertyOp30
 70
     1
102
RTVSPropertyOp31
 70
     1
102
RTVSPropertyOp32
 70
     1
  0
XRECORD
  5
235
102
{ACAD_REACTORS
330
234
102
}
330
234
100
AcDbXrecord
280
     1
102
RTVSPropertyOp0
 70
     1
102
RTVSPropertyOp1
 70
     1
102
RTVSPropertyOp2
 70
     1
102
RTVSPropertyOp3
 70
     1
102
RTVSPropertyOp4
 70
     1
102
RTVSPropertyOp5
 70
     1
102
RTVSPropertyOp6
 70
     1
102
RTVSPropertyOp7
 70
     1
102
RTVSPropertyOp8
 70
     1
102
RTVSPropertyOp9
 70
     1
102
RTVSPropertyOp10
 70
     1
102
RTVSPropertyOp11
 70
     1
102
RTVSPropertyOp12
 70
     1
102
RTVSPropertyOp13
 70
     1
102
RTVSPropertyOp14
 70
     1
102
RTVSPropertyOp15
 70
     1
102
RTVSPropertyOp16
 70
     1
102
RTVSPropertyOp17
 70
     1
102
RTVSPropertyOp18
 70
     1
102
RTVSPropertyOp19
 70
     1
102
RTVSPropertyOp20
 70
     1
102
RTVSPropertyOp21
 70
     1
102
RTVSPropertyOp22
 70
     1
102
RTVSPropertyOp23
 70
     1
102
RTVSPropertyOp24
 70
     1
102
RTVSPropertyOp25
 70
     1
102
RTVSPropertyOp26
 70
     1
102
RTVSPropertyOp27
 70
     1
102
RTVSPropertyOp28
 70
     1
102
RTVSPropertyOp29
 70
     1
102
RTVSPropertyOp30
 70
     1
102
RTVSPropertyOp31
 70
     1
102
RTVSPropertyOp32
 70
     1
  0
XRECORD
  5
23D
102
{ACAD_REACTORS
330
23C
102
}
330
23C
100
AcDbXrecord
280
     1
102
RTVSPropertyOp0
 70
     1
102
RTVSPropertyOp1
 70
     1
102
RTVSPropertyOp2
 70
     1
102
RTVSPropertyOp3
 70
     1
102
RTVSPropertyOp4
 70
     1
102
RTVSPropertyOp5
 70
     1
102
RTVSPropertyOp6
 70
     1
102
RTVSPropertyOp7
 70
     1
102
RTVSPropertyOp8
 70
     1
102
RTVSPropertyOp9
 70
     1
102
RTVSPropertyOp10
 70
     1
102
RTVSPropertyOp11
 70
     1
102
RTVSPropertyOp12
 70
     1
102
RTVSPropertyOp13
 70
     1
102
RTVSPropertyOp14
 70
     1
102
RTVSPropertyOp15
 70
     1
102
RTVSPropertyOp16
 70
     1
102
RTVSPropertyOp17
 70
     1
102
RTVSPropertyOp18
 70
     1
102
RTVSPropertyOp19
 70
     1
102
RTVSPropertyOp20
 70
     1
102
RTVSPropertyOp21
 70
     1
102
RTVSPropertyOp22
 70
     1
102
RTVSPropertyOp23
 70
     1
102
RTVSPropertyOp24
 70
     1
102
RTVSPropertyOp25
 70
     1
102
RTVSPropertyOp26
 70
     1
102
RTVSPropertyOp27
 70
     1
102
RTVSPropertyOp28
 70
     1
102
RTVSPropertyOp29
 70
     1
102
RTVSPropertyOp30
 70
     1
102
RTVSPropertyOp31
 70
     1
102
RTVSPropertyOp32
 70
     1
  0
XRECORD
  5
221
102
{ACAD_REACTORS
330
220
102
}
330
220
100
AcDbXrecord
280
     1
102
RTVSPropertyOp0
 70
     1
102
RTVSPropertyOp1
 70
     1
102
RTVSPropertyOp2
 70
     1
102
RTVSPropertyOp3
 70
     1
102
RTVSPropertyOp4
 70
     1
102
RTVSPropertyOp5
 70
     1
102
RTVSPropertyOp6
 70
     1
102
RTVSPropertyOp7
 70
     1
102
RTVSPropertyOp8
 70
     1
102
RTVSPropertyOp9
 70
     1
102
RTVSPropertyOp10
 70
     1
102
RTVSPropertyOp11
 70
     1
102
RTVSPropertyOp12
 70
     1
102
RTVSPropertyOp13
 70
     1
102
RTVSPropertyOp14
 70
     1
102
RTVSPropertyOp15
 70
     1
102
RTVSPropertyOp16
 70
     1
102
RTVSPropertyOp17
 70
     1
102
RTVSPropertyOp18
 70
     1
102
RTVSPropertyOp19
 70
     1
102
RTVSPropertyOp20
 70
     1
102
RTVSPropertyOp21
 70
     1
102
RTVSPropertyOp22
 70
     1
102
RTVSPropertyOp23
 70
     1
102
RTVSPropertyOp24
 70
     1
102
RTVSPropertyOp25
 70
     1
102
RTVSPropertyOp26
 70
     1
102
RTVSPropertyOp27
 70
     1
102
RTVSPropertyOp28
 70
     1
102
RTVSPropertyOp29
 70
     1
102
RTVSPropertyOp30
 70
     1
102
RTVSPropertyOp31
 70
     1
102
RTVSPropertyOp32
 70
     1
  0
XRECORD
  5
223
102
{ACAD_REACTORS
330
222
102
}
330
222
100
AcDbXrecord
280
     1
102
RTVSPropertyOp0
 70
     1
102
RTVSPropertyOp1
 70
     1
102
RTVSPropertyOp2
 70
     1
102
RTVSPropertyOp3
 70
     1
102
RTVSPropertyOp4
 70
     1
102
RTVSPropertyOp5
 70
     1
102
RTVSPropertyOp6
 70
     1
102
RTVSPropertyOp7
 70
     1
102
RTVSPropertyOp8
 70
     1
102
RTVSPropertyOp9
 70
     1
102
RTVSPropertyOp10
 70
     1
102
RTVSPropertyOp11
 70
     1
102
RTVSPropertyOp12
 70
     1
102
RTVSPropertyOp13
 70
     1
102
RTVSPropertyOp14
 70
     1
102
RTVSPropertyOp15
 70
     1
102
RTVSPropertyOp16
 70
     1
102
RTVSPropertyOp17
 70
     1
102
RTVSPropertyOp18
 70
     1
102
RTVSPropertyOp19
 70
     1
102
RTVSPropertyOp20
 70
     1
102
RTVSPropertyOp21
 70
     1
102
RTVSPropertyOp22
 70
     1
102
RTVSPropertyOp23
 70
     1
102
RTVSPropertyOp24
 70
     1
102
RTVSPropertyOp25
 70
     1
102
RTVSPropertyOp26
 70
     1
102
RTVSPropertyOp27
 70
     1
102
RTVSPropertyOp28
 70
     1
102
RTVSPropertyOp29
 70
     1
102
RTVSPropertyOp30
 70
     1
102
RTVSPropertyOp31
 70
     1
102
RTVSPropertyOp32
 70
     1
  0
XRECORD
  5
225
102
{ACAD_REACTORS
330
224
102
}
330
224
100
AcDbXrecord
280
     1
102
RTVSPropertyOp0
 70
     1
102
RTVSPropertyOp1
 70
     1
102
RTVSPropertyOp2
 70
     1
102
RTVSPropertyOp3
 70
     1
102
RTVSPropertyOp4
 70
     1
102
RTVSPropertyOp5
 70
     1
102
RTVSPropertyOp6
 70
     1
102
RTVSPropertyOp7
 70
     1
102
RTVSPropertyOp8
 70
     1
102
RTVSPropertyOp9
 70
     1
102
RTVSPropertyOp10
 70
     1
102
RTVSPropertyOp11
 70
     1
102
RTVSPropertyOp12
 70
     1
102
RTVSPropertyOp13
 70
     1
102
RTVSPropertyOp14
 70
     1
102
RTVSPropertyOp15
 70
     1
102
RTVSPropertyOp16
 70
     1
102
RTVSPropertyOp17
 70
     1
102
RTVSPropertyOp18
 70
     1
102
RTVSPropertyOp19
 70
     1
102
RTVSPropertyOp20
 70
     1
102
RTVSPropertyOp21
 70
     1
102
RTVSPropertyOp22
 70
     1
102
RTVSPropertyOp23
 70
     1
102
RTVSPropertyOp24
 70
     1
102
RTVSPropertyOp25
 70
     1
102
RTVSPropertyOp26
 70
     1
102
RTVSPropertyOp27
 70
     1
102
RTVSPropertyOp28
 70
     1
102
RTVSPropertyOp29
 70
     1
102
RTVSPropertyOp30
 70
     1
102
RTVSPropertyOp31
 70
     1
102
RTVSPropertyOp32
 70
     1
  0
XRECORD
  5
227
102
{ACAD_REACTORS
330
226
102
}
330
226
100
AcDbXrecord
280
     1
102
RTVSPropertyOp0
 70
     1
102
RTVSPropertyOp1
 70
     1
102
RTVSPropertyOp2
 70
     1
102
RTVSPropertyOp3
 70
     1
102
RTVSPropertyOp4
 70
     1
102
RTVSPropertyOp5
 70
     1
102
RTVSPropertyOp6
 70
     1
102
RTVSPropertyOp7
 70
     1
102
RTVSPropertyOp8
 70
     1
102
RTVSPropertyOp9
 70
     1
102
RTVSPropertyOp10
 70
     1
102
RTVSPropertyOp11
 70
     1
102
RTVSPropertyOp12
 70
     1
102
RTVSPropertyOp13
 70
     1
102
RTVSPropertyOp14
 70
     1
102
RTVSPropertyOp15
 70
     1
102
RTVSPropertyOp16
 70
     1
102
RTVSPropertyOp17
 70
     1
102
RTVSPropertyOp18
 70
     1
102
RTVSPropertyOp19
 70
     1
102
RTVSPropertyOp20
 70
     1
102
RTVSPropertyOp21
 70
     1
102
RTVSPropertyOp22
 70
     1
102
RTVSPropertyOp23
 70
     1
102
RTVSPropertyOp24
 70
     1
102
RTVSPropertyOp25
 70
     1
102
RTVSPropertyOp26
 70
     1
102
RTVSPropertyOp27
 70
     1
102
RTVSPropertyOp28
 70
     1
102
RTVSPropertyOp29
 70
     1
102
RTVSPropertyOp30
 70
     1
102
RTVSPropertyOp31
 70
     1
102
RTVSPropertyOp32
 70
     1
  0
XRECORD
  5
23B
102
{ACAD_REACTORS
330
23A
102
}
330
23A
100
AcDbXrecord
280
     1
102
RTVSPropertyOp0
 70
     1
102
RTVSPropertyOp1
 70
     1
102
RTVSPropertyOp2
 70
     1
102
RTVSPropertyOp3
 70
     1
102
RTVSPropertyOp4
 70
     1
102
RTVSPropertyOp5
 70
     1
102
RTVSPropertyOp6
 70
     1
102
RTVSPropertyOp7
 70
     1
102
RTVSPropertyOp8
 70
     1
102
RTVSPropertyOp9
 70
     1
102
RTVSPropertyOp10
 70
     1
102
RTVSPropertyOp11
 70
     1
102
RTVSPropertyOp12
 70
     1
102
RTVSPropertyOp13
 70
     1
102
RTVSPropertyOp14
 70
     1
102
RTVSPropertyOp15
 70
     1
102
RTVSPropertyOp16
 70
     1
102
RTVSPropertyOp17
 70
     1
102
RTVSPropertyOp18
 70
     1
102
RTVSPropertyOp19
 70
     1
102
RTVSPropertyOp20
 70
     1
102
RTVSPropertyOp21
 70
     1
102
RTVSPropertyOp22
 70
     1
102
RTVSPropertyOp23
 70
     1
102
RTVSPropertyOp24
 70
     1
102
RTVSPropertyOp25
 70
     1
102
RTVSPropertyOp26
 70
     1
102
RTVSPropertyOp27
 70
     1
102
RTVSPropertyOp28
 70
     1
102
RTVSPropertyOp29
 70
     1
102
RTVSPropertyOp30
 70
     1
102
RTVSPropertyOp31
 70
     1
102
RTVSPropertyOp32
 70
     1
  0
XRECORD
  5
231
102
{ACAD_REACTORS
330
230
102
}
330
230
100
AcDbXrecord
280
     1
102
RTVSPropertyOp0
 70
     1
102
RTVSPropertyOp1
 70
     1
102
RTVSPropertyOp2
 70
     1
102
RTVSPropertyOp3
 70
     1
102
RTVSPropertyOp4
 70
     1
102
RTVSPropertyOp5
 70
     1
102
RTVSPropertyOp6
 70
     1
102
RTVSPropertyOp7
 70
     1
102
RTVSPropertyOp8
 70
     1
102
RTVSPropertyOp9
 70
     1
102
RTVSPropertyOp10
 70
     1
102
RTVSPropertyOp11
 70
     1
102
RTVSPropertyOp12
 70
     1
102
RTVSPropertyOp13
 70
     1
102
RTVSPropertyOp14
 70
     1
102
RTVSPropertyOp15
 70
     1
102
RTVSPropertyOp16
 70
     1
102
RTVSPropertyOp17
 70
     1
102
RTVSPropertyOp18
 70
     1
102
RTVSPropertyOp19
 70
     1
102
RTVSPropertyOp20
 70
     1
102
RTVSPropertyOp21
 70
     1
102
RTVSPropertyOp22
 70
     1
102
RTVSPropertyOp23
 70
     1
102
RTVSPropertyOp24
 70
     1
102
RTVSPropertyOp25
 70
     1
102
RTVSPropertyOp26
 70
     1
102
RTVSPropertyOp27
 70
     1
102
RTVSPropertyOp28
 70
     1
102
RTVSPropertyOp29
 70
     1
102
RTVSPropertyOp30
 70
     1
102
RTVSPropertyOp31
 70
     1
102
RTVSPropertyOp32
 70
     1
  0
XRECORD
  5
239
102
{ACAD_REACTORS
330
238
102
}
330
238
100
AcDbXrecord
280
     1
102
RTVSPropertyOp0
 70
     1
102
RTVSPropertyOp1
 70
     1
102
RTVSPropertyOp2
 70
     1
102
RTVSPropertyOp3
 70
     1
102
RTVSPropertyOp4
 70
     1
102
RTVSPropertyOp5
 70
     1
102
RTVSPropertyOp6
 70
     1
102
RTVSPropertyOp7
 70
     1
102
RTVSPropertyOp8
 70
     1
102
RTVSPropertyOp9
 70
     1
102
RTVSPropertyOp10
 70
     1
102
RTVSPropertyOp11
 70
     1
102
RTVSPropertyOp12
 70
     1
102
RTVSPropertyOp13
 70
     1
102
RTVSPropertyOp14
 70
     1
102
RTVSPropertyOp15
 70
     1
102
RTVSPropertyOp16
 70
     1
102
RTVSPropertyOp17
 70
     1
102
RTVSPropertyOp18
 70
     1
102
RTVSPropertyOp19
 70
     1
102
RTVSPropertyOp20
 70
     1
102
RTVSPropertyOp21
 70
     1
102
RTVSPropertyOp22
 70
     1
102
RTVSPropertyOp23
 70
     1
102
RTVSPropertyOp24
 70
     1
102
RTVSPropertyOp25
 70
     1
102
RTVSPropertyOp26
 70
     1
102
RTVSPropertyOp27
 70
     1
102
RTVSPropertyOp28
 70
     1
102
RTVSPropertyOp29
 70
     1
102
RTVSPropertyOp30
 70
     1
102
RTVSPropertyOp31
 70
     1
102
RTVSPropertyOp32
 70
     1
  0
ENDSEC
  0
EOF
