  0
SECTION
  2
HEADER
  9
$ACADVER
  1
AC1015
  9
$ACADMAINTVER
 70
     6
  9
$DWGCODEPAGE
  3
ANSI_1252
  9
$INSBASE
 10
0.0
 20
0.0
 30
0.0
  9
$EXTMIN
 10
0.0
 20
0.0
 30
0.0
  9
$EXTMAX
 10
210.0
 20
297.0
 30
0.0
  9
$LIMMIN
 10
0.0
 20
0.0
  9
$LIMMAX
 10
210.0
 20
297.0
  9
$ORTHOMODE
 70
     0
  9
$REGENMODE
 70
     1
  9
$FILLMODE
 70
     1
  9
$QTEXTMODE
 70
     0
  9
$MIRRTEXT
 70
     1
  9
$LTSCALE
 40
1.0
  9
$ATTMODE
 70
     1
  9
$TEXTSIZE
 40
2.5
  9
$TRACEWID
 40
1.0
  9
$TEXTSTYLE
  7
Standard
  9
$CLAYER
  8
0
  9
$CELTYPE
  6
ByLayer
  9
$CECOLOR
 62
   256
  9
$CELTSCALE
 40
1.0
  9
$DISPSILH
 70
     0
  9
$DIMSCALE
 40
1.0
  9
$DIMASZ
 40
2.5
  9
$DIMEXO
 40
0.625
  9
$DIMDLI
 40
3.75
  9
$DIMRND
 40
0.0
  9
$DIMDLE
 40
0.0
  9
$DIMEXE
 40
1.25
  9
$DIMTP
 40
0.0
  9
$DIMTM
 40
0.0
  9
$DIMTXT
 40
2.5
  9
$DIMCEN
 40
2.5
  9
$DIMTSZ
 40
0.0
  9
$DIMTOL
 70
     0
  9
$DIMLIM
 70
     0
  9
$DIMTIH
 70
     0
  9
$DIMTOH
 70
     0
  9
$DIMSE1
 70
     0
  9
$DIMSE2
 70
     0
  9
$DIMTAD
 70
     1
  9
$DIMZIN
 70
     8
  9
$DIMBLK
  1

  9
$DIMASO
 70
     1
  9
$DIMSHO
 70
     1
  9
$DIMPOST
  1

  9
$DIMAPOST
  1

  9
$DIMALT
 70
     0
  9
$DIMALTD
 70
     3
  9
$DIMALTF
 40
0.0393700787
  9
$DIMLFAC
 40
1.0
  9
$DIMTOFL
 70
     1
  9
$DIMTVP
 40
0.0
  9
$DIMTIX
 70
     0
  9
$DIMSOXD
 70
     0
  9
$DIMSAH
 70
     0
  9
$DIMBLK1
  1

  9
$DIMBLK2
  1

  9
$DIMSTYLE
  2
ISO-25
  9
$DIMCLRD
 70
     0
  9
$DIMCLRE
 70
     0
  9
$DIMCLRT
 70
     0
  9
$DIMTFAC
 40
1.0
  9
$DIMGAP
 40
0.625
  9
$DIMJUST
 70
     0
  9
$DIMSD1
 70
     0
  9
$DIMSD2
 70
     0
  9
$DIMTOLJ
 70
     0
  9
$DIMTZIN
 70
     8
  9
$DIMALTZ
 70
     0
  9
$DIMALTTZ
 70
     0
  9
$DIMUPT
 70
     0
  9
$DIMDEC
 70
     2
  9
$DIMTDEC
 70
     2
  9
$DIMALTU
 70
     2
  9
$DIMALTTD
 70
     3
  9
$DIMTXSTY
  7
Standard
  9
$DIMAUNIT
 70
     0
  9
$DIMADEC
 70
     0
  9
$DIMALTRND
 40
0.0
  9
$DIMAZIN
 70
     0
  9
$DIMDSEP
 70
    44
  9
$DIMATFIT
 70
     3
  9
$DIMFRAC
 70
     0
  9
$DIMLDRBLK
  1

  9
$DIMLUNIT
 70
     2
  9
$DIMLWD
 70
    -2
  9
$DIMLWE
 70
    -2
  9
$DIMTMOVE
 70
     0
  9
$LUNITS
 70
     2
  9
$LUPREC
 70
     4
  9
$SKETCHINC
 40
1.0
  9
$FILLETRAD
 40
10.0
  9
$AUNITS
 70
     0
  9
$AUPREC
 70
     0
  9
$MENU
  1
.
  9
$ELEVATION
 40
0.0
  9
$PELEVATION
 40
0.0
  9
$THICKNESS
 40
0.0
  9
$LIMCHECK
 70
     0
  9
$CHAMFERA
 40
10.0
  9
$CHAMFERB
 40
10.0
  9
$CHAMFERC
 40
20.0
  9
$CHAMFERD
 40
0.0
  9
$SKPOLY
 70
     0
  9
$TDCREATE
 40
2457561.348239618
  9
$TDUCREATE
 40
2457561.264906285
  9
$TDUPDATE
 40
2457561.348242778
  9
$TDUUPDATE
 40
2457561.264909444
  9
$TDINDWG
 40
0.0000000116
  9
$TDUSRTIMER
 40
0.0000000116
  9
$USRTIMER
 70
     1
  9
$ANGBASE
 50
0.0
  9
$ANGDIR
 70
     0
  9
$PDMODE
 70
     0
  9
$PDSIZE
 40
0.0
  9
$PLINEWID
 40
0.0
  9
$SPLFRAME
 70
     0
  9
$SPLINETYPE
 70
     6
  9
$SPLINESEGS
 70
     8
  9
$HANDSEED
  5
270
  9
$SURFTAB1
 70
     6
  9
$SURFTAB2
 70
     6
  9
$SURFTYPE
 70
     6
  9
$SURFU
 70
     6
  9
$SURFV
 70
     6
  9
$UCSBASE
  2

  9
$UCSNAME
  2

  9
$UCSORG
 10
0.0
 20
0.0
 30
0.0
  9
$UCSXDIR
 10
1.0
 20
0.0
 30
0.0
  9
$UCSYDIR
 10
0.0
 20
1.0
 30
0.0
  9
$UCSORTHOREF
  2

  9
$UCSORTHOVIEW
 70
     0
  9
$UCSORGTOP
 10
0.0
 20
0.0
 30
0.0
  9
$UCSORGBOTTOM
 10
0.0
 20
0.0
 30
0.0
  9
$UCSORGLEFT
 10
0.0
 20
0.0
 30
0.0
  9
$UCSORGRIGHT
 10
0.0
 20
0.0
 30
0.0
  9
$UCSORGFRONT
 10
0.0
 20
0.0
 30
0.0
  9
$UCSORGBACK
 10
0.0
 20
0.0
 30
0.0
  9
$PUCSBASE
  2

  9
$PUCSNAME
  2

  9
$PUCSORG
 10
0.0
 20
0.0
 30
0.0
  9
$PUCSXDIR
 10
1.0
 20
0.0
 30
0.0
  9
$PUCSYDIR
 10
0.0
 20
1.0
 30
0.0
  9
$PUCSORTHOREF
  2

  9
$PUCSORTHOVIEW
 70
     0
  9
$PUCSORGTOP
 10
0.0
 20
0.0
 30
0.0
  9
$PUCSORGBOTTOM
 10
0.0
 20
0.0
 30
0.0
  9
$PUCSORGLEFT
 10
0.0
 20
0.0
 30
0.0
  9
$PUCSORGRIGHT
 10
0.0
 20
0.0
 30
0.0
  9
$PUCSORGFRONT
 10
0.0
 20
0.0
 30
0.0
  9
$PUCSORGBACK
 10
0.0
 20
0.0
 30
0.0
  9
$USERI1
 70
     0
  9
$USERI2
 70
     0
  9
$USERI3
 70
     0
  9
$USERI4
 70
     0
  9
$USERI5
 70
     0
  9
$USERR1
 40
0.0
  9
$USERR2
 40
0.0
  9
$USERR3
 40
0.0
  9
$USERR4
 40
0.0
  9
$USERR5
 40
0.0
  9
$WORLDVIEW
 70
     1
  9
$SHADEDGE
 70
     3
  9
$SHADEDIF
 70
    70
  9
$TILEMODE
 70
     1
  9
$MAXACTVP
 70
    64
  9
$PINSBASE
 10
0.0
 20
0.0
 30
0.0
  9
$PLIMCHECK
 70
     0
  9
$PEXTMIN
 10
0.0
 20
0.0
 30
0.0
  9
$PEXTMAX
 10
210.0
 20
297.0
 30
0.0
  9
$PLIMMIN
 10
0.0
 20
0.0
  9
$PLIMMAX
 10
210.0
 20
297.0
  9
$UNITMODE
 70
     0
  9
$VISRETAIN
 70
     1
  9
$PLINEGEN
 70
     0
  9
$PSLTSCALE
 70
     1
  9
$TREEDEPTH
 70
  3020
  9
$CMLSTYLE
  2
Standard
  9
$CMLJUST
 70
     0
  9
$CMLSCALE
 40
20.0
  9
$PROXYGRAPHICS
 70
     1
  9
$MEASUREMENT
 70
     1
  9
$CELWEIGHT
370
    -1
  9
$ENDCAPS
280
     0
  9
$JOINSTYLE
280
     0
  9
$LWDISPLAY
290
     0
  9
$INSUNITS
 70
     4
  9
$HYPERLINKBASE
  1

  9
$STYLESHEET
  1

  9
$XEDIT
290
     1
  9
$CEPSNTYPE
380
     0
  9
$PSTYLEMODE
290
     1
  9
$FINGERPRINTGUID
  2
{A88E124B-17A7-4AED-996A-6642A8E77E1F}
  9
$VERSIONGUID
  2
{FAEB1C32-E019-11D5-929B-00C0DF256EC4}
  9
$EXTNAMES
290
     1
  9
$PSVPSCALE
 40
0.0
  9
$OLESTARTUP
290
     0
  0
ENDSEC
  0
SECTION
  2
CLASSES
  0
CLASS
  1
ACDBDICTIONARYWDFLT
  2
AcDbDictionaryWithDefault
  3
ObjectDBX Classes
 90
        0
280
     0
281
     0
  0
CLASS
  1
VISUALSTYLE
  2
AcDbVisualStyle
  3
ObjectDBX Classes
 90
     4095
280
     0
281
     0
  0
CLASS
  1
MATERIAL
  2
AcDbMaterial
  3
ObjectDBX Classes
 90
     1153
280
     0
281
     0
  0
CLASS
  1
DICTIONARYVAR
  2
AcDbDictionaryVar
  3
ObjectDBX Classes
 90
        0
280
     0
281
     0
  0
CLASS
  1
ACDBPLACEHOLDER
  2
AcDbPlaceHolder
  3
ObjectDBX Classes
 90
        0
280
     0
281
     0
  0
CLASS
  1
LAYOUT
  2
AcDbLayout
  3
ObjectDBX Classes
 90
        0
280
     0
281
     0
  0
ENDSEC
  0
SECTION
  2
TABLES
  0
TABLE
  2
VPORT
  5
8
330
0
100
AcDbSymbolTable
 70
     1
  0
VPORT
  5
29
330
8
100
AcDbSymbolTableRecord
100
AcDbViewportTableRecord
  2
*Active
 70
     0
 10
0.0
 20
0.0
 11
1.0
 21
1.0
 12
344.1869158879
 22
148.5
 13
0.0
 23
0.0
 14
10.0
 24
10.0
 15
10.0
 25
10.0
 16
0.0
 26
0.0
 36
1.0
 17
0.0
 27
0.0
 37
0.0
 40
297.0
 41
1.9729729729
 42
50.0
 43
0.0
 44
0.0
 50
0.0
 51
0.0
 71
     0
 72
   100
 73
     1
 74
     3
 75
     0
 76
     0
 77
     0
 78
     0
281
     0
 65
     1
110
0.0
120
0.0
130
0.0
111
1.0
121
0.0
131
0.0
112
0.0
122
1.0
132
0.0
 79
     0
146
0.0
  0
ENDTAB
  0
TABLE
  2
LTYPE
  5
5
330
0
100
AcDbSymbolTable
 70
     2
  0
LTYPE
  5
14
330
5
100
AcDbSymbolTableRecord
100
AcDbLinetypeTableRecord
  2
ByBlock
 70
     0
  3

 72
    65
 73
     0
 40
0.0
  0
LTYPE
  5
15
330
5
100
AcDbSymbolTableRecord
100
AcDbLinetypeTableRecord
  2
ByLayer
 70
     0
  3

 72
    65
 73
     0
 40
0.0
  0
LTYPE
  5
16
330
5
100
AcDbSymbolTableRecord
100
AcDbLinetypeTableRecord
  2
Continuous
 70
     0
  3
Solid line
 72
    65
 73
     0
 40
0.0
  0
LTYPE
  5
5B
330
5
100
AcDbSymbolTableRecord
100
AcDbLinetypeTableRecord
  2
HIDDEN2
 70
     0
  3
Hidden (.5x) _ _ _ _ _ _ _ _ _ _ _ _ _ _ _ _ _ 
 72
    65
 73
     2
 40
4.7625
 49
3.175
 74
     4
 75
     0
340
0
 46
0.0
 50
0.0
 44
0.0
 45
0.0
 49
-1.5875
 74
     4
 75
     0
340
0
 46
0.0
 50
0.0
 44
0.0
 45
0.0
  0
ENDTAB
  0
TABLE
  2
LAYER
  5
2
330
0
100
AcDbSymbolTable
 70
     5
  0
LAYER
  5
10
330
2
100
AcDbSymbolTableRecord
100
AcDbLayerTableRecord
  2
0
 70
     0
 62
     7
  6
Continuous
370
    -3
390
F
  0
LAYER
  5
3F
330
2
100
AcDbSymbolTableRecord
100
AcDbLayerTableRecord
  2
SK2
 70
     0
 62
     7
  6
Continuous
370
    15
390
F
  0
LAYER
  5
40
330
2
100
AcDbSymbolTableRecord
100
AcDbLayerTableRecord
  2
SK1
 70
     0
 62
     4
  6
Continuous
370
    18
390
F
  0
LAYER
  5
5A
330
2
100
AcDbSymbolTableRecord
100
AcDbLayerTableRecord
  2
SK3
 70
     0
 62
     1
  6
HIDDEN2
370
    15
390
F
  0
LAYER
  5
203
330
2
100
AcDbSymbolTableRecord
100
AcDbLayerTableRecord
  2
SK4
 70
     0
 62
     2
  6
Continuous
370
    13
390
F
  0
ENDTAB
  0
TABLE
  2
STYLE
  5
3
330
0
100
AcDbSymbolTable
 70
     2
  0
STYLE
  5
11
330
3
100
AcDbSymbolTableRecord
100
AcDbTextStyleTableRecord
  2
Standard
 70
     0
 40
0.0
 41
1.0
 50
0.0
 71
     0
 42
2.5
  3
txt
  4

  0
STYLE
  5
217
330
3
100
AcDbSymbolTableRecord
100
AcDbTextStyleTableRecord
  2
SEACAD_Solid_Edge_ISO
 70
     0
 40
0.0
 41
1.0
 50
0.0
 71
     0
 42
0.2
  3
seiso.ttf
  4

1001
ACAD
1000
Solid Edge ISO
1071
        0
  0
ENDTAB
  0
TABLE
  2
VIEW
  5
6
330
0
100
AcDbSymbolTable
 70
     0
  0
ENDTAB
  0
TABLE
  2
UCS
  5
7
330
0
100
AcDbSymbolTable
 70
     0
  0
ENDTAB
  0
TABLE
  2
APPID
  5
9
330
0
100
AcDbSymbolTable
 70
     1
  0
APPID
  5
12
330
9
100
AcDbSymbolTableRecord
100
AcDbRegAppTableRecord
  2
ACAD
 70
     0
  0
ENDTAB
  0
TABLE
  2
DIMSTYLE
  5
A
330
0
100
AcDbSymbolTable
 70
     3
100
AcDbDimStyleTable
  0
DIMSTYLE
105
27
330
A
100
AcDbSymbolTableRecord
100
AcDbDimStyleTableRecord
  2
ISO-25
 70
     0
 41
2.5
 42
0.625
 43
3.75
 44
1.25
 73
     0
 74
     0
 77
     1
 78
     8
140
2.5
141
2.5
143
0.0393700787
147
0.625
171
     3
172
     1
178
     0
271
     2
272
     2
274
     3
278
    44
283
     0
284
     8
340
11
  0
DIMSTYLE
105
205
330
A
100
AcDbSymbolTableRecord
100
AcDbDimStyleTableRecord
  2
Standard
 70
     0
178
     0
340
11
  0
DIMSTYLE
105
218
102
{ACAD_REACTORS
330
219
330
224
330
22E
330
239
102
}
330
A
100
AcDbSymbolTableRecord
100
AcDbDimStyleTableRecord
  2
DIN
 70
     0
 41
3.5
 42
0.0
 44
1.75
 73
     0
 74
     0
 77
     1
 78
     8
140
3.5
141
1.75
147
1.75
172
     1
173
     1
178
     0
179
     3
271
     2
272
     2
278
    44
284
     8
340
217
343
212
344
212
  0
ENDTAB
  0
TABLE
  2
BLOCK_RECORD
  5
1
330
0
100
AcDbSymbolTable
 70
    10
  0
BLOCK_RECORD
  5
1F
330
1
100
AcDbSymbolTableRecord
100
AcDbBlockTableRecord
  2
*Model_Space
340
22
  0
BLOCK_RECORD
  5
1B
330
1
100
AcDbSymbolTableRecord
100
AcDbBlockTableRecord
  2
*Paper_Space
340
1E
  0
BLOCK_RECORD
  5
41
330
1
100
AcDbSymbolTableRecord
100
AcDbBlockTableRecord
  2
Nullpunkt
340
0
102
{BLKREFS
331
4B
102
}
  0
BLOCK_RECORD
  5
4C
330
1
100
AcDbSymbolTableRecord
100
AcDbBlockTableRecord
  2
Einfügepunkt
340
0
102
{BLKREFS
331
56
102
}
  0
BLOCK_RECORD
  5
206
330
1
100
AcDbSymbolTableRecord
100
AcDbBlockTableRecord
  2
_OBLIQUE
340
0
  0
BLOCK_RECORD
  5
20A
330
1
100
AcDbSymbolTableRecord
100
AcDbBlockTableRecord
  2
_DOT
340
0
  0
BLOCK_RECORD
  5
212
330
1
100
AcDbSymbolTableRecord
100
AcDbBlockTableRecord
  2
_SE_FILLED
340
0
  0
BLOCK_RECORD
  5
21A
330
1
100
AcDbSymbolTableRecord
100
AcDbBlockTableRecord
  2
DMBLK1
340
0
  0
BLOCK_RECORD
  5
225
330
1
100
AcDbSymbolTableRecord
100
AcDbBlockTableRecord
  2
DMBLK2
340
0
  0
BLOCK_RECORD
  5
22F
330
1
100
AcDbSymbolTableRecord
100
AcDbBlockTableRecord
  2
DMBLK3
340
0
  0
BLOCK_RECORD
  5
23A
330
1
100
AcDbSymbolTableRecord
100
AcDbBlockTableRecord
  2
DMBLK4
340
0
  0
ENDTAB
  0
ENDSEC
  0
SECTION
  2
BLOCKS
  0
BLOCK
  5
20
330
1F
100
AcDbEntity
  8
0
100
AcDbBlockBegin
  2
*Model_Space
 70
     0
 10
0.0
 20
0.0
 30
0.0
  3
*Model_Space
  1

  0
ENDBLK
  5
21
330
1F
100
AcDbEntity
  8
0
100
AcDbBlockEnd
  0
BLOCK
  5
1C
330
1B
100
AcDbEntity
 67
     1
  8
0
100
AcDbBlockBegin
  2
*Paper_Space
 70
     0
 10
0.0
 20
0.0
 30
0.0
  3
*Paper_Space
  1

  0
ENDBLK
  5
1D
330
1B
100
AcDbEntity
 67
     1
  8
0
100
AcDbBlockEnd
  0
BLOCK
  5
49
330
41
100
AcDbEntity
  8
0
100
AcDbBlockBegin
  2
Nullpunkt
 70
     0
 10
0.0
 20
0.0
 30
0.0
  3
Nullpunkt
  1

  0
HATCH
  5
42
330
41
100
AcDbEntity
  8
SK2
  6
Continuous
 62
     7
100
AcDbHatch
 10
0.0
 20
0.0
 30
0.0
210
0.0
220
0.0
230
1.0
  2
SOLID
 70
     1
 71
     0
 91
        1
 92
        1
 93
        3
 72
     1
 10
-1.0
 20
0.0
 11
0.0000000000000009
 21
0.0
 72
     1
 10
0.0
 20
0.0
 11
0.0
 21
1.000000000000001
 72
     2
 10
0.0
 20
0.0
 40
1.0
 50
90.0
 51
180.0
 73
     1
 97
        0
 75
     0
 76
     1
 98
        0
  0
HATCH
  5
43
330
41
100
AcDbEntity
  8
SK2
  6
Continuous
 62
     7
100
AcDbHatch
 10
0.0
 20
0.0
 30
0.0
210
0.0
220
0.0
230
1.0
  2
SOLID
 70
     1
 71
     0
 91
        1
 92
        1
 93
        3
 72
     2
 10
0.0
 20
0.0
 40
1.0
 50
270.0
 51
360.0
 73
     1
 72
     1
 10
1.0
 20
0.0
 11
-0.0000000000000009
 21
0.0
 72
     1
 10
0.0
 20
0.0
 11
0.0
 21
-1.000000000000001
 97
        0
 75
     0
 76
     1
 98
        0
  0
CIRCLE
  5
44
330
41
100
AcDbEntity
  8
SK2
  6
Continuous
 62
     7
100
AcDbCircle
 10
0.0
 20
0.0
 30
0.0
 40
1.0
  0
LINE
  5
45
330
41
100
AcDbEntity
  8
SK1
  6
Continuous
100
AcDbLine
 10
-1.0
 20
0.0
 30
0.0
 11
1.0
 21
0.0
 31
0.0
  0
LINE
  5
46
330
41
100
AcDbEntity
  8
SK1
  6
Continuous
100
AcDbLine
 10
0.0
 20
1.0
 30
0.0
 11
0.0
 21
-1.0
 31
0.0
  0
POINT
  5
47
330
41
100
AcDbEntity
  8
SK1
  6
Continuous
100
AcDbPoint
 10
0.0
 20
0.0
 30
0.0
  0
POINT
  5
48
330
41
100
AcDbEntity
  8
SK1
  6
Continuous
100
AcDbPoint
 10
0.0
 20
0.0
 30
0.0
  0
ENDBLK
  5
4A
330
41
100
AcDbEntity
  8
0
100
AcDbBlockEnd
  0
BLOCK
  5
54
330
4C
100
AcDbEntity
  8
0
100
AcDbBlockBegin
  2
Einfügepunkt
 70
     0
 10
0.0
 20
0.0
 30
0.0
  3
Einfügepunkt
  1

  0
HATCH
  5
4D
330
4C
100
AcDbEntity
  8
SK2
  6
Continuous
 62
     7
100
AcDbHatch
 10
0.0
 20
0.0
 30
0.0
210
0.0
220
0.0
230
1.0
  2
SOLID
 70
     1
 71
     0
 91
        1
 92
        1
 93
        3
 72
     1
 10
-0.4502381196756744
 20
-0.0000000000000018
 11
0.0000000000000033
 21
-0.0000000000000018
 72
     1
 10
0.0
 20
-0.0000000000000018
 11
0.0
 21
0.4502381196756812
 72
     2
 10
0.0
 20
-0.0000000000000018
 40
0.4502381196756812
 50
90.0
 51
180.0
 73
     1
 97
        0
 75
     0
 76
     1
 98
        0
  0
HATCH
  5
4E
330
4C
100
AcDbEntity
  8
SK2
  6
Continuous
 62
     7
100
AcDbHatch
 10
0.0
 20
0.0
 30
0.0
210
0.0
220
0.0
230
1.0
  2
SOLID
 70
     1
 71
     0
 91
        1
 92
        1
 93
        3
 72
     2
 10
0.0
 20
-0.0000000000000018
 40
0.4502381196756812
 50
270.0
 51
360.0
 73
     1
 72
     1
 10
0.4502381196756815
 20
-0.0000000000000018
 11
0.0000000000000038
 21
-0.0000000000000018
 72
     1
 10
0.0
 20
-0.0000000000000018
 11
0.0
 21
-0.4502381196756812
 97
        0
 75
     0
 76
     1
 98
        0
  0
CIRCLE
  5
4F
330
4C
100
AcDbEntity
  8
SK2
  6
Continuous
 62
     7
100
AcDbCircle
 10
0.0
 20
0.0
 30
0.0
 40
0.4502381196756812
  0
LINE
  5
50
330
4C
100
AcDbEntity
  8
SK1
  6
Continuous
100
AcDbLine
 10
-0.4502381197
 20
0.0
 30
0.0
 11
0.4502381197
 21
0.0
 31
0.0
  0
LINE
  5
51
330
4C
100
AcDbEntity
  8
SK1
  6
Continuous
100
AcDbLine
 10
0.0
 20
0.4502381197
 30
0.0
 11
0.0
 21
-0.4502381197
 31
0.0
  0
POINT
  5
52
330
4C
100
AcDbEntity
  8
SK2
  6
Continuous
 62
     7
100
AcDbPoint
 10
0.0
 20
0.0
 30
0.0
  0
POINT
  5
53
330
4C
100
AcDbEntity
  8
SK2
  6
Continuous
 62
     7
100
AcDbPoint
 10
0.0
 20
0.0
 30
0.0
  0
ENDBLK
  5
55
330
4C
100
AcDbEntity
  8
0
100
AcDbBlockEnd
  0
BLOCK
  5
207
330
206
100
AcDbEntity
  8
0
100
AcDbBlockBegin
  2
_OBLIQUE
 70
     0
 10
0.0
 20
0.0
 30
0.0
  3
_OBLIQUE
  1

  0
LINE
  5
209
330
206
100
AcDbEntity
  8
0
  6
ByBlock
 62
     0
370
    -2
100
AcDbLine
 10
-0.5
 20
-0.5
 30
0.0
 11
0.5
 21
0.5
 31
0.0
  0
ENDBLK
  5
208
330
206
100
AcDbEntity
  8
0
100
AcDbBlockEnd
  0
BLOCK
  5
20B
330
20A
100
AcDbEntity
  8
0
100
AcDbBlockBegin
  2
_DOT
 70
     0
 10
0.0
 20
0.0
 30
0.0
  3
_DOT
  1

  0
POLYLINE
  5
20D
330
20A
100
AcDbEntity
  8
0
  6
ByBlock
 62
     0
100
AcDb2dPolyline
 66
     1
 10
0.0
 20
0.0
 30
0.0
 70
     1
 40
0.5
 41
0.5
  0
VERTEX
  5
20F
330
20D
100
AcDbEntity
  8
0
  6
ByBlock
 62
     0
100
AcDbVertex
100
AcDb2dVertex
 10
-0.25
 20
0.0
 30
0.0
 42
1.0
  0
VERTEX
  5
210
330
20D
100
AcDbEntity
  8
0
  6
ByBlock
 62
     0
100
AcDbVertex
100
AcDb2dVertex
 10
0.25
 20
0.0
 30
0.0
 42
1.0
  0
SEQEND
  5
211
330
20D
100
AcDbEntity
  8
0
  6
ByBlock
 62
     0
  0
LINE
  5
20E
330
20A
100
AcDbEntity
  8
0
  6
ByBlock
 62
     0
370
    -2
100
AcDbLine
 10
-0.5
 20
0.0
 30
0.0
 11
-1.0
 21
0.0
 31
0.0
  0
ENDBLK
  5
20C
330
20A
100
AcDbEntity
  8
0
100
AcDbBlockEnd
  0
BLOCK
  5
215
330
212
100
AcDbEntity
  8
0
100
AcDbBlockBegin
  2
_SE_FILLED
 70
     0
 10
0.0
 20
0.0
 30
0.0
  3
_SE_FILLED
  1

  0
SOLID
  5
213
330
212
100
AcDbEntity
  8
0
 62
     0
100
AcDbTrace
 10
0.0
 20
0.0
 30
0.0
 11
-1.0
 21
-0.1665
 31
0.0
 12
-1.0
 22
0.1665
 32
0.0
 13
0.0
 23
0.0
 33
0.0
  0
LINE
  5
214
330
212
100
AcDbEntity
  8
0
 62
     0
100
AcDbLine
 10
0.0
 20
0.0
 30
0.0
 11
-1.0
 21
0.0
 31
0.0
  0
ENDBLK
  5
216
330
212
100
AcDbEntity
  8
0
100
AcDbBlockEnd
  0
BLOCK
  5
222
330
21A
100
AcDbEntity
  8
0
100
AcDbBlockBegin
  2
DMBLK1
 70
     0
 10
0.0
 20
0.0
 30
0.0
  3
DMBLK1
  1

  0
HATCH
  5
21B
330
21A
100
AcDbEntity
  8
SK2
  6
Continuous
 62
   136
100
AcDbHatch
 10
0.0
 20
0.0
 30
0.0
210
0.0
220
0.0
230
1.0
  2
SOLID
 70
     1
 71
     0
 91
        1
 92
        1
 93
        3
 72
     1
 10
20.05144556405643
 20
4.250000207804126
 11
18.88477886137862
 21
4.250000207804126
 72
     1
 10
18.88477886137862
 20
4.250000207804126
 11
19.46811221271753
 21
0.7500000997707073
 72
     1
 10
19.46811221271753
 20
0.7500000997707071
 11
20.05144556405643
 21
4.250000207804126
 97
        0
 75
     0
 76
     1
 98
        0
  0
HATCH
  5
21C
330
21A
100
AcDbEntity
  8
SK2
  6
Continuous
 62
   136
100
AcDbHatch
 10
0.0
 20
0.0
 30
0.0
210
0.0
220
0.0
230
1.0
  2
SOLID
 70
     1
 71
     0
 91
        1
 92
        1
 93
        3
 72
     1
 10
20.05144556405643
 20
-4.250000008262711
 11
19.46811221271753
 21
-0.7499999002292919
 72
     1
 10
19.46811221271753
 20
-0.7499999002292916
 11
18.88477886137862
 21
-4.250000008262711
 72
     1
 10
18.88477886137862
 20
-4.250000008262711
 11
20.05144556405643
 21
-4.250000008262711
 97
        0
 75
     0
 76
     1
 98
        0
  0
LINE
  5
21D
330
21A
100
AcDbEntity
  8
SK2
  6
Continuous
 62
   136
100
AcDbLine
 10
10.755
 20
0.7500000998
 30
0.0
 11
21.2181122667
 21
0.7500000998
 31
0.0
  0
LINE
  5
21E
330
21A
100
AcDbEntity
  8
SK2
  6
Continuous
 62
   136
100
AcDbLine
 10
10.755
 20
-0.7499999002
 30
0.0
 11
21.2181122667
 21
-0.7499999002
 31
0.0
  0
LINE
  5
21F
330
21A
100
AcDbEntity
  8
SK2
  6
Continuous
 62
   136
100
AcDbLine
 10
19.4681122127
 20
15.64755335
 30
0.0
 11
19.4681122127
 21
-7.7500003622
 31
0.0
  0
TEXT
  5
220
330
21A
100
AcDbEntity
  8
SK2
  6
Continuous
 62
   136
100
AcDbText
 10
18.5931122127
 20
10.3657351062
 30
0.0
 40
3.5
  1
1,5
 50
90.0
  7
SEACAD_Solid_Edge_ISO
 11
15.0931122127
 21
10.3657351062
 31
0.0
100
AcDbText
 73
     3
  0
TEXT
  5
221
330
21A
100
AcDbEntity
  8
SK2
  6
Continuous
 62
   136
100
AcDbText
 10
18.5931122127
 20
6.2930078334
 30
0.0
 40
3.5
  1
ø
 50
90.0
  7
SEACAD_Solid_Edge_ISO
 11
15.0931122127
 21
6.2930078334
 31
0.0
100
AcDbText
 73
     3
  0
ENDBLK
  5
223
330
21A
100
AcDbEntity
  8
0
100
AcDbBlockEnd
  0
BLOCK
  5
22C
330
225
100
AcDbEntity
  8
0
100
AcDbBlockBegin
  2
DMBLK2
 70
     0
 10
0.0
 20
0.0
 30
0.0
  3
DMBLK2
  1

  0
HATCH
  5
226
330
225
100
AcDbEntity
  8
SK2
  6
Continuous
 62
   136
100
AcDbHatch
 10
0.0
 20
0.0
 30
0.0
210
0.0
220
0.0
230
1.0
  2
SOLID
 70
     1
 71
     0
 91
        1
 92
        1
 93
        3
 72
     1
 10
-3.500000108033424
 20
-18.006635019345
 11
-0.0000000000000053
 21
-17.4233016680061
 72
     1
 10
-0.0000000000000052
 20
-17.4233016680061
 11
-3.500000108033424
 21
-16.83996831666719
 72
     1
 10
-3.500000108033424
 20
-16.83996831666719
 11
-3.500000108033424
 21
-18.006635019345
 97
        0
 75
     0
 76
     1
 98
        0
  0
HATCH
  5
227
330
225
100
AcDbEntity
  8
SK2
  6
Continuous
 62
   136
100
AcDbHatch
 10
0.0
 20
0.0
 30
0.0
210
0.0
220
0.0
230
1.0
  2
SOLID
 70
     1
 71
     0
 91
        1
 92
        1
 93
        3
 72
     1
 10
14.65500010803341
 20
-18.006635019345
 11
14.65500010803341
 21
-16.83996831666719
 72
     1
 10
14.65500010803341
 20
-16.83996831666719
 11
11.15499999999999
 21
-17.4233016680061
 72
     1
 10
11.15499999999999
 20
-17.4233016680061
 11
14.65500010803341
 21
-18.006635019345
 97
        0
 75
     0
 76
     1
 98
        0
  0
LINE
  5
228
330
225
100
AcDbEntity
  8
SK2
  6
Continuous
 62
   136
100
AcDbLine
 10
0.0
 20
-9.9978458258
 30
0.0
 11
0.0
 21
-19.173301722
 31
0.0
  0
LINE
  5
229
330
225
100
AcDbEntity
  8
SK2
  6
Continuous
 62
   136
100
AcDbLine
 10
11.155
 20
-7.0565083171
 30
0.0
 11
11.155
 21
-19.173301722
 31
0.0
  0
LINE
  5
22A
330
225
100
AcDbEntity
  8
SK2
  6
Continuous
 62
   136
100
AcDbLine
 10
-7.0000002161
 20
-17.423301668
 30
0.0
 11
18.1549992412
 21
-17.423301668
 31
0.0
  0
TEXT
  5
22B
330
225
100
AcDbEntity
  8
SK2
  6
Continuous
 62
   136
100
AcDbText
 10
2.037727251
 20
-16.548301668
 30
0.0
 40
3.5
  1
11,16
  7
SEACAD_Solid_Edge_ISO
 11
2.037727251
 21
-13.048301668
 31
0.0
100
AcDbText
 73
     3
  0
ENDBLK
  5
22D
330
225
100
AcDbEntity
  8
0
100
AcDbBlockEnd
  0
BLOCK
  5
237
330
22F
100
AcDbEntity
  8
0
100
AcDbBlockBegin
  2
DMBLK3
 70
     0
 10
0.0
 20
0.0
 30
0.0
  3
DMBLK3
  1

  0
HATCH
  5
230
330
22F
100
AcDbEntity
  8
SK2
  6
Continuous
 62
   136
100
AcDbHatch
 10
0.0
 20
0.0
 30
0.0
210
0.0
220
0.0
230
1.0
  2
SOLID
 70
     1
 71
     0
 91
        1
 92
        1
 93
        3
 72
     1
 10
-26.56487134906154
 20
6.497845917346957
 11
-25.39820464638373
 21
6.497845917346957
 72
     1
 10
-25.39820464638373
 20
6.497845917346957
 11
-25.98153799772263
 21
9.997846025380376
 72
     1
 10
-25.98153799772263
 20
9.997846025380376
 11
-26.56487134906154
 21
6.497845917346957
 97
        0
 75
     0
 76
     1
 98
        0
  0
HATCH
  5
231
330
22F
100
AcDbEntity
  8
SK2
  6
Continuous
 62
   136
100
AcDbHatch
 10
0.0
 20
0.0
 30
0.0
210
0.0
220
0.0
230
1.0
  2
SOLID
 70
     1
 71
     0
 91
        1
 92
        1
 93
        3
 72
     1
 10
-26.56487134906154
 20
-6.497845121321198
 11
-25.98153799772263
 21
-9.997845229354617
 72
     1
 10
-25.98153799772263
 20
-9.997845229354617
 11
-25.39820464638373
 21
-6.497845121321198
 72
     1
 10
-25.39820464638373
 20
-6.497845121321198
 11
-26.56487134906154
 21
-6.497845121321198
 97
        0
 75
     0
 76
     1
 98
        0
  0
LINE
  5
232
330
22F
100
AcDbEntity
  8
SK2
  6
Continuous
 62
   136
100
AcDbLine
 10
0.0
 20
9.9978460254
 30
0.0
 11
-27.7315380517
 21
9.9978460254
 31
0.0
  0
LINE
  5
233
330
22F
100
AcDbEntity
  8
SK2
  6
Continuous
 62
   136
100
AcDbLine
 10
0.0
 20
-9.9978458258
 30
0.0
 11
-27.7315380517
 21
-9.9978458258
 31
0.0
  0
LINE
  5
234
330
22F
100
AcDbEntity
  8
SK2
  6
Continuous
 62
   136
100
AcDbLine
 10
-25.9815379977
 20
9.9978460254
 30
0.0
 11
-25.9815379977
 21
-9.9978452294
 31
0.0
  0
TEXT
  5
235
330
22F
100
AcDbEntity
  8
SK2
  6
Continuous
 62
   136
100
AcDbText
 10
-26.8565379977
 20
-0.0715905111
 30
0.0
 40
3.5
  1
20
 50
90.0
  7
SEACAD_Solid_Edge_ISO
 11
-30.3565379977
 21
-0.0715905111
 31
0.0
100
AcDbText
 73
     3
  0
TEXT
  5
236
330
22F
100
AcDbEntity
  8
SK2
  6
Continuous
 62
   136
100
AcDbText
 10
-26.8565379977
 20
-4.1443177838
 30
0.0
 40
3.5
  1
ø
 50
90.0
  7
SEACAD_Solid_Edge_ISO
 11
-30.3565379977
 21
-4.1443177838
 31
0.0
100
AcDbText
 73
     3
  0
ENDBLK
  5
238
330
22F
100
AcDbEntity
  8
0
100
AcDbBlockEnd
  0
BLOCK
  5
241
330
23A
100
AcDbEntity
  8
0
100
AcDbBlockBegin
  2
DMBLK4
 70
     0
 10
0.0
 20
0.0
 30
0.0
  3
DMBLK4
  1

  0
HATCH
  5
23B
330
23A
100
AcDbEntity
  8
SK2
  6
Continuous
 62
   136
100
AcDbHatch
 10
0.0
 20
0.0
 30
0.0
210
0.0
220
0.0
230
1.0
  2
SOLID
 70
     1
 71
     0
 91
        1
 92
        1
 93
        3
 72
     1
 10
-16.84499989196658
 20
16.32995747822762
 11
-20.345
 21
15.74662412688872
 72
     1
 10
-20.345
 20
15.74662412688872
 11
-16.84499989196658
 21
15.16329077554981
 72
     1
 10
-16.84499989196658
 20
15.16329077554981
 11
-16.84499989196658
 21
16.32995747822762
 97
        0
 75
     0
 76
     1
 98
        0
  0
HATCH
  5
23C
330
23A
100
AcDbEntity
  8
SK2
  6
Continuous
 62
   136
100
AcDbHatch
 10
0.0
 20
0.0
 30
0.0
210
0.0
220
0.0
230
1.0
  2
SOLID
 70
     1
 71
     0
 91
        1
 92
        1
 93
        3
 72
     1
 10
7.65500039860606
 20
16.32995747822762
 11
7.65500039860606
 21
15.16329077554981
 72
     1
 10
7.65500039860606
 20
15.16329077554981
 11
11.15500050663948
 21
15.74662412688872
 72
     1
 10
11.15500050663948
 20
15.74662412688872
 11
7.65500039860606
 21
16.32995747822762
 97
        0
 75
     0
 76
     1
 98
        0
  0
LINE
  5
23D
330
23A
100
AcDbEntity
  8
SK2
  6
Continuous
 62
   136
100
AcDbLine
 10
-20.345
 20
6.8766081583
 30
0.0
 11
-20.345
 21
17.4966241809
 31
0.0
  0
LINE
  5
23E
330
23A
100
AcDbEntity
  8
SK2
  6
Continuous
 62
   136
100
AcDbLine
 10
11.155
 20
7.4815486508
 30
0.0
 11
11.155
 21
17.4966241809
 31
0.0
  0
LINE
  5
23F
330
23A
100
AcDbEntity
  8
SK2
  6
Continuous
 62
   136
100
AcDbLine
 10
-20.345
 20
15.7466241269
 30
0.0
 11
11.1550005066
 21
15.7466241269
 31
0.0
  0
TEXT
  5
240
330
23A
100
AcDbEntity
  8
SK2
  6
Continuous
 62
   136
100
AcDbText
 10
-7.5381815649
 20
16.6216241269
 30
0.0
 40
3.5
  1
31,5
  7
SEACAD_Solid_Edge_ISO
 11
-7.5381815649
 21
20.1216241269
 31
0.0
100
AcDbText
 73
     3
  0
ENDBLK
  5
242
330
23A
100
AcDbEntity
  8
0
100
AcDbBlockEnd
  0
ENDSEC
  0
SECTION
  2
ENTITIES
  0
INSERT
  5
4B
330
1F
100
AcDbEntity
  8
SK2
 62
     7
100
AcDbBlockReference
  2
Nullpunkt
 10
0.0
 20
0.0000000998
 30
0.0
  0
INSERT
  5
56
330
1F
100
AcDbEntity
  8
SK2
 62
     7
100
AcDbBlockReference
  2
Einfügepunkt
 10
11.155
 20
0.0000000998
 30
0.0
  0
LINE
  5
57
330
1F
100
AcDbEntity
  8
SK1
  6
Continuous
100
AcDbLine
 10
11.0489418513
 20
7.9399515084
 30
0.0
 11
11.0489418513
 21
7.4187165557
 31
0.0
  0
LINE
  5
58
330
1F
100
AcDbEntity
  8
SK1
  6
Continuous
100
AcDbLine
 10
3.555
 20
10.15239663
 30
0.0
 11
3.555
 21
9.4656952323
 31
0.0
  0
LINE
  5
59
330
1F
100
AcDbEntity
  8
SK1
  6
Continuous
100
AcDbLine
 10
-20.0867519303
 20
7.1738409724
 30
0.0
 11
-20.0867519303
 21
5.2317706537
 31
0.0
  0
LINE
  5
5C
330
1F
100
AcDbEntity
  8
SK3
100
AcDbLine
 10
-20.345
 20
5.0723625431
 30
0.0
 11
-19.345
 21
4.4943715797
 31
0.0
  0
SPLINE
  5
5D
330
1F
100
AcDbEntity
  8
SK1
  6
Continuous
100
AcDbSpline
210
0.0
220
0.0
230
1.0
 70
     8
 71
     3
 72
    10
 73
     6
 74
     0
 42
0.0000000189199341
 43
0.0000000001
 12
1.0
 22
0.0
 32
0.0
 13
1.0
 23
0.0
 33
0.0
 40
0.0
 40
0.0
 40
0.0
 40
0.0
 40
0.5
 40
0.5
 40
1.0
 40
1.0
 40
1.0
 40
1.0
 10
3.554999999999997
 20
10.15239663000028
 30
0.0
 10
3.554999999999999
 20
10.2384012012402
 30
0.0
 10
3.516180013278686
 20
10.32283969427663
 30
0.0
 10
3.387702860451716
 20
10.43467280062254
 30
0.0
 10
3.298744539072069
 20
10.46156645557568
 30
0.0
 10
3.21324806971196
 20
10.44954792531004
 30
0.0
  0
SPLINE
  5
5E
330
1F
100
AcDbEntity
  8
SK1
  6
Continuous
100
AcDbSpline
210
0.0
220
0.0
230
1.0
 70
     8
 71
     3
 72
    10
 73
     6
 74
     0
 42
0.0000000228017233
 43
0.0000000001
 12
1.0
 22
0.0
 32
0.0
 13
1.0
 23
0.0
 33
0.0
 40
0.0
 40
0.0
 40
0.0
 40
0.0
 40
0.5
 40
0.5
 40
1.0
 40
1.0
 40
1.0
 40
1.0
 10
-20.08675193028803
 20
7.173840972377411
 30
0.0
 10
-20.15829059404397
 20
7.163781924977038
 30
0.0
 10
-20.22437678182173
 20
7.127688700728461
 30
0.0
 10
-20.31853616084319
 20
7.019267439230764
 30
0.0
 10
-20.345
 20
6.948096660909321
 30
0.0
 10
-20.345
 20
6.876608156486455
 30
0.0
  0
LINE
  5
5F
330
1F
100
AcDbEntity
  8
SK3
100
AcDbLine
 10
-19.345
 20
4.4943715797
 30
0.0
 11
-5.145
 21
4.4943715797
 31
0.0
  0
ARC
  5
60
330
1F
100
AcDbEntity
  8
SK3
100
AcDbCircle
 10
-5.1450996914
 20
3.6948448269
 30
0.0
 40
0.7995267590833839
100
AcDbArc
 50
39.9705636586
 51
89.9928558998
  0
LINE
  5
61
330
1F
100
AcDbEntity
  8
SK1
  6
Continuous
100
AcDbLine
 10
6.8028268921
 20
10.3855016178
 30
0.0
 11
6.8192693824
 21
10.3795156357
 31
0.0
  0
LINE
  5
62
330
1F
100
AcDbEntity
  8
SK1
  6
Continuous
100
AcDbLine
 10
6.8192693824
 20
10.3795156357
 30
0.0
 11
8.9324120946
 21
9.1591673253
 31
0.0
  0
SPLINE
  5
63
330
1F
100
AcDbEntity
  8
SK1
  6
Continuous
100
AcDbSpline
210
0.0
220
0.0
230
1.0
 70
     8
 71
     3
 72
    11
 73
     7
 74
     0
 42
0.000000000425005
 43
0.0000000001
 12
1.0
 22
0.0
 32
0.0
 13
1.0
 23
0.0
 33
0.0
 40
0.0
 40
0.0
 40
0.0
 40
0.0
 40
0.5355387096541193
 40
0.5355387096541193
 40
0.5355387096541193
 40
1.0
 40
1.0
 40
1.0
 40
1.0
 10
-20.08675193028803
 20
7.173840972377411
 30
0.0
 10
-15.92741370720165
 20
7.758685280945021
 30
0.0
 10
-11.76806616729153
 20
8.343463330124361
 30
0.0
 10
-7.608713902065262
 20
8.928207764085357
 30
0.0
 10
-4.001396475040962
 20
9.435344128710684
 30
0.0
 10
-0.3940753473835792
 20
9.942454170553814
 30
0.0
 10
3.21324806971196
 20
10.44954792531004
 30
0.0
  0
SPLINE
  5
64
330
1F
100
AcDbEntity
  8
SK1
  6
Continuous
100
AcDbSpline
210
0.0
220
0.0
230
1.0
 70
     8
 71
     3
 72
    10
 73
     6
 74
     0
 42
0.0000000310341344
 43
0.0000000001
 12
1.0
 22
0.0
 32
0.0
 13
1.0
 23
0.0
 33
0.0
 40
0.0
 40
0.0
 40
0.0
 40
0.0
 40
0.5
 40
0.5
 40
1.0
 40
1.0
 40
1.0
 40
1.0
 10
3.554999999999999
 20
8.897155544068621
 30
0.0
 10
3.554999999999992
 20
8.844996959360092
 30
0.0
 10
3.576208430316653
 20
8.793105495733007
 30
0.0
 10
3.650817550217136
 20
8.718402401326177
 30
0.0
 10
3.702169827898751
 20
8.697090130349105
 30
0.0
 10
3.754999999999995
 20
8.6970901303499
 30
0.0
  0
LINE
  5
65
330
1F
100
AcDbEntity
  8
SK1
  6
Continuous
100
AcDbLine
 10
3.755
 20
8.6970901303
 30
0.0
 11
6.155
 21
8.6970901303
 31
0.0
  0
SPLINE
  5
66
330
1F
100
AcDbEntity
  8
SK1
  6
Continuous
100
AcDbSpline
210
0.0
220
0.0
230
1.0
 70
     8
 71
     3
 72
    10
 73
     6
 74
     0
 42
0.0000000310419875
 43
0.0000000001
 12
1.0
 22
0.0
 32
0.0
 13
1.0
 23
0.0
 33
0.0
 40
0.0
 40
0.0
 40
0.0
 40
0.0
 40
0.5
 40
0.5
 40
1.0
 40
1.0
 40
1.0
 40
1.0
 10
6.155000000000001
 20
8.6970901303499
 30
0.0
 10
6.207869998156069
 20
8.697090130349899
 30
0.0
 10
6.259585030319373
 20
8.718808022058516
 30
0.0
 10
6.333379296864252
 20
8.79269017084276
 30
0.0
 10
6.355000000000112
 20
8.844951558792072
 30
0.0
 10
6.355000000002393
 20
8.897155544068896
 30
0.0
  0
LINE
  5
67
330
1F
100
AcDbEntity
  8
SK1
  6
Continuous
100
AcDbLine
 10
6.355
 20
10.2094012836
 30
0.0
 11
6.6344228634
 21
10.3707647122
 31
0.0
  0
ARC
  5
68
330
1F
100
AcDbEntity
  8
SK1
  6
Continuous
100
AcDbCircle
 10
6.7345393741
 20
10.1962723747
 30
0.0
 40
0.2011737845057708
100
AcDbArc
 50
70.1569108668
 51
119.8454270973
  0
LINE
  5
69
330
1F
100
AcDbEntity
  8
SK3
100
AcDbLine
 10
11.0656969024
 20
7.4057223604
 30
0.0
 11
11.0489418513
 21
7.4187165557
 31
0.0
  0
LINE
  5
6A
330
1F
100
AcDbEntity
  8
SK3
100
AcDbLine
 10
11.0656969024
 20
7.2335148159
 30
0.0
 11
11.0489418513
 21
7.2465090111
 31
0.0
  0
SPLINE
  5
6B
330
1F
100
AcDbEntity
  8
SK3
100
AcDbSpline
210
0.0
220
0.0
230
1.0
 70
     8
 71
     3
 72
    10
 73
     6
 74
     0
 42
0.0000000212897313
 43
0.0000000001
 12
1.0
 22
0.0
 32
0.0
 13
1.0
 23
0.0
 33
0.0
 40
0.0
 40
0.0
 40
0.0
 40
0.0
 40
0.5
 40
0.5
 40
1.0
 40
1.0
 40
1.0
 40
1.0
 10
11.15500000001109
 20
0.2237077667731788
 30
0.0
 10
11.15499999999953
 20
0.1832313127951989
 30
0.0
 10
11.11312779573088
 20
0.142797628328577
 30
0.0
 10
10.96598969792699
 20
0.0837879544202073
 30
0.0
 10
10.86073686485723
 20
0.0659197508551266
 30
0.0
 10
10.75499999999999
 20
0.0659197508550549
 30
0.0
  0
SPLINE
  5
6C
330
1F
100
AcDbEntity
  8
SK3
100
AcDbSpline
210
0.0
220
0.0
230
1.0
 70
     8
 71
     3
 72
    10
 73
     6
 74
     0
 42
0.0000000212897313
 43
0.0000000001
 12
1.0
 22
0.0
 32
0.0
 13
1.0
 23
0.0
 33
0.0
 40
0.0
 40
0.0
 40
0.0
 40
0.0
 40
0.5
 40
0.5
 40
1.0
 40
1.0
 40
1.0
 40
1.0
 10
11.15500000001109
 20
0.6394535564032577
 30
0.0
 10
11.15499999999953
 20
0.5989771024252779
 30
0.0
 10
11.11312779573088
 20
0.5585434179586559
 30
0.0
 10
10.96598969792699
 20
0.4995337440502862
 30
0.0
 10
10.86073686485723
 20
0.4816655404852058
 30
0.0
 10
10.75499999999999
 20
0.4816655404851339
 30
0.0
  0
LINE
  5
6D
330
1F
100
AcDbEntity
  8
SK3
100
AcDbLine
 10
3.2132480697
 20
4.2067418231
 30
0.0
 11
-11.696850749
 21
3.4045695137
 31
0.0
  0
LINE
  5
6E
330
1F
100
AcDbEntity
  8
SK3
100
AcDbLine
 10
-19.2752687399
 20
2.9968460549
 30
0.0
 11
-19.510085108
 21
2.9842127926
 31
0.0
  0
LINE
  5
6F
330
1F
100
AcDbEntity
  8
SK3
100
AcDbLine
 10
10.755
 20
0.0659197509
 30
0.0
 11
-2.7837505004
 21
0.0659197509
 31
0.0
  0
ARC
  5
70
330
1F
100
AcDbEntity
  8
SK3
100
AcDbCircle
 10
-2.7897887845
 20
12.3211729059
 30
0.0
 40
12.25525464262173
100
AcDbArc
 50
262.709416904
 51
270.0282301935
  0
LINE
  5
71
330
1F
100
AcDbEntity
  8
SK3
100
AcDbLine
 10
-13.711185599
 20
1.5120487092
 30
0.0
 11
-15.3857095391
 21
1.5120487092
 31
0.0
  0
LINE
  5
72
330
1F
100
AcDbEntity
  8
SK3
100
AcDbLine
 10
10.755
 20
0.4816655405
 30
0.0
 11
-2.7837505004
 21
0.4816655405
 31
0.0
  0
ARC
  5
73
330
1F
100
AcDbEntity
  8
SK3
100
AcDbCircle
 10
-2.7897887845
 20
12.7369186955
 30
0.0
 40
12.2552546426217
100
AcDbArc
 50
262.709416904
 51
270.0282301935
  0
LINE
  5
74
330
1F
100
AcDbEntity
  8
SK3
100
AcDbLine
 10
-13.711185599
 20
1.9277944989
 30
0.0
 11
-15.3857095391
 21
1.9277944989
 31
0.0
  0
LINE
  5
75
330
1F
100
AcDbEntity
  8
SK3
100
AcDbLine
 10
3.2132480697
 20
3.7909960335
 30
0.0
 11
-11.6968507484
 21
2.9888237241
 31
0.0
  0
LINE
  5
76
330
1F
100
AcDbEntity
  8
SK3
100
AcDbLine
 10
-19.2752687365
 20
2.5811002654
 30
0.0
 11
-19.510085108
 21
2.568467003
 31
0.0
  0
SPLINE
  5
77
330
1F
100
AcDbEntity
  8
SK3
100
AcDbSpline
210
0.0
220
0.0
230
1.0
 70
     8
 71
     3
 72
    38
 73
    34
 74
     0
 42
0.0000000091811457
 43
0.0000000001
 12
1.0
 22
0.0
 32
0.0
 13
1.0
 23
0.0
 33
0.0
 40
0.0
 40
0.0
 40
0.0
 40
0.0
 40
0.2579394040394572
 40
0.2579394040394572
 40
0.2579394040394572
 40
0.3319982464578634
 40
0.3319982464578634
 40
0.3319982464578634
 40
0.4067618345092494
 40
0.4067618345092494
 40
0.4067618345092494
 40
0.4489905038722877
 40
0.4489905038722877
 40
0.4489905038722877
 40
0.49192491678519
 40
0.49192491678519
 40
0.49192491678519
 40
0.4999463829133225
 40
0.4999463829133225
 40
0.4999463829133225
 40
0.535411985138522
 40
0.535411985138522
 40
0.535411985138522
 40
0.5791825605605074
 40
0.5791825605605074
 40
0.5791825605605074
 40
0.6479591111859817
 40
0.6479591111859817
 40
0.6479591111859817
 40
0.7772686085630144
 40
0.7772686085630144
 40
0.7772686085630144
 40
1.0
 40
1.0
 40
1.0
 40
1.0
 10
-15.38570953909799
 20
1.512048709235729
 30
0.0
 10
-15.47979435001382
 20
1.512048709235729
 30
0.0
 10
-15.57601336695672
 20
1.524788931893988
 30
0.0
 10
-15.66409948624506
 20
1.555807691065803
 30
0.0
 10
-15.68978699733453
 20
1.564853324210334
 30
0.0
 10
-15.71493518668657
 20
1.575615394132244
 30
0.0
 10
-15.73858188281611
 20
1.588633987314269
 30
0.0
 10
-15.76235273743023
 20
1.601720935449216
 30
0.0
 10
-15.78505848056217
 20
1.617307923148718
 30
0.0
 10
-15.80384737807222
 20
1.636117254340363
 30
0.0
 10
-15.8145083577909
 20
1.646789828303189
 30
0.0
 10
-15.82402354140707
 20
1.658695354392077
 30
0.0
 10
-15.83118542812194
 20
1.671614374198837
 30
0.0
 10
-15.83841604453783
 20
1.684657372560985
 30
0.0
 10
-15.84332082775609
 20
1.699170742255622
 30
0.0
 10
-15.84462594181162
 20
1.713730046811551
 30
0.0
 10
-15.84487477264433
 20
1.71650589912967
 30
0.0
 10
-15.845
 20
1.719292481637418
 30
0.0
 10
-15.845
 20
1.722075545413626
 30
0.0
 10
-15.845
 20
1.734198145010107
 30
0.0
 10
-15.84251538334528
 20
1.746447643706108
 30
0.0
 10
-15.83806352394261
 20
1.757810091945091
 30
0.0
 10
-15.83257303843458
 20
1.771823418007124
 30
0.0
 10
-15.8240349984554
 20
1.784912649463072
 30
0.0
 10
-15.81397298275985
 20
1.796532957618309
 30
0.0
 10
-15.79820541951472
 20
1.814742424718102
 30
0.0
 10
-15.77837000701616
 20
1.83006169975258
 30
0.0
 10
-15.75734486676997
 20
1.842996031959745
 30
0.0
 10
-15.71797662356524
 20
1.867214749650113
 30
0.0
 10
-15.67317544908284
 20
1.884223220214831
 30
0.0
 10
-15.62777187411999
 20
1.896825515074186
 30
0.0
 10
-15.54985088654572
 20
1.91845339926495
 30
0.0
 10
-15.46719888801959
 20
1.927794498865809
 30
0.0
 10
-15.38570953909799
 20
1.927794498865808
 30
0.0
  0
SPLINE
  5
78
330
1F
100
AcDbEntity
  8
SK3
100
AcDbSpline
210
0.0
220
0.0
230
1.0
 70
     8
 71
     3
 72
    35
 73
    31
 74
     0
 42
0.0000000120450215
 43
0.0000000001
 12
1.0
 22
0.0
 32
0.0
 13
1.0
 23
0.0
 33
0.0
 40
0.0
 40
0.0
 40
0.0
 40
0.0
 40
0.1687481434719294
 40
0.1687481434719294
 40
0.1687481434719294
 40
0.2901425871924332
 40
0.2901425871924332
 40
0.2901425871924332
 40
0.379053084355959
 40
0.379053084355959
 40
0.379053084355959
 40
0.4497796308357656
 40
0.4497796308357656
 40
0.4497796308357656
 40
0.5000653733335252
 40
0.5000653733335252
 40
0.5000653733335252
 40
0.5704966505873956
 40
0.5704966505873956
 40
0.5704966505873956
 40
0.6403402941109244
 40
0.6403402941109244
 40
0.6403402941109244
 40
0.7394740738373002
 40
0.7394740738373002
 40
0.7394740738373002
 40
0.8767565619923933
 40
0.8767565619923933
 40
0.8767565619923933
 40
1.0
 40
1.0
 40
1.0
 40
1.0
 10
-19.51008510795685
 20
2.984212792624884
 30
0.0
 10
-19.55727132345874
 20
2.981673772786092
 30
0.0
 10
-19.60526108019463
 20
2.971959543888098
 30
0.0
 10
-19.64975155980598
 20
2.954913745179464
 30
0.0
 10
-19.68189753692269
 20
2.942597540454086
 30
0.0
 10
-19.71299475165932
 20
2.926125484827623
 30
0.0
 10
-19.74003937900339
 20
2.905402081123265
 30
0.0
 10
-19.75989380721228
 20
2.890188289272581
 30
0.0
 10
-19.7779625037984
 20
2.872305843400762
 30
0.0
 10
-19.79205842405552
 20
2.852336334918103
 30
0.0
 10
-19.80328575682851
 20
2.836430717338119
 30
0.0
 10
-19.81219135964349
 20
2.818811737842371
 30
0.0
 10
-19.8174728727018
 20
2.800633087833443
 30
0.0
 10
-19.82124968581103
 20
2.787633524468929
 30
0.0
 10
-19.82324074796388
 20
2.774132923549418
 30
0.0
 10
-19.82324074796388
 20
2.760832422953191
 30
0.0
 10
-19.82324074796388
 20
2.742358061236703
 30
0.0
 10
-19.81931919792619
 20
2.72379373224324
 30
0.0
 10
-19.81220540787413
 20
2.706869950699538
 30
0.0
 10
-19.80512544708348
 20
2.690026649325416
 30
0.0
 10
-19.79478501742678
 20
2.674326693164748
 30
0.0
 10
-19.78247401540717
 20
2.660517138852888
 30
0.0
 10
-19.76506870583475
 20
2.640993174233884
 30
0.0
 10
-19.74330731415441
 20
2.624638735953456
 30
0.0
 10
-19.71984214227574
 20
2.611683217217196
 30
0.0
 10
-19.68743811579378
 20
2.593792405490433
 30
0.0
 10
-19.65079315641262
 20
2.58169990678042
 30
0.0
 10
-19.61344117154817
 20
2.574848225291015
 30
0.0
 10
-19.57976366551445
 20
2.568670573807754
 30
0.0
 10
-19.54477655867138
 20
2.566600307801516
 30
0.0
 10
-19.51008510796364
 20
2.568467002994439
 30
0.0
  0
SPLINE
  5
79
330
1F
100
AcDbEntity
  8
SK3
100
AcDbSpline
210
0.0
220
0.0
230
1.0
 70
     8
 71
     3
 72
    38
 73
    34
 74
     0
 42
0.0000000076717915
 43
0.0000000001
 12
1.0
 22
0.0
 32
0.0
 13
1.0
 23
0.0
 33
0.0
 40
0.0
 40
0.0
 40
0.0
 40
0.0
 40
0.3227858640409731
 40
0.3227858640409731
 40
0.3227858640409731
 40
0.3784022162694684
 40
0.3784022162694684
 40
0.3784022162694684
 40
0.4530135742922689
 40
0.4530135742922689
 40
0.4530135742922689
 40
0.4766143533589449
 40
0.4766143533589449
 40
0.4766143533589449
 40
0.4966578940704977
 40
0.4966578940704977
 40
0.4966578940704977
 40
0.5011392670099478
 40
0.5011392670099478
 40
0.5011392670099478
 40
0.5220781185843957
 40
0.5220781185843957
 40
0.5220781185843957
 40
0.5482141331188016
 40
0.5482141331188016
 40
0.5482141331188016
 40
0.5927779492058403
 40
0.5927779492058403
 40
0.5927779492058403
 40
0.7148331951614358
 40
0.7148331951614358
 40
0.7148331951614358
 40
1.0
 40
1.0
 40
1.0
 40
1.0
 10
-13.71118559898555
 20
4.066154149338622
 30
0.0
 10
-13.86282212824746
 20
4.066154149338622
 30
0.0
 10
-14.01842970142117
 20
4.07304395327422
 30
0.0
 10
-14.16118559898555
 20
4.094261738715011
 30
0.0
 10
-14.18621875893371
 20
4.097982413137206
 30
0.0
 10
-14.21087424972537
 20
4.102227823240082
 30
0.0
 10
-14.23446970039942
 20
4.107237074072957
 30
0.0
 10
-14.26578589524635
 20
4.113885418166341
 30
0.0
 10
-14.29670462620912
 20
4.122000601731791
 30
0.0
 10
-14.31922827320289
 20
4.132750779921766
 30
0.0
 10
-14.32649497427372
 20
4.136219060675155
 30
0.0
 10
-14.3328819382734
 20
4.140031647915611
 30
0.0
 10
-14.33745619093276
 20
4.144095664187111
 30
0.0
 10
-14.3413348861168
 20
4.147541709150955
 30
0.0
 10
-14.34393875787434
 20
4.151247480062383
 30
0.0
 10
-14.34473020542881
 20
4.154942623848198
 30
0.0
 10
-14.34490965253481
 20
4.155780434079454
 30
0.0
 10
-14.34499999999998
 20
4.156620304351061
 30
0.0
 10
-14.34499999999998
 20
4.157457996071497
 30
0.0
 10
-14.34499999999998
 20
4.161308767750735
 30
0.0
 10
-14.34299278724658
 20
4.165175573056612
 30
0.0
 10
-14.33945872546161
 20
4.168723560931016
 30
0.0
 10
-14.33504698079849
 20
4.173152690222502
 30
0.0
 10
-14.32823456754396
 20
4.177231258722793
 30
0.0
 10
-14.32032777315567
 20
4.180841723905331
 30
0.0
 10
-14.30688366809861
 20
4.186980681216627
 30
0.0
 10
-14.29001908235498
 20
4.192035304378002
 30
0.0
 10
-14.27232405803074
 20
4.196354792124871
 30
0.0
 10
-14.22427171635876
 20
4.208084728024205
 30
0.0
 10
-14.16848595092526
 20
4.215326307407446
 30
0.0
 10
-14.11279543111427
 20
4.220945532342296
 30
0.0
 10
-13.98322616796035
 20
4.234019190781397
 30
0.0
 10
-13.84613156348131
 20
4.238361693902922
 30
0.0
 10
-13.71118559898555
 20
4.238361693902911
 30
0.0
  0
SPLINE
  5
7A
330
1F
100
AcDbEntity
  8
SK3
100
AcDbSpline
210
0.0
220
0.0
230
1.0
 70
     8
 71
     3
 72
    35
 73
    31
 74
     0
 42
0.0000000130626494
 43
0.0000000001
 12
1.0
 22
0.0
 32
0.0
 13
1.0
 23
0.0
 33
0.0
 40
0.0
 40
0.0
 40
0.0
 40
0.0
 40
0.2006219603256765
 40
0.2006219603256765
 40
0.2006219603256765
 40
0.3107708642184506
 40
0.3107708642184506
 40
0.3107708642184506
 40
0.3928348904864862
 40
0.3928348904864862
 40
0.3928348904864862
 40
0.4526422908102747
 40
0.4526422908102747
 40
0.4526422908102747
 40
0.5000398423480656
 40
0.5000398423480656
 40
0.5000398423480656
 40
0.5606003798593684
 40
0.5606003798593684
 40
0.5606003798593684
 40
0.6204650973910499
 40
0.6204650973910499
 40
0.6204650973910499
 40
0.7121478092766118
 40
0.7121478092766118
 40
0.7121478092766118
 40
0.8546017325209843
 40
0.8546017325209843
 40
0.8546017325209843
 40
1.0
 40
1.0
 40
1.0
 40
1.0
 10
-19.39586006774744
 20
6.803619480507169
 30
0.0
 10
-19.45663638157169
 20
6.795724336274147
 30
0.0
 10
-19.51860753262014
 20
6.784187703218532
 30
0.0
 10
-19.57566453479545
 20
6.769134112047413
 30
0.0
 10
-19.60726680315719
 20
6.760796351389472
 30
0.0
 10
-19.63795523077129
 20
6.751201824257893
 30
0.0
 10
-19.66516934203792
 20
6.74035780021079
 30
0.0
 10
-19.68545213462254
 20
6.732275703082026
 30
0.0
 10
-19.70418653986215
 20
6.723317436794876
 30
0.0
 10
-19.71896145935762
 20
6.713796944232193
 30
0.0
 10
-19.72975094717217
 20
6.706844538263068
 30
0.0
 10
-19.73859627920959
 20
6.699436752353498
 30
0.0
 10
-19.74413527790335
 20
6.692065302690465
 30
0.0
 10
-19.74853713634198
 20
6.686207190114877
 30
0.0
 10
-19.75091269905178
 20
6.680256848500663
 30
0.0
 10
-19.75091269905178
 20
6.674630214273157
 30
0.0
 10
-19.75091269905178
 20
6.667492455993314
 30
0.0
 10
-19.74702129757168
 20
6.660680999966935
 30
0.0
 10
-19.74010114930457
 20
6.654837664932844
 30
0.0
 10
-19.7332266841438
 20
6.649032904461813
 30
0.0
 10
-19.72329110435115
 20
6.64399173163155
 30
0.0
 10
-19.71163954110528
 20
6.639831132685108
 30
0.0
 10
-19.69387100195382
 20
6.633486253142909
 30
0.0
 10
-19.67171189563297
 20
6.628961821970331
 30
0.0
 10
-19.6480498097683
 20
6.62593141753154
 30
0.0
 10
-19.61141263171017
 20
6.621239292431194
 30
0.0
 10
-19.57001690409788
 20
6.619896604306836
 30
0.0
 10
-19.52798327684452
 20
6.620950402403294
 30
0.0
 10
-19.48495649928094
 20
6.622029099133889
 30
0.0
 10
-19.44020795228736
 20
6.625650926055302
 30
0.0
 10
-19.39586006774744
 20
6.631411935942877
 30
0.0
  0
ARC
  5
7B
330
1F
100
AcDbEntity
  8
SK3
100
AcDbCircle
 10
-5.1765085197
 20
3.6657572337
 30
0.0
 40
0.8422860366498758
100
AcDbArc
 50
23.3800441476
 51
40.1144450895
  0
SPLINE
  5
7C
330
1F
100
AcDbEntity
  8
SK1
  6
Continuous
100
AcDbSpline
210
0.0
220
0.0
230
1.0
 70
     8
 71
     3
 72
    20
 73
    16
 74
     0
 42
0.0000000391150449
 43
0.0000000001
 12
1.0
 22
0.0
 32
0.0
 13
1.0
 23
0.0
 33
0.0
 40
0.0
 40
0.0
 40
0.0
 40
0.0
 40
0.1830248948154063
 40
0.1830248948154063
 40
0.1830248948154063
 40
0.3654262737496476
 40
0.3654262737496476
 40
0.3654262737496476
 40
0.5568531589392591
 40
0.5568531589392591
 40
0.5568531589392591
 40
0.7710390141956698
 40
0.7710390141956698
 40
0.7710390141956698
 40
1.0
 40
1.0
 40
1.0
 40
1.0
 10
9.155000000000001
 20
9.033419346039766
 30
0.0
 10
9.155000000000001
 20
9.033419346039766
 30
0.0
 10
9.151373391824434
 20
9.03542088084781
 30
0.0
 10
9.14457701372877
 20
9.039183221021553
 30
0.0
 10
9.137793654054013
 20
9.042938354455575
 30
0.0
 10
9.127708683821881
 20
9.048528580636674
 30
0.0
 10
9.115359226119265
 20
9.055405457780342
 30
0.0
 10
9.102390219721466
 20
9.06262733470974
 30
0.0
 10
9.086637391600032
 20
9.07142900816096
 30
0.0
 10
9.06939920410743
 20
9.08111728399948
 30
0.0
 10
9.050128625256354
 20
9.09194781264742
 30
0.0
 10
9.028554466990522
 20
9.104138957204146
 30
0.0
 10
9.006267600159786
 20
9.116823509290917
 30
0.0
 10
8.982456130015047
 20
9.13037578811088
 30
0.0
 10
8.95726721374616
 20
9.144812886357474
 30
0.0
 10
8.932412094596902
 20
9.159167325340183
 30
0.0
  0
LINE
  5
7D
330
1F
100
AcDbEntity
  8
SK3
100
AcDbLine
 10
-19.345
 20
3.3370996762
 30
0.0
 11
-19.345
 21
4.4943715797
 31
0.0
  0
LINE
  5
7E
330
1F
100
AcDbEntity
  8
SK3
100
AcDbLine
 10
-20.345
 20
3.7458010058
 30
0.0
 11
-19.345
 21
3.3370996762
 31
0.0
  0
LINE
  5
7F
330
1F
100
AcDbEntity
  8
SK3
100
AcDbLine
 10
-20.345
 20
3.4276029543
 30
0.0
 11
-19.345
 21
3.0189016247
 31
0.0
  0
LINE
  5
80
330
1F
100
AcDbEntity
  8
SK1
  6
Continuous
100
AcDbLine
 10
-20.0867519303
 20
4.9135726022
 30
0.0
 11
-20.0867519303
 21
0.2250000998
 31
0.0
  0
LINE
  5
81
330
1F
100
AcDbEntity
  8
SK1
  6
Continuous
100
AcDbLine
 10
-20.345
 20
5.021595314
 30
0.0
 11
-20.345
 21
6.8766081565
 31
0.0
  0
LINE
  5
82
330
1F
100
AcDbEntity
  8
SK1
  6
Continuous
100
AcDbLine
 10
3.2132480697
 20
7.5480452533
 30
0.0
 11
3.2132480697
 21
9.5680196875
 31
0.0
  0
LINE
  5
83
330
1F
100
AcDbEntity
  8
SK1
  6
Continuous
100
AcDbLine
 10
6.8192693824
 20
7.4985249464
 30
0.0
 11
6.8192693824
 21
9.5033182885
 31
0.0
  0
LINE
  5
84
330
1F
100
AcDbEntity
  8
SK1
  6
Continuous
100
AcDbLine
 10
3.555
 20
7.0197295058
 30
0.0
 11
3.555
 21
4.0930269455
 31
0.0
  0
LINE
  5
85
330
1F
100
AcDbEntity
  8
SK1
  6
Continuous
100
AcDbLine
 10
3.755
 20
6.3088704628
 30
0.0
 11
3.755
 21
7.9489597991
 31
0.0
  0
LINE
  5
86
330
1F
100
AcDbEntity
  8
SK1
  6
Continuous
100
AcDbLine
 10
6.155
 20
6.3088704628
 30
0.0
 11
6.155
 21
7.9489597991
 31
0.0
  0
LINE
  5
87
330
1F
100
AcDbEntity
  8
SK1
  6
Continuous
100
AcDbLine
 10
6.355
 20
7.3782359345
 30
0.0
 11
6.355
 21
9.3461531204
 31
0.0
  0
LINE
  5
88
330
1F
100
AcDbEntity
  8
SK1
  6
Continuous
100
AcDbLine
 10
6.6344228634
 20
7.4923371091
 30
0.0
 11
6.6344228634
 21
9.4952334894
 31
0.0
  0
LINE
  5
89
330
1F
100
AcDbEntity
  8
SK1
  6
Continuous
100
AcDbLine
 10
6.8028268921
 20
7.502757675
 30
0.0
 11
6.8028268921
 21
9.5088486149
 31
0.0
  0
SPLINE
  5
8A
330
1F
100
AcDbEntity
  8
SK1
  6
Continuous
100
AcDbSpline
210
0.0
220
0.0
230
1.0
 70
     8
 71
     3
 72
    10
 73
     6
 74
     0
 42
0.000000021749483
 43
0.0000000001
 12
1.0
 22
0.0
 32
0.0
 13
1.0
 23
0.0
 33
0.0
 40
0.0
 40
0.0
 40
0.0
 40
0.0
 40
0.5
 40
0.5
 40
1.0
 40
1.0
 40
1.0
 40
1.0
 10
3.554999999999997
 20
7.019729505823843
 30
0.0
 10
3.554999999999999
 20
7.080543921360626
 30
0.0
 10
3.516180013278688
 20
7.140250952379858
 30
0.0
 10
3.38770286045172
 20
7.219328900238208
 30
0.0
 10
3.298744539072078
 20
7.238345586026469
 30
0.0
 10
3.21324806971196
 20
7.229847201775739
 30
0.0
  0
SPLINE
  5
8B
330
1F
100
AcDbEntity
  8
SK1
  6
Continuous
100
AcDbSpline
210
0.0
220
0.0
230
1.0
 70
     8
 71
     3
 72
    10
 73
     6
 74
     0
 42
0.000000026913056
 43
0.0000000001
 12
1.0
 22
0.0
 32
0.0
 13
1.0
 23
0.0
 33
0.0
 40
0.0
 40
0.0
 40
0.0
 40
0.0
 40
0.5
 40
0.5
 40
1.0
 40
1.0
 40
1.0
 40
1.0
 10
-20.08675193028803
 20
4.913572602177154
 30
0.0
 10
-20.15829059404396
 20
4.906459781548072
 30
0.0
 10
-20.22437678182172
 20
4.880938017927023
 30
0.0
 10
-20.3185361608432
 20
4.80427260869719
 30
0.0
 10
-20.345
 20
4.753947268723784
 30
0.0
 10
-20.345
 20
4.703397262469487
 30
0.0
  0
LINE
  5
8C
330
1F
100
AcDbEntity
  8
SK3
100
AcDbLine
 10
-19.345
 20
3.0189016247
 30
0.0
 11
-5.145
 21
3.0189016247
 31
0.0
  0
ARC
  5
8D
330
1F
100
AcDbEntity
  8
SK3
100
AcDbCircle
 10
-5.1227858902
 20
2.0569032019
 30
0.0
 40
0.9622548685669424
100
AcDbArc
 50
52.1509728491
 51
91.3228177471
  0
LINE
  5
8E
330
1F
100
AcDbEntity
  8
SK1
  6
Continuous
100
AcDbLine
 10
6.8028268921
 20
7.502757675
 30
0.0
 11
6.8192693824
 21
7.4985249464
 31
0.0
  0
LINE
  5
8F
330
1F
100
AcDbEntity
  8
SK1
  6
Continuous
100
AcDbLine
 10
6.8192693824
 20
7.4985249464
 30
0.0
 11
8.9324120946
 21
6.6356083808
 31
0.0
  0
LINE
  5
90
330
1F
100
AcDbEntity
  8
SK1
  6
Continuous
100
AcDbLine
 10
-20.345
 20
4.7033972625
 30
0.0
 11
-20.345
 21
5.021595314
 31
0.0
  0
LINE
  5
91
330
1F
100
AcDbEntity
  8
SK1
  6
Continuous
100
AcDbLine
 10
-20.0867519303
 20
5.2317706537
 30
0.0
 11
3.2132480697
 21
7.5480452533
 31
0.0
  0
LINE
  5
92
330
1F
100
AcDbEntity
  8
SK1
  6
Continuous
100
AcDbLine
 10
3.555
 20
7.3379275574
 30
0.0
 11
3.555
 21
7.0197295058
 31
0.0
  0
SPLINE
  5
93
330
1F
100
AcDbEntity
  8
SK1
  6
Continuous
100
AcDbSpline
210
0.0
220
0.0
230
1.0
 70
     8
 71
     3
 72
    10
 73
     6
 74
     0
 42
0.0000000360976459
 43
0.0000000001
 12
1.0
 22
0.0
 32
0.0
 13
1.0
 23
0.0
 33
0.0
 40
0.0
 40
0.0
 40
0.0
 40
0.0
 40
0.5
 40
0.5
 40
1.0
 40
1.0
 40
1.0
 40
1.0
 10
3.554999999999999
 20
6.450338073471545
 30
0.0
 10
3.554999999999992
 20
6.413456384527051
 30
0.0
 10
3.576208430316653
 20
6.376763578710647
 30
0.0
 10
3.650817550217136
 20
6.323940514079954
 30
0.0
 10
3.702169827898751
 20
6.308870462749583
 30
0.0
 10
3.754999999999995
 20
6.308870462750146
 30
0.0
  0
LINE
  5
94
330
1F
100
AcDbEntity
  8
SK1
  6
Continuous
100
AcDbLine
 10
3.755
 20
6.3088704628
 30
0.0
 11
6.155
 21
6.3088704628
 31
0.0
  0
SPLINE
  5
95
330
1F
100
AcDbEntity
  8
SK1
  6
Continuous
100
AcDbSpline
210
0.0
220
0.0
230
1.0
 70
     8
 71
     3
 72
    10
 73
     6
 74
     0
 42
0.0000000361062551
 43
0.0000000001
 12
1.0
 22
0.0
 32
0.0
 13
1.0
 23
0.0
 33
0.0
 40
0.0
 40
0.0
 40
0.0
 40
0.0
 40
0.5
 40
0.5
 40
1.0
 40
1.0
 40
1.0
 40
1.0
 10
6.155000000000001
 20
6.308870462750145
 30
0.0
 10
6.207869998156069
 20
6.308870462750146
 30
0.0
 10
6.259585030319373
 20
6.324227331250384
 30
0.0
 10
6.333379296864252
 20
6.376469899664357
 30
0.0
 10
6.355000000000112
 20
6.41342428147753
 30
0.0
 10
6.355000000002393
 20
6.450338073471742
 30
0.0
  0
LINE
  5
96
330
1F
100
AcDbEntity
  8
SK1
  6
Continuous
100
AcDbLine
 10
6.355
 20
7.060037883
 30
0.0
 11
6.355
 21
7.3782359345
 31
0.0
  0
LINE
  5
97
330
1F
100
AcDbEntity
  8
SK1
  6
Continuous
100
AcDbLine
 10
6.355
 20
7.3782359345
 30
0.0
 11
6.6344228634
 21
7.4923371091
 31
0.0
  0
ARC
  5
98
330
1F
100
AcDbEntity
  8
SK1
  6
Continuous
100
AcDbCircle
 10
6.7348140991
 20
7.2359176368
 30
0.0
 40
0.2753712875190739
100
AcDbArc
 50
75.7007822636
 51
111.3809267458
  0
LINE
  5
99
330
1F
100
AcDbEntity
  8
SK1
  6
Continuous
100
AcDbLine
 10
6.8028268921
 20
7.1845596234
 30
0.0
 11
6.8192693824
 21
7.1803268949
 31
0.0
  0
LINE
  5
9A
330
1F
100
AcDbEntity
  8
SK1
  6
Continuous
100
AcDbLine
 10
6.8192693824
 20
7.1803268949
 30
0.0
 11
8.9324120946
 21
6.3174103292
 31
0.0
  0
LINE
  5
9B
330
1F
100
AcDbEntity
  8
SK1
  6
Continuous
100
AcDbLine
 10
-20.0867519303
 20
4.9135726022
 30
0.0
 11
3.2132480697
 21
7.2298472018
 31
0.0
  0
SPLINE
  5
9C
330
1F
100
AcDbEntity
  8
SK1
  6
Continuous
100
AcDbSpline
210
0.0
220
0.0
230
1.0
 70
     8
 71
     3
 72
    10
 73
     6
 74
     0
 42
0.0000000360976459
 43
0.0000000001
 12
1.0
 22
0.0
 32
0.0
 13
1.0
 23
0.0
 33
0.0
 40
0.0
 40
0.0
 40
0.0
 40
0.0
 40
0.5
 40
0.5
 40
1.0
 40
1.0
 40
1.0
 40
1.0
 10
3.554999999999999
 20
6.132140021937599
 30
0.0
 10
3.554999999999992
 20
6.095258332993105
 30
0.0
 10
3.576208430316653
 20
6.058565527176701
 30
0.0
 10
3.650817550217136
 20
6.005742462546012
 30
0.0
 10
3.702169827898754
 20
5.990672411215638
 30
0.0
 10
3.754999999999995
 20
5.9906724112162
 30
0.0
  0
LINE
  5
9D
330
1F
100
AcDbEntity
  8
SK1
  6
Continuous
100
AcDbLine
 10
3.755
 20
5.9906724112
 30
0.0
 11
6.155
 21
5.9906724112
 31
0.0
  0
SPLINE
  5
9E
330
1F
100
AcDbEntity
  8
SK1
  6
Continuous
100
AcDbSpline
210
0.0
220
0.0
230
1.0
 70
     8
 71
     3
 72
    10
 73
     6
 74
     0
 42
0.0000000361062551
 43
0.0000000001
 12
1.0
 22
0.0
 32
0.0
 13
1.0
 23
0.0
 33
0.0
 40
0.0
 40
0.0
 40
0.0
 40
0.0
 40
0.5
 40
0.5
 40
1.0
 40
1.0
 40
1.0
 40
1.0
 10
6.155000000000001
 20
5.990672411216199
 30
0.0
 10
6.207869998156069
 20
5.990672411216198
 30
0.0
 10
6.259585030319373
 20
6.006029279716438
 30
0.0
 10
6.33337929686425
 20
6.058271848130411
 30
0.0
 10
6.355000000000114
 20
6.095226229943584
 30
0.0
 10
6.355000000002393
 20
6.132140021937795
 30
0.0
  0
LINE
  5
9F
330
1F
100
AcDbEntity
  8
SK1
  6
Continuous
100
AcDbLine
 10
6.355
 20
7.060037883
 30
0.0
 11
6.6344228634
 21
7.1741390576
 31
0.0
  0
ARC
  5
A0
330
1F
100
AcDbEntity
  8
SK1
  6
Continuous
100
AcDbCircle
 10
6.7348140991
 20
6.9177195853
 30
0.0
 40
0.2753712875187241
100
AcDbArc
 50
75.7007822636
 51
111.3809267458
  0
SPLINE
  5
A1
330
1F
100
AcDbEntity
  8
SK1
  6
Continuous
100
AcDbSpline
210
0.0
220
0.0
230
1.0
 70
     8
 71
     3
 72
    10
 73
     6
 74
     0
 42
0.000000021749483
 43
0.0000000001
 12
1.0
 22
0.0
 32
0.0
 13
1.0
 23
0.0
 33
0.0
 40
0.0
 40
0.0
 40
0.0
 40
0.0
 40
0.5
 40
0.5
 40
1.0
 40
1.0
 40
1.0
 40
1.0
 10
3.554999999999997
 20
7.33792755735779
 30
0.0
 10
3.554999999999996
 20
7.398741972894573
 30
0.0
 10
3.516180013278684
 20
7.458449003913808
 30
0.0
 10
3.387702860451713
 20
7.537526951772151
 30
0.0
 10
3.298744539072066
 20
7.556543637560416
 30
0.0
 10
3.21324806971196
 20
7.548045253309684
 30
0.0
  0
SPLINE
  5
A2
330
1F
100
AcDbEntity
  8
SK1
  6
Continuous
100
AcDbSpline
210
0.0
220
0.0
230
1.0
 70
     8
 71
     3
 72
    10
 73
     6
 74
     0
 42
0.000000026913056
 43
0.0000000001
 12
1.0
 22
0.0
 32
0.0
 13
1.0
 23
0.0
 33
0.0
 40
0.0
 40
0.0
 40
0.0
 40
0.0
 40
0.5
 40
0.5
 40
1.0
 40
1.0
 40
1.0
 40
1.0
 10
-20.08675193028803
 20
5.231770653711099
 30
0.0
 10
-20.15829059404397
 20
5.22465783308202
 30
0.0
 10
-20.22437678182173
 20
5.199136069460964
 30
0.0
 10
-20.31853616084319
 20
5.122470660231143
 30
0.0
 10
-20.345
 20
5.072145320257726
 30
0.0
 10
-20.345
 20
5.021595314003433
 30
0.0
  0
LINE
  5
A3
330
1F
100
AcDbEntity
  8
SK3
100
AcDbLine
 10
-19.345
 20
3.3370996762
 30
0.0
 11
-5.145
 21
3.3370996762
 31
0.0
  0
ARC
  5
A4
330
1F
100
AcDbEntity
  8
SK3
100
AcDbCircle
 10
-5.1227858902
 20
2.3751012534
 30
0.0
 40
0.9622548685668405
100
AcDbArc
 50
52.1509728491
 51
91.3228177471
  0
ELLIPSE
  5
A5
330
1F
100
AcDbEntity
  8
SK1
  6
Continuous
100
AcDbEllipse
 10
-9.5424732706
 20
27.4680258562
 30
0.0
 11
34.77500000000326
 21
-2.546311659916571E-12
 31
0.0
210
0.0
220
0.0
230
1.0
 40
0.7071067812
 41
-1.023426417817311
 42
-1.010698394063678
  0
SPLINE
  5
A6
330
1F
100
AcDbEntity
  8
SK3
100
AcDbSpline
210
0.0
220
0.0
230
1.0
 70
     8
 71
     3
 72
    35
 73
    31
 74
     0
 42
0.0000000184432571
 43
0.0000000001
 12
1.0
 22
0.0
 32
0.0
 13
1.0
 23
0.0
 33
0.0
 40
0.0
 40
0.0
 40
0.0
 40
0.0
 40
0.1193747857221039
 40
0.1193747857221039
 40
0.1193747857221039
 40
0.2396929638869876
 40
0.2396929638869876
 40
0.2396929638869876
 40
0.3465262450343438
 40
0.3465262450343438
 40
0.3465262450343438
 40
0.446463362986728
 40
0.446463362986728
 40
0.446463362986728
 40
0.5003315246630612
 40
0.5003315246630612
 40
0.5003315246630612
 40
0.5990306050633026
 40
0.5990306050633026
 40
0.5990306050633026
 40
0.6977247179793116
 40
0.6977247179793116
 40
0.6977247179793116
 40
0.7964957913501134
 40
0.7964957913501134
 40
0.7964957913501134
 40
0.897400928960378
 40
0.897400928960378
 40
0.897400928960378
 40
1.0
 40
1.0
 40
1.0
 40
1.0
 10
-4.532362706250654
 20
2.816728771328206
 30
0.0
 10
-4.513466280410241
 20
2.80079454453168
 30
0.0
 10
-4.495470980434884
 20
2.786941672153306
 30
0.0
 10
-4.479736688673634
 20
2.77701595057601
 30
0.0
 10
-4.463928452322595
 20
2.767043582259126
 30
0.0
 10
-4.449954895179136
 20
2.760827593866618
 30
0.0
 10
-4.438892290908552
 20
2.759909035895007
 30
0.0
 10
-4.429043327805167
 20
2.759091249834019
 30
0.0
 10
-4.421168043191833
 20
2.762458279876774
 30
0.0
 10
-4.415510097722033
 20
2.770083252378624
 30
0.0
 10
-4.410207710185026
 20
2.777229054574779
 30
0.0
 10
-4.406666333206152
 20
2.788303191643394
 30
0.0
 10
-4.404856701366318
 20
2.802488481437892
 30
0.0
 10
-4.40387111359184
 20
2.810214278415562
 30
0.0
 10
-4.403380151290432
 20
2.818933238576917
 30
0.0
 10
-4.403380151290432
 20
2.828427224516888
 30
0.0
 10
-4.403380151290432
 20
2.845649337909114
 30
0.0
 10
-4.405009164417636
 20
2.865851395851229
 30
0.0
 10
-4.408300370934337
 20
2.887308132100836
 30
0.0
 10
-4.411591506659356
 20
2.908764406830189
 30
0.0
 10
-4.416655421540433
 20
2.93206118235046
 30
0.0
 10
-4.423462485492684
 20
2.955125807187008
 30
0.0
 10
-4.430277521530131
 20
2.97821744413267
 30
0.0
 10
-4.439043100569147
 20
3.001677093856094
 30
0.0
 10
-4.449421289875926
 20
3.023511233679727
 30
0.0
 10
-4.46003116797739
 20
3.045832811667109
 30
0.0
 10
-4.472593961371469
 20
3.067007763058236
 30
0.0
 10
-4.486388778608359
 20
3.085587378819286
 30
0.0
 10
-4.500436282504236
 20
3.10450732681898
 30
0.0
 10
-4.516051890942549
 20
3.121172886930005
 30
0.0
 10
-4.532362706250661
 20
3.134926822862145
 30
0.0
  0
SPLINE
  5
A7
330
1F
100
AcDbEntity
  8
SK1
  6
Continuous
100
AcDbSpline
210
0.0
220
0.0
230
1.0
 70
     8
 71
     3
 72
    35
 73
    31
 74
     0
 42
0.0000000158709507
 43
0.0000000001
 12
1.0
 22
0.0
 32
0.0
 13
1.0
 23
0.0
 33
0.0
 40
0.0
 40
0.0
 40
0.0
 40
0.0
 40
0.1266707094645697
 40
0.1266707094645697
 40
0.1266707094645697
 40
0.2538346824382467
 40
0.2538346824382467
 40
0.2538346824382467
 40
0.3721246725181965
 40
0.3721246725181965
 40
0.3721246725181965
 40
0.4748149150803824
 40
0.4748149150803824
 40
0.4748149150803824
 40
0.5008216563445872
 40
0.5008216563445872
 40
0.5008216563445872
 40
0.5921837201862566
 40
0.5921837201862566
 40
0.5921837201862566
 40
0.6832345384031155
 40
0.6832345384031155
 40
0.6832345384031155
 40
0.7787906938831868
 40
0.7787906938831868
 40
0.7787906938831868
 40
0.885707634344505
 40
0.885707634344505
 40
0.885707634344505
 40
1.0
 40
1.0
 40
1.0
 40
1.0
 10
8.932412094596902
 20
6.635608380759431
 30
0.0
 10
8.95985064077803
 20
6.624403261761428
 30
0.0
 10
8.987736023620085
 20
6.609339036183522
 30
0.0
 10
9.013750927447488
 20
6.591515017022822
 30
0.0
 10
9.0398210607547
 20
6.573653157579763
 30
0.0
 10
9.064812201462166
 20
6.552436636350286
 30
0.0
 10
9.085999169961607
 20
6.529578981840048
 30
0.0
 10
9.105692159543684
 20
6.508333113081015
 30
0.0
 10
9.122718633867661
 20
6.484920273565435
 30
0.0
 10
9.134653329997294
 20
6.461734982500476
 30
0.0
 10
9.1450385717525
 20
6.441559784886804
 30
0.0
 10
9.151867775926279
 20
6.420905302474375
 30
0.0
 10
9.15412561266797
 20
6.401954974110168
 30
0.0
 10
9.154707437570098
 20
6.397071639216104
 30
0.0
 10
9.155000000000006
 20
6.39227179623529
 30
0.0
 10
9.155000000000006
 20
6.387592106108626
 30
0.0
 10
9.155000000000006
 20
6.371380109874035
 30
0.0
 10
9.151373391824432
 20
6.356359223430971
 30
0.0
 10
9.144577013728766
 20
6.343766539577838
 30
0.0
 10
9.13779365405401
 20
6.331197976934038
 30
0.0
 10
9.12770868382188
 20
6.320696923747983
 30
0.0
 10
9.115359226119264
 20
6.312834728291087
 30
0.0
 10
9.102390219721462
 20
6.304578101511463
 30
0.0
 10
9.086637391600025
 20
6.299006711658191
 30
0.0
 10
9.069399204107423
 20
6.296201101827057
 30
0.0
 10
9.050128625256345
 20
6.29306470912339
 30
0.0
 10
9.028554466990514
 20
6.293293485263225
 30
0.0
 10
9.006267600159775
 20
6.296601290686998
 30
0.0
 10
8.98245613001504
 20
6.300135376958115
 30
0.0
 10
8.957267213746158
 20
6.307260208080685
 30
0.0
 10
8.932412094596902
 20
6.317410329225488
 30
0.0
  0
LINE
  5
A8
330
1F
100
AcDbEntity
  8
SK3
100
AcDbLine
 10
-19.345
 20
0.2250000998
 30
0.0
 11
-19.345
 21
3.0189016247
 31
0.0
  0
LINE
  5
A9
330
1F
100
AcDbEntity
  8
SK1
  6
Continuous
100
AcDbLine
 10
-20.0867519303
 20
-0.2249999002
 30
0.0
 11
-20.0867519303
 21
-4.9135724026
 31
0.0
  0
LINE
  5
AA
330
1F
100
AcDbEntity
  8
SK1
  6
Continuous
100
AcDbLine
 10
-20.345
 20
0.2250000998
 30
0.0
 11
-20.345
 21
4.7033972625
 31
0.0
  0
LINE
  5
AB
330
1F
100
AcDbEntity
  8
SK1
  6
Continuous
100
AcDbLine
 10
3.2132480697
 20
0.2250000998
 30
0.0
 11
3.2132480697
 21
3.7909960335
 31
0.0
  0
LINE
  5
AC
330
1F
100
AcDbEntity
  8
SK1
  6
Continuous
100
AcDbLine
 10
6.8192693824
 20
0.2250000998
 30
0.0
 11
6.8192693824
 21
3.7641958365
 31
0.0
  0
LINE
  5
AD
330
1F
100
AcDbEntity
  8
SK1
  6
Continuous
100
AcDbLine
 10
3.555
 20
-0.2249999002
 30
0.0
 11
3.555
 21
-3.6772809563
 31
0.0
  0
LINE
  5
AE
330
1F
100
AcDbEntity
  8
SK1
  6
Continuous
100
AcDbLine
 10
3.755
 20
0.2250000998
 30
0.0
 11
3.755
 21
3.1203594694
 31
0.0
  0
LINE
  5
AF
330
1F
100
AcDbEntity
  8
SK1
  6
Continuous
100
AcDbLine
 10
6.155
 20
0.2250000998
 30
0.0
 11
6.155
 21
3.1203594694
 31
0.0
  0
LINE
  5
B0
330
1F
100
AcDbEntity
  8
SK1
  6
Continuous
100
AcDbLine
 10
6.355
 20
0.2250000998
 30
0.0
 11
6.355
 21
3.6990958924
 31
0.0
  0
LINE
  5
B1
330
1F
100
AcDbEntity
  8
SK1
  6
Continuous
100
AcDbLine
 10
6.6344228634
 20
0.2250000998
 30
0.0
 11
6.6344228634
 21
3.7608470031
 31
0.0
  0
LINE
  5
B2
330
1F
100
AcDbEntity
  8
SK1
  6
Continuous
100
AcDbLine
 10
6.8028268921
 20
0.2250000998
 30
0.0
 11
6.8028268921
 21
3.7664865727
 31
0.0
  0
LINE
  5
B3
330
1F
100
AcDbEntity
  8
SK1
  6
Continuous
100
AcDbLine
 10
3.555
 20
-0.2249999002
 30
0.0
 11
3.2132480697
 21
-0.2249999002
 31
0.0
  0
LINE
  5
B4
330
1F
100
AcDbEntity
  8
SK1
  6
Continuous
100
AcDbLine
 10
-20.0867519303
 20
-0.2249999002
 30
0.0
 11
-20.345
 21
-0.2249999002
 31
0.0
  0
LINE
  5
B5
330
1F
100
AcDbEntity
  8
SK1
  6
Continuous
100
AcDbLine
 10
6.8028268921
 20
0.2250000998
 30
0.0
 11
6.8192693824
 21
0.2250000998
 31
0.0
  0
LINE
  5
B6
330
1F
100
AcDbEntity
  8
SK1
  6
Continuous
100
AcDbLine
 10
6.8192693824
 20
0.2250000998
 30
0.0
 11
8.9324120946
 21
0.2250000998
 31
0.0
  0
LINE
  5
B7
330
1F
100
AcDbEntity
  8
SK1
  6
Continuous
100
AcDbLine
 10
-20.0867519303
 20
0.2250000998
 30
0.0
 11
3.2132480697
 21
0.2250000998
 31
0.0
  0
LINE
  5
B8
330
1F
100
AcDbEntity
  8
SK1
  6
Continuous
100
AcDbLine
 10
3.555
 20
0.2250000998
 30
0.0
 11
3.755
 21
0.2250000998
 31
0.0
  0
LINE
  5
B9
330
1F
100
AcDbEntity
  8
SK1
  6
Continuous
100
AcDbLine
 10
3.755
 20
0.2250000998
 30
0.0
 11
6.155
 21
0.2250000998
 31
0.0
  0
LINE
  5
BA
330
1F
100
AcDbEntity
  8
SK1
  6
Continuous
100
AcDbLine
 10
6.155
 20
0.2250000998
 30
0.0
 11
6.355
 21
0.2250000998
 31
0.0
  0
LINE
  5
BB
330
1F
100
AcDbEntity
  8
SK1
  6
Continuous
100
AcDbLine
 10
6.355
 20
0.2250000998
 30
0.0
 11
6.6344228634
 21
0.2250000998
 31
0.0
  0
LINE
  5
BC
330
1F
100
AcDbEntity
  8
SK1
  6
Continuous
100
AcDbLine
 10
6.6344228634
 20
0.2250000998
 30
0.0
 11
6.8028268921
 21
0.2250000998
 31
0.0
  0
LINE
  5
BD
330
1F
100
AcDbEntity
  8
SK1
  6
Continuous
100
AcDbLine
 10
6.8028268921
 20
-0.2249999002
 30
0.0
 11
6.8192693824
 21
-0.2249999002
 31
0.0
  0
LINE
  5
BE
330
1F
100
AcDbEntity
  8
SK1
  6
Continuous
100
AcDbLine
 10
6.8192693824
 20
-0.2249999002
 30
0.0
 11
8.9324120946
 21
-0.2249999002
 31
0.0
  0
LINE
  5
BF
330
1F
100
AcDbEntity
  8
SK1
  6
Continuous
100
AcDbLine
 10
-20.0867519303
 20
-0.2249999002
 30
0.0
 11
3.2132480697
 21
-0.2249999002
 31
0.0
  0
LINE
  5
C0
330
1F
100
AcDbEntity
  8
SK1
  6
Continuous
100
AcDbLine
 10
3.555
 20
-0.2249999002
 30
0.0
 11
3.755
 21
-0.2249999002
 31
0.0
  0
LINE
  5
C1
330
1F
100
AcDbEntity
  8
SK1
  6
Continuous
100
AcDbLine
 10
3.755
 20
-0.2249999002
 30
0.0
 11
6.155
 21
-0.2249999002
 31
0.0
  0
LINE
  5
C2
330
1F
100
AcDbEntity
  8
SK1
  6
Continuous
100
AcDbLine
 10
6.155
 20
-0.2249999002
 30
0.0
 11
6.355
 21
-0.2249999002
 31
0.0
  0
LINE
  5
C3
330
1F
100
AcDbEntity
  8
SK1
  6
Continuous
100
AcDbLine
 10
6.355
 20
-0.2249999002
 30
0.0
 11
6.6344228634
 21
-0.2249999002
 31
0.0
  0
LINE
  5
C4
330
1F
100
AcDbEntity
  8
SK1
  6
Continuous
100
AcDbLine
 10
6.6344228634
 20
-0.2249999002
 30
0.0
 11
6.8028268921
 21
-0.2249999002
 31
0.0
  0
LINE
  5
C5
330
1F
100
AcDbEntity
  8
SK1
  6
Continuous
100
AcDbLine
 10
3.555
 20
0.2250000998
 30
0.0
 11
3.2132480697
 21
0.2250000998
 31
0.0
  0
LINE
  5
C6
330
1F
100
AcDbEntity
  8
SK1
  6
Continuous
100
AcDbLine
 10
-20.0867519303
 20
0.2250000998
 30
0.0
 11
-20.345
 21
0.2250000998
 31
0.0
  0
SPLINE
  5
C7
330
1F
100
AcDbEntity
  8
SK1
  6
Continuous
100
AcDbSpline
210
0.0
220
0.0
230
1.0
 70
     8
 71
     3
 72
    35
 73
    31
 74
     0
 42
0.0000000171997088
 43
0.0000000001
 12
1.0
 22
0.0
 32
0.0
 13
1.0
 23
0.0
 33
0.0
 40
0.0
 40
0.0
 40
0.0
 40
0.0
 40
0.119374785722105
 40
0.119374785722105
 40
0.119374785722105
 40
0.2396929638869882
 40
0.2396929638869882
 40
0.2396929638869882
 40
0.3465262450343404
 40
0.3465262450343404
 40
0.3465262450343404
 40
0.4464633629867264
 40
0.4464633629867264
 40
0.4464633629867264
 40
0.5003315246630483
 40
0.5003315246630483
 40
0.5003315246630483
 40
0.5990306050632883
 40
0.5990306050632883
 40
0.5990306050632883
 40
0.6977247179792976
 40
0.6977247179792976
 40
0.6977247179792976
 40
0.7964957913501003
 40
0.7964957913501003
 40
0.7964957913501003
 40
0.8974009289603633
 40
0.8974009289603633
 40
0.8974009289603633
 40
1.0
 40
1.0
 40
1.0
 40
1.0
 10
-4.532362706250654
 20
-0.2249999002292919
 30
0.0
 10
-4.513466280410237
 20
-0.2249999002292927
 30
0.0
 10
-4.495470980434881
 20
-0.2207118776140119
 30
0.0
 10
-4.47973668867363
 20
-0.2116247374624123
 30
0.0
 10
-4.463928452322592
 20
-0.2024948915531554
 30
0.0
 10
-4.449954895179136
 20
-0.1881371152099273
 30
0.0
 10
-4.438892290908552
 20
-0.1694243339532257
 30
0.0
 10
-4.429043327805167
 20
-0.1527644690921979
 30
0.0
 10
-4.421168043191833
 20
-0.1321597112452285
 30
0.0
 10
-4.415510097722033
 20
-0.1094212213737635
 30
0.0
 10
-4.410207710185026
 20
-0.0881116690020847
 30
0.0
 10
-4.406666333206154
 20
-0.0643363706860811
 30
0.0
 10
-4.404856701366319
 20
-0.0401065313513986
 30
0.0
 10
-4.403871113591841
 20
-0.0269101270330397
 30
0.0
 10
-4.403380151290432
 20
-0.0134264239065786
 30
0.0
 10
-4.403380151290432
 20
0.0000000997707051
 30
0.0
 10
-4.403380151290432
 20
0.0243558461027173
 30
0.0
 10
-4.405009164417634
 20
0.0490479163651246
 30
0.0
 10
-4.408300370934335
 20
0.07202969139461
 30
0.0
 10
-4.411591506659355
 20
0.0950109721012624
 30
0.0
 10
-4.416655421540431
 20
0.1169090646178537
 30
0.0
 10
-4.423462485492682
 20
0.1359443704305283
 30
0.0
 10
-4.43027752153013
 20
0.1550019694199305
 30
0.0
 10
-4.439043100569145
 20
0.171693770710451
 30
0.0
 10
-4.449421289875924
 20
0.1848822173314903
 30
0.0
 10
-4.460031167977388
 20
0.1983650905823663
 30
0.0
 10
-4.472593961371466
 20
0.2085428713116606
 30
0.0
 10
-4.486388778608355
 20
0.2151265906397056
 30
0.0
 10
-4.500436282504236
 20
0.221830907291525
 30
0.0
 10
-4.516051890942549
 20
0.2250000997707066
 30
0.0
 10
-4.532362706250663
 20
0.2250000997707073
 30
0.0
  0
ARC
  5
C8
330
1F
100
AcDbEntity
  8
SK1
  6
Continuous
100
AcDbCircle
 10
8.9298900324
 20
0.0000000998
 30
0.0
 40
0.225014134661759
100
AcDbArc
 50
270.6422109613
 51
89.3577890387
  0
LINE
  5
C9
330
1F
100
AcDbEntity
  8
SK3
100
AcDbLine
 10
-19.345
 20
-3.0189014251
 30
0.0
 11
-19.345
 21
-0.2249999002
 31
0.0
  0
LINE
  5
CA
330
1F
100
AcDbEntity
  8
SK3
100
AcDbLine
 10
-20.345
 20
-3.4276027547
 30
0.0
 11
-19.345
 21
-3.0189014251
 31
0.0
  0
LINE
  5
CB
330
1F
100
AcDbEntity
  8
SK3
100
AcDbLine
 10
-20.345
 20
-3.7458008063
 30
0.0
 11
-19.345
 21
-3.3370994767
 31
0.0
  0
LINE
  5
CC
330
1F
100
AcDbEntity
  8
SK1
  6
Continuous
100
AcDbLine
 10
-20.0867519303
 20
-5.2317704542
 30
0.0
 11
-20.0867519303
 21
-7.1738407728
 31
0.0
  0
LINE
  5
CD
330
1F
100
AcDbEntity
  8
SK1
  6
Continuous
100
AcDbLine
 10
-20.345
 20
-4.7033970629
 30
0.0
 11
-20.345
 21
-0.2249999002
 31
0.0
  0
LINE
  5
CE
330
1F
100
AcDbEntity
  8
SK1
  6
Continuous
100
AcDbLine
 10
3.2132480697
 20
-7.2298470022
 30
0.0
 11
3.2132480697
 21
-4.2067416236
 31
0.0
  0
LINE
  5
CF
330
1F
100
AcDbEntity
  8
SK1
  6
Continuous
100
AcDbLine
 10
6.8192693824
 20
-7.1803266953
 30
0.0
 11
6.8192693824
 21
-4.1799414266
 31
0.0
  0
LINE
  5
D0
330
1F
100
AcDbEntity
  8
SK1
  6
Continuous
100
AcDbLine
 10
3.555
 20
-7.3379273578
 30
0.0
 11
3.555
 21
-9.2934874882
 31
0.0
  0
LINE
  5
D1
330
1F
100
AcDbEntity
  8
SK1
  6
Continuous
100
AcDbLine
 10
3.755
 20
-5.9906722117
 30
0.0
 11
3.755
 21
-3.5361050595
 31
0.0
  0
LINE
  5
D2
330
1F
100
AcDbEntity
  8
SK1
  6
Continuous
100
AcDbLine
 10
6.155
 20
-5.9906722117
 30
0.0
 11
6.155
 21
-3.5361050595
 31
0.0
  0
LINE
  5
D3
330
1F
100
AcDbEntity
  8
SK1
  6
Continuous
100
AcDbLine
 10
6.355
 20
-7.0600376834
 30
0.0
 11
6.355
 21
-4.1148414825
 31
0.0
  0
LINE
  5
D4
330
1F
100
AcDbEntity
  8
SK1
  6
Continuous
100
AcDbLine
 10
6.6344228634
 20
-7.174138858
 30
0.0
 11
6.6344228634
 21
-4.1765925932
 31
0.0
  0
LINE
  5
D5
330
1F
100
AcDbEntity
  8
SK1
  6
Continuous
100
AcDbLine
 10
6.8028268921
 20
-7.1845594239
 30
0.0
 11
6.8028268921
 21
-4.1822321628
 31
0.0
  0
SPLINE
  5
D6
330
1F
100
AcDbEntity
  8
SK1
  6
Continuous
100
AcDbSpline
210
0.0
220
0.0
230
1.0
 70
     8
 71
     3
 72
    10
 73
     6
 74
     0
 42
0.000000021749483
 43
0.0000000001
 12
1.0
 22
0.0
 32
0.0
 13
1.0
 23
0.0
 33
0.0
 40
0.0
 40
0.0
 40
0.0
 40
0.0
 40
0.5
 40
0.5
 40
1.0
 40
1.0
 40
1.0
 40
1.0
 10
3.554999999999997
 20
-7.337927357816376
 30
0.0
 10
3.554999999999996
 20
-7.398741773353162
 30
0.0
 10
3.516180013278688
 20
-7.458448804372391
 30
0.0
 10
3.387702860451713
 20
-7.537526752230742
 30
0.0
 10
3.298744539072059
 20
-7.556543438019
 30
0.0
 10
3.21324806971196
 20
-7.548045053768271
 30
0.0
  0
SPLINE
  5
D7
330
1F
100
AcDbEntity
  8
SK1
  6
Continuous
100
AcDbSpline
210
0.0
220
0.0
230
1.0
 70
     8
 71
     3
 72
    10
 73
     6
 74
     0
 42
0.000000026913056
 43
0.0000000001
 12
1.0
 22
0.0
 32
0.0
 13
1.0
 23
0.0
 33
0.0
 40
0.0
 40
0.0
 40
0.0
 40
0.0
 40
0.5
 40
0.5
 40
1.0
 40
1.0
 40
1.0
 40
1.0
 10
-20.08675193028803
 20
-5.231770454169686
 30
0.0
 10
-20.15829059404396
 20
-5.224657633540604
 30
0.0
 10
-20.22437678182172
 20
-5.199135869919556
 30
0.0
 10
-20.3185361608432
 20
-5.122470460689724
 30
0.0
 10
-20.345
 20
-5.072145120716317
 30
0.0
 10
-20.345
 20
-5.021595114462018
 30
0.0
  0
LINE
  5
D8
330
1F
100
AcDbEntity
  8
SK3
100
AcDbLine
 10
-19.345
 20
-3.3370994767
 30
0.0
 11
-5.145
 21
-3.3370994767
 31
0.0
  0
ARC
  5
D9
330
1F
100
AcDbEntity
  8
SK3
100
AcDbCircle
 10
-5.1227858902
 20
-2.3751010539
 30
0.0
 40
0.962254868566939
100
AcDbArc
 50
268.6771822529
 51
307.8490271509
  0
LINE
  5
DA
330
1F
100
AcDbEntity
  8
SK1
  6
Continuous
100
AcDbLine
 10
6.8028268921
 20
-7.1845594239
 30
0.0
 11
6.8192693824
 21
-7.1803266953
 31
0.0
  0
LINE
  5
DB
330
1F
100
AcDbEntity
  8
SK1
  6
Continuous
100
AcDbLine
 10
6.8192693824
 20
-7.1803266953
 30
0.0
 11
8.9324120946
 21
-6.3174101297
 31
0.0
  0
LINE
  5
DC
330
1F
100
AcDbEntity
  8
SK1
  6
Continuous
100
AcDbLine
 10
-20.0867519303
 20
-4.9135724026
 30
0.0
 11
3.2132480697
 21
-7.2298470022
 31
0.0
  0
SPLINE
  5
DD
330
1F
100
AcDbEntity
  8
SK1
  6
Continuous
100
AcDbSpline
210
0.0
220
0.0
230
1.0
 70
     8
 71
     3
 72
    10
 73
     6
 74
     0
 42
0.0000000360976459
 43
0.0000000001
 12
1.0
 22
0.0
 32
0.0
 13
1.0
 23
0.0
 33
0.0
 40
0.0
 40
0.0
 40
0.0
 40
0.0
 40
0.5
 40
0.5
 40
1.0
 40
1.0
 40
1.0
 40
1.0
 10
3.554999999999999
 20
-6.132139822396184
 30
0.0
 10
3.554999999999994
 20
-6.095258133451694
 30
0.0
 10
3.576208430316651
 20
-6.058565327635286
 30
0.0
 10
3.650817550217136
 20
-6.005742263004597
 30
0.0
 10
3.702169827898751
 20
-5.990672211674223
 30
0.0
 10
3.754999999999995
 20
-5.990672211674786
 30
0.0
  0
LINE
  5
DE
330
1F
100
AcDbEntity
  8
SK1
  6
Continuous
100
AcDbLine
 10
3.755
 20
-5.9906722117
 30
0.0
 11
6.155
 21
-5.9906722117
 31
0.0
  0
SPLINE
  5
DF
330
1F
100
AcDbEntity
  8
SK1
  6
Continuous
100
AcDbSpline
210
0.0
220
0.0
230
1.0
 70
     8
 71
     3
 72
    10
 73
     6
 74
     0
 42
0.0000000361062551
 43
0.0000000001
 12
1.0
 22
0.0
 32
0.0
 13
1.0
 23
0.0
 33
0.0
 40
0.0
 40
0.0
 40
0.0
 40
0.0
 40
0.5
 40
0.5
 40
1.0
 40
1.0
 40
1.0
 40
1.0
 10
6.155000000000001
 20
-5.990672211674786
 30
0.0
 10
6.207869998156069
 20
-5.990672211674784
 30
0.0
 10
6.259585030319373
 20
-6.006029080175026
 30
0.0
 10
6.333379296864252
 20
-6.058271648589
 30
0.0
 10
6.355000000000112
 20
-6.095226030402173
 30
0.0
 10
6.355000000002393
 20
-6.132139822396379
 30
0.0
  0
LINE
  5
E0
330
1F
100
AcDbEntity
  8
SK1
  6
Continuous
100
AcDbLine
 10
6.355
 20
-7.0600376834
 30
0.0
 11
6.6344228634
 21
-7.174138858
 31
0.0
  0
ARC
  5
E1
330
1F
100
AcDbEntity
  8
SK1
  6
Continuous
100
AcDbCircle
 10
6.7348140991
 20
-6.9177193857
 30
0.0
 40
0.2753712875190546
100
AcDbArc
 50
248.6190732542
 51
284.2992177364
  0
LINE
  5
E2
330
1F
100
AcDbEntity
  8
SK1
  6
Continuous
100
AcDbLine
 10
6.8028268921
 20
-7.5027574754
 30
0.0
 11
6.8192693824
 21
-7.4985247469
 31
0.0
  0
LINE
  5
E3
330
1F
100
AcDbEntity
  8
SK1
  6
Continuous
100
AcDbLine
 10
6.8192693824
 20
-7.4985247469
 30
0.0
 11
8.9324120946
 21
-6.6356081812
 31
0.0
  0
LINE
  5
E4
330
1F
100
AcDbEntity
  8
SK1
  6
Continuous
100
AcDbLine
 10
-20.345
 20
-4.7033970629
 30
0.0
 11
-20.345
 21
-5.0215951145
 31
0.0
  0
LINE
  5
E5
330
1F
100
AcDbEntity
  8
SK1
  6
Continuous
100
AcDbLine
 10
-20.0867519303
 20
-5.2317704542
 30
0.0
 11
3.2132480697
 21
-7.5480450538
 31
0.0
  0
LINE
  5
E6
330
1F
100
AcDbEntity
  8
SK1
  6
Continuous
100
AcDbLine
 10
3.555
 20
-7.3379273578
 30
0.0
 11
3.555
 21
-7.0197293063
 31
0.0
  0
SPLINE
  5
E7
330
1F
100
AcDbEntity
  8
SK1
  6
Continuous
100
AcDbSpline
210
0.0
220
0.0
230
1.0
 70
     8
 71
     3
 72
    10
 73
     6
 74
     0
 42
0.0000000360976459
 43
0.0000000001
 12
1.0
 22
0.0
 32
0.0
 13
1.0
 23
0.0
 33
0.0
 40
0.0
 40
0.0
 40
0.0
 40
0.0
 40
0.5
 40
0.5
 40
1.0
 40
1.0
 40
1.0
 40
1.0
 10
3.554999999999999
 20
-6.450337873930128
 30
0.0
 10
3.554999999999992
 20
-6.413456184985637
 30
0.0
 10
3.576208430316653
 20
-6.37676337916923
 30
0.0
 10
3.650817550217136
 20
-6.323940314538542
 30
0.0
 10
3.702169827898754
 20
-6.30887026320817
 30
0.0
 10
3.754999999999995
 20
-6.308870263208732
 30
0.0
  0
LINE
  5
E8
330
1F
100
AcDbEntity
  8
SK1
  6
Continuous
100
AcDbLine
 10
3.755
 20
-6.3088702632
 30
0.0
 11
6.155
 21
-6.3088702632
 31
0.0
  0
SPLINE
  5
E9
330
1F
100
AcDbEntity
  8
SK1
  6
Continuous
100
AcDbSpline
210
0.0
220
0.0
230
1.0
 70
     8
 71
     3
 72
    10
 73
     6
 74
     0
 42
0.0000000361062551
 43
0.0000000001
 12
1.0
 22
0.0
 32
0.0
 13
1.0
 23
0.0
 33
0.0
 40
0.0
 40
0.0
 40
0.0
 40
0.0
 40
0.5
 40
0.5
 40
1.0
 40
1.0
 40
1.0
 40
1.0
 10
6.155000000000001
 20
-6.308870263208732
 30
0.0
 10
6.207869998156069
 20
-6.30887026320873
 30
0.0
 10
6.259585030319373
 20
-6.324227131708972
 30
0.0
 10
6.33337929686425
 20
-6.376469700122945
 30
0.0
 10
6.355000000000114
 20
-6.413424081936119
 30
0.0
 10
6.355000000002393
 20
-6.450337873930327
 30
0.0
  0
LINE
  5
EA
330
1F
100
AcDbEntity
  8
SK1
  6
Continuous
100
AcDbLine
 10
6.355
 20
-7.0600376834
 30
0.0
 11
6.355
 21
-7.3782357349
 31
0.0
  0
LINE
  5
EB
330
1F
100
AcDbEntity
  8
SK1
  6
Continuous
100
AcDbLine
 10
6.355
 20
-7.3782357349
 30
0.0
 11
6.6344228634
 21
-7.4923369096
 31
0.0
  0
ARC
  5
EC
330
1F
100
AcDbEntity
  8
SK1
  6
Continuous
100
AcDbCircle
 10
6.7348140991
 20
-7.2359174372
 30
0.0
 40
0.2753712875190559
100
AcDbArc
 50
248.6190732542
 51
284.2992177364
  0
SPLINE
  5
ED
330
1F
100
AcDbEntity
  8
SK1
  6
Continuous
100
AcDbSpline
210
0.0
220
0.0
230
1.0
 70
     8
 71
     3
 72
    10
 73
     6
 74
     0
 42
0.000000021749483
 43
0.0000000001
 12
1.0
 22
0.0
 32
0.0
 13
1.0
 23
0.0
 33
0.0
 40
0.0
 40
0.0
 40
0.0
 40
0.0
 40
0.5
 40
0.5
 40
1.0
 40
1.0
 40
1.0
 40
1.0
 10
3.554999999999997
 20
-7.01972930628243
 30
0.0
 10
3.554999999999999
 20
-7.080543721819216
 30
0.0
 10
3.516180013278688
 20
-7.140250752838446
 30
0.0
 10
3.38770286045172
 20
-7.219328700696796
 30
0.0
 10
3.298744539072068
 20
-7.238345386485056
 30
0.0
 10
3.21324806971196
 20
-7.229847002234324
 30
0.0
  0
SPLINE
  5
EE
330
1F
100
AcDbEntity
  8
SK1
  6
Continuous
100
AcDbSpline
210
0.0
220
0.0
230
1.0
 70
     8
 71
     3
 72
    10
 73
     6
 74
     0
 42
0.000000026913056
 43
0.0000000001
 12
1.0
 22
0.0
 32
0.0
 13
1.0
 23
0.0
 33
0.0
 40
0.0
 40
0.0
 40
0.0
 40
0.0
 40
0.5
 40
0.5
 40
1.0
 40
1.0
 40
1.0
 40
1.0
 10
-20.08675193028803
 20
-4.913572402635739
 30
0.0
 10
-20.15829059404397
 20
-4.906459582006658
 30
0.0
 10
-20.22437678182171
 20
-4.880937818385612
 30
0.0
 10
-20.31853616084319
 20
-4.804272409155779
 30
0.0
 10
-20.345
 20
-4.753947069182369
 30
0.0
 10
-20.345
 20
-4.703397062928071
 30
0.0
  0
LINE
  5
EF
330
1F
100
AcDbEntity
  8
SK3
100
AcDbLine
 10
-19.345
 20
-3.0189014251
 30
0.0
 11
-5.145
 21
-3.0189014251
 31
0.0
  0
ARC
  5
F0
330
1F
100
AcDbEntity
  8
SK3
100
AcDbCircle
 10
-5.1227858902
 20
-2.0569030024
 30
0.0
 40
0.9622548685668417
100
AcDbArc
 50
268.6771822529
 51
307.8490271509
  0
SPLINE
  5
F1
330
1F
100
AcDbEntity
  8
SK3
100
AcDbSpline
210
0.0
220
0.0
230
1.0
 70
     8
 71
     3
 72
    35
 73
    31
 74
     0
 42
0.0000000184498503
 43
0.0000000001
 12
1.0
 22
0.0
 32
0.0
 13
1.0
 23
0.0
 33
0.0
 40
0.0
 40
0.0
 40
0.0
 40
0.0
 40
0.1193747857221035
 40
0.1193747857221035
 40
0.1193747857221035
 40
0.2396929638869869
 40
0.2396929638869869
 40
0.2396929638869869
 40
0.3465262450343419
 40
0.3465262450343419
 40
0.3465262450343419
 40
0.4464633629867243
 40
0.4464633629867243
 40
0.4464633629867243
 40
0.5003315246630586
 40
0.5003315246630586
 40
0.5003315246630586
 40
0.5990306050632989
 40
0.5990306050632989
 40
0.5990306050632989
 40
0.6977247179793067
 40
0.6977247179793067
 40
0.6977247179793067
 40
0.7964957913501045
 40
0.7964957913501045
 40
0.7964957913501045
 40
0.897400928960375
 40
0.897400928960375
 40
0.897400928960375
 40
1.0
 40
1.0
 40
1.0
 40
1.0
 10
-4.532362706250654
 20
-3.13492662332074
 30
0.0
 10
-4.513466280410241
 20
-3.118992396524216
 30
0.0
 10
-4.495470980434884
 20
-3.099075344407544
 30
0.0
 10
-4.479736688673634
 20
-3.076298465984672
 30
0.0
 10
-4.463928452322595
 20
-3.05341454576054
 30
0.0
 10
-4.449954895179136
 20
-3.026893595337925
 30
0.0
 10
-4.438892290908552
 20
-2.999511168323368
 30
0.0
 10
-4.429043327805167
 20
-2.975132775428611
 30
0.0
 10
-4.421168043191833
 20
-2.949360277474766
 30
0.0
 10
-4.415510097722033
 20
-2.924828169212505
 30
0.0
 10
-4.410207710185026
 20
-2.901837713436533
 30
0.0
 10
-4.406666333206152
 20
-2.879288501177193
 30
0.0
 10
-4.404856701366318
 20
-2.859207623570462
 30
0.0
 10
-4.40387111359184
 20
-2.848270886586545
 30
0.0
 10
-4.403380151290432
 20
-2.837921010915448
 30
0.0
 10
-4.403380151290432
 20
-2.828427024975477
 30
0.0
 10
-4.403380151290432
 20
-2.811204911583252
 30
0.0
 10
-4.405009164417634
 20
-2.796487108877198
 30
0.0
 10
-4.408300370934335
 20
-2.785442707192699
 30
0.0
 10
-4.411591506659355
 20
-2.774398543066002
 30
0.0
 10
-4.416655421540433
 20
-2.766726739159206
 30
0.0
 10
-4.423462485492684
 20
-2.762871376351552
 30
0.0
 10
-4.430277521530131
 20
-2.759011498340134
 30
0.0
 10
-4.439043100569143
 20
-2.758865376298061
 30
0.0
 10
-4.449421289875922
 20
-2.762048236043587
 30
0.0
 10
-4.460031167977387
 20
-2.765302151819823
 30
0.0
 10
-4.472593961371469
 20
-2.772083547668723
 30
0.0
 10
-4.486388778608359
 20
-2.781352378265196
 30
0.0
 10
-4.500436282504236
 20
-2.790790990729445
 30
0.0
 10
-4.516051890942549
 20
-2.802974635854647
 30
0.0
 10
-4.532362706250663
 20
-2.816728571786788
 30
0.0
  0
SPLINE
  5
F2
330
1F
100
AcDbEntity
  8
SK1
  6
Continuous
100
AcDbSpline
210
0.0
220
0.0
230
1.0
 70
     8
 71
     3
 72
    35
 73
    31
 74
     0
 42
0.0000000158616215
 43
0.0000000001
 12
1.0
 22
0.0
 32
0.0
 13
1.0
 23
0.0
 33
0.0
 40
0.0
 40
0.0
 40
0.0
 40
0.0
 40
0.1266707094645707
 40
0.1266707094645707
 40
0.1266707094645707
 40
0.2538346824382443
 40
0.2538346824382443
 40
0.2538346824382443
 40
0.3721246725181991
 40
0.3721246725181991
 40
0.3721246725181991
 40
0.4748149150803779
 40
0.4748149150803779
 40
0.4748149150803779
 40
0.5008216563445831
 40
0.5008216563445831
 40
0.5008216563445831
 40
0.5921837201862518
 40
0.5921837201862518
 40
0.5921837201862518
 40
0.6832345384031114
 40
0.6832345384031114
 40
0.6832345384031114
 40
0.7787906938831807
 40
0.7787906938831807
 40
0.7787906938831807
 40
0.8857076343444903
 40
0.8857076343444903
 40
0.8857076343444903
 40
1.0
 40
1.0
 40
1.0
 40
1.0
 10
8.932412094596902
 20
-6.317410129684075
 30
0.0
 10
8.95985064077803
 20
-6.306205010686073
 30
0.0
 10
8.987736023620085
 20
-6.298685658663979
 30
0.0
 10
9.013750927447488
 20
-6.295601453764392
 30
0.0
 10
9.0398210607547
 20
-6.292510701116893
 30
0.0
 10
9.064812201462168
 20
-6.29381425236107
 30
0.0
 10
9.085999169961609
 20
-6.299888017374776
 30
0.0
 10
9.105692159543688
 20
-6.305533496629725
 30
0.0
 10
9.122718633867665
 20
-6.315554163102247
 30
0.0
 10
9.134653329997297
 20
-6.329377242373901
 30
0.0
 10
9.145038571752501
 20
-6.341405702795369
 30
0.0
 10
9.151867775926284
 20
-6.356726070447984
 30
0.0
 10
9.154125612667974
 20
-6.373912196634889
 30
0.0
 10
9.154707437570103
 20
-6.378340911963159
 30
0.0
 10
9.155000000000005
 20
-6.38291221644055
 30
0.0
 10
9.155000000000005
 20
-6.387591906567212
 30
0.0
 10
9.155000000000005
 20
-6.403803902801804
 30
0.0
 10
9.151373391824437
 20
-6.421655386915972
 30
0.0
 10
9.144577013728773
 20
-6.439568823269074
 30
0.0
 10
9.137793654054015
 20
-6.457447946543791
 30
0.0
 10
9.127708683821878
 20
-6.475854773411887
 30
0.0
 10
9.115359226119262
 20
-6.49344234179213
 30
0.0
 10
9.102390219721462
 20
-6.511912244871099
 30
0.0
 10
9.086637391600025
 20
-6.529931080690672
 30
0.0
 10
9.069399204107423
 20
-6.546437981608655
 30
0.0
 10
9.050128625256345
 20
-6.564891054813908
 30
0.0
 10
9.028554466990515
 20
-6.581903160647044
 30
0.0
 10
9.00626760015978
 20
-6.596534020817012
 30
0.0
 10
8.98245613001504
 20
-6.61216575105415
 30
0.0
 10
8.957267213746155
 20
-6.625458060073223
 30
0.0
 10
8.932412094596895
 20
-6.635608181218021
 30
0.0
  0
ELLIPSE
  5
F3
330
1F
100
AcDbEntity
  8
SK1
  6
Continuous
100
AcDbEllipse
 10
-9.5424732706
 20
-27.4680256567
 30
0.0
 11
34.77499999999424
 21
-4.951454434039830E-12
 31
0.0
210
0.0
220
0.0
230
1.0
 40
0.7071067812
 41
1.010698394063858
 42
1.023554514580507
  0
LINE
  5
F4
330
1F
100
AcDbEntity
  8
SK3
100
AcDbLine
 10
-19.345
 20
-4.4943713802
 30
0.0
 11
-19.345
 21
-3.3370994767
 31
0.0
  0
LINE
  5
F5
330
1F
100
AcDbEntity
  8
SK3
100
AcDbLine
 10
-20.345
 20
-5.0723623435
 30
0.0
 11
-19.345
 21
-4.4943713802
 31
0.0
  0
LINE
  5
F6
330
1F
100
AcDbEntity
  8
SK1
  6
Continuous
100
AcDbLine
 10
-20.345
 20
-6.8766079569
 30
0.0
 11
-20.345
 21
-5.0215951145
 31
0.0
  0
LINE
  5
F7
330
1F
100
AcDbEntity
  8
SK1
  6
Continuous
100
AcDbLine
 10
3.2132480697
 20
-10.4495477258
 30
0.0
 11
3.2132480697
 21
-9.7402270325
 31
0.0
  0
LINE
  5
F8
330
1F
100
AcDbEntity
  8
SK1
  6
Continuous
100
AcDbLine
 10
6.8192693824
 20
-10.3795154361
 30
0.0
 11
6.8192693824
 21
-9.6755256335
 31
0.0
  0
LINE
  5
F9
330
1F
100
AcDbEntity
  8
SK1
  6
Continuous
100
AcDbLine
 10
3.755
 20
-8.6970899308
 30
0.0
 11
3.755
 21
-8.1211671442
 31
0.0
  0
LINE
  5
FA
330
1F
100
AcDbEntity
  8
SK1
  6
Continuous
100
AcDbLine
 10
6.155
 20
-8.6970899308
 30
0.0
 11
6.155
 21
-8.1211671442
 31
0.0
  0
LINE
  5
FB
330
1F
100
AcDbEntity
  8
SK1
  6
Continuous
100
AcDbLine
 10
6.355
 20
-10.2094010841
 30
0.0
 11
6.355
 21
-9.5183604655
 31
0.0
  0
LINE
  5
FC
330
1F
100
AcDbEntity
  8
SK1
  6
Continuous
100
AcDbLine
 10
6.6344228634
 20
-10.3707645127
 30
0.0
 11
6.6344228634
 21
-9.6674408345
 31
0.0
  0
LINE
  5
FD
330
1F
100
AcDbEntity
  8
SK1
  6
Continuous
100
AcDbLine
 10
6.8028268921
 20
-10.3855014183
 30
0.0
 11
6.8028268921
 21
-9.6810559599
 31
0.0
  0
LINE
  5
FE
330
1F
100
AcDbEntity
  8
SK1
  6
Continuous
100
AcDbLine
 10
6.8028268921
 20
-10.3855014183
 30
0.0
 11
6.8192693824
 21
-10.3795154361
 31
0.0
  0
LINE
  5
FF
330
1F
100
AcDbEntity
  8
SK1
  6
Continuous
100
AcDbLine
 10
6.8192693824
 20
-10.3795154361
 30
0.0
 11
8.9324120946
 21
-9.1591671258
 31
0.0
  0
SPLINE
  5
100
330
1F
100
AcDbEntity
  8
SK1
  6
Continuous
100
AcDbSpline
210
0.0
220
0.0
230
1.0
 70
     8
 71
     3
 72
    11
 73
     7
 74
     0
 42
0.000000000425005
 43
0.0000000001
 12
1.0
 22
0.0
 32
0.0
 13
1.0
 23
0.0
 33
0.0
 40
0.0
 40
0.0
 40
0.0
 40
0.0
 40
0.5355387096541196
 40
0.5355387096541196
 40
0.5355387096541196
 40
1.0
 40
1.0
 40
1.0
 40
1.0
 10
-20.08675193028803
 20
-7.173840772835995
 30
0.0
 10
-15.92741370720165
 20
-7.758685081403605
 30
0.0
 10
-11.76806616729153
 20
-8.343463130582947
 30
0.0
 10
-7.608713902065259
 20
-8.928207564543943
 30
0.0
 10
-4.001396475040959
 20
-9.43534392916927
 30
0.0
 10
-0.3940753473835774
 20
-9.942453971012398
 30
0.0
 10
3.21324806971196
 20
-10.44954772576863
 30
0.0
  0
SPLINE
  5
101
330
1F
100
AcDbEntity
  8
SK1
  6
Continuous
100
AcDbSpline
210
0.0
220
0.0
230
1.0
 70
     8
 71
     3
 72
    10
 73
     6
 74
     0
 42
0.0000000310341344
 43
0.0000000001
 12
1.0
 22
0.0
 32
0.0
 13
1.0
 23
0.0
 33
0.0
 40
0.0
 40
0.0
 40
0.0
 40
0.0
 40
0.5
 40
0.5
 40
1.0
 40
1.0
 40
1.0
 40
1.0
 10
3.554999999999999
 20
-8.897155344527208
 30
0.0
 10
3.554999999999992
 20
-8.844996759818676
 30
0.0
 10
3.576208430316653
 20
-8.793105296191593
 30
0.0
 10
3.650817550217136
 20
-8.718402201784762
 30
0.0
 10
3.702169827898751
 20
-8.697089930807685
 30
0.0
 10
3.754999999999995
 20
-8.697089930808486
 30
0.0
  0
LINE
  5
102
330
1F
100
AcDbEntity
  8
SK1
  6
Continuous
100
AcDbLine
 10
3.755
 20
-8.6970899308
 30
0.0
 11
6.155
 21
-8.6970899308
 31
0.0
  0
SPLINE
  5
103
330
1F
100
AcDbEntity
  8
SK1
  6
Continuous
100
AcDbSpline
210
0.0
220
0.0
230
1.0
 70
     8
 71
     3
 72
    10
 73
     6
 74
     0
 42
0.0000000310419875
 43
0.0000000001
 12
1.0
 22
0.0
 32
0.0
 13
1.0
 23
0.0
 33
0.0
 40
0.0
 40
0.0
 40
0.0
 40
0.0
 40
0.5
 40
0.5
 40
1.0
 40
1.0
 40
1.0
 40
1.0
 10
6.155000000000001
 20
-8.697089930808486
 30
0.0
 10
6.207869998156069
 20
-8.697089930808485
 30
0.0
 10
6.259585030319373
 20
-8.718807822517103
 30
0.0
 10
6.333379296864252
 20
-8.79268997130135
 30
0.0
 10
6.355000000000114
 20
-8.844951359250654
 30
0.0
 10
6.355000000002393
 20
-8.897155344527482
 30
0.0
  0
LINE
  5
104
330
1F
100
AcDbEntity
  8
SK1
  6
Continuous
100
AcDbLine
 10
6.355
 20
-10.2094010841
 30
0.0
 11
6.6344228634
 21
-10.3707645127
 31
0.0
  0
ARC
  5
105
330
1F
100
AcDbEntity
  8
SK1
  6
Continuous
100
AcDbCircle
 10
6.7345393741
 20
-10.1962721752
 30
0.0
 40
0.2011737845060622
100
AcDbArc
 50
240.1545729027
 51
289.8430891331
  0
SPLINE
  5
106
330
1F
100
AcDbEntity
  8
SK1
  6
Continuous
100
AcDbSpline
210
0.0
220
0.0
230
1.0
 70
     8
 71
     3
 72
    10
 73
     6
 74
     0
 42
0.0000000189199341
 43
0.0000000001
 12
1.0
 22
0.0
 32
0.0
 13
1.0
 23
0.0
 33
0.0
 40
0.0
 40
0.0
 40
0.0
 40
0.0
 40
0.5
 40
0.5
 40
1.0
 40
1.0
 40
1.0
 40
1.0
 10
3.554999999999997
 20
-10.15239643045887
 30
0.0
 10
3.554999999999999
 20
-10.23840100169886
 30
0.0
 10
3.516180013278664
 20
-10.32283949473524
 30
0.0
 10
3.387702860451706
 20
-10.43467260108112
 30
0.0
 10
3.29874453907206
 20
-10.46156625603427
 30
0.0
 10
3.21324806971196
 20
-10.44954772576863
 30
0.0
  0
SPLINE
  5
107
330
1F
100
AcDbEntity
  8
SK1
  6
Continuous
100
AcDbSpline
210
0.0
220
0.0
230
1.0
 70
     8
 71
     3
 72
    10
 73
     6
 74
     0
 42
0.0000000228017233
 43
0.0000000001
 12
1.0
 22
0.0
 32
0.0
 13
1.0
 23
0.0
 33
0.0
 40
0.0
 40
0.0
 40
0.0
 40
0.0
 40
0.5
 40
0.5
 40
1.0
 40
1.0
 40
1.0
 40
1.0
 10
-20.08675193028803
 20
-7.173840772835995
 30
0.0
 10
-20.15829059404396
 20
-7.163781725435622
 30
0.0
 10
-20.22437678182172
 20
-7.127688501187054
 30
0.0
 10
-20.3185361608432
 20
-7.019267239689341
 30
0.0
 10
-20.345
 20
-6.948096461367915
 30
0.0
 10
-20.345
 20
-6.87660795694504
 30
0.0
  0
LINE
  5
108
330
1F
100
AcDbEntity
  8
SK3
100
AcDbLine
 10
-19.345
 20
-4.4943713802
 30
0.0
 11
-5.145
 21
-4.4943713802
 31
0.0
  0
ARC
  5
109
330
1F
100
AcDbEntity
  8
SK3
100
AcDbCircle
 10
-5.1450996083
 20
-3.6948448055
 30
0.0
 40
0.7995265808958244
100
AcDbArc
 50
270.0071381428
 51
320.0294422988
  0
ARC
  5
10A
330
1F
100
AcDbEntity
  8
SK3
100
AcDbCircle
 10
-5.1765085197
 20
-3.6657570342
 30
0.0
 40
0.8422860366500996
100
AcDbArc
 50
319.8855549105
 51
336.6199558524
  0
SPLINE
  5
10B
330
1F
100
AcDbEntity
  8
SK1
  6
Continuous
100
AcDbSpline
210
0.0
220
0.0
230
1.0
 70
     8
 71
     3
 72
    20
 73
    16
 74
     0
 42
0.0000000391150303
 43
0.0000000001
 12
1.0
 22
0.0
 32
0.0
 13
1.0
 23
0.0
 33
0.0
 40
0.0
 40
0.0
 40
0.0
 40
0.0
 40
0.252925782780887
 40
0.252925782780887
 40
0.252925782780887
 40
0.5068364740673467
 40
0.5068364740673467
 40
0.5068364740673467
 40
0.7430283171743823
 40
0.7430283171743823
 40
0.7430283171743823
 40
0.9480718516566997
 40
0.9480718516566997
 40
0.9480718516566997
 40
1.0
 40
1.0
 40
1.0
 40
1.0
 10
8.932412094596893
 20
-9.159167125798772
 30
0.0
 10
8.959850640778024
 20
-9.143320694543792
 30
0.0
 10
8.987736023620082
 20
-9.127351693679378
 30
0.0
 10
9.013750927447488
 20
-9.11256734666378
 30
0.0
 10
9.0398210607547
 20
-9.097751612570972
 30
0.0
 10
9.064812201462168
 20
-9.083671016460805
 30
0.0
 10
9.085999169961612
 20
-9.07180301438312
 30
0.0
 10
9.105692159543688
 20
-9.060771873175632
 30
0.0
 10
9.122718633867665
 20
-9.051302176802059
 30
0.0
 10
9.134653329997297
 20
-9.044682093356109
 30
0.0
 10
9.145038571752501
 20
-9.038921480242957
 30
0.0
 10
9.151867775926279
 20
-9.035149691524673
 30
0.0
 10
9.154125612667967
 20
-9.03390221220172
 30
0.0
 10
9.154707437570096
 20
-9.033580747623887
 30
0.0
 10
9.155000000000003
 20
-9.033419146498352
 30
0.0
 10
9.155000000000003
 20
-9.033419146498352
 30
0.0
  0
LINE
  5
10C
330
1F
100
AcDbEntity
  8
SK3
100
AcDbLine
 10
-4.345
 20
1.6211812494
 30
0.0
 11
-4.345
 21
3.3259242841
 31
0.0
  0
LINE
  5
10D
330
1F
100
AcDbEntity
  8
SK1
  6
Continuous
100
AcDbLine
 10
11.155
 20
3.1664398341
 30
0.0
 11
11.155
 21
7.0565085166
 31
0.0
  0
LINE
  5
10E
330
1F
100
AcDbEntity
  8
SK1
  6
Continuous
100
AcDbLine
 10
11.0656969024
 20
3.2397582439
 30
0.0
 11
11.0656969024
 21
7.2335148159
 31
0.0
  0
LINE
  5
10F
330
1F
100
AcDbEntity
  8
SK1
  6
Continuous
100
AcDbLine
 10
11.0489418513
 20
2.8293948261
 30
0.0
 11
11.0489418513
 21
-2.8293946266
 31
0.0
  0
LINE
  5
110
330
1F
100
AcDbEntity
  8
SK1
  6
Continuous
100
AcDbLine
 10
3.2132480697
 20
4.2067418231
 30
0.0
 11
3.2132480697
 21
7.2298472018
 31
0.0
  0
LINE
  5
111
330
1F
100
AcDbEntity
  8
SK1
  6
Continuous
100
AcDbLine
 10
3.555
 20
3.6772811559
 30
0.0
 11
3.555
 21
0.2250000998
 31
0.0
  0
LINE
  5
112
330
1F
100
AcDbEntity
  8
SK1
  6
Continuous
100
AcDbLine
 10
3.755
 20
3.5361052591
 30
0.0
 11
3.755
 21
5.9906724112
 31
0.0
  0
LINE
  5
113
330
1F
100
AcDbEntity
  8
SK1
  6
Continuous
100
AcDbLine
 10
6.155
 20
3.5361052591
 30
0.0
 11
6.155
 21
5.9906724112
 31
0.0
  0
LINE
  5
114
330
1F
100
AcDbEntity
  8
SK1
  6
Continuous
100
AcDbLine
 10
6.355
 20
4.114841682
 30
0.0
 11
6.355
 21
7.060037883
 31
0.0
  0
LINE
  5
115
330
1F
100
AcDbEntity
  8
SK1
  6
Continuous
100
AcDbLine
 10
6.6344228634
 20
4.1765927927
 30
0.0
 11
6.6344228634
 21
7.1741390576
 31
0.0
  0
LINE
  5
116
330
1F
100
AcDbEntity
  8
SK1
  6
Continuous
100
AcDbLine
 10
6.8028268921
 20
4.1822323624
 30
0.0
 11
6.8028268921
 21
7.1845596234
 31
0.0
  0
LINE
  5
117
330
1F
100
AcDbEntity
  8
SK1
  6
Continuous
100
AcDbLine
 10
6.8192693824
 20
4.1799416261
 30
0.0
 11
6.8192693824
 21
7.1803268949
 31
0.0
  0
LINE
  5
118
330
1F
100
AcDbEntity
  8
SK1
  6
Continuous
100
AcDbLine
 10
3.2132480697
 20
3.7909960335
 30
0.0
 11
-19.3958600677
 21
2.5746132754
 31
0.0
  0
SPLINE
  5
119
330
1F
100
AcDbEntity
  8
SK1
  6
Continuous
100
AcDbSpline
210
0.0
220
0.0
230
1.0
 70
     8
 71
     3
 72
     8
 73
     4
 74
     0
 42
0.0000000770384522
 43
0.0000000001
 12
1.0
 22
0.0
 32
0.0
 13
1.0
 23
0.0
 33
0.0
 40
0.0
 40
0.0
 40
0.0
 40
0.0
 40
1.0
 40
1.0
 40
1.0
 40
1.0
 10
11.15499999999999
 20
2.750694044459761
 30
0.0
 10
11.155
 20
2.7783918069247
 30
0.0
 10
11.12190322240586
 20
2.805956792633334
 30
0.0
 10
11.06569690242162
 20
2.824012454241978
 30
0.0
  0
LINE
  5
11A
330
1F
100
AcDbEntity
  8
SK1
  6
Continuous
100
AcDbLine
 10
11.0656969024
 20
2.8240124542
 30
0.0
 11
11.0489418513
 21
2.8293948261
 31
0.0
  0
LINE
  5
11B
330
1F
100
AcDbEntity
  8
SK1
  6
Continuous
100
AcDbLine
 10
11.0489418513
 20
2.8293948261
 30
0.0
 11
6.8192693824
 21
3.7641958365
 31
0.0
  0
LINE
  5
11C
330
1F
100
AcDbEntity
  8
SK1
  6
Continuous
100
AcDbLine
 10
6.8192693824
 20
3.7641958365
 30
0.0
 11
6.8028268921
 21
3.7664865727
 31
0.0
  0
ARC
  5
11D
330
1F
100
AcDbEntity
  8
SK1
  6
Continuous
100
AcDbCircle
 10
6.7350083147
 20
3.2744385353
 30
0.0
 40
0.4966997388224407
100
AcDbArc
 50
82.1524136707
 51
101.6836326499
  0
LINE
  5
11E
330
1F
100
AcDbEntity
  8
SK1
  6
Continuous
100
AcDbLine
 10
6.6344228634
 20
3.7608470031
 30
0.0
 11
6.355
 21
3.6990958924
 31
0.0
  0
SPLINE
  5
11F
330
1F
100
AcDbEntity
  8
SK1
  6
Continuous
100
AcDbSpline
210
0.0
220
0.0
230
1.0
 70
     8
 71
     3
 72
    10
 73
     6
 74
     0
 42
0.0000000427827845
 43
0.0000000001
 12
1.0
 22
0.0
 32
0.0
 13
1.0
 23
0.0
 33
0.0
 40
0.0
 40
0.0
 40
0.0
 40
0.0
 40
0.5
 40
0.5
 40
1.0
 40
1.0
 40
1.0
 40
1.0
 10
6.355
 20
3.196921188665341
 30
0.0
 10
6.355000000000007
 20
3.176960962441775
 30
0.0
 10
6.333791569683346
 20
3.157102959030512
 30
0.0
 10
6.259182449782863
 20
3.128515322454613
 30
0.0
 10
6.20783017210124
 20
3.120359469445614
 30
0.0
 10
6.155000000000001
 20
3.120359469445921
 30
0.0
  0
LINE
  5
120
330
1F
100
AcDbEntity
  8
SK1
  6
Continuous
100
AcDbLine
 10
6.155
 20
3.1203594694
 30
0.0
 11
3.755
 21
3.1203594694
 31
0.0
  0
SPLINE
  5
121
330
1F
100
AcDbEntity
  8
SK1
  6
Continuous
100
AcDbSpline
210
0.0
220
0.0
230
1.0
 70
     8
 71
     3
 72
    10
 73
     6
 74
     0
 42
0.0000000427892234
 43
0.0000000001
 12
1.0
 22
0.0
 32
0.0
 13
1.0
 23
0.0
 33
0.0
 40
0.0
 40
0.0
 40
0.0
 40
0.0
 40
0.5
 40
0.5
 40
1.0
 40
1.0
 40
1.0
 40
1.0
 10
3.754999999999995
 20
3.12035946944592
 30
0.0
 10
3.702130001843929
 20
3.120359469445922
 30
0.0
 10
3.650414969680622
 20
3.128670546788709
 30
0.0
 10
3.57662070313575
 20
3.156944021075971
 30
0.0
 10
3.554999999999886
 20
3.176943588396575
 30
0.0
 10
3.554999999997605
 20
3.196921188665447
 30
0.0
  0
SPLINE
  5
122
330
1F
100
AcDbEntity
  8
SK3
100
AcDbSpline
210
0.0
220
0.0
230
1.0
 70
     8
 71
     3
 72
    23
 73
    19
 74
     0
 42
0.0000000109102366
 43
0.0000000001
 12
1.0
 22
0.0
 32
0.0
 13
1.0
 23
0.0
 33
0.0
 40
0.0
 40
0.0
 40
0.0
 40
0.0
 40
0.0361644349980187
 40
0.0361644349980187
 40
0.0361644349980187
 40
0.2517654332087496
 40
0.2517654332087496
 40
0.2517654332087496
 40
0.4671740662666043
 40
0.4671740662666043
 40
0.4671740662666043
 40
0.6822649503042595
 40
0.6822649503042595
 40
0.6822649503042595
 40
0.8970460983029348
 40
0.8970460983029348
 40
0.8970460983029348
 40
1.0
 40
1.0
 40
1.0
 40
1.0
 10
-4.345000000000002
 20
1.205435459787879
 30
0.0
 10
-4.344999999999994
 20
1.211262709961571
 30
0.0
 10
-4.345433501613183
 20
1.21709231698536
 30
0.0
 10
-4.3462995184755
 20
1.222910135459348
 30
0.0
 10
-4.351411643996876
 20
1.25725290589922
 30
0.0
 10
-4.372094080024336
 20
1.291732914134847
 30
0.0
 10
-4.40664965672747
 20
1.323487960510871
 30
0.0
 10
-4.441174305026425
 20
1.355214585051618
 30
0.0
 10
-4.49050321150455
 20
1.385097699413078
 30
0.0
 10
-4.550558161807966
 20
1.410650821076686
 30
0.0
 10
-4.610525417284003
 20
1.436166628970456
 30
0.0
 10
-4.682845532621893
 20
1.458069973976786
 30
0.0
 10
-4.761523779786111
 20
1.47453646762037
 30
0.0
 10
-4.8400904825272
 20
1.490979616240385
 30
0.0
 10
-4.927167444674821
 20
1.502455364838883
 30
0.0
 10
-5.015532842657919
 20
1.508008018258418
 30
0.0
 10
-5.058259670609109
 20
1.510692861791568
 30
0.0
 10
-5.101700995888501
 20
1.512048709235732
 30
0.0
 10
-5.144999999999997
 20
1.512048709235736
 30
0.0
  0
LINE
  5
123
330
1F
100
AcDbEntity
  8
SK3
100
AcDbLine
 10
-5.145
 20
1.5120487092
 30
0.0
 11
-13.711185599
 21
1.5120487092
 31
0.0
  0
SPLINE
  5
124
330
1F
100
AcDbEntity
  8
SK1
  6
Continuous
100
AcDbSpline
210
0.0
220
0.0
230
1.0
 70
     8
 71
     3
 72
    10
 73
     6
 74
     0
 42
0.0000000253802162
 43
0.0000000001
 12
1.0
 22
0.0
 32
0.0
 13
1.0
 23
0.0
 33
0.0
 40
0.0
 40
0.0
 40
0.0
 40
0.0
 40
0.5
 40
0.5
 40
1.0
 40
1.0
 40
1.0
 40
1.0
 10
3.21324806971196
 20
4.206741823126301
 30
0.0
 10
3.298739794654667
 20
4.21134086031385
 30
0.0
 10
3.387556264033927
 20
4.201070836542252
 30
0.0
 10
3.51604017694122
 20
4.158326557085473
 30
0.0
 10
3.554999999999997
 20
4.125940966985581
 30
0.0
 10
3.554999999999997
 20
4.093026945505429
 30
0.0
  0
SPLINE
  5
125
330
1F
100
AcDbEntity
  8
SK3
100
AcDbSpline
210
0.0
220
0.0
230
1.0
 70
     8
 71
     3
 72
    23
 73
    19
 74
     0
 42
0.0000000109102366
 43
0.0000000001
 12
1.0
 22
0.0
 32
0.0
 13
1.0
 23
0.0
 33
0.0
 40
0.0
 40
0.0
 40
0.0
 40
0.0
 40
0.0361644349980182
 40
0.0361644349980182
 40
0.0361644349980182
 40
0.2517654332087497
 40
0.2517654332087497
 40
0.2517654332087497
 40
0.4671740662666053
 40
0.4671740662666053
 40
0.4671740662666053
 40
0.682264950304261
 40
0.682264950304261
 40
0.682264950304261
 40
0.8970460983029367
 40
0.8970460983029367
 40
0.8970460983029367
 40
1.0
 40
1.0
 40
1.0
 40
1.0
 10
-4.345000000000002
 20
1.62118124941796
 30
0.0
 10
-4.344999999999994
 20
1.627008499591649
 30
0.0
 10
-4.345433501613183
 20
1.632838106615437
 30
0.0
 10
-4.3462995184755
 20
1.638655925089426
 30
0.0
 10
-4.351411643996876
 20
1.672998695529298
 30
0.0
 10
-4.372094080024336
 20
1.707478703764925
 30
0.0
 10
-4.40664965672747
 20
1.73923375014095
 30
0.0
 10
-4.441174305026425
 20
1.770960374681695
 30
0.0
 10
-4.49050321150455
 20
1.800843489043159
 30
0.0
 10
-4.550558161807966
 20
1.826396610706767
 30
0.0
 10
-4.610525417284003
 20
1.851912418600537
 30
0.0
 10
-4.682845532621893
 20
1.873815763606864
 30
0.0
 10
-4.761523779786111
 20
1.890282257250449
 30
0.0
 10
-4.8400904825272
 20
1.906725405870463
 30
0.0
 10
-4.927167444674821
 20
1.918201154468961
 30
0.0
 10
-5.015532842657919
 20
1.923753807888497
 30
0.0
 10
-5.058259670609109
 20
1.926438651421646
 30
0.0
 10
-5.101700995888501
 20
1.92779449886581
 30
0.0
 10
-5.144999999999997
 20
1.927794498865814
 30
0.0
  0
LINE
  5
126
330
1F
100
AcDbEntity
  8
SK3
100
AcDbLine
 10
-5.145
 20
1.9277944989
 30
0.0
 11
-13.711185599
 21
1.9277944989
 31
0.0
  0
SPLINE
  5
127
330
1F
100
AcDbEntity
  8
SK1
  6
Continuous
100
AcDbSpline
210
0.0
220
0.0
230
1.0
 70
     8
 71
     3
 72
    10
 73
     6
 74
     0
 42
0.0000000253802162
 43
0.0000000001
 12
1.0
 22
0.0
 32
0.0
 13
1.0
 23
0.0
 33
0.0
 40
0.0
 40
0.0
 40
0.0
 40
0.0
 40
0.5
 40
0.5
 40
1.0
 40
1.0
 40
1.0
 40
1.0
 10
3.21324806971196
 20
3.790996033496223
 30
0.0
 10
3.298739794654667
 20
3.795595070683776
 30
0.0
 10
3.387556264033925
 20
3.785325046912178
 30
0.0
 10
3.51604017694122
 20
3.7425807674554
 30
0.0
 10
3.554999999999996
 20
3.710195177355503
 30
0.0
 10
3.554999999999997
 20
3.677281155875354
 30
0.0
  0
LINE
  5
128
330
1F
100
AcDbEntity
  8
SK1
  6
Continuous
100
AcDbLine
 10
3.2132480697
 20
4.2067418231
 30
0.0
 11
-19.3958600677
 21
2.9903590651
 31
0.0
  0
SPLINE
  5
129
330
1F
100
AcDbEntity
  8
SK1
  6
Continuous
100
AcDbSpline
210
0.0
220
0.0
230
1.0
 70
     8
 71
     3
 72
     8
 73
     4
 74
     0
 42
0.0000000770384522
 43
0.0000000001
 12
1.0
 22
0.0
 32
0.0
 13
1.0
 23
0.0
 33
0.0
 40
0.0
 40
0.0
 40
0.0
 40
0.0
 40
1.0
 40
1.0
 40
1.0
 40
1.0
 10
11.15499999999999
 20
3.16643983408984
 30
0.0
 10
11.155
 20
3.194137596554814
 30
0.0
 10
11.12190322240567
 20
3.221702582263478
 30
0.0
 10
11.06569690242162
 20
3.239758243872057
 30
0.0
  0
LINE
  5
12A
330
1F
100
AcDbEntity
  8
SK1
  6
Continuous
100
AcDbLine
 10
11.0656969024
 20
3.2397582439
 30
0.0
 11
11.0489418513
 21
3.2451406158
 31
0.0
  0
LINE
  5
12B
330
1F
100
AcDbEntity
  8
SK1
  6
Continuous
100
AcDbLine
 10
11.0489418513
 20
3.2451406158
 30
0.0
 11
6.8192693824
 21
4.1799416261
 31
0.0
  0
LINE
  5
12C
330
1F
100
AcDbEntity
  8
SK1
  6
Continuous
100
AcDbLine
 10
6.8192693824
 20
4.1799416261
 30
0.0
 11
6.8028268921
 21
4.1822323624
 31
0.0
  0
ARC
  5
12D
330
1F
100
AcDbEntity
  8
SK1
  6
Continuous
100
AcDbCircle
 10
6.7350083147
 20
3.690184325
 30
0.0
 40
0.4966997388226967
100
AcDbArc
 50
82.1524136707
 51
101.6836326499
  0
LINE
  5
12E
330
1F
100
AcDbEntity
  8
SK1
  6
Continuous
100
AcDbLine
 10
6.6344228634
 20
4.1765927927
 30
0.0
 11
6.355
 21
4.114841682
 31
0.0
  0
LINE
  5
12F
330
1F
100
AcDbEntity
  8
SK1
  6
Continuous
100
AcDbLine
 10
6.355
 20
4.114841682
 30
0.0
 11
6.355
 21
3.6990958924
 31
0.0
  0
SPLINE
  5
130
330
1F
100
AcDbEntity
  8
SK1
  6
Continuous
100
AcDbSpline
210
0.0
220
0.0
230
1.0
 70
     8
 71
     3
 72
    10
 73
     6
 74
     0
 42
0.0000000427827845
 43
0.0000000001
 12
1.0
 22
0.0
 32
0.0
 13
1.0
 23
0.0
 33
0.0
 40
0.0
 40
0.0
 40
0.0
 40
0.0
 40
0.5
 40
0.5
 40
1.0
 40
1.0
 40
1.0
 40
1.0
 10
6.355
 20
3.612666978295419
 30
0.0
 10
6.355000000000007
 20
3.592706752071854
 30
0.0
 10
6.333791569683346
 20
3.57284874866059
 30
0.0
 10
6.259182449782863
 20
3.544261112084694
 30
0.0
 10
6.20783017210124
 20
3.536105259075693
 30
0.0
 10
6.155000000000001
 20
3.536105259075997
 30
0.0
  0
LINE
  5
131
330
1F
100
AcDbEntity
  8
SK1
  6
Continuous
100
AcDbLine
 10
6.155
 20
3.5361052591
 30
0.0
 11
3.755
 21
3.5361052591
 31
0.0
  0
SPLINE
  5
132
330
1F
100
AcDbEntity
  8
SK1
  6
Continuous
100
AcDbSpline
210
0.0
220
0.0
230
1.0
 70
     8
 71
     3
 72
    10
 73
     6
 74
     0
 42
0.0000000427892234
 43
0.0000000001
 12
1.0
 22
0.0
 32
0.0
 13
1.0
 23
0.0
 33
0.0
 40
0.0
 40
0.0
 40
0.0
 40
0.0
 40
0.5
 40
0.5
 40
1.0
 40
1.0
 40
1.0
 40
1.0
 10
3.754999999999995
 20
3.536105259075998
 30
0.0
 10
3.702130001843929
 20
3.536105259075999
 30
0.0
 10
3.650414969680622
 20
3.544416336418787
 30
0.0
 10
3.57662070313575
 20
3.57268981070605
 30
0.0
 10
3.554999999999888
 20
3.592689378026654
 30
0.0
 10
3.554999999997605
 20
3.612666978295526
 30
0.0
  0
LINE
  5
133
330
1F
100
AcDbEntity
  8
SK1
  6
Continuous
100
AcDbLine
 10
3.555
 20
3.6772811559
 30
0.0
 11
3.555
 21
4.0930269455
 31
0.0
  0
ARC
  5
134
330
1F
100
AcDbEntity
  8
SK3
100
AcDbCircle
 10
10.7624477989
 20
1.1397541175
 30
0.0
 40
0.3927271953335325
100
AcDbArc
 50
268.913360138
 51
358.2895117024
  0
ARC
  5
135
330
1F
100
AcDbEntity
  8
SK3
100
AcDbCircle
 10
10.7624477989
 20
0.9675465729
 30
0.0
 40
0.3927271953335319
100
AcDbArc
 50
268.913360138
 51
358.2895117024
  0
LINE
  5
136
330
1F
100
AcDbEntity
  8
SK3
100
AcDbLine
 10
-4.345
 20
3.7000000998
 30
0.0
 11
-4.345
 21
3.4981318287
 31
0.0
  0
LINE
  5
137
330
1F
100
AcDbEntity
  8
SK1
  6
Continuous
100
AcDbLine
 10
11.155
 20
7.7343812404
 30
0.0
 11
11.155
 21
7.2287160612
 31
0.0
  0
LINE
  5
138
330
1F
100
AcDbEntity
  8
SK1
  6
Continuous
100
AcDbLine
 10
3.2132480697
 20
9.7402272321
 30
0.0
 11
3.2132480697
 21
10.4495479253
 31
0.0
  0
LINE
  5
139
330
1F
100
AcDbEntity
  8
SK1
  6
Continuous
100
AcDbLine
 10
3.555
 20
9.2934876877
 30
0.0
 11
3.555
 21
7.3379275574
 31
0.0
  0
LINE
  5
13A
330
1F
100
AcDbEntity
  8
SK1
  6
Continuous
100
AcDbLine
 10
3.755
 20
8.1211673437
 30
0.0
 11
3.755
 21
8.6970901303
 31
0.0
  0
LINE
  5
13B
330
1F
100
AcDbEntity
  8
SK1
  6
Continuous
100
AcDbLine
 10
6.155
 20
8.1211673437
 30
0.0
 11
6.155
 21
8.6970901303
 31
0.0
  0
LINE
  5
13C
330
1F
100
AcDbEntity
  8
SK1
  6
Continuous
100
AcDbLine
 10
6.355
 20
9.518360665
 30
0.0
 11
6.355
 21
10.2094012836
 31
0.0
  0
LINE
  5
13D
330
1F
100
AcDbEntity
  8
SK1
  6
Continuous
100
AcDbLine
 10
6.6344228634
 20
9.667441034
 30
0.0
 11
6.6344228634
 21
10.3707647122
 31
0.0
  0
LINE
  5
13E
330
1F
100
AcDbEntity
  8
SK1
  6
Continuous
100
AcDbLine
 10
6.8028268921
 20
9.6810561595
 30
0.0
 11
6.8028268921
 21
10.3855016178
 31
0.0
  0
LINE
  5
13F
330
1F
100
AcDbEntity
  8
SK1
  6
Continuous
100
AcDbLine
 10
6.8192693824
 20
9.675525833
 30
0.0
 11
6.8192693824
 21
10.3795156357
 31
0.0
  0
LINE
  5
140
330
1F
100
AcDbEntity
  8
SK1
  6
Continuous
100
AcDbLine
 10
11.0656969024
 20
7.4057223604
 30
0.0
 11
11.0656969024
 21
7.9258923512
 31
0.0
  0
LINE
  5
141
330
1F
100
AcDbEntity
  8
SK1
  6
Continuous
100
AcDbLine
 10
11.0489418513
 20
7.2465090111
 30
0.0
 11
11.0489418513
 21
3.2451406158
 31
0.0
  0
SPLINE
  5
142
330
1F
100
AcDbEntity
  8
SK1
  6
Continuous
100
AcDbSpline
210
0.0
220
0.0
230
1.0
 70
     8
 71
     3
 72
    14
 73
    10
 74
     0
 42
0.0000000004364105
 43
0.0000000001
 12
1.0
 22
0.0
 32
0.0
 13
1.0
 23
0.0
 33
0.0
 40
0.0
 40
0.0
 40
0.0
 40
0.0
 40
0.3092011514768732
 40
0.3092011514768732
 40
0.3092011514768732
 40
0.8911408549746144
 40
0.8911408549746144
 40
0.8911408549746144
 40
1.0
 40
1.0
 40
1.0
 40
1.0
 10
3.213248069711768
 20
9.568019687502904
 30
0.0
 10
0.8712165115480064
 20
9.263853265158723
 30
0.0
 10
-1.470814063528551
 20
8.959680381623487
 30
0.0
 10
-3.812843311668368
 20
8.6554987776776
 30
0.0
 10
-8.220717602371321
 20
8.083006238225838
 30
0.0
 10
-12.62858743447427
 20
7.510484394629583
 30
0.0
 10
-17.03644847633328
 20
6.937904792028898
 30
0.0
 10
-17.86099435549194
 20
6.830796571662771
 30
0.0
 10
-18.68553991544706
 20
6.723686253824821
 30
0.0
 10
-19.51008510795596
 20
6.616573521670942
 30
0.0
  0
ARC
  5
143
330
1F
100
AcDbEntity
  8
SK1
  6
Continuous
100
AcDbCircle
 10
10.9305749901
 20
7.0543124821
 30
0.0
 40
0.2244357539249918
100
AcDbArc
 50
0.5606304545
 51
52.9830231615
  0
LINE
  5
144
330
1F
100
AcDbEntity
  8
SK1
  6
Continuous
100
AcDbLine
 10
11.0656969024
 20
7.2335148159
 30
0.0
 11
11.0489418513
 21
7.2465090111
 31
0.0
  0
LINE
  5
145
330
1F
100
AcDbEntity
  8
SK1
  6
Continuous
100
AcDbLine
 10
11.0489418513
 20
7.2465090111
 30
0.0
 11
6.8192693824
 21
9.5033182885
 31
0.0
  0
LINE
  5
146
330
1F
100
AcDbEntity
  8
SK1
  6
Continuous
100
AcDbLine
 10
6.8192693824
 20
9.5033182885
 30
0.0
 11
6.8028268921
 21
9.5088486149
 31
0.0
  0
ARC
  5
147
330
1F
100
AcDbEntity
  8
SK1
  6
Continuous
100
AcDbCircle
 10
6.7345228764
 20
9.3054004096
 30
0.0
 40
0.2146080399309629
100
AcDbArc
 50
71.4414646481
 51
117.8029246814
  0
LINE
  5
148
330
1F
100
AcDbEntity
  8
SK1
  6
Continuous
100
AcDbLine
 10
6.6344228634
 20
9.4952334894
 30
0.0
 11
6.355
 21
9.3461531204
 31
0.0
  0
ARC
  5
149
330
1F
100
AcDbEntity
  8
SK1
  6
Continuous
100
AcDbCircle
 10
6.1622969131
 20
8.1416862601
 30
0.0
 40
0.1928645474825976
100
AcDbArc
 50
267.8317314402
 51
357.6553660169
  0
LINE
  5
14A
330
1F
100
AcDbEntity
  8
SK1
  6
Continuous
100
AcDbLine
 10
6.155
 20
7.9489597991
 30
0.0
 11
3.755
 21
7.9489597991
 31
0.0
  0
ARC
  5
14B
330
1F
100
AcDbEntity
  8
SK1
  6
Continuous
100
AcDbCircle
 10
3.7476943078
 20
8.1416767608
 30
0.0
 40
0.1928553873729829
100
AcDbArc
 50
182.3419208884
 51
272.1709816548
  0
ARC
  5
14C
330
1F
100
AcDbEntity
  8
SK1
  6
Continuous
100
AcDbCircle
 10
3.2624222443
 20
9.4514604168
 30
0.0
 40
0.2929238349364281
100
AcDbArc
 50
2.7854210016
 51
99.6642078132
  0
LINE
  5
14D
330
1F
100
AcDbEntity
  8
SK3
100
AcDbLine
 10
10.755
 20
0.7470975496
 30
0.0
 11
-2.7837505004
 21
0.7470975496
 31
0.0
  0
ARC
  5
14E
330
1F
100
AcDbEntity
  8
SK3
100
AcDbCircle
 10
-2.7784182938
 20
5.9966839009
 30
0.0
 40
5.249589059370034
100
AcDbArc
 50
252.6372782037
 51
269.9418024947
  0
LINE
  5
14F
330
1F
100
AcDbEntity
  8
SK3
100
AcDbLine
 10
-4.345
 20
3.3259242841
 30
0.0
 11
-4.345
 21
3.4981318287
 31
0.0
  0
ARC
  5
150
330
1F
100
AcDbEntity
  8
SK3
100
AcDbCircle
 10
-5.115716227
 20
3.4675969152
 30
0.0
 40
0.7713208693700817
100
AcDbArc
 50
2.2688080137
 51
92.1757999821
  0
LINE
  5
151
330
1F
100
AcDbEntity
  8
SK3
100
AcDbLine
 10
-5.145
 20
4.2383616939
 30
0.0
 11
-15.3857095391
 21
4.2383616939
 31
0.0
  0
ARC
  5
152
330
1F
100
AcDbEntity
  8
SK1
  6
Continuous
100
AcDbCircle
 10
3.2624222443
 20
9.2792528722
 30
0.0
 40
0.2929238349364282
100
AcDbArc
 50
2.7854210016
 51
99.6642078132
  0
LINE
  5
153
330
1F
100
AcDbEntity
  8
SK3
100
AcDbLine
 10
10.755
 20
0.5748900051
 30
0.0
 11
-2.7837505004
 21
0.5748900051
 31
0.0
  0
ARC
  5
154
330
1F
100
AcDbEntity
  8
SK3
100
AcDbCircle
 10
-2.7784182938
 20
5.8244763564
 30
0.0
 40
5.249589059370027
100
AcDbArc
 50
252.6372782037
 51
269.9418024947
  0
ARC
  5
155
330
1F
100
AcDbEntity
  8
SK3
100
AcDbCircle
 10
-5.115716227
 20
3.2953893706
 30
0.0
 40
0.7713208693700805
100
AcDbArc
 50
2.2688080137
 51
92.1757999821
  0
LINE
  5
156
330
1F
100
AcDbEntity
  8
SK3
100
AcDbLine
 10
-5.145
 20
4.0661541493
 30
0.0
 11
-15.3857095391
 21
4.0661541493
 31
0.0
  0
SPLINE
  5
157
330
1F
100
AcDbEntity
  8
SK1
  6
Continuous
100
AcDbSpline
210
0.0
220
0.0
230
1.0
 70
     8
 71
     3
 72
    14
 73
    10
 74
     0
 42
0.0000000004364105
 43
0.0000000001
 12
1.0
 22
0.0
 32
0.0
 13
1.0
 23
0.0
 33
0.0
 40
0.0
 40
0.0
 40
0.0
 40
0.0
 40
0.3092011514767938
 40
0.3092011514767938
 40
0.3092011514767938
 40
0.8911408549743853
 40
0.8911408549743853
 40
0.8911408549743853
 40
1.0
 40
1.0
 40
1.0
 40
1.0
 10
3.213248069711768
 20
9.740227232067197
 30
0.0
 10
0.8712165115480064
 20
9.436060809723013
 30
0.0
 10
-1.470814063528551
 20
9.13188792618778
 30
0.0
 10
-3.812843311668368
 20
8.827706322241891
 30
0.0
 10
-8.220717602371321
 20
8.255213782790129
 30
0.0
 10
-12.62858743447427
 20
7.682691939193873
 30
0.0
 10
-17.03644847633328
 20
7.110112336593188
 30
0.0
 10
-17.86099435549389
 20
7.003004116226808
 30
0.0
 10
-18.68553991545096
 20
6.895893798388607
 30
0.0
 10
-19.5100851079618
 20
6.788781066234471
 30
0.0
  0
LINE
  5
158
330
1F
100
AcDbEntity
  8
SK1
  6
Continuous
100
AcDbLine
 10
11.155
 20
7.0565085166
 30
0.0
 11
11.155
 21
7.2287160612
 31
0.0
  0
ARC
  5
159
330
1F
100
AcDbEntity
  8
SK1
  6
Continuous
100
AcDbCircle
 10
10.9305749901
 20
7.2265200266
 30
0.0
 40
0.2244357539249906
100
AcDbArc
 50
0.5606304545
 51
52.9830231615
  0
LINE
  5
15A
330
1F
100
AcDbEntity
  8
SK1
  6
Continuous
100
AcDbLine
 10
11.0656969024
 20
7.4057223604
 30
0.0
 11
11.0489418513
 21
7.4187165557
 31
0.0
  0
LINE
  5
15B
330
1F
100
AcDbEntity
  8
SK1
  6
Continuous
100
AcDbLine
 10
11.0489418513
 20
7.4187165557
 30
0.0
 11
6.8192693824
 21
9.675525833
 31
0.0
  0
LINE
  5
15C
330
1F
100
AcDbEntity
  8
SK1
  6
Continuous
100
AcDbLine
 10
6.8192693824
 20
9.675525833
 30
0.0
 11
6.8028268921
 21
9.6810561595
 31
0.0
  0
ARC
  5
15D
330
1F
100
AcDbEntity
  8
SK1
  6
Continuous
100
AcDbCircle
 10
6.7345228764
 20
9.4776079542
 30
0.0
 40
0.214608039930964
100
AcDbArc
 50
71.4414646482
 51
117.8029246814
  0
LINE
  5
15E
330
1F
100
AcDbEntity
  8
SK1
  6
Continuous
100
AcDbLine
 10
6.6344228634
 20
9.667441034
 30
0.0
 11
6.355
 21
9.518360665
 31
0.0
  0
LINE
  5
15F
330
1F
100
AcDbEntity
  8
SK1
  6
Continuous
100
AcDbLine
 10
6.355
 20
9.518360665
 30
0.0
 11
6.355
 21
9.3461531204
 31
0.0
  0
ARC
  5
160
330
1F
100
AcDbEntity
  8
SK1
  6
Continuous
100
AcDbCircle
 10
6.1622969131
 20
8.3138938046
 30
0.0
 40
0.1928645474825976
100
AcDbArc
 50
267.8317314402
 51
357.6553660169
  0
LINE
  5
161
330
1F
100
AcDbEntity
  8
SK1
  6
Continuous
100
AcDbLine
 10
6.155
 20
8.1211673437
 30
0.0
 11
3.755
 21
8.1211673437
 31
0.0
  0
ARC
  5
162
330
1F
100
AcDbEntity
  8
SK1
  6
Continuous
100
AcDbCircle
 10
3.7476943078
 20
8.3138843053
 30
0.0
 40
0.1928553873729844
100
AcDbArc
 50
182.3419208884
 51
272.1709816548
  0
LINE
  5
163
330
1F
100
AcDbEntity
  8
SK1
  6
Continuous
100
AcDbLine
 10
3.555
 20
9.2934876877
 30
0.0
 11
3.555
 21
9.4656952323
 31
0.0
  0
LINE
  5
164
330
1F
100
AcDbEntity
  8
SK3
100
AcDbLine
 10
-4.345
 20
1.2054354598
 30
0.0
 11
-4.345
 21
1.6211812494
 31
0.0
  0
LINE
  5
165
330
1F
100
AcDbEntity
  8
SK1
  6
Continuous
100
AcDbLine
 10
11.155
 20
2.7506940445
 30
0.0
 11
11.155
 21
3.1664398341
 31
0.0
  0
ELLIPSE
  5
166
330
1F
100
AcDbEntity
  8
SK1
  6
Continuous
100
AcDbEllipse
 10
1.8456755095
 20
32.1447236495
 30
0.0
 11
-34.77499999942204
 21
2.607193353320683E-9
 31
0.0
210
0.0
220
0.0
230
1.0
 40
0.9238795325
 41
0.9095354403774626
 42
0.9171152753944913
  0
SPLINE
  5
167
330
1F
100
AcDbEntity
  8
SK3
100
AcDbSpline
210
0.0
220
0.0
230
1.0
 70
     8
 71
     3
 72
    38
 73
    34
 74
     0
 42
0.0000000103949782
 43
0.0000000001
 12
1.0
 22
0.0
 32
0.0
 13
1.0
 23
0.0
 33
0.0
 40
0.0
 40
0.0
 40
0.0
 40
0.0
 40
0.2579394040394568
 40
0.2579394040394568
 40
0.2579394040394568
 40
0.3319982464578629
 40
0.3319982464578629
 40
0.3319982464578629
 40
0.4067618345092487
 40
0.4067618345092487
 40
0.4067618345092487
 40
0.448990503872287
 40
0.448990503872287
 40
0.448990503872287
 40
0.4919249167851892
 40
0.4919249167851892
 40
0.4919249167851892
 40
0.4999463829133217
 40
0.4999463829133217
 40
0.4999463829133217
 40
0.5354119851385213
 40
0.5354119851385213
 40
0.5354119851385213
 40
0.5791825605605068
 40
0.5791825605605068
 40
0.5791825605605068
 40
0.647959111185981
 40
0.647959111185981
 40
0.647959111185981
 40
0.7772686085630138
 40
0.7772686085630138
 40
0.7772686085630138
 40
1.0
 40
1.0
 40
1.0
 40
1.0
 10
-15.38570953909799
 20
4.238361693902912
 30
0.0
 10
-15.47979435001382
 20
4.238361693902912
 30
0.0
 10
-15.57601336695672
 20
4.23392402500532
 30
0.0
 10
-15.66409948624506
 20
4.22249494747351
 30
0.0
 10
-15.68978699733453
 20
4.219162021035012
 30
0.0
 10
-15.71493518668657
 20
4.215166770027029
 30
0.0
 10
-15.73858188281611
 20
4.210254530484868
 30
0.0
 10
-15.76235273743023
 20
4.205316498916031
 30
0.0
 10
-15.78505848056217
 20
4.199371848933549
 30
0.0
 10
-15.80384737807222
 20
4.192030712316718
 30
0.0
 10
-15.8145083577909
 20
4.187865289170301
 30
0.0
 10
-15.82402354140707
 20
4.183171584511533
 30
0.0
 10
-15.83118542812194
 20
4.1780026988039
 30
0.0
 10
-15.83841604453783
 20
4.172784209411731
 30
0.0
 10
-15.84332082775609
 20
4.166901473531103
 30
0.0
 10
-15.84462594181162
 20
4.16090500959686
 30
0.0
 10
-15.84487477264433
 20
4.159761733951485
 30
0.0
 10
-15.845
 20
4.158610778832545
 30
0.0
 10
-15.845
 20
4.157457996071491
 30
0.0
 10
-15.845
 20
4.15243665090741
 30
0.0
 10
-15.84251538334528
 20
4.147297210969529
 30
0.0
 10
-15.83806352394261
 20
4.142475691903011
 30
0.0
 10
-15.83257303843458
 20
4.13652930452484
 30
0.0
 10
-15.8240349984554
 20
4.130889571065251
 30
0.0
 10
-15.81397298275985
 20
4.125829675828585
 30
0.0
 10
-15.79820541951472
 20
4.117900626563313
 30
0.0
 10
-15.77837000701616
 20
4.111091871346041
 30
0.0
 10
-15.75734486676997
 20
4.105285229202602
 30
0.0
 10
-15.71797662356524
 20
4.09441265962974
 30
0.0
 10
-15.67317544908284
 20
4.086550768169804
 30
0.0
 10
-15.62777187411999
 20
4.080692852706019
 30
0.0
 10
-15.54985088654572
 20
4.070639579182113
 30
0.0
 10
-15.46719888801959
 20
4.066154149338622
 30
0.0
 10
-15.38570953909799
 20
4.066154149338622
 30
0.0
  0
SPLINE
  5
168
330
1F
100
AcDbEntity
  8
SK1
  6
Continuous
100
AcDbSpline
210
0.0
220
0.0
230
1.0
 70
     8
 71
     3
 72
    35
 73
    31
 74
     0
 42
0.000000014604595
 43
0.0000000001
 12
1.0
 22
0.0
 32
0.0
 13
1.0
 23
0.0
 33
0.0
 40
0.0
 40
0.0
 40
0.0
 40
0.0
 40
0.1687481434728156
 40
0.1687481434728156
 40
0.1687481434728156
 40
0.2901425871925771
 40
0.2901425871925771
 40
0.2901425871925771
 40
0.3790530843558693
 40
0.3790530843558693
 40
0.3790530843558693
 40
0.4497796308354287
 40
0.4497796308354287
 40
0.4497796308354287
 40
0.5000653733329737
 40
0.5000653733329737
 40
0.5000653733329737
 40
0.5704966505866151
 40
0.5704966505866151
 40
0.5704966505866151
 40
0.6403402941099201
 40
0.6403402941099201
 40
0.6403402941099201
 40
0.7394740738359676
 40
0.7394740738359676
 40
0.7394740738359676
 40
0.8767565619905968
 40
0.8767565619905968
 40
0.8767565619905968
 40
1.0
 40
1.0
 40
1.0
 40
1.0
 10
-19.51008510795596
 20
6.616573521670942
 30
0.0
 10
-19.55727132345811
 20
6.610443785540093
 30
0.0
 10
-19.60526108019455
 20
6.607441253351015
 30
0.0
 10
-19.64975155980627
 20
6.608214034362038
 30
0.0
 10
-19.68189753692288
 20
6.608772396531053
 30
0.0
 10
-19.7129947516594
 20
6.611326329973933
 30
0.0
 10
-19.7400393790034
 20
6.61627538873933
 30
0.0
 10
-19.7598938072123
 20
6.619908669786591
 30
0.0
 10
-19.77796250379843
 20
6.624934605115946
 30
0.0
 10
-19.79205842405556
 20
6.631367510852257
 30
0.0
 10
-19.80328575682854
 20
6.636491289369819
 30
0.0
 10
-19.81219135964351
 20
6.642641927083598
 30
0.0
 10
-19.81747287270181
 20
6.649492991363034
 30
0.0
 10
-19.82124968581103
 20
6.654392191478064
 30
0.0
 10
-19.82324074796387
 20
6.659729690102574
 30
0.0
 10
-19.82324074796387
 20
6.665238937835877
 30
0.0
 10
-19.82324074796387
 20
6.672891269015031
 30
0.0
 10
-19.81931919792619
 20
6.681081820033694
 30
0.0
 10
-19.81220540787413
 20
6.689008977321359
 30
0.0
 10
-19.80512544708348
 20
6.696898437421717
 30
0.0
 10
-19.79478501742677
 20
6.704740380049085
 30
0.0
 10
-19.78247401540717
 20
6.712075341918991
 30
0.0
 10
-19.76506870583474
 20
6.722445519898363
 30
0.0
 10
-19.74330731415441
 20
6.732111523043794
 30
0.0
 10
-19.71984214227574
 20
6.740667855789719
 30
0.0
 10
-19.68743811579378
 20
6.752483649610498
 30
0.0
 10
-19.65079315641263
 20
6.762603137536793
 30
0.0
 10
-19.61344117154818
 20
6.770824983287913
 30
0.0
 10
-19.57976366551417
 20
6.778238009955677
 30
0.0
 10
-19.54477655867079
 20
6.784274465381407
 30
0.0
 10
-19.5100851079618
 20
6.788781066234471
 30
0.0
  0
ELLIPSE
  5
169
330
1F
100
AcDbEntity
  8
SK1
  6
Continuous
100
AcDbEllipse
 10
-1.3546189432
 20
14.3671599921
 30
0.0
 11
-34.77500000001526
 21
-4.843382011790157E-12
 31
0.0
210
0.0
220
0.0
230
1.0
 40
0.3826834324
 41
1.025350626310178
 42
1.075830741148029
  0
SPLINE
  5
16A
330
1F
100
AcDbEntity
  8
SK3
100
AcDbSpline
210
0.0
220
0.0
230
1.0
 70
     8
 71
     3
 72
    38
 73
    34
 74
     0
 42
0.0000000070709922
 43
0.0000000001
 12
1.0
 22
0.0
 32
0.0
 13
1.0
 23
0.0
 33
0.0
 40
0.0
 40
0.0
 40
0.0
 40
0.0
 40
0.3227858640409731
 40
0.3227858640409731
 40
0.3227858640409731
 40
0.3784022162694684
 40
0.3784022162694684
 40
0.3784022162694684
 40
0.4530135742922689
 40
0.4530135742922689
 40
0.4530135742922689
 40
0.4766143533589449
 40
0.4766143533589449
 40
0.4766143533589449
 40
0.4966578940704977
 40
0.4966578940704977
 40
0.4966578940704977
 40
0.5011392670099478
 40
0.5011392670099478
 40
0.5011392670099478
 40
0.5220781185843957
 40
0.5220781185843957
 40
0.5220781185843957
 40
0.5482141331188016
 40
0.5482141331188016
 40
0.5482141331188016
 40
0.5927779492058403
 40
0.5927779492058403
 40
0.5927779492058403
 40
0.7148331951614334
 40
0.7148331951614334
 40
0.7148331951614334
 40
1.0
 40
1.0
 40
1.0
 40
1.0
 10
-13.71118559898555
 20
1.927794498865811
 30
0.0
 10
-13.86282212824746
 20
1.927794498865808
 30
0.0
 10
-14.01842970142117
 20
1.91387788013037
 30
0.0
 10
-14.16118559898555
 20
1.867356956900347
 30
0.0
 10
-14.18621875893371
 20
1.859199215384778
 30
0.0
 10
-14.21087424972537
 20
1.849831986934654
 30
0.0
 10
-14.23446970039942
 20
1.838642108679588
 30
0.0
 10
-14.26578589524635
 20
1.823790753959137
 30
0.0
 10
-14.29670462620912
 20
1.80550557316058
 30
0.0
 10
-14.31922827320289
 20
1.780553894441671
 30
0.0
 10
-14.32649497427372
 20
1.772503848615805
 30
0.0
 10
-14.3328819382734
 20
1.763589477639359
 30
0.0
 10
-14.33745619093276
 20
1.753987543563928
 30
0.0
 10
-14.3413348861168
 20
1.745845672480425
 30
0.0
 10
-14.34393875787434
 20
1.737019895512604
 30
0.0
 10
-14.34473020542881
 20
1.728135690982393
 30
0.0
 10
-14.34490965253481
 20
1.726121350571457
 30
0.0
 10
-14.34499999999998
 20
1.724097912126176
 30
0.0
 10
-14.34499999999998
 20
1.722075545413611
 30
0.0
 10
-14.34499999999998
 20
1.712778960199991
 30
0.0
 10
-14.34299278724658
 20
1.703350340350722
 30
0.0
 10
-14.33945872546161
 20
1.694622389359632
 30
0.0
 10
-14.33504698079849
 20
1.683726855113822
 30
0.0
 10
-14.32823456754396
 20
1.673569674250974
 30
0.0
 10
-14.32032777315567
 20
1.664501020137935
 30
0.0
 10
-14.30688366809861
 20
1.6490813781649
 30
0.0
 10
-14.29001908235498
 20
1.636149214479837
 30
0.0
 10
-14.27232405803074
 20
1.624994652363788
 30
0.0
 10
-14.22427171635876
 20
1.594703491403505
 30
0.0
 10
-14.16848595092526
 20
1.575210467493932
 30
0.0
 10
-14.11279543111428
 20
1.560006399518576
 30
0.0
 10
-13.98322616796035
 20
1.524632696935168
 30
0.0
 10
-13.84613156348132
 20
1.51204870923573
 30
0.0
 10
-13.71118559898555
 20
1.512048709235733
 30
0.0
  0
SPLINE
  5
16B
330
1F
100
AcDbEntity
  8
SK1
  6
Continuous
100
AcDbSpline
210
0.0
220
0.0
230
1.0
 70
     8
 71
     3
 72
    35
 73
    31
 74
     0
 42
0.0000000110712833
 43
0.0000000001
 12
1.0
 22
0.0
 32
0.0
 13
1.0
 23
0.0
 33
0.0
 40
0.0
 40
0.0
 40
0.0
 40
0.0
 40
0.2006219603256771
 40
0.2006219603256771
 40
0.2006219603256771
 40
0.3107708642184514
 40
0.3107708642184514
 40
0.3107708642184514
 40
0.3928348904864872
 40
0.3928348904864872
 40
0.3928348904864872
 40
0.452642290810276
 40
0.452642290810276
 40
0.452642290810276
 40
0.500039842348067
 40
0.500039842348067
 40
0.500039842348067
 40
0.56060037985937
 40
0.56060037985937
 40
0.56060037985937
 40
0.6204650973910516
 40
0.6204650973910516
 40
0.6204650973910516
 40
0.7121478092766147
 40
0.7121478092766147
 40
0.7121478092766147
 40
0.8546017325210158
 40
0.8546017325210158
 40
0.8546017325210158
 40
1.0
 40
1.0
 40
1.0
 40
1.0
 10
-19.39586006774744
 20
2.574613275430403
 30
0.0
 10
-19.45663638157169
 20
2.571342999612193
 30
0.0
 10
-19.51860753262014
 20
2.57729106388537
 30
0.0
 10
-19.57566453479545
 20
2.594163414761034
 30
0.0
 10
-19.60726680315719
 20
2.603508535253478
 30
0.0
 10
-19.63795523077129
 20
2.616426339365335
 30
0.0
 10
-19.66516934203792
 20
2.633670242225409
 30
0.0
 10
-19.68545213462254
 20
2.646522196185372
 30
0.0
 10
-19.70418653986215
 20
2.662091298496333
 30
0.0
 10
-19.71896145935762
 20
2.680338124655551
 30
0.0
 10
-19.72975094717217
 20
2.693662996480375
 30
0.0
 10
-19.73859627920959
 20
2.708735982020306
 30
0.0
 10
-19.74413527790335
 20
2.724776007847711
 30
0.0
 10
-19.74853713634198
 20
2.737523063217767
 30
0.0
 10
-19.75091269905178
 20
2.751138520358948
 30
0.0
 10
-19.75091269905178
 20
2.764722417021507
 30
0.0
 10
-19.75091269905178
 20
2.781954489865648
 30
0.0
 10
-19.74702129757168
 20
2.799626539697115
 30
0.0
 10
-19.74010114930457
 20
2.815931720205403
 30
0.0
 10
-19.73322668414379
 20
2.83212926265939
 30
0.0
 10
-19.72329110435116
 20
2.84746612925176
 30
0.0
 10
-19.71163954110528
 20
2.861259040012572
 30
0.0
 10
-19.69387100195382
 20
2.882293116702059
 30
0.0
 10
-19.67171189563297
 20
2.90041852752843
 30
0.0
 10
-19.6480498097683
 20
2.915562278834883
 30
0.0
 10
-19.61141263171017
 20
2.939010098112345
 30
0.0
 10
-19.57001690409786
 20
2.956256103686685
 30
0.0
 10
-19.52798327684449
 20
2.968345883353261
 30
0.0
 10
-19.48495649928092
 20
2.980721314513909
 30
0.0
 10
-19.44020795228734
 20
2.987972776632081
 30
0.0
 10
-19.39586006774743
 20
2.99035906506048
 30
0.0
  0
LINE
  5
16C
330
1F
100
AcDbEntity
  8
SK3
100
AcDbLine
 10
-4.345
 20
-3.3259240846
 30
0.0
 11
-4.345
 21
-1.6211810499
 31
0.0
  0
LINE
  5
16D
330
1F
100
AcDbEntity
  8
SK1
  6
Continuous
100
AcDbLine
 10
11.155
 20
-7.0565083171
 30
0.0
 11
11.155
 21
-3.1664396345
 31
0.0
  0
LINE
  5
16E
330
1F
100
AcDbEntity
  8
SK1
  6
Continuous
100
AcDbLine
 10
11.0656969024
 20
-7.2335146163
 30
0.0
 11
11.0656969024
 21
-3.2397580443
 31
0.0
  0
LINE
  5
16F
330
1F
100
AcDbEntity
  8
SK1
  6
Continuous
100
AcDbLine
 10
11.0489418513
 20
-7.4187163561
 30
0.0
 11
11.0489418513
 21
-7.9399513088
 31
0.0
  0
LINE
  5
170
330
1F
100
AcDbEntity
  8
SK1
  6
Continuous
100
AcDbLine
 10
3.2132480697
 20
-9.568019488
 30
0.0
 11
3.2132480697
 21
-7.5480450538
 31
0.0
  0
LINE
  5
171
330
1F
100
AcDbEntity
  8
SK1
  6
Continuous
100
AcDbLine
 10
3.555
 20
-9.4656950327
 30
0.0
 11
3.555
 21
-10.1523964305
 31
0.0
  0
LINE
  5
172
330
1F
100
AcDbEntity
  8
SK1
  6
Continuous
100
AcDbLine
 10
3.755
 20
-7.9489595996
 30
0.0
 11
3.755
 21
-6.3088702632
 31
0.0
  0
LINE
  5
173
330
1F
100
AcDbEntity
  8
SK1
  6
Continuous
100
AcDbLine
 10
6.155
 20
-7.9489595996
 30
0.0
 11
6.155
 21
-6.3088702632
 31
0.0
  0
LINE
  5
174
330
1F
100
AcDbEntity
  8
SK1
  6
Continuous
100
AcDbLine
 10
6.355
 20
-9.3461529209
 30
0.0
 11
6.355
 21
-7.3782357349
 31
0.0
  0
LINE
  5
175
330
1F
100
AcDbEntity
  8
SK1
  6
Continuous
100
AcDbLine
 10
6.6344228634
 20
-9.4952332899
 30
0.0
 11
6.6344228634
 21
-7.4923369096
 31
0.0
  0
LINE
  5
176
330
1F
100
AcDbEntity
  8
SK1
  6
Continuous
100
AcDbLine
 10
6.8028268921
 20
-9.5088484153
 30
0.0
 11
6.8028268921
 21
-7.5027574754
 31
0.0
  0
LINE
  5
177
330
1F
100
AcDbEntity
  8
SK1
  6
Continuous
100
AcDbLine
 10
6.8192693824
 20
-9.5033180889
 30
0.0
 11
6.8192693824
 21
-7.4985247469
 31
0.0
  0
SPLINE
  5
178
330
1F
100
AcDbEntity
  8
SK1
  6
Continuous
100
AcDbSpline
210
0.0
220
0.0
230
1.0
 70
     8
 71
     3
 72
    11
 73
     7
 74
     0
 42
0.0000000004386153
 43
0.0000000001
 12
1.0
 22
0.0
 32
0.0
 13
1.0
 23
0.0
 33
0.0
 40
0.0
 40
0.0
 40
0.0
 40
0.0
 40
0.8037136687044085
 40
0.8037136687044085
 40
0.8037136687044085
 40
1.0
 40
1.0
 40
1.0
 40
1.0
 10
3.21324806971196
 20
-9.740227032525047
 30
0.0
 10
-2.843846900972854
 20
-8.953574563814481
 30
0.0
 10
-8.900935920364269
 20
-8.166882976687669
 30
0.0
 10
-14.95801044375563
 20
-7.380096135547022
 30
0.0
 10
-16.43729465026895
 20
-7.18794374523101
 30
0.0
 10
-17.91657794399292
 20
-6.995785356752148
 30
0.0
 10
-19.39586006774743
 20
-6.803619280965753
 30
0.0
  0
ARC
  5
179
330
1F
100
AcDbEntity
  8
SK1
  6
Continuous
100
AcDbCircle
 10
10.9280445132
 20
-7.2252431526
 30
0.0
 40
0.2269820537058343
100
AcDbArc
 50
307.3329766296
 51
359.1233697482
  0
LINE
  5
17A
330
1F
100
AcDbEntity
  8
SK1
  6
Continuous
100
AcDbLine
 10
11.0656969024
 20
-7.4057221609
 30
0.0
 11
11.0489418513
 21
-7.4187163561
 31
0.0
  0
LINE
  5
17B
330
1F
100
AcDbEntity
  8
SK1
  6
Continuous
100
AcDbLine
 10
11.0489418513
 20
-7.4187163561
 30
0.0
 11
6.8192693824
 21
-9.6755256335
 31
0.0
  0
LINE
  5
17C
330
1F
100
AcDbEntity
  8
SK1
  6
Continuous
100
AcDbLine
 10
6.8192693824
 20
-9.6755256335
 30
0.0
 11
6.8028268921
 21
-9.6810559599
 31
0.0
  0
ARC
  5
17D
330
1F
100
AcDbEntity
  8
SK1
  6
Continuous
100
AcDbCircle
 10
6.7346197966
 20
-9.4764089585
 30
0.0
 40
0.2157141697928575
100
AcDbArc
 50
242.32282173
 51
288.4327889405
  0
LINE
  5
17E
330
1F
100
AcDbEntity
  8
SK1
  6
Continuous
100
AcDbLine
 10
6.6344228634
 20
-9.6674408345
 30
0.0
 11
6.355
 21
-9.5183604655
 31
0.0
  0
LINE
  5
17F
330
1F
100
AcDbEntity
  8
SK1
  6
Continuous
100
AcDbLine
 10
6.355
 20
-9.5183604655
 30
0.0
 11
6.355
 21
-9.3461529209
 31
0.0
  0
ARC
  5
180
330
1F
100
AcDbEntity
  8
SK1
  6
Continuous
100
AcDbCircle
 10
6.1622987205
 20
-8.3138916494
 30
0.0
 40
0.1928626616104596
100
AcDbArc
 50
2.344075446
 51
92.1688270969
  0
LINE
  5
181
330
1F
100
AcDbEntity
  8
SK1
  6
Continuous
100
AcDbLine
 10
6.155
 20
-8.1211671442
 30
0.0
 11
3.755
 21
-8.1211671442
 31
0.0
  0
ARC
  5
182
330
1F
100
AcDbEntity
  8
SK1
  6
Continuous
100
AcDbCircle
 10
3.7477016331
 20
-8.3138920321
 30
0.0
 40
0.1928630306195127
100
AcDbArc
 50
87.8312821928
 51
177.6558152637
  0
LINE
  5
183
330
1F
100
AcDbEntity
  8
SK1
  6
Continuous
100
AcDbLine
 10
3.555
 20
-9.2934874882
 30
0.0
 11
3.555
 21
-9.4656950327
 31
0.0
  0
ARC
  5
184
330
1F
100
AcDbEntity
  8
SK3
100
AcDbCircle
 10
-5.1160825814
 20
-3.4672007797
 30
0.0
 40
0.7717027049686334
100
AcDbArc
 50
267.8524967966
 51
357.7028952076
  0
LINE
  5
185
330
1F
100
AcDbEntity
  8
SK3
100
AcDbLine
 10
-5.145
 20
-4.2383614944
 30
0.0
 11
-13.711185599
 21
-4.2383614944
 31
0.0
  0
ARC
  5
186
330
1F
100
AcDbEntity
  8
SK1
  6
Continuous
100
AcDbCircle
 10
3.2624277148
 20
-9.2792594826
 30
0.0
 40
0.2929180400511621
100
AcDbArc
 50
260.3345137101
 51
357.215857475
  0
ARC
  5
187
330
1F
100
AcDbEntity
  8
SK3
100
AcDbCircle
 10
-5.1160825814
 20
-3.2949932352
 30
0.0
 40
0.771702704968633
100
AcDbArc
 50
267.8524967966
 51
357.7028952076
  0
LINE
  5
188
330
1F
100
AcDbEntity
  8
SK3
100
AcDbLine
 10
-5.145
 20
-4.0661539498
 30
0.0
 11
-13.711185599
 21
-4.0661539498
 31
0.0
  0
ARC
  5
189
330
1F
100
AcDbEntity
  8
SK1
  6
Continuous
100
AcDbCircle
 10
3.2624277148
 20
-9.4514670272
 30
0.0
 40
0.292918040051163
100
AcDbArc
 50
260.3345137101
 51
357.215857475
  0
SPLINE
  5
18A
330
1F
100
AcDbEntity
  8
SK1
  6
Continuous
100
AcDbSpline
210
0.0
220
0.0
230
1.0
 70
     8
 71
     3
 72
    11
 73
     7
 74
     0
 42
0.0000000004386153
 43
0.0000000001
 12
1.0
 22
0.0
 32
0.0
 13
1.0
 23
0.0
 33
0.0
 40
0.0
 40
0.0
 40
0.0
 40
0.0
 40
0.8037136687044085
 40
0.8037136687044085
 40
0.8037136687044085
 40
1.0
 40
1.0
 40
1.0
 40
1.0
 10
3.21324806971196
 20
-9.568019487960758
 30
0.0
 10
-2.843846900972854
 20
-8.781367019250192
 30
0.0
 10
-8.900935920364269
 20
-7.994675432123379
 30
0.0
 10
-14.95801044375563
 20
-7.207888590982733
 30
0.0
 10
-16.43729465026895
 20
-7.015736200666722
 30
0.0
 10
-17.91657794399292
 20
-6.82357781218786
 30
0.0
 10
-19.39586006774743
 20
-6.631411736401463
 30
0.0
  0
ARC
  5
18B
330
1F
100
AcDbEntity
  8
SK1
  6
Continuous
100
AcDbCircle
 10
10.9280445132
 20
-7.053035608
 30
0.0
 40
0.2269820537058326
100
AcDbArc
 50
307.3329766296
 51
359.1233697482
  0
LINE
  5
18C
330
1F
100
AcDbEntity
  8
SK1
  6
Continuous
100
AcDbLine
 10
11.0656969024
 20
-7.2335146163
 30
0.0
 11
11.0489418513
 21
-7.2465088116
 31
0.0
  0
LINE
  5
18D
330
1F
100
AcDbEntity
  8
SK1
  6
Continuous
100
AcDbLine
 10
11.0489418513
 20
-7.2465088116
 30
0.0
 11
6.8192693824
 21
-9.5033180889
 31
0.0
  0
LINE
  5
18E
330
1F
100
AcDbEntity
  8
SK1
  6
Continuous
100
AcDbLine
 10
6.8192693824
 20
-9.5033180889
 30
0.0
 11
6.8028268921
 21
-9.5088484153
 31
0.0
  0
ARC
  5
18F
330
1F
100
AcDbEntity
  8
SK1
  6
Continuous
100
AcDbCircle
 10
6.7346197966
 20
-9.304201414
 30
0.0
 40
0.2157141697928543
100
AcDbArc
 50
242.32282173
 51
288.4327889405
  0
LINE
  5
190
330
1F
100
AcDbEntity
  8
SK1
  6
Continuous
100
AcDbLine
 10
6.6344228634
 20
-9.4952332899
 30
0.0
 11
6.355
 21
-9.3461529209
 31
0.0
  0
ARC
  5
191
330
1F
100
AcDbEntity
  8
SK1
  6
Continuous
100
AcDbCircle
 10
6.1622987205
 20
-8.1416841049
 30
0.0
 40
0.1928626616104611
100
AcDbArc
 50
2.344075446
 51
92.1688270969
  0
LINE
  5
192
330
1F
100
AcDbEntity
  8
SK1
  6
Continuous
100
AcDbLine
 10
6.155
 20
-7.9489595996
 30
0.0
 11
3.755
 21
-7.9489595996
 31
0.0
  0
ARC
  5
193
330
1F
100
AcDbEntity
  8
SK1
  6
Continuous
100
AcDbCircle
 10
3.7477016331
 20
-8.1416844875
 30
0.0
 40
0.1928630306195146
100
AcDbArc
 50
87.8312821928
 51
177.6558152637
  0
SPLINE
  5
194
330
1F
100
AcDbEntity
  8
SK3
100
AcDbSpline
210
0.0
220
0.0
230
1.0
 70
     8
 71
     3
 72
    10
 73
     6
 74
     0
 42
0.0000000212879306
 43
0.0000000001
 12
1.0
 22
0.0
 32
0.0
 13
1.0
 23
0.0
 33
0.0
 40
0.0
 40
0.0
 40
0.0
 40
0.0
 40
0.5
 40
0.5
 40
1.0
 40
1.0
 40
1.0
 40
1.0
 10
11.1550000000002
 20
-0.2237075672323048
 30
0.0
 10
11.15500000000001
 20
-0.1831236343195682
 30
0.0
 10
11.11295336816072
 20
-0.1426747078667904
 30
0.0
 10
10.96565440350644
 20
-0.0837062350005912
 30
0.0
 10
10.8611820623836
 20
-0.0659195513136469
 30
0.0
 10
10.75499999999999
 20
-0.0659195513136397
 30
0.0
  0
SPLINE
  5
195
330
1F
100
AcDbEntity
  8
SK3
100
AcDbSpline
210
0.0
220
0.0
230
1.0
 70
     8
 71
     3
 72
    10
 73
     6
 74
     0
 42
0.0000000212879306
 43
0.0000000001
 12
1.0
 22
0.0
 32
0.0
 13
1.0
 23
0.0
 33
0.0
 40
0.0
 40
0.0
 40
0.0
 40
0.0
 40
0.5
 40
0.5
 40
1.0
 40
1.0
 40
1.0
 40
1.0
 10
11.1550000000002
 20
-0.639453356862384
 30
0.0
 10
11.15500000000001
 20
-0.5988694239496452
 30
0.0
 10
11.11295336816072
 20
-0.5584204974968657
 30
0.0
 10
10.96565440350642
 20
-0.4994520246306656
 30
0.0
 10
10.86118206238357
 20
-0.4816653409437228
 30
0.0
 10
10.75499999999996
 20
-0.4816653409436949
 30
0.0
  0
LINE
  5
196
330
1F
100
AcDbEntity
  8
SK3
100
AcDbLine
 10
-4.345
 20
-1.2054352602
 30
0.0
 11
-4.345
 21
1.2054354598
 31
0.0
  0
LINE
  5
197
330
1F
100
AcDbEntity
  8
SK1
  6
Continuous
100
AcDbLine
 10
11.155
 20
-2.7506938449
 30
0.0
 11
11.155
 21
2.7506940445
 31
0.0
  0
LINE
  5
198
330
1F
100
AcDbEntity
  8
SK1
  6
Continuous
100
AcDbLine
 10
3.2132480697
 20
-3.790995834
 30
0.0
 11
3.2132480697
 21
-0.2249999002
 31
0.0
  0
LINE
  5
199
330
1F
100
AcDbEntity
  8
SK1
  6
Continuous
100
AcDbLine
 10
3.555
 20
-4.093026746
 30
0.0
 11
3.555
 21
-7.0197293063
 31
0.0
  0
LINE
  5
19A
330
1F
100
AcDbEntity
  8
SK1
  6
Continuous
100
AcDbLine
 10
3.755
 20
-3.1203592699
 30
0.0
 11
3.755
 21
-0.2249999002
 31
0.0
  0
LINE
  5
19B
330
1F
100
AcDbEntity
  8
SK1
  6
Continuous
100
AcDbLine
 10
6.155
 20
-3.1203592699
 30
0.0
 11
6.155
 21
-0.2249999002
 31
0.0
  0
LINE
  5
19C
330
1F
100
AcDbEntity
  8
SK1
  6
Continuous
100
AcDbLine
 10
6.355
 20
-3.6990956928
 30
0.0
 11
6.355
 21
-0.2249999002
 31
0.0
  0
LINE
  5
19D
330
1F
100
AcDbEntity
  8
SK1
  6
Continuous
100
AcDbLine
 10
6.6344228634
 20
-3.7608468036
 30
0.0
 11
6.6344228634
 21
-0.2249999002
 31
0.0
  0
LINE
  5
19E
330
1F
100
AcDbEntity
  8
SK1
  6
Continuous
100
AcDbLine
 10
6.8028268921
 20
-3.7664863732
 30
0.0
 11
6.8028268921
 21
-0.2249999002
 31
0.0
  0
LINE
  5
19F
330
1F
100
AcDbEntity
  8
SK1
  6
Continuous
100
AcDbLine
 10
6.8192693824
 20
-3.764195637
 30
0.0
 11
6.8192693824
 21
-0.2249999002
 31
0.0
  0
LINE
  5
1A0
330
1F
100
AcDbEntity
  8
SK1
  6
Continuous
100
AcDbLine
 10
11.0656969024
 20
-2.8240122547
 30
0.0
 11
11.0656969024
 21
2.8240124542
 31
0.0
  0
LINE
  5
1A1
330
1F
100
AcDbEntity
  8
SK1
  6
Continuous
100
AcDbLine
 10
11.0489418513
 20
-3.2451404162
 30
0.0
 11
11.0489418513
 21
-7.2465088116
 31
0.0
  0
LINE
  5
1A2
330
1F
100
AcDbEntity
  8
SK1
  6
Continuous
100
AcDbLine
 10
3.2132480697
 20
-4.2067416236
 30
0.0
 11
-19.510085108
 21
-2.9842125931
 31
0.0
  0
LINE
  5
1A3
330
1F
100
AcDbEntity
  8
SK1
  6
Continuous
100
AcDbLine
 10
11.155
 20
-2.7506938449
 30
0.0
 11
11.155
 21
-3.1664396345
 31
0.0
  0
SPLINE
  5
1A4
330
1F
100
AcDbEntity
  8
SK1
  6
Continuous
100
AcDbSpline
210
0.0
220
0.0
230
1.0
 70
     8
 71
     3
 72
    10
 73
     6
 74
     0
 42
0.0000000804115572
 43
0.0000000001
 12
1.0
 22
0.0
 32
0.0
 13
1.0
 23
0.0
 33
0.0
 40
0.0
 40
0.0
 40
0.0
 40
0.0
 40
0.5
 40
0.5
 40
1.0
 40
1.0
 40
1.0
 40
1.0
 10
11.15499999999999
 20
-3.166439634548422
 30
0.0
 10
11.15499999999999
 20
-3.180449542613195
 30
0.0
 10
11.14698899934744
 20
-3.194233723035609
 30
0.0
 10
11.11617559394142
 20
-3.219535041428504
 30
0.0
 10
11.09377629516435
 20
-3.230737848493541
 30
0.0
 10
11.06569690242162
 20
-3.239758044330638
 30
0.0
  0
LINE
  5
1A5
330
1F
100
AcDbEntity
  8
SK1
  6
Continuous
100
AcDbLine
 10
11.0656969024
 20
-3.2397580443
 30
0.0
 11
11.0489418513
 21
-3.2451404162
 31
0.0
  0
LINE
  5
1A6
330
1F
100
AcDbEntity
  8
SK1
  6
Continuous
100
AcDbLine
 10
11.0489418513
 20
-3.2451404162
 30
0.0
 11
6.8192693824
 21
-4.1799414266
 31
0.0
  0
LINE
  5
1A7
330
1F
100
AcDbEntity
  8
SK1
  6
Continuous
100
AcDbLine
 10
6.8192693824
 20
-4.1799414266
 30
0.0
 11
6.8028268921
 21
-4.1822321628
 31
0.0
  0
ARC
  5
1A8
330
1F
100
AcDbEntity
  8
SK1
  6
Continuous
100
AcDbCircle
 10
6.7350068795
 20
-3.6902269822
 30
0.0
 40
0.4966574794073358
100
AcDbArc
 50
258.3155282754
 51
277.848425404
  0
LINE
  5
1A9
330
1F
100
AcDbEntity
  8
SK1
  6
Continuous
100
AcDbLine
 10
6.6344228634
 20
-4.1765925932
 30
0.0
 11
6.355
 21
-4.1148414825
 31
0.0
  0
LINE
  5
1AA
330
1F
100
AcDbEntity
  8
SK1
  6
Continuous
100
AcDbLine
 10
6.355
 20
-4.1148414825
 30
0.0
 11
6.355
 21
-3.6990956928
 31
0.0
  0
SPLINE
  5
1AB
330
1F
100
AcDbEntity
  8
SK1
  6
Continuous
100
AcDbSpline
210
0.0
220
0.0
230
1.0
 70
     8
 71
     3
 72
    10
 73
     6
 74
     0
 42
0.0000000427867531
 43
0.0000000001
 12
1.0
 22
0.0
 32
0.0
 13
1.0
 23
0.0
 33
0.0
 40
0.0
 40
0.0
 40
0.0
 40
0.0
 40
0.5
 40
0.5
 40
1.0
 40
1.0
 40
1.0
 40
1.0
 10
6.355
 20
-3.612666778754001
 30
0.0
 10
6.355000000000007
 20
-3.592713917624468
 30
0.0
 10
6.333590842637793
 20
-3.572743876233632
 30
0.0
 10
6.259107260041814
 20
-3.544259966730449
 30
0.0
 10
6.207116547028191
 20
-3.53610505953474
 30
0.0
 10
6.155000000001269
 20
-3.536105059530948
 30
0.0
  0
LINE
  5
1AC
330
1F
100
AcDbEntity
  8
SK1
  6
Continuous
100
AcDbLine
 10
6.155
 20
-3.5361050595
 30
0.0
 11
3.755
 21
-3.5361050595
 31
0.0
  0
SPLINE
  5
1AD
330
1F
100
AcDbEntity
  8
SK1
  6
Continuous
100
AcDbSpline
210
0.0
220
0.0
230
1.0
 70
     8
 71
     3
 72
    10
 73
     6
 74
     0
 42
0.0000000427829715
 43
0.0000000001
 12
1.0
 22
0.0
 32
0.0
 13
1.0
 23
0.0
 33
0.0
 40
0.0
 40
0.0
 40
0.0
 40
0.0
 40
0.5
 40
0.5
 40
1.0
 40
1.0
 40
1.0
 40
1.0
 10
3.754999999999995
 20
-3.53610505953458
 30
0.0
 10
3.702706659370777
 20
-3.53610505953458
 30
0.0
 10
3.650815702100786
 20
-3.544268612966004
 30
0.0
 10
3.576279488457613
 20
-3.572814336297036
 30
0.0
 10
3.555000000000002
 20
-3.592673956437006
 30
0.0
 10
3.554999999999798
 20
-3.612666778753995
 30
0.0
  0
LINE
  5
1AE
330
1F
100
AcDbEntity
  8
SK1
  6
Continuous
100
AcDbLine
 10
3.555
 20
-3.6772809563
 30
0.0
 11
3.555
 21
-4.093026746
 31
0.0
  0
SPLINE
  5
1AF
330
1F
100
AcDbEntity
  8
SK1
  6
Continuous
100
AcDbSpline
210
0.0
220
0.0
230
1.0
 70
     8
 71
     3
 72
    10
 73
     6
 74
     0
 42
0.0000000253813262
 43
0.0000000001
 12
1.0
 22
0.0
 32
0.0
 13
1.0
 23
0.0
 33
0.0
 40
0.0
 40
0.0
 40
0.0
 40
0.0
 40
0.5
 40
0.5
 40
1.0
 40
1.0
 40
1.0
 40
1.0
 10
3.21324806971196
 20
-3.790995833954804
 30
0.0
 10
3.297493230337948
 20
-3.795527812071395
 30
0.0
 10
3.387840448133641
 20
-3.785272920527312
 30
0.0
 10
3.516203711036673
 20
-3.742483398156432
 30
0.0
 10
3.554999999999996
 20
-3.710195249453117
 30
0.0
 10
3.554999999999997
 20
-3.677280956333933
 30
0.0
  0
LINE
  5
1B0
330
1F
100
AcDbEntity
  8
SK3
100
AcDbLine
 10
10.755
 20
-0.0659195513
 30
0.0
 11
-2.7837505004
 21
-0.0659195513
 31
0.0
  0
ARC
  5
1B1
330
1F
100
AcDbEntity
  8
SK3
100
AcDbCircle
 10
-2.7897887845
 20
-12.3211727064
 30
0.0
 40
12.25525464262184
100
AcDbArc
 50
89.9717698065
 51
97.290583096
  0
SPLINE
  5
1B2
330
1F
100
AcDbEntity
  8
SK3
100
AcDbSpline
210
0.0
220
0.0
230
1.0
 70
     8
 71
     3
 72
    23
 73
    19
 74
     0
 42
0.0000000109102829
 43
0.0000000001
 12
1.0
 22
0.0
 32
0.0
 13
1.0
 23
0.0
 33
0.0
 40
0.0
 40
0.0
 40
0.0
 40
0.0
 40
0.0324512740463308
 40
0.0324512740463308
 40
0.0324512740463308
 40
0.2480736070266925
 40
0.2480736070266925
 40
0.2480736070266925
 40
0.463507089112972
 40
0.463507089112972
 40
0.463507089112972
 40
0.6786237016101591
 40
0.6786237016101591
 40
0.6786237016101591
 40
0.8120579874001176
 40
0.8120579874001176
 40
0.8120579874001176
 40
1.0
 40
1.0
 40
1.0
 40
1.0
 10
-4.345000000000002
 20
-1.205435260246462
 30
0.0
 10
-4.344999999999996
 20
-1.210665888124012
 30
0.0
 10
-4.345349223094923
 20
-1.215898220668532
 30
0.0
 10
-4.346047033423742
 20
-1.22112202745961
 30
0.0
 10
-4.350636108031958
 20
-1.25547583122714
 30
0.0
 10
-4.370793038979436
 20
-1.290001580351404
 30
0.0
 10
-4.404864198608145
 20
-1.321833424238465
 30
0.0
 10
-4.438905408279416
 20
-1.353637286619171
 30
0.0
 10
-4.487778983845513
 20
-1.383630685177087
 30
0.0
 10
-4.547444644935158
 20
-1.409318035071178
 30
0.0
 10
-4.607023420584718
 20
-1.434967978915301
 30
0.0
 10
-4.679010281282231
 20
-1.457033009176538
 30
0.0
 10
-4.757438270651463
 20
-1.473675282771573
 30
0.0
 10
-4.806514725813199
 20
-1.484089215354123
 30
0.0
 10
-4.858757709760613
 20
-1.492561366547069
 30
0.0
 10
-4.912444935817401
 20
-1.498811221749829
 30
0.0
 10
-4.987423680083303
 20
-1.507539672246619
 30
0.0
 10
-5.066628821603802
 20
-1.512048509694315
 30
0.0
 10
-5.144999999999997
 20
-1.512048509694314
 30
0.0
  0
LINE
  5
1B3
330
1F
100
AcDbEntity
  8
SK3
100
AcDbLine
 10
-5.145
 20
-1.5120485097
 30
0.0
 11
-15.3857095391
 21
-1.5120485097
 31
0.0
  0
SPLINE
  5
1B4
330
1F
100
AcDbEntity
  8
SK1
  6
Continuous
100
AcDbSpline
210
0.0
220
0.0
230
1.0
 70
     8
 71
     3
 72
    10
 73
     6
 74
     0
 42
0.0000000253813262
 43
0.0000000001
 12
1.0
 22
0.0
 32
0.0
 13
1.0
 23
0.0
 33
0.0
 40
0.0
 40
0.0
 40
0.0
 40
0.0
 40
0.5
 40
0.5
 40
1.0
 40
1.0
 40
1.0
 40
1.0
 10
3.21324806971196
 20
-4.206741623584882
 30
0.0
 10
3.297493230337948
 20
-4.211273601701474
 30
0.0
 10
3.387840448133641
 20
-4.201018710157392
 30
0.0
 10
3.516203711036673
 20
-4.158229187786511
 30
0.0
 10
3.554999999999996
 20
-4.125941039083197
 30
0.0
 10
3.554999999999997
 20
-4.093026745964013
 30
0.0
  0
LINE
  5
1B5
330
1F
100
AcDbEntity
  8
SK3
100
AcDbLine
 10
10.755
 20
-0.4816653409
 30
0.0
 11
-2.7837505004
 21
-0.4816653409
 31
0.0
  0
ARC
  5
1B6
330
1F
100
AcDbEntity
  8
SK3
100
AcDbCircle
 10
-2.7897887845
 20
-12.736918496
 30
0.0
 40
12.25525464262221
100
AcDbArc
 50
89.9717698065
 51
97.290583096
  0
LINE
  5
1B7
330
1F
100
AcDbEntity
  8
SK3
100
AcDbLine
 10
-4.345
 20
-1.2054352602
 30
0.0
 11
-4.345
 21
-1.6211810499
 31
0.0
  0
SPLINE
  5
1B8
330
1F
100
AcDbEntity
  8
SK3
100
AcDbSpline
210
0.0
220
0.0
230
1.0
 70
     8
 71
     3
 72
    23
 73
    19
 74
     0
 42
0.0000000109102829
 43
0.0000000001
 12
1.0
 22
0.0
 32
0.0
 13
1.0
 23
0.0
 33
0.0
 40
0.0
 40
0.0
 40
0.0
 40
0.0
 40
0.0324512740463308
 40
0.0324512740463308
 40
0.0324512740463308
 40
0.2480736070266924
 40
0.2480736070266924
 40
0.2480736070266924
 40
0.4635070891129717
 40
0.4635070891129717
 40
0.4635070891129717
 40
0.6786237016101558
 40
0.6786237016101558
 40
0.6786237016101558
 40
0.8120579874001177
 40
0.8120579874001177
 40
0.8120579874001177
 40
1.0
 40
1.0
 40
1.0
 40
1.0
 10
-4.345000000000002
 20
-1.621181049876541
 30
0.0
 10
-4.344999999999996
 20
-1.626411677754091
 30
0.0
 10
-4.345349223094923
 20
-1.631644010298611
 30
0.0
 10
-4.346047033423742
 20
-1.636867817089689
 30
0.0
 10
-4.350636108031958
 20
-1.671221620857219
 30
0.0
 10
-4.370793038979436
 20
-1.705747369981483
 30
0.0
 10
-4.404864198608145
 20
-1.737579213868544
 30
0.0
 10
-4.438905408279416
 20
-1.76938307624925
 30
0.0
 10
-4.487778983845513
 20
-1.799376474807167
 30
0.0
 10
-4.547444644935158
 20
-1.825063824701258
 30
0.0
 10
-4.607023420584718
 20
-1.85071376854538
 30
0.0
 10
-4.679010281282231
 20
-1.872778798806616
 30
0.0
 10
-4.757438270651459
 20
-1.889421072401652
 30
0.0
 10
-4.806514725813195
 20
-1.899835004984201
 30
0.0
 10
-4.85875770976061
 20
-1.908307156177147
 30
0.0
 10
-4.912444935817401
 20
-1.914557011379908
 30
0.0
 10
-4.987423680083303
 20
-1.923285461876698
 30
0.0
 10
-5.066628821603802
 20
-1.927794299324394
 30
0.0
 10
-5.144999999999997
 20
-1.927794299324393
 30
0.0
  0
LINE
  5
1B9
330
1F
100
AcDbEntity
  8
SK3
100
AcDbLine
 10
-5.145
 20
-1.9277942993
 30
0.0
 11
-15.3857095391
 21
-1.9277942993
 31
0.0
  0
LINE
  5
1BA
330
1F
100
AcDbEntity
  8
SK1
  6
Continuous
100
AcDbLine
 10
3.2132480697
 20
-3.790995834
 30
0.0
 11
-19.510085108
 21
-2.5684668035
 31
0.0
  0
SPLINE
  5
1BB
330
1F
100
AcDbEntity
  8
SK1
  6
Continuous
100
AcDbSpline
210
0.0
220
0.0
230
1.0
 70
     8
 71
     3
 72
    10
 73
     6
 74
     0
 42
0.0000000804115572
 43
0.0000000001
 12
1.0
 22
0.0
 32
0.0
 13
1.0
 23
0.0
 33
0.0
 40
0.0
 40
0.0
 40
0.0
 40
0.0
 40
0.5
 40
0.5
 40
1.0
 40
1.0
 40
1.0
 40
1.0
 10
11.15499999999999
 20
-2.750693844918342
 30
0.0
 10
11.15499999999999
 20
-2.764703752983116
 30
0.0
 10
11.14698899934744
 20
-2.778487933405529
 30
0.0
 10
11.11617559394142
 20
-2.803789251798423
 30
0.0
 10
11.09377629516435
 20
-2.814992058863461
 30
0.0
 10
11.06569690242162
 20
-2.824012254700559
 30
0.0
  0
LINE
  5
1BC
330
1F
100
AcDbEntity
  8
SK1
  6
Continuous
100
AcDbLine
 10
11.0656969024
 20
-2.8240122547
 30
0.0
 11
11.0489418513
 21
-2.8293946266
 31
0.0
  0
LINE
  5
1BD
330
1F
100
AcDbEntity
  8
SK1
  6
Continuous
100
AcDbLine
 10
11.0489418513
 20
-2.8293946266
 30
0.0
 11
6.8192693824
 21
-3.764195637
 31
0.0
  0
LINE
  5
1BE
330
1F
100
AcDbEntity
  8
SK1
  6
Continuous
100
AcDbLine
 10
6.8192693824
 20
-3.764195637
 30
0.0
 11
6.8028268921
 21
-3.7664863732
 31
0.0
  0
ARC
  5
1BF
330
1F
100
AcDbEntity
  8
SK1
  6
Continuous
100
AcDbCircle
 10
6.7350068795
 20
-3.2744811926
 30
0.0
 40
0.4966574794073517
100
AcDbArc
 50
258.3155282754
 51
277.848425404
  0
LINE
  5
1C0
330
1F
100
AcDbEntity
  8
SK1
  6
Continuous
100
AcDbLine
 10
6.6344228634
 20
-3.7608468036
 30
0.0
 11
6.355
 21
-3.6990956928
 31
0.0
  0
SPLINE
  5
1C1
330
1F
100
AcDbEntity
  8
SK1
  6
Continuous
100
AcDbSpline
210
0.0
220
0.0
230
1.0
 70
     8
 71
     3
 72
    10
 73
     6
 74
     0
 42
0.0000000427867531
 43
0.0000000001
 12
1.0
 22
0.0
 32
0.0
 13
1.0
 23
0.0
 33
0.0
 40
0.0
 40
0.0
 40
0.0
 40
0.0
 40
0.5
 40
0.5
 40
1.0
 40
1.0
 40
1.0
 40
1.0
 10
6.355
 20
-3.196920989123921
 30
0.0
 10
6.355000000000007
 20
-3.176968127994388
 30
0.0
 10
6.333590842637793
 20
-3.156998086603552
 30
0.0
 10
6.259107260041814
 20
-3.128514177100369
 30
0.0
 10
6.207116547028191
 20
-3.120359269904661
 30
0.0
 10
6.155000000001269
 20
-3.120359269900868
 30
0.0
  0
LINE
  5
1C2
330
1F
100
AcDbEntity
  8
SK1
  6
Continuous
100
AcDbLine
 10
6.155
 20
-3.1203592699
 30
0.0
 11
3.755
 21
-3.1203592699
 31
0.0
  0
SPLINE
  5
1C3
330
1F
100
AcDbEntity
  8
SK1
  6
Continuous
100
AcDbSpline
210
0.0
220
0.0
230
1.0
 70
     8
 71
     3
 72
    10
 73
     6
 74
     0
 42
0.0000000427829715
 43
0.0000000001
 12
1.0
 22
0.0
 32
0.0
 13
1.0
 23
0.0
 33
0.0
 40
0.0
 40
0.0
 40
0.0
 40
0.0
 40
0.5
 40
0.5
 40
1.0
 40
1.0
 40
1.0
 40
1.0
 10
3.754999999999995
 20
-3.120359269904501
 30
0.0
 10
3.702706659370777
 20
-3.1203592699045
 30
0.0
 10
3.650815702100786
 20
-3.128522823335925
 30
0.0
 10
3.576279488457613
 20
-3.157068546666957
 30
0.0
 10
3.555000000000002
 20
-3.176928166806926
 30
0.0
 10
3.554999999999798
 20
-3.196920989123916
 30
0.0
  0
LINE
  5
1C4
330
1F
100
AcDbEntity
  8
SK1
  6
Continuous
100
AcDbLine
 10
11.155
 20
-7.0565083171
 30
0.0
 11
11.155
 21
-7.2287158616
 31
0.0
  0
LINE
  5
1C5
330
1F
100
AcDbEntity
  8
SK3
100
AcDbLine
 10
-4.345
 20
-3.3259240846
 30
0.0
 11
-4.345
 21
-3.4981316291
 31
0.0
  0
SPLINE
  5
1C6
330
1F
100
AcDbEntity
  8
SK3
100
AcDbSpline
210
0.0
220
0.0
230
1.0
 70
     8
 71
     3
 72
    38
 73
    34
 74
     0
 42
0.0000000091811457
 43
0.0000000001
 12
1.0
 22
0.0
 32
0.0
 13
1.0
 23
0.0
 33
0.0
 40
0.0
 40
0.0
 40
0.0
 40
0.0
 40
0.2579394040394542
 40
0.2579394040394542
 40
0.2579394040394542
 40
0.3319982464578558
 40
0.3319982464578558
 40
0.3319982464578558
 40
0.4067618345092368
 40
0.4067618345092368
 40
0.4067618345092368
 40
0.4489905038722737
 40
0.4489905038722737
 40
0.4489905038722737
 40
0.4919249167851671
 40
0.4919249167851671
 40
0.4919249167851671
 40
0.4999463829133197
 40
0.4999463829133197
 40
0.4999463829133197
 40
0.5354119851385187
 40
0.5354119851385187
 40
0.5354119851385187
 40
0.5791825605605044
 40
0.5791825605605044
 40
0.5791825605605044
 40
0.6479591111859793
 40
0.6479591111859793
 40
0.6479591111859793
 40
0.7772686085630127
 40
0.7772686085630127
 40
0.7772686085630127
 40
1.0
 40
1.0
 40
1.0
 40
1.0
 10
-15.38570953909799
 20
-1.512048509694314
 30
0.0
 10
-15.47979435001382
 20
-1.512048509694314
 30
0.0
 10
-15.57601336695672
 20
-1.524788732352572
 30
0.0
 10
-15.66409948624506
 20
-1.555807491524387
 30
0.0
 10
-15.68978699733453
 20
-1.564853124668917
 30
0.0
 10
-15.71493518668657
 20
-1.575615194590822
 30
0.0
 10
-15.73858188281611
 20
-1.588633787772846
 30
0.0
 10
-15.76235273743023
 20
-1.601720735907791
 30
0.0
 10
-15.78505848056217
 20
-1.617307723607295
 30
0.0
 10
-15.80384737807222
 20
-1.636117054798938
 30
0.0
 10
-15.81450835779089
 20
-1.646789628761762
 30
0.0
 10
-15.82402354140707
 20
-1.658695154850655
 30
0.0
 10
-15.83118542812193
 20
-1.671614174657413
 30
0.0
 10
-15.83841604453782
 20
-1.684657173019558
 30
0.0
 10
-15.84332082775609
 20
-1.699170542714189
 30
0.0
 10
-15.84462594181162
 20
-1.713729847270115
 30
0.0
 10
-15.84487477264434
 20
-1.716505699588241
 30
0.0
 10
-15.845
 20
-1.719292282095996
 30
0.0
 10
-15.845
 20
-1.722075345872211
 30
0.0
 10
-15.845
 20
-1.734197945468692
 30
0.0
 10
-15.84251538334528
 20
-1.746447444164694
 30
0.0
 10
-15.83806352394261
 20
-1.757809892403675
 30
0.0
 10
-15.83257303843458
 20
-1.771823218465708
 30
0.0
 10
-15.8240349984554
 20
-1.784912449921657
 30
0.0
 10
-15.81397298275985
 20
-1.796532758076893
 30
0.0
 10
-15.79820541951472
 20
-1.814742225176687
 30
0.0
 10
-15.77837000701616
 20
-1.830061500211164
 30
0.0
 10
-15.75734486676997
 20
-1.842995832418329
 30
0.0
 10
-15.71797662356524
 20
-1.867214550108698
 30
0.0
 10
-15.67317544908284
 20
-1.884223020673416
 30
0.0
 10
-15.62777187411999
 20
-1.896825315532771
 30
0.0
 10
-15.54985088654572
 20
-1.918453199723534
 30
0.0
 10
-15.46719888801959
 20
-1.927794299324393
 30
0.0
 10
-15.38570953909799
 20
-1.927794299324393
 30
0.0
  0
SPLINE
  5
1C7
330
1F
100
AcDbEntity
  8
SK1
  6
Continuous
100
AcDbSpline
210
0.0
220
0.0
230
1.0
 70
     8
 71
     3
 72
    35
 73
    31
 74
     0
 42
0.0000000120450215
 43
0.0000000001
 12
1.0
 22
0.0
 32
0.0
 13
1.0
 23
0.0
 33
0.0
 40
0.0
 40
0.0
 40
0.0
 40
0.0
 40
0.1687481434728157
 40
0.1687481434728157
 40
0.1687481434728157
 40
0.2901425871925771
 40
0.2901425871925771
 40
0.2901425871925771
 40
0.3790530843558693
 40
0.3790530843558693
 40
0.3790530843558693
 40
0.4497796308354288
 40
0.4497796308354288
 40
0.4497796308354288
 40
0.5000653733329737
 40
0.5000653733329737
 40
0.5000653733329737
 40
0.5704966505866153
 40
0.5704966505866153
 40
0.5704966505866153
 40
0.6403402941099201
 40
0.6403402941099201
 40
0.6403402941099201
 40
0.7394740738359677
 40
0.7394740738359677
 40
0.7394740738359677
 40
0.876756561990597
 40
0.876756561990597
 40
0.876756561990597
 40
1.0
 40
1.0
 40
1.0
 40
1.0
 10
-19.51008510795596
 20
-2.984212593083515
 30
0.0
 10
-19.55727132345811
 20
-2.98167357324435
 30
0.0
 10
-19.60526108019455
 20
-2.971959344346746
 30
0.0
 10
-19.64975155980627
 20
-2.95491354563794
 30
0.0
 10
-19.68189753692288
 20
-2.942597340912574
 30
0.0
 10
-19.7129947516594
 20
-2.926125285286146
 30
0.0
 10
-19.7400393790034
 20
-2.905401881581846
 30
0.0
 10
-19.7598938072123
 20
-2.890188089731151
 30
0.0
 10
-19.77796250379843
 20
-2.872305643859321
 30
0.0
 10
-19.79205842405556
 20
-2.852336135376646
 30
0.0
 10
-19.80328575682854
 20
-2.836430517796662
 30
0.0
 10
-19.81219135964351
 20
-2.818811538300913
 30
0.0
 10
-19.81747287270181
 20
-2.800632888291987
 30
0.0
 10
-19.82124968581103
 20
-2.787633324927486
 30
0.0
 10
-19.82324074796387
 20
-2.774132724007989
 30
0.0
 10
-19.82324074796387
 20
-2.760832223411774
 30
0.0
 10
-19.82324074796387
 20
-2.742357861695286
 30
0.0
 10
-19.81931919792619
 20
-2.723793532701823
 30
0.0
 10
-19.81220540787413
 20
-2.70686975115812
 30
0.0
 10
-19.80512544708348
 20
-2.690026449783998
 30
0.0
 10
-19.79478501742677
 20
-2.674326493623332
 30
0.0
 10
-19.78247401540717
 20
-2.660516939311471
 30
0.0
 10
-19.76506870583474
 20
-2.64099297469247
 30
0.0
 10
-19.74330731415441
 20
-2.624638536412044
 30
0.0
 10
-19.71984214227574
 20
-2.611683017675785
 30
0.0
 10
-19.68743811579378
 20
-2.593792205949024
 30
0.0
 10
-19.65079315641263
 20
-2.581699707239011
 30
0.0
 10
-19.61344117154818
 20
-2.574848025749604
 30
0.0
 10
-19.57976366551417
 20
-2.568670374266289
 30
0.0
 10
-19.54477655867079
 20
-2.566600108260065
 30
0.0
 10
-19.5100851079618
 20
-2.568466803453122
 30
0.0
  0
SPLINE
  5
1C8
330
1F
100
AcDbEntity
  8
SK3
100
AcDbSpline
210
0.0
220
0.0
230
1.0
 70
     8
 71
     3
 72
    38
 73
    34
 74
     0
 42
0.0000000076717915
 43
0.0000000001
 12
1.0
 22
0.0
 32
0.0
 13
1.0
 23
0.0
 33
0.0
 40
0.0
 40
0.0
 40
0.0
 40
0.0
 40
0.322785864040982
 40
0.322785864040982
 40
0.322785864040982
 40
0.3784022162694876
 40
0.3784022162694876
 40
0.3784022162694876
 40
0.4530135742922808
 40
0.4530135742922808
 40
0.4530135742922808
 40
0.4766143533589516
 40
0.4766143533589516
 40
0.4766143533589516
 40
0.4966578940705075
 40
0.4966578940705075
 40
0.4966578940705075
 40
0.5011392670099574
 40
0.5011392670099574
 40
0.5011392670099574
 40
0.5220781185844032
 40
0.5220781185844032
 40
0.5220781185844032
 40
0.5482141331188116
 40
0.5482141331188116
 40
0.5482141331188116
 40
0.5927779492058418
 40
0.5927779492058418
 40
0.5927779492058418
 40
0.714833195161424
 40
0.714833195161424
 40
0.714833195161424
 40
1.0
 40
1.0
 40
1.0
 40
1.0
 10
-13.71118559898555
 20
-4.066153949797205
 30
0.0
 10
-13.86282212824746
 20
-4.066153949797205
 30
0.0
 10
-14.01842970142117
 20
-4.073043753732807
 30
0.0
 10
-14.16118559898555
 20
-4.094261539173599
 30
0.0
 10
-14.18621875893371
 20
-4.097982213595794
 30
0.0
 10
-14.21087424972538
 20
-4.102227623698666
 30
0.0
 10
-14.23446970039943
 20
-4.107236874531543
 30
0.0
 10
-14.26578589524637
 20
-4.113885218624926
 30
0.0
 10
-14.29670462620912
 20
-4.12200040219038
 30
0.0
 10
-14.31922827320289
 20
-4.132750580380353
 30
0.0
 10
-14.32649497427371
 20
-4.136218861133742
 30
0.0
 10
-14.3328819382734
 20
-4.140031448374197
 30
0.0
 10
-14.33745619093275
 20
-4.144095464645695
 30
0.0
 10
-14.3413348861168
 20
-4.14754150960954
 30
0.0
 10
-14.34393875787433
 20
-4.151247280520969
 30
0.0
 10
-14.3447302054288
 20
-4.154942424306785
 30
0.0
 10
-14.34490965253481
 20
-4.15578023453804
 30
0.0
 10
-14.34499999999998
 20
-4.156620104809645
 30
0.0
 10
-14.34499999999998
 20
-4.157457796530081
 30
0.0
 10
-14.34499999999998
 20
-4.16130856820932
 30
0.0
 10
-14.34299278724659
 20
-4.165175373515197
 30
0.0
 10
-14.33945872546162
 20
-4.168723361389602
 30
0.0
 10
-14.3350469807985
 20
-4.173152490681087
 30
0.0
 10
-14.32823456754395
 20
-4.177231059181377
 30
0.0
 10
-14.32032777315566
 20
-4.180841524363915
 30
0.0
 10
-14.3068836680986
 20
-4.18698048167521
 30
0.0
 10
-14.29001908235499
 20
-4.192035104836589
 30
0.0
 10
-14.27232405803076
 20
-4.196354592583457
 30
0.0
 10
-14.22427171635878
 20
-4.20808452848279
 30
0.0
 10
-14.16848595092528
 20
-4.21532610786603
 30
0.0
 10
-14.1127954311143
 20
-4.22094533280088
 30
0.0
 10
-13.98322616796037
 20
-4.234018991239983
 30
0.0
 10
-13.84613156348132
 20
-4.238361494361507
 30
0.0
 10
-13.71118559898555
 20
-4.238361494361496
 30
0.0
  0
SPLINE
  5
1C9
330
1F
100
AcDbEntity
  8
SK1
  6
Continuous
100
AcDbSpline
210
0.0
220
0.0
230
1.0
 70
     8
 71
     3
 72
    35
 73
    31
 74
     0
 42
0.0000000130626494
 43
0.0000000001
 12
1.0
 22
0.0
 32
0.0
 13
1.0
 23
0.0
 33
0.0
 40
0.0
 40
0.0
 40
0.0
 40
0.0
 40
0.2006219603256642
 40
0.2006219603256642
 40
0.2006219603256642
 40
0.3107708642184327
 40
0.3107708642184327
 40
0.3107708642184327
 40
0.3928348904864672
 40
0.3928348904864672
 40
0.3928348904864672
 40
0.4526422908102432
 40
0.4526422908102432
 40
0.4526422908102432
 40
0.500039842348049
 40
0.500039842348049
 40
0.500039842348049
 40
0.5606003798593506
 40
0.5606003798593506
 40
0.5606003798593506
 40
0.6204650973910344
 40
0.6204650973910344
 40
0.6204650973910344
 40
0.7121478092765767
 40
0.7121478092765767
 40
0.7121478092765767
 40
0.8546017325209566
 40
0.8546017325209566
 40
0.8546017325209566
 40
1.0
 40
1.0
 40
1.0
 40
1.0
 10
-19.39586006774743
 20
-6.803619280965753
 30
0.0
 10
-19.45663638157169
 20
-6.795724136732733
 30
0.0
 10
-19.51860753262013
 20
-6.784187503677119
 30
0.0
 10
-19.57566453479545
 20
-6.769133912506001
 30
0.0
 10
-19.60726680315718
 20
-6.760796151848059
 30
0.0
 10
-19.63795523077128
 20
-6.75120162471648
 30
0.0
 10
-19.66516934203792
 20
-6.740357600669379
 30
0.0
 10
-19.68545213462253
 20
-6.732275503540613
 30
0.0
 10
-19.70418653986215
 20
-6.723317237253466
 30
0.0
 10
-19.71896145935762
 20
-6.713796744690782
 30
0.0
 10
-19.72975094717217
 20
-6.706844338721656
 30
0.0
 10
-19.73859627920959
 20
-6.69943655281209
 30
0.0
 10
-19.74413527790336
 20
-6.692065103149058
 30
0.0
 10
-19.74853713634198
 20
-6.686206990573467
 30
0.0
 10
-19.75091269905178
 20
-6.680256648959249
 30
0.0
 10
-19.75091269905178
 20
-6.674630014731742
 30
0.0
 10
-19.75091269905178
 20
-6.667492256451896
 30
0.0
 10
-19.74702129757168
 20
-6.660680800425522
 30
0.0
 10
-19.74010114930457
 20
-6.654837465391432
 30
0.0
 10
-19.73322668414379
 20
-6.649032704920399
 30
0.0
 10
-19.72329110435115
 20
-6.643991532090136
 30
0.0
 10
-19.71163954110528
 20
-6.639830933143695
 30
0.0
 10
-19.69387100195382
 20
-6.633486053601497
 30
0.0
 10
-19.67171189563298
 20
-6.628961622428916
 30
0.0
 10
-19.64804980976832
 20
-6.625931217990125
 30
0.0
 10
-19.61141263171019
 20
-6.62123909288978
 30
0.0
 10
-19.57001690409789
 20
-6.619896404765423
 30
0.0
 10
-19.52798327684453
 20
-6.620950202861881
 30
0.0
 10
-19.48495649928095
 20
-6.622028899592475
 30
0.0
 10
-19.44020795228735
 20
-6.625650726513888
 30
0.0
 10
-19.39586006774743
 20
-6.631411736401463
 30
0.0
  0
ELLIPSE
  5
1CA
330
1F
100
AcDbEntity
  8
SK1
  6
Continuous
100
AcDbEllipse
 10
1.8456755095
 20
-13.4869878978
 30
0.0
 11
-34.77499999937749
 21
-1.977618060610998E-10
 31
0.0
210
0.0
220
0.0
230
1.0
 40
0.3826834324
 41
-0.9536169502725595
 42
-0.909535440310707
  0
ELLIPSE
  5
1CB
330
1F
100
AcDbEntity
  8
SK1
  6
Continuous
100
AcDbEllipse
 10
-1.3546189432
 20
-34.2696463754
 30
0.0
 11
-34.77499999999659
 21
-2.900697917351828E-11
 31
0.0
210
0.0
220
0.0
230
1.0
 40
0.9238795325
 41
-1.033905959977661
 42
-1.025350626311152
  0
ARC
  5
1CC
330
1F
100
AcDbEntity
  8
SK3
100
AcDbCircle
 10
10.762423701
 20
-1.1397792219
 30
0.0
 40
0.3927520385853871
100
AcDbArc
 50
1.7140731427
 51
64.3858064325
  0
ARC
  5
1CD
330
1F
100
AcDbEntity
  8
SK3
100
AcDbCircle
 10
10.762423701
 20
-1.1397792219
 30
0.0
 40
0.3927520385853871
100
AcDbArc
 50
67.1156745779
 51
91.0830550152
  0
ARC
  5
1CE
330
1F
100
AcDbEntity
  8
SK3
100
AcDbCircle
 10
10.762423701
 20
-0.9675716774
 30
0.0
 40
0.392752038586577
100
AcDbArc
 50
1.7140731427
 51
91.083055015
  0
LINE
  5
1CF
330
1F
100
AcDbEntity
  8
SK3
100
AcDbLine
 10
-4.345
 20
-3.6999999002
 30
0.0
 11
-4.345
 21
-3.4981316291
 31
0.0
  0
LINE
  5
1D0
330
1F
100
AcDbEntity
  8
SK1
  6
Continuous
100
AcDbLine
 10
11.155
 20
-7.7343810408
 30
0.0
 11
11.155
 21
-7.2287158616
 31
0.0
  0
LINE
  5
1D1
330
1F
100
AcDbEntity
  8
SK1
  6
Continuous
100
AcDbLine
 10
11.0656969024
 20
-7.9258921516
 30
0.0
 11
11.0656969024
 21
-7.4057221609
 31
0.0
  0
SPLINE
  5
1D2
330
1F
100
AcDbEntity
  8
SK3
100
AcDbSpline
210
0.0
220
0.0
230
1.0
 70
     8
 71
     3
 72
     8
 73
     4
 74
     0
 42
0.0000000400887352
 43
0.0000000001
 12
1.0
 22
0.0
 32
0.0
 13
1.0
 23
0.0
 33
0.0
 40
0.0
 40
0.0
 40
0.0
 40
0.0
 40
0.9999999999999999
 40
0.9999999999999999
 40
0.9999999999999999
 40
0.9999999999999999
 10
-19.26271694800166
 20
-6.648707666084664
 30
0.0
 10
-19.34517300496219
 20
-6.637996242032433
 30
0.0
 10
-19.42762905829638
 20
-6.627284794153009
 30
0.0
 10
-19.51008510795596
 20
-6.616573322129528
 30
0.0
  0
LINE
  5
1D3
330
1F
100
AcDbEntity
  8
SK3
100
AcDbLine
 10
6.6344228634
 20
-9.4952332899
 30
0.0
 11
6.355
 21
-9.3461529209
 31
0.0
  0
LINE
  5
1D4
330
1F
100
AcDbEntity
  8
SK3
100
AcDbLine
 10
10.755
 20
-0.7470973501
 30
0.0
 11
-2.7837505004
 21
-0.7470973501
 31
0.0
  0
ARC
  5
1D5
330
1F
100
AcDbEntity
  8
SK3
100
AcDbCircle
 10
-2.7784188808
 20
-5.9966798696
 30
0.0
 40
5.249585226984228
100
AcDbArc
 50
90.0581911404
 51
107.3627281612
  0
LINE
  5
1D6
330
1F
100
AcDbEntity
  8
SK3
100
AcDbLine
 10
-13.711185599
 20
-4.2383614944
 30
0.0
 11
-15.3857095391
 21
-4.2383614944
 31
0.0
  0
LINE
  5
1D7
330
1F
100
AcDbEntity
  8
SK3
100
AcDbLine
 10
10.755
 20
-0.5748898055
 30
0.0
 11
-2.7837505004
 21
-0.5748898055
 31
0.0
  0
ARC
  5
1D8
330
1F
100
AcDbEntity
  8
SK3
100
AcDbCircle
 10
-2.7784188808
 20
-5.824472325
 30
0.0
 40
5.249585226984149
100
AcDbArc
 50
90.0581911404
 51
107.3627281612
  0
LINE
  5
1D9
330
1F
100
AcDbEntity
  8
SK3
100
AcDbLine
 10
-13.711185599
 20
-4.0661539498
 30
0.0
 11
-15.3857095391
 21
-4.0661539498
 31
0.0
  0
SPLINE
  5
1DA
330
1F
100
AcDbEntity
  8
SK3
100
AcDbSpline
210
0.0
220
0.0
230
1.0
 70
     8
 71
     3
 72
     8
 73
     4
 74
     0
 42
0.0000000400887351
 43
0.0000000001
 12
1.0
 22
0.0
 32
0.0
 13
1.0
 23
0.0
 33
0.0
 40
0.0
 40
0.0
 40
0.0
 40
0.0
 40
1.0
 40
1.0
 40
1.0
 40
1.0
 10
-19.26271694782689
 20
-6.820915210671658
 30
0.0
 10
-19.34517300484763
 20
-6.810203786611607
 30
0.0
 10
-19.42762905824202
 20
-6.799492338724361
 30
0.0
 10
-19.51008510796181
 20
-6.78878086669306
 30
0.0
  0
LINE
  5
1DB
330
1F
100
AcDbEntity
  8
SK3
100
AcDbLine
 10
6.6344228634
 20
-9.6674408345
 30
0.0
 11
6.355
 21
-9.5183604655
 31
0.0
  0
SPLINE
  5
1DC
330
1F
100
AcDbEntity
  8
SK3
100
AcDbSpline
210
0.0
220
0.0
230
1.0
 70
     8
 71
     3
 72
    38
 73
    34
 74
     0
 42
0.0000000103949782
 43
0.0000000001
 12
1.0
 22
0.0
 32
0.0
 13
1.0
 23
0.0
 33
0.0
 40
0.0
 40
0.0
 40
0.0
 40
0.0
 40
0.2579394040394634
 40
0.2579394040394634
 40
0.2579394040394634
 40
0.3319982464578716
 40
0.3319982464578716
 40
0.3319982464578716
 40
0.4067618345092595
 40
0.4067618345092595
 40
0.4067618345092595
 40
0.4489905038723019
 40
0.4489905038723019
 40
0.4489905038723019
 40
0.4919249167852047
 40
0.4919249167852047
 40
0.4919249167852047
 40
0.4999463829133324
 40
0.4999463829133324
 40
0.4999463829133324
 40
0.5354119851385316
 40
0.5354119851385316
 40
0.5354119851385316
 40
0.579182560560517
 40
0.579182560560517
 40
0.579182560560517
 40
0.64795911118599
 40
0.64795911118599
 40
0.64795911118599
 40
0.7772686085630222
 40
0.7772686085630222
 40
0.7772686085630222
 40
1.0
 40
1.0
 40
1.0
 40
1.0
 10
-15.38570953909799
 20
-4.2383614943615
 30
0.0
 10
-15.47979435001382
 20
-4.2383614943615
 30
0.0
 10
-15.57601336695672
 20
-4.233923825463908
 30
0.0
 10
-15.66409948624506
 20
-4.222494747932098
 30
0.0
 10
-15.68978699733453
 20
-4.219161821493599
 30
0.0
 10
-15.71493518668657
 20
-4.215166570485615
 30
0.0
 10
-15.73858188281611
 20
-4.210254330943456
 30
0.0
 10
-15.76235273743023
 20
-4.205316299374617
 30
0.0
 10
-15.78505848056217
 20
-4.199371649392136
 30
0.0
 10
-15.80384737807222
 20
-4.192030512775306
 30
0.0
 10
-15.8145083577909
 20
-4.187865089628889
 30
0.0
 10
-15.82402354140707
 20
-4.183171384970118
 30
0.0
 10
-15.83118542812193
 20
-4.178002499262483
 30
0.0
 10
-15.83841604453782
 20
-4.172784009870314
 30
0.0
 10
-15.84332082775608
 20
-4.166901273989686
 30
0.0
 10
-15.84462594181161
 20
-4.160904810055444
 30
0.0
 10
-15.84487477264432
 20
-4.15976153441007
 30
0.0
 10
-15.84500000000001
 20
-4.158610579291132
 30
0.0
 10
-15.84500000000001
 20
-4.157457796530077
 30
0.0
 10
-15.845
 20
-4.152436451365997
 30
0.0
 10
-15.84251538334527
 20
-4.147297011428115
 30
0.0
 10
-15.83806352394261
 20
-4.142475492361598
 30
0.0
 10
-15.83257303843457
 20
-4.136529104983428
 30
0.0
 10
-15.82403499845539
 20
-4.130889371523837
 30
0.0
 10
-15.81397298275985
 20
-4.12582947628717
 30
0.0
 10
-15.79820541951472
 20
-4.117900427021899
 30
0.0
 10
-15.77837000701615
 20
-4.111091671804627
 30
0.0
 10
-15.75734486676997
 20
-4.105285029661189
 30
0.0
 10
-15.71797662356523
 20
-4.094412460088328
 30
0.0
 10
-15.67317544908284
 20
-4.086550568628391
 30
0.0
 10
-15.62777187411999
 20
-4.080692653164605
 30
0.0
 10
-15.54985088654571
 20
-4.0706393796407
 30
0.0
 10
-15.46719888801959
 20
-4.066153949797208
 30
0.0
 10
-15.38570953909799
 20
-4.066153949797208
 30
0.0
  0
SPLINE
  5
1DD
330
1F
100
AcDbEntity
  8
SK3
100
AcDbSpline
210
0.0
220
0.0
230
1.0
 70
     8
 71
     3
 72
    35
 73
    31
 74
     0
 42
0.000000014604595
 43
0.0000000001
 12
1.0
 22
0.0
 32
0.0
 13
1.0
 23
0.0
 33
0.0
 40
0.0
 40
0.0
 40
0.0
 40
0.0
 40
0.1687481434728167
 40
0.1687481434728167
 40
0.1687481434728167
 40
0.2901425871925716
 40
0.2901425871925716
 40
0.2901425871925716
 40
0.3790530843558643
 40
0.3790530843558643
 40
0.3790530843558643
 40
0.4497796308354252
 40
0.4497796308354252
 40
0.4497796308354252
 40
0.5000653733329786
 40
0.5000653733329786
 40
0.5000653733329786
 40
0.57049665058662
 40
0.57049665058662
 40
0.57049665058662
 40
0.6403402941099217
 40
0.6403402941099217
 40
0.6403402941099217
 40
0.7394740738359751
 40
0.7394740738359751
 40
0.7394740738359751
 40
0.8767565619906216
 40
0.8767565619906216
 40
0.8767565619906216
 40
1.0
 40
1.0
 40
1.0
 40
1.0
 10
-19.51008510795596
 20
-6.616573322129528
 30
0.0
 10
-19.55727132345811
 20
-6.610443585998682
 30
0.0
 10
-19.60526108019455
 20
-6.607441053809602
 30
0.0
 10
-19.64975155980627
 20
-6.608213834820627
 30
0.0
 10
-19.68189753692287
 20
-6.608772196989642
 30
0.0
 10
-19.7129947516594
 20
-6.611326130432521
 30
0.0
 10
-19.7400393790034
 20
-6.616275189197917
 30
0.0
 10
-19.7598938072123
 20
-6.619908470245177
 30
0.0
 10
-19.77796250379842
 20
-6.624934405574535
 30
0.0
 10
-19.79205842405555
 20
-6.631367311310843
 30
0.0
 10
-19.80328575682853
 20
-6.636491089828406
 30
0.0
 10
-19.81219135964351
 20
-6.642641727542184
 30
0.0
 10
-19.81747287270181
 20
-6.649492791821619
 30
0.0
 10
-19.82124968581104
 20
-6.654391991936649
 30
0.0
 10
-19.82324074796387
 20
-6.659729490561162
 30
0.0
 10
-19.82324074796387
 20
-6.665238738294466
 30
0.0
 10
-19.82324074796387
 20
-6.672891069473621
 30
0.0
 10
-19.81931919792619
 20
-6.681081620492282
 30
0.0
 10
-19.81220540787413
 20
-6.689008777779947
 30
0.0
 10
-19.80512544708348
 20
-6.696898237880305
 30
0.0
 10
-19.79478501742678
 20
-6.704740180507671
 30
0.0
 10
-19.78247401540717
 20
-6.712075142377578
 30
0.0
 10
-19.76506870583475
 20
-6.722445320356951
 30
0.0
 10
-19.74330731415441
 20
-6.732111323502384
 30
0.0
 10
-19.71984214227574
 20
-6.74066765624831
 30
0.0
 10
-19.68743811579378
 20
-6.752483450069089
 30
0.0
 10
-19.65079315641262
 20
-6.762602937995385
 30
0.0
 10
-19.61344117154817
 20
-6.770824783746506
 30
0.0
 10
-19.57976366551416
 20
-6.778237810414268
 30
0.0
 10
-19.54477655867079
 20
-6.784274265839995
 30
0.0
 10
-19.51008510796181
 20
-6.78878086669306
 30
0.0
  0
SPLINE
  5
1DE
330
1F
100
AcDbEntity
  8
SK3
100
AcDbSpline
210
0.0
220
0.0
230
1.0
 70
     8
 71
     3
 72
    38
 73
    34
 74
     0
 42
0.0000000070709922
 43
0.0000000001
 12
1.0
 22
0.0
 32
0.0
 13
1.0
 23
0.0
 33
0.0
 40
0.0
 40
0.0
 40
0.0
 40
0.0
 40
0.3227858640409743
 40
0.3227858640409743
 40
0.3227858640409743
 40
0.3784022162694723
 40
0.3784022162694723
 40
0.3784022162694723
 40
0.453013574292274
 40
0.453013574292274
 40
0.453013574292274
 40
0.4766143533589459
 40
0.4766143533589459
 40
0.4766143533589459
 40
0.4966578940704972
 40
0.4966578940704972
 40
0.4966578940704972
 40
0.5011392670099459
 40
0.5011392670099459
 40
0.5011392670099459
 40
0.5220781185843935
 40
0.5220781185843935
 40
0.5220781185843935
 40
0.5482141331188017
 40
0.5482141331188017
 40
0.5482141331188017
 40
0.5927779492058372
 40
0.5927779492058372
 40
0.5927779492058372
 40
0.7148331951614183
 40
0.7148331951614183
 40
0.7148331951614183
 40
1.0
 40
1.0
 40
1.0
 40
1.0
 10
-13.71118559898555
 20
-1.927794299324397
 30
0.0
 10
-13.86282212824746
 20
-1.927794299324397
 30
0.0
 10
-14.01842970142117
 20
-1.913877680588956
 30
0.0
 10
-14.16118559898555
 20
-1.867356757358933
 30
0.0
 10
-14.18621875893371
 20
-1.859199015843362
 30
0.0
 10
-14.21087424972538
 20
-1.849831787393244
 30
0.0
 10
-14.23446970039942
 20
-1.838641909138178
 30
0.0
 10
-14.26578589524636
 20
-1.823790554417726
 30
0.0
 10
-14.29670462620912
 20
-1.805505373619162
 30
0.0
 10
-14.31922827320289
 20
-1.780553694900251
 30
0.0
 10
-14.32649497427372
 20
-1.772503649074386
 30
0.0
 10
-14.33288193827341
 20
-1.763589278097945
 30
0.0
 10
-14.33745619093276
 20
-1.753987344022516
 30
0.0
 10
-14.34133488611681
 20
-1.745845472939013
 30
0.0
 10
-14.34393875787434
 20
-1.737019695971191
 30
0.0
 10
-14.34473020542881
 20
-1.72813549144098
 30
0.0
 10
-14.34490965253481
 20
-1.726121151030046
 30
0.0
 10
-14.34499999999999
 20
-1.724097712584765
 30
0.0
 10
-14.34499999999999
 20
-1.722075345872201
 30
0.0
 10
-14.34499999999999
 20
-1.71277876065858
 30
0.0
 10
-14.34299278724658
 20
-1.703350140809313
 30
0.0
 10
-14.33945872546161
 20
-1.694622189818223
 30
0.0
 10
-14.33504698079849
 20
-1.683726655572412
 30
0.0
 10
-14.32823456754396
 20
-1.673569474709564
 30
0.0
 10
-14.32032777315566
 20
-1.664500820596525
 30
0.0
 10
-14.30688366809861
 20
-1.649081178623491
 30
0.0
 10
-14.29001908235499
 20
-1.636149014938422
 30
0.0
 10
-14.27232405803075
 20
-1.624994452822373
 30
0.0
 10
-14.22427171635877
 20
-1.594703291862093
 30
0.0
 10
-14.16848595092527
 20
-1.575210267952525
 30
0.0
 10
-14.1127954311143
 20
-1.560006199977169
 30
0.0
 10
-13.98322616796037
 20
-1.524632497393755
 30
0.0
 10
-13.84613156348133
 20
-1.51204850969432
 30
0.0
 10
-13.71118559898555
 20
-1.512048509694319
 30
0.0
  0
SPLINE
  5
1DF
330
1F
100
AcDbEntity
  8
SK3
100
AcDbSpline
210
0.0
220
0.0
230
1.0
 70
     8
 71
     3
 72
    35
 73
    31
 74
     0
 42
0.0000000110712833
 43
0.0000000001
 12
1.0
 22
0.0
 32
0.0
 13
1.0
 23
0.0
 33
0.0
 40
0.0
 40
0.0
 40
0.0
 40
0.0
 40
0.2006219603256756
 40
0.2006219603256756
 40
0.2006219603256756
 40
0.3107708642184346
 40
0.3107708642184346
 40
0.3107708642184346
 40
0.3928348904864803
 40
0.3928348904864803
 40
0.3928348904864803
 40
0.4526422908102644
 40
0.4526422908102644
 40
0.4526422908102644
 40
0.5000398423480572
 40
0.5000398423480572
 40
0.5000398423480572
 40
0.5606003798593624
 40
0.5606003798593624
 40
0.5606003798593624
 40
0.6204650973910467
 40
0.6204650973910467
 40
0.6204650973910467
 40
0.7121478092765973
 40
0.7121478092765973
 40
0.7121478092765973
 40
0.85460173252098
 40
0.85460173252098
 40
0.85460173252098
 40
1.0
 40
1.0
 40
1.0
 40
1.0
 10
-19.39586006774744
 20
-2.574613075888994
 30
0.0
 10
-19.4566363815717
 20
-2.571342800070784
 30
0.0
 10
-19.51860753262014
 20
-2.577290864343961
 30
0.0
 10
-19.57566453479546
 20
-2.594163215219625
 30
0.0
 10
-19.60726680315719
 20
-2.603508335712069
 30
0.0
 10
-19.63795523077129
 20
-2.616426139823921
 30
0.0
 10
-19.66516934203792
 20
-2.633670042683991
 30
0.0
 10
-19.68545213462254
 20
-2.646521996643957
 30
0.0
 10
-19.70418653986215
 20
-2.662091098954923
 30
0.0
 10
-19.71896145935762
 20
-2.680337925114142
 30
0.0
 10
-19.72975094717217
 20
-2.693662796938965
 30
0.0
 10
-19.73859627920958
 20
-2.7087357824789
 30
0.0
 10
-19.74413527790334
 20
-2.724775808306303
 30
0.0
 10
-19.74853713634197
 20
-2.73752286367636
 30
0.0
 10
-19.75091269905178
 20
-2.751138320817539
 30
0.0
 10
-19.75091269905178
 20
-2.764722217480097
 30
0.0
 10
-19.75091269905178
 20
-2.78195429032424
 30
0.0
 10
-19.74702129757167
 20
-2.799626340155707
 30
0.0
 10
-19.74010114930456
 20
-2.815931520663994
 30
0.0
 10
-19.73322668414378
 20
-2.832129063117981
 30
0.0
 10
-19.72329110435115
 20
-2.847465929710348
 30
0.0
 10
-19.71163954110527
 20
-2.86125884047116
 30
0.0
 10
-19.69387100195381
 20
-2.882292917160642
 30
0.0
 10
-19.67171189563297
 20
-2.900418327987013
 30
0.0
 10
-19.64804980976831
 20
-2.915562079293463
 30
0.0
 10
-19.61141263171018
 20
-2.939009898570923
 30
0.0
 10
-19.57001690409788
 20
-2.956255904145271
 30
0.0
 10
-19.52798327684452
 20
-2.968345683811847
 30
0.0
 10
-19.48495649928094
 20
-2.980721114972497
 30
0.0
 10
-19.44020795228735
 20
-2.987972577090668
 30
0.0
 10
-19.39586006774744
 20
-2.990358865519071
 30
0.0
  0
LINE
  5
1E0
330
1F
100
AcDbEntity
  8
SK3
100
AcDbLine
 10
-1.3546189432
 20
1.8306320596
 30
0.0
 11
11.155
 21
1.8306320596
 31
0.0
  0
ARC
  5
1E1
330
1F
100
AcDbEntity
  8
SK3
100
AcDbCircle
 10
-1.3578855012
 20
39.5422597186
 30
0.0
 40
37.71162780046272
100
AcDbArc
 50
265.4567116267
 51
270.0049629252
  0
ARC
  5
1E2
330
1F
100
AcDbEntity
  8
SK3
100
AcDbCircle
 10
-3.4704308735
 20
56.8433807051
 30
0.0
 40
56.62067731324155
100
AcDbArc
 50
253.3930476699
 51
257.6522906518
  0
ARC
  5
1E3
330
1F
100
AcDbEntity
  8
SK3
100
AcDbCircle
 10
-1.8960657635
 20
37.9356930963
 30
0.0
 40
36.01318479226379
100
AcDbArc
 50
240.3185757484
 51
249.8581225594
  0
ARC
  5
1E4
330
1F
100
AcDbEntity
  8
SK3
100
AcDbCircle
 10
-9.5424732706
 20
38.6206546561
 30
0.0
 40
35.0
100
AcDbArc
 50
278.4433353129
 51
302.2903591876
  0
ARC
  5
1E5
330
1F
100
AcDbEntity
  8
SK3
100
AcDbCircle
 10
-8.8744974937
 20
47.3241062119
 30
0.0
 40
44.78450850285561
100
AcDbArc
 50
275.6904817187
 51
293.6644547359
  0
ARC
  5
1E6
330
1F
100
AcDbEntity
  8
SK3
100
AcDbCircle
 10
-8.8788980123
 20
-47.3334677939
 30
0.0
 40
44.79459450185571
100
AcDbArc
 50
66.3359950799
 51
84.3052994745
  0
ARC
  5
1E7
330
1F
100
AcDbEntity
  8
SK3
100
AcDbCircle
 10
-9.5424732706
 20
-38.6206544566
 30
0.0
 40
35.0
100
AcDbArc
 50
57.7096493794
 51
81.5567681796
  0
ARC
  5
1E8
330
1F
100
AcDbEntity
  8
SK3
100
AcDbCircle
 10
10.755
 20
1.1500000998
 30
0.0
 40
0.4000000000000014
100
AcDbArc
 50
270.0
 51
0.0
  0
ARC
  5
1E9
330
1F
100
AcDbEntity
  8
SK3
100
AcDbCircle
 10
-2.7837505004
 20
5.7500000998
 30
0.0
 40
5.0
100
AcDbArc
 50
251.8051276612
 51
270.0
  0
LINE
  5
1EA
330
1F
100
AcDbEntity
  8
SK3
100
AcDbLine
 10
10.755
 20
0.7500000998
 30
0.0
 11
-2.7837505004
 21
0.7500000998
 31
0.0
  0
LINE
  5
1EB
330
1F
100
AcDbEntity
  8
SK1
  6
Continuous
100
AcDbLine
 10
11.0656969024
 20
7.9258923511
 30
0.0
 11
11.0489418513
 21
7.9399515084
 31
0.0
  0
ARC
  5
1EC
330
1F
100
AcDbEntity
  8
SK1
  6
Continuous
100
AcDbCircle
 10
10.905
 20
7.7343812404
 30
0.0
 40
0.2499999999999999
100
AcDbArc
 50
0.0
 51
50.0
  0
ARC
  5
1ED
330
1F
100
AcDbEntity
  8
SK3
100
AcDbCircle
 10
-5.145
 20
3.7000000998
 30
0.0
 40
0.7999999999999986
100
AcDbArc
 50
0.0
 51
22.007367562
  0
LINE
  5
1EE
330
1F
100
AcDbEntity
  8
SK1
  6
Continuous
100
AcDbLine
 10
11.0489418513
 20
7.9399515084
 30
0.0
 11
9.155
 21
9.033419346
 31
0.0
  0
LINE
  5
1EF
330
1F
100
AcDbEntity
  8
SK3
100
AcDbLine
 10
-1.3546189432
 20
0.6264707368
 30
0.0
 11
11.155
 21
0.6264707368
 31
0.0
  0
ARC
  5
1F0
330
1F
100
AcDbEntity
  8
SK3
100
AcDbCircle
 10
-1.3585967179
 20
91.2320082236
 30
0.0
 40
90.60553757409406
100
AcDbArc
 50
268.1111189345
 51
270.0025154058
  0
ARC
  5
1F1
330
1F
100
AcDbEntity
  8
SK3
100
AcDbCircle
 10
0.7635427057
 20
34.9021201329
 30
0.0
 40
34.95556697405542
100
AcDbArc
 50
233.9526451704
 51
241.6855989737
  0
ARC
  5
1F2
330
1F
100
AcDbEntity
  8
SK3
100
AcDbCircle
 10
-3.9598126257
 20
69.6414782041
 30
0.0
 40
68.84231461934823
100
AcDbArc
 50
256.9126466184
 51
261.6443385527
  0
LINE
  5
1F3
330
1F
100
AcDbEntity
  8
SK3
100
AcDbLine
 10
11.155
 20
-1.8306318601
 30
0.0
 11
-1.3546189432
 21
-1.8306318601
 31
0.0
  0
ARC
  5
1F4
330
1F
100
AcDbEntity
  8
SK3
100
AcDbCircle
 10
-1.3550902811
 20
-39.6579969134
 30
0.0
 40
37.82736505626973
100
AcDbArc
 50
89.9992860811
 51
94.5336295507
  0
ARC
  5
1F5
330
1F
100
AcDbEntity
  8
SK3
100
AcDbCircle
 10
-3.4685846621
 20
-56.8223976528
 30
0.0
 40
56.60085952257683
100
AcDbArc
 50
102.3549968637
 51
106.6142360313
  0
ARC
  5
1F6
330
1F
100
AcDbEntity
  8
SK3
100
AcDbCircle
 10
-1.9137179754
 20
-37.9010144638
 30
0.0
 40
35.97428874996158
100
AcDbArc
 50
110.1342567311
 51
119.684337662
  0
ARC
  5
1F7
330
1F
100
AcDbEntity
  8
SK3
100
AcDbCircle
 10
10.755
 20
-1.1499999002
 30
0.0
 40
0.4
100
AcDbArc
 50
0.0
 51
90.0
  0
ARC
  5
1F8
330
1F
100
AcDbEntity
  8
SK3
100
AcDbCircle
 10
-2.7837505004
 20
-5.7499999002
 30
0.0
 40
5.000000000000001
100
AcDbArc
 50
90.0
 51
108.1948723388
  0
LINE
  5
1F9
330
1F
100
AcDbEntity
  8
SK3
100
AcDbLine
 10
-2.7837505004
 20
-0.7499999002
 30
0.0
 11
10.755
 21
-0.7499999002
 31
0.0
  0
LINE
  5
1FA
330
1F
100
AcDbEntity
  8
SK1
  6
Continuous
100
AcDbLine
 10
11.0489418513
 20
-7.9399513088
 30
0.0
 11
11.0656969024
 21
-7.9258921516
 31
0.0
  0
ARC
  5
1FB
330
1F
100
AcDbEntity
  8
SK1
  6
Continuous
100
AcDbCircle
 10
10.905
 20
-7.7343810408
 30
0.0
 40
0.25
100
AcDbArc
 50
310.0
 51
0.0
  0
ARC
  5
1FC
330
1F
100
AcDbEntity
  8
SK3
100
AcDbCircle
 10
-5.145
 20
-3.6999999002
 30
0.0
 40
0.7999999999999999
100
AcDbArc
 50
337.960649266
 51
0.0
  0
LINE
  5
1FD
330
1F
100
AcDbEntity
  8
SK1
  6
Continuous
100
AcDbLine
 10
9.155
 20
-9.0334191465
 30
0.0
 11
11.0489418513
 21
-7.9399513088
 31
0.0
  0
LINE
  5
1FE
330
1F
100
AcDbEntity
  8
SK3
100
AcDbLine
 10
11.155
 20
-0.6264705372
 30
0.0
 11
-1.3546189432
 21
-0.6264705372
 31
0.0
  0
ARC
  5
1FF
330
1F
100
AcDbEntity
  8
SK3
100
AcDbCircle
 10
-1.3565338843
 20
-91.4354945853
 30
0.0
 40
90.80902406823475
100
AcDbArc
 50
89.9987917716
 51
91.8859527979
  0
ARC
  5
200
330
1F
100
AcDbEntity
  8
SK3
100
AcDbCircle
 10
0.8831918722
 20
-35.071131471
 30
0.0
 40
35.16247764437802
100
AcDbArc
 50
118.3558576175
 51
126.0428800817
  0
ARC
  5
201
330
1F
100
AcDbEntity
  8
SK3
100
AcDbCircle
 10
-3.9586673342
 20
-69.6442702566
 30
0.0
 40
68.84527138425852
100
AcDbArc
 50
98.3566252748
 51
103.0876940268
  0
LINE
  5
202
330
1F
100
AcDbEntity
  8
SK1
  6
Continuous
100
AcDbLine
 10
0.0
 20
9.9978460254
 30
0.0
 11
0.0
 21
-9.9978458258
 31
0.0
  0
LINE
  5
204
330
1F
100
AcDbEntity
  8
SK4
  6
Continuous
100
AcDbLine
 10
11.155
 20
0.0000000998
 30
0.0
 11
-20.345
 21
0.0000000998
 31
0.0
  0
DIMENSION
  5
219
330
1F
100
AcDbEntity
  8
SK2
  6
Continuous
 62
   136
100
AcDbDimension
  2
DMBLK1
 10
19.4681122127
 20
0.7500000998
 30
0.0
 11
19.4681122127
 21
5.0680078334
 31
0.0
 70
   161
  1
\A1;ø <>
 71
     5
 42
-1.0
  3
DIN
100
AcDbAlignedDimension
 13
10.755
 23
0.7500000998
 33
0.0
 14
10.755
 24
-0.7499999002
 34
0.0
  0
DIMENSION
  5
224
330
1F
100
AcDbEntity
  8
SK2
  6
Continuous
 62
   136
100
AcDbDimension
  2
DMBLK2
 10
11.155
 20
-17.423301668
 30
0.0
 11
5.5774999782
 21
-17.423301668
 31
0.0
 70
   160
  1
\A1;<>
 71
     5
 42
-1.0
  3
DIN
100
AcDbAlignedDimension
 13
0.0
 23
-9.9978458258
 33
0.0
 14
11.155
 24
-7.0565083171
 34
0.0
100
AcDbRotatedDimension
  0
DIMENSION
  5
22E
330
1F
100
AcDbEntity
  8
SK2
  6
Continuous
 62
   136
100
AcDbDimension
  2
DMBLK3
 10
-25.9815379977
 20
9.9978460254
 30
0.0
 11
-25.9815379977
 21
0.000000398
 31
0.0
 70
   161
  1
\A1;ø <>
 71
     5
 42
-1.0
  3
DIN
100
AcDbAlignedDimension
 13
0.0
 23
9.9978460254
 33
0.0
 14
0.0
 24
-9.9978458258
 34
0.0
  0
DIMENSION
  5
239
330
1F
100
AcDbEntity
  8
SK2
  6
Continuous
 62
   136
100
AcDbDimension
  2
DMBLK4
 10
11.155
 20
15.7466241269
 30
0.0
 11
-4.5949997467
 21
15.7466241269
 31
0.0
 70
   160
  1
\A1;<>
 71
     5
 42
-1.0
  3
DIN
100
AcDbAlignedDimension
 13
-20.345
 23
5.021595314
 33
0.0
 14
11.155
 24
7.4815486508
 34
0.0
100
AcDbRotatedDimension
  0
ENDSEC
  0
SECTION
  2
OBJECTS
  0
DICTIONARY
  5
C
330
0
100
AcDbDictionary
281
     1
  3
ACAD_GROUP
350
D
  3
ACAD_LAYOUT
350
1A
  3
ACAD_MATERIAL
350
3B
  3
ACAD_MLEADERSTYLE
350
245
  3
ACAD_MLINESTYLE
350
17
  3
ACAD_PLOTSETTINGS
350
19
  3
ACAD_PLOTSTYLENAME
350
E
  3
ACAD_VISUALSTYLE
350
2A
  3
AcDbVariableDictionary
350
243
  0
DICTIONARY
  5
D
102
{ACAD_REACTORS
330
C
102
}
330
C
100
AcDbDictionary
281
     1
  0
DICTIONARY
  5
1A
102
{ACAD_REACTORS
330
C
102
}
330
C
100
AcDbDictionary
281
     1
  3
Layout1
350
1E
  3
Model
350
22
  0
DICTIONARY
  5
3B
102
{ACAD_REACTORS
330
C
102
}
330
C
100
AcDbDictionary
281
     1
  3
ByBlock
350
3D
  3
ByLayer
350
3C
  3
Global
350
3E
  0
DICTIONARY
  5
245
102
{ACAD_REACTORS
330
C
102
}
330
C
100
AcDbDictionary
281
     1
  0
DICTIONARY
  5
17
102
{ACAD_REACTORS
330
C
102
}
330
C
100
AcDbDictionary
281
     1
  3
Standard
350
18
  0
DICTIONARY
  5
19
102
{ACAD_REACTORS
330
C
102
}
330
C
100
AcDbDictionary
281
     1
  0
ACDBDICTIONARYWDFLT
  5
E
102
{ACAD_REACTORS
330
C
102
}
330
C
100
AcDbDictionary
281
     1
  3
Normal
350
F
100
AcDbDictionaryWithDefault
340
F
  0
DICTIONARY
  5
2A
102
{ACAD_REACTORS
330
C
102
}
330
C
100
AcDbDictionary
281
     1
  3
2dWireframe
350
2F
  3
3D Hidden
350
31
  3
3dWireframe
350
30
  3
Basic
350
32
  3
Brighten
350
36
  3
ColorChange
350
3A
  3
Conceptual
350
34
  3
Dim
350
35
  3
Facepattern
350
39
  3
Flat
350
2B
  3
FlatWithEdges
350
2C
  3
Gouraud
350
2D
  3
GouraudWithEdges
350
2E
  3
Linepattern
350
38
  3
Realistic
350
33
  3
Thicken
350
37
  0
DICTIONARY
  5
243
102
{ACAD_REACTORS
330
C
102
}
330
C
100
AcDbDictionary
281
     1
  3
DIMASSOC
350
248
  3
HIDETEXT
350
249
  3
PSOLHEIGHT
350
247
  3
PSOLWIDTH
350
246
  0
LAYOUT
  5
1E
102
{ACAD_REACTORS
330
1A
102
}
330
1A
100
AcDbPlotSettings
  1

  2
none_device
  4

  6

 40
0.0
 41
0.0
 42
0.0
 43
0.0
 44
0.0
 45
0.0
 46
0.0
 47
0.0
 48
0.0
 49
0.0
140
0.0
141
0.0
142
1.0
143
1.0
 70
   688
 72
     0
 73
     0
 74
     5
  7

 75
    16
147
1.0
148
0.0
149
0.0
100
AcDbLayout
  1
Layout1
 70
     1
 71
     1
 10
0.0
 20
0.0
 11
210.0
 21
297.0
 12
0.0
 22
0.0
 32
0.0
 14
0.0
 24
0.0
 34
0.0
 15
210.0
 25
297.0
 35
0.0
146
0.0
 13
0.0
 23
0.0
 33
0.0
 16
1.0
 26
0.0
 36
0.0
 17
0.0
 27
1.0
 37
0.0
 76
     0
330
1B
  0
LAYOUT
  5
22
102
{ACAD_REACTORS
330
1A
102
}
330
1A
100
AcDbPlotSettings
  1

  2
none_device
  4

  6

 40
0.0
 41
0.0
 42
0.0
 43
0.0
 44
0.0
 45
0.0
 46
0.0
 47
0.0
 48
0.0
 49
0.0
140
0.0
141
0.0
142
1.0
143
1.0
 70
  1712
 72
     0
 73
     0
 74
     0
  7

 75
     0
147
1.0
148
0.0
149
0.0
100
AcDbLayout
  1
Model
 70
     1
 71
     0
 10
0.0
 20
0.0
 11
210.0
 21
297.0
 12
0.0
 22
0.0
 32
0.0
 14
0.0
 24
0.0
 34
0.0
 15
210.0
 25
297.0
 35
0.0
146
0.0
 13
0.0
 23
0.0
 33
0.0
 16
1.0
 26
0.0
 36
0.0
 17
0.0
 27
1.0
 37
0.0
 76
     0
330
1F
331
29
  0
MATERIAL
  5
3D
102
{ACAD_REACTORS
330
3B
102
}
102
{ACAD_XDICTIONARY
360
26C
102
}
330
3B
100
AcDbMaterial
  1
ByBlock
  0
MATERIAL
  5
3C
102
{ACAD_REACTORS
330
3B
102
}
102
{ACAD_XDICTIONARY
360
26A
102
}
330
3B
100
AcDbMaterial
  1
ByLayer
  0
MATERIAL
  5
3E
102
{ACAD_REACTORS
330
3B
102
}
102
{ACAD_XDICTIONARY
360
26E
102
}
330
3B
100
AcDbMaterial
  1
Global
  0
MLINESTYLE
  5
18
102
{ACAD_REACTORS
330
17
102
}
330
17
100
AcDbMlineStyle
  2
Standard
 70
     0
  3

 62
   256
 51
90.0
 52
90.0
 71
     2
 49
0.5
 62
   256
  6
BYLAYER
 49
-0.5
 62
   256
  6
BYLAYER
  0
ACDBPLACEHOLDER
  5
F
102
{ACAD_REACTORS
330
E
102
}
330
E
  0
VISUALSTYLE
  5
2F
102
{ACAD_REACTORS
330
2A
102
}
102
{ACAD_XDICTIONARY
360
252
102
}
330
2A
100
AcDbVisualStyle
  2
2dWireframe
 70
     4
 71
     0
 72
     2
 73
     0
 90
        0
 40
-0.6
 41
-30.0
 62
     5
 63
     7
 74
     1
 91
        4
 64
     7
 65
   257
 75
     1
175
     1
 42
1.0
 92
        0
 66
   257
 43
1.0
 76
     1
 77
     6
 78
     2
 67
     7
 79
     5
170
     0
171
     0
290
     0
174
     0
 93
        1
 44
0.0
173
     0
291
     0
 45
0.0
1001
ACAD
1000
AcDbSavedByObjectVersion
1070
     0
  0
VISUALSTYLE
  5
31
102
{ACAD_REACTORS
330
2A
102
}
102
{ACAD_XDICTIONARY
360
256
102
}
330
2A
100
AcDbVisualStyle
  2
3D Hidden
 70
     6
 71
     1
 72
     2
 73
     2
 90
        0
 40
-0.6
 41
-30.0
 62
     5
 63
     7
 74
     2
 91
        2
 64
     7
 65
   257
 75
     2
175
     1
 42
40.0
 92
        0
 66
   257
 43
1.0
 76
     1
 77
     6
 78
     2
 67
     7
 79
     3
170
     0
171
     0
290
     0
174
     0
 93
        1
 44
0.0
173
     0
291
     0
 45
0.0
1001
ACAD
1000
AcDbSavedByObjectVersion
1070
     0
  0
VISUALSTYLE
  5
30
102
{ACAD_REACTORS
330
2A
102
}
102
{ACAD_XDICTIONARY
360
254
102
}
330
2A
100
AcDbVisualStyle
  2
3dWireframe
 70
     5
 71
     0
 72
     2
 73
     0
 90
        0
 40
-0.6
 41
-30.0
 62
     5
 63
     7
 74
     1
 91
        4
 64
     7
 65
   257
 75
     1
175
     1
 42
1.0
 92
        0
 66
   257
 43
1.0
 76
     1
 77
     6
 78
     2
 67
     7
 79
     5
170
     0
171
     0
290
     0
174
     0
 93
        1
 44
0.0
173
     0
291
     0
 45
0.0
1001
ACAD
1000
AcDbSavedByObjectVersion
1070
     0
  0
VISUALSTYLE
  5
32
102
{ACAD_REACTORS
330
2A
102
}
102
{ACAD_XDICTIONARY
360
258
102
}
330
2A
100
AcDbVisualStyle
  2
Basic
 70
     7
 71
     1
 72
     0
 73
     1
 90
        0
 40
-0.6
 41
-30.0
 62
     5
 63
     7
 74
     0
 91
        4
 64
     7
 65
   257
 75
     1
175
     1
 42
1.0
 92
        8
 66
     7
 43
1.0
 76
     1
 77
     6
 78
     2
 67
     7
 79
     5
170
     0
171
     0
290
     0
174
     0
 93
        1
 44
0.0
173
     0
291
     1
 45
0.0
1001
ACAD
1000
AcDbSavedByObjectVersion
1070
     0
  0
VISUALSTYLE
  5
36
102
{ACAD_REACTORS
330
2A
102
}
102
{ACAD_XDICTIONARY
360
260
102
}
330
2A
100
AcDbVisualStyle
  2
Brighten
 70
    12
 71
     2
 72
     2
 73
     0
 90
        0
 40
-0.6
 41
-30.0
 62
     5
 63
     7
 74
     1
 91
        4
 64
     7
 65
   257
 75
     1
175
     1
 42
1.0
 92
        8
 66
     7
 43
1.0
 76
     1
 77
     6
 78
     2
 67
     7
 79
     5
170
     0
171
     0
290
     0
174
     0
 93
        1
 44
50.0
173
     0
291
     1
 45
0.0
1001
ACAD
1000
AcDbSavedByObjectVersion
1070
     0
  0
VISUALSTYLE
  5
3A
102
{ACAD_REACTORS
330
2A
102
}
102
{ACAD_XDICTIONARY
360
268
102
}
330
2A
100
AcDbVisualStyle
  2
ColorChange
 70
    16
 71
     2
 72
     2
 73
     3
 90
        0
 40
-0.6
 41
-30.0
 62
     5
 63
     8
 74
     1
 91
        4
 64
     7
 65
   257
 75
     1
175
     1
 42
1.0
 92
        8
 66
     8
 43
1.0
 76
     1
 77
     6
 78
     2
 67
     7
 79
     5
170
     0
171
     0
290
     0
174
     0
 93
        1
 44
0.0
173
     0
291
     1
 45
0.0
1001
ACAD
1000
AcDbSavedByObjectVersion
1070
     0
  0
VISUALSTYLE
  5
34
102
{ACAD_REACTORS
330
2A
102
}
102
{ACAD_XDICTIONARY
360
25C
102
}
330
2A
100
AcDbVisualStyle
  2
Conceptual
 70
     9
 71
     3
 72
     2
 73
     0
 90
        0
 40
-0.6
 41
-30.0
 62
     5
 63
     7
 74
     2
 91
        2
 64
     7
 65
   257
 75
     1
175
     1
 42
40.0
 92
        8
 66
     7
 43
1.0
 76
     1
 77
     6
 78
     2
 67
     7
 79
     3
170
     0
171
     0
290
     0
174
     0
 93
        1
 44
0.0
173
     0
291
     0
 45
0.0
1001
ACAD
1000
AcDbSavedByObjectVersion
1070
     0
  0
VISUALSTYLE
  5
35
102
{ACAD_REACTORS
330
2A
102
}
102
{ACAD_XDICTIONARY
360
25E
102
}
330
2A
100
AcDbVisualStyle
  2
Dim
 70
    11
 71
     2
 72
     2
 73
     0
 90
        0
 40
-0.6
 41
-30.0
 62
     5
 63
     7
 74
     1
 91
        4
 64
     7
 65
   257
 75
     1
175
     1
 42
1.0
 92
        8
 66
     7
 43
1.0
 76
     1
 77
     6
 78
     2
 67
     7
 79
     5
170
     0
171
     0
290
     0
174
     0
 93
        1
 44
-50.0
173
     0
291
     1
 45
0.0
1001
ACAD
1000
AcDbSavedByObjectVersion
1070
     0
  0
VISUALSTYLE
  5
39
102
{ACAD_REACTORS
330
2A
102
}
102
{ACAD_XDICTIONARY
360
266
102
}
330
2A
100
AcDbVisualStyle
  2
Facepattern
 70
    15
 71
     2
 72
     2
 73
     0
 90
        0
 40
-0.6
 41
-30.0
 62
     5
 63
     7
 74
     1
 91
        4
 64
     7
 65
   257
 75
     1
175
     1
 42
1.0
 92
        8
 66
     7
 43
1.0
 76
     1
 77
     6
 78
     2
 67
     7
 79
     5
170
     0
171
     0
290
     0
174
     0
 93
        1
 44
0.0
173
     0
291
     1
 45
0.0
1001
ACAD
1000
AcDbSavedByObjectVersion
1070
     0
  0
VISUALSTYLE
  5
2B
102
{ACAD_REACTORS
330
2A
102
}
102
{ACAD_XDICTIONARY
360
24A
102
}
330
2A
100
AcDbVisualStyle
  2
Flat
 70
     0
 71
     2
 72
     1
 73
     1
 90
        2
 40
-0.6
 41
30.0
 62
     5
 63
     7
 74
     0
 91
        4
 64
     7
 65
   257
 75
     1
175
     1
 42
1.0
 92
        8
 66
     7
 43
1.0
 76
     1
 77
     6
 78
     2
 67
     7
 79
     5
170
     0
171
     0
290
     0
174
     0
 93
       13
 44
0.0
173
     0
291
     1
 45
0.0
1001
ACAD
1000
AcDbSavedByObjectVersion
1070
     0
  0
VISUALSTYLE
  5
2C
102
{ACAD_REACTORS
330
2A
102
}
102
{ACAD_XDICTIONARY
360
24C
102
}
330
2A
100
AcDbVisualStyle
  2
FlatWithEdges
 70
     1
 71
     2
 72
     1
 73
     1
 90
        2
 40
-0.6
 41
30.0
 62
     5
 63
     7
 74
     1
 91
        4
 64
     7
 65
   257
 75
     1
175
     1
 42
1.0
 92
        0
 66
   257
 43
1.0
 76
     1
 77
     6
 78
     2
 67
     7
 79
     5
170
     0
171
     0
290
     0
174
     0
 93
       13
 44
0.0
173
     0
291
     1
 45
0.0
1001
ACAD
1000
AcDbSavedByObjectVersion
1070
     0
  0
VISUALSTYLE
  5
2D
102
{ACAD_REACTORS
330
2A
102
}
102
{ACAD_XDICTIONARY
360
24E
102
}
330
2A
100
AcDbVisualStyle
  2
Gouraud
 70
     2
 71
     2
 72
     2
 73
     1
 90
        2
 40
-0.6
 41
30.0
 62
     5
 63
     7
 74
     0
 91
        4
 64
     7
 65
   257
 75
     1
175
     1
 42
1.0
 92
        0
 66
     7
 43
1.0
 76
     1
 77
     6
 78
     2
 67
     7
 79
     5
170
     0
171
     0
290
     0
174
     0
 93
       13
 44
0.0
173
     0
291
     1
 45
0.0
1001
ACAD
1000
AcDbSavedByObjectVersion
1070
     0
  0
VISUALSTYLE
  5
2E
102
{ACAD_REACTORS
330
2A
102
}
102
{ACAD_XDICTIONARY
360
250
102
}
330
2A
100
AcDbVisualStyle
  2
GouraudWithEdges
 70
     3
 71
     2
 72
     2
 73
     1
 90
        2
 40
-0.6
 41
30.0
 62
     5
 63
     7
 74
     1
 91
        4
 64
     7
 65
   257
 75
     1
175
     1
 42
1.0
 92
        0
 66
   257
 43
1.0
 76
     1
 77
     6
 78
     2
 67
     7
 79
     5
170
     0
171
     0
290
     0
174
     0
 93
       13
 44
0.0
173
     0
291
     1
 45
0.0
1001
ACAD
1000
AcDbSavedByObjectVersion
1070
     0
  0
VISUALSTYLE
  5
38
102
{ACAD_REACTORS
330
2A
102
}
102
{ACAD_XDICTIONARY
360
264
102
}
330
2A
100
AcDbVisualStyle
  2
Linepattern
 70
    14
 71
     2
 72
     2
 73
     0
 90
        0
 40
-0.6
 41
-30.0
 62
     5
 63
     7
 74
     1
 91
        4
 64
     7
 65
   257
 75
     7
175
     7
 42
1.0
 92
        8
 66
     7
 43
1.0
 76
     1
 77
     6
 78
     2
 67
     7
 79
     5
170
     0
171
     0
290
     0
174
     0
 93
        1
 44
0.0
173
     0
291
     1
 45
0.0
1001
ACAD
1000
AcDbSavedByObjectVersion
1070
     0
  0
VISUALSTYLE
  5
33
102
{ACAD_REACTORS
330
2A
102
}
102
{ACAD_XDICTIONARY
360
25A
102
}
330
2A
100
AcDbVisualStyle
  2
Realistic
 70
     8
 71
     2
 72
     2
 73
     0
 90
        0
 40
-0.6
 41
-30.0
 62
     5
 63
     7
 74
     1
 91
        0
 64
     7
 65
   257
 75
     1
175
     1
 42
1.0
 92
        8
 66
     8
 43
1.0
 76
     1
 77
     6
 78
     2
 67
     7
 79
     5
170
     0
171
     0
290
     0
174
     0
 93
       13
 44
0.0
173
     0
291
     0
 45
0.0
1001
ACAD
1000
AcDbSavedByObjectVersion
1070
     0
  0
VISUALSTYLE
  5
37
102
{ACAD_REACTORS
330
2A
102
}
102
{ACAD_XDICTIONARY
360
262
102
}
330
2A
100
AcDbVisualStyle
  2
Thicken
 70
    13
 71
     2
 72
     2
 73
     0
 90
        0
 40
-0.6
 41
-30.0
 62
     5
 63
     7
 74
     1
 91
        4
 64
     7
 65
   257
 75
     1
175
     1
 42
1.0
 92
       12
 66
     7
 43
1.0
 76
     1
 77
     6
 78
     2
 67
     7
 79
     5
170
     0
171
     0
290
     0
174
     0
 93
        1
 44
0.0
173
     0
291
     1
 45
0.0
1001
ACAD
1000
AcDbSavedByObjectVersion
1070
     0
  0
DICTIONARYVAR
  5
248
102
{ACAD_REACTORS
330
243
102
}
330
243
100
DictionaryVariables
280
     0
  1
2
  0
DICTIONARYVAR
  5
249
102
{ACAD_REACTORS
330
243
102
}
330
243
100
DictionaryVariables
280
     0
  1
1
  0
DICTIONARYVAR
  5
247
102
{ACAD_REACTORS
330
243
102
}
330
243
100
DictionaryVariables
280
     0
  1
80.000000
  0
DICTIONARYVAR
  5
246
102
{ACAD_REACTORS
330
243
102
}
330
243
100
DictionaryVariables
280
     0
  1
5.000000
  0
DICTIONARY
  5
26C
330
3D
100
AcDbDictionary
280
     1
281
     1
  3
ACAD_XREC_ROUNDTRIP
360
26D
  0
DICTIONARY
  5
26A
330
3C
100
AcDbDictionary
280
     1
281
     1
  3
ACAD_XREC_ROUNDTRIP
360
26B
  0
DICTIONARY
  5
26E
330
3E
100
AcDbDictionary
280
     1
281
     1
  3
ACAD_XREC_ROUNDTRIP
360
26F
  0
DICTIONARY
  5
252
330
2F
100
AcDbDictionary
280
     1
281
     1
  3
ACAD_XREC_ROUNDTRIP
360
253
  0
DICTIONARY
  5
256
330
31
100
AcDbDictionary
280
     1
281
     1
  3
ACAD_XREC_ROUNDTRIP
360
257
  0
DICTIONARY
  5
254
330
30
100
AcDbDictionary
280
     1
281
     1
  3
ACAD_XREC_ROUNDTRIP
360
255
  0
DICTIONARY
  5
258
330
32
100
AcDbDictionary
280
     1
281
     1
  3
ACAD_XREC_ROUNDTRIP
360
259
  0
DICTIONARY
  5
260
330
36
100
AcDbDictionary
280
     1
281
     1
  3
ACAD_XREC_ROUNDTRIP
360
261
  0
DICTIONARY
  5
268
330
3A
100
AcDbDictionary
280
     1
281
     1
  3
ACAD_XREC_ROUNDTRIP
360
269
  0
DICTIONARY
  5
25C
330
34
100
AcDbDictionary
280
     1
281
     1
  3
ACAD_XREC_ROUNDTRIP
360
25D
  0
DICTIONARY
  5
25E
330
35
100
AcDbDictionary
280
     1
281
     1
  3
ACAD_XREC_ROUNDTRIP
360
25F
  0
DICTIONARY
  5
266
330
39
100
AcDbDictionary
280
     1
281
     1
  3
ACAD_XREC_ROUNDTRIP
360
267
  0
DICTIONARY
  5
24A
330
2B
100
AcDbDictionary
280
     1
281
     1
  3
ACAD_XREC_ROUNDTRIP
360
24B
  0
DICTIONARY
  5
24C
330
2C
100
AcDbDictionary
280
     1
281
     1
  3
ACAD_XREC_ROUNDTRIP
360
24D
  0
DICTIONARY
  5
24E
330
2D
100
AcDbDictionary
280
     1
281
     1
  3
ACAD_XREC_ROUNDTRIP
360
24F
  0
DICTIONARY
  5
250
330
2E
100
AcDbDictionary
280
     1
281
     1
  3
ACAD_XREC_ROUNDTRIP
360
251
  0
DICTIONARY
  5
264
330
38
100
AcDbDictionary
280
     1
281
     1
  3
ACAD_XREC_ROUNDTRIP
360
265
  0
DICTIONARY
  5
25A
330
33
100
AcDbDictionary
280
     1
281
     1
  3
ACAD_XREC_ROUNDTRIP
360
25B
  0
DICTIONARY
  5
262
330
37
100
AcDbDictionary
280
     1
281
     1
  3
ACAD_XREC_ROUNDTRIP
360
263
  0
XRECORD
  5
26D
102
{ACAD_REACTORS
330
26C
102
}
330
26C
100
AcDbXrecord
280
     1
102
MATERIAL
148
0.0
149
0.0
149
0.0
 93
        0
 94
      127
282
     0
 72
     1
 77
     1
171
     1
175
     1
179
     1
273
     0
  0
XRECORD
  5
26B
102
{ACAD_REACTORS
330
26A
102
}
330
26A
100
AcDbXrecord
280
     1
102
MATERIAL
148
0.0
149
0.0
149
0.0
 93
        0
 94
      127
282
     0
 72
     1
 77
     1
171
     1
175
     1
179
     1
273
     0
  0
XRECORD
  5
26F
102
{ACAD_REACTORS
330
26E
102
}
330
26E
100
AcDbXrecord
280
     1
102
MATERIAL
148
0.0
149
0.0
149
0.0
 93
        0
 94
      127
282
     0
 72
     1
 77
     1
171
     1
175
     1
179
     1
273
     0
  0
XRECORD
  5
253
102
{ACAD_REACTORS
330
252
102
}
330
252
100
AcDbXrecord
280
     1
102
RTVSPropertyOp0
 70
     1
102
RTVSPropertyOp1
 70
     1
102
RTVSPropertyOp2
 70
     1
102
RTVSPropertyOp3
 70
     1
102
RTVSPropertyOp4
 70
     1
102
RTVSPropertyOp5
 70
     1
102
RTVSPropertyOp6
 70
     1
102
RTVSPropertyOp7
 70
     1
102
RTVSPropertyOp8
 70
     1
102
RTVSPropertyOp9
 70
     1
102
RTVSPropertyOp10
 70
     1
102
RTVSPropertyOp11
 70
     1
102
RTVSPropertyOp12
 70
     1
102
RTVSPropertyOp13
 70
     1
102
RTVSPropertyOp14
 70
     1
102
RTVSPropertyOp15
 70
     1
102
RTVSPropertyOp16
 70
     1
102
RTVSPropertyOp17
 70
     1
102
RTVSPropertyOp18
 70
     1
102
RTVSPropertyOp19
 70
     1
102
RTVSPropertyOp20
 70
     1
102
RTVSPropertyOp21
 70
     1
102
RTVSPropertyOp22
 70
     1
102
RTVSPropertyOp23
 70
     1
102
RTVSPropertyOp24
 70
     1
102
RTVSPropertyOp25
 70
     1
102
RTVSPropertyOp26
 70
     1
102
RTVSPropertyOp27
 70
     1
102
RTVSPropertyOp28
 70
     1
102
RTVSPropertyOp29
 70
     1
102
RTVSPropertyOp30
 70
     1
102
RTVSPropertyOp31
 70
     1
102
RTVSPropertyOp32
 70
     1
  0
XRECORD
  5
257
102
{ACAD_REACTORS
330
256
102
}
330
256
100
AcDbXrecord
280
     1
102
RTVSPropertyOp0
 70
     1
102
RTVSPropertyOp1
 70
     1
102
RTVSPropertyOp2
 70
     1
102
RTVSPropertyOp3
 70
     1
102
RTVSPropertyOp4
 70
     1
102
RTVSPropertyOp5
 70
     1
102
RTVSPropertyOp6
 70
     1
102
RTVSPropertyOp7
 70
     1
102
RTVSPropertyOp8
 70
     1
102
RTVSPropertyOp9
 70
     1
102
RTVSPropertyOp10
 70
     1
102
RTVSPropertyOp11
 70
     1
102
RTVSPropertyOp12
 70
     1
102
RTVSPropertyOp13
 70
     1
102
RTVSPropertyOp14
 70
     1
102
RTVSPropertyOp15
 70
     1
102
RTVSPropertyOp16
 70
     1
102
RTVSPropertyOp17
 70
     1
102
RTVSPropertyOp18
 70
     1
102
RTVSPropertyOp19
 70
     1
102
RTVSPropertyOp20
 70
     1
102
RTVSPropertyOp21
 70
     1
102
RTVSPropertyOp22
 70
     1
102
RTVSPropertyOp23
 70
     1
102
RTVSPropertyOp24
 70
     1
102
RTVSPropertyOp25
 70
     1
102
RTVSPropertyOp26
 70
     1
102
RTVSPropertyOp27
 70
     1
102
RTVSPropertyOp28
 70
     1
102
RTVSPropertyOp29
 70
     1
102
RTVSPropertyOp30
 70
     1
102
RTVSPropertyOp31
 70
     1
102
RTVSPropertyOp32
 70
     1
  0
XRECORD
  5
255
102
{ACAD_REACTORS
330
254
102
}
330
254
100
AcDbXrecord
280
     1
102
RTVSPropertyOp0
 70
     1
102
RTVSPropertyOp1
 70
     1
102
RTVSPropertyOp2
 70
     1
102
RTVSPropertyOp3
 70
     1
102
RTVSPropertyOp4
 70
     1
102
RTVSPropertyOp5
 70
     1
102
RTVSPropertyOp6
 70
     1
102
RTVSPropertyOp7
 70
     1
102
RTVSPropertyOp8
 70
     1
102
RTVSPropertyOp9
 70
     1
102
RTVSPropertyOp10
 70
     1
102
RTVSPropertyOp11
 70
     1
102
RTVSPropertyOp12
 70
     1
102
RTVSPropertyOp13
 70
     1
102
RTVSPropertyOp14
 70
     1
102
RTVSPropertyOp15
 70
     1
102
RTVSPropertyOp16
 70
     1
102
RTVSPropertyOp17
 70
     1
102
RTVSPropertyOp18
 70
     1
102
RTVSPropertyOp19
 70
     1
102
RTVSPropertyOp20
 70
     1
102
RTVSPropertyOp21
 70
     1
102
RTVSPropertyOp22
 70
     1
102
RTVSPropertyOp23
 70
     1
102
RTVSPropertyOp24
 70
     1
102
RTVSPropertyOp25
 70
     1
102
RTVSPropertyOp26
 70
     1
102
RTVSPropertyOp27
 70
     1
102
RTVSPropertyOp28
 70
     1
102
RTVSPropertyOp29
 70
     1
102
RTVSPropertyOp30
 70
     1
102
RTVSPropertyOp31
 70
     1
102
RTVSPropertyOp32
 70
     1
  0
XRECORD
  5
259
102
{ACAD_REACTORS
330
258
102
}
330
258
100
AcDbXrecord
280
     1
102
RTVSPropertyOp0
 70
     1
102
RTVSPropertyOp1
 70
     1
102
RTVSPropertyOp2
 70
     1
102
RTVSPropertyOp3
 70
     1
102
RTVSPropertyOp4
 70
     1
102
RTVSPropertyOp5
 70
     1
102
RTVSPropertyOp6
 70
     1
102
RTVSPropertyOp7
 70
     1
102
RTVSPropertyOp8
 70
     1
102
RTVSPropertyOp9
 70
     1
102
RTVSPropertyOp10
 70
     1
102
RTVSPropertyOp11
 70
     1
102
RTVSPropertyOp12
 70
     1
102
RTVSPropertyOp13
 70
     1
102
RTVSPropertyOp14
 70
     1
102
RTVSPropertyOp15
 70
     1
102
RTVSPropertyOp16
 70
     1
102
RTVSPropertyOp17
 70
     1
102
RTVSPropertyOp18
 70
     1
102
RTVSPropertyOp19
 70
     1
102
RTVSPropertyOp20
 70
     1
102
RTVSPropertyOp21
 70
     1
102
RTVSPropertyOp22
 70
     1
102
RTVSPropertyOp23
 70
     1
102
RTVSPropertyOp24
 70
     1
102
RTVSPropertyOp25
 70
     1
102
RTVSPropertyOp26
 70
     1
102
RTVSPropertyOp27
 70
     1
102
RTVSPropertyOp28
 70
     1
102
RTVSPropertyOp29
 70
     1
102
RTVSPropertyOp30
 70
     1
102
RTVSPropertyOp31
 70
     1
102
RTVSPropertyOp32
 70
     1
  0
XRECORD
  5
261
102
{ACAD_REACTORS
330
260
102
}
330
260
100
AcDbXrecord
280
     1
102
RTVSPropertyOp0
 70
     1
102
RTVSPropertyOp1
 70
     1
102
RTVSPropertyOp2
 70
     1
102
RTVSPropertyOp3
 70
     1
102
RTVSPropertyOp4
 70
     1
102
RTVSPropertyOp5
 70
     1
102
RTVSPropertyOp6
 70
     1
102
RTVSPropertyOp7
 70
     1
102
RTVSPropertyOp8
 70
     1
102
RTVSPropertyOp9
 70
     1
102
RTVSPropertyOp10
 70
     1
102
RTVSPropertyOp11
 70
     1
102
RTVSPropertyOp12
 70
     1
102
RTVSPropertyOp13
 70
     1
102
RTVSPropertyOp14
 70
     1
102
RTVSPropertyOp15
 70
     1
102
RTVSPropertyOp16
 70
     1
102
RTVSPropertyOp17
 70
     1
102
RTVSPropertyOp18
 70
     1
102
RTVSPropertyOp19
 70
     1
102
RTVSPropertyOp20
 70
     1
102
RTVSPropertyOp21
 70
     1
102
RTVSPropertyOp22
 70
     1
102
RTVSPropertyOp23
 70
     1
102
RTVSPropertyOp24
 70
     1
102
RTVSPropertyOp25
 70
     1
102
RTVSPropertyOp26
 70
     1
102
RTVSPropertyOp27
 70
     1
102
RTVSPropertyOp28
 70
     1
102
RTVSPropertyOp29
 70
     1
102
RTVSPropertyOp30
 70
     1
102
RTVSPropertyOp31
 70
     1
102
RTVSPropertyOp32
 70
     1
  0
XRECORD
  5
269
102
{ACAD_REACTORS
330
268
102
}
330
268
100
AcDbXrecord
280
     1
102
RTVSPropertyOp0
 70
     1
102
RTVSPropertyOp1
 70
     1
102
RTVSPropertyOp2
 70
     1
102
RTVSPropertyOp3
 70
     1
102
RTVSPropertyOp4
 70
     1
102
RTVSPropertyOp5
 70
     1
102
RTVSPropertyOp6
 70
     1
102
RTVSPropertyOp7
 70
     1
102
RTVSPropertyOp8
 70
     1
102
RTVSPropertyOp9
 70
     1
102
RTVSPropertyOp10
 70
     1
102
RTVSPropertyOp11
 70
     1
102
RTVSPropertyOp12
 70
     1
102
RTVSPropertyOp13
 70
     1
102
RTVSPropertyOp14
 70
     1
102
RTVSPropertyOp15
 70
     1
102
RTVSPropertyOp16
 70
     1
102
RTVSPropertyOp17
 70
     1
102
RTVSPropertyOp18
 70
     1
102
RTVSPropertyOp19
 70
     1
102
RTVSPropertyOp20
 70
     1
102
RTVSPropertyOp21
 70
     1
102
RTVSPropertyOp22
 70
     1
102
RTVSPropertyOp23
 70
     1
102
RTVSPropertyOp24
 70
     1
102
RTVSPropertyOp25
 70
     1
102
RTVSPropertyOp26
 70
     1
102
RTVSPropertyOp27
 70
     1
102
RTVSPropertyOp28
 70
     1
102
RTVSPropertyOp29
 70
     1
102
RTVSPropertyOp30
 70
     1
102
RTVSPropertyOp31
 70
     1
102
RTVSPropertyOp32
 70
     1
  0
XRECORD
  5
25D
102
{ACAD_REACTORS
330
25C
102
}
330
25C
100
AcDbXrecord
280
     1
102
RTVSPropertyOp0
 70
     1
102
RTVSPropertyOp1
 70
     1
102
RTVSPropertyOp2
 70
     1
102
RTVSPropertyOp3
 70
     1
102
RTVSPropertyOp4
 70
     1
102
RTVSPropertyOp5
 70
     1
102
RTVSPropertyOp6
 70
     1
102
RTVSPropertyOp7
 70
     1
102
RTVSPropertyOp8
 70
     1
102
RTVSPropertyOp9
 70
     1
102
RTVSPropertyOp10
 70
     1
102
RTVSPropertyOp11
 70
     1
102
RTVSPropertyOp12
 70
     1
102
RTVSPropertyOp13
 70
     1
102
RTVSPropertyOp14
 70
     1
102
RTVSPropertyOp15
 70
     1
102
RTVSPropertyOp16
 70
     1
102
RTVSPropertyOp17
 70
     1
102
RTVSPropertyOp18
 70
     1
102
RTVSPropertyOp19
 70
     1
102
RTVSPropertyOp20
 70
     1
102
RTVSPropertyOp21
 70
     1
102
RTVSPropertyOp22
 70
     1
102
RTVSPropertyOp23
 70
     1
102
RTVSPropertyOp24
 70
     1
102
RTVSPropertyOp25
 70
     1
102
RTVSPropertyOp26
 70
     1
102
RTVSPropertyOp27
 70
     1
102
RTVSPropertyOp28
 70
     1
102
RTVSPropertyOp29
 70
     1
102
RTVSPropertyOp30
 70
     1
102
RTVSPropertyOp31
 70
     1
102
RTVSPropertyOp32
 70
     1
  0
XRECORD
  5
25F
102
{ACAD_REACTORS
330
25E
102
}
330
25E
100
AcDbXrecord
280
     1
102
RTVSPropertyOp0
 70
     1
102
RTVSPropertyOp1
 70
     1
102
RTVSPropertyOp2
 70
     1
102
RTVSPropertyOp3
 70
     1
102
RTVSPropertyOp4
 70
     1
102
RTVSPropertyOp5
 70
     1
102
RTVSPropertyOp6
 70
     1
102
RTVSPropertyOp7
 70
     1
102
RTVSPropertyOp8
 70
     1
102
RTVSPropertyOp9
 70
     1
102
RTVSPropertyOp10
 70
     1
102
RTVSPropertyOp11
 70
     1
102
RTVSPropertyOp12
 70
     1
102
RTVSPropertyOp13
 70
     1
102
RTVSPropertyOp14
 70
     1
102
RTVSPropertyOp15
 70
     1
102
RTVSPropertyOp16
 70
     1
102
RTVSPropertyOp17
 70
     1
102
RTVSPropertyOp18
 70
     1
102
RTVSPropertyOp19
 70
     1
102
RTVSPropertyOp20
 70
     1
102
RTVSPropertyOp21
 70
     1
102
RTVSPropertyOp22
 70
     1
102
RTVSPropertyOp23
 70
     1
102
RTVSPropertyOp24
 70
     1
102
RTVSPropertyOp25
 70
     1
102
RTVSPropertyOp26
 70
     1
102
RTVSPropertyOp27
 70
     1
102
RTVSPropertyOp28
 70
     1
102
RTVSPropertyOp29
 70
     1
102
RTVSPropertyOp30
 70
     1
102
RTVSPropertyOp31
 70
     1
102
RTVSPropertyOp32
 70
     1
  0
XRECORD
  5
267
102
{ACAD_REACTORS
330
266
102
}
330
266
100
AcDbXrecord
280
     1
102
RTVSPropertyOp0
 70
     1
102
RTVSPropertyOp1
 70
     1
102
RTVSPropertyOp2
 70
     1
102
RTVSPropertyOp3
 70
     1
102
RTVSPropertyOp4
 70
     1
102
RTVSPropertyOp5
 70
     1
102
RTVSPropertyOp6
 70
     1
102
RTVSPropertyOp7
 70
     1
102
RTVSPropertyOp8
 70
     1
102
RTVSPropertyOp9
 70
     1
102
RTVSPropertyOp10
 70
     1
102
RTVSPropertyOp11
 70
     1
102
RTVSPropertyOp12
 70
     1
102
RTVSPropertyOp13
 70
     1
102
RTVSPropertyOp14
 70
     1
102
RTVSPropertyOp15
 70
     1
102
RTVSPropertyOp16
 70
     1
102
RTVSPropertyOp17
 70
     1
102
RTVSPropertyOp18
 70
     1
102
RTVSPropertyOp19
 70
     1
102
RTVSPropertyOp20
 70
     1
102
RTVSPropertyOp21
 70
     1
102
RTVSPropertyOp22
 70
     1
102
RTVSPropertyOp23
 70
     1
102
RTVSPropertyOp24
 70
     1
102
RTVSPropertyOp25
 70
     1
102
RTVSPropertyOp26
 70
     1
102
RTVSPropertyOp27
 70
     1
102
RTVSPropertyOp28
 70
     1
102
RTVSPropertyOp29
 70
     1
102
RTVSPropertyOp30
 70
     1
102
RTVSPropertyOp31
 70
     1
102
RTVSPropertyOp32
 70
     1
  0
XRECORD
  5
24B
102
{ACAD_REACTORS
330
24A
102
}
330
24A
100
AcDbXrecord
280
     1
102
RTVSPropertyOp0
 70
     1
102
RTVSPropertyOp1
 70
     1
102
RTVSPropertyOp2
 70
     1
102
RTVSPropertyOp3
 70
     1
102
RTVSPropertyOp4
 70
     1
102
RTVSPropertyOp5
 70
     1
102
RTVSPropertyOp6
 70
     1
102
RTVSPropertyOp7
 70
     1
102
RTVSPropertyOp8
 70
     1
102
RTVSPropertyOp9
 70
     1
102
RTVSPropertyOp10
 70
     1
102
RTVSPropertyOp11
 70
     1
102
RTVSPropertyOp12
 70
     1
102
RTVSPropertyOp13
 70
     1
102
RTVSPropertyOp14
 70
     1
102
RTVSPropertyOp15
 70
     1
102
RTVSPropertyOp16
 70
     1
102
RTVSPropertyOp17
 70
     1
102
RTVSPropertyOp18
 70
     1
102
RTVSPropertyOp19
 70
     1
102
RTVSPropertyOp20
 70
     1
102
RTVSPropertyOp21
 70
     1
102
RTVSPropertyOp22
 70
     1
102
RTVSPropertyOp23
 70
     1
102
RTVSPropertyOp24
 70
     1
102
RTVSPropertyOp25
 70
     1
102
RTVSPropertyOp26
 70
     1
102
RTVSPropertyOp27
 70
     1
102
RTVSPropertyOp28
 70
     1
102
RTVSPropertyOp29
 70
     1
102
RTVSPropertyOp30
 70
     1
102
RTVSPropertyOp31
 70
     1
102
RTVSPropertyOp32
 70
     1
  0
XRECORD
  5
24D
102
{ACAD_REACTORS
330
24C
102
}
330
24C
100
AcDbXrecord
280
     1
102
RTVSPropertyOp0
 70
     1
102
RTVSPropertyOp1
 70
     1
102
RTVSPropertyOp2
 70
     1
102
RTVSPropertyOp3
 70
     1
102
RTVSPropertyOp4
 70
     1
102
RTVSPropertyOp5
 70
     1
102
RTVSPropertyOp6
 70
     1
102
RTVSPropertyOp7
 70
     1
102
RTVSPropertyOp8
 70
     1
102
RTVSPropertyOp9
 70
     1
102
RTVSPropertyOp10
 70
     1
102
RTVSPropertyOp11
 70
     1
102
RTVSPropertyOp12
 70
     1
102
RTVSPropertyOp13
 70
     1
102
RTVSPropertyOp14
 70
     1
102
RTVSPropertyOp15
 70
     1
102
RTVSPropertyOp16
 70
     1
102
RTVSPropertyOp17
 70
     1
102
RTVSPropertyOp18
 70
     1
102
RTVSPropertyOp19
 70
     1
102
RTVSPropertyOp20
 70
     1
102
RTVSPropertyOp21
 70
     1
102
RTVSPropertyOp22
 70
     1
102
RTVSPropertyOp23
 70
     1
102
RTVSPropertyOp24
 70
     1
102
RTVSPropertyOp25
 70
     1
102
RTVSPropertyOp26
 70
     1
102
RTVSPropertyOp27
 70
     1
102
RTVSPropertyOp28
 70
     1
102
RTVSPropertyOp29
 70
     1
102
RTVSPropertyOp30
 70
     1
102
RTVSPropertyOp31
 70
     1
102
RTVSPropertyOp32
 70
     1
  0
XRECORD
  5
24F
102
{ACAD_REACTORS
330
24E
102
}
330
24E
100
AcDbXrecord
280
     1
102
RTVSPropertyOp0
 70
     1
102
RTVSPropertyOp1
 70
     1
102
RTVSPropertyOp2
 70
     1
102
RTVSPropertyOp3
 70
     1
102
RTVSPropertyOp4
 70
     1
102
RTVSPropertyOp5
 70
     1
102
RTVSPropertyOp6
 70
     1
102
RTVSPropertyOp7
 70
     1
102
RTVSPropertyOp8
 70
     1
102
RTVSPropertyOp9
 70
     1
102
RTVSPropertyOp10
 70
     1
102
RTVSPropertyOp11
 70
     1
102
RTVSPropertyOp12
 70
     1
102
RTVSPropertyOp13
 70
     1
102
RTVSPropertyOp14
 70
     1
102
RTVSPropertyOp15
 70
     1
102
RTVSPropertyOp16
 70
     1
102
RTVSPropertyOp17
 70
     1
102
RTVSPropertyOp18
 70
     1
102
RTVSPropertyOp19
 70
     1
102
RTVSPropertyOp20
 70
     1
102
RTVSPropertyOp21
 70
     1
102
RTVSPropertyOp22
 70
     1
102
RTVSPropertyOp23
 70
     1
102
RTVSPropertyOp24
 70
     1
102
RTVSPropertyOp25
 70
     1
102
RTVSPropertyOp26
 70
     1
102
RTVSPropertyOp27
 70
     1
102
RTVSPropertyOp28
 70
     1
102
RTVSPropertyOp29
 70
     1
102
RTVSPropertyOp30
 70
     1
102
RTVSPropertyOp31
 70
     1
102
RTVSPropertyOp32
 70
     1
  0
XRECORD
  5
251
102
{ACAD_REACTORS
330
250
102
}
330
250
100
AcDbXrecord
280
     1
102
RTVSPropertyOp0
 70
     1
102
RTVSPropertyOp1
 70
     1
102
RTVSPropertyOp2
 70
     1
102
RTVSPropertyOp3
 70
     1
102
RTVSPropertyOp4
 70
     1
102
RTVSPropertyOp5
 70
     1
102
RTVSPropertyOp6
 70
     1
102
RTVSPropertyOp7
 70
     1
102
RTVSPropertyOp8
 70
     1
102
RTVSPropertyOp9
 70
     1
102
RTVSPropertyOp10
 70
     1
102
RTVSPropertyOp11
 70
     1
102
RTVSPropertyOp12
 70
     1
102
RTVSPropertyOp13
 70
     1
102
RTVSPropertyOp14
 70
     1
102
RTVSPropertyOp15
 70
     1
102
RTVSPropertyOp16
 70
     1
102
RTVSPropertyOp17
 70
     1
102
RTVSPropertyOp18
 70
     1
102
RTVSPropertyOp19
 70
     1
102
RTVSPropertyOp20
 70
     1
102
RTVSPropertyOp21
 70
     1
102
RTVSPropertyOp22
 70
     1
102
RTVSPropertyOp23
 70
     1
102
RTVSPropertyOp24
 70
     1
102
RTVSPropertyOp25
 70
     1
102
RTVSPropertyOp26
 70
     1
102
RTVSPropertyOp27
 70
     1
102
RTVSPropertyOp28
 70
     1
102
RTVSPropertyOp29
 70
     1
102
RTVSPropertyOp30
 70
     1
102
RTVSPropertyOp31
 70
     1
102
RTVSPropertyOp32
 70
     1
  0
XRECORD
  5
265
102
{ACAD_REACTORS
330
264
102
}
330
264
100
AcDbXrecord
280
     1
102
RTVSPropertyOp0
 70
     1
102
RTVSPropertyOp1
 70
     1
102
RTVSPropertyOp2
 70
     1
102
RTVSPropertyOp3
 70
     1
102
RTVSPropertyOp4
 70
     1
102
RTVSPropertyOp5
 70
     1
102
RTVSPropertyOp6
 70
     1
102
RTVSPropertyOp7
 70
     1
102
RTVSPropertyOp8
 70
     1
102
RTVSPropertyOp9
 70
     1
102
RTVSPropertyOp10
 70
     1
102
RTVSPropertyOp11
 70
     1
102
RTVSPropertyOp12
 70
     1
102
RTVSPropertyOp13
 70
     1
102
RTVSPropertyOp14
 70
     1
102
RTVSPropertyOp15
 70
     1
102
RTVSPropertyOp16
 70
     1
102
RTVSPropertyOp17
 70
     1
102
RTVSPropertyOp18
 70
     1
102
RTVSPropertyOp19
 70
     1
102
RTVSPropertyOp20
 70
     1
102
RTVSPropertyOp21
 70
     1
102
RTVSPropertyOp22
 70
     1
102
RTVSPropertyOp23
 70
     1
102
RTVSPropertyOp24
 70
     1
102
RTVSPropertyOp25
 70
     1
102
RTVSPropertyOp26
 70
     1
102
RTVSPropertyOp27
 70
     1
102
RTVSPropertyOp28
 70
     1
102
RTVSPropertyOp29
 70
     1
102
RTVSPropertyOp30
 70
     1
102
RTVSPropertyOp31
 70
     1
102
RTVSPropertyOp32
 70
     1
  0
XRECORD
  5
25B
102
{ACAD_REACTORS
330
25A
102
}
330
25A
100
AcDbXrecord
280
     1
102
RTVSPropertyOp0
 70
     1
102
RTVSPropertyOp1
 70
     1
102
RTVSPropertyOp2
 70
     1
102
RTVSPropertyOp3
 70
     1
102
RTVSPropertyOp4
 70
     1
102
RTVSPropertyOp5
 70
     1
102
RTVSPropertyOp6
 70
     1
102
RTVSPropertyOp7
 70
     1
102
RTVSPropertyOp8
 70
     1
102
RTVSPropertyOp9
 70
     1
102
RTVSPropertyOp10
 70
     1
102
RTVSPropertyOp11
 70
     1
102
RTVSPropertyOp12
 70
     1
102
RTVSPropertyOp13
 70
     1
102
RTVSPropertyOp14
 70
     1
102
RTVSPropertyOp15
 70
     1
102
RTVSPropertyOp16
 70
     1
102
RTVSPropertyOp17
 70
     1
102
RTVSPropertyOp18
 70
     1
102
RTVSPropertyOp19
 70
     1
102
RTVSPropertyOp20
 70
     1
102
RTVSPropertyOp21
 70
     1
102
RTVSPropertyOp22
 70
     1
102
RTVSPropertyOp23
 70
     1
102
RTVSPropertyOp24
 70
     1
102
RTVSPropertyOp25
 70
     1
102
RTVSPropertyOp26
 70
     1
102
RTVSPropertyOp27
 70
     1
102
RTVSPropertyOp28
 70
     1
102
RTVSPropertyOp29
 70
     1
102
RTVSPropertyOp30
 70
     1
102
RTVSPropertyOp31
 70
     1
102
RTVSPropertyOp32
 70
     1
  0
XRECORD
  5
263
102
{ACAD_REACTORS
330
262
102
}
330
262
100
AcDbXrecord
280
     1
102
RTVSPropertyOp0
 70
     1
102
RTVSPropertyOp1
 70
     1
102
RTVSPropertyOp2
 70
     1
102
RTVSPropertyOp3
 70
     1
102
RTVSPropertyOp4
 70
     1
102
RTVSPropertyOp5
 70
     1
102
RTVSPropertyOp6
 70
     1
102
RTVSPropertyOp7
 70
     1
102
RTVSPropertyOp8
 70
     1
102
RTVSPropertyOp9
 70
     1
102
RTVSPropertyOp10
 70
     1
102
RTVSPropertyOp11
 70
     1
102
RTVSPropertyOp12
 70
     1
102
RTVSPropertyOp13
 70
     1
102
RTVSPropertyOp14
 70
     1
102
RTVSPropertyOp15
 70
     1
102
RTVSPropertyOp16
 70
     1
102
RTVSPropertyOp17
 70
     1
102
RTVSPropertyOp18
 70
     1
102
RTVSPropertyOp19
 70
     1
102
RTVSPropertyOp20
 70
     1
102
RTVSPropertyOp21
 70
     1
102
RTVSPropertyOp22
 70
     1
102
RTVSPropertyOp23
 70
     1
102
RTVSPropertyOp24
 70
     1
102
RTVSPropertyOp25
 70
     1
102
RTVSPropertyOp26
 70
     1
102
RTVSPropertyOp27
 70
     1
102
RTVSPropertyOp28
 70
     1
102
RTVSPropertyOp29
 70
     1
102
RTVSPropertyOp30
 70
     1
102
RTVSPropertyOp31
 70
     1
102
RTVSPropertyOp32
 70
     1
  0
ENDSEC
  0
EOF
