  0
SECTION
  2
HEADER
  9
$ACADVER
  1
AC1015
  9
$ACADMAINTVER
 70
     6
  9
$DWGCODEPAGE
  3
ANSI_1252
  9
$INSBASE
 10
0.0
 20
0.0
 30
0.0
  9
$EXTMIN
 10
0.0
 20
0.0
 30
0.0
  9
$EXTMAX
 10
210.0
 20
297.0
 30
0.0
  9
$LIMMIN
 10
0.0
 20
0.0
  9
$LIMMAX
 10
210.0
 20
297.0
  9
$ORTHOMODE
 70
     0
  9
$REGENMODE
 70
     1
  9
$FILLMODE
 70
     1
  9
$QTEXTMODE
 70
     0
  9
$MIRRTEXT
 70
     1
  9
$LTSCALE
 40
1.0
  9
$ATTMODE
 70
     1
  9
$TEXTSIZE
 40
2.5
  9
$TRACEWID
 40
1.0
  9
$TEXTSTYLE
  7
Standard
  9
$CLAYER
  8
0
  9
$CELTYPE
  6
ByLayer
  9
$CECOLOR
 62
   256
  9
$CELTSCALE
 40
1.0
  9
$DISPSILH
 70
     0
  9
$DIMSCALE
 40
1.0
  9
$DIMASZ
 40
2.5
  9
$DIMEXO
 40
0.625
  9
$DIMDLI
 40
3.75
  9
$DIMRND
 40
0.0
  9
$DIMDLE
 40
0.0
  9
$DIMEXE
 40
1.25
  9
$DIMTP
 40
0.0
  9
$DIMTM
 40
0.0
  9
$DIMTXT
 40
2.5
  9
$DIMCEN
 40
2.5
  9
$DIMTSZ
 40
0.0
  9
$DIMTOL
 70
     0
  9
$DIMLIM
 70
     0
  9
$DIMTIH
 70
     0
  9
$DIMTOH
 70
     0
  9
$DIMSE1
 70
     0
  9
$DIMSE2
 70
     0
  9
$DIMTAD
 70
     1
  9
$DIMZIN
 70
     8
  9
$DIMBLK
  1

  9
$DIMASO
 70
     1
  9
$DIMSHO
 70
     1
  9
$DIMPOST
  1

  9
$DIMAPOST
  1

  9
$DIMALT
 70
     0
  9
$DIMALTD
 70
     3
  9
$DIMALTF
 40
0.0393700787
  9
$DIMLFAC
 40
1.0
  9
$DIMTOFL
 70
     1
  9
$DIMTVP
 40
0.0
  9
$DIMTIX
 70
     0
  9
$DIMSOXD
 70
     0
  9
$DIMSAH
 70
     0
  9
$DIMBLK1
  1

  9
$DIMBLK2
  1

  9
$DIMSTYLE
  2
ISO-25
  9
$DIMCLRD
 70
     0
  9
$DIMCLRE
 70
     0
  9
$DIMCLRT
 70
     0
  9
$DIMTFAC
 40
1.0
  9
$DIMGAP
 40
0.625
  9
$DIMJUST
 70
     0
  9
$DIMSD1
 70
     0
  9
$DIMSD2
 70
     0
  9
$DIMTOLJ
 70
     0
  9
$DIMTZIN
 70
     8
  9
$DIMALTZ
 70
     0
  9
$DIMALTTZ
 70
     0
  9
$DIMUPT
 70
     0
  9
$DIMDEC
 70
     2
  9
$DIMTDEC
 70
     2
  9
$DIMALTU
 70
     2
  9
$DIMALTTD
 70
     3
  9
$DIMTXSTY
  7
Standard
  9
$DIMAUNIT
 70
     0
  9
$DIMADEC
 70
     0
  9
$DIMALTRND
 40
0.0
  9
$DIMAZIN
 70
     0
  9
$DIMDSEP
 70
    44
  9
$DIMATFIT
 70
     3
  9
$DIMFRAC
 70
     0
  9
$DIMLDRBLK
  1

  9
$DIMLUNIT
 70
     2
  9
$DIMLWD
 70
    -2
  9
$DIMLWE
 70
    -2
  9
$DIMTMOVE
 70
     0
  9
$LUNITS
 70
     2
  9
$LUPREC
 70
     4
  9
$SKETCHINC
 40
1.0
  9
$FILLETRAD
 40
10.0
  9
$AUNITS
 70
     0
  9
$AUPREC
 70
     0
  9
$MENU
  1
.
  9
$ELEVATION
 40
0.0
  9
$PELEVATION
 40
0.0
  9
$THICKNESS
 40
0.0
  9
$LIMCHECK
 70
     0
  9
$CHAMFERA
 40
10.0
  9
$CHAMFERB
 40
10.0
  9
$CHAMFERC
 40
20.0
  9
$CHAMFERD
 40
0.0
  9
$SKPOLY
 70
     0
  9
$TDCREATE
 40
2457560.635374201
  9
$TDUCREATE
 40
2457560.552040868
  9
$TDUPDATE
 40
2457560.635376146
  9
$TDUUPDATE
 40
2457560.552042813
  9
$TDINDWG
 40
0.0000000116
  9
$TDUSRTIMER
 40
0.0000000116
  9
$USRTIMER
 70
     1
  9
$ANGBASE
 50
0.0
  9
$ANGDIR
 70
     0
  9
$PDMODE
 70
     0
  9
$PDSIZE
 40
0.0
  9
$PLINEWID
 40
0.0
  9
$SPLFRAME
 70
     0
  9
$SPLINETYPE
 70
     6
  9
$SPLINESEGS
 70
     8
  9
$HANDSEED
  5
18E
  9
$SURFTAB1
 70
     6
  9
$SURFTAB2
 70
     6
  9
$SURFTYPE
 70
     6
  9
$SURFU
 70
     6
  9
$SURFV
 70
     6
  9
$UCSBASE
  2

  9
$UCSNAME
  2

  9
$UCSORG
 10
0.0
 20
0.0
 30
0.0
  9
$UCSXDIR
 10
1.0
 20
0.0
 30
0.0
  9
$UCSYDIR
 10
0.0
 20
1.0
 30
0.0
  9
$UCSORTHOREF
  2

  9
$UCSORTHOVIEW
 70
     0
  9
$UCSORGTOP
 10
0.0
 20
0.0
 30
0.0
  9
$UCSORGBOTTOM
 10
0.0
 20
0.0
 30
0.0
  9
$UCSORGLEFT
 10
0.0
 20
0.0
 30
0.0
  9
$UCSORGRIGHT
 10
0.0
 20
0.0
 30
0.0
  9
$UCSORGFRONT
 10
0.0
 20
0.0
 30
0.0
  9
$UCSORGBACK
 10
0.0
 20
0.0
 30
0.0
  9
$PUCSBASE
  2

  9
$PUCSNAME
  2

  9
$PUCSORG
 10
0.0
 20
0.0
 30
0.0
  9
$PUCSXDIR
 10
1.0
 20
0.0
 30
0.0
  9
$PUCSYDIR
 10
0.0
 20
1.0
 30
0.0
  9
$PUCSORTHOREF
  2

  9
$PUCSORTHOVIEW
 70
     0
  9
$PUCSORGTOP
 10
0.0
 20
0.0
 30
0.0
  9
$PUCSORGBOTTOM
 10
0.0
 20
0.0
 30
0.0
  9
$PUCSORGLEFT
 10
0.0
 20
0.0
 30
0.0
  9
$PUCSORGRIGHT
 10
0.0
 20
0.0
 30
0.0
  9
$PUCSORGFRONT
 10
0.0
 20
0.0
 30
0.0
  9
$PUCSORGBACK
 10
0.0
 20
0.0
 30
0.0
  9
$USERI1
 70
     0
  9
$USERI2
 70
     0
  9
$USERI3
 70
     0
  9
$USERI4
 70
     0
  9
$USERI5
 70
     0
  9
$USERR1
 40
0.0
  9
$USERR2
 40
0.0
  9
$USERR3
 40
0.0
  9
$USERR4
 40
0.0
  9
$USERR5
 40
0.0
  9
$WORLDVIEW
 70
     1
  9
$SHADEDGE
 70
     3
  9
$SHADEDIF
 70
    70
  9
$TILEMODE
 70
     1
  9
$MAXACTVP
 70
    64
  9
$PINSBASE
 10
0.0
 20
0.0
 30
0.0
  9
$PLIMCHECK
 70
     0
  9
$PEXTMIN
 10
0.0
 20
0.0
 30
0.0
  9
$PEXTMAX
 10
210.0
 20
297.0
 30
0.0
  9
$PLIMMIN
 10
0.0
 20
0.0
  9
$PLIMMAX
 10
210.0
 20
297.0
  9
$UNITMODE
 70
     0
  9
$VISRETAIN
 70
     1
  9
$PLINEGEN
 70
     0
  9
$PSLTSCALE
 70
     1
  9
$TREEDEPTH
 70
  3020
  9
$CMLSTYLE
  2
Standard
  9
$CMLJUST
 70
     0
  9
$CMLSCALE
 40
20.0
  9
$PROXYGRAPHICS
 70
     1
  9
$MEASUREMENT
 70
     1
  9
$CELWEIGHT
370
    -1
  9
$ENDCAPS
280
     0
  9
$JOINSTYLE
280
     0
  9
$LWDISPLAY
290
     0
  9
$INSUNITS
 70
     4
  9
$HYPERLINKBASE
  1

  9
$STYLESHEET
  1

  9
$XEDIT
290
     1
  9
$CEPSNTYPE
380
     0
  9
$PSTYLEMODE
290
     1
  9
$FINGERPRINTGUID
  2
{5D8DB674-01BF-4ECA-87C4-9CCE41E04287}
  9
$VERSIONGUID
  2
{FAEB1C32-E019-11D5-929B-00C0DF256EC4}
  9
$EXTNAMES
290
     1
  9
$PSVPSCALE
 40
0.0
  9
$OLESTARTUP
290
     0
  0
ENDSEC
  0
SECTION
  2
CLASSES
  0
CLASS
  1
ACDBDICTIONARYWDFLT
  2
AcDbDictionaryWithDefault
  3
ObjectDBX Classes
 90
        0
280
     0
281
     0
  0
CLASS
  1
VISUALSTYLE
  2
AcDbVisualStyle
  3
ObjectDBX Classes
 90
     4095
280
     0
281
     0
  0
CLASS
  1
MATERIAL
  2
AcDbMaterial
  3
ObjectDBX Classes
 90
     1153
280
     0
281
     0
  0
CLASS
  1
DICTIONARYVAR
  2
AcDbDictionaryVar
  3
ObjectDBX Classes
 90
        0
280
     0
281
     0
  0
CLASS
  1
ACDBPLACEHOLDER
  2
AcDbPlaceHolder
  3
ObjectDBX Classes
 90
        0
280
     0
281
     0
  0
CLASS
  1
LAYOUT
  2
AcDbLayout
  3
ObjectDBX Classes
 90
        0
280
     0
281
     0
  0
ENDSEC
  0
SECTION
  2
TABLES
  0
TABLE
  2
VPORT
  5
8
330
0
100
AcDbSymbolTable
 70
     1
  0
VPORT
  5
29
330
8
100
AcDbSymbolTableRecord
100
AcDbViewportTableRecord
  2
*Active
 70
     0
 10
0.0
 20
0.0
 11
1.0
 21
1.0
 12
344.1869158879
 22
148.5
 13
0.0
 23
0.0
 14
10.0
 24
10.0
 15
10.0
 25
10.0
 16
0.0
 26
0.0
 36
1.0
 17
0.0
 27
0.0
 37
0.0
 40
297.0
 41
1.9729729729
 42
50.0
 43
0.0
 44
0.0
 50
0.0
 51
0.0
 71
     0
 72
   100
 73
     1
 74
     3
 75
     0
 76
     0
 77
     0
 78
     0
281
     0
 65
     1
110
0.0
120
0.0
130
0.0
111
1.0
121
0.0
131
0.0
112
0.0
122
1.0
132
0.0
 79
     0
146
0.0
  0
ENDTAB
  0
TABLE
  2
LTYPE
  5
5
330
0
100
AcDbSymbolTable
 70
     2
  0
LTYPE
  5
14
330
5
100
AcDbSymbolTableRecord
100
AcDbLinetypeTableRecord
  2
ByBlock
 70
     0
  3

 72
    65
 73
     0
 40
0.0
  0
LTYPE
  5
15
330
5
100
AcDbSymbolTableRecord
100
AcDbLinetypeTableRecord
  2
ByLayer
 70
     0
  3

 72
    65
 73
     0
 40
0.0
  0
LTYPE
  5
16
330
5
100
AcDbSymbolTableRecord
100
AcDbLinetypeTableRecord
  2
Continuous
 70
     0
  3
Solid line
 72
    65
 73
     0
 40
0.0
  0
LTYPE
  5
8E
330
5
100
AcDbSymbolTableRecord
100
AcDbLinetypeTableRecord
  2
HIDDEN2
 70
     0
  3
Hidden (.5x) _ _ _ _ _ _ _ _ _ _ _ _ _ _ _ _ _ 
 72
    65
 73
     2
 40
4.7625
 49
3.175
 74
     4
 75
     0
340
0
 46
0.0
 50
0.0
 44
0.0
 45
0.0
 49
-1.5875
 74
     4
 75
     0
340
0
 46
0.0
 50
0.0
 44
0.0
 45
0.0
  0
ENDTAB
  0
TABLE
  2
LAYER
  5
2
330
0
100
AcDbSymbolTable
 70
     5
  0
LAYER
  5
10
330
2
100
AcDbSymbolTableRecord
100
AcDbLayerTableRecord
  2
0
 70
     0
 62
     7
  6
Continuous
370
    -3
390
F
  0
LAYER
  5
3F
330
2
100
AcDbSymbolTableRecord
100
AcDbLayerTableRecord
  2
SK2
 70
     0
 62
     7
  6
Continuous
370
    15
390
F
  0
LAYER
  5
40
330
2
100
AcDbSymbolTableRecord
100
AcDbLayerTableRecord
  2
SK1
 70
     0
 62
     4
  6
Continuous
370
    18
390
F
  0
LAYER
  5
8D
330
2
100
AcDbSymbolTableRecord
100
AcDbLayerTableRecord
  2
SK3
 70
     0
 62
     1
  6
HIDDEN2
370
    15
390
F
  0
LAYER
  5
121
330
2
100
AcDbSymbolTableRecord
100
AcDbLayerTableRecord
  2
SK4
 70
     0
 62
     2
  6
Continuous
370
    13
390
F
  0
ENDTAB
  0
TABLE
  2
STYLE
  5
3
330
0
100
AcDbSymbolTable
 70
     2
  0
STYLE
  5
11
330
3
100
AcDbSymbolTableRecord
100
AcDbTextStyleTableRecord
  2
Standard
 70
     0
 40
0.0
 41
1.0
 50
0.0
 71
     0
 42
2.5
  3
txt
  4

  0
STYLE
  5
135
330
3
100
AcDbSymbolTableRecord
100
AcDbTextStyleTableRecord
  2
SEACAD_Solid_Edge_ISO
 70
     0
 40
0.0
 41
1.0
 50
0.0
 71
     0
 42
0.2
  3
seiso.ttf
  4

1001
ACAD
1000
Solid Edge ISO
1071
        0
  0
ENDTAB
  0
TABLE
  2
VIEW
  5
6
330
0
100
AcDbSymbolTable
 70
     0
  0
ENDTAB
  0
TABLE
  2
UCS
  5
7
330
0
100
AcDbSymbolTable
 70
     0
  0
ENDTAB
  0
TABLE
  2
APPID
  5
9
330
0
100
AcDbSymbolTable
 70
     1
  0
APPID
  5
12
330
9
100
AcDbSymbolTableRecord
100
AcDbRegAppTableRecord
  2
ACAD
 70
     0
  0
ENDTAB
  0
TABLE
  2
DIMSTYLE
  5
A
330
0
100
AcDbSymbolTable
 70
     3
100
AcDbDimStyleTable
  0
DIMSTYLE
105
27
330
A
100
AcDbSymbolTableRecord
100
AcDbDimStyleTableRecord
  2
ISO-25
 70
     0
 41
2.5
 42
0.625
 43
3.75
 44
1.25
 73
     0
 74
     0
 77
     1
 78
     8
140
2.5
141
2.5
143
0.0393700787
147
0.625
171
     3
172
     1
178
     0
271
     2
272
     2
274
     3
278
    44
283
     0
284
     8
340
11
  0
DIMSTYLE
105
123
330
A
100
AcDbSymbolTableRecord
100
AcDbDimStyleTableRecord
  2
Standard
 70
     0
178
     0
340
11
  0
DIMSTYLE
105
136
102
{ACAD_REACTORS
330
137
330
142
330
14C
330
157
102
}
330
A
100
AcDbSymbolTableRecord
100
AcDbDimStyleTableRecord
  2
DIN
 70
     0
 41
3.5
 42
0.0
 44
1.75
 73
     0
 74
     0
 77
     1
 78
     8
140
3.5
141
1.75
147
1.75
172
     1
173
     1
178
     0
179
     3
271
     2
272
     2
278
    44
284
     8
340
135
343
130
344
130
  0
ENDTAB
  0
TABLE
  2
BLOCK_RECORD
  5
1
330
0
100
AcDbSymbolTable
 70
    10
  0
BLOCK_RECORD
  5
1F
330
1
100
AcDbSymbolTableRecord
100
AcDbBlockTableRecord
  2
*Model_Space
340
22
  0
BLOCK_RECORD
  5
1B
330
1
100
AcDbSymbolTableRecord
100
AcDbBlockTableRecord
  2
*Paper_Space
340
1E
  0
BLOCK_RECORD
  5
41
330
1
100
AcDbSymbolTableRecord
100
AcDbBlockTableRecord
  2
Nullpunkt
340
0
102
{BLKREFS
331
4B
102
}
  0
BLOCK_RECORD
  5
4C
330
1
100
AcDbSymbolTableRecord
100
AcDbBlockTableRecord
  2
Einfügepunkt
340
0
102
{BLKREFS
331
56
102
}
  0
BLOCK_RECORD
  5
124
330
1
100
AcDbSymbolTableRecord
100
AcDbBlockTableRecord
  2
_OBLIQUE
340
0
  0
BLOCK_RECORD
  5
128
330
1
100
AcDbSymbolTableRecord
100
AcDbBlockTableRecord
  2
_DOT
340
0
  0
BLOCK_RECORD
  5
130
330
1
100
AcDbSymbolTableRecord
100
AcDbBlockTableRecord
  2
_SE_FILLED
340
0
  0
BLOCK_RECORD
  5
138
330
1
100
AcDbSymbolTableRecord
100
AcDbBlockTableRecord
  2
DMBLK119
340
0
  0
BLOCK_RECORD
  5
143
330
1
100
AcDbSymbolTableRecord
100
AcDbBlockTableRecord
  2
DMBLK120
340
0
  0
BLOCK_RECORD
  5
14D
330
1
100
AcDbSymbolTableRecord
100
AcDbBlockTableRecord
  2
DMBLK121
340
0
  0
BLOCK_RECORD
  5
158
330
1
100
AcDbSymbolTableRecord
100
AcDbBlockTableRecord
  2
DMBLK122
340
0
  0
ENDTAB
  0
ENDSEC
  0
SECTION
  2
BLOCKS
  0
BLOCK
  5
20
330
1F
100
AcDbEntity
  8
0
100
AcDbBlockBegin
  2
*Model_Space
 70
     0
 10
0.0
 20
0.0
 30
0.0
  3
*Model_Space
  1

  0
ENDBLK
  5
21
330
1F
100
AcDbEntity
  8
0
100
AcDbBlockEnd
  0
BLOCK
  5
1C
330
1B
100
AcDbEntity
 67
     1
  8
0
100
AcDbBlockBegin
  2
*Paper_Space
 70
     0
 10
0.0
 20
0.0
 30
0.0
  3
*Paper_Space
  1

  0
ENDBLK
  5
1D
330
1B
100
AcDbEntity
 67
     1
  8
0
100
AcDbBlockEnd
  0
BLOCK
  5
49
330
41
100
AcDbEntity
  8
0
100
AcDbBlockBegin
  2
Nullpunkt
 70
     0
 10
0.0
 20
0.0
 30
0.0
  3
Nullpunkt
  1

  0
HATCH
  5
42
330
41
100
AcDbEntity
  8
SK2
  6
Continuous
 62
     7
100
AcDbHatch
 10
0.0
 20
0.0
 30
0.0
210
0.0
220
0.0
230
1.0
  2
SOLID
 70
     1
 71
     0
 91
        1
 92
        1
 93
        3
 72
     1
 10
-1.0
 20
0.0
 11
0.0000000000000009
 21
0.0
 72
     1
 10
0.0
 20
0.0
 11
0.0
 21
1.000000000000001
 72
     2
 10
0.0
 20
0.0
 40
1.0
 50
90.0
 51
180.0
 73
     1
 97
        0
 75
     0
 76
     1
 98
        0
  0
HATCH
  5
43
330
41
100
AcDbEntity
  8
SK2
  6
Continuous
 62
     7
100
AcDbHatch
 10
0.0
 20
0.0
 30
0.0
210
0.0
220
0.0
230
1.0
  2
SOLID
 70
     1
 71
     0
 91
        1
 92
        1
 93
        3
 72
     2
 10
0.0
 20
0.0
 40
1.0
 50
270.0
 51
360.0
 73
     1
 72
     1
 10
1.0
 20
0.0
 11
-0.0000000000000009
 21
0.0
 72
     1
 10
0.0
 20
0.0
 11
0.0
 21
-1.000000000000001
 97
        0
 75
     0
 76
     1
 98
        0
  0
CIRCLE
  5
44
330
41
100
AcDbEntity
  8
SK2
  6
Continuous
 62
     7
100
AcDbCircle
 10
0.0
 20
0.0
 30
0.0
 40
1.0
  0
LINE
  5
45
330
41
100
AcDbEntity
  8
SK1
  6
Continuous
100
AcDbLine
 10
-1.0
 20
0.0
 30
0.0
 11
1.0
 21
0.0
 31
0.0
  0
LINE
  5
46
330
41
100
AcDbEntity
  8
SK1
  6
Continuous
100
AcDbLine
 10
0.0
 20
1.0
 30
0.0
 11
0.0
 21
-1.0
 31
0.0
  0
POINT
  5
47
330
41
100
AcDbEntity
  8
SK1
  6
Continuous
100
AcDbPoint
 10
0.0
 20
0.0
 30
0.0
  0
POINT
  5
48
330
41
100
AcDbEntity
  8
SK1
  6
Continuous
100
AcDbPoint
 10
0.0
 20
0.0
 30
0.0
  0
ENDBLK
  5
4A
330
41
100
AcDbEntity
  8
0
100
AcDbBlockEnd
  0
BLOCK
  5
54
330
4C
100
AcDbEntity
  8
0
100
AcDbBlockBegin
  2
Einfügepunkt
 70
     0
 10
0.0
 20
0.0
 30
0.0
  3
Einfügepunkt
  1

  0
HATCH
  5
4D
330
4C
100
AcDbEntity
  8
SK2
  6
Continuous
 62
     7
100
AcDbHatch
 10
0.0
 20
0.0
 30
0.0
210
0.0
220
0.0
230
1.0
  2
SOLID
 70
     1
 71
     0
 91
        1
 92
        1
 93
        3
 72
     1
 10
-0.4502381196756744
 20
-0.0000000000000018
 11
0.0000000000000033
 21
-0.0000000000000018
 72
     1
 10
0.0
 20
-0.0000000000000018
 11
0.0
 21
0.4502381196756812
 72
     2
 10
0.0
 20
-0.0000000000000018
 40
0.4502381196756812
 50
90.0
 51
180.0
 73
     1
 97
        0
 75
     0
 76
     1
 98
        0
  0
HATCH
  5
4E
330
4C
100
AcDbEntity
  8
SK2
  6
Continuous
 62
     7
100
AcDbHatch
 10
0.0
 20
0.0
 30
0.0
210
0.0
220
0.0
230
1.0
  2
SOLID
 70
     1
 71
     0
 91
        1
 92
        1
 93
        3
 72
     2
 10
0.0
 20
-0.0000000000000018
 40
0.4502381196756812
 50
270.0
 51
360.0
 73
     1
 72
     1
 10
0.4502381196756815
 20
-0.0000000000000018
 11
0.0000000000000038
 21
-0.0000000000000018
 72
     1
 10
0.0
 20
-0.0000000000000018
 11
0.0
 21
-0.4502381196756812
 97
        0
 75
     0
 76
     1
 98
        0
  0
CIRCLE
  5
4F
330
4C
100
AcDbEntity
  8
SK2
  6
Continuous
 62
     7
100
AcDbCircle
 10
0.0
 20
0.0
 30
0.0
 40
0.4502381196756812
  0
LINE
  5
50
330
4C
100
AcDbEntity
  8
SK1
  6
Continuous
100
AcDbLine
 10
-0.4502381197
 20
0.0
 30
0.0
 11
0.4502381197
 21
0.0
 31
0.0
  0
LINE
  5
51
330
4C
100
AcDbEntity
  8
SK1
  6
Continuous
100
AcDbLine
 10
0.0
 20
0.4502381197
 30
0.0
 11
0.0
 21
-0.4502381197
 31
0.0
  0
POINT
  5
52
330
4C
100
AcDbEntity
  8
SK2
  6
Continuous
 62
     7
100
AcDbPoint
 10
0.0
 20
0.0
 30
0.0
  0
POINT
  5
53
330
4C
100
AcDbEntity
  8
SK2
  6
Continuous
 62
     7
100
AcDbPoint
 10
0.0
 20
0.0
 30
0.0
  0
ENDBLK
  5
55
330
4C
100
AcDbEntity
  8
0
100
AcDbBlockEnd
  0
BLOCK
  5
125
330
124
100
AcDbEntity
  8
0
100
AcDbBlockBegin
  2
_OBLIQUE
 70
     0
 10
0.0
 20
0.0
 30
0.0
  3
_OBLIQUE
  1

  0
LINE
  5
127
330
124
100
AcDbEntity
  8
0
  6
ByBlock
 62
     0
370
    -2
100
AcDbLine
 10
-0.5
 20
-0.5
 30
0.0
 11
0.5
 21
0.5
 31
0.0
  0
ENDBLK
  5
126
330
124
100
AcDbEntity
  8
0
100
AcDbBlockEnd
  0
BLOCK
  5
129
330
128
100
AcDbEntity
  8
0
100
AcDbBlockBegin
  2
_DOT
 70
     0
 10
0.0
 20
0.0
 30
0.0
  3
_DOT
  1

  0
POLYLINE
  5
12B
330
128
100
AcDbEntity
  8
0
  6
ByBlock
 62
     0
100
AcDb2dPolyline
 66
     1
 10
0.0
 20
0.0
 30
0.0
 70
     1
 40
0.5
 41
0.5
  0
VERTEX
  5
12D
330
12B
100
AcDbEntity
  8
0
  6
ByBlock
 62
     0
100
AcDbVertex
100
AcDb2dVertex
 10
-0.25
 20
0.0
 30
0.0
 42
1.0
  0
VERTEX
  5
12E
330
12B
100
AcDbEntity
  8
0
  6
ByBlock
 62
     0
100
AcDbVertex
100
AcDb2dVertex
 10
0.25
 20
0.0
 30
0.0
 42
1.0
  0
SEQEND
  5
12F
330
12B
100
AcDbEntity
  8
0
  6
ByBlock
 62
     0
  0
LINE
  5
12C
330
128
100
AcDbEntity
  8
0
  6
ByBlock
 62
     0
370
    -2
100
AcDbLine
 10
-0.5
 20
0.0
 30
0.0
 11
-1.0
 21
0.0
 31
0.0
  0
ENDBLK
  5
12A
330
128
100
AcDbEntity
  8
0
100
AcDbBlockEnd
  0
BLOCK
  5
133
330
130
100
AcDbEntity
  8
0
100
AcDbBlockBegin
  2
_SE_FILLED
 70
     0
 10
0.0
 20
0.0
 30
0.0
  3
_SE_FILLED
  1

  0
SOLID
  5
131
330
130
100
AcDbEntity
  8
0
 62
     0
100
AcDbTrace
 10
0.0
 20
0.0
 30
0.0
 11
-1.0
 21
-0.1665
 31
0.0
 12
-1.0
 22
0.1665
 32
0.0
 13
0.0
 23
0.0
 33
0.0
  0
LINE
  5
132
330
130
100
AcDbEntity
  8
0
 62
     0
100
AcDbLine
 10
0.0
 20
0.0
 30
0.0
 11
-1.0
 21
0.0
 31
0.0
  0
ENDBLK
  5
134
330
130
100
AcDbEntity
  8
0
100
AcDbBlockEnd
  0
BLOCK
  5
140
330
138
100
AcDbEntity
  8
0
100
AcDbBlockBegin
  2
DMBLK119
 70
     0
 10
0.0
 20
0.0
 30
0.0
  3
DMBLK119
  1

  0
HATCH
  5
139
330
138
100
AcDbEntity
  8
SK2
  6
Continuous
 62
   136
100
AcDbHatch
 10
0.0
 20
0.0
 30
0.0
210
0.0
220
0.0
230
1.0
  2
SOLID
 70
     1
 71
     0
 91
        1
 92
        1
 93
        3
 72
     1
 10
20.61802943321565
 20
8.000000594768043
 11
19.45136273053784
 21
8.000000594768043
 72
     1
 10
19.45136273053784
 20
8.000000594768043
 11
20.03469608187675
 21
4.500000486734624
 72
     1
 10
20.03469608187675
 20
4.500000486734623
 11
20.61802943321565
 21
8.000000594768043
 97
        0
 75
     0
 76
     1
 98
        0
  0
HATCH
  5
13A
330
138
100
AcDbEntity
  8
SK2
  6
Continuous
 62
   136
100
AcDbHatch
 10
0.0
 20
0.0
 30
0.0
210
0.0
220
0.0
230
1.0
  2
SOLID
 70
     1
 71
     0
 91
        1
 92
        1
 93
        3
 72
     1
 10
20.61802943321565
 20
-7.999999621298796
 11
20.03469608187675
 21
-4.499999513265378
 72
     1
 10
20.03469608187675
 20
-4.499999513265378
 11
19.45136273053784
 21
-7.999999621298796
 72
     1
 10
19.45136273053784
 20
-7.999999621298796
 11
20.61802943321565
 21
-7.999999621298796
 97
        0
 75
     0
 76
     1
 98
        0
  0
LINE
  5
13B
330
138
100
AcDbEntity
  8
SK2
  6
Continuous
 62
   136
100
AcDbLine
 10
10.26
 20
4.5000004867
 30
0.0
 11
21.7846961359
 21
4.5000004867
 31
0.0
  0
LINE
  5
13C
330
138
100
AcDbEntity
  8
SK2
  6
Continuous
 62
   136
100
AcDbLine
 10
10.26
 20
-4.4999995133
 30
0.0
 11
21.7846961359
 21
-4.4999995133
 31
0.0
  0
LINE
  5
13D
330
138
100
AcDbEntity
  8
SK2
  6
Continuous
 62
   136
100
AcDbLine
 10
20.0346960819
 20
11.5000007028
 30
0.0
 11
20.0346960819
 21
-11.5000002732
 31
0.0
  0
TEXT
  5
13E
330
138
100
AcDbEntity
  8
SK2
  6
Continuous
 62
   136
100
AcDbText
 10
19.1596960819
 20
0.9625006804
 30
0.0
 40
3.5
  1
9
 50
90.0
  7
SEACAD_Solid_Edge_ISO
 11
15.6596960819
 21
0.9625006804
 31
0.0
100
AcDbText
 73
     3
  0
TEXT
  5
13F
330
138
100
AcDbEntity
  8
SK2
  6
Continuous
 62
   136
100
AcDbText
 10
19.1596960819
 20
-3.1102265923
 30
0.0
 40
3.5
  1
ø
 50
90.0
  7
SEACAD_Solid_Edge_ISO
 11
15.6596960819
 21
-3.1102265923
 31
0.0
100
AcDbText
 73
     3
  0
ENDBLK
  5
141
330
138
100
AcDbEntity
  8
0
100
AcDbBlockEnd
  0
BLOCK
  5
14A
330
143
100
AcDbEntity
  8
0
100
AcDbBlockBegin
  2
DMBLK120
 70
     0
 10
0.0
 20
0.0
 30
0.0
  3
DMBLK120
  1

  0
HATCH
  5
144
330
143
100
AcDbEntity
  8
SK2
  6
Continuous
 62
   136
100
AcDbHatch
 10
0.0
 20
0.0
 30
0.0
210
0.0
220
0.0
230
1.0
  2
SOLID
 70
     1
 71
     0
 91
        1
 92
        1
 93
        3
 72
     1
 10
-3.50000010803342
 20
-15.93612574113328
 11
-0.0000000000000018
 21
-15.35279238979438
 72
     1
 10
-0.0000000000000017
 20
-15.35279238979438
 11
-3.50000010803342
 21
-14.76945903845547
 72
     1
 10
-3.50000010803342
 20
-14.76945903845547
 11
-3.50000010803342
 21
-15.93612574113328
 97
        0
 75
     0
 76
     1
 98
        0
  0
HATCH
  5
145
330
143
100
AcDbEntity
  8
SK2
  6
Continuous
 62
   136
100
AcDbHatch
 10
0.0
 20
0.0
 30
0.0
210
0.0
220
0.0
230
1.0
  2
SOLID
 70
     1
 71
     0
 91
        1
 92
        1
 93
        3
 72
     1
 10
13.76000010803342
 20
-15.93612574113328
 11
13.76000010803342
 21
-14.76945903845547
 72
     1
 10
13.76000010803342
 20
-14.76945903845547
 11
10.26
 21
-15.35279238979438
 72
     1
 10
10.26
 20
-15.35279238979438
 11
13.76000010803342
 21
-15.93612574113328
 97
        0
 75
     0
 76
     1
 98
        0
  0
LINE
  5
146
330
143
100
AcDbEntity
  8
SK2
  6
Continuous
 62
   136
100
AcDbLine
 10
0.0
 20
-7.994048115
 30
0.0
 11
0.0
 21
-17.1027924438
 31
0.0
  0
LINE
  5
147
330
143
100
AcDbEntity
  8
SK2
  6
Continuous
 62
   136
100
AcDbLine
 10
10.26
 20
-5.5799557512
 30
0.0
 11
10.26
 21
-17.1027924438
 31
0.0
  0
LINE
  5
148
330
143
100
AcDbEntity
  8
SK2
  6
Continuous
 62
   136
100
AcDbLine
 10
-7.0000002161
 20
-15.3527923898
 30
0.0
 11
17.2600001097
 21
-15.3527923898
 31
0.0
  0
TEXT
  5
149
330
143
100
AcDbEntity
  8
SK2
  6
Continuous
 62
   136
100
AcDbText
 10
0.9140908559
 20
-14.4777923898
 30
0.0
 40
3.5
  1
10,26
  7
SEACAD_Solid_Edge_ISO
 11
0.9140908559
 21
-10.9777923898
 31
0.0
100
AcDbText
 73
     3
  0
ENDBLK
  5
14B
330
143
100
AcDbEntity
  8
0
100
AcDbBlockEnd
  0
BLOCK
  5
155
330
14D
100
AcDbEntity
  8
0
100
AcDbBlockBegin
  2
DMBLK121
 70
     0
 10
0.0
 20
0.0
 30
0.0
  3
DMBLK121
  1

  0
HATCH
  5
14E
330
14D
100
AcDbEntity
  8
SK2
  6
Continuous
 62
   136
100
AcDbHatch
 10
0.0
 20
0.0
 30
0.0
210
0.0
220
0.0
230
1.0
  2
SOLID
 70
     1
 71
     0
 91
        1
 92
        1
 93
        3
 72
     1
 10
-24.07986057611804
 20
4.494048206477513
 11
-22.91319387344023
 21
4.494048206477513
 72
     1
 10
-22.91319387344023
 20
4.494048206477513
 11
-23.49652722477913
 21
7.994048314510931
 72
     1
 10
-23.49652722477913
 20
7.994048314510931
 11
-24.07986057611804
 21
4.494048206477513
 97
        0
 75
     0
 76
     1
 98
        0
  0
HATCH
  5
14F
330
14D
100
AcDbEntity
  8
SK2
  6
Continuous
 62
   136
100
AcDbHatch
 10
0.0
 20
0.0
 30
0.0
210
0.0
220
0.0
230
1.0
  2
SOLID
 70
     1
 71
     0
 91
        1
 92
        1
 93
        3
 72
     1
 10
-24.07986057611804
 20
-4.494048172266136
 11
-23.49652722477913
 21
-7.994048280299554
 72
     1
 10
-23.49652722477913
 20
-7.994048280299554
 11
-22.91319387344023
 21
-4.494048172266136
 72
     1
 10
-22.91319387344023
 20
-4.494048172266136
 11
-24.07986057611804
 21
-4.494048172266136
 97
        0
 75
     0
 76
     1
 98
        0
  0
LINE
  5
150
330
14D
100
AcDbEntity
  8
SK2
  6
Continuous
 62
   136
100
AcDbLine
 10
0.0
 20
7.9940483145
 30
0.0
 11
-25.2465272788
 21
7.9940483145
 31
0.0
  0
LINE
  5
151
330
14D
100
AcDbEntity
  8
SK2
  6
Continuous
 62
   136
100
AcDbLine
 10
0.0
 20
-7.994048115
 30
0.0
 11
-25.2465272788
 21
-7.994048115
 31
0.0
  0
LINE
  5
152
330
14D
100
AcDbEntity
  8
SK2
  6
Continuous
 62
   136
100
AcDbLine
 10
-23.4965272248
 20
7.9940483145
 30
0.0
 11
-23.4965272248
 21
-7.9940482803
 31
0.0
  0
TEXT
  5
153
330
14D
100
AcDbEntity
  8
SK2
  6
Continuous
 62
   136
100
AcDbText
 10
-24.3715272248
 20
0.2465909262
 30
0.0
 40
3.5
  1
16
 50
90.0
  7
SEACAD_Solid_Edge_ISO
 11
-27.8715272248
 21
0.2465909262
 31
0.0
100
AcDbText
 73
     3
  0
TEXT
  5
154
330
14D
100
AcDbEntity
  8
SK2
  6
Continuous
 62
   136
100
AcDbText
 10
-24.3715272248
 20
-3.8261363465
 30
0.0
 40
3.5
  1
ø
 50
90.0
  7
SEACAD_Solid_Edge_ISO
 11
-27.8715272248
 21
-3.8261363465
 31
0.0
100
AcDbText
 73
     3
  0
ENDBLK
  5
156
330
14D
100
AcDbEntity
  8
0
100
AcDbBlockEnd
  0
BLOCK
  5
15F
330
158
100
AcDbEntity
  8
0
100
AcDbBlockBegin
  2
DMBLK122
 70
     0
 10
0.0
 20
0.0
 30
0.0
  3
DMBLK122
  1

  0
HATCH
  5
159
330
158
100
AcDbEntity
  8
SK2
  6
Continuous
 62
   136
100
AcDbHatch
 10
0.0
 20
0.0
 30
0.0
210
0.0
220
0.0
230
1.0
  2
SOLID
 70
     1
 71
     0
 91
        1
 92
        1
 93
        3
 72
     1
 10
-13.73999989196658
 20
15.23054081081662
 11
-17.24
 21
14.64720745947772
 72
     1
 10
-17.24
 20
14.64720745947772
 11
-13.73999989196658
 21
14.06387410813882
 72
     1
 10
-13.73999989196658
 20
14.06387410813882
 11
-13.73999989196658
 21
15.23054081081662
 97
        0
 75
     0
 76
     1
 98
        0
  0
HATCH
  5
15A
330
158
100
AcDbEntity
  8
SK2
  6
Continuous
 62
   136
100
AcDbHatch
 10
0.0
 20
0.0
 30
0.0
210
0.0
220
0.0
230
1.0
  2
SOLID
 70
     1
 71
     0
 91
        1
 92
        1
 93
        3
 72
     1
 10
6.759999742954967
 20
15.23054081081662
 11
6.759999742954967
 21
14.06387410813882
 72
     1
 10
6.759999742954967
 20
14.06387410813882
 11
10.25999985098839
 21
14.64720745947772
 72
     1
 10
10.25999985098839
 20
14.64720745947772
 11
6.759999742954967
 21
15.23054081081662
 97
        0
 75
     0
 76
     1
 98
        0
  0
LINE
  5
15B
330
158
100
AcDbEntity
  8
SK2
  6
Continuous
 62
   136
100
AcDbLine
 10
-17.24
 20
5.3104462605
 30
0.0
 11
-17.24
 21
16.3972075135
 31
0.0
  0
LINE
  5
15C
330
158
100
AcDbEntity
  8
SK2
  6
Continuous
 62
   136
100
AcDbLine
 10
10.26
 20
6.1712618427
 30
0.0
 11
10.26
 21
16.3972075135
 31
0.0
  0
LINE
  5
15D
330
158
100
AcDbEntity
  8
SK2
  6
Continuous
 62
   136
100
AcDbLine
 10
-17.24
 20
14.6472074595
 30
0.0
 11
10.259999851
 21
14.6472074595
 31
0.0
  0
TEXT
  5
15E
330
158
100
AcDbEntity
  8
SK2
  6
Continuous
 62
   136
100
AcDbText
 10
-6.9900000745
 20
15.5222074595
 30
0.0
 40
3.5
  1
27,5
  7
SEACAD_Solid_Edge_ISO
 11
-6.9900000745
 21
19.0222074595
 31
0.0
100
AcDbText
 73
     3
  0
ENDBLK
  5
160
330
158
100
AcDbEntity
  8
0
100
AcDbBlockEnd
  0
ENDSEC
  0
SECTION
  2
ENTITIES
  0
INSERT
  5
4B
330
1F
100
AcDbEntity
  8
SK2
 62
     7
100
AcDbBlockReference
  2
Nullpunkt
 10
0.0
 20
0.0000000998
 30
0.0
  0
INSERT
  5
56
330
1F
100
AcDbEntity
  8
SK2
 62
     7
100
AcDbBlockReference
  2
Einfügepunkt
 10
10.26
 20
0.0000000998
 30
0.0
  0
LINE
  5
57
330
1F
100
AcDbEntity
  8
SK1
  6
Continuous
100
AcDbLine
 10
10.26
 20
-2.081683005
 30
0.0
 11
10.26
 21
2.0816839785
 31
0.0
  0
LINE
  5
58
330
1F
100
AcDbEntity
  8
SK1
  6
Continuous
100
AcDbLine
 10
10.135
 20
-2.164631141
 30
0.0
 11
10.135
 21
2.1646321144
 31
0.0
  0
LINE
  5
59
330
1F
100
AcDbEntity
  8
SK1
  6
Continuous
100
AcDbLine
 10
6.26
 20
-3.0214830442
 30
0.0
 11
6.26
 21
3.0214840177
 31
0.0
  0
LINE
  5
5A
330
1F
100
AcDbEntity
  8
SK1
  6
Continuous
100
AcDbLine
 10
6.06
 20
-2.3608543947
 30
0.0
 11
6.06
 21
2.3608553682
 31
0.0
  0
LINE
  5
5B
330
1F
100
AcDbEntity
  8
SK1
  6
Continuous
100
AcDbLine
 10
3.76
 20
-2.3608543947
 30
0.0
 11
3.76
 21
-0.2999995133
 31
0.0
  0
LINE
  5
5C
330
1F
100
AcDbEntity
  8
SK1
  6
Continuous
100
AcDbLine
 10
3.56
 20
-2.9736182262
 30
0.0
 11
3.56
 21
-0.2999995133
 31
0.0
  0
SPLINE
  5
5D
330
1F
100
AcDbEntity
  8
SK1
  6
Continuous
100
AcDbSpline
210
0.0
220
0.0
230
1.0
 70
     8
 71
     3
 72
    10
 73
     6
 74
     0
 42
0.000000042778491
 43
0.0000000001
 12
1.0
 22
0.0
 32
0.0
 13
1.0
 23
0.0
 33
0.0
 40
0.0
 40
0.0
 40
0.0
 40
0.0
 40
0.5
 40
0.5
 40
1.0
 40
1.0
 40
1.0
 40
1.0
 10
3.559999999999707
 20
-2.437461481383398
 30
0.0
 10
3.559999999999978
 20
-2.417467603216974
 30
0.0
 10
3.581281747874403
 20
-2.397577552903265
 30
0.0
 10
3.655886870280455
 20
-2.369003128324651
 30
0.0
 10
3.707789646105731
 20
-2.360854394728136
 30
0.0
 10
3.759999999999993
 20
-2.360854394728132
 30
0.0
  0
LINE
  5
5E
330
1F
100
AcDbEntity
  8
SK1
  6
Continuous
100
AcDbLine
 10
3.76
 20
-2.3608543947
 30
0.0
 11
6.06
 21
-2.3608543947
 31
0.0
  0
SPLINE
  5
5F
330
1F
100
AcDbEntity
  8
SK1
  6
Continuous
100
AcDbSpline
210
0.0
220
0.0
230
1.0
 70
     8
 71
     3
 72
    10
 73
     6
 74
     0
 42
0.0000000427885594
 43
0.0000000001
 12
1.0
 22
0.0
 32
0.0
 13
1.0
 23
0.0
 33
0.0
 40
0.0
 40
0.0
 40
0.0
 40
0.0
 40
0.5
 40
0.5
 40
1.0
 40
1.0
 40
1.0
 40
1.0
 10
6.059999999999874
 20
-2.360854394727697
 30
0.0
 10
6.112196837020623
 20
-2.360854394728116
 30
0.0
 10
6.164409098334056
 20
-2.369138781966578
 30
0.0
 10
6.238199219935538
 20
-2.397356531251928
 30
0.0
 10
6.260000000000002
 20
-2.417500046757608
 30
0.0
 10
6.259999999999998
 20
-2.437461481383386
 30
0.0
  0
LINE
  5
60
330
1F
100
AcDbEntity
  8
SK1
  6
Continuous
100
AcDbLine
 10
6.26
 20
-3.0214830442
 30
0.0
 11
10.135
 21
-2.164631141
 31
0.0
  0
SPLINE
  5
61
330
1F
100
AcDbEntity
  8
SK1
  6
Continuous
100
AcDbSpline
210
0.0
220
0.0
230
1.0
 70
     8
 71
     3
 72
    10
 73
     6
 74
     0
 42
0.0000000616087735
 43
0.0000000001
 12
1.0
 22
0.0
 32
0.0
 13
1.0
 23
0.0
 33
0.0
 40
0.0
 40
0.0
 40
0.0
 40
0.0
 40
0.5
 40
0.5
 40
1.0
 40
1.0
 40
1.0
 40
1.0
 10
10.13500000000005
 20
-2.164631140979501
 30
0.0
 10
10.17274407206058
 20
-2.156282663610954
 30
0.0
 10
10.20485165328961
 20
-2.14397852932948
 30
0.0
 10
10.24842287874526
 20
-2.114995374679259
 30
0.0
 10
10.26
 20
-2.098354451632166
 30
0.0
 10
10.26
 20
-2.081683005049191
 30
0.0
  0
LINE
  5
62
330
1F
100
AcDbEntity
  8
SK1
  6
Continuous
100
AcDbLine
 10
3.56
 20
-3.5279459457
 30
0.0
 11
3.56
 21
-2.9917892009
 31
0.0
  0
SPLINE
  5
63
330
1F
100
AcDbEntity
  8
SK1
  6
Continuous
100
AcDbSpline
210
0.0
220
0.0
230
1.0
 70
     8
 71
     3
 72
    10
 73
     6
 74
     0
 42
0.000000042778491
 43
0.0000000001
 12
1.0
 22
0.0
 32
0.0
 13
1.0
 23
0.0
 33
0.0
 40
0.0
 40
0.0
 40
0.0
 40
0.0
 40
0.5
 40
0.5
 40
1.0
 40
1.0
 40
1.0
 40
1.0
 10
3.559999999999707
 20
-2.991789200890169
 30
0.0
 10
3.559999999999977
 20
-2.971795322723745
 30
0.0
 10
3.581281747874404
 20
-2.951905272410036
 30
0.0
 10
3.655886870280457
 20
-2.923330847831425
 30
0.0
 10
3.70778964610573
 20
-2.915182114234909
 30
0.0
 10
3.759999999999993
 20
-2.915182114234904
 30
0.0
  0
LINE
  5
64
330
1F
100
AcDbEntity
  8
SK1
  6
Continuous
100
AcDbLine
 10
3.76
 20
-2.9151821142
 30
0.0
 11
6.06
 21
-2.9151821142
 31
0.0
  0
SPLINE
  5
65
330
1F
100
AcDbEntity
  8
SK1
  6
Continuous
100
AcDbSpline
210
0.0
220
0.0
230
1.0
 70
     8
 71
     3
 72
    10
 73
     6
 74
     0
 42
0.0000000427885594
 43
0.0000000001
 12
1.0
 22
0.0
 32
0.0
 13
1.0
 23
0.0
 33
0.0
 40
0.0
 40
0.0
 40
0.0
 40
0.0
 40
0.5
 40
0.5
 40
1.0
 40
1.0
 40
1.0
 40
1.0
 10
6.059999999999874
 20
-2.915182114234469
 30
0.0
 10
6.112196837020623
 20
-2.915182114234888
 30
0.0
 10
6.164409098334056
 20
-2.92346650147335
 30
0.0
 10
6.238199219935538
 20
-2.9516842507587
 30
0.0
 10
6.260000000000002
 20
-2.971827766264379
 30
0.0
 10
6.259999999999998
 20
-2.991789200890158
 30
0.0
  0
LINE
  5
66
330
1F
100
AcDbEntity
  8
SK1
  6
Continuous
100
AcDbLine
 10
6.26
 20
-3.0214830442
 30
0.0
 11
6.26
 21
-3.5758107637
 31
0.0
  0
LINE
  5
67
330
1F
100
AcDbEntity
  8
SK1
  6
Continuous
100
AcDbLine
 10
6.26
 20
-3.5758107637
 30
0.0
 11
10.135
 21
-2.7189588605
 31
0.0
  0
SPLINE
  5
68
330
1F
100
AcDbEntity
  8
SK1
  6
Continuous
100
AcDbSpline
210
0.0
220
0.0
230
1.0
 70
     8
 71
     3
 72
    10
 73
     6
 74
     0
 42
0.0000000616087735
 43
0.0000000001
 12
1.0
 22
0.0
 32
0.0
 13
1.0
 23
0.0
 33
0.0
 40
0.0
 40
0.0
 40
0.0
 40
0.0
 40
0.5
 40
0.5
 40
1.0
 40
1.0
 40
1.0
 40
1.0
 10
10.13500000000005
 20
-2.718958860486273
 30
0.0
 10
10.17274407206058
 20
-2.710610383117726
 30
0.0
 10
10.20485165328961
 20
-2.698306248836251
 30
0.0
 10
10.24842287874526
 20
-2.669323094186031
 30
0.0
 10
10.26
 20
-2.652682171138938
 30
0.0
 10
10.26
 20
-2.636010724555963
 30
0.0
  0
LINE
  5
69
330
1F
100
AcDbEntity
  8
SK1
  6
Continuous
100
AcDbLine
 10
10.26
 20
-2.6360107246
 30
0.0
 11
10.26
 21
-2.081683005
 31
0.0
  0
LINE
  5
6A
330
1F
100
AcDbEntity
  8
SK1
  6
Continuous
100
AcDbLine
 10
-16.94
 20
0.3000004867
 30
0.0
 11
-16.94
 21
3.7553728348
 31
0.0
  0
LINE
  5
6B
330
1F
100
AcDbEntity
  8
SK1
  6
Continuous
100
AcDbLine
 10
-17.24
 20
0.3000004867
 30
0.0
 11
-17.24
 21
3.5429206702
 31
0.0
  0
LINE
  5
6C
330
1F
100
AcDbEntity
  8
SK1
  6
Continuous
100
AcDbLine
 10
-17.24
 20
-0.2999995133
 30
0.0
 11
-16.94
 21
-0.2999995133
 31
0.0
  0
LINE
  5
6D
330
1F
100
AcDbEntity
  8
SK1
  6
Continuous
100
AcDbLine
 10
-17.24
 20
0.3000004867
 30
0.0
 11
-16.94
 21
0.3000004867
 31
0.0
  0
LINE
  5
6E
330
1F
100
AcDbEntity
  8
SK1
  6
Continuous
100
AcDbLine
 10
3.76
 20
0.3000004867
 30
0.0
 11
3.76
 21
2.3608553682
 31
0.0
  0
LINE
  5
6F
330
1F
100
AcDbEntity
  8
SK1
  6
Continuous
100
AcDbLine
 10
3.56
 20
0.3000004867
 30
0.0
 11
3.56
 21
2.9736191997
 31
0.0
  0
LINE
  5
70
330
1F
100
AcDbEntity
  8
SK1
  6
Continuous
100
AcDbLine
 10
-16.94
 20
-0.2999995133
 30
0.0
 11
3.56
 21
-0.2999995133
 31
0.0
  0
LINE
  5
71
330
1F
100
AcDbEntity
  8
SK1
  6
Continuous
100
AcDbLine
 10
3.56
 20
-0.2999995133
 30
0.0
 11
3.76
 21
-0.2999995133
 31
0.0
  0
LINE
  5
72
330
1F
100
AcDbEntity
  8
SK1
  6
Continuous
100
AcDbLine
 10
3.76
 20
-0.2999995133
 30
0.0
 11
5.335
 21
-0.2999995133
 31
0.0
  0
LINE
  5
73
330
1F
100
AcDbEntity
  8
SK1
  6
Continuous
100
AcDbLine
 10
3.56
 20
0.3000004867
 30
0.0
 11
3.76
 21
0.3000004867
 31
0.0
  0
LINE
  5
74
330
1F
100
AcDbEntity
  8
SK1
  6
Continuous
100
AcDbLine
 10
3.76
 20
0.3000004867
 30
0.0
 11
5.335
 21
0.3000004867
 31
0.0
  0
LINE
  5
75
330
1F
100
AcDbEntity
  8
SK1
  6
Continuous
100
AcDbLine
 10
-16.94
 20
0.3000004867
 30
0.0
 11
3.56
 21
0.3000004867
 31
0.0
  0
LINE
  5
76
330
1F
100
AcDbEntity
  8
SK1
  6
Continuous
100
AcDbLine
 10
10.26
 20
2.636011698
 30
0.0
 11
10.26
 21
5.5799567247
 31
0.0
  0
LINE
  5
77
330
1F
100
AcDbEntity
  8
SK1
  6
Continuous
100
AcDbLine
 10
10.135
 20
2.718959834
 30
0.0
 11
10.135
 21
5.7802112394
 31
0.0
  0
LINE
  5
78
330
1F
100
AcDbEntity
  8
SK1
  6
Continuous
100
AcDbLine
 10
6.26
 20
3.5758117372
 30
0.0
 11
6.26
 21
7.8488347251
 31
0.0
  0
LINE
  5
79
330
1F
100
AcDbEntity
  8
SK1
  6
Continuous
100
AcDbLine
 10
6.06
 20
2.9151830877
 30
0.0
 11
6.06
 21
6.2539360799
 31
0.0
  0
LINE
  5
7A
330
1F
100
AcDbEntity
  8
SK1
  6
Continuous
100
AcDbLine
 10
3.76
 20
2.9151830877
 30
0.0
 11
3.76
 21
4.6622914952
 31
0.0
  0
LINE
  5
7B
330
1F
100
AcDbEntity
  8
SK1
  6
Continuous
100
AcDbLine
 10
3.56
 20
3.5279469192
 30
0.0
 11
3.56
 21
5.7945314195
 31
0.0
  0
LINE
  5
7C
330
1F
100
AcDbEntity
  8
SK1
  6
Continuous
100
AcDbLine
 10
3.56
 20
3.5279469192
 30
0.0
 11
3.56
 21
2.9917901744
 31
0.0
  0
SPLINE
  5
7D
330
1F
100
AcDbEntity
  8
SK1
  6
Continuous
100
AcDbSpline
210
0.0
220
0.0
230
1.0
 70
     8
 71
     3
 72
    10
 73
     6
 74
     0
 42
0.0000000427782015
 43
0.0000000001
 12
1.0
 22
0.0
 32
0.0
 13
1.0
 23
0.0
 33
0.0
 40
0.0
 40
0.0
 40
0.0
 40
0.0
 40
0.5
 40
0.5
 40
1.0
 40
1.0
 40
1.0
 40
1.0
 10
3.559999999997699
 20
2.991790174359306
 30
0.0
 10
3.560000000000089
 20
2.971823434662547
 30
0.0
 10
3.581193891622442
 20
2.951958541728218
 30
0.0
 10
3.655790534491495
 20
2.923350118608315
 30
0.0
 10
3.707153470521
 20
2.915183087703853
 30
0.0
 10
3.759999999999993
 20
2.915183087704165
 30
0.0
  0
LINE
  5
7E
330
1F
100
AcDbEntity
  8
SK1
  6
Continuous
100
AcDbLine
 10
3.76
 20
2.9151830877
 30
0.0
 11
6.06
 21
2.9151830877
 31
0.0
  0
SPLINE
  5
7F
330
1F
100
AcDbEntity
  8
SK1
  6
Continuous
100
AcDbSpline
210
0.0
220
0.0
230
1.0
 70
     8
 71
     3
 72
    10
 73
     6
 74
     0
 42
0.000000042784668
 43
0.0000000001
 12
1.0
 22
0.0
 32
0.0
 13
1.0
 23
0.0
 33
0.0
 40
0.0
 40
0.0
 40
0.0
 40
0.0
 40
0.5
 40
0.5
 40
1.0
 40
1.0
 40
1.0
 40
1.0
 10
6.059999999999998
 20
2.915183087704159
 30
0.0
 10
6.112885781154348
 20
2.91518308770416
 30
0.0
 10
6.164612059116852
 20
2.923505522478093
 30
0.0
 10
6.238393465715228
 20
2.951799284100988
 30
0.0
 10
6.26
 20
2.971806280637321
 30
0.0
 10
6.259999999999996
 20
2.991790174359407
 30
0.0
  0
LINE
  5
80
330
1F
100
AcDbEntity
  8
SK1
  6
Continuous
100
AcDbLine
 10
6.26
 20
3.0214840177
 30
0.0
 11
6.26
 21
3.5758117372
 31
0.0
  0
LINE
  5
81
330
1F
100
AcDbEntity
  8
SK1
  6
Continuous
100
AcDbLine
 10
6.26
 20
3.5758117372
 30
0.0
 11
10.135
 21
2.718959834
 31
0.0
  0
SPLINE
  5
82
330
1F
100
AcDbEntity
  8
SK1
  6
Continuous
100
AcDbSpline
210
0.0
220
0.0
230
1.0
 70
     8
 71
     3
 72
     8
 73
     4
 74
     0
 42
0.0000000587350374
 43
0.0000000001
 12
1.0
 22
0.0
 32
0.0
 13
1.0
 23
0.0
 33
0.0
 40
0.0
 40
0.0
 40
0.0
 40
0.0
 40
1.0
 40
1.0
 40
1.0
 40
1.0
 10
10.135
 20
2.718959833955481
 30
0.0
 10
10.21131238677113
 20
2.702080567911446
 30
0.0
 10
10.26
 20
2.669562844429731
 30
0.0
 10
10.26
 20
2.636011698025211
 30
0.0
  0
LINE
  5
83
330
1F
100
AcDbEntity
  8
SK1
  6
Continuous
100
AcDbLine
 10
10.26
 20
2.636011698
 30
0.0
 11
10.26
 21
2.0816839785
 31
0.0
  0
SPLINE
  5
84
330
1F
100
AcDbEntity
  8
SK1
  6
Continuous
100
AcDbSpline
210
0.0
220
0.0
230
1.0
 70
     8
 71
     3
 72
    10
 73
     6
 74
     0
 42
0.0000000427782015
 43
0.0000000001
 12
1.0
 22
0.0
 32
0.0
 13
1.0
 23
0.0
 33
0.0
 40
0.0
 40
0.0
 40
0.0
 40
0.0
 40
0.5
 40
0.5
 40
1.0
 40
1.0
 40
1.0
 40
1.0
 10
3.559999999997699
 20
2.437462454852533
 30
0.0
 10
3.560000000000089
 20
2.417495715155774
 30
0.0
 10
3.581193891622442
 20
2.397630822221446
 30
0.0
 10
3.655790534491495
 20
2.369022399101543
 30
0.0
 10
3.707153470521002
 20
2.360855368197082
 30
0.0
 10
3.759999999999993
 20
2.360855368197393
 30
0.0
  0
LINE
  5
85
330
1F
100
AcDbEntity
  8
SK1
  6
Continuous
100
AcDbLine
 10
3.76
 20
2.3608553682
 30
0.0
 11
6.06
 21
2.3608553682
 31
0.0
  0
SPLINE
  5
86
330
1F
100
AcDbEntity
  8
SK1
  6
Continuous
100
AcDbSpline
210
0.0
220
0.0
230
1.0
 70
     8
 71
     3
 72
    10
 73
     6
 74
     0
 42
0.000000042784668
 43
0.0000000001
 12
1.0
 22
0.0
 32
0.0
 13
1.0
 23
0.0
 33
0.0
 40
0.0
 40
0.0
 40
0.0
 40
0.0
 40
0.5
 40
0.5
 40
1.0
 40
1.0
 40
1.0
 40
1.0
 10
6.059999999999998
 20
2.360855368197386
 30
0.0
 10
6.112885781154348
 20
2.360855368197386
 30
0.0
 10
6.164612059116854
 20
2.369177802971322
 30
0.0
 10
6.238393465715232
 20
2.397471564594217
 30
0.0
 10
6.260000000000002
 20
2.41747856113055
 30
0.0
 10
6.259999999999996
 20
2.437462454852634
 30
0.0
  0
LINE
  5
87
330
1F
100
AcDbEntity
  8
SK1
  6
Continuous
100
AcDbLine
 10
6.26
 20
3.0214840177
 30
0.0
 11
10.135
 21
2.1646321144
 31
0.0
  0
SPLINE
  5
88
330
1F
100
AcDbEntity
  8
SK1
  6
Continuous
100
AcDbSpline
210
0.0
220
0.0
230
1.0
 70
     8
 71
     3
 72
     8
 73
     4
 74
     0
 42
0.0000000587350374
 43
0.0000000001
 12
1.0
 22
0.0
 32
0.0
 13
1.0
 23
0.0
 33
0.0
 40
0.0
 40
0.0
 40
0.0
 40
0.0
 40
1.0
 40
1.0
 40
1.0
 40
1.0
 10
10.135
 20
2.164632114448709
 30
0.0
 10
10.21131238677113
 20
2.147752848404673
 30
0.0
 10
10.26
 20
2.115235124922959
 30
0.0
 10
10.26
 20
2.08168397851844
 30
0.0
  0
LINE
  5
89
330
1F
100
AcDbEntity
  8
SK1
  6
Continuous
100
AcDbLine
 10
-16.94
 20
4.1796369036
 30
0.0
 11
-16.94
 21
5.6108989932
 31
0.0
  0
LINE
  5
8A
330
1F
100
AcDbEntity
  8
SK1
  6
Continuous
100
AcDbLine
 10
-17.24
 20
3.9671847389
 30
0.0
 11
-17.24
 21
5.3104462605
 31
0.0
  0
LINE
  5
8B
330
1F
100
AcDbEntity
  8
SK1
  6
Continuous
100
AcDbLine
 10
3.76
 20
5.0865555639
 30
0.0
 11
3.76
 21
6.2539360799
 31
0.0
  0
LINE
  5
8C
330
1F
100
AcDbEntity
  8
SK1
  6
Continuous
100
AcDbLine
 10
3.56
 20
6.2187954882
 30
0.0
 11
3.56
 21
7.7332788323
 31
0.0
  0
LINE
  5
8F
330
1F
100
AcDbEntity
  8
SK3
100
AcDbLine
 10
-17.24
 20
3.3870340944
 30
0.0
 11
5.335
 21
3.3870340944
 31
0.0
  0
SPLINE
  5
90
330
1F
100
AcDbEntity
  8
SK1
  6
Continuous
100
AcDbSpline
210
0.0
220
0.0
230
1.0
 70
     8
 71
     3
 72
    10
 73
     6
 74
     0
 42
0.0000000360898023
 43
0.0000000001
 12
1.0
 22
0.0
 32
0.0
 13
1.0
 23
0.0
 33
0.0
 40
0.0
 40
0.0
 40
0.0
 40
0.0
 40
0.5
 40
0.5
 40
1.0
 40
1.0
 40
1.0
 40
1.0
 10
3.559999999999992
 20
5.228107002684374
 30
0.0
 10
3.559999999999986
 20
5.191213278410788
 30
0.0
 10
3.581193891622298
 20
5.154507742415595
 30
0.0
 10
3.655790534491359
 20
5.101646269259688
 30
0.0
 10
3.707153470520932
 20
5.086555563871605
 30
0.0
 10
3.759999999999991
 20
5.086555563872169
 30
0.0
  0
LINE
  5
91
330
1F
100
AcDbEntity
  8
SK1
  6
Continuous
100
AcDbLine
 10
3.76
 20
5.0865555639
 30
0.0
 11
5.335
 21
5.0865555639
 31
0.0
  0
LINE
  5
92
330
1F
100
AcDbEntity
  8
SK1
  6
Continuous
100
AcDbLine
 10
-17.24
 20
3.5429206702
 30
0.0
 11
-17.24
 21
3.9671847389
 31
0.0
  0
LINE
  5
93
330
1F
100
AcDbEntity
  8
SK1
  6
Continuous
100
AcDbLine
 10
-17.24
 20
3.9671847389
 30
0.0
 11
-16.94
 21
4.1796369036
 31
0.0
  0
SPLINE
  5
94
330
1F
100
AcDbEntity
  8
SK1
  6
Continuous
100
AcDbSpline
210
0.0
220
0.0
230
1.0
 70
     8
 71
     3
 72
    11
 73
     7
 74
     0
 42
0.0000000004854093
 43
0.0000000001
 12
1.0
 22
0.0
 32
0.0
 13
1.0
 23
0.0
 33
0.0
 40
0.0
 40
0.0
 40
0.0
 40
0.0
 40
0.4765105083775885
 40
0.4765105083775885
 40
0.4765105083775885
 40
1.0
 40
1.0
 40
1.0
 40
1.0
 10
-16.94000000000001
 20
4.179636903551074
 30
0.0
 10
-13.68387546619054
 20
4.503684215713991
 30
0.0
 10
-10.42772969982549
 20
4.827624855481865
 30
0.0
 10
-7.171573182004696
 20
5.151511434525439
 30
0.0
 10
-3.594393475410472
 20
5.507329863846
 30
0.0
 10
-0.0172003960014488
 20
5.863081073635775
 30
0.0
 10
3.559999999999991
 20
6.218795488163076
 30
0.0
  0
LINE
  5
95
330
1F
100
AcDbEntity
  8
SK1
  6
Continuous
100
AcDbLine
 10
3.56
 20
6.2187954882
 30
0.0
 11
3.56
 21
5.7945314195
 31
0.0
  0
SPLINE
  5
96
330
1F
100
AcDbEntity
  8
SK1
  6
Continuous
100
AcDbSpline
210
0.0
220
0.0
230
1.0
 70
     8
 71
     3
 72
    10
 73
     6
 74
     0
 42
0.0000000360898023
 43
0.0000000001
 12
1.0
 22
0.0
 32
0.0
 13
1.0
 23
0.0
 33
0.0
 40
0.0
 40
0.0
 40
0.0
 40
0.0
 40
0.5
 40
0.5
 40
1.0
 40
1.0
 40
1.0
 40
1.0
 10
3.559999999999992
 20
4.803842933972446
 30
0.0
 10
3.559999999999987
 20
4.766949209698858
 30
0.0
 10
3.581193891622299
 20
4.730243673703669
 30
0.0
 10
3.655790534491359
 20
4.677382200547759
 30
0.0
 10
3.707153470520933
 20
4.662291495159677
 30
0.0
 10
3.759999999999991
 20
4.662291495160241
 30
0.0
  0
LINE
  5
97
330
1F
100
AcDbEntity
  8
SK1
  6
Continuous
100
AcDbLine
 10
3.76
 20
4.6622914952
 30
0.0
 11
5.335
 21
4.6622914952
 31
0.0
  0
LINE
  5
98
330
1F
100
AcDbEntity
  8
SK1
  6
Continuous
100
AcDbLine
 10
-17.24
 20
3.5429206702
 30
0.0
 11
-16.94
 21
3.7553728348
 31
0.0
  0
SPLINE
  5
99
330
1F
100
AcDbEntity
  8
SK1
  6
Continuous
100
AcDbSpline
210
0.0
220
0.0
230
1.0
 70
     8
 71
     3
 72
    11
 73
     7
 74
     0
 42
0.0000000004854093
 43
0.0000000001
 12
1.0
 22
0.0
 32
0.0
 13
1.0
 23
0.0
 33
0.0
 40
0.0
 40
0.0
 40
0.0
 40
0.0
 40
0.4765105083775885
 40
0.4765105083775885
 40
0.4765105083775885
 40
1.0
 40
1.0
 40
1.0
 40
1.0
 10
-16.94000000000001
 20
3.755372834839148
 30
0.0
 10
-13.68387546619054
 20
4.079420147002065
 30
0.0
 10
-10.42772969982549
 20
4.403360786769936
 30
0.0
 10
-7.171573182004696
 20
4.727247365813511
 30
0.0
 10
-3.594393475410472
 20
5.083065795134071
 30
0.0
 10
-0.0172003960014471
 20
5.438817004923845
 30
0.0
 10
3.559999999999991
 20
5.794531419451146
 30
0.0
  0
LINE
  5
9A
330
1F
100
AcDbEntity
  8
SK3
100
AcDbLine
 10
-17.24
 20
2.9627700257
 30
0.0
 11
5.335
 21
2.9627700257
 31
0.0
  0
LINE
  5
9B
330
1F
100
AcDbEntity
  8
SK1
  6
Continuous
100
AcDbLine
 10
10.26
 20
-5.8095658106
 30
0.0
 11
10.26
 21
-6.1712608692
 31
0.0
  0
LINE
  5
9C
330
1F
100
AcDbEntity
  8
SK1
  6
Continuous
100
AcDbLine
 10
10.135
 20
-6.0098203254
 30
0.0
 11
10.135
 21
-6.3877672202
 31
0.0
  0
LINE
  5
9D
330
1F
100
AcDbEntity
  8
SK1
  6
Continuous
100
AcDbLine
 10
6.26
 20
-8.078443811
 30
0.0
 11
6.26
 21
-8.6249995133
 31
0.0
  0
LINE
  5
9E
330
1F
100
AcDbEntity
  8
SK1
  6
Continuous
100
AcDbLine
 10
6.06
 20
-6.8999995133
 30
0.0
 11
6.06
 21
-6.4835451658
 31
0.0
  0
LINE
  5
9F
330
1F
100
AcDbEntity
  8
SK1
  6
Continuous
100
AcDbLine
 10
10.26
 20
6.1712618427
 30
0.0
 11
10.26
 21
5.8095667841
 31
0.0
  0
LINE
  5
A0
330
1F
100
AcDbEntity
  8
SK1
  6
Continuous
100
AcDbLine
 10
10.135
 20
6.3877681936
 30
0.0
 11
10.135
 21
6.0098212988
 31
0.0
  0
LINE
  5
A1
330
1F
100
AcDbEntity
  8
SK1
  6
Continuous
100
AcDbLine
 10
6.26
 20
8.6250004867
 30
0.0
 11
6.26
 21
8.0784447845
 31
0.0
  0
LINE
  5
A2
330
1F
100
AcDbEntity
  8
SK1
  6
Continuous
100
AcDbLine
 10
6.06
 20
6.9000004867
 30
0.0
 11
6.06
 21
6.4835461392
 31
0.0
  0
LINE
  5
A3
330
1F
100
AcDbEntity
  8
SK1
  6
Continuous
100
AcDbLine
 10
3.76
 20
6.4835461393
 30
0.0
 11
3.76
 21
6.8934756626
 31
0.0
  0
LINE
  5
A4
330
1F
100
AcDbEntity
  8
SK1
  6
Continuous
100
AcDbLine
 10
3.56
 20
7.9628888917
 30
0.0
 11
3.56
 21
8.4947047194
 31
0.0
  0
LINE
  5
A5
330
1F
100
AcDbEntity
  8
SK1
  6
Continuous
100
AcDbLine
 10
3.56
 20
7.9628888917
 30
0.0
 11
3.56
 21
7.7332788323
 31
0.0
  0
ARC
  5
A6
330
1F
100
AcDbEntity
  8
SK1
  6
Continuous
100
AcDbCircle
 10
3.7527490618
 20
6.6763176772
 30
0.0
 40
0.1929078587082918
100
AcDbArc
 50
182.3249491202
 51
272.1541167163
  0
LINE
  5
A7
330
1F
100
AcDbEntity
  8
SK1
  6
Continuous
100
AcDbLine
 10
3.76
 20
6.4835461393
 30
0.0
 11
6.06
 21
6.4835461392
 31
0.0
  0
ARC
  5
A8
330
1F
100
AcDbEntity
  8
SK1
  6
Continuous
100
AcDbCircle
 10
6.0672545788
 20
6.6763137402
 30
0.0
 40
0.1929040614075613
100
AcDbArc
 50
267.8447587712
 51
357.6761754115
  0
LINE
  5
A9
330
1F
100
AcDbEntity
  8
SK1
  6
Continuous
100
AcDbLine
 10
6.26
 20
7.8488347251
 30
0.0
 11
6.26
 21
8.0784447845
 31
0.0
  0
SPLINE
  5
AA
330
1F
100
AcDbEntity
  8
SK1
  6
Continuous
100
AcDbSpline
210
0.0
220
0.0
230
1.0
 70
     8
 71
     3
 72
     8
 73
     4
 74
     0
 42
0.0000000022765623
 43
0.0000000001
 12
1.0
 22
0.0
 32
0.0
 13
1.0
 23
0.0
 33
0.0
 40
0.0
 40
0.0
 40
0.0
 40
0.0
 40
1.0
 40
1.0
 40
1.0
 40
1.0
 10
6.259999999999994
 20
8.07844478451433
 30
0.0
 10
7.551735260324492
 20
7.389013314546774
 30
0.0
 10
8.843426021530066
 20
6.699510607061966
 30
0.0
 10
10.13500000000004
 20
6.009821298829598
 30
0.0
  0
ARC
  5
AB
330
1F
100
AcDbEntity
  8
SK1
  6
Continuous
100
AcDbCircle
 10
10.031382194
 20
5.806002368
 30
0.0
 40
0.2286455910326203
100
AcDbArc
 50
0.893235122
 51
63.0520513564
  0
LINE
  5
AC
330
1F
100
AcDbEntity
  8
SK1
  6
Continuous
100
AcDbLine
 10
10.26
 20
5.8095667841
 30
0.0
 11
10.26
 21
5.5799567247
 31
0.0
  0
ARC
  5
AD
330
1F
100
AcDbEntity
  8
SK1
  6
Continuous
100
AcDbCircle
 10
3.7527490618
 20
6.4467076178
 30
0.0
 40
0.192907858708289
100
AcDbArc
 50
182.3249491202
 51
272.1541167163
  0
LINE
  5
AE
330
1F
100
AcDbEntity
  8
SK1
  6
Continuous
100
AcDbLine
 10
3.76
 20
6.2539360799
 30
0.0
 11
6.06
 21
6.2539360798
 31
0.0
  0
ARC
  5
AF
330
1F
100
AcDbEntity
  8
SK1
  6
Continuous
100
AcDbCircle
 10
6.0672545788
 20
6.4467036808
 30
0.0
 40
0.1929040614075577
100
AcDbArc
 50
267.8447587712
 51
357.6761754115
  0
SPLINE
  5
B0
330
1F
100
AcDbEntity
  8
SK1
  6
Continuous
100
AcDbSpline
210
0.0
220
0.0
230
1.0
 70
     8
 71
     3
 72
     8
 73
     4
 74
     0
 42
0.0000000022765623
 43
0.0000000001
 12
1.0
 22
0.0
 32
0.0
 13
1.0
 23
0.0
 33
0.0
 40
0.0
 40
0.0
 40
0.0
 40
0.0
 40
1.0
 40
1.0
 40
1.0
 40
1.0
 10
6.259999999999994
 20
7.848834725095278
 30
0.0
 10
7.551735260324492
 20
7.159403255127719
 30
0.0
 10
8.843426021530068
 20
6.469900547642912
 30
0.0
 10
10.13500000000004
 20
5.780211239410545
 30
0.0
  0
ARC
  5
B1
330
1F
100
AcDbEntity
  8
SK1
  6
Continuous
100
AcDbCircle
 10
10.031382194
 20
5.5763923086
 30
0.0
 40
0.2286455910326161
100
AcDbArc
 50
0.893235122
 51
63.0520513564
  0
LINE
  5
B2
330
1F
100
AcDbEntity
  8
SK1
  6
Continuous
100
AcDbLine
 10
-16.94
 20
-5.6108980197
 30
0.0
 11
-16.94
 21
-4.1796359301
 31
0.0
  0
LINE
  5
B3
330
1F
100
AcDbEntity
  8
SK1
  6
Continuous
100
AcDbLine
 10
-17.24
 20
-5.3104452871
 30
0.0
 11
-17.24
 21
-3.9671837654
 31
0.0
  0
LINE
  5
B4
330
1F
100
AcDbEntity
  8
SK1
  6
Continuous
100
AcDbLine
 10
-16.94
 20
-5.6108980197
 30
0.0
 11
-17.24
 21
-5.3104452871
 31
0.0
  0
LINE
  5
B5
330
1F
100
AcDbEntity
  8
SK1
  6
Continuous
100
AcDbLine
 10
3.76
 20
-6.8934746891
 30
0.0
 11
3.76
 21
-6.4835451658
 31
0.0
  0
LINE
  5
B6
330
1F
100
AcDbEntity
  8
SK1
  6
Continuous
100
AcDbLine
 10
3.56
 20
-8.4947037459
 30
0.0
 11
3.56
 21
-7.9628879182
 31
0.0
  0
SPLINE
  5
B7
330
1F
100
AcDbEntity
  8
SK1
  6
Continuous
100
AcDbSpline
210
0.0
220
0.0
230
1.0
 70
     8
 71
     3
 72
    10
 73
     6
 74
     0
 42
0.0000000310249665
 43
0.0000000001
 12
1.0
 22
0.0
 32
0.0
 13
1.0
 23
0.0
 33
0.0
 40
0.0
 40
0.0
 40
0.0
 40
0.0
 40
0.5
 40
0.5
 40
1.0
 40
1.0
 40
1.0
 40
1.0
 10
3.559999999999992
 20
7.093659627121904
 30
0.0
 10
3.559999999999987
 20
7.041484021887742
 30
0.0
 10
3.581193891622299
 20
6.989574555069169
 30
0.0
 10
3.655790534491359
 20
6.914817142805063
 30
0.0
 10
3.707153470520933
 20
6.893475662579461
 30
0.0
 10
3.759999999999991
 20
6.89347566258026
 30
0.0
  0
LINE
  5
B8
330
1F
100
AcDbEntity
  8
SK1
  6
Continuous
100
AcDbLine
 10
3.76
 20
6.8934756626
 30
0.0
 11
5.335
 21
6.8934756626
 31
0.0
  0
SPLINE
  5
B9
330
1F
100
AcDbEntity
  8
SK1
  6
Continuous
100
AcDbSpline
210
0.0
220
0.0
230
1.0
 70
     8
 71
     3
 72
    10
 73
     6
 74
     0
 42
0.0000000310328312
 43
0.0000000001
 12
1.0
 22
0.0
 32
0.0
 13
1.0
 23
0.0
 33
0.0
 40
0.0
 40
0.0
 40
0.0
 40
0.0
 40
0.5
 40
0.5
 40
1.0
 40
1.0
 40
1.0
 40
1.0
 10
3.759999999999994
 20
-6.89347468911101
 30
0.0
 10
3.707114218845642
 20
-6.893474689111009
 30
0.0
 10
3.655387940883139
 20
-6.915222259217455
 30
0.0
 10
3.581606534284762
 20
-6.989157421364483
 30
0.0
 10
3.559999999999989
 20
-7.041438222790052
 30
0.0
 10
3.559999999999996
 20
-7.093658653652655
 30
0.0
  0
SPLINE
  5
BA
330
1F
100
AcDbEntity
  8
SK1
  6
Continuous
100
AcDbSpline
210
0.0
220
0.0
230
1.0
 70
     8
 71
     3
 72
    11
 73
     7
 74
     0
 42
0.0000000004830488
 43
0.0000000001
 12
1.0
 22
0.0
 32
0.0
 13
1.0
 23
0.0
 33
0.0
 40
0.0
 40
0.0
 40
0.0
 40
0.0
 40
0.7208513756322446
 40
0.7208513756322446
 40
0.7208513756322446
 40
1.0
 40
1.0
 40
1.0
 40
1.0
 10
3.559999999999997
 20
-8.494703745903497
 30
0.0
 10
-1.365848306402144
 20
-7.80198933043467
 30
0.0
 10
-6.291683589827661
 20
-7.109182276224432
 30
0.0
 10
-11.21748710364617
 20
-6.416149418174832
 30
0.0
 10
-13.124997197796
 20
-6.147773473296282
 30
0.0
 10
-15.03250232935265
 20
-5.879362251128033
 30
0.0
 10
-16.94000000000001
 20
-5.610898019715681
 30
0.0
  0
LINE
  5
BB
330
1F
100
AcDbEntity
  8
SK1
  6
Continuous
100
AcDbLine
 10
-17.24
 20
5.3104462605
 30
0.0
 11
-16.94
 21
5.6108989932
 31
0.0
  0
SPLINE
  5
BC
330
1F
100
AcDbEntity
  8
SK1
  6
Continuous
100
AcDbSpline
210
0.0
220
0.0
230
1.0
 70
     8
 71
     3
 72
    11
 73
     7
 74
     0
 42
0.0000000004830488
 43
0.0000000001
 12
1.0
 22
0.0
 32
0.0
 13
1.0
 23
0.0
 33
0.0
 40
0.0
 40
0.0
 40
0.0
 40
0.0
 40
0.4765105083775883
 40
0.4765105083775883
 40
0.4765105083775883
 40
1.0
 40
1.0
 40
1.0
 40
1.0
 10
-16.94000000000001
 20
5.610898993184925
 30
0.0
 10
-13.68387546619054
 20
6.06917109689627
 30
0.0
 10
-10.42772969982549
 20
6.527292343059815
 30
0.0
 10
-7.171573182004696
 20
6.985337135813863
 30
0.0
 10
-3.594393475410472
 20
7.488540384301294
 30
0.0
 10
-0.0172003960014488
 20
7.99164857001663
 30
0.0
 10
3.55999999999999
 20
8.494704719372749
 30
0.0
  0
LINE
  5
BD
330
1F
100
AcDbEntity
  8
SK3
100
AcDbLine
 10
-17.24
 20
4.4899893509
 30
0.0
 11
5.335
 21
4.4899893509
 31
0.0
  0
LINE
  5
BE
330
1F
100
AcDbEntity
  8
SK1
  6
Continuous
100
AcDbLine
 10
10.26
 20
-5.5799557512
 30
0.0
 11
10.26
 21
-2.6360107246
 31
0.0
  0
LINE
  5
BF
330
1F
100
AcDbEntity
  8
SK1
  6
Continuous
100
AcDbLine
 10
10.26
 20
-5.5799557512
 30
0.0
 11
10.26
 21
-5.8095658106
 31
0.0
  0
LINE
  5
C0
330
1F
100
AcDbEntity
  8
SK1
  6
Continuous
100
AcDbLine
 10
10.135
 20
-5.7802102659
 30
0.0
 11
10.135
 21
-2.7189588605
 31
0.0
  0
LINE
  5
C1
330
1F
100
AcDbEntity
  8
SK1
  6
Continuous
100
AcDbLine
 10
6.26
 20
-7.8488337516
 30
0.0
 11
6.26
 21
-3.5758107637
 31
0.0
  0
LINE
  5
C2
330
1F
100
AcDbEntity
  8
SK1
  6
Continuous
100
AcDbLine
 10
6.06
 20
-6.2539351064
 30
0.0
 11
6.06
 21
-2.9151821142
 31
0.0
  0
LINE
  5
C3
330
1F
100
AcDbEntity
  8
SK1
  6
Continuous
100
AcDbLine
 10
3.76
 20
-6.2539351064
 30
0.0
 11
3.76
 21
-5.0865545904
 31
0.0
  0
LINE
  5
C4
330
1F
100
AcDbEntity
  8
SK1
  6
Continuous
100
AcDbLine
 10
3.56
 20
-7.7332778588
 30
0.0
 11
3.56
 21
-6.2187945147
 31
0.0
  0
LINE
  5
C5
330
1F
100
AcDbEntity
  8
SK3
100
AcDbLine
 10
10.26
 20
-4.2630133557
 30
0.0
 11
-14.94
 21
-4.2630133557
 31
0.0
  0
ARC
  5
C6
330
1F
100
AcDbEntity
  8
SK1
  6
Continuous
100
AcDbCircle
 10
10.028508674
 20
-5.5745976677
 30
0.0
 40
0.2315533266338604
100
AcDbArc
 50
297.3806412443
 51
358.6740722772
  0
LINE
  5
C7
330
1F
100
AcDbEntity
  8
SK1
  6
Continuous
100
AcDbLine
 10
10.135
 20
-5.7802102659
 30
0.0
 11
6.26
 21
-7.8488337516
 31
0.0
  0
ARC
  5
C8
330
1F
100
AcDbEntity
  8
SK1
  6
Continuous
100
AcDbCircle
 10
6.0672483498
 20
-6.4467094434
 30
0.0
 40
0.1929105584737993
100
AcDbArc
 50
2.3257485766
 51
92.1533172599
  0
LINE
  5
C9
330
1F
100
AcDbEntity
  8
SK1
  6
Continuous
100
AcDbLine
 10
6.06
 20
-6.2539351064
 30
0.0
 11
3.76
 21
-6.2539351064
 31
0.0
  0
ARC
  5
CA
330
1F
100
AcDbEntity
  8
SK1
  6
Continuous
100
AcDbCircle
 10
3.7527520143
 20
-6.4467098372
 30
0.0
 40
0.1929109383187583
100
AcDbArc
 50
87.8467952167
 51
177.6741389463
  0
SPLINE
  5
CB
330
1F
100
AcDbEntity
  8
SK1
  6
Continuous
100
AcDbSpline
210
0.0
220
0.0
230
1.0
 70
     8
 71
     3
 72
    11
 73
     7
 74
     0
 42
0.0000000005360328
 43
0.0000000001
 12
1.0
 22
0.0
 32
0.0
 13
1.0
 23
0.0
 33
0.0
 40
0.0
 40
0.0
 40
0.0
 40
0.0
 40
0.7987819515595034
 40
0.7987819515595034
 40
0.7987819515595034
 40
1.0
 40
1.0
 40
1.0
 40
1.0
 10
3.559999999999996
 20
-7.733277858827233
 30
0.0
 10
-1.365848306402144
 20
-7.093293188500066
 30
0.0
 10
-6.291683589827661
 20
-6.453222931135789
 30
0.0
 10
-11.21748710364617
 20
-5.812944058225963
 30
0.0
 10
-12.45832707090469
 20
-5.651653902524671
 30
0.0
 10
-13.69916491084219
 20
-5.490349776606764
 30
0.0
 10
-14.94000000000126
 20
-5.329027591765284
 30
0.0
  0
LINE
  5
CC
330
1F
100
AcDbEntity
  8
SK1
  6
Continuous
100
AcDbLine
 10
3.56
 20
-7.7332778588
 30
0.0
 11
3.56
 21
-7.9628879182
 31
0.0
  0
SPLINE
  5
CD
330
1F
100
AcDbEntity
  8
SK1
  6
Continuous
100
AcDbSpline
210
0.0
220
0.0
230
1.0
 70
     8
 71
     3
 72
    11
 73
     7
 74
     0
 42
0.0000000005360328
 43
0.0000000001
 12
1.0
 22
0.0
 32
0.0
 13
1.0
 23
0.0
 33
0.0
 40
0.0
 40
0.0
 40
0.0
 40
0.0
 40
0.7987819515595568
 40
0.7987819515595568
 40
0.7987819515595568
 40
1.0
 40
1.0
 40
1.0
 40
1.0
 10
3.559999999999996
 20
-7.962887918246281
 30
0.0
 10
-1.365848306402144
 20
-7.322903247919114
 30
0.0
 10
-6.291683589827661
 20
-6.682832990554838
 30
0.0
 10
-11.21748710364617
 20
-6.042554117645009
 30
0.0
 10
-12.45832707090427
 20
-5.881263961943774
 30
0.0
 10
-13.69916491084136
 20
-5.719959836025919
 30
0.0
 10
-14.94000000000002
 20
-5.558637651184491
 30
0.0
  0
ARC
  5
CE
330
1F
100
AcDbEntity
  8
SK1
  6
Continuous
100
AcDbCircle
 10
10.028508674
 20
-5.8042077271
 30
0.0
 40
0.2315533266338629
100
AcDbArc
 50
297.3806412443
 51
358.6740722772
  0
LINE
  5
CF
330
1F
100
AcDbEntity
  8
SK1
  6
Continuous
100
AcDbLine
 10
10.135
 20
-6.0098203254
 30
0.0
 11
6.26
 21
-8.078443811
 31
0.0
  0
LINE
  5
D0
330
1F
100
AcDbEntity
  8
SK1
  6
Continuous
100
AcDbLine
 10
6.26
 20
-8.078443811
 30
0.0
 11
6.26
 21
-7.8488337516
 31
0.0
  0
ARC
  5
D1
330
1F
100
AcDbEntity
  8
SK1
  6
Continuous
100
AcDbCircle
 10
6.0672483498
 20
-6.6763195028
 30
0.0
 40
0.1929105584737995
100
AcDbArc
 50
2.3257485766
 51
92.1533172599
  0
LINE
  5
D2
330
1F
100
AcDbEntity
  8
SK1
  6
Continuous
100
AcDbLine
 10
6.06
 20
-6.4835451658
 30
0.0
 11
3.76
 21
-6.4835451658
 31
0.0
  0
ARC
  5
D3
330
1F
100
AcDbEntity
  8
SK1
  6
Continuous
100
AcDbCircle
 10
3.7527520143
 20
-6.6763198966
 30
0.0
 40
0.1929109383187582
100
AcDbArc
 50
87.8467952167
 51
177.6741389463
  0
LINE
  5
D4
330
1F
100
AcDbEntity
  8
SK3
100
AcDbLine
 10
10.26
 20
-4.0334032963
 30
0.0
 11
-14.94
 21
-4.0334032963
 31
0.0
  0
LINE
  5
D5
330
1F
100
AcDbEntity
  8
SK1
  6
Continuous
100
AcDbLine
 10
-16.94
 20
-3.7553718614
 30
0.0
 11
-16.94
 21
-0.2999995133
 31
0.0
  0
LINE
  5
D6
330
1F
100
AcDbEntity
  8
SK1
  6
Continuous
100
AcDbLine
 10
-17.24
 20
-3.5429196967
 30
0.0
 11
-17.24
 21
-0.2999995133
 31
0.0
  0
LINE
  5
D7
330
1F
100
AcDbEntity
  8
SK1
  6
Continuous
100
AcDbLine
 10
-16.94
 20
-3.7553718614
 30
0.0
 11
-17.24
 21
-3.5429196967
 31
0.0
  0
LINE
  5
D8
330
1F
100
AcDbEntity
  8
SK1
  6
Continuous
100
AcDbLine
 10
-16.94
 20
-4.1796359301
 30
0.0
 11
-17.24
 21
-3.9671837654
 31
0.0
  0
LINE
  5
D9
330
1F
100
AcDbEntity
  8
SK1
  6
Continuous
100
AcDbLine
 10
3.76
 20
-4.6622905217
 30
0.0
 11
3.76
 21
-2.9151821142
 31
0.0
  0
LINE
  5
DA
330
1F
100
AcDbEntity
  8
SK1
  6
Continuous
100
AcDbLine
 10
3.56
 20
-5.794530446
 30
0.0
 11
3.56
 21
-3.5279459457
 31
0.0
  0
SPLINE
  5
DB
330
1F
100
AcDbEntity
  8
SK1
  6
Continuous
100
AcDbSpline
210
0.0
220
0.0
230
1.0
 70
     8
 71
     3
 72
    10
 73
     6
 74
     0
 42
0.0000000360984298
 43
0.0000000001
 12
1.0
 22
0.0
 32
0.0
 13
1.0
 23
0.0
 33
0.0
 40
0.0
 40
0.0
 40
0.0
 40
0.0
 40
0.5
 40
0.5
 40
1.0
 40
1.0
 40
1.0
 40
1.0
 10
3.759999999999994
 20
-4.662290521691041
 30
0.0
 10
3.707114218845644
 20
-4.662290521691041
 30
0.0
 10
3.655387940883137
 20
-4.677668375987637
 30
0.0
 10
3.58160653428476
 20
-4.72994843050993
 30
0.0
 10
3.559999999999988
 20
-4.766916539723816
 30
0.0
 10
3.559999999999995
 20
-4.803841960503246
 30
0.0
  0
SPLINE
  5
DC
330
1F
100
AcDbEntity
  8
SK1
  6
Continuous
100
AcDbSpline
210
0.0
220
0.0
230
1.0
 70
     8
 71
     3
 72
    11
 73
     7
 74
     0
 42
0.0000000004854093
 43
0.0000000001
 12
1.0
 22
0.0
 32
0.0
 13
1.0
 23
0.0
 33
0.0
 40
0.0
 40
0.0
 40
0.0
 40
0.0
 40
0.7208513756322448
 40
0.7208513756322448
 40
0.7208513756322448
 40
1.0
 40
1.0
 40
1.0
 40
1.0
 10
3.559999999999995
 20
-5.794530445981952
 30
0.0
 10
-1.365848306402146
 20
-5.304707385378268
 30
0.0
 10
-6.291683589827665
 20
-4.814818819292332
 30
0.0
 10
-11.21748710364617
 20
-4.324770585780366
 30
0.0
 10
-13.124997197796
 20
-4.135000135249395
 30
0.0
 10
-15.03250232935265
 20
-3.945204739907658
 30
0.0
 10
-16.94000000000001
 20
-3.75537186136995
 30
0.0
  0
SPLINE
  5
DD
330
1F
100
AcDbEntity
  8
SK1
  6
Continuous
100
AcDbSpline
210
0.0
220
0.0
230
1.0
 70
     8
 71
     3
 72
    10
 73
     6
 74
     0
 42
0.0000000360984298
 43
0.0000000001
 12
1.0
 22
0.0
 32
0.0
 13
1.0
 23
0.0
 33
0.0
 40
0.0
 40
0.0
 40
0.0
 40
0.0
 40
0.5
 40
0.5
 40
1.0
 40
1.0
 40
1.0
 40
1.0
 10
3.759999999999994
 20
-5.086554590402964
 30
0.0
 10
3.707114218845642
 20
-5.086554590402964
 30
0.0
 10
3.655387940883137
 20
-5.101932444699562
 30
0.0
 10
3.58160653428476
 20
-5.154212499221853
 30
0.0
 10
3.559999999999989
 20
-5.191180608435739
 30
0.0
 10
3.559999999999995
 20
-5.228106029215169
 30
0.0
  0
LINE
  5
DE
330
1F
100
AcDbEntity
  8
SK1
  6
Continuous
100
AcDbLine
 10
3.56
 20
-5.794530446
 30
0.0
 11
3.56
 21
-6.2187945147
 31
0.0
  0
SPLINE
  5
DF
330
1F
100
AcDbEntity
  8
SK1
  6
Continuous
100
AcDbSpline
210
0.0
220
0.0
230
1.0
 70
     8
 71
     3
 72
    11
 73
     7
 74
     0
 42
0.0000000004854093
 43
0.0000000001
 12
1.0
 22
0.0
 32
0.0
 13
1.0
 23
0.0
 33
0.0
 40
0.0
 40
0.0
 40
0.0
 40
0.0
 40
0.7208513756322449
 40
0.7208513756322449
 40
0.7208513756322449
 40
1.0
 40
1.0
 40
1.0
 40
1.0
 10
3.559999999999995
 20
-6.218794514693876
 30
0.0
 10
-1.365848306402146
 20
-5.728971454090192
 30
0.0
 10
-6.291683589827665
 20
-5.239082888004256
 30
0.0
 10
-11.21748710364617
 20
-4.749034654492289
 30
0.0
 10
-13.124997197796
 20
-4.55926420396132
 30
0.0
 10
-15.03250232935265
 20
-4.369468808619581
 30
0.0
 10
-16.94000000000001
 20
-4.179635930081873
 30
0.0
  0
LINE
  5
E0
330
1F
100
AcDbEntity
  8
SK1
  6
Continuous
100
AcDbLine
 10
-17.24
 20
-3.9671837654
 30
0.0
 11
-17.24
 21
-3.5429196967
 31
0.0
  0
LINE
  5
E1
330
1F
100
AcDbEntity
  8
SK1
  6
Continuous
100
AcDbLine
 10
-14.94
 20
1.9954086963
 30
0.0
 11
-14.611937454
 21
1.9954086963
 31
0.0
  0
LINE
  5
E2
330
1F
100
AcDbEntity
  8
SK3
100
AcDbLine
 10
-14.611937454
 20
1.9954086963
 30
0.0
 11
10.26
 21
1.9954086963
 31
0.0
  0
SPLINE
  5
E3
330
1F
100
AcDbEntity
  8
SK1
  6
Continuous
100
AcDbSpline
210
0.0
220
0.0
230
1.0
 70
     8
 71
     3
 72
    11
 73
     7
 74
     0
 42
0.0000000005397591
 43
0.0000000001
 12
1.0
 22
0.0
 32
0.0
 13
1.0
 23
0.0
 33
0.0
 40
0.0
 40
0.0
 40
0.0
 40
0.0
 40
0.5342618011559841
 40
0.5342618011559841
 40
0.5342618011559841
 40
1.0
 40
1.0
 40
1.0
 40
1.0
 10
-14.94
 20
2.532073851204095
 30
0.0
 10
-11.64541089902244
 20
2.70949508742839
 30
0.0
 10
-8.350802987695426
 20
2.886865172012556
 30
0.0
 10
-5.056185319883215
 20
3.064208705897818
 30
0.0
 10
-2.18413027948864
 20
3.218806429133723
 30
0.0
 10
0.6879324548932
 20
3.373383220398781
 30
0.0
 10
3.559999999999992
 20
3.527946919160222
 30
0.0
  0
LINE
  5
E4
330
1F
100
AcDbEntity
  8
SK1
  6
Continuous
100
AcDbLine
 10
-14.94
 20
2.5320738512
 30
0.0
 11
-14.94
 21
1.9954086963
 31
0.0
  0
SPLINE
  5
E5
330
1F
100
AcDbEntity
  8
SK1
  6
Continuous
100
AcDbSpline
210
0.0
220
0.0
230
1.0
 70
     8
 71
     3
 72
     8
 73
     4
 74
     0
 42
0.0000001442242395
 43
0.0000000001
 12
1.0
 22
0.0
 32
0.0
 13
1.0
 23
0.0
 33
0.0
 40
0.0
 40
0.0
 40
0.0
 40
0.0
 40
0.9999999999999999
 40
0.9999999999999999
 40
0.9999999999999999
 40
0.9999999999999999
 10
-14.94
 20
1.99540869629382
 30
0.0
 10
-14.96298977234271
 20
1.995408696293826
 30
0.0
 10
-14.98619680504905
 20
1.992968912985869
 30
0.0
 10
-15.00871353882414
 20
1.988221460175037
 30
0.0
  0
SPLINE
  5
E6
330
1F
100
AcDbEntity
  8
SK3
100
AcDbSpline
210
0.0
220
0.0
230
1.0
 70
     8
 71
     3
 72
    35
 73
    31
 74
     0
 42
0.0000000118865722
 43
0.0000000001
 12
1.0
 22
0.0
 32
0.0
 13
1.0
 23
0.0
 33
0.0
 40
0.0
 40
0.0
 40
0.0
 40
0.0
 40
0.0364239877480221
 40
0.0364239877480221
 40
0.0364239877480221
 40
0.1522410221317281
 40
0.1522410221317281
 40
0.1522410221317281
 40
0.2682226424433828
 40
0.2682226424433828
 40
0.2682226424433828
 40
0.3843169259589587
 40
0.3843169259589587
 40
0.3843169259589587
 40
0.4602970654583457
 40
0.4602970654583457
 40
0.4602970654583457
 40
0.5761257905853041
 40
0.5761257905853041
 40
0.5761257905853041
 40
0.6919436003542653
 40
0.6919436003542653
 40
0.6919436003542653
 40
0.8079251885989102
 40
0.8079251885989102
 40
0.8079251885989102
 40
0.9240200210807689
 40
0.9240200210807689
 40
0.9240200210807689
 40
0.9999999999999999
 40
0.9999999999999999
 40
0.9999999999999999
 40
0.9999999999999999
 10
-15.00871353882414
 20
1.988221460175037
 30
0.0
 10
-15.0190423507213
 20
1.986043722161899
 30
0.0
 10
-15.0292259089359
 20
1.98338040105099
 30
0.0
 10
-15.0391766122922
 20
1.980244248983929
 30
0.0
 10
-15.07081807053269
 20
1.970271845917275
 30
0.0
 10
-15.10097735181276
 20
1.955243112028644
 30
0.0
 10
-15.12717023889877
 20
1.936341653443224
 30
0.0
 10
-15.15339974207321
 20
1.917413771750011
 30
0.0
 10
-15.1763752998599
 20
1.89407726149561
 30
0.0
 10
-15.19420055676324
 20
1.868186548086106
 30
0.0
 10
-15.21204209120863
 20
1.84227219197804
 30
0.0
 10
-15.22521565668725
 20
1.813078803326573
 30
0.0
 10
-15.23262284334692
 20
1.782977063214316
 30
0.0
 10
-15.2375102478405
 20
1.763115355031657
 30
0.0
 10
-15.24000000000151
 20
1.74256516986699
 30
0.0
 10
-15.24000000000154
 20
1.722075932377893
 30
0.0
 10
-15.24000000000158
 20
1.691093014638059
 30
0.0
 10
-15.23421652239722
 20
1.659531648336888
 30
0.0
 10
-15.22313237525415
 20
1.630030137884222
 30
0.0
 10
-15.21204882180593
 20
1.600530207606783
 30
0.0
 10
-15.19536142816135
 20
1.572278799334323
 30
0.0
 10
-15.17445061969236
 20
1.547662407358478
 30
0.0
 10
-15.15351071867846
 20
1.523011767376859
 30
0.0
 10
-15.12775840629157
 20
1.501329542885091
 30
0.0
 10
-15.09931726064497
 20
1.484475304156879
 30
0.0
 10
-15.07085000473738
 20
1.467605592473492
 30
0.0
 10
-15.03890122589576
 20
1.455110833586597
 30
0.0
 10
-15.00611976294738
 20
1.44808280022369
 30
0.0
 10
-14.98449006939782
 20
1.443445599982348
 30
0.0
 10
-14.96217726878903
 20
1.441080976787056
 30
0.0
 10
-14.94
 20
1.441080976787049
 30
0.0
  0
SPLINE
  5
E7
330
1F
100
AcDbEntity
  8
SK1
  6
Continuous
100
AcDbSpline
210
0.0
220
0.0
230
1.0
 70
     8
 71
     3
 72
    35
 73
    31
 74
     0
 42
0.0000000109735307
 43
0.0000000001
 12
1.0
 22
0.0
 32
0.0
 13
1.0
 23
0.0
 33
0.0
 40
0.0
 40
0.0
 40
0.0
 40
0.0
 40
0.1083809555137254
 40
0.1083809555137254
 40
0.1083809555137254
 40
0.2168085987594078
 40
0.2168085987594078
 40
0.2168085987594078
 40
0.3245574505209697
 40
0.3245574505209697
 40
0.3245574505209697
 40
0.4316412783502386
 40
0.4316412783502386
 40
0.4316412783502386
 40
0.5000267814991056
 40
0.5000267814991056
 40
0.5000267814991056
 40
0.606739503527997
 40
0.606739503527997
 40
0.606739503527997
 40
0.7134455115618222
 40
0.7134455115618222
 40
0.7134455115618222
 40
0.820260363676982
 40
0.820260363676982
 40
0.820260363676982
 40
0.9274726653059361
 40
0.9274726653059361
 40
0.9274726653059361
 40
1.0
 40
1.0
 40
1.0
 40
1.0
 10
-14.94
 20
1.977746131697323
 30
0.0
 10
-14.97364985298423
 20
1.97593400935604
 30
0.0
 10
-15.00780778093875
 20
1.979588801701257
 30
0.0
 10
-15.0396438293331
 20
1.988438389773877
 30
0.0
 10
-15.07148804235425
 20
1.997290247399021
 30
0.0
 10
-15.10188813902286
 20
2.011589145581247
 30
0.0
 10
-15.12825856758607
 20
2.030129560658753
 30
0.0
 10
-15.15446561268552
 20
2.048555104746287
 30
0.0
 10
-15.17741923774152
 20
2.071680378856977
 30
0.0
 10
-15.19516127112216
 20
2.097530595727752
 30
0.0
 10
-15.21279595322294
 20
2.123224401334604
 30
0.0
 10
-15.22577076793871
 20
2.152319210722985
 30
0.0
 10
-15.23298676094096
 20
2.182357684240197
 30
0.0
 10
-15.23763418764788
 20
2.201703823297622
 30
0.0
 10
-15.24
 20
2.221717972819653
 30
0.0
 10
-15.24
 20
2.24169586042421
 30
0.0
 10
-15.24
 20
2.272610321446592
 30
0.0
 10
-15.23424132652924
 20
2.304145036425861
 30
0.0
 10
-15.22320872080229
 20
2.333705070298414
 30
0.0
 10
-15.21217649494526
 20
2.363264086372655
 30
0.0
 10
-15.19556752639267
 20
2.39166407225347
 30
0.0
 10
-15.17477801337869
 20
2.416609566491036
 30
0.0
 10
-15.15396640465021
 20
2.441581573543906
 30
0.0
 10
-15.12839648965259
 20
2.463779605174377
 30
0.0
 10
-15.10020581387841
 20
2.481453333605545
 30
0.0
 10
-15.07190947358233
 20
2.499193306850422
 30
0.0
 10
-15.04020284042287
 20
2.512863981329951
 30
0.0
 10
-15.00770515718601
 20
2.521426192586022
 30
0.0
 10
-14.98555255625486
 20
2.527262770155615
 30
0.0
 10
-14.96269507877483
 20
2.53085166876828
 30
0.0
 10
-14.94
 20
2.532073851204095
 30
0.0
  0
LINE
  5
E8
330
1F
100
AcDbEntity
  8
SK1
  6
Continuous
100
AcDbLine
 10
5.335
 20
-4.6622905217
 30
0.0
 11
3.76
 21
-4.6622905217
 31
0.0
  0
LINE
  5
E9
330
1F
100
AcDbEntity
  8
SK3
100
AcDbLine
 10
5.335
 20
-2.9627690522
 30
0.0
 11
-17.24
 21
-2.9627690522
 31
0.0
  0
SPLINE
  5
EA
330
1F
100
AcDbEntity
  8
SK3
100
AcDbSpline
210
0.0
220
0.0
230
1.0
 70
     8
 71
     3
 72
    35
 73
    31
 74
     0
 42
0.0000000122861758
 43
0.0000000001
 12
1.0
 22
0.0
 32
0.0
 13
1.0
 23
0.0
 33
0.0
 40
0.0
 40
0.0
 40
0.0
 40
0.0
 40
0.107307375005206
 40
0.107307375005206
 40
0.107307375005206
 40
0.2146045795106103
 40
0.2146045795106103
 40
0.2146045795106103
 40
0.3220542625358082
 40
0.3220542625358082
 40
0.3220542625358082
 40
0.4296083209397736
 40
0.4296083209397736
 40
0.4296083209397736
 40
0.4999991456542804
 40
0.4999991456542804
 40
0.4999991456542804
 40
0.6073071808982955
 40
0.6073071808982955
 40
0.6073071808982955
 40
0.7146051037494144
 40
0.7146051037494144
 40
0.7146051037494144
 40
0.8220547570665442
 40
0.8220547570665442
 40
0.8220547570665442
 40
0.929609324053275
 40
0.929609324053275
 40
0.929609324053275
 40
1.0
 40
1.0
 40
1.0
 40
1.0
 10
5.334999999999996
 20
-3.387033120898868
 30
0.0
 10
5.368535575142453
 20
-3.387033120898893
 30
0.0
 10
5.402533448991852
 20
-3.383223914509875
 30
0.0
 10
5.434176612292198
 20
-3.375880398841645
 30
0.0
 10
5.46581807053269
 20
-3.368537278871333
 30
0.0
 10
5.495977351812755
 20
-3.357455063527408
 30
0.0
 10
5.522170238898772
 20
-3.343440392473459
 30
0.0
 10
5.548399742073209
 20
-3.329406129748198
 30
0.0
 10
5.571375299859892
 20
-3.312038256294271
 30
0.0
 10
5.589200556763243
 20
-3.292639708330472
 30
0.0
 10
5.607042091208624
 20
-3.273223446137836
 30
0.0
 10
5.620215656687244
 20
-3.251229854418259
 30
0.0
 10
5.627622843346923
 20
-3.22839051547856
 30
0.0
 10
5.632510247840509
 20
-3.213320679535036
 30
0.0
 10
5.634999999999994
 20
-3.197661812062668
 30
0.0
 10
5.634999999999994
 20
-3.181980028604885
 30
0.0
 10
5.634999999999994
 20
-3.158266729994297
 30
0.0
 10
5.629216522397149
 20
-3.13394689992701
 30
0.0
 10
5.618132375254149
 20
-3.111078480403777
 30
0.0
 10
5.607048821805929
 20
-3.088211285770572
 30
0.0
 10
5.590361428161342
 20
-3.066168881880323
 30
0.0
 10
5.569450619692355
 20
-3.046876652823545
 30
0.0
 10
5.548510718678453
 20
-3.027557583100076
 30
0.0
 10
5.522758406291572
 20
-3.010469467800058
 30
0.0
 10
5.494317260644964
 20
-2.997152042633426
 30
0.0
 10
5.46585000473738
 20
-2.983822391466795
 30
0.0
 10
5.433901225895755
 20
-2.973908621260572
 30
0.0
 10
5.401119762947379
 20
-2.968329661130666
 30
0.0
 10
5.379490069397814
 20
-2.964648580816308
 30
0.0
 10
5.357177268789027
 20
-2.962769052186969
 30
0.0
 10
5.334999999999996
 20
-2.962769052186942
 30
0.0
  0
SPLINE
  5
EB
330
1F
100
AcDbEntity
  8
SK1
  6
Continuous
100
AcDbSpline
210
0.0
220
0.0
230
1.0
 70
     8
 71
     3
 72
    35
 73
    31
 74
     0
 42
0.0000000122865698
 43
0.0000000001
 12
1.0
 22
0.0
 32
0.0
 13
1.0
 23
0.0
 33
0.0
 40
0.0
 40
0.0
 40
0.0
 40
0.0
 40
0.1074010079751702
 40
0.1074010079751702
 40
0.1074010079751702
 40
0.2147976884317911
 40
0.2147976884317911
 40
0.2147976884317911
 40
0.3222592573584538
 40
0.3222592573584538
 40
0.3222592573584538
 40
0.4297651060668603
 40
0.4297651060668603
 40
0.4297651060668603
 40
0.4999996290832305
 40
0.4999996290832305
 40
0.4999996290832305
 40
0.6074008495563803
 40
0.6074008495563803
 40
0.6074008495563803
 40
0.7147977530414024
 40
0.7147977530414024
 40
0.7147977530414024
 40
0.8222594095406605
 40
0.8222594095406605
 40
0.8222594095406605
 40
0.9297654435310512
 40
0.9297654435310512
 40
0.9297654435310512
 40
1.0
 40
1.0
 40
1.0
 40
1.0
 10
5.334999999999996
 20
-4.662290521691044
 30
0.0
 10
5.368559465580097
 20
-4.662290521691038
 30
0.0
 10
5.402581661123616
 20
-4.666568424742112
 30
0.0
 10
5.434248502942721
 20
-4.674740650640711
 30
0.0
 10
5.465914619456989
 20
-4.682912689360712
 30
0.0
 10
5.496098695381691
 20
-4.695201092060754
 30
0.0
 10
5.522306832279653
 20
-4.710516825224316
 30
0.0
 10
5.548530545289458
 20
-4.725841660888131
 30
0.0
 10
5.571496919577382
 20
-4.744616040217886
 30
0.0
 10
5.58930675536545
 20
-4.765203725902929
 30
0.0
 10
5.60712348928594
 20
-4.785799385641401
 30
0.0
 10
5.620270947374533
 20
-4.808774924720252
 30
0.0
 10
5.62765719583325
 20
-4.832166955931393
 30
0.0
 10
5.632522195943433
 20
-4.847574267918749
 30
0.0
 10
5.635000000001438
 20
-4.863391314998075
 30
0.0
 10
5.635000000001462
 20
-4.879036303452414
 30
0.0
 10
5.6350000000015
 20
-4.902766441088763
 30
0.0
 10
5.629208677262059
 20
-4.926641142468213
 30
0.0
 10
5.618107266276594
 20
-4.948710879599484
 30
0.0
 10
5.607006108914542
 20
-4.970780112524388
 30
0.0
 10
5.590289759620719
 20
-4.991655585221615
 30
0.0
 10
5.569341871647659
 20
-5.009684289607686
 30
0.0
 10
5.548381559124467
 20
-5.027723687126247
 30
0.0
 10
5.522606703585172
 20
-5.04341448323513
 30
0.0
 10
5.4941479135131
 20
-5.055543464713544
 30
0.0
 10
5.465678075587128
 20
-5.067677154727177
 30
0.0
 10
5.433735887336571
 20
-5.076584503224116
 30
0.0
 10
5.400967847747236
 20
-5.081585642731233
 30
0.0
 10
5.379384994270918
 20
-5.084879671380779
 30
0.0
 10
5.357125332677813
 20
-5.086554590402963
 30
0.0
 10
5.334999999999996
 20
-5.086554590402968
 30
0.0
  0
LINE
  5
EC
330
1F
100
AcDbEntity
  8
SK3
100
AcDbLine
 10
5.335
 20
-3.3870331209
 30
0.0
 11
-17.24
 21
-3.3870331209
 31
0.0
  0
LINE
  5
ED
330
1F
100
AcDbEntity
  8
SK1
  6
Continuous
100
AcDbLine
 10
5.335
 20
-5.0865545904
 30
0.0
 11
3.76
 21
-5.0865545904
 31
0.0
  0
LINE
  5
EE
330
1F
100
AcDbEntity
  8
SK1
  6
Continuous
100
AcDbLine
 10
5.335
 20
-5.0865545904
 30
0.0
 11
5.335
 21
-4.6622905217
 31
0.0
  0
ARC
  5
EF
330
1F
100
AcDbEntity
  8
SK1
  6
Continuous
100
AcDbCircle
 10
5.335
 20
0.0000004867
 30
0.0
 40
0.2999999999999999
100
AcDbArc
 50
269.9999999999
 51
90.0000000001
  0
LINE
  5
F0
330
1F
100
AcDbEntity
  8
SK1
  6
Continuous
100
AcDbLine
 10
5.335
 20
4.6622914952
 30
0.0
 11
5.335
 21
5.0865555639
 31
0.0
  0
SPLINE
  5
F1
330
1F
100
AcDbEntity
  8
SK1
  6
Continuous
100
AcDbSpline
210
0.0
220
0.0
230
1.0
 70
     8
 71
     3
 72
    35
 73
    31
 74
     0
 42
0.0000000122868924
 43
0.0000000001
 12
1.0
 22
0.0
 32
0.0
 13
1.0
 23
0.0
 33
0.0
 40
0.0
 40
0.0
 40
0.0
 40
0.0
 40
0.1074010079751722
 40
0.1074010079751722
 40
0.1074010079751722
 40
0.2147976884317931
 40
0.2147976884317931
 40
0.2147976884317931
 40
0.3222592573584558
 40
0.3222592573584558
 40
0.3222592573584558
 40
0.4297651060668611
 40
0.4297651060668611
 40
0.4297651060668611
 40
0.4999996290832321
 40
0.4999996290832321
 40
0.4999996290832321
 40
0.6074008495563818
 40
0.6074008495563818
 40
0.6074008495563818
 40
0.7147977530414048
 40
0.7147977530414048
 40
0.7147977530414048
 40
0.8222594095406616
 40
0.8222594095406616
 40
0.8222594095406616
 40
0.9297654435310527
 40
0.9297654435310527
 40
0.9297654435310527
 40
1.0
 40
1.0
 40
1.0
 40
1.0
 10
5.334999999999996
 20
5.086555563872174
 30
0.0
 10
5.368559465580097
 20
5.086555563872169
 30
0.0
 10
5.402581661123616
 20
5.082643307482368
 30
0.0
 10
5.434248502942721
 20
5.075115785772793
 30
0.0
 10
5.465914619456989
 20
5.067588436475359
 30
0.0
 10
5.496098695381691
 20
5.056236384532277
 30
0.0
 10
5.522306832279653
 20
5.041927365789461
 30
0.0
 10
5.548530545289458
 20
5.027609842860438
 30
0.0
 10
5.571496919577382
 20
5.00993305585108
 30
0.0
 10
5.58930675536545
 20
4.990273907286031
 30
0.0
 10
5.60712348928594
 20
4.970607144309951
 30
0.0
 10
5.620270947374533
 20
4.948409613342369
 30
0.0
 10
5.62765719583325
 20
4.925460648591493
 30
0.0
 10
5.632522195943433
 20
4.910345165181263
 30
0.0
 10
5.635000000001438
 20
4.894682265376424
 30
0.0
 10
5.635000000001462
 20
4.879037276922086
 30
0.0
 10
5.6350000000015
 20
4.855307139285739
 30
0.0
 10
5.629208677262056
 20
4.831067165527699
 30
0.0
 10
5.618107266276592
 20
4.808353199745198
 30
0.0
 10
5.60700610891454
 20
4.785639752887143
 30
0.0
 10
5.590289759620715
 20
4.763828467749183
 30
0.0
 10
5.569341871647657
 20
4.744793257940192
 30
0.0
 10
5.548381559124463
 20
4.725746758023155
 30
0.0
 10
5.522606703585172
 20
4.708958233590731
 30
0.0
 10
5.4941479135131
 20
4.695900331809726
 30
0.0
 10
5.465678075587128
 20
4.682837360881693
 30
0.0
 10
5.433735887336571
 20
4.673151403901964
 30
0.0
 10
5.400967847747236
 20
4.66770681948744
 30
0.0
 10
5.379384994270916
 20
4.664120713356867
 30
0.0
 10
5.357125332677811
 20
4.662291495160241
 30
0.0
 10
5.334999999999996
 20
4.662291495160247
 30
0.0
  0
SPLINE
  5
F2
330
1F
100
AcDbEntity
  8
SK3
100
AcDbSpline
210
0.0
220
0.0
230
1.0
 70
     8
 71
     3
 72
    35
 73
    31
 74
     0
 42
0.0000000122856868
 43
0.0000000001
 12
1.0
 22
0.0
 32
0.0
 13
1.0
 23
0.0
 33
0.0
 40
0.0
 40
0.0
 40
0.0
 40
0.0
 40
0.1073073750052125
 40
0.1073073750052125
 40
0.1073073750052125
 40
0.2146045795106168
 40
0.2146045795106168
 40
0.2146045795106168
 40
0.3220542625358155
 40
0.3220542625358155
 40
0.3220542625358155
 40
0.4296083209397801
 40
0.4296083209397801
 40
0.4296083209397801
 40
0.4999991456542878
 40
0.4999991456542878
 40
0.4999991456542878
 40
0.6073071808983029
 40
0.6073071808983029
 40
0.6073071808983029
 40
0.7146051037494212
 40
0.7146051037494212
 40
0.7146051037494212
 40
0.8220547570665514
 40
0.8220547570665514
 40
0.8220547570665514
 40
0.9296093240532809
 40
0.9296093240532809
 40
0.9296093240532809
 40
1.0
 40
1.0
 40
1.0
 40
1.0
 10
5.334999999999996
 20
2.962770025656168
 30
0.0
 10
5.368535575142451
 20
2.962770025656175
 30
0.0
 10
5.40253344899185
 20
2.967139849124032
 30
0.0
 10
5.434176612292198
 20
2.975471583284061
 30
0.0
 10
5.465818070532688
 20
2.98380286849702
 30
0.0
 10
5.495977351812755
 20
2.996320008128309
 30
0.0
 10
5.522170238898772
 20
3.011877490737378
 30
0.0
 10
5.548399742073207
 20
3.027456721775971
 30
0.0
 10
5.57137529985989
 20
3.046508206189641
 30
0.0
 10
5.589200556763241
 20
3.067331663155262
 30
0.0
 10
5.607042091208624
 20
3.088174135538045
 30
0.0
 10
5.620215656687244
 20
3.111362908985839
 30
0.0
 10
5.627622843346923
 20
3.134883504779999
 30
0.0
 10
5.632510247840507
 20
3.150402847123829
 30
0.0
 10
5.634999999999994
 20
3.16629921861631
 30
0.0
 10
5.634999999999994
 20
3.181981002074095
 30
0.0
 10
5.634999999999994
 20
3.205694300684683
 30
0.0
 10
5.629216522397149
 20
3.229454861761643
 30
0.0
 10
5.618132375254149
 20
3.251336775128889
 30
0.0
 10
5.607048821805929
 20
3.273217516445855
 30
0.0
 10
5.590361428161342
 20
3.293826933535507
 30
0.0
 10
5.569450619692355
 20
3.311577104667261
 30
0.0
 10
5.548510718678453
 20
3.329351971049399
 30
0.0
 10
5.522758406291572
 20
3.34475599437086
 30
0.0
 10
5.494317260644962
 20
3.35664713416462
 30
0.0
 10
5.465850004737378
 20
3.368549190563749
 30
0.0
 10
5.433901225895755
 20
3.377265610510987
 30
0.0
 10
5.401119762947379
 20
3.382161945517211
 30
0.0
 10
5.379490069397814
 20
3.385392619690214
 30
0.0
 10
5.357177268789027
 20
3.387034094368103
 30
0.0
 10
5.334999999999996
 20
3.387034094368096
 30
0.0
  0
ARC
  5
F3
330
1F
100
AcDbEntity
  8
SK1
  6
Continuous
100
AcDbCircle
 10
5.3348937106
 20
13.7983626648
 30
0.0
 40
6.904887003045513
100
AcDbArc
 50
270.0008819747
 51
272.4910243942
  0
ARC
  5
F4
330
1F
100
AcDbEntity
  8
SK3
100
AcDbCircle
 10
5.3347496849
 20
8.9974904499
 30
0.0
 40
4.507501106000769
100
AcDbArc
 50
270.0031818067
 51
273.7530641799
  0
ARC
  5
F5
330
1F
100
AcDbEntity
  8
SK3
100
AcDbCircle
 10
5.3347496849
 20
-8.9974894764
 30
0.0
 40
4.507501106001374
100
AcDbArc
 50
86.1806280774
 51
89.9968181933
  0
ARC
  5
F6
330
1F
100
AcDbEntity
  8
SK1
  6
Continuous
100
AcDbCircle
 10
5.3348937106
 20
-13.7983616913
 30
0.0
 40
6.90488700304591
100
AcDbArc
 50
87.5089756058
 51
89.9991180253
  0
LINE
  5
F7
330
1F
100
AcDbEntity
  8
SK1
  6
Continuous
100
AcDbLine
 10
5.335
 20
-6.8934746891
 30
0.0
 11
3.76
 21
-6.8934746891
 31
0.0
  0
LINE
  5
F8
330
1F
100
AcDbEntity
  8
SK3
100
AcDbLine
 10
5.335
 20
-4.4899883774
 30
0.0
 11
-17.24
 21
-4.4899883774
 31
0.0
  0
LINE
  5
F9
330
1F
100
AcDbEntity
  8
SK3
100
AcDbLine
 10
-14.94
 20
-1.4410800033
 30
0.0
 11
10.26
 21
-1.4410800033
 31
0.0
  0
SPLINE
  5
FA
330
1F
100
AcDbEntity
  8
SK1
  6
Continuous
100
AcDbSpline
210
0.0
220
0.0
230
1.0
 70
     8
 71
     3
 72
    14
 73
    10
 74
     0
 42
0.0000000005397591
 43
0.0000000001
 12
1.0
 22
0.0
 32
0.0
 13
1.0
 23
0.0
 33
0.0
 40
0.0
 40
0.0
 40
0.0
 40
0.0
 40
0.1122596000138738
 40
0.1122596000138738
 40
0.1122596000138738
 40
0.6941423261189223
 40
0.6941423261189223
 40
0.6941423261189223
 40
1.0
 40
1.0
 40
1.0
 40
1.0
 10
-14.94
 20
-1.977745158228073
 30
0.0
 10
-14.2477377905383
 20
-2.015025077887133
 30
0.0
 10
-13.55547472107556
 20
-2.052302658904716
 30
0.0
 10
-12.86321090814714
 20
-2.089578217817384
 30
0.0
 10
-9.274953383474058
 20
-2.282791126331215
 30
0.0
 10
-5.686676608529159
 20
-2.475951680455872
 30
0.0
 10
-2.098390081817293
 20
-2.669085694647809
 30
0.0
 10
-0.2122626528020845
 20
-2.770603608262425
 30
0.0
 10
1.673867618024591
 20
-2.87211378983885
 30
0.0
 10
3.559999999999994
 20
-2.973618226184202
 30
0.0
  0
SPLINE
  5
FB
330
1F
100
AcDbEntity
  8
SK3
100
AcDbSpline
210
0.0
220
0.0
230
1.0
 70
     8
 71
     3
 72
    32
 73
    28
 74
     0
 42
0.0000000119710033
 43
0.0000000001
 12
1.0
 22
0.0
 32
0.0
 13
1.0
 23
0.0
 33
0.0
 40
0.0
 40
0.0
 40
0.0
 40
0.0
 40
0.1166114167191613
 40
0.1166114167191613
 40
0.1166114167191613
 40
0.2332117811095304
 40
0.2332117811095304
 40
0.2332117811095304
 40
0.3499778446068962
 40
0.3499778446068962
 40
0.3499778446068962
 40
0.4668573333072146
 40
0.4668573333072146
 40
0.4668573333072146
 40
0.543351365460621
 40
0.543351365460621
 40
0.543351365460621
 40
0.6599634996647377
 40
0.6599634996647377
 40
0.6599634996647377
 40
0.7765646446846889
 40
0.7765646446846889
 40
0.7765646446846889
 40
0.8933306758981623
 40
0.8933306758981623
 40
0.8933306758981623
 40
1.0
 40
1.0
 40
1.0
 40
1.0
 10
-14.94
 20
-1.441080003317804
 30
0.0
 10
-14.97353557514245
 20
-1.441080003317804
 30
0.0
 10
-15.00753344899185
 20
-1.44657491395598
 30
0.0
 10
-15.0391766122922
 20
-1.457082674398301
 30
0.0
 10
-15.07081807053269
 20
-1.467589868640575
 30
0.0
 10
-15.10097735181276
 20
-1.483395177957532
 30
0.0
 10
-15.12717023889877
 20
-1.503131600139844
 30
0.0
 10
-15.15339974207321
 20
-1.522895612659082
 30
0.0
 10
-15.1763752998599
 20
-1.54714328659906
 30
0.0
 10
-15.19420055676324
 20
-1.573805155203412
 30
0.0
 10
-15.21204209120863
 20
-1.600491370704375
 30
0.0
 10
-15.22521565668725
 20
-1.630331587046117
 30
0.0
 10
-15.23262284334692
 20
-1.660802020711206
 30
0.0
 10
-15.2375102478405
 20
-1.680907000004701
 30
0.0
 10
-15.24000000000151
 20
-1.701585721418899
 30
0.0
 10
-15.24000000000153
 20
-1.722074958907998
 30
0.0
 10
-15.24000000000157
 20
-1.753057876647834
 30
0.0
 10
-15.23421652239722
 20
-1.78431656875243
 30
0.0
 10
-15.22313237525415
 20
-1.813284185920703
 30
0.0
 10
-15.21204882180593
 20
-1.842250251510418
 30
0.0
 10
-15.19536142816134
 20
-1.869726132914834
 30
0.0
 10
-15.17445061969236
 20
-1.893507969155455
 30
0.0
 10
-15.15351071867846
 20
-1.917322892310915
 30
0.0
 10
-15.12775840629157
 20
-1.9380936927916
 30
0.0
 10
-15.09931726064496
 20
-1.954176031438317
 30
0.0
 10
-15.07333692293414
 20
-1.968866880900334
 30
0.0
 10
-15.04445678797444
 20
-1.980017572783676
 30
0.0
 10
-15.01469036253255
 20
-1.986915231452309
 30
0.0
  0
SPLINE
  5
FC
330
1F
100
AcDbEntity
  8
SK1
  6
Continuous
100
AcDbSpline
210
0.0
220
0.0
230
1.0
 70
     8
 71
     3
 72
    11
 73
     7
 74
     0
 42
0.0000001325477091
 43
0.0000000001
 12
1.0
 22
0.0
 32
0.0
 13
1.0
 23
0.0
 33
0.0
 40
0.0
 40
0.0
 40
0.0
 40
0.0
 40
0.1177644406244333
 40
0.1177644406244333
 40
0.1177644406244333
 40
1.0
 40
1.0
 40
1.0
 40
1.0
 10
-15.01469036253255
 20
-1.986915231452309
 30
0.0
 10
-15.01184102832036
 20
-1.987575496651667
 30
0.0
 10
-15.00898357310834
 20
-1.988196791690882
 30
0.0
 10
-15.00611976294738
 20
-1.988778491305274
 30
0.0
 10
-14.98449006939782
 20
-1.993171933499435
 30
0.0
 10
-14.96217726878903
 20
-1.995407722824576
 30
0.0
 10
-14.94
 20
-1.995407722824576
 30
0.0
  0
SPLINE
  5
FD
330
1F
100
AcDbEntity
  8
SK1
  6
Continuous
100
AcDbSpline
210
0.0
220
0.0
230
1.0
 70
     8
 71
     3
 72
    35
 73
    31
 74
     0
 42
0.0000000109737232
 43
0.0000000001
 12
1.0
 22
0.0
 32
0.0
 13
1.0
 23
0.0
 33
0.0
 40
0.0
 40
0.0
 40
0.0
 40
0.0
 40
0.1083809555137258
 40
0.1083809555137258
 40
0.1083809555137258
 40
0.2168085987594087
 40
0.2168085987594087
 40
0.2168085987594087
 40
0.3245574505209699
 40
0.3245574505209699
 40
0.3245574505209699
 40
0.4316412783502397
 40
0.4316412783502397
 40
0.4316412783502397
 40
0.5000267814991082
 40
0.5000267814991082
 40
0.5000267814991082
 40
0.6067395035279994
 40
0.6067395035279994
 40
0.6067395035279994
 40
0.7134455115618237
 40
0.7134455115618237
 40
0.7134455115618237
 40
0.820260363676982
 40
0.820260363676982
 40
0.820260363676982
 40
0.9274726653059361
 40
0.9274726653059361
 40
0.9274726653059361
 40
1.0
 40
1.0
 40
1.0
 40
1.0
 10
-14.94
 20
-2.532072877734846
 30
0.0
 10
-14.97364985298422
 20
-2.530260755393563
 30
0.0
 10
-15.00780778093875
 20
-2.523159848837446
 30
0.0
 10
-15.03964382933309
 20
-2.511294815999221
 30
0.0
 10
-15.07148804235424
 20
-2.49942674027188
 30
0.0
 10
-15.10188813902286
 20
-2.482456355817185
 30
0.0
 10
-15.12825856758607
 20
-2.46172457134097
 30
0.0
 10
-15.15446561268552
 20
-2.441121234938693
 30
0.0
 10
-15.17741923774152
 20
-2.416226753791131
 30
0.0
 10
-15.19516127112215
 20
-2.389058491764346
 30
0.0
 10
-15.21279595322294
 20
-2.362054616064508
 30
0.0
 10
-15.2257707679387
 20
-2.332054303242316
 30
0.0
 10
-15.23298676094096
 20
-2.301515796325946
 30
0.0
 10
-15.23763418764788
 20
-2.281847613085152
 30
0.0
 10
-15.24
 20
-2.261672774559518
 30
0.0
 10
-15.24
 20
-2.241694886954961
 30
0.0
 10
-15.24
 20
-2.210780425932578
 30
0.0
 10
-15.23424132652924
 20
-2.179633572414759
 30
0.0
 10
-15.22320872080229
 20
-2.150852297730454
 30
0.0
 10
-15.21217649494526
 20
-2.122072014030563
 30
0.0
 10
-15.19556752639267
 20
-2.094866358383534
 30
0.0
 10
-15.17477801337869
 20
-2.071521175169044
 30
0.0
 10
-15.15396640465021
 20
-2.048151179997536
 30
0.0
 10
-15.12839648965259
 20
-2.028010889434217
 30
0.0
 10
-15.10020581387841
 20
-2.012783663526688
 30
0.0
 10
-15.07190947358233
 20
-1.997499362806253
 30
0.0
 10
-15.04020284042287
 20
-1.986747342152836
 30
0.0
 10
-15.00770515718601
 20
-1.981398825727298
 30
0.0
 10
-14.98555255625486
 20
-1.977752918137975
 30
0.0
 10
-14.96269507877483
 20
-1.97652297579226
 30
0.0
 10
-14.94
 20
-1.977745158228073
 30
0.0
  0
SPLINE
  5
FE
330
1F
100
AcDbEntity
  8
SK1
  6
Continuous
100
AcDbSpline
210
0.0
220
0.0
230
1.0
 70
     8
 71
     3
 72
    14
 73
    10
 74
     0
 42
0.0000000005397591
 43
0.0000000001
 12
1.0
 22
0.0
 32
0.0
 13
1.0
 23
0.0
 33
0.0
 40
0.0
 40
0.0
 40
0.0
 40
0.0
 40
0.1122596000138738
 40
0.1122596000138738
 40
0.1122596000138738
 40
0.6941423261189223
 40
0.6941423261189223
 40
0.6941423261189223
 40
1.0
 40
1.0
 40
1.0
 40
1.0
 10
-14.94
 20
-2.532072877734846
 30
0.0
 10
-14.2477377905383
 20
-2.569352797393905
 30
0.0
 10
-13.55547472107556
 20
-2.606630378411488
 30
0.0
 10
-12.86321090814714
 20
-2.643905937324155
 30
0.0
 10
-9.274953383474058
 20
-2.837118845837988
 30
0.0
 10
-5.686676608529159
 20
-3.030279399962644
 30
0.0
 10
-2.098390081817293
 20
-3.223413414154581
 30
0.0
 10
-0.2122626528020845
 20
-3.324931327769197
 30
0.0
 10
1.673867618024591
 20
-3.426441509345622
 30
0.0
 10
3.559999999999994
 20
-3.527945945690974
 30
0.0
  0
LINE
  5
FF
330
1F
100
AcDbEntity
  8
SK1
  6
Continuous
100
AcDbLine
 10
-14.94
 20
-1.9954077228
 30
0.0
 11
-14.6119984089
 21
-1.9954077228
 31
0.0
  0
LINE
  5
100
330
1F
100
AcDbEntity
  8
SK3
100
AcDbLine
 10
-14.6119984089
 20
-1.9954077228
 30
0.0
 11
10.26
 21
-1.9954077228
 31
0.0
  0
LINE
  5
101
330
1F
100
AcDbEntity
  8
SK1
  6
Continuous
100
AcDbLine
 10
-14.94
 20
-1.9954077228
 30
0.0
 11
-14.94
 21
-2.5320728777
 31
0.0
  0
SPLINE
  5
102
330
1F
100
AcDbEntity
  8
SK1
  6
Continuous
100
AcDbSpline
210
0.0
220
0.0
230
1.0
 70
     8
 71
     3
 72
    35
 73
    31
 74
     0
 42
0.0000000144871131
 43
0.0000000001
 12
1.0
 22
0.0
 32
0.0
 13
1.0
 23
0.0
 33
0.0
 40
0.0
 40
0.0
 40
0.0
 40
0.0
 40
0.1083809555138598
 40
0.1083809555138598
 40
0.1083809555138598
 40
0.2168085987596702
 40
0.2168085987596702
 40
0.2168085987596702
 40
0.3245574505213822
 40
0.3245574505213822
 40
0.3245574505213822
 40
0.4316412783507999
 40
0.4316412783507999
 40
0.4316412783507999
 40
0.5000267814997653
 40
0.5000267814997653
 40
0.5000267814997653
 40
0.6067395035288032
 40
0.6067395035288032
 40
0.6067395035288032
 40
0.7134455115627738
 40
0.7134455115627738
 40
0.7134455115627738
 40
0.8202603636780775
 40
0.8202603636780775
 40
0.8202603636780775
 40
0.9274726653071859
 40
0.9274726653071859
 40
0.9274726653071859
 40
1.0
 40
1.0
 40
1.0
 40
1.0
 10
-14.94000000000002
 20
-5.558637651184491
 30
0.0
 10
-14.97364985298422
 20
-5.554262800851329
 30
0.0
 10
-15.00780778093876
 20
-5.5478753948399
 30
0.0
 10
-15.0396438293331
 20
-5.539945292554701
 30
0.0
 10
-15.07148804235425
 20
-5.53201315652697
 30
0.0
 10
-15.10188813902285
 20
-5.522312306854682
 30
0.0
 10
-15.12825856758606
 20
-5.511533551153733
 30
0.0
 10
-15.15446561268551
 20
-5.50082157747103
 30
0.0
 10
-15.17741923774151
 20
-5.488740738714597
 30
0.0
 10
-15.19516127112215
 20
-5.476169230960985
 30
0.0
 10
-15.21279595322294
 20
-5.46367378931649
 30
0.0
 10
-15.22577076793869
 20
-5.450341749436293
 30
0.0
 10
-15.23298676094095
 20
-5.43719225229775
 30
0.0
 10
-15.23763418764788
 20
-5.428723379868805
 30
0.0
 10
-15.24
 20
-5.420205999129196
 30
0.0
 10
-15.24
 20
-5.411930887135822
 30
0.0
 10
-15.24
 20
-5.399125698106898
 30
0.0
 10
-15.23424132652924
 20
-5.38661211041602
 30
0.0
 10
-15.22320872080229
 20
-5.375469275287642
 30
0.0
 10
-15.21217649494526
 20
-5.364326823824552
 30
0.0
 10
-15.19556752639267
 20
-5.354252202516088
 30
0.0
 10
-15.17477801337869
 20
-5.346182622035638
 30
0.0
 10
-15.15396640465022
 20
-5.338104464964369
 30
0.0
 10
-15.12839648965259
 20
-5.331819824530059
 30
0.0
 10
-15.10020581387841
 20
-5.327959003565479
 30
0.0
 10
-15.07190947358233
 20
-5.324083711440129
 30
0.0
 10
-15.04020284042286
 20
-5.32254873248868
 30
0.0
 10
-15.007705157186
 20
-5.323546999277181
 30
0.0
 10
-14.98555255625486
 20
-5.324227484886794
 30
0.0
 10
-14.96269507877484
 20
-5.326076982353212
 30
0.0
 10
-14.94000000000126
 20
-5.329027591765284
 30
0.0
  0
SPLINE
  5
103
330
1F
100
AcDbEntity
  8
SK3
100
AcDbSpline
210
0.0
220
0.0
230
1.0
 70
     8
 71
     3
 72
    35
 73
    31
 74
     0
 42
0.0000000145452786
 43
0.0000000001
 12
1.0
 22
0.0
 32
0.0
 13
1.0
 23
0.0
 33
0.0
 40
0.0
 40
0.0
 40
0.0
 40
0.0
 40
0.1073073750052117
 40
0.1073073750052117
 40
0.1073073750052117
 40
0.214604579510616
 40
0.214604579510616
 40
0.214604579510616
 40
0.3220542625358154
 40
0.3220542625358154
 40
0.3220542625358154
 40
0.4296083209397786
 40
0.4296083209397786
 40
0.4296083209397786
 40
0.4999991456539164
 40
0.4999991456539164
 40
0.4999991456539164
 40
0.6073071808983102
 40
0.6073071808983102
 40
0.6073071808983102
 40
0.7146051037494301
 40
0.7146051037494301
 40
0.7146051037494301
 40
0.8220547570665608
 40
0.8220547570665608
 40
0.8220547570665608
 40
0.9296093240532874
 40
0.9296093240532874
 40
0.9296093240532874
 40
1.0
 40
1.0
 40
1.0
 40
1.0
 10
-14.94
 20
-4.033403296327997
 30
0.0
 10
-14.97353557514245
 20
-4.033403296328013
 30
0.0
 10
-15.00753344899185
 20
-4.035982766615119
 30
0.0
 10
-15.0391766122922
 20
-4.04087004349435
 30
0.0
 10
-15.07081807053269
 20
-4.045757057027609
 30
0.0
 10
-15.10097735181276
 20
-4.053080405932521
 30
0.0
 10
-15.12717023889877
 20
-4.062090463270048
 30
0.0
 10
-15.15339974207321
 20
-4.071113116128452
 30
0.0
 10
-15.1763752998599
 20
-4.082067995215967
 30
0.0
 10
-15.19420055676324
 20
-4.093882857984948
 30
0.0
 10
-15.21204209120863
 20
-4.105708509766753
 30
0.0
 10
-15.22521565668725
 20
-4.118715559769927
 30
0.0
 10
-15.23262284334692
 20
-4.131705520198228
 30
0.0
 10
-15.2375102478405
 20
-4.140276546403658
 30
0.0
 10
-15.24000000000151
 20
-4.148970489515486
 30
0.0
 10
-15.24000000000154
 20
-4.157457409566156
 30
0.0
 10
-15.24000000000158
 20
-4.170290954295887
 30
0.0
 10
-15.23421652239722
 20
-4.18293605431108
 30
0.0
 10
-15.22313237525415
 20
-4.194400940927416
 30
0.0
 10
-15.21204882180593
 20
-4.205865213455541
 30
0.0
 10
-15.19536142816134
 20
-4.216470569303358
 30
0.0
 10
-15.17445061969236
 20
-4.225486772677137
 30
0.0
 10
-15.15351071867846
 20
-4.23451552000884
 30
0.0
 10
-15.12775840629157
 20
-4.242207643258203
 30
0.0
 10
-15.09931726064496
 20
-4.248097265958855
 30
0.0
 10
-15.07085000473738
 20
-4.253992295600129
 30
0.0
 10
-15.03890122589576
 20
-4.25825138197596
 30
0.0
 10
-15.00611976294738
 20
-4.260640030060987
 30
0.0
 10
-14.98449006939782
 20
-4.26221609535613
 30
0.0
 10
-14.96217726878903
 20
-4.263013355747062
 30
0.0
 10
-14.94
 20
-4.263013355747047
 30
0.0
  0
LINE
  5
104
330
1F
100
AcDbEntity
  8
SK1
  6
Continuous
100
AcDbLine
 10
-14.94
 20
-5.3290275918
 30
0.0
 11
-14.94
 21
-5.5586376512
 31
0.0
  0
LINE
  5
105
330
1F
100
AcDbEntity
  8
SK3
100
AcDbLine
 10
-14.94
 20
4.2630143292
 30
0.0
 11
10.26
 21
4.2630143292
 31
0.0
  0
SPLINE
  5
106
330
1F
100
AcDbEntity
  8
SK1
  6
Continuous
100
AcDbSpline
210
0.0
220
0.0
230
1.0
 70
     8
 71
     3
 72
    14
 73
    10
 74
     0
 42
0.0000000005360328
 43
0.0000000001
 12
1.0
 22
0.0
 32
0.0
 13
1.0
 23
0.0
 33
0.0
 40
0.0
 40
0.0
 40
0.0
 40
0.0
 40
0.117409941455307
 40
0.117409941455307
 40
0.117409941455307
 40
0.700551076301213
 40
0.700551076301213
 40
0.700551076301213
 40
1.0
 40
1.0
 40
1.0
 40
1.0
 10
-14.94
 20
5.558638624653716
 30
0.0
 10
-14.21597759591744
 20
5.652769486297817
 30
0.0
 10
-13.49195425129899
 20
5.746894173248278
 30
0.0
 10
-12.7679300988895
 20
5.841013555991202
 30
0.0
 10
-9.171912074626455
 20
6.308477238866576
 30
0.0
 10
-5.575874842004628
 20
6.775814801607933
 30
0.0
 10
-1.979827878763061
 20
7.24308843008972
 30
0.0
 10
-0.1332210655967114
 20
7.483038206827235
 30
0.0
 10
1.713388454899396
 20
7.722970200070547
 30
0.0
 10
3.559999999999991
 20
7.962888891715505
 30
0.0
  0
LINE
  5
107
330
1F
100
AcDbEntity
  8
SK1
  6
Continuous
100
AcDbLine
 10
-14.94
 20
5.5586386247
 30
0.0
 11
-14.94
 21
5.3290285652
 31
0.0
  0
SPLINE
  5
108
330
1F
100
AcDbEntity
  8
SK3
100
AcDbSpline
210
0.0
220
0.0
230
1.0
 70
     8
 71
     3
 72
    35
 73
    31
 74
     0
 42
0.0000000145464667
 43
0.0000000001
 12
1.0
 22
0.0
 32
0.0
 13
1.0
 23
0.0
 33
0.0
 40
0.0
 40
0.0
 40
0.0
 40
0.0
 40
0.1073073750052006
 40
0.1073073750052006
 40
0.1073073750052006
 40
0.214604579510605
 40
0.214604579510605
 40
0.214604579510605
 40
0.3220542625358039
 40
0.3220542625358039
 40
0.3220542625358039
 40
0.4296083209397688
 40
0.4296083209397688
 40
0.4296083209397688
 40
0.499999145653908
 40
0.499999145653908
 40
0.499999145653908
 40
0.6073071808983018
 40
0.6073071808983018
 40
0.6073071808983018
 40
0.7146051037494202
 40
0.7146051037494202
 40
0.7146051037494202
 40
0.8220547570665536
 40
0.8220547570665536
 40
0.8220547570665536
 40
0.9296093240532802
 40
0.9296093240532802
 40
0.9296093240532802
 40
1.0
 40
1.0
 40
1.0
 40
1.0
 10
-14.94
 20
4.263014329216283
 30
0.0
 10
-14.97353557514245
 20
4.263014329216293
 30
0.0
 10
-15.00753344899185
 20
4.261167340441875
 30
0.0
 10
-15.0391766122922
 20
4.257571233245237
 30
0.0
 10
-15.07081807053269
 20
4.253975319821199
 30
0.0
 10
-15.10097735181276
 20
4.248526789847558
 30
0.0
 10
-15.12717023889877
 20
4.241532512949734
 30
0.0
 10
-15.15339974207321
 20
4.234528458471438
 30
0.0
 10
-15.1763752998599
 20
4.225773323111182
 30
0.0
 10
-15.19420055676324
 20
4.215820193672299
 30
0.0
 10
-15.21204209120863
 20
4.205857975305069
 30
0.0
 10
-15.22521565668725
 20
4.19441250548428
 30
0.0
 10
-15.23262284334692
 20
4.182312650031585
 30
0.0
 10
-15.2375102478405
 20
4.174328932241266
 30
0.0
 10
-15.24000000000151
 20
4.165945303086316
 30
0.0
 10
-15.24000000000154
 20
4.15745838303565
 30
0.0
 10
-15.24000000000158
 20
4.144624838305923
 30
0.0
 10
-15.23421652239722
 20
4.131249018140377
 30
0.0
 10
-15.22313237525415
 20
4.118495199115997
 30
0.0
 10
-15.21204882180593
 20
4.105742063218297
 30
0.0
 10
-15.19536142816134
 20
4.09326441988766
 30
0.0
 10
-15.17445061969236
 20
4.08223342073935
 30
0.0
 10
-15.15351071867846
 20
4.071187074511625
 30
0.0
 10
-15.12775840629157
 20
4.061294579053635
 30
0.0
 10
-15.09931726064496
 20
4.053541424707442
 30
0.0
 10
-15.07085000473738
 20
4.045781152614098
 30
0.0
 10
-15.03890122589576
 20
4.039957652733893
 30
0.0
 10
-15.00611976294738
 20
4.036677111943368
 30
0.0
 10
-14.98449006939782
 20
4.034512562664782
 30
0.0
 10
-14.96217726878903
 20
4.03340426979724
 30
0.0
 10
-14.94
 20
4.033404269797228
 30
0.0
  0
SPLINE
  5
109
330
1F
100
AcDbEntity
  8
SK1
  6
Continuous
100
AcDbSpline
210
0.0
220
0.0
230
1.0
 70
     8
 71
     3
 72
    35
 73
    31
 74
     0
 42
0.0000000144879543
 43
0.0000000001
 12
1.0
 22
0.0
 32
0.0
 13
1.0
 23
0.0
 33
0.0
 40
0.0
 40
0.0
 40
0.0
 40
0.0
 40
0.1083809555137259
 40
0.1083809555137259
 40
0.1083809555137259
 40
0.2168085987594089
 40
0.2168085987594089
 40
0.2168085987594089
 40
0.3245574505209701
 40
0.3245574505209701
 40
0.3245574505209701
 40
0.43164127835024
 40
0.43164127835024
 40
0.43164127835024
 40
0.5000267814991087
 40
0.5000267814991087
 40
0.5000267814991087
 40
0.6067395035279994
 40
0.6067395035279994
 40
0.6067395035279994
 40
0.7134455115618248
 40
0.7134455115618248
 40
0.7134455115618248
 40
0.8202603636769789
 40
0.8202603636769789
 40
0.8202603636769789
 40
0.9274726653059365
 40
0.9274726653059365
 40
0.9274726653059365
 40
1.0
 40
1.0
 40
1.0
 40
1.0
 10
-14.94
 20
5.329028565234666
 30
0.0
 10
-14.97364985298422
 20
5.324653714901662
 30
0.0
 10
-15.00780778093875
 20
5.322721465247806
 30
0.0
 10
-15.03964382933309
 20
5.323371639883295
 30
0.0
 10
-15.07148804235424
 20
5.324021981261629
 30
0.0
 10
-15.10188813902286
 20
5.32727329254323
 30
0.0
 10
-15.12825856758607
 20
5.332761614521653
 30
0.0
 10
-15.15446561268552
 20
5.338215932462068
 30
0.0
 10
-15.17741923774152
 20
5.346025527595439
 30
0.0
 10
-15.19516127112215
 20
5.355414992857588
 30
0.0
 10
-15.21279595322294
 20
5.364747645515937
 30
0.0
 10
-15.2257707679387
 20
5.375893606725456
 30
0.0
 10
-15.23298676094096
 20
5.38783591645011
 30
0.0
 10
-15.23763418764788
 20
5.395527305443884
 30
0.0
 10
-15.24
 20
5.40365674861167
 30
0.0
 10
-15.24
 20
5.411931860605042
 30
0.0
 10
-15.24
 20
5.424737049633968
 30
0.0
 10
-15.23424132652924
 20
5.438187017725399
 30
0.0
 10
-15.22320872080229
 20
5.451209943847867
 30
0.0
 10
-15.21217649494526
 20
5.46423242157057
 30
0.0
 10
-15.19556752639267
 20
5.477190411127395
 30
0.0
 10
-15.17477801337869
 20
5.489123484183771
 30
0.0
 10
-15.15396640465022
 20
5.501069240066109
 30
0.0
 10
-15.12839648965259
 20
5.512321706892587
 30
0.0
 10
-15.10020581387842
 20
5.522088907430114
 30
0.0
 10
-15.07190947358233
 20
5.531892717468721
 30
0.0
 10
-15.04020284042287
 20
5.540473950071042
 30
0.0
 10
-15.00770515718601
 20
5.547234228927745
 30
0.0
 10
-14.98555255625486
 20
5.551842488495181
 30
0.0
 10
-14.96269507877483
 20
5.55568801524148
 30
0.0
 10
-14.94
 20
5.558638624653716
 30
0.0
  0
SPLINE
  5
10A
330
1F
100
AcDbEntity
  8
SK1
  6
Continuous
100
AcDbSpline
210
0.0
220
0.0
230
1.0
 70
     8
 71
     3
 72
    14
 73
    10
 74
     0
 42
0.0000000005360328
 43
0.0000000001
 12
1.0
 22
0.0
 32
0.0
 13
1.0
 23
0.0
 33
0.0
 40
0.0
 40
0.0
 40
0.0
 40
0.0
 40
0.1174099414553069
 40
0.1174099414553069
 40
0.1174099414553069
 40
0.7005510763012127
 40
0.7005510763012127
 40
0.7005510763012127
 40
1.0
 40
1.0
 40
1.0
 40
1.0
 10
-14.94
 20
5.329028565234666
 30
0.0
 10
-14.21597759591744
 20
5.423159426878767
 30
0.0
 10
-13.49195425129899
 20
5.517284113829225
 30
0.0
 10
-12.7679300988895
 20
5.611403496572149
 30
0.0
 10
-9.171912074626455
 20
6.078867179447524
 30
0.0
 10
-5.575874842004628
 20
6.54620474218888
 30
0.0
 10
-1.979827878763061
 20
7.013478370670667
 30
0.0
 10
-0.1332210655967114
 20
7.253428147408181
 30
0.0
 10
1.713388454899396
 20
7.493360140651492
 30
0.0
 10
3.559999999999991
 20
7.733278832296453
 30
0.0
  0
LINE
  5
10B
330
1F
100
AcDbEntity
  8
SK3
100
AcDbLine
 10
-14.94
 20
4.0334042698
 30
0.0
 11
10.26
 21
4.0334042698
 31
0.0
  0
SPLINE
  5
10C
330
1F
100
AcDbEntity
  8
SK1
  6
Continuous
100
AcDbSpline
210
0.0
220
0.0
230
1.0
 70
     8
 71
     3
 72
    11
 73
     7
 74
     0
 42
0.0000000005397591
 43
0.0000000001
 12
1.0
 22
0.0
 32
0.0
 13
1.0
 23
0.0
 33
0.0
 40
0.0
 40
0.0
 40
0.0
 40
0.0
 40
0.5342618011559842
 40
0.5342618011559842
 40
0.5342618011559842
 40
1.0
 40
1.0
 40
1.0
 40
1.0
 10
-14.94
 20
1.977746131697323
 30
0.0
 10
-11.64541089902244
 20
2.155167367921618
 30
0.0
 10
-8.350802987695426
 20
2.332537452505784
 30
0.0
 10
-5.056185319883215
 20
2.509880986391047
 30
0.0
 10
-2.184130279488638
 20
2.66447870962695
 30
0.0
 10
0.6879324548932018
 20
2.81905550089201
 30
0.0
 10
3.559999999999992
 20
2.973619199653449
 30
0.0
  0
LINE
  5
10D
330
1F
100
AcDbEntity
  8
SK3
100
AcDbLine
 10
-14.94
 20
1.4410809768
 30
0.0
 11
10.26
 21
1.4410809768
 31
0.0
  0
LINE
  5
10E
330
1F
100
AcDbEntity
  8
SK3
100
AcDbLine
 10
5.635
 20
-4.4999995133
 30
0.0
 11
10.26
 21
-4.4999995133
 31
0.0
  0
LINE
  5
10F
330
1F
100
AcDbEntity
  8
SK3
100
AcDbLine
 10
10.26
 20
4.5000004867
 30
0.0
 11
5.635
 21
4.5000004867
 31
0.0
  0
ARC
  5
110
330
1F
100
AcDbEntity
  8
SK1
  6
Continuous
100
AcDbCircle
 10
10.01
 20
6.1712618427
 30
0.0
 40
0.2500000000000001
100
AcDbArc
 50
0.0
 51
60.0
  0
LINE
  5
111
330
1F
100
AcDbEntity
  8
SK1
  6
Continuous
100
AcDbLine
 10
10.135
 20
6.3877681936
 30
0.0
 11
6.26
 21
8.6250004867
 31
0.0
  0
ARC
  5
112
330
1F
100
AcDbEntity
  8
SK1
  6
Continuous
100
AcDbCircle
 10
6.06
 20
7.1000004867
 30
0.0
 40
0.2000000000000005
100
AcDbArc
 50
270.0
 51
0.0
  0
LINE
  5
113
330
1F
100
AcDbEntity
  8
SK1
  6
Continuous
100
AcDbLine
 10
6.06
 20
6.9000004867
 30
0.0
 11
5.635
 21
6.9000004867
 31
0.0
  0
ARC
  5
114
330
1F
100
AcDbEntity
  8
SK1
  6
Continuous
100
AcDbCircle
 10
10.01
 20
-6.1712608692
 30
0.0
 40
0.2499999999999999
100
AcDbArc
 50
300.0
 51
0.0
  0
LINE
  5
115
330
1F
100
AcDbEntity
  8
SK1
  6
Continuous
100
AcDbLine
 10
6.26
 20
-8.6249995133
 30
0.0
 11
10.135
 21
-6.3877672202
 31
0.0
  0
ARC
  5
116
330
1F
100
AcDbEntity
  8
SK1
  6
Continuous
100
AcDbCircle
 10
6.06
 20
-7.0999995133
 30
0.0
 40
0.2000000000000004
100
AcDbArc
 50
0.0
 51
90.0
  0
LINE
  5
117
330
1F
100
AcDbEntity
  8
SK1
  6
Continuous
100
AcDbLine
 10
5.635
 20
-6.8999995133
 30
0.0
 11
6.06
 21
-6.8999995133
 31
0.0
  0
LINE
  5
118
330
1F
100
AcDbEntity
  8
SK3
100
AcDbLine
 10
-15.24
 20
2.2416958604
 30
0.0
 11
-15.24
 21
1.7220759324
 31
0.0
  0
LINE
  5
119
330
1F
100
AcDbEntity
  8
SK3
100
AcDbLine
 10
5.635
 20
-4.8790363035
 30
0.0
 11
5.635
 21
-3.1819800286
 31
0.0
  0
LINE
  5
11A
330
1F
100
AcDbEntity
  8
SK3
100
AcDbLine
 10
5.635
 20
3.1819810021
 30
0.0
 11
5.635
 21
4.8790372769
 31
0.0
  0
LINE
  5
11B
330
1F
100
AcDbEntity
  8
SK3
100
AcDbLine
 10
5.635
 20
4.8790372769
 30
0.0
 11
5.635
 21
6.9000004867
 31
0.0
  0
LINE
  5
11C
330
1F
100
AcDbEntity
  8
SK3
100
AcDbLine
 10
5.635
 20
-6.8999995133
 30
0.0
 11
5.635
 21
-4.8790363035
 31
0.0
  0
LINE
  5
11D
330
1F
100
AcDbEntity
  8
SK3
100
AcDbLine
 10
-15.24
 20
-1.7220749589
 30
0.0
 11
-15.24
 21
-2.241694887
 31
0.0
  0
LINE
  5
11E
330
1F
100
AcDbEntity
  8
SK3
100
AcDbLine
 10
-15.24
 20
-4.1574574096
 30
0.0
 11
-15.24
 21
-5.4119308871
 31
0.0
  0
LINE
  5
11F
330
1F
100
AcDbEntity
  8
SK3
100
AcDbLine
 10
-15.24
 20
5.4119318606
 30
0.0
 11
-15.24
 21
4.157458383
 31
0.0
  0
LINE
  5
120
330
1F
100
AcDbEntity
  8
SK1
  6
Continuous
100
AcDbLine
 10
0.0
 20
7.9940483145
 30
0.0
 11
0.0
 21
-7.994048115
 31
0.0
  0
LINE
  5
122
330
1F
100
AcDbEntity
  8
SK4
  6
Continuous
100
AcDbLine
 10
10.26
 20
0.0000004867
 30
0.0
 11
-17.24
 21
0.0000004867
 31
0.0
  0
DIMENSION
  5
137
330
1F
100
AcDbEntity
  8
SK2
  6
Continuous
 62
   136
100
AcDbDimension
  2
DMBLK119
 10
20.0346960819
 20
4.5000004867
 30
0.0
 11
20.0346960819
 21
0.0000006804
 31
0.0
 70
   161
  1
\A1;ø <>
 71
     5
 42
-1.0
  3
DIN
100
AcDbAlignedDimension
 13
10.26
 23
4.5000004867
 33
0.0
 14
10.26
 24
-4.4999995133
 34
0.0
  0
DIMENSION
  5
142
330
1F
100
AcDbEntity
  8
SK2
  6
Continuous
 62
   136
100
AcDbDimension
  2
DMBLK120
 10
10.26
 20
-15.3527923898
 30
0.0
 11
5.1299999468
 21
-15.3527923898
 31
0.0
 70
   160
  1
\A1;<>
 71
     5
 42
-1.0
  3
DIN
100
AcDbAlignedDimension
 13
0.0
 23
-7.994048115
 33
0.0
 14
10.26
 24
-5.5799557512
 34
0.0
100
AcDbRotatedDimension
  0
DIMENSION
  5
14C
330
1F
100
AcDbEntity
  8
SK2
  6
Continuous
 62
   136
100
AcDbDimension
  2
DMBLK121
 10
-23.4965272248
 20
7.9940483145
 30
0.0
 11
-23.4965272248
 21
0.0000000171
 31
0.0
 70
   161
  1
\A1;ø <>
 71
     5
 42
-1.0
  3
DIN
100
AcDbAlignedDimension
 13
0.0
 23
7.9940483145
 33
0.0
 14
0.0
 24
-7.994048115
 34
0.0
1001
ACAD
1000
DSTYLE
1002
{
1070
   271
1070
     1
1070
   272
1070
     1
1070
     0
1002
}
  0
DIMENSION
  5
157
330
1F
100
AcDbEntity
  8
SK2
  6
Continuous
 62
   136
100
AcDbDimension
  2
DMBLK122
 10
10.26
 20
14.6472074595
 30
0.0
 11
-3.4900000745
 21
14.6472074595
 31
0.0
 70
   160
  1
\A1;<>
 71
     5
 42
-1.0
  3
DIN
100
AcDbAlignedDimension
 13
-17.24
 23
5.3104462605
 33
0.0
 14
10.26
 24
6.1712618427
 34
0.0
100
AcDbRotatedDimension
1001
ACAD
1000
DSTYLE
1002
{
1070
   271
1070
     1
1070
   272
1070
     1
1070
     0
1002
}
  0
ENDSEC
  0
SECTION
  2
OBJECTS
  0
DICTIONARY
  5
C
330
0
100
AcDbDictionary
281
     1
  3
ACAD_GROUP
350
D
  3
ACAD_LAYOUT
350
1A
  3
ACAD_MATERIAL
350
3B
  3
ACAD_MLEADERSTYLE
350
163
  3
ACAD_MLINESTYLE
350
17
  3
ACAD_PLOTSETTINGS
350
19
  3
ACAD_PLOTSTYLENAME
350
E
  3
ACAD_VISUALSTYLE
350
2A
  3
AcDbVariableDictionary
350
161
  0
DICTIONARY
  5
D
102
{ACAD_REACTORS
330
C
102
}
330
C
100
AcDbDictionary
281
     1
  0
DICTIONARY
  5
1A
102
{ACAD_REACTORS
330
C
102
}
330
C
100
AcDbDictionary
281
     1
  3
Layout1
350
1E
  3
Model
350
22
  0
DICTIONARY
  5
3B
102
{ACAD_REACTORS
330
C
102
}
330
C
100
AcDbDictionary
281
     1
  3
ByBlock
350
3D
  3
ByLayer
350
3C
  3
Global
350
3E
  0
DICTIONARY
  5
163
102
{ACAD_REACTORS
330
C
102
}
330
C
100
AcDbDictionary
281
     1
  0
DICTIONARY
  5
17
102
{ACAD_REACTORS
330
C
102
}
330
C
100
AcDbDictionary
281
     1
  3
Standard
350
18
  0
DICTIONARY
  5
19
102
{ACAD_REACTORS
330
C
102
}
330
C
100
AcDbDictionary
281
     1
  0
ACDBDICTIONARYWDFLT
  5
E
102
{ACAD_REACTORS
330
C
102
}
330
C
100
AcDbDictionary
281
     1
  3
Normal
350
F
100
AcDbDictionaryWithDefault
340
F
  0
DICTIONARY
  5
2A
102
{ACAD_REACTORS
330
C
102
}
330
C
100
AcDbDictionary
281
     1
  3
2dWireframe
350
2F
  3
3D Hidden
350
31
  3
3dWireframe
350
30
  3
Basic
350
32
  3
Brighten
350
36
  3
ColorChange
350
3A
  3
Conceptual
350
34
  3
Dim
350
35
  3
Facepattern
350
39
  3
Flat
350
2B
  3
FlatWithEdges
350
2C
  3
Gouraud
350
2D
  3
GouraudWithEdges
350
2E
  3
Linepattern
350
38
  3
Realistic
350
33
  3
Thicken
350
37
  0
DICTIONARY
  5
161
102
{ACAD_REACTORS
330
C
102
}
330
C
100
AcDbDictionary
281
     1
  3
DIMASSOC
350
166
  3
HIDETEXT
350
167
  3
PSOLHEIGHT
350
165
  3
PSOLWIDTH
350
164
  0
LAYOUT
  5
1E
102
{ACAD_REACTORS
330
1A
102
}
330
1A
100
AcDbPlotSettings
  1

  2
none_device
  4

  6

 40
0.0
 41
0.0
 42
0.0
 43
0.0
 44
0.0
 45
0.0
 46
0.0
 47
0.0
 48
0.0
 49
0.0
140
0.0
141
0.0
142
1.0
143
1.0
 70
   688
 72
     0
 73
     0
 74
     5
  7

 75
    16
147
1.0
148
0.0
149
0.0
100
AcDbLayout
  1
Layout1
 70
     1
 71
     1
 10
0.0
 20
0.0
 11
210.0
 21
297.0
 12
0.0
 22
0.0
 32
0.0
 14
0.0
 24
0.0
 34
0.0
 15
210.0
 25
297.0
 35
0.0
146
0.0
 13
0.0
 23
0.0
 33
0.0
 16
1.0
 26
0.0
 36
0.0
 17
0.0
 27
1.0
 37
0.0
 76
     0
330
1B
  0
LAYOUT
  5
22
102
{ACAD_REACTORS
330
1A
102
}
330
1A
100
AcDbPlotSettings
  1

  2
none_device
  4

  6

 40
0.0
 41
0.0
 42
0.0
 43
0.0
 44
0.0
 45
0.0
 46
0.0
 47
0.0
 48
0.0
 49
0.0
140
0.0
141
0.0
142
1.0
143
1.0
 70
  1712
 72
     0
 73
     0
 74
     0
  7

 75
     0
147
1.0
148
0.0
149
0.0
100
AcDbLayout
  1
Model
 70
     1
 71
     0
 10
0.0
 20
0.0
 11
210.0
 21
297.0
 12
0.0
 22
0.0
 32
0.0
 14
0.0
 24
0.0
 34
0.0
 15
210.0
 25
297.0
 35
0.0
146
0.0
 13
0.0
 23
0.0
 33
0.0
 16
1.0
 26
0.0
 36
0.0
 17
0.0
 27
1.0
 37
0.0
 76
     0
330
1F
331
29
  0
MATERIAL
  5
3D
102
{ACAD_REACTORS
330
3B
102
}
102
{ACAD_XDICTIONARY
360
18A
102
}
330
3B
100
AcDbMaterial
  1
ByBlock
  0
MATERIAL
  5
3C
102
{ACAD_REACTORS
330
3B
102
}
102
{ACAD_XDICTIONARY
360
188
102
}
330
3B
100
AcDbMaterial
  1
ByLayer
  0
MATERIAL
  5
3E
102
{ACAD_REACTORS
330
3B
102
}
102
{ACAD_XDICTIONARY
360
18C
102
}
330
3B
100
AcDbMaterial
  1
Global
  0
MLINESTYLE
  5
18
102
{ACAD_REACTORS
330
17
102
}
330
17
100
AcDbMlineStyle
  2
Standard
 70
     0
  3

 62
   256
 51
90.0
 52
90.0
 71
     2
 49
0.5
 62
   256
  6
BYLAYER
 49
-0.5
 62
   256
  6
BYLAYER
  0
ACDBPLACEHOLDER
  5
F
102
{ACAD_REACTORS
330
E
102
}
330
E
  0
VISUALSTYLE
  5
2F
102
{ACAD_REACTORS
330
2A
102
}
102
{ACAD_XDICTIONARY
360
170
102
}
330
2A
100
AcDbVisualStyle
  2
2dWireframe
 70
     4
 71
     0
 72
     2
 73
     0
 90
        0
 40
-0.6
 41
-30.0
 62
     5
 63
     7
 74
     1
 91
        4
 64
     7
 65
   257
 75
     1
175
     1
 42
1.0
 92
        0
 66
   257
 43
1.0
 76
     1
 77
     6
 78
     2
 67
     7
 79
     5
170
     0
171
     0
290
     0
174
     0
 93
        1
 44
0.0
173
     0
291
     0
 45
0.0
1001
ACAD
1000
AcDbSavedByObjectVersion
1070
     0
  0
VISUALSTYLE
  5
31
102
{ACAD_REACTORS
330
2A
102
}
102
{ACAD_XDICTIONARY
360
174
102
}
330
2A
100
AcDbVisualStyle
  2
3D Hidden
 70
     6
 71
     1
 72
     2
 73
     2
 90
        0
 40
-0.6
 41
-30.0
 62
     5
 63
     7
 74
     2
 91
        2
 64
     7
 65
   257
 75
     2
175
     1
 42
40.0
 92
        0
 66
   257
 43
1.0
 76
     1
 77
     6
 78
     2
 67
     7
 79
     3
170
     0
171
     0
290
     0
174
     0
 93
        1
 44
0.0
173
     0
291
     0
 45
0.0
1001
ACAD
1000
AcDbSavedByObjectVersion
1070
     0
  0
VISUALSTYLE
  5
30
102
{ACAD_REACTORS
330
2A
102
}
102
{ACAD_XDICTIONARY
360
172
102
}
330
2A
100
AcDbVisualStyle
  2
3dWireframe
 70
     5
 71
     0
 72
     2
 73
     0
 90
        0
 40
-0.6
 41
-30.0
 62
     5
 63
     7
 74
     1
 91
        4
 64
     7
 65
   257
 75
     1
175
     1
 42
1.0
 92
        0
 66
   257
 43
1.0
 76
     1
 77
     6
 78
     2
 67
     7
 79
     5
170
     0
171
     0
290
     0
174
     0
 93
        1
 44
0.0
173
     0
291
     0
 45
0.0
1001
ACAD
1000
AcDbSavedByObjectVersion
1070
     0
  0
VISUALSTYLE
  5
32
102
{ACAD_REACTORS
330
2A
102
}
102
{ACAD_XDICTIONARY
360
176
102
}
330
2A
100
AcDbVisualStyle
  2
Basic
 70
     7
 71
     1
 72
     0
 73
     1
 90
        0
 40
-0.6
 41
-30.0
 62
     5
 63
     7
 74
     0
 91
        4
 64
     7
 65
   257
 75
     1
175
     1
 42
1.0
 92
        8
 66
     7
 43
1.0
 76
     1
 77
     6
 78
     2
 67
     7
 79
     5
170
     0
171
     0
290
     0
174
     0
 93
        1
 44
0.0
173
     0
291
     1
 45
0.0
1001
ACAD
1000
AcDbSavedByObjectVersion
1070
     0
  0
VISUALSTYLE
  5
36
102
{ACAD_REACTORS
330
2A
102
}
102
{ACAD_XDICTIONARY
360
17E
102
}
330
2A
100
AcDbVisualStyle
  2
Brighten
 70
    12
 71
     2
 72
     2
 73
     0
 90
        0
 40
-0.6
 41
-30.0
 62
     5
 63
     7
 74
     1
 91
        4
 64
     7
 65
   257
 75
     1
175
     1
 42
1.0
 92
        8
 66
     7
 43
1.0
 76
     1
 77
     6
 78
     2
 67
     7
 79
     5
170
     0
171
     0
290
     0
174
     0
 93
        1
 44
50.0
173
     0
291
     1
 45
0.0
1001
ACAD
1000
AcDbSavedByObjectVersion
1070
     0
  0
VISUALSTYLE
  5
3A
102
{ACAD_REACTORS
330
2A
102
}
102
{ACAD_XDICTIONARY
360
186
102
}
330
2A
100
AcDbVisualStyle
  2
ColorChange
 70
    16
 71
     2
 72
     2
 73
     3
 90
        0
 40
-0.6
 41
-30.0
 62
     5
 63
     8
 74
     1
 91
        4
 64
     7
 65
   257
 75
     1
175
     1
 42
1.0
 92
        8
 66
     8
 43
1.0
 76
     1
 77
     6
 78
     2
 67
     7
 79
     5
170
     0
171
     0
290
     0
174
     0
 93
        1
 44
0.0
173
     0
291
     1
 45
0.0
1001
ACAD
1000
AcDbSavedByObjectVersion
1070
     0
  0
VISUALSTYLE
  5
34
102
{ACAD_REACTORS
330
2A
102
}
102
{ACAD_XDICTIONARY
360
17A
102
}
330
2A
100
AcDbVisualStyle
  2
Conceptual
 70
     9
 71
     3
 72
     2
 73
     0
 90
        0
 40
-0.6
 41
-30.0
 62
     5
 63
     7
 74
     2
 91
        2
 64
     7
 65
   257
 75
     1
175
     1
 42
40.0
 92
        8
 66
     7
 43
1.0
 76
     1
 77
     6
 78
     2
 67
     7
 79
     3
170
     0
171
     0
290
     0
174
     0
 93
        1
 44
0.0
173
     0
291
     0
 45
0.0
1001
ACAD
1000
AcDbSavedByObjectVersion
1070
     0
  0
VISUALSTYLE
  5
35
102
{ACAD_REACTORS
330
2A
102
}
102
{ACAD_XDICTIONARY
360
17C
102
}
330
2A
100
AcDbVisualStyle
  2
Dim
 70
    11
 71
     2
 72
     2
 73
     0
 90
        0
 40
-0.6
 41
-30.0
 62
     5
 63
     7
 74
     1
 91
        4
 64
     7
 65
   257
 75
     1
175
     1
 42
1.0
 92
        8
 66
     7
 43
1.0
 76
     1
 77
     6
 78
     2
 67
     7
 79
     5
170
     0
171
     0
290
     0
174
     0
 93
        1
 44
-50.0
173
     0
291
     1
 45
0.0
1001
ACAD
1000
AcDbSavedByObjectVersion
1070
     0
  0
VISUALSTYLE
  5
39
102
{ACAD_REACTORS
330
2A
102
}
102
{ACAD_XDICTIONARY
360
184
102
}
330
2A
100
AcDbVisualStyle
  2
Facepattern
 70
    15
 71
     2
 72
     2
 73
     0
 90
        0
 40
-0.6
 41
-30.0
 62
     5
 63
     7
 74
     1
 91
        4
 64
     7
 65
   257
 75
     1
175
     1
 42
1.0
 92
        8
 66
     7
 43
1.0
 76
     1
 77
     6
 78
     2
 67
     7
 79
     5
170
     0
171
     0
290
     0
174
     0
 93
        1
 44
0.0
173
     0
291
     1
 45
0.0
1001
ACAD
1000
AcDbSavedByObjectVersion
1070
     0
  0
VISUALSTYLE
  5
2B
102
{ACAD_REACTORS
330
2A
102
}
102
{ACAD_XDICTIONARY
360
168
102
}
330
2A
100
AcDbVisualStyle
  2
Flat
 70
     0
 71
     2
 72
     1
 73
     1
 90
        2
 40
-0.6
 41
30.0
 62
     5
 63
     7
 74
     0
 91
        4
 64
     7
 65
   257
 75
     1
175
     1
 42
1.0
 92
        8
 66
     7
 43
1.0
 76
     1
 77
     6
 78
     2
 67
     7
 79
     5
170
     0
171
     0
290
     0
174
     0
 93
       13
 44
0.0
173
     0
291
     1
 45
0.0
1001
ACAD
1000
AcDbSavedByObjectVersion
1070
     0
  0
VISUALSTYLE
  5
2C
102
{ACAD_REACTORS
330
2A
102
}
102
{ACAD_XDICTIONARY
360
16A
102
}
330
2A
100
AcDbVisualStyle
  2
FlatWithEdges
 70
     1
 71
     2
 72
     1
 73
     1
 90
        2
 40
-0.6
 41
30.0
 62
     5
 63
     7
 74
     1
 91
        4
 64
     7
 65
   257
 75
     1
175
     1
 42
1.0
 92
        0
 66
   257
 43
1.0
 76
     1
 77
     6
 78
     2
 67
     7
 79
     5
170
     0
171
     0
290
     0
174
     0
 93
       13
 44
0.0
173
     0
291
     1
 45
0.0
1001
ACAD
1000
AcDbSavedByObjectVersion
1070
     0
  0
VISUALSTYLE
  5
2D
102
{ACAD_REACTORS
330
2A
102
}
102
{ACAD_XDICTIONARY
360
16C
102
}
330
2A
100
AcDbVisualStyle
  2
Gouraud
 70
     2
 71
     2
 72
     2
 73
     1
 90
        2
 40
-0.6
 41
30.0
 62
     5
 63
     7
 74
     0
 91
        4
 64
     7
 65
   257
 75
     1
175
     1
 42
1.0
 92
        0
 66
     7
 43
1.0
 76
     1
 77
     6
 78
     2
 67
     7
 79
     5
170
     0
171
     0
290
     0
174
     0
 93
       13
 44
0.0
173
     0
291
     1
 45
0.0
1001
ACAD
1000
AcDbSavedByObjectVersion
1070
     0
  0
VISUALSTYLE
  5
2E
102
{ACAD_REACTORS
330
2A
102
}
102
{ACAD_XDICTIONARY
360
16E
102
}
330
2A
100
AcDbVisualStyle
  2
GouraudWithEdges
 70
     3
 71
     2
 72
     2
 73
     1
 90
        2
 40
-0.6
 41
30.0
 62
     5
 63
     7
 74
     1
 91
        4
 64
     7
 65
   257
 75
     1
175
     1
 42
1.0
 92
        0
 66
   257
 43
1.0
 76
     1
 77
     6
 78
     2
 67
     7
 79
     5
170
     0
171
     0
290
     0
174
     0
 93
       13
 44
0.0
173
     0
291
     1
 45
0.0
1001
ACAD
1000
AcDbSavedByObjectVersion
1070
     0
  0
VISUALSTYLE
  5
38
102
{ACAD_REACTORS
330
2A
102
}
102
{ACAD_XDICTIONARY
360
182
102
}
330
2A
100
AcDbVisualStyle
  2
Linepattern
 70
    14
 71
     2
 72
     2
 73
     0
 90
        0
 40
-0.6
 41
-30.0
 62
     5
 63
     7
 74
     1
 91
        4
 64
     7
 65
   257
 75
     7
175
     7
 42
1.0
 92
        8
 66
     7
 43
1.0
 76
     1
 77
     6
 78
     2
 67
     7
 79
     5
170
     0
171
     0
290
     0
174
     0
 93
        1
 44
0.0
173
     0
291
     1
 45
0.0
1001
ACAD
1000
AcDbSavedByObjectVersion
1070
     0
  0
VISUALSTYLE
  5
33
102
{ACAD_REACTORS
330
2A
102
}
102
{ACAD_XDICTIONARY
360
178
102
}
330
2A
100
AcDbVisualStyle
  2
Realistic
 70
     8
 71
     2
 72
     2
 73
     0
 90
        0
 40
-0.6
 41
-30.0
 62
     5
 63
     7
 74
     1
 91
        0
 64
     7
 65
   257
 75
     1
175
     1
 42
1.0
 92
        8
 66
     8
 43
1.0
 76
     1
 77
     6
 78
     2
 67
     7
 79
     5
170
     0
171
     0
290
     0
174
     0
 93
       13
 44
0.0
173
     0
291
     0
 45
0.0
1001
ACAD
1000
AcDbSavedByObjectVersion
1070
     0
  0
VISUALSTYLE
  5
37
102
{ACAD_REACTORS
330
2A
102
}
102
{ACAD_XDICTIONARY
360
180
102
}
330
2A
100
AcDbVisualStyle
  2
Thicken
 70
    13
 71
     2
 72
     2
 73
     0
 90
        0
 40
-0.6
 41
-30.0
 62
     5
 63
     7
 74
     1
 91
        4
 64
     7
 65
   257
 75
     1
175
     1
 42
1.0
 92
       12
 66
     7
 43
1.0
 76
     1
 77
     6
 78
     2
 67
     7
 79
     5
170
     0
171
     0
290
     0
174
     0
 93
        1
 44
0.0
173
     0
291
     1
 45
0.0
1001
ACAD
1000
AcDbSavedByObjectVersion
1070
     0
  0
DICTIONARYVAR
  5
166
102
{ACAD_REACTORS
330
161
102
}
330
161
100
DictionaryVariables
280
     0
  1
2
  0
DICTIONARYVAR
  5
167
102
{ACAD_REACTORS
330
161
102
}
330
161
100
DictionaryVariables
280
     0
  1
1
  0
DICTIONARYVAR
  5
165
102
{ACAD_REACTORS
330
161
102
}
330
161
100
DictionaryVariables
280
     0
  1
80.000000
  0
DICTIONARYVAR
  5
164
102
{ACAD_REACTORS
330
161
102
}
330
161
100
DictionaryVariables
280
     0
  1
5.000000
  0
DICTIONARY
  5
18A
330
3D
100
AcDbDictionary
280
     1
281
     1
  3
ACAD_XREC_ROUNDTRIP
360
18B
  0
DICTIONARY
  5
188
330
3C
100
AcDbDictionary
280
     1
281
     1
  3
ACAD_XREC_ROUNDTRIP
360
189
  0
DICTIONARY
  5
18C
330
3E
100
AcDbDictionary
280
     1
281
     1
  3
ACAD_XREC_ROUNDTRIP
360
18D
  0
DICTIONARY
  5
170
330
2F
100
AcDbDictionary
280
     1
281
     1
  3
ACAD_XREC_ROUNDTRIP
360
171
  0
DICTIONARY
  5
174
330
31
100
AcDbDictionary
280
     1
281
     1
  3
ACAD_XREC_ROUNDTRIP
360
175
  0
DICTIONARY
  5
172
330
30
100
AcDbDictionary
280
     1
281
     1
  3
ACAD_XREC_ROUNDTRIP
360
173
  0
DICTIONARY
  5
176
330
32
100
AcDbDictionary
280
     1
281
     1
  3
ACAD_XREC_ROUNDTRIP
360
177
  0
DICTIONARY
  5
17E
330
36
100
AcDbDictionary
280
     1
281
     1
  3
ACAD_XREC_ROUNDTRIP
360
17F
  0
DICTIONARY
  5
186
330
3A
100
AcDbDictionary
280
     1
281
     1
  3
ACAD_XREC_ROUNDTRIP
360
187
  0
DICTIONARY
  5
17A
330
34
100
AcDbDictionary
280
     1
281
     1
  3
ACAD_XREC_ROUNDTRIP
360
17B
  0
DICTIONARY
  5
17C
330
35
100
AcDbDictionary
280
     1
281
     1
  3
ACAD_XREC_ROUNDTRIP
360
17D
  0
DICTIONARY
  5
184
330
39
100
AcDbDictionary
280
     1
281
     1
  3
ACAD_XREC_ROUNDTRIP
360
185
  0
DICTIONARY
  5
168
330
2B
100
AcDbDictionary
280
     1
281
     1
  3
ACAD_XREC_ROUNDTRIP
360
169
  0
DICTIONARY
  5
16A
330
2C
100
AcDbDictionary
280
     1
281
     1
  3
ACAD_XREC_ROUNDTRIP
360
16B
  0
DICTIONARY
  5
16C
330
2D
100
AcDbDictionary
280
     1
281
     1
  3
ACAD_XREC_ROUNDTRIP
360
16D
  0
DICTIONARY
  5
16E
330
2E
100
AcDbDictionary
280
     1
281
     1
  3
ACAD_XREC_ROUNDTRIP
360
16F
  0
DICTIONARY
  5
182
330
38
100
AcDbDictionary
280
     1
281
     1
  3
ACAD_XREC_ROUNDTRIP
360
183
  0
DICTIONARY
  5
178
330
33
100
AcDbDictionary
280
     1
281
     1
  3
ACAD_XREC_ROUNDTRIP
360
179
  0
DICTIONARY
  5
180
330
37
100
AcDbDictionary
280
     1
281
     1
  3
ACAD_XREC_ROUNDTRIP
360
181
  0
XRECORD
  5
18B
102
{ACAD_REACTORS
330
18A
102
}
330
18A
100
AcDbXrecord
280
     1
102
MATERIAL
148
0.0
149
0.0
149
0.0
 93
        0
 94
      127
282
     0
 72
     1
 77
     1
171
     1
175
     1
179
     1
273
     0
  0
XRECORD
  5
189
102
{ACAD_REACTORS
330
188
102
}
330
188
100
AcDbXrecord
280
     1
102
MATERIAL
148
0.0
149
0.0
149
0.0
 93
        0
 94
      127
282
     0
 72
     1
 77
     1
171
     1
175
     1
179
     1
273
     0
  0
XRECORD
  5
18D
102
{ACAD_REACTORS
330
18C
102
}
330
18C
100
AcDbXrecord
280
     1
102
MATERIAL
148
0.0
149
0.0
149
0.0
 93
        0
 94
      127
282
     0
 72
     1
 77
     1
171
     1
175
     1
179
     1
273
     0
  0
XRECORD
  5
171
102
{ACAD_REACTORS
330
170
102
}
330
170
100
AcDbXrecord
280
     1
102
RTVSPropertyOp0
 70
     1
102
RTVSPropertyOp1
 70
     1
102
RTVSPropertyOp2
 70
     1
102
RTVSPropertyOp3
 70
     1
102
RTVSPropertyOp4
 70
     1
102
RTVSPropertyOp5
 70
     1
102
RTVSPropertyOp6
 70
     1
102
RTVSPropertyOp7
 70
     1
102
RTVSPropertyOp8
 70
     1
102
RTVSPropertyOp9
 70
     1
102
RTVSPropertyOp10
 70
     1
102
RTVSPropertyOp11
 70
     1
102
RTVSPropertyOp12
 70
     1
102
RTVSPropertyOp13
 70
     1
102
RTVSPropertyOp14
 70
     1
102
RTVSPropertyOp15
 70
     1
102
RTVSPropertyOp16
 70
     1
102
RTVSPropertyOp17
 70
     1
102
RTVSPropertyOp18
 70
     1
102
RTVSPropertyOp19
 70
     1
102
RTVSPropertyOp20
 70
     1
102
RTVSPropertyOp21
 70
     1
102
RTVSPropertyOp22
 70
     1
102
RTVSPropertyOp23
 70
     1
102
RTVSPropertyOp24
 70
     1
102
RTVSPropertyOp25
 70
     1
102
RTVSPropertyOp26
 70
     1
102
RTVSPropertyOp27
 70
     1
102
RTVSPropertyOp28
 70
     1
102
RTVSPropertyOp29
 70
     1
102
RTVSPropertyOp30
 70
     1
102
RTVSPropertyOp31
 70
     1
102
RTVSPropertyOp32
 70
     1
  0
XRECORD
  5
175
102
{ACAD_REACTORS
330
174
102
}
330
174
100
AcDbXrecord
280
     1
102
RTVSPropertyOp0
 70
     1
102
RTVSPropertyOp1
 70
     1
102
RTVSPropertyOp2
 70
     1
102
RTVSPropertyOp3
 70
     1
102
RTVSPropertyOp4
 70
     1
102
RTVSPropertyOp5
 70
     1
102
RTVSPropertyOp6
 70
     1
102
RTVSPropertyOp7
 70
     1
102
RTVSPropertyOp8
 70
     1
102
RTVSPropertyOp9
 70
     1
102
RTVSPropertyOp10
 70
     1
102
RTVSPropertyOp11
 70
     1
102
RTVSPropertyOp12
 70
     1
102
RTVSPropertyOp13
 70
     1
102
RTVSPropertyOp14
 70
     1
102
RTVSPropertyOp15
 70
     1
102
RTVSPropertyOp16
 70
     1
102
RTVSPropertyOp17
 70
     1
102
RTVSPropertyOp18
 70
     1
102
RTVSPropertyOp19
 70
     1
102
RTVSPropertyOp20
 70
     1
102
RTVSPropertyOp21
 70
     1
102
RTVSPropertyOp22
 70
     1
102
RTVSPropertyOp23
 70
     1
102
RTVSPropertyOp24
 70
     1
102
RTVSPropertyOp25
 70
     1
102
RTVSPropertyOp26
 70
     1
102
RTVSPropertyOp27
 70
     1
102
RTVSPropertyOp28
 70
     1
102
RTVSPropertyOp29
 70
     1
102
RTVSPropertyOp30
 70
     1
102
RTVSPropertyOp31
 70
     1
102
RTVSPropertyOp32
 70
     1
  0
XRECORD
  5
173
102
{ACAD_REACTORS
330
172
102
}
330
172
100
AcDbXrecord
280
     1
102
RTVSPropertyOp0
 70
     1
102
RTVSPropertyOp1
 70
     1
102
RTVSPropertyOp2
 70
     1
102
RTVSPropertyOp3
 70
     1
102
RTVSPropertyOp4
 70
     1
102
RTVSPropertyOp5
 70
     1
102
RTVSPropertyOp6
 70
     1
102
RTVSPropertyOp7
 70
     1
102
RTVSPropertyOp8
 70
     1
102
RTVSPropertyOp9
 70
     1
102
RTVSPropertyOp10
 70
     1
102
RTVSPropertyOp11
 70
     1
102
RTVSPropertyOp12
 70
     1
102
RTVSPropertyOp13
 70
     1
102
RTVSPropertyOp14
 70
     1
102
RTVSPropertyOp15
 70
     1
102
RTVSPropertyOp16
 70
     1
102
RTVSPropertyOp17
 70
     1
102
RTVSPropertyOp18
 70
     1
102
RTVSPropertyOp19
 70
     1
102
RTVSPropertyOp20
 70
     1
102
RTVSPropertyOp21
 70
     1
102
RTVSPropertyOp22
 70
     1
102
RTVSPropertyOp23
 70
     1
102
RTVSPropertyOp24
 70
     1
102
RTVSPropertyOp25
 70
     1
102
RTVSPropertyOp26
 70
     1
102
RTVSPropertyOp27
 70
     1
102
RTVSPropertyOp28
 70
     1
102
RTVSPropertyOp29
 70
     1
102
RTVSPropertyOp30
 70
     1
102
RTVSPropertyOp31
 70
     1
102
RTVSPropertyOp32
 70
     1
  0
XRECORD
  5
177
102
{ACAD_REACTORS
330
176
102
}
330
176
100
AcDbXrecord
280
     1
102
RTVSPropertyOp0
 70
     1
102
RTVSPropertyOp1
 70
     1
102
RTVSPropertyOp2
 70
     1
102
RTVSPropertyOp3
 70
     1
102
RTVSPropertyOp4
 70
     1
102
RTVSPropertyOp5
 70
     1
102
RTVSPropertyOp6
 70
     1
102
RTVSPropertyOp7
 70
     1
102
RTVSPropertyOp8
 70
     1
102
RTVSPropertyOp9
 70
     1
102
RTVSPropertyOp10
 70
     1
102
RTVSPropertyOp11
 70
     1
102
RTVSPropertyOp12
 70
     1
102
RTVSPropertyOp13
 70
     1
102
RTVSPropertyOp14
 70
     1
102
RTVSPropertyOp15
 70
     1
102
RTVSPropertyOp16
 70
     1
102
RTVSPropertyOp17
 70
     1
102
RTVSPropertyOp18
 70
     1
102
RTVSPropertyOp19
 70
     1
102
RTVSPropertyOp20
 70
     1
102
RTVSPropertyOp21
 70
     1
102
RTVSPropertyOp22
 70
     1
102
RTVSPropertyOp23
 70
     1
102
RTVSPropertyOp24
 70
     1
102
RTVSPropertyOp25
 70
     1
102
RTVSPropertyOp26
 70
     1
102
RTVSPropertyOp27
 70
     1
102
RTVSPropertyOp28
 70
     1
102
RTVSPropertyOp29
 70
     1
102
RTVSPropertyOp30
 70
     1
102
RTVSPropertyOp31
 70
     1
102
RTVSPropertyOp32
 70
     1
  0
XRECORD
  5
17F
102
{ACAD_REACTORS
330
17E
102
}
330
17E
100
AcDbXrecord
280
     1
102
RTVSPropertyOp0
 70
     1
102
RTVSPropertyOp1
 70
     1
102
RTVSPropertyOp2
 70
     1
102
RTVSPropertyOp3
 70
     1
102
RTVSPropertyOp4
 70
     1
102
RTVSPropertyOp5
 70
     1
102
RTVSPropertyOp6
 70
     1
102
RTVSPropertyOp7
 70
     1
102
RTVSPropertyOp8
 70
     1
102
RTVSPropertyOp9
 70
     1
102
RTVSPropertyOp10
 70
     1
102
RTVSPropertyOp11
 70
     1
102
RTVSPropertyOp12
 70
     1
102
RTVSPropertyOp13
 70
     1
102
RTVSPropertyOp14
 70
     1
102
RTVSPropertyOp15
 70
     1
102
RTVSPropertyOp16
 70
     1
102
RTVSPropertyOp17
 70
     1
102
RTVSPropertyOp18
 70
     1
102
RTVSPropertyOp19
 70
     1
102
RTVSPropertyOp20
 70
     1
102
RTVSPropertyOp21
 70
     1
102
RTVSPropertyOp22
 70
     1
102
RTVSPropertyOp23
 70
     1
102
RTVSPropertyOp24
 70
     1
102
RTVSPropertyOp25
 70
     1
102
RTVSPropertyOp26
 70
     1
102
RTVSPropertyOp27
 70
     1
102
RTVSPropertyOp28
 70
     1
102
RTVSPropertyOp29
 70
     1
102
RTVSPropertyOp30
 70
     1
102
RTVSPropertyOp31
 70
     1
102
RTVSPropertyOp32
 70
     1
  0
XRECORD
  5
187
102
{ACAD_REACTORS
330
186
102
}
330
186
100
AcDbXrecord
280
     1
102
RTVSPropertyOp0
 70
     1
102
RTVSPropertyOp1
 70
     1
102
RTVSPropertyOp2
 70
     1
102
RTVSPropertyOp3
 70
     1
102
RTVSPropertyOp4
 70
     1
102
RTVSPropertyOp5
 70
     1
102
RTVSPropertyOp6
 70
     1
102
RTVSPropertyOp7
 70
     1
102
RTVSPropertyOp8
 70
     1
102
RTVSPropertyOp9
 70
     1
102
RTVSPropertyOp10
 70
     1
102
RTVSPropertyOp11
 70
     1
102
RTVSPropertyOp12
 70
     1
102
RTVSPropertyOp13
 70
     1
102
RTVSPropertyOp14
 70
     1
102
RTVSPropertyOp15
 70
     1
102
RTVSPropertyOp16
 70
     1
102
RTVSPropertyOp17
 70
     1
102
RTVSPropertyOp18
 70
     1
102
RTVSPropertyOp19
 70
     1
102
RTVSPropertyOp20
 70
     1
102
RTVSPropertyOp21
 70
     1
102
RTVSPropertyOp22
 70
     1
102
RTVSPropertyOp23
 70
     1
102
RTVSPropertyOp24
 70
     1
102
RTVSPropertyOp25
 70
     1
102
RTVSPropertyOp26
 70
     1
102
RTVSPropertyOp27
 70
     1
102
RTVSPropertyOp28
 70
     1
102
RTVSPropertyOp29
 70
     1
102
RTVSPropertyOp30
 70
     1
102
RTVSPropertyOp31
 70
     1
102
RTVSPropertyOp32
 70
     1
  0
XRECORD
  5
17B
102
{ACAD_REACTORS
330
17A
102
}
330
17A
100
AcDbXrecord
280
     1
102
RTVSPropertyOp0
 70
     1
102
RTVSPropertyOp1
 70
     1
102
RTVSPropertyOp2
 70
     1
102
RTVSPropertyOp3
 70
     1
102
RTVSPropertyOp4
 70
     1
102
RTVSPropertyOp5
 70
     1
102
RTVSPropertyOp6
 70
     1
102
RTVSPropertyOp7
 70
     1
102
RTVSPropertyOp8
 70
     1
102
RTVSPropertyOp9
 70
     1
102
RTVSPropertyOp10
 70
     1
102
RTVSPropertyOp11
 70
     1
102
RTVSPropertyOp12
 70
     1
102
RTVSPropertyOp13
 70
     1
102
RTVSPropertyOp14
 70
     1
102
RTVSPropertyOp15
 70
     1
102
RTVSPropertyOp16
 70
     1
102
RTVSPropertyOp17
 70
     1
102
RTVSPropertyOp18
 70
     1
102
RTVSPropertyOp19
 70
     1
102
RTVSPropertyOp20
 70
     1
102
RTVSPropertyOp21
 70
     1
102
RTVSPropertyOp22
 70
     1
102
RTVSPropertyOp23
 70
     1
102
RTVSPropertyOp24
 70
     1
102
RTVSPropertyOp25
 70
     1
102
RTVSPropertyOp26
 70
     1
102
RTVSPropertyOp27
 70
     1
102
RTVSPropertyOp28
 70
     1
102
RTVSPropertyOp29
 70
     1
102
RTVSPropertyOp30
 70
     1
102
RTVSPropertyOp31
 70
     1
102
RTVSPropertyOp32
 70
     1
  0
XRECORD
  5
17D
102
{ACAD_REACTORS
330
17C
102
}
330
17C
100
AcDbXrecord
280
     1
102
RTVSPropertyOp0
 70
     1
102
RTVSPropertyOp1
 70
     1
102
RTVSPropertyOp2
 70
     1
102
RTVSPropertyOp3
 70
     1
102
RTVSPropertyOp4
 70
     1
102
RTVSPropertyOp5
 70
     1
102
RTVSPropertyOp6
 70
     1
102
RTVSPropertyOp7
 70
     1
102
RTVSPropertyOp8
 70
     1
102
RTVSPropertyOp9
 70
     1
102
RTVSPropertyOp10
 70
     1
102
RTVSPropertyOp11
 70
     1
102
RTVSPropertyOp12
 70
     1
102
RTVSPropertyOp13
 70
     1
102
RTVSPropertyOp14
 70
     1
102
RTVSPropertyOp15
 70
     1
102
RTVSPropertyOp16
 70
     1
102
RTVSPropertyOp17
 70
     1
102
RTVSPropertyOp18
 70
     1
102
RTVSPropertyOp19
 70
     1
102
RTVSPropertyOp20
 70
     1
102
RTVSPropertyOp21
 70
     1
102
RTVSPropertyOp22
 70
     1
102
RTVSPropertyOp23
 70
     1
102
RTVSPropertyOp24
 70
     1
102
RTVSPropertyOp25
 70
     1
102
RTVSPropertyOp26
 70
     1
102
RTVSPropertyOp27
 70
     1
102
RTVSPropertyOp28
 70
     1
102
RTVSPropertyOp29
 70
     1
102
RTVSPropertyOp30
 70
     1
102
RTVSPropertyOp31
 70
     1
102
RTVSPropertyOp32
 70
     1
  0
XRECORD
  5
185
102
{ACAD_REACTORS
330
184
102
}
330
184
100
AcDbXrecord
280
     1
102
RTVSPropertyOp0
 70
     1
102
RTVSPropertyOp1
 70
     1
102
RTVSPropertyOp2
 70
     1
102
RTVSPropertyOp3
 70
     1
102
RTVSPropertyOp4
 70
     1
102
RTVSPropertyOp5
 70
     1
102
RTVSPropertyOp6
 70
     1
102
RTVSPropertyOp7
 70
     1
102
RTVSPropertyOp8
 70
     1
102
RTVSPropertyOp9
 70
     1
102
RTVSPropertyOp10
 70
     1
102
RTVSPropertyOp11
 70
     1
102
RTVSPropertyOp12
 70
     1
102
RTVSPropertyOp13
 70
     1
102
RTVSPropertyOp14
 70
     1
102
RTVSPropertyOp15
 70
     1
102
RTVSPropertyOp16
 70
     1
102
RTVSPropertyOp17
 70
     1
102
RTVSPropertyOp18
 70
     1
102
RTVSPropertyOp19
 70
     1
102
RTVSPropertyOp20
 70
     1
102
RTVSPropertyOp21
 70
     1
102
RTVSPropertyOp22
 70
     1
102
RTVSPropertyOp23
 70
     1
102
RTVSPropertyOp24
 70
     1
102
RTVSPropertyOp25
 70
     1
102
RTVSPropertyOp26
 70
     1
102
RTVSPropertyOp27
 70
     1
102
RTVSPropertyOp28
 70
     1
102
RTVSPropertyOp29
 70
     1
102
RTVSPropertyOp30
 70
     1
102
RTVSPropertyOp31
 70
     1
102
RTVSPropertyOp32
 70
     1
  0
XRECORD
  5
169
102
{ACAD_REACTORS
330
168
102
}
330
168
100
AcDbXrecord
280
     1
102
RTVSPropertyOp0
 70
     1
102
RTVSPropertyOp1
 70
     1
102
RTVSPropertyOp2
 70
     1
102
RTVSPropertyOp3
 70
     1
102
RTVSPropertyOp4
 70
     1
102
RTVSPropertyOp5
 70
     1
102
RTVSPropertyOp6
 70
     1
102
RTVSPropertyOp7
 70
     1
102
RTVSPropertyOp8
 70
     1
102
RTVSPropertyOp9
 70
     1
102
RTVSPropertyOp10
 70
     1
102
RTVSPropertyOp11
 70
     1
102
RTVSPropertyOp12
 70
     1
102
RTVSPropertyOp13
 70
     1
102
RTVSPropertyOp14
 70
     1
102
RTVSPropertyOp15
 70
     1
102
RTVSPropertyOp16
 70
     1
102
RTVSPropertyOp17
 70
     1
102
RTVSPropertyOp18
 70
     1
102
RTVSPropertyOp19
 70
     1
102
RTVSPropertyOp20
 70
     1
102
RTVSPropertyOp21
 70
     1
102
RTVSPropertyOp22
 70
     1
102
RTVSPropertyOp23
 70
     1
102
RTVSPropertyOp24
 70
     1
102
RTVSPropertyOp25
 70
     1
102
RTVSPropertyOp26
 70
     1
102
RTVSPropertyOp27
 70
     1
102
RTVSPropertyOp28
 70
     1
102
RTVSPropertyOp29
 70
     1
102
RTVSPropertyOp30
 70
     1
102
RTVSPropertyOp31
 70
     1
102
RTVSPropertyOp32
 70
     1
  0
XRECORD
  5
16B
102
{ACAD_REACTORS
330
16A
102
}
330
16A
100
AcDbXrecord
280
     1
102
RTVSPropertyOp0
 70
     1
102
RTVSPropertyOp1
 70
     1
102
RTVSPropertyOp2
 70
     1
102
RTVSPropertyOp3
 70
     1
102
RTVSPropertyOp4
 70
     1
102
RTVSPropertyOp5
 70
     1
102
RTVSPropertyOp6
 70
     1
102
RTVSPropertyOp7
 70
     1
102
RTVSPropertyOp8
 70
     1
102
RTVSPropertyOp9
 70
     1
102
RTVSPropertyOp10
 70
     1
102
RTVSPropertyOp11
 70
     1
102
RTVSPropertyOp12
 70
     1
102
RTVSPropertyOp13
 70
     1
102
RTVSPropertyOp14
 70
     1
102
RTVSPropertyOp15
 70
     1
102
RTVSPropertyOp16
 70
     1
102
RTVSPropertyOp17
 70
     1
102
RTVSPropertyOp18
 70
     1
102
RTVSPropertyOp19
 70
     1
102
RTVSPropertyOp20
 70
     1
102
RTVSPropertyOp21
 70
     1
102
RTVSPropertyOp22
 70
     1
102
RTVSPropertyOp23
 70
     1
102
RTVSPropertyOp24
 70
     1
102
RTVSPropertyOp25
 70
     1
102
RTVSPropertyOp26
 70
     1
102
RTVSPropertyOp27
 70
     1
102
RTVSPropertyOp28
 70
     1
102
RTVSPropertyOp29
 70
     1
102
RTVSPropertyOp30
 70
     1
102
RTVSPropertyOp31
 70
     1
102
RTVSPropertyOp32
 70
     1
  0
XRECORD
  5
16D
102
{ACAD_REACTORS
330
16C
102
}
330
16C
100
AcDbXrecord
280
     1
102
RTVSPropertyOp0
 70
     1
102
RTVSPropertyOp1
 70
     1
102
RTVSPropertyOp2
 70
     1
102
RTVSPropertyOp3
 70
     1
102
RTVSPropertyOp4
 70
     1
102
RTVSPropertyOp5
 70
     1
102
RTVSPropertyOp6
 70
     1
102
RTVSPropertyOp7
 70
     1
102
RTVSPropertyOp8
 70
     1
102
RTVSPropertyOp9
 70
     1
102
RTVSPropertyOp10
 70
     1
102
RTVSPropertyOp11
 70
     1
102
RTVSPropertyOp12
 70
     1
102
RTVSPropertyOp13
 70
     1
102
RTVSPropertyOp14
 70
     1
102
RTVSPropertyOp15
 70
     1
102
RTVSPropertyOp16
 70
     1
102
RTVSPropertyOp17
 70
     1
102
RTVSPropertyOp18
 70
     1
102
RTVSPropertyOp19
 70
     1
102
RTVSPropertyOp20
 70
     1
102
RTVSPropertyOp21
 70
     1
102
RTVSPropertyOp22
 70
     1
102
RTVSPropertyOp23
 70
     1
102
RTVSPropertyOp24
 70
     1
102
RTVSPropertyOp25
 70
     1
102
RTVSPropertyOp26
 70
     1
102
RTVSPropertyOp27
 70
     1
102
RTVSPropertyOp28
 70
     1
102
RTVSPropertyOp29
 70
     1
102
RTVSPropertyOp30
 70
     1
102
RTVSPropertyOp31
 70
     1
102
RTVSPropertyOp32
 70
     1
  0
XRECORD
  5
16F
102
{ACAD_REACTORS
330
16E
102
}
330
16E
100
AcDbXrecord
280
     1
102
RTVSPropertyOp0
 70
     1
102
RTVSPropertyOp1
 70
     1
102
RTVSPropertyOp2
 70
     1
102
RTVSPropertyOp3
 70
     1
102
RTVSPropertyOp4
 70
     1
102
RTVSPropertyOp5
 70
     1
102
RTVSPropertyOp6
 70
     1
102
RTVSPropertyOp7
 70
     1
102
RTVSPropertyOp8
 70
     1
102
RTVSPropertyOp9
 70
     1
102
RTVSPropertyOp10
 70
     1
102
RTVSPropertyOp11
 70
     1
102
RTVSPropertyOp12
 70
     1
102
RTVSPropertyOp13
 70
     1
102
RTVSPropertyOp14
 70
     1
102
RTVSPropertyOp15
 70
     1
102
RTVSPropertyOp16
 70
     1
102
RTVSPropertyOp17
 70
     1
102
RTVSPropertyOp18
 70
     1
102
RTVSPropertyOp19
 70
     1
102
RTVSPropertyOp20
 70
     1
102
RTVSPropertyOp21
 70
     1
102
RTVSPropertyOp22
 70
     1
102
RTVSPropertyOp23
 70
     1
102
RTVSPropertyOp24
 70
     1
102
RTVSPropertyOp25
 70
     1
102
RTVSPropertyOp26
 70
     1
102
RTVSPropertyOp27
 70
     1
102
RTVSPropertyOp28
 70
     1
102
RTVSPropertyOp29
 70
     1
102
RTVSPropertyOp30
 70
     1
102
RTVSPropertyOp31
 70
     1
102
RTVSPropertyOp32
 70
     1
  0
XRECORD
  5
183
102
{ACAD_REACTORS
330
182
102
}
330
182
100
AcDbXrecord
280
     1
102
RTVSPropertyOp0
 70
     1
102
RTVSPropertyOp1
 70
     1
102
RTVSPropertyOp2
 70
     1
102
RTVSPropertyOp3
 70
     1
102
RTVSPropertyOp4
 70
     1
102
RTVSPropertyOp5
 70
     1
102
RTVSPropertyOp6
 70
     1
102
RTVSPropertyOp7
 70
     1
102
RTVSPropertyOp8
 70
     1
102
RTVSPropertyOp9
 70
     1
102
RTVSPropertyOp10
 70
     1
102
RTVSPropertyOp11
 70
     1
102
RTVSPropertyOp12
 70
     1
102
RTVSPropertyOp13
 70
     1
102
RTVSPropertyOp14
 70
     1
102
RTVSPropertyOp15
 70
     1
102
RTVSPropertyOp16
 70
     1
102
RTVSPropertyOp17
 70
     1
102
RTVSPropertyOp18
 70
     1
102
RTVSPropertyOp19
 70
     1
102
RTVSPropertyOp20
 70
     1
102
RTVSPropertyOp21
 70
     1
102
RTVSPropertyOp22
 70
     1
102
RTVSPropertyOp23
 70
     1
102
RTVSPropertyOp24
 70
     1
102
RTVSPropertyOp25
 70
     1
102
RTVSPropertyOp26
 70
     1
102
RTVSPropertyOp27
 70
     1
102
RTVSPropertyOp28
 70
     1
102
RTVSPropertyOp29
 70
     1
102
RTVSPropertyOp30
 70
     1
102
RTVSPropertyOp31
 70
     1
102
RTVSPropertyOp32
 70
     1
  0
XRECORD
  5
179
102
{ACAD_REACTORS
330
178
102
}
330
178
100
AcDbXrecord
280
     1
102
RTVSPropertyOp0
 70
     1
102
RTVSPropertyOp1
 70
     1
102
RTVSPropertyOp2
 70
     1
102
RTVSPropertyOp3
 70
     1
102
RTVSPropertyOp4
 70
     1
102
RTVSPropertyOp5
 70
     1
102
RTVSPropertyOp6
 70
     1
102
RTVSPropertyOp7
 70
     1
102
RTVSPropertyOp8
 70
     1
102
RTVSPropertyOp9
 70
     1
102
RTVSPropertyOp10
 70
     1
102
RTVSPropertyOp11
 70
     1
102
RTVSPropertyOp12
 70
     1
102
RTVSPropertyOp13
 70
     1
102
RTVSPropertyOp14
 70
     1
102
RTVSPropertyOp15
 70
     1
102
RTVSPropertyOp16
 70
     1
102
RTVSPropertyOp17
 70
     1
102
RTVSPropertyOp18
 70
     1
102
RTVSPropertyOp19
 70
     1
102
RTVSPropertyOp20
 70
     1
102
RTVSPropertyOp21
 70
     1
102
RTVSPropertyOp22
 70
     1
102
RTVSPropertyOp23
 70
     1
102
RTVSPropertyOp24
 70
     1
102
RTVSPropertyOp25
 70
     1
102
RTVSPropertyOp26
 70
     1
102
RTVSPropertyOp27
 70
     1
102
RTVSPropertyOp28
 70
     1
102
RTVSPropertyOp29
 70
     1
102
RTVSPropertyOp30
 70
     1
102
RTVSPropertyOp31
 70
     1
102
RTVSPropertyOp32
 70
     1
  0
XRECORD
  5
181
102
{ACAD_REACTORS
330
180
102
}
330
180
100
AcDbXrecord
280
     1
102
RTVSPropertyOp0
 70
     1
102
RTVSPropertyOp1
 70
     1
102
RTVSPropertyOp2
 70
     1
102
RTVSPropertyOp3
 70
     1
102
RTVSPropertyOp4
 70
     1
102
RTVSPropertyOp5
 70
     1
102
RTVSPropertyOp6
 70
     1
102
RTVSPropertyOp7
 70
     1
102
RTVSPropertyOp8
 70
     1
102
RTVSPropertyOp9
 70
     1
102
RTVSPropertyOp10
 70
     1
102
RTVSPropertyOp11
 70
     1
102
RTVSPropertyOp12
 70
     1
102
RTVSPropertyOp13
 70
     1
102
RTVSPropertyOp14
 70
     1
102
RTVSPropertyOp15
 70
     1
102
RTVSPropertyOp16
 70
     1
102
RTVSPropertyOp17
 70
     1
102
RTVSPropertyOp18
 70
     1
102
RTVSPropertyOp19
 70
     1
102
RTVSPropertyOp20
 70
     1
102
RTVSPropertyOp21
 70
     1
102
RTVSPropertyOp22
 70
     1
102
RTVSPropertyOp23
 70
     1
102
RTVSPropertyOp24
 70
     1
102
RTVSPropertyOp25
 70
     1
102
RTVSPropertyOp26
 70
     1
102
RTVSPropertyOp27
 70
     1
102
RTVSPropertyOp28
 70
     1
102
RTVSPropertyOp29
 70
     1
102
RTVSPropertyOp30
 70
     1
102
RTVSPropertyOp31
 70
     1
102
RTVSPropertyOp32
 70
     1
  0
ENDSEC
  0
EOF
