  0
SECTION
  2
HEADER
  9
$ACADVER
  1
AC1015
  9
$ACADMAINTVER
 70
     6
  9
$DWGCODEPAGE
  3
ANSI_1252
  9
$INSBASE
 10
0.0
 20
0.0
 30
0.0
  9
$EXTMIN
 10
0.0
 20
0.0
 30
0.0
  9
$EXTMAX
 10
210.0
 20
297.0
 30
0.0
  9
$LIMMIN
 10
0.0
 20
0.0
  9
$LIMMAX
 10
210.0
 20
297.0
  9
$ORTHOMODE
 70
     0
  9
$REGENMODE
 70
     1
  9
$FILLMODE
 70
     1
  9
$QTEXTMODE
 70
     0
  9
$MIRRTEXT
 70
     1
  9
$LTSCALE
 40
1.0
  9
$ATTMODE
 70
     1
  9
$TEXTSIZE
 40
2.5
  9
$TRACEWID
 40
1.0
  9
$TEXTSTYLE
  7
Standard
  9
$CLAYER
  8
0
  9
$CELTYPE
  6
ByLayer
  9
$CECOLOR
 62
   256
  9
$CELTSCALE
 40
1.0
  9
$DISPSILH
 70
     0
  9
$DIMSCALE
 40
1.0
  9
$DIMASZ
 40
2.5
  9
$DIMEXO
 40
0.625
  9
$DIMDLI
 40
3.75
  9
$DIMRND
 40
0.0
  9
$DIMDLE
 40
0.0
  9
$DIMEXE
 40
1.25
  9
$DIMTP
 40
0.0
  9
$DIMTM
 40
0.0
  9
$DIMTXT
 40
2.5
  9
$DIMCEN
 40
2.5
  9
$DIMTSZ
 40
0.0
  9
$DIMTOL
 70
     0
  9
$DIMLIM
 70
     0
  9
$DIMTIH
 70
     0
  9
$DIMTOH
 70
     0
  9
$DIMSE1
 70
     0
  9
$DIMSE2
 70
     0
  9
$DIMTAD
 70
     1
  9
$DIMZIN
 70
     8
  9
$DIMBLK
  1

  9
$DIMASO
 70
     1
  9
$DIMSHO
 70
     1
  9
$DIMPOST
  1

  9
$DIMAPOST
  1

  9
$DIMALT
 70
     0
  9
$DIMALTD
 70
     3
  9
$DIMALTF
 40
0.0393700787
  9
$DIMLFAC
 40
1.0
  9
$DIMTOFL
 70
     1
  9
$DIMTVP
 40
0.0
  9
$DIMTIX
 70
     0
  9
$DIMSOXD
 70
     0
  9
$DIMSAH
 70
     0
  9
$DIMBLK1
  1

  9
$DIMBLK2
  1

  9
$DIMSTYLE
  2
ISO-25
  9
$DIMCLRD
 70
     0
  9
$DIMCLRE
 70
     0
  9
$DIMCLRT
 70
     0
  9
$DIMTFAC
 40
1.0
  9
$DIMGAP
 40
0.625
  9
$DIMJUST
 70
     0
  9
$DIMSD1
 70
     0
  9
$DIMSD2
 70
     0
  9
$DIMTOLJ
 70
     0
  9
$DIMTZIN
 70
     8
  9
$DIMALTZ
 70
     0
  9
$DIMALTTZ
 70
     0
  9
$DIMUPT
 70
     0
  9
$DIMDEC
 70
     2
  9
$DIMTDEC
 70
     2
  9
$DIMALTU
 70
     2
  9
$DIMALTTD
 70
     3
  9
$DIMTXSTY
  7
Standard
  9
$DIMAUNIT
 70
     0
  9
$DIMADEC
 70
     0
  9
$DIMALTRND
 40
0.0
  9
$DIMAZIN
 70
     0
  9
$DIMDSEP
 70
    44
  9
$DIMATFIT
 70
     3
  9
$DIMFRAC
 70
     0
  9
$DIMLDRBLK
  1

  9
$DIMLUNIT
 70
     2
  9
$DIMLWD
 70
    -2
  9
$DIMLWE
 70
    -2
  9
$DIMTMOVE
 70
     0
  9
$LUNITS
 70
     2
  9
$LUPREC
 70
     4
  9
$SKETCHINC
 40
1.0
  9
$FILLETRAD
 40
10.0
  9
$AUNITS
 70
     0
  9
$AUPREC
 70
     0
  9
$MENU
  1
.
  9
$ELEVATION
 40
0.0
  9
$PELEVATION
 40
0.0
  9
$THICKNESS
 40
0.0
  9
$LIMCHECK
 70
     0
  9
$CHAMFERA
 40
10.0
  9
$CHAMFERB
 40
10.0
  9
$CHAMFERC
 40
20.0
  9
$CHAMFERD
 40
0.0
  9
$SKPOLY
 70
     0
  9
$TDCREATE
 40
2457560.591559965
  9
$TDUCREATE
 40
2457560.508226632
  9
$TDUPDATE
 40
2457560.591562025
  9
$TDUUPDATE
 40
2457560.508228692
  9
$TDINDWG
 40
0.0000000116
  9
$TDUSRTIMER
 40
0.0000000116
  9
$USRTIMER
 70
     1
  9
$ANGBASE
 50
0.0
  9
$ANGDIR
 70
     0
  9
$PDMODE
 70
     0
  9
$PDSIZE
 40
0.0
  9
$PLINEWID
 40
0.0
  9
$SPLFRAME
 70
     0
  9
$SPLINETYPE
 70
     6
  9
$SPLINESEGS
 70
     8
  9
$HANDSEED
  5
1A6
  9
$SURFTAB1
 70
     6
  9
$SURFTAB2
 70
     6
  9
$SURFTYPE
 70
     6
  9
$SURFU
 70
     6
  9
$SURFV
 70
     6
  9
$UCSBASE
  2

  9
$UCSNAME
  2

  9
$UCSORG
 10
0.0
 20
0.0
 30
0.0
  9
$UCSXDIR
 10
1.0
 20
0.0
 30
0.0
  9
$UCSYDIR
 10
0.0
 20
1.0
 30
0.0
  9
$UCSORTHOREF
  2

  9
$UCSORTHOVIEW
 70
     0
  9
$UCSORGTOP
 10
0.0
 20
0.0
 30
0.0
  9
$UCSORGBOTTOM
 10
0.0
 20
0.0
 30
0.0
  9
$UCSORGLEFT
 10
0.0
 20
0.0
 30
0.0
  9
$UCSORGRIGHT
 10
0.0
 20
0.0
 30
0.0
  9
$UCSORGFRONT
 10
0.0
 20
0.0
 30
0.0
  9
$UCSORGBACK
 10
0.0
 20
0.0
 30
0.0
  9
$PUCSBASE
  2

  9
$PUCSNAME
  2

  9
$PUCSORG
 10
0.0
 20
0.0
 30
0.0
  9
$PUCSXDIR
 10
1.0
 20
0.0
 30
0.0
  9
$PUCSYDIR
 10
0.0
 20
1.0
 30
0.0
  9
$PUCSORTHOREF
  2

  9
$PUCSORTHOVIEW
 70
     0
  9
$PUCSORGTOP
 10
0.0
 20
0.0
 30
0.0
  9
$PUCSORGBOTTOM
 10
0.0
 20
0.0
 30
0.0
  9
$PUCSORGLEFT
 10
0.0
 20
0.0
 30
0.0
  9
$PUCSORGRIGHT
 10
0.0
 20
0.0
 30
0.0
  9
$PUCSORGFRONT
 10
0.0
 20
0.0
 30
0.0
  9
$PUCSORGBACK
 10
0.0
 20
0.0
 30
0.0
  9
$USERI1
 70
     0
  9
$USERI2
 70
     0
  9
$USERI3
 70
     0
  9
$USERI4
 70
     0
  9
$USERI5
 70
     0
  9
$USERR1
 40
0.0
  9
$USERR2
 40
0.0
  9
$USERR3
 40
0.0
  9
$USERR4
 40
0.0
  9
$USERR5
 40
0.0
  9
$WORLDVIEW
 70
     1
  9
$SHADEDGE
 70
     3
  9
$SHADEDIF
 70
    70
  9
$TILEMODE
 70
     1
  9
$MAXACTVP
 70
    64
  9
$PINSBASE
 10
0.0
 20
0.0
 30
0.0
  9
$PLIMCHECK
 70
     0
  9
$PEXTMIN
 10
0.0
 20
0.0
 30
0.0
  9
$PEXTMAX
 10
210.0
 20
297.0
 30
0.0
  9
$PLIMMIN
 10
0.0
 20
0.0
  9
$PLIMMAX
 10
210.0
 20
297.0
  9
$UNITMODE
 70
     0
  9
$VISRETAIN
 70
     1
  9
$PLINEGEN
 70
     0
  9
$PSLTSCALE
 70
     1
  9
$TREEDEPTH
 70
  3020
  9
$CMLSTYLE
  2
Standard
  9
$CMLJUST
 70
     0
  9
$CMLSCALE
 40
20.0
  9
$PROXYGRAPHICS
 70
     1
  9
$MEASUREMENT
 70
     1
  9
$CELWEIGHT
370
    -1
  9
$ENDCAPS
280
     0
  9
$JOINSTYLE
280
     0
  9
$LWDISPLAY
290
     0
  9
$INSUNITS
 70
     4
  9
$HYPERLINKBASE
  1

  9
$STYLESHEET
  1

  9
$XEDIT
290
     1
  9
$CEPSNTYPE
380
     0
  9
$PSTYLEMODE
290
     1
  9
$FINGERPRINTGUID
  2
{853EC199-F04F-4654-9FEC-AE859607F845}
  9
$VERSIONGUID
  2
{FAEB1C32-E019-11D5-929B-00C0DF256EC4}
  9
$EXTNAMES
290
     1
  9
$PSVPSCALE
 40
0.0
  9
$OLESTARTUP
290
     0
  0
ENDSEC
  0
SECTION
  2
CLASSES
  0
CLASS
  1
ACDBDICTIONARYWDFLT
  2
AcDbDictionaryWithDefault
  3
ObjectDBX Classes
 90
        0
280
     0
281
     0
  0
CLASS
  1
VISUALSTYLE
  2
AcDbVisualStyle
  3
ObjectDBX Classes
 90
     4095
280
     0
281
     0
  0
CLASS
  1
MATERIAL
  2
AcDbMaterial
  3
ObjectDBX Classes
 90
     1153
280
     0
281
     0
  0
CLASS
  1
DICTIONARYVAR
  2
AcDbDictionaryVar
  3
ObjectDBX Classes
 90
        0
280
     0
281
     0
  0
CLASS
  1
ACDBPLACEHOLDER
  2
AcDbPlaceHolder
  3
ObjectDBX Classes
 90
        0
280
     0
281
     0
  0
CLASS
  1
LAYOUT
  2
AcDbLayout
  3
ObjectDBX Classes
 90
        0
280
     0
281
     0
  0
ENDSEC
  0
SECTION
  2
TABLES
  0
TABLE
  2
VPORT
  5
8
330
0
100
AcDbSymbolTable
 70
     1
  0
VPORT
  5
29
330
8
100
AcDbSymbolTableRecord
100
AcDbViewportTableRecord
  2
*Active
 70
     0
 10
0.0
 20
0.0
 11
1.0
 21
1.0
 12
344.1869158879
 22
148.5
 13
0.0
 23
0.0
 14
10.0
 24
10.0
 15
10.0
 25
10.0
 16
0.0
 26
0.0
 36
1.0
 17
0.0
 27
0.0
 37
0.0
 40
297.0
 41
1.9729729729
 42
50.0
 43
0.0
 44
0.0
 50
0.0
 51
0.0
 71
     0
 72
   100
 73
     1
 74
     3
 75
     0
 76
     0
 77
     0
 78
     0
281
     0
 65
     1
110
0.0
120
0.0
130
0.0
111
1.0
121
0.0
131
0.0
112
0.0
122
1.0
132
0.0
 79
     0
146
0.0
  0
ENDTAB
  0
TABLE
  2
LTYPE
  5
5
330
0
100
AcDbSymbolTable
 70
     2
  0
LTYPE
  5
14
330
5
100
AcDbSymbolTableRecord
100
AcDbLinetypeTableRecord
  2
ByBlock
 70
     0
  3

 72
    65
 73
     0
 40
0.0
  0
LTYPE
  5
15
330
5
100
AcDbSymbolTableRecord
100
AcDbLinetypeTableRecord
  2
ByLayer
 70
     0
  3

 72
    65
 73
     0
 40
0.0
  0
LTYPE
  5
16
330
5
100
AcDbSymbolTableRecord
100
AcDbLinetypeTableRecord
  2
Continuous
 70
     0
  3
Solid line
 72
    65
 73
     0
 40
0.0
  0
LTYPE
  5
58
330
5
100
AcDbSymbolTableRecord
100
AcDbLinetypeTableRecord
  2
HIDDEN2
 70
     0
  3
Hidden (.5x) _ _ _ _ _ _ _ _ _ _ _ _ _ _ _ _ _ 
 72
    65
 73
     2
 40
4.7625
 49
3.175
 74
     4
 75
     0
340
0
 46
0.0
 50
0.0
 44
0.0
 45
0.0
 49
-1.5875
 74
     4
 75
     0
340
0
 46
0.0
 50
0.0
 44
0.0
 45
0.0
  0
ENDTAB
  0
TABLE
  2
LAYER
  5
2
330
0
100
AcDbSymbolTable
 70
     5
  0
LAYER
  5
10
330
2
100
AcDbSymbolTableRecord
100
AcDbLayerTableRecord
  2
0
 70
     0
 62
     7
  6
Continuous
370
    -3
390
F
  0
LAYER
  5
3F
330
2
100
AcDbSymbolTableRecord
100
AcDbLayerTableRecord
  2
SK2
 70
     0
 62
     7
  6
Continuous
370
    15
390
F
  0
LAYER
  5
40
330
2
100
AcDbSymbolTableRecord
100
AcDbLayerTableRecord
  2
SK1
 70
     0
 62
     4
  6
Continuous
370
    18
390
F
  0
LAYER
  5
57
330
2
100
AcDbSymbolTableRecord
100
AcDbLayerTableRecord
  2
SK3
 70
     0
 62
     1
  6
HIDDEN2
370
    15
390
F
  0
LAYER
  5
139
330
2
100
AcDbSymbolTableRecord
100
AcDbLayerTableRecord
  2
SK4
 70
     0
 62
     2
  6
Continuous
370
    13
390
F
  0
ENDTAB
  0
TABLE
  2
STYLE
  5
3
330
0
100
AcDbSymbolTable
 70
     2
  0
STYLE
  5
11
330
3
100
AcDbSymbolTableRecord
100
AcDbTextStyleTableRecord
  2
Standard
 70
     0
 40
0.0
 41
1.0
 50
0.0
 71
     0
 42
2.5
  3
txt
  4

  0
STYLE
  5
14D
330
3
100
AcDbSymbolTableRecord
100
AcDbTextStyleTableRecord
  2
SEACAD_Solid_Edge_ISO
 70
     0
 40
0.0
 41
1.0
 50
0.0
 71
     0
 42
0.2
  3
seiso.ttf
  4

1001
ACAD
1000
Solid Edge ISO
1071
        0
  0
ENDTAB
  0
TABLE
  2
VIEW
  5
6
330
0
100
AcDbSymbolTable
 70
     0
  0
ENDTAB
  0
TABLE
  2
UCS
  5
7
330
0
100
AcDbSymbolTable
 70
     0
  0
ENDTAB
  0
TABLE
  2
APPID
  5
9
330
0
100
AcDbSymbolTable
 70
     1
  0
APPID
  5
12
330
9
100
AcDbSymbolTableRecord
100
AcDbRegAppTableRecord
  2
ACAD
 70
     0
  0
ENDTAB
  0
TABLE
  2
DIMSTYLE
  5
A
330
0
100
AcDbSymbolTable
 70
     3
100
AcDbDimStyleTable
  0
DIMSTYLE
105
27
330
A
100
AcDbSymbolTableRecord
100
AcDbDimStyleTableRecord
  2
ISO-25
 70
     0
 41
2.5
 42
0.625
 43
3.75
 44
1.25
 73
     0
 74
     0
 77
     1
 78
     8
140
2.5
141
2.5
143
0.0393700787
147
0.625
171
     3
172
     1
178
     0
271
     2
272
     2
274
     3
278
    44
283
     0
284
     8
340
11
  0
DIMSTYLE
105
13B
330
A
100
AcDbSymbolTableRecord
100
AcDbDimStyleTableRecord
  2
Standard
 70
     0
178
     0
340
11
  0
DIMSTYLE
105
14E
102
{ACAD_REACTORS
330
14F
330
15A
330
164
330
16F
102
}
330
A
100
AcDbSymbolTableRecord
100
AcDbDimStyleTableRecord
  2
DIN
 70
     0
 41
3.5
 42
0.0
 44
1.75
 73
     0
 74
     0
 77
     1
 78
     8
140
3.5
141
1.75
147
1.75
172
     1
173
     1
178
     0
179
     3
271
     2
272
     2
278
    44
284
     8
340
14D
343
148
344
148
  0
ENDTAB
  0
TABLE
  2
BLOCK_RECORD
  5
1
330
0
100
AcDbSymbolTable
 70
    10
  0
BLOCK_RECORD
  5
1F
330
1
100
AcDbSymbolTableRecord
100
AcDbBlockTableRecord
  2
*Model_Space
340
22
  0
BLOCK_RECORD
  5
1B
330
1
100
AcDbSymbolTableRecord
100
AcDbBlockTableRecord
  2
*Paper_Space
340
1E
  0
BLOCK_RECORD
  5
41
330
1
100
AcDbSymbolTableRecord
100
AcDbBlockTableRecord
  2
Nullpunkt
340
0
102
{BLKREFS
331
4B
102
}
  0
BLOCK_RECORD
  5
4C
330
1
100
AcDbSymbolTableRecord
100
AcDbBlockTableRecord
  2
Einfügepunkt
340
0
102
{BLKREFS
331
56
102
}
  0
BLOCK_RECORD
  5
13C
330
1
100
AcDbSymbolTableRecord
100
AcDbBlockTableRecord
  2
_OBLIQUE
340
0
  0
BLOCK_RECORD
  5
140
330
1
100
AcDbSymbolTableRecord
100
AcDbBlockTableRecord
  2
_DOT
340
0
  0
BLOCK_RECORD
  5
148
330
1
100
AcDbSymbolTableRecord
100
AcDbBlockTableRecord
  2
_SE_FILLED
340
0
  0
BLOCK_RECORD
  5
150
330
1
100
AcDbSymbolTableRecord
100
AcDbBlockTableRecord
  2
DMBLK111
340
0
  0
BLOCK_RECORD
  5
15B
330
1
100
AcDbSymbolTableRecord
100
AcDbBlockTableRecord
  2
DMBLK112
340
0
  0
BLOCK_RECORD
  5
165
330
1
100
AcDbSymbolTableRecord
100
AcDbBlockTableRecord
  2
DMBLK113
340
0
  0
BLOCK_RECORD
  5
170
330
1
100
AcDbSymbolTableRecord
100
AcDbBlockTableRecord
  2
DMBLK114
340
0
  0
ENDTAB
  0
ENDSEC
  0
SECTION
  2
BLOCKS
  0
BLOCK
  5
20
330
1F
100
AcDbEntity
  8
0
100
AcDbBlockBegin
  2
*Model_Space
 70
     0
 10
0.0
 20
0.0
 30
0.0
  3
*Model_Space
  1

  0
ENDBLK
  5
21
330
1F
100
AcDbEntity
  8
0
100
AcDbBlockEnd
  0
BLOCK
  5
1C
330
1B
100
AcDbEntity
 67
     1
  8
0
100
AcDbBlockBegin
  2
*Paper_Space
 70
     0
 10
0.0
 20
0.0
 30
0.0
  3
*Paper_Space
  1

  0
ENDBLK
  5
1D
330
1B
100
AcDbEntity
 67
     1
  8
0
100
AcDbBlockEnd
  0
BLOCK
  5
49
330
41
100
AcDbEntity
  8
0
100
AcDbBlockBegin
  2
Nullpunkt
 70
     0
 10
0.0
 20
0.0
 30
0.0
  3
Nullpunkt
  1

  0
HATCH
  5
42
330
41
100
AcDbEntity
  8
SK2
  6
Continuous
 62
     7
100
AcDbHatch
 10
0.0
 20
0.0
 30
0.0
210
0.0
220
0.0
230
1.0
  2
SOLID
 70
     1
 71
     0
 91
        1
 92
        1
 93
        3
 72
     1
 10
-1.0
 20
0.0
 11
0.0000000000000009
 21
0.0
 72
     1
 10
0.0
 20
0.0
 11
0.0
 21
1.000000000000001
 72
     2
 10
0.0
 20
0.0
 40
1.0
 50
90.0
 51
180.0
 73
     1
 97
        0
 75
     0
 76
     1
 98
        0
  0
HATCH
  5
43
330
41
100
AcDbEntity
  8
SK2
  6
Continuous
 62
     7
100
AcDbHatch
 10
0.0
 20
0.0
 30
0.0
210
0.0
220
0.0
230
1.0
  2
SOLID
 70
     1
 71
     0
 91
        1
 92
        1
 93
        3
 72
     2
 10
0.0
 20
0.0
 40
1.0
 50
270.0
 51
360.0
 73
     1
 72
     1
 10
1.0
 20
0.0
 11
-0.0000000000000009
 21
0.0
 72
     1
 10
0.0
 20
0.0
 11
0.0
 21
-1.000000000000001
 97
        0
 75
     0
 76
     1
 98
        0
  0
CIRCLE
  5
44
330
41
100
AcDbEntity
  8
SK2
  6
Continuous
 62
     7
100
AcDbCircle
 10
0.0
 20
0.0
 30
0.0
 40
1.0
  0
LINE
  5
45
330
41
100
AcDbEntity
  8
SK1
  6
Continuous
100
AcDbLine
 10
-1.0
 20
0.0
 30
0.0
 11
1.0
 21
0.0
 31
0.0
  0
LINE
  5
46
330
41
100
AcDbEntity
  8
SK1
  6
Continuous
100
AcDbLine
 10
0.0
 20
1.0
 30
0.0
 11
0.0
 21
-1.0
 31
0.0
  0
POINT
  5
47
330
41
100
AcDbEntity
  8
SK1
  6
Continuous
100
AcDbPoint
 10
0.0
 20
0.0
 30
0.0
  0
POINT
  5
48
330
41
100
AcDbEntity
  8
SK1
  6
Continuous
100
AcDbPoint
 10
0.0
 20
0.0
 30
0.0
  0
ENDBLK
  5
4A
330
41
100
AcDbEntity
  8
0
100
AcDbBlockEnd
  0
BLOCK
  5
54
330
4C
100
AcDbEntity
  8
0
100
AcDbBlockBegin
  2
Einfügepunkt
 70
     0
 10
0.0
 20
0.0
 30
0.0
  3
Einfügepunkt
  1

  0
HATCH
  5
4D
330
4C
100
AcDbEntity
  8
SK2
  6
Continuous
 62
     7
100
AcDbHatch
 10
0.0
 20
0.0
 30
0.0
210
0.0
220
0.0
230
1.0
  2
SOLID
 70
     1
 71
     0
 91
        1
 92
        1
 93
        3
 72
     1
 10
-0.4502381196756744
 20
-0.0000000000000018
 11
0.0000000000000033
 21
-0.0000000000000018
 72
     1
 10
0.0
 20
-0.0000000000000018
 11
0.0
 21
0.4502381196756812
 72
     2
 10
0.0
 20
-0.0000000000000018
 40
0.4502381196756812
 50
90.0
 51
180.0
 73
     1
 97
        0
 75
     0
 76
     1
 98
        0
  0
HATCH
  5
4E
330
4C
100
AcDbEntity
  8
SK2
  6
Continuous
 62
     7
100
AcDbHatch
 10
0.0
 20
0.0
 30
0.0
210
0.0
220
0.0
230
1.0
  2
SOLID
 70
     1
 71
     0
 91
        1
 92
        1
 93
        3
 72
     2
 10
0.0
 20
-0.0000000000000018
 40
0.4502381196756812
 50
270.0
 51
360.0
 73
     1
 72
     1
 10
0.4502381196756815
 20
-0.0000000000000018
 11
0.0000000000000038
 21
-0.0000000000000018
 72
     1
 10
0.0
 20
-0.0000000000000018
 11
0.0
 21
-0.4502381196756812
 97
        0
 75
     0
 76
     1
 98
        0
  0
CIRCLE
  5
4F
330
4C
100
AcDbEntity
  8
SK2
  6
Continuous
 62
     7
100
AcDbCircle
 10
0.0
 20
0.0
 30
0.0
 40
0.4502381196756812
  0
LINE
  5
50
330
4C
100
AcDbEntity
  8
SK1
  6
Continuous
100
AcDbLine
 10
-0.4502381197
 20
0.0
 30
0.0
 11
0.4502381197
 21
0.0
 31
0.0
  0
LINE
  5
51
330
4C
100
AcDbEntity
  8
SK1
  6
Continuous
100
AcDbLine
 10
0.0
 20
0.4502381197
 30
0.0
 11
0.0
 21
-0.4502381197
 31
0.0
  0
POINT
  5
52
330
4C
100
AcDbEntity
  8
SK2
  6
Continuous
 62
     7
100
AcDbPoint
 10
0.0
 20
0.0
 30
0.0
  0
POINT
  5
53
330
4C
100
AcDbEntity
  8
SK2
  6
Continuous
 62
     7
100
AcDbPoint
 10
0.0
 20
0.0
 30
0.0
  0
ENDBLK
  5
55
330
4C
100
AcDbEntity
  8
0
100
AcDbBlockEnd
  0
BLOCK
  5
13D
330
13C
100
AcDbEntity
  8
0
100
AcDbBlockBegin
  2
_OBLIQUE
 70
     0
 10
0.0
 20
0.0
 30
0.0
  3
_OBLIQUE
  1

  0
LINE
  5
13F
330
13C
100
AcDbEntity
  8
0
  6
ByBlock
 62
     0
370
    -2
100
AcDbLine
 10
-0.5
 20
-0.5
 30
0.0
 11
0.5
 21
0.5
 31
0.0
  0
ENDBLK
  5
13E
330
13C
100
AcDbEntity
  8
0
100
AcDbBlockEnd
  0
BLOCK
  5
141
330
140
100
AcDbEntity
  8
0
100
AcDbBlockBegin
  2
_DOT
 70
     0
 10
0.0
 20
0.0
 30
0.0
  3
_DOT
  1

  0
POLYLINE
  5
143
330
140
100
AcDbEntity
  8
0
  6
ByBlock
 62
     0
100
AcDb2dPolyline
 66
     1
 10
0.0
 20
0.0
 30
0.0
 70
     1
 40
0.5
 41
0.5
  0
VERTEX
  5
145
330
143
100
AcDbEntity
  8
0
  6
ByBlock
 62
     0
100
AcDbVertex
100
AcDb2dVertex
 10
-0.25
 20
0.0
 30
0.0
 42
1.0
  0
VERTEX
  5
146
330
143
100
AcDbEntity
  8
0
  6
ByBlock
 62
     0
100
AcDbVertex
100
AcDb2dVertex
 10
0.25
 20
0.0
 30
0.0
 42
1.0
  0
SEQEND
  5
147
330
143
100
AcDbEntity
  8
0
  6
ByBlock
 62
     0
  0
LINE
  5
144
330
140
100
AcDbEntity
  8
0
  6
ByBlock
 62
     0
370
    -2
100
AcDbLine
 10
-0.5
 20
0.0
 30
0.0
 11
-1.0
 21
0.0
 31
0.0
  0
ENDBLK
  5
142
330
140
100
AcDbEntity
  8
0
100
AcDbBlockEnd
  0
BLOCK
  5
14B
330
148
100
AcDbEntity
  8
0
100
AcDbBlockBegin
  2
_SE_FILLED
 70
     0
 10
0.0
 20
0.0
 30
0.0
  3
_SE_FILLED
  1

  0
SOLID
  5
149
330
148
100
AcDbEntity
  8
0
 62
     0
100
AcDbTrace
 10
0.0
 20
0.0
 30
0.0
 11
-1.0
 21
-0.1665
 31
0.0
 12
-1.0
 22
0.1665
 32
0.0
 13
0.0
 23
0.0
 33
0.0
  0
LINE
  5
14A
330
148
100
AcDbEntity
  8
0
 62
     0
100
AcDbLine
 10
0.0
 20
0.0
 30
0.0
 11
-1.0
 21
0.0
 31
0.0
  0
ENDBLK
  5
14C
330
148
100
AcDbEntity
  8
0
100
AcDbBlockEnd
  0
BLOCK
  5
158
330
150
100
AcDbEntity
  8
0
100
AcDbBlockBegin
  2
DMBLK111
 70
     0
 10
0.0
 20
0.0
 30
0.0
  3
DMBLK111
  1

  0
HATCH
  5
151
330
150
100
AcDbEntity
  8
SK2
  6
Continuous
 62
   136
100
AcDbHatch
 10
0.0
 20
0.0
 30
0.0
210
0.0
220
0.0
230
1.0
  2
SOLID
 70
     1
 71
     0
 91
        1
 92
        1
 93
        3
 72
     1
 10
21.43271596255401
 20
7.000000594768053
 11
20.2660492598762
 21
7.000000594768053
 72
     1
 10
20.2660492598762
 20
7.000000594768053
 11
20.84938261121511
 21
3.500000486734634
 72
     1
 10
20.84938261121511
 20
3.500000486734634
 11
21.43271596255401
 21
7.000000594768053
 97
        0
 75
     0
 76
     1
 98
        0
  0
HATCH
  5
152
330
150
100
AcDbEntity
  8
SK2
  6
Continuous
 62
   136
100
AcDbHatch
 10
0.0
 20
0.0
 30
0.0
210
0.0
220
0.0
230
1.0
  2
SOLID
 70
     1
 71
     0
 91
        1
 92
        1
 93
        3
 72
     1
 10
21.43271596255401
 20
-6.999999621298786
 11
20.84938261121511
 21
-3.499999513265367
 72
     1
 10
20.84938261121511
 20
-3.499999513265367
 11
20.2660492598762
 21
-6.999999621298786
 72
     1
 10
20.2660492598762
 20
-6.999999621298786
 11
21.43271596255401
 21
-6.999999621298786
 97
        0
 75
     0
 76
     1
 98
        0
  0
LINE
  5
153
330
150
100
AcDbEntity
  8
SK2
  6
Continuous
 62
   136
100
AcDbLine
 10
10.26
 20
3.5000004867
 30
0.0
 11
22.5993826652
 21
3.5000004867
 31
0.0
  0
LINE
  5
154
330
150
100
AcDbEntity
  8
SK2
  6
Continuous
 62
   136
100
AcDbLine
 10
10.26
 20
-3.4999995133
 30
0.0
 11
22.5993826652
 21
-3.4999995133
 31
0.0
  0
LINE
  5
155
330
150
100
AcDbEntity
  8
SK2
  6
Continuous
 62
   136
100
AcDbLine
 10
20.8493826112
 20
18.4068082894
 30
0.0
 11
20.8493826112
 21
-10.4999999454
 31
0.0
  0
TEXT
  5
156
330
150
100
AcDbEntity
  8
SK2
  6
Continuous
 62
   136
100
AcDbText
 10
19.9743826112
 20
14.9545355248
 30
0.0
 40
3.5
  1
7
 50
90.0
  7
SEACAD_Solid_Edge_ISO
 11
16.4743826112
 21
14.9545355248
 31
0.0
100
AcDbText
 73
     3
  0
TEXT
  5
157
330
150
100
AcDbEntity
  8
SK2
  6
Continuous
 62
   136
100
AcDbText
 10
19.9743826112
 20
10.8818082521
 30
0.0
 40
3.5
  1
ø
 50
90.0
  7
SEACAD_Solid_Edge_ISO
 11
16.4743826112
 21
10.8818082521
 31
0.0
100
AcDbText
 73
     3
  0
ENDBLK
  5
159
330
150
100
AcDbEntity
  8
0
100
AcDbBlockEnd
  0
BLOCK
  5
162
330
15B
100
AcDbEntity
  8
0
100
AcDbBlockBegin
  2
DMBLK112
 70
     0
 10
0.0
 20
0.0
 30
0.0
  3
DMBLK112
  1

  0
HATCH
  5
15C
330
15B
100
AcDbEntity
  8
SK2
  6
Continuous
 62
   136
100
AcDbHatch
 10
0.0
 20
0.0
 30
0.0
210
0.0
220
0.0
230
1.0
  2
SOLID
 70
     1
 71
     0
 91
        1
 92
        1
 93
        3
 72
     1
 10
-3.50000010803342
 20
-17.44075512585956
 11
-0.0000000000000018
 21
-16.85742177452066
 72
     1
 10
-0.0000000000000017
 20
-16.85742177452066
 11
-3.50000010803342
 21
-16.27408842318176
 72
     1
 10
-3.50000010803342
 20
-16.27408842318176
 11
-3.50000010803342
 21
-17.44075512585956
 97
        0
 75
     0
 76
     1
 98
        0
  0
HATCH
  5
15D
330
15B
100
AcDbEntity
  8
SK2
  6
Continuous
 62
   136
100
AcDbHatch
 10
0.0
 20
0.0
 30
0.0
210
0.0
220
0.0
230
1.0
  2
SOLID
 70
     1
 71
     0
 91
        1
 92
        1
 93
        3
 72
     1
 10
13.76000010803342
 20
-17.44075512585956
 11
13.76000010803342
 21
-16.27408842318176
 72
     1
 10
13.76000010803342
 20
-16.27408842318176
 11
10.26
 21
-16.85742177452066
 72
     1
 10
10.26
 20
-16.85742177452066
 11
13.76000010803342
 21
-17.44075512585956
 97
        0
 75
     0
 76
     1
 98
        0
  0
LINE
  5
15E
330
15B
100
AcDbEntity
  8
SK2
  6
Continuous
 62
   136
100
AcDbLine
 10
0.0
 20
-7.994048115
 30
0.0
 11
0.0
 21
-18.6074218285
 31
0.0
  0
LINE
  5
15F
330
15B
100
AcDbEntity
  8
SK2
  6
Continuous
 62
   136
100
AcDbLine
 10
10.26
 20
-4.1079832379
 30
0.0
 11
10.26
 21
-18.6074218285
 31
0.0
  0
LINE
  5
160
330
15B
100
AcDbEntity
  8
SK2
  6
Continuous
 62
   136
100
AcDbLine
 10
-7.0000002161
 20
-16.8574217745
 30
0.0
 11
17.2600001097
 21
-16.8574217745
 31
0.0
  0
TEXT
  5
161
330
15B
100
AcDbEntity
  8
SK2
  6
Continuous
 62
   136
100
AcDbText
 10
0.9140908559
 20
-15.9824217745
 30
0.0
 40
3.5
  1
10,26
  7
SEACAD_Solid_Edge_ISO
 11
0.9140908559
 21
-12.4824217745
 31
0.0
100
AcDbText
 73
     3
  0
ENDBLK
  5
163
330
15B
100
AcDbEntity
  8
0
100
AcDbBlockEnd
  0
BLOCK
  5
16D
330
165
100
AcDbEntity
  8
0
100
AcDbBlockBegin
  2
DMBLK113
 70
     0
 10
0.0
 20
0.0
 30
0.0
  3
DMBLK113
  1

  0
HATCH
  5
166
330
165
100
AcDbEntity
  8
SK2
  6
Continuous
 62
   136
100
AcDbHatch
 10
0.0
 20
0.0
 30
0.0
210
0.0
220
0.0
230
1.0
  2
SOLID
 70
     1
 71
     0
 91
        1
 92
        1
 93
        3
 72
     1
 10
-23.99958615812163
 20
4.494048206477511
 11
-22.83291945544382
 21
4.494048206477511
 72
     1
 10
-22.83291945544382
 20
4.494048206477511
 11
-23.41625280678273
 21
7.99404831451093
 72
     1
 10
-23.41625280678273
 20
7.99404831451093
 11
-23.99958615812163
 21
4.494048206477511
 97
        0
 75
     0
 76
     1
 98
        0
  0
HATCH
  5
167
330
165
100
AcDbEntity
  8
SK2
  6
Continuous
 62
   136
100
AcDbHatch
 10
0.0
 20
0.0
 30
0.0
210
0.0
220
0.0
230
1.0
  2
SOLID
 70
     1
 71
     0
 91
        1
 92
        1
 93
        3
 72
     1
 10
-23.99958615812163
 20
-4.494048172266138
 11
-23.41625280678273
 21
-7.994048280299556
 72
     1
 10
-23.41625280678273
 20
-7.994048280299556
 11
-22.83291945544382
 21
-4.494048172266138
 72
     1
 10
-22.83291945544382
 20
-4.494048172266138
 11
-23.99958615812163
 21
-4.494048172266138
 97
        0
 75
     0
 76
     1
 98
        0
  0
LINE
  5
168
330
165
100
AcDbEntity
  8
SK2
  6
Continuous
 62
   136
100
AcDbLine
 10
0.0
 20
7.9940483145
 30
0.0
 11
-25.1662528608
 21
7.9940483145
 31
0.0
  0
LINE
  5
169
330
165
100
AcDbEntity
  8
SK2
  6
Continuous
 62
   136
100
AcDbLine
 10
0.0
 20
-7.994048115
 30
0.0
 11
-25.1662528608
 21
-7.994048115
 31
0.0
  0
LINE
  5
16A
330
165
100
AcDbEntity
  8
SK2
  6
Continuous
 62
   136
100
AcDbLine
 10
-23.4162528068
 20
7.9940483145
 30
0.0
 11
-23.4162528068
 21
-7.9940482803
 31
0.0
  0
TEXT
  5
16B
330
165
100
AcDbEntity
  8
SK2
  6
Continuous
 62
   136
100
AcDbText
 10
-24.2912528068
 20
0.2465909262
 30
0.0
 40
3.5
  1
16
 50
90.0
  7
SEACAD_Solid_Edge_ISO
 11
-27.7912528068
 21
0.2465909262
 31
0.0
100
AcDbText
 73
     3
  0
TEXT
  5
16C
330
165
100
AcDbEntity
  8
SK2
  6
Continuous
 62
   136
100
AcDbText
 10
-24.2912528068
 20
-3.8261363465
 30
0.0
 40
3.5
  1
ø
 50
90.0
  7
SEACAD_Solid_Edge_ISO
 11
-27.7912528068
 21
-3.8261363465
 31
0.0
100
AcDbText
 73
     3
  0
ENDBLK
  5
16E
330
165
100
AcDbEntity
  8
0
100
AcDbBlockEnd
  0
BLOCK
  5
177
330
170
100
AcDbEntity
  8
0
100
AcDbBlockBegin
  2
DMBLK114
 70
     0
 10
0.0
 20
0.0
 30
0.0
  3
DMBLK114
  1

  0
HATCH
  5
171
330
170
100
AcDbEntity
  8
SK2
  6
Continuous
 62
   136
100
AcDbHatch
 10
0.0
 20
0.0
 30
0.0
210
0.0
220
0.0
230
1.0
  2
SOLID
 70
     1
 71
     0
 91
        1
 92
        1
 93
        3
 72
     1
 10
-13.73999989196658
 20
14.92016528406552
 11
-17.24
 21
14.33683193272662
 72
     1
 10
-17.24
 20
14.33683193272662
 11
-13.73999989196658
 21
13.75349858138771
 72
     1
 10
-13.73999989196658
 20
13.75349858138771
 11
-13.73999989196658
 21
14.92016528406552
 97
        0
 75
     0
 76
     1
 98
        0
  0
HATCH
  5
172
330
170
100
AcDbEntity
  8
SK2
  6
Continuous
 62
   136
100
AcDbHatch
 10
0.0
 20
0.0
 30
0.0
210
0.0
220
0.0
230
1.0
  2
SOLID
 70
     1
 71
     0
 91
        1
 92
        1
 93
        3
 72
     1
 10
6.759999742954971
 20
14.92016528406552
 11
6.759999742954971
 21
13.75349858138771
 72
     1
 10
6.759999742954971
 20
13.75349858138771
 11
10.25999985098839
 21
14.33683193272662
 72
     1
 10
10.25999985098839
 20
14.33683193272662
 11
6.759999742954971
 21
14.92016528406552
 97
        0
 75
     0
 76
     1
 98
        0
  0
LINE
  5
173
330
170
100
AcDbEntity
  8
SK2
  6
Continuous
 62
   136
100
AcDbLine
 10
-17.24
 20
3.5429206396
 30
0.0
 11
-17.24
 21
16.0868319867
 31
0.0
  0
LINE
  5
174
330
170
100
AcDbEntity
  8
SK2
  6
Continuous
 62
   136
100
AcDbLine
 10
10.26
 20
5.5799567247
 30
0.0
 11
10.26
 21
16.0868319867
 31
0.0
  0
LINE
  5
175
330
170
100
AcDbEntity
  8
SK2
  6
Continuous
 62
   136
100
AcDbLine
 10
-17.24
 20
14.3368319327
 30
0.0
 11
10.259999851
 21
14.3368319327
 31
0.0
  0
TEXT
  5
176
330
170
100
AcDbEntity
  8
SK2
  6
Continuous
 62
   136
100
AcDbText
 10
-6.9900000745
 20
15.2118319327
 30
0.0
 40
3.5
  1
27,5
  7
SEACAD_Solid_Edge_ISO
 11
-6.9900000745
 21
18.7118319327
 31
0.0
100
AcDbText
 73
     3
  0
ENDBLK
  5
178
330
170
100
AcDbEntity
  8
0
100
AcDbBlockEnd
  0
ENDSEC
  0
SECTION
  2
ENTITIES
  0
INSERT
  5
4B
330
1F
100
AcDbEntity
  8
SK2
 62
     7
100
AcDbBlockReference
  2
Nullpunkt
 10
0.0
 20
0.0000000998
 30
0.0
  0
INSERT
  5
56
330
1F
100
AcDbEntity
  8
SK2
 62
     7
100
AcDbBlockReference
  2
Einfügepunkt
 10
10.26
 20
0.0000000998
 30
0.0
  0
LINE
  5
59
330
1F
100
AcDbEntity
  8
SK3
100
AcDbLine
 10
-11.24
 20
-1.3835450717
 30
0.0
 11
-11.24
 21
-0.2999995133
 31
0.0
  0
LINE
  5
5A
330
1F
100
AcDbEntity
  8
SK1
  6
Continuous
100
AcDbLine
 10
10.26
 20
-2.081683005
 30
0.0
 11
10.26
 21
2.0816839785
 31
0.0
  0
LINE
  5
5B
330
1F
100
AcDbEntity
  8
SK1
  6
Continuous
100
AcDbLine
 10
10.135
 20
-2.164631141
 30
0.0
 11
10.135
 21
2.1646321144
 31
0.0
  0
LINE
  5
5C
330
1F
100
AcDbEntity
  8
SK1
  6
Continuous
100
AcDbLine
 10
6.26
 20
-3.0214830442
 30
0.0
 11
6.26
 21
3.0214840177
 31
0.0
  0
LINE
  5
5D
330
1F
100
AcDbEntity
  8
SK1
  6
Continuous
100
AcDbLine
 10
6.06
 20
-2.3608543947
 30
0.0
 11
6.06
 21
2.3608553682
 31
0.0
  0
LINE
  5
5E
330
1F
100
AcDbEntity
  8
SK1
  6
Continuous
100
AcDbLine
 10
3.76
 20
-2.3608543947
 30
0.0
 11
3.76
 21
-0.2999995133
 31
0.0
  0
LINE
  5
5F
330
1F
100
AcDbEntity
  8
SK1
  6
Continuous
100
AcDbLine
 10
3.56
 20
-2.9736182262
 30
0.0
 11
3.56
 21
-0.2999995133
 31
0.0
  0
LINE
  5
60
330
1F
100
AcDbEntity
  8
SK3
100
AcDbLine
 10
-11.24
 20
-1.0572983807
 30
0.0
 11
10.26
 21
-1.0572983807
 31
0.0
  0
LINE
  5
61
330
1F
100
AcDbEntity
  8
SK1
  6
Continuous
100
AcDbLine
 10
3.56
 20
-3.5279459457
 30
0.0
 11
3.56
 21
-2.9917892009
 31
0.0
  0
SPLINE
  5
62
330
1F
100
AcDbEntity
  8
SK1
  6
Continuous
100
AcDbSpline
210
0.0
220
0.0
230
1.0
 70
     8
 71
     3
 72
    10
 73
     6
 74
     0
 42
0.000000042778491
 43
0.0000000001
 12
1.0
 22
0.0
 32
0.0
 13
1.0
 23
0.0
 33
0.0
 40
0.0
 40
0.0
 40
0.0
 40
0.0
 40
0.5
 40
0.5
 40
1.0
 40
1.0
 40
1.0
 40
1.0
 10
3.559999999999709
 20
-2.991789200890169
 30
0.0
 10
3.559999999999979
 20
-2.971795322723745
 30
0.0
 10
3.581281747874406
 20
-2.951905272410036
 30
0.0
 10
3.655886870280459
 20
-2.923330847831425
 30
0.0
 10
3.707789646105732
 20
-2.915182114234909
 30
0.0
 10
3.759999999999994
 20
-2.915182114234904
 30
0.0
  0
LINE
  5
63
330
1F
100
AcDbEntity
  8
SK1
  6
Continuous
100
AcDbLine
 10
3.76
 20
-2.9151821142
 30
0.0
 11
6.06
 21
-2.9151821142
 31
0.0
  0
SPLINE
  5
64
330
1F
100
AcDbEntity
  8
SK1
  6
Continuous
100
AcDbSpline
210
0.0
220
0.0
230
1.0
 70
     8
 71
     3
 72
    10
 73
     6
 74
     0
 42
0.0000000427885594
 43
0.0000000001
 12
1.0
 22
0.0
 32
0.0
 13
1.0
 23
0.0
 33
0.0
 40
0.0
 40
0.0
 40
0.0
 40
0.0
 40
0.5
 40
0.5
 40
1.0
 40
1.0
 40
1.0
 40
1.0
 10
6.059999999999878
 20
-2.915182114234469
 30
0.0
 10
6.112196837020623
 20
-2.915182114234888
 30
0.0
 10
6.164409098334057
 20
-2.92346650147335
 30
0.0
 10
6.23819921993554
 20
-2.9516842507587
 30
0.0
 10
6.260000000000003
 20
-2.971827766264379
 30
0.0
 10
6.26
 20
-2.991789200890158
 30
0.0
  0
LINE
  5
65
330
1F
100
AcDbEntity
  8
SK1
  6
Continuous
100
AcDbLine
 10
6.26
 20
-3.0214830442
 30
0.0
 11
6.26
 21
-3.5758107637
 31
0.0
  0
LINE
  5
66
330
1F
100
AcDbEntity
  8
SK1
  6
Continuous
100
AcDbLine
 10
6.26
 20
-3.5758107637
 30
0.0
 11
10.135
 21
-2.7189588605
 31
0.0
  0
SPLINE
  5
67
330
1F
100
AcDbEntity
  8
SK1
  6
Continuous
100
AcDbSpline
210
0.0
220
0.0
230
1.0
 70
     8
 71
     3
 72
    10
 73
     6
 74
     0
 42
0.0000000616087735
 43
0.0000000001
 12
1.0
 22
0.0
 32
0.0
 13
1.0
 23
0.0
 33
0.0
 40
0.0
 40
0.0
 40
0.0
 40
0.0
 40
0.5
 40
0.5
 40
1.0
 40
1.0
 40
1.0
 40
1.0
 10
10.13500000000005
 20
-2.718958860486273
 30
0.0
 10
10.17274407206058
 20
-2.710610383117726
 30
0.0
 10
10.20485165328962
 20
-2.698306248836251
 30
0.0
 10
10.24842287874527
 20
-2.669323094186031
 30
0.0
 10
10.26000000000001
 20
-2.652682171138938
 30
0.0
 10
10.26
 20
-2.636010724555963
 30
0.0
  0
LINE
  5
68
330
1F
100
AcDbEntity
  8
SK1
  6
Continuous
100
AcDbLine
 10
10.26
 20
-2.6360107246
 30
0.0
 11
10.26
 21
-2.081683005
 31
0.0
  0
SPLINE
  5
69
330
1F
100
AcDbEntity
  8
SK1
  6
Continuous
100
AcDbSpline
210
0.0
220
0.0
230
1.0
 70
     8
 71
     3
 72
    10
 73
     6
 74
     0
 42
0.000000042778491
 43
0.0000000001
 12
1.0
 22
0.0
 32
0.0
 13
1.0
 23
0.0
 33
0.0
 40
0.0
 40
0.0
 40
0.0
 40
0.0
 40
0.5
 40
0.5
 40
1.0
 40
1.0
 40
1.0
 40
1.0
 10
3.559999999999709
 20
-2.437461481383398
 30
0.0
 10
3.55999999999998
 20
-2.417467603216974
 30
0.0
 10
3.581281747874404
 20
-2.397577552903265
 30
0.0
 10
3.655886870280457
 20
-2.369003128324651
 30
0.0
 10
3.707789646105732
 20
-2.360854394728136
 30
0.0
 10
3.759999999999994
 20
-2.360854394728132
 30
0.0
  0
LINE
  5
6A
330
1F
100
AcDbEntity
  8
SK1
  6
Continuous
100
AcDbLine
 10
3.76
 20
-2.3608543947
 30
0.0
 11
6.06
 21
-2.3608543947
 31
0.0
  0
SPLINE
  5
6B
330
1F
100
AcDbEntity
  8
SK1
  6
Continuous
100
AcDbSpline
210
0.0
220
0.0
230
1.0
 70
     8
 71
     3
 72
    10
 73
     6
 74
     0
 42
0.0000000427885594
 43
0.0000000001
 12
1.0
 22
0.0
 32
0.0
 13
1.0
 23
0.0
 33
0.0
 40
0.0
 40
0.0
 40
0.0
 40
0.0
 40
0.5
 40
0.5
 40
1.0
 40
1.0
 40
1.0
 40
1.0
 10
6.059999999999878
 20
-2.360854394727697
 30
0.0
 10
6.112196837020625
 20
-2.360854394728116
 30
0.0
 10
6.164409098334059
 20
-2.369138781966578
 30
0.0
 10
6.23819921993554
 20
-2.397356531251928
 30
0.0
 10
6.260000000000003
 20
-2.417500046757608
 30
0.0
 10
6.26
 20
-2.437461481383386
 30
0.0
  0
LINE
  5
6C
330
1F
100
AcDbEntity
  8
SK1
  6
Continuous
100
AcDbLine
 10
6.26
 20
-3.0214830442
 30
0.0
 11
10.135
 21
-2.164631141
 31
0.0
  0
SPLINE
  5
6D
330
1F
100
AcDbEntity
  8
SK1
  6
Continuous
100
AcDbSpline
210
0.0
220
0.0
230
1.0
 70
     8
 71
     3
 72
    10
 73
     6
 74
     0
 42
0.0000000616087735
 43
0.0000000001
 12
1.0
 22
0.0
 32
0.0
 13
1.0
 23
0.0
 33
0.0
 40
0.0
 40
0.0
 40
0.0
 40
0.0
 40
0.5
 40
0.5
 40
1.0
 40
1.0
 40
1.0
 40
1.0
 10
10.13500000000005
 20
-2.164631140979501
 30
0.0
 10
10.17274407206058
 20
-2.156282663610954
 30
0.0
 10
10.20485165328962
 20
-2.14397852932948
 30
0.0
 10
10.24842287874527
 20
-2.114995374679259
 30
0.0
 10
10.26
 20
-2.098354451632166
 30
0.0
 10
10.26
 20
-2.081683005049191
 30
0.0
  0
LINE
  5
6E
330
1F
100
AcDbEntity
  8
SK3
100
AcDbLine
 10
-11.24
 20
-1.9378727912
 30
0.0
 11
-11.24
 21
-1.6116261003
 31
0.0
  0
LINE
  5
6F
330
1F
100
AcDbEntity
  8
SK3
100
AcDbLine
 10
-11.24
 20
-1.6116261003
 30
0.0
 11
10.26
 21
-1.6116261003
 31
0.0
  0
LINE
  5
70
330
1F
100
AcDbEntity
  8
SK1
  6
Continuous
100
AcDbLine
 10
-16.94
 20
0.3000004867
 30
0.0
 11
-16.94
 21
3.7553728348
 31
0.0
  0
LINE
  5
71
330
1F
100
AcDbEntity
  8
SK1
  6
Continuous
100
AcDbLine
 10
-17.24
 20
0.3000004867
 30
0.0
 11
-17.24
 21
3.5429206702
 31
0.0
  0
LINE
  5
72
330
1F
100
AcDbEntity
  8
SK1
  6
Continuous
100
AcDbLine
 10
-17.24
 20
-0.2999995133
 30
0.0
 11
-16.94
 21
-0.2999995133
 31
0.0
  0
LINE
  5
73
330
1F
100
AcDbEntity
  8
SK1
  6
Continuous
100
AcDbLine
 10
-17.24
 20
0.3000004867
 30
0.0
 11
-16.94
 21
0.3000004867
 31
0.0
  0
LINE
  5
74
330
1F
100
AcDbEntity
  8
SK3
100
AcDbLine
 10
-11.24
 20
0.3000004867
 30
0.0
 11
-11.24
 21
1.3835460452
 31
0.0
  0
LINE
  5
75
330
1F
100
AcDbEntity
  8
SK1
  6
Continuous
100
AcDbLine
 10
3.76
 20
0.3000004867
 30
0.0
 11
3.76
 21
2.3608553682
 31
0.0
  0
LINE
  5
76
330
1F
100
AcDbEntity
  8
SK1
  6
Continuous
100
AcDbLine
 10
3.56
 20
0.3000004867
 30
0.0
 11
3.56
 21
2.9736191997
 31
0.0
  0
LINE
  5
77
330
1F
100
AcDbEntity
  8
SK1
  6
Continuous
100
AcDbLine
 10
-16.94
 20
-0.2999995133
 30
0.0
 11
3.56
 21
-0.2999995133
 31
0.0
  0
LINE
  5
78
330
1F
100
AcDbEntity
  8
SK1
  6
Continuous
100
AcDbLine
 10
3.56
 20
-0.2999995133
 30
0.0
 11
3.76
 21
-0.2999995133
 31
0.0
  0
LINE
  5
79
330
1F
100
AcDbEntity
  8
SK1
  6
Continuous
100
AcDbLine
 10
3.76
 20
-0.2999995133
 30
0.0
 11
5.335
 21
-0.2999995133
 31
0.0
  0
LINE
  5
7A
330
1F
100
AcDbEntity
  8
SK1
  6
Continuous
100
AcDbLine
 10
3.56
 20
0.3000004867
 30
0.0
 11
3.76
 21
0.3000004867
 31
0.0
  0
LINE
  5
7B
330
1F
100
AcDbEntity
  8
SK1
  6
Continuous
100
AcDbLine
 10
3.76
 20
0.3000004867
 30
0.0
 11
5.335
 21
0.3000004867
 31
0.0
  0
LINE
  5
7C
330
1F
100
AcDbEntity
  8
SK1
  6
Continuous
100
AcDbLine
 10
-16.94
 20
0.3000004867
 30
0.0
 11
3.56
 21
0.3000004867
 31
0.0
  0
LINE
  5
7D
330
1F
100
AcDbEntity
  8
SK1
  6
Continuous
100
AcDbLine
 10
10.26
 20
2.636011698
 30
0.0
 11
10.26
 21
5.5799567247
 31
0.0
  0
LINE
  5
7E
330
1F
100
AcDbEntity
  8
SK1
  6
Continuous
100
AcDbLine
 10
10.135
 20
2.718959834
 30
0.0
 11
10.135
 21
5.7802112394
 31
0.0
  0
LINE
  5
7F
330
1F
100
AcDbEntity
  8
SK1
  6
Continuous
100
AcDbLine
 10
6.26
 20
3.5758117372
 30
0.0
 11
6.26
 21
7.8488347251
 31
0.0
  0
LINE
  5
80
330
1F
100
AcDbEntity
  8
SK1
  6
Continuous
100
AcDbLine
 10
6.06
 20
2.9151830877
 30
0.0
 11
6.06
 21
6.2539360799
 31
0.0
  0
LINE
  5
81
330
1F
100
AcDbEntity
  8
SK3
100
AcDbLine
 10
-11.24
 20
1.9378737647
 30
0.0
 11
-11.24
 21
2.8564593342
 31
0.0
  0
LINE
  5
82
330
1F
100
AcDbEntity
  8
SK1
  6
Continuous
100
AcDbLine
 10
3.76
 20
2.9151830877
 30
0.0
 11
3.76
 21
4.6622914952
 31
0.0
  0
LINE
  5
83
330
1F
100
AcDbEntity
  8
SK1
  6
Continuous
100
AcDbLine
 10
3.56
 20
3.5279469192
 30
0.0
 11
3.56
 21
5.7945314195
 31
0.0
  0
LINE
  5
84
330
1F
100
AcDbEntity
  8
SK1
  6
Continuous
100
AcDbLine
 10
3.56
 20
3.5279469192
 30
0.0
 11
3.56
 21
2.9917901744
 31
0.0
  0
SPLINE
  5
85
330
1F
100
AcDbEntity
  8
SK1
  6
Continuous
100
AcDbSpline
210
0.0
220
0.0
230
1.0
 70
     8
 71
     3
 72
    10
 73
     6
 74
     0
 42
0.0000000427782015
 43
0.0000000001
 12
1.0
 22
0.0
 32
0.0
 13
1.0
 23
0.0
 33
0.0
 40
0.0
 40
0.0
 40
0.0
 40
0.0
 40
0.5
 40
0.5
 40
1.0
 40
1.0
 40
1.0
 40
1.0
 10
3.559999999997701
 20
2.991790174359306
 30
0.0
 10
3.560000000000091
 20
2.971823434662547
 30
0.0
 10
3.581193891622443
 20
2.951958541728218
 30
0.0
 10
3.655790534491497
 20
2.923350118608315
 30
0.0
 10
3.707153470521002
 20
2.915183087703853
 30
0.0
 10
3.759999999999994
 20
2.915183087704165
 30
0.0
  0
LINE
  5
86
330
1F
100
AcDbEntity
  8
SK1
  6
Continuous
100
AcDbLine
 10
3.76
 20
2.9151830877
 30
0.0
 11
6.06
 21
2.9151830877
 31
0.0
  0
SPLINE
  5
87
330
1F
100
AcDbEntity
  8
SK1
  6
Continuous
100
AcDbSpline
210
0.0
220
0.0
230
1.0
 70
     8
 71
     3
 72
    10
 73
     6
 74
     0
 42
0.000000042784668
 43
0.0000000001
 12
1.0
 22
0.0
 32
0.0
 13
1.0
 23
0.0
 33
0.0
 40
0.0
 40
0.0
 40
0.0
 40
0.0
 40
0.5
 40
0.5
 40
1.0
 40
1.0
 40
1.0
 40
1.0
 10
6.06
 20
2.915183087704159
 30
0.0
 10
6.112885781154351
 20
2.91518308770416
 30
0.0
 10
6.164612059116854
 20
2.923505522478093
 30
0.0
 10
6.238393465715232
 20
2.951799284100988
 30
0.0
 10
6.260000000000002
 20
2.971806280637321
 30
0.0
 10
6.259999999999998
 20
2.991790174359407
 30
0.0
  0
LINE
  5
88
330
1F
100
AcDbEntity
  8
SK1
  6
Continuous
100
AcDbLine
 10
6.26
 20
3.0214840177
 30
0.0
 11
6.26
 21
3.5758117372
 31
0.0
  0
LINE
  5
89
330
1F
100
AcDbEntity
  8
SK1
  6
Continuous
100
AcDbLine
 10
6.26
 20
3.5758117372
 30
0.0
 11
10.135
 21
2.718959834
 31
0.0
  0
SPLINE
  5
8A
330
1F
100
AcDbEntity
  8
SK1
  6
Continuous
100
AcDbSpline
210
0.0
220
0.0
230
1.0
 70
     8
 71
     3
 72
     8
 73
     4
 74
     0
 42
0.0000000587350374
 43
0.0000000001
 12
1.0
 22
0.0
 32
0.0
 13
1.0
 23
0.0
 33
0.0
 40
0.0
 40
0.0
 40
0.0
 40
0.0
 40
1.0
 40
1.0
 40
1.0
 40
1.0
 10
10.135
 20
2.718959833955481
 30
0.0
 10
10.21131238677113
 20
2.702080567911446
 30
0.0
 10
10.26
 20
2.669562844429731
 30
0.0
 10
10.26
 20
2.636011698025211
 30
0.0
  0
LINE
  5
8B
330
1F
100
AcDbEntity
  8
SK1
  6
Continuous
100
AcDbLine
 10
10.26
 20
2.636011698
 30
0.0
 11
10.26
 21
2.0816839785
 31
0.0
  0
LINE
  5
8C
330
1F
100
AcDbEntity
  8
SK3
100
AcDbLine
 10
-11.24
 20
1.9378737647
 30
0.0
 11
-11.24
 21
1.6116270737
 31
0.0
  0
LINE
  5
8D
330
1F
100
AcDbEntity
  8
SK3
100
AcDbLine
 10
-11.24
 20
1.6116270737
 30
0.0
 11
10.26
 21
1.6116270737
 31
0.0
  0
LINE
  5
8E
330
1F
100
AcDbEntity
  8
SK3
100
AcDbLine
 10
-11.24
 20
1.0572993542
 30
0.0
 11
10.26
 21
1.0572993542
 31
0.0
  0
SPLINE
  5
8F
330
1F
100
AcDbEntity
  8
SK1
  6
Continuous
100
AcDbSpline
210
0.0
220
0.0
230
1.0
 70
     8
 71
     3
 72
    10
 73
     6
 74
     0
 42
0.0000000427782015
 43
0.0000000001
 12
1.0
 22
0.0
 32
0.0
 13
1.0
 23
0.0
 33
0.0
 40
0.0
 40
0.0
 40
0.0
 40
0.0
 40
0.5
 40
0.5
 40
1.0
 40
1.0
 40
1.0
 40
1.0
 10
3.559999999997701
 20
2.437462454852533
 30
0.0
 10
3.560000000000091
 20
2.417495715155774
 30
0.0
 10
3.581193891622443
 20
2.397630822221446
 30
0.0
 10
3.655790534491497
 20
2.369022399101543
 30
0.0
 10
3.707153470521003
 20
2.360855368197082
 30
0.0
 10
3.759999999999994
 20
2.360855368197393
 30
0.0
  0
LINE
  5
90
330
1F
100
AcDbEntity
  8
SK1
  6
Continuous
100
AcDbLine
 10
3.76
 20
2.3608553682
 30
0.0
 11
6.06
 21
2.3608553682
 31
0.0
  0
SPLINE
  5
91
330
1F
100
AcDbEntity
  8
SK1
  6
Continuous
100
AcDbSpline
210
0.0
220
0.0
230
1.0
 70
     8
 71
     3
 72
    10
 73
     6
 74
     0
 42
0.000000042784668
 43
0.0000000001
 12
1.0
 22
0.0
 32
0.0
 13
1.0
 23
0.0
 33
0.0
 40
0.0
 40
0.0
 40
0.0
 40
0.0
 40
0.5
 40
0.5
 40
1.0
 40
1.0
 40
1.0
 40
1.0
 10
6.06
 20
2.360855368197386
 30
0.0
 10
6.112885781154351
 20
2.360855368197386
 30
0.0
 10
6.164612059116854
 20
2.369177802971322
 30
0.0
 10
6.238393465715232
 20
2.397471564594217
 30
0.0
 10
6.260000000000002
 20
2.41747856113055
 30
0.0
 10
6.259999999999998
 20
2.437462454852634
 30
0.0
  0
LINE
  5
92
330
1F
100
AcDbEntity
  8
SK1
  6
Continuous
100
AcDbLine
 10
6.26
 20
3.0214840177
 30
0.0
 11
10.135
 21
2.1646321144
 31
0.0
  0
SPLINE
  5
93
330
1F
100
AcDbEntity
  8
SK1
  6
Continuous
100
AcDbSpline
210
0.0
220
0.0
230
1.0
 70
     8
 71
     3
 72
     8
 73
     4
 74
     0
 42
0.0000000587350374
 43
0.0000000001
 12
1.0
 22
0.0
 32
0.0
 13
1.0
 23
0.0
 33
0.0
 40
0.0
 40
0.0
 40
0.0
 40
0.0
 40
1.0
 40
1.0
 40
1.0
 40
1.0
 10
10.135
 20
2.164632114448709
 30
0.0
 10
10.21131238677113
 20
2.147752848404673
 30
0.0
 10
10.26
 20
2.115235124922959
 30
0.0
 10
10.26
 20
2.08168397851844
 30
0.0
  0
LINE
  5
94
330
1F
100
AcDbEntity
  8
SK1
  6
Continuous
100
AcDbLine
 10
-16.94
 20
4.1796369036
 30
0.0
 11
-16.94
 21
5.6108989932
 31
0.0
  0
LINE
  5
95
330
1F
100
AcDbEntity
  8
SK1
  6
Continuous
100
AcDbLine
 10
-17.24
 20
3.9671847389
 30
0.0
 11
-17.24
 21
5.3104462605
 31
0.0
  0
LINE
  5
96
330
1F
100
AcDbEntity
  8
SK3
100
AcDbLine
 10
-11.24
 20
3.2807234029
 30
0.0
 11
-11.24
 21
3.8945026576
 31
0.0
  0
LINE
  5
97
330
1F
100
AcDbEntity
  8
SK1
  6
Continuous
100
AcDbLine
 10
3.76
 20
5.0865555639
 30
0.0
 11
3.76
 21
6.2539360799
 31
0.0
  0
LINE
  5
98
330
1F
100
AcDbEntity
  8
SK1
  6
Continuous
100
AcDbLine
 10
3.56
 20
6.2187954882
 30
0.0
 11
3.56
 21
7.7332788323
 31
0.0
  0
LINE
  5
99
330
1F
100
AcDbEntity
  8
SK3
100
AcDbLine
 10
-17.24
 20
3.2807234029
 30
0.0
 11
-11.24
 21
3.2807234029
 31
0.0
  0
LINE
  5
9A
330
1F
100
AcDbEntity
  8
SK3
100
AcDbLine
 10
-11.24
 20
3.2807234029
 30
0.0
 11
-11.24
 21
2.8564593342
 31
0.0
  0
LINE
  5
9B
330
1F
100
AcDbEntity
  8
SK3
100
AcDbLine
 10
-11.24
 20
2.6778981223
 30
0.0
 11
5.335
 21
2.6778981223
 31
0.0
  0
SPLINE
  5
9C
330
1F
100
AcDbEntity
  8
SK1
  6
Continuous
100
AcDbSpline
210
0.0
220
0.0
230
1.0
 70
     8
 71
     3
 72
    10
 73
     6
 74
     0
 42
0.0000000360898023
 43
0.0000000001
 12
1.0
 22
0.0
 32
0.0
 13
1.0
 23
0.0
 33
0.0
 40
0.0
 40
0.0
 40
0.0
 40
0.0
 40
0.5
 40
0.5
 40
1.0
 40
1.0
 40
1.0
 40
1.0
 10
3.559999999999994
 20
5.228107002684374
 30
0.0
 10
3.559999999999988
 20
5.191213278410788
 30
0.0
 10
3.581193891622299
 20
5.154507742415595
 30
0.0
 10
3.655790534491361
 20
5.101646269259688
 30
0.0
 10
3.707153470520934
 20
5.086555563871605
 30
0.0
 10
3.759999999999993
 20
5.086555563872169
 30
0.0
  0
LINE
  5
9D
330
1F
100
AcDbEntity
  8
SK1
  6
Continuous
100
AcDbLine
 10
3.76
 20
5.0865555639
 30
0.0
 11
5.335
 21
5.0865555639
 31
0.0
  0
LINE
  5
9E
330
1F
100
AcDbEntity
  8
SK1
  6
Continuous
100
AcDbLine
 10
-17.24
 20
3.5429206702
 30
0.0
 11
-17.24
 21
3.9671847389
 31
0.0
  0
LINE
  5
9F
330
1F
100
AcDbEntity
  8
SK1
  6
Continuous
100
AcDbLine
 10
-17.24
 20
3.9671847389
 30
0.0
 11
-16.94
 21
4.1796369036
 31
0.0
  0
SPLINE
  5
A0
330
1F
100
AcDbEntity
  8
SK1
  6
Continuous
100
AcDbSpline
210
0.0
220
0.0
230
1.0
 70
     8
 71
     3
 72
    11
 73
     7
 74
     0
 42
0.0000000004854093
 43
0.0000000001
 12
1.0
 22
0.0
 32
0.0
 13
1.0
 23
0.0
 33
0.0
 40
0.0
 40
0.0
 40
0.0
 40
0.0
 40
0.4765105083775885
 40
0.4765105083775885
 40
0.4765105083775885
 40
1.0
 40
1.0
 40
1.0
 40
1.0
 10
-16.94
 20
4.179636903551074
 30
0.0
 10
-13.68387546619054
 20
4.503684215713991
 30
0.0
 10
-10.42772969982548
 20
4.827624855481865
 30
0.0
 10
-7.171573182004694
 20
5.151511434525439
 30
0.0
 10
-3.594393475410471
 20
5.507329863846
 30
0.0
 10
-0.0172003960014471
 20
5.863081073635775
 30
0.0
 10
3.559999999999993
 20
6.218795488163076
 30
0.0
  0
LINE
  5
A1
330
1F
100
AcDbEntity
  8
SK1
  6
Continuous
100
AcDbLine
 10
3.56
 20
6.2187954882
 30
0.0
 11
3.56
 21
5.7945314195
 31
0.0
  0
SPLINE
  5
A2
330
1F
100
AcDbEntity
  8
SK1
  6
Continuous
100
AcDbSpline
210
0.0
220
0.0
230
1.0
 70
     8
 71
     3
 72
    10
 73
     6
 74
     0
 42
0.0000000360898023
 43
0.0000000001
 12
1.0
 22
0.0
 32
0.0
 13
1.0
 23
0.0
 33
0.0
 40
0.0
 40
0.0
 40
0.0
 40
0.0
 40
0.5
 40
0.5
 40
1.0
 40
1.0
 40
1.0
 40
1.0
 10
3.559999999999994
 20
4.803842933972446
 30
0.0
 10
3.559999999999989
 20
4.766949209698858
 30
0.0
 10
3.5811938916223
 20
4.730243673703669
 30
0.0
 10
3.655790534491361
 20
4.677382200547759
 30
0.0
 10
3.707153470520935
 20
4.662291495159677
 30
0.0
 10
3.759999999999993
 20
4.662291495160241
 30
0.0
  0
LINE
  5
A3
330
1F
100
AcDbEntity
  8
SK1
  6
Continuous
100
AcDbLine
 10
3.76
 20
4.6622914952
 30
0.0
 11
5.335
 21
4.6622914952
 31
0.0
  0
LINE
  5
A4
330
1F
100
AcDbEntity
  8
SK1
  6
Continuous
100
AcDbLine
 10
-17.24
 20
3.5429206702
 30
0.0
 11
-16.94
 21
3.7553728348
 31
0.0
  0
SPLINE
  5
A5
330
1F
100
AcDbEntity
  8
SK1
  6
Continuous
100
AcDbSpline
210
0.0
220
0.0
230
1.0
 70
     8
 71
     3
 72
    11
 73
     7
 74
     0
 42
0.0000000004854093
 43
0.0000000001
 12
1.0
 22
0.0
 32
0.0
 13
1.0
 23
0.0
 33
0.0
 40
0.0
 40
0.0
 40
0.0
 40
0.0
 40
0.4765105083775885
 40
0.4765105083775885
 40
0.4765105083775885
 40
1.0
 40
1.0
 40
1.0
 40
1.0
 10
-16.94
 20
3.755372834839148
 30
0.0
 10
-13.68387546619054
 20
4.079420147002065
 30
0.0
 10
-10.42772969982548
 20
4.403360786769936
 30
0.0
 10
-7.171573182004694
 20
4.727247365813511
 30
0.0
 10
-3.594393475410471
 20
5.083065795134071
 30
0.0
 10
-0.0172003960014454
 20
5.438817004923845
 30
0.0
 10
3.559999999999993
 20
5.794531419451146
 30
0.0
  0
LINE
  5
A6
330
1F
100
AcDbEntity
  8
SK3
100
AcDbLine
 10
-17.24
 20
2.8564593342
 30
0.0
 11
-11.24
 21
2.8564593342
 31
0.0
  0
LINE
  5
A7
330
1F
100
AcDbEntity
  8
SK3
100
AcDbLine
 10
-11.24
 20
2.2536340536
 30
0.0
 11
5.335
 21
2.2536340536
 31
0.0
  0
LINE
  5
A8
330
1F
100
AcDbEntity
  8
SK1
  6
Continuous
100
AcDbLine
 10
10.26
 20
-5.8095658106
 30
0.0
 11
10.26
 21
-6.1712608692
 31
0.0
  0
LINE
  5
A9
330
1F
100
AcDbEntity
  8
SK1
  6
Continuous
100
AcDbLine
 10
10.135
 20
-6.0098203254
 30
0.0
 11
10.135
 21
-6.3877672202
 31
0.0
  0
LINE
  5
AA
330
1F
100
AcDbEntity
  8
SK1
  6
Continuous
100
AcDbLine
 10
6.26
 20
-8.078443811
 30
0.0
 11
6.26
 21
-8.6249995133
 31
0.0
  0
LINE
  5
AB
330
1F
100
AcDbEntity
  8
SK1
  6
Continuous
100
AcDbLine
 10
6.06
 20
-6.8999995133
 30
0.0
 11
6.06
 21
-6.4835451658
 31
0.0
  0
LINE
  5
AC
330
1F
100
AcDbEntity
  8
SK1
  6
Continuous
100
AcDbLine
 10
10.26
 20
6.1712618427
 30
0.0
 11
10.26
 21
5.8095667841
 31
0.0
  0
LINE
  5
AD
330
1F
100
AcDbEntity
  8
SK1
  6
Continuous
100
AcDbLine
 10
10.135
 20
6.3877681936
 30
0.0
 11
10.135
 21
6.0098212988
 31
0.0
  0
LINE
  5
AE
330
1F
100
AcDbEntity
  8
SK1
  6
Continuous
100
AcDbLine
 10
6.26
 20
8.6250004867
 30
0.0
 11
6.26
 21
8.0784447845
 31
0.0
  0
LINE
  5
AF
330
1F
100
AcDbEntity
  8
SK1
  6
Continuous
100
AcDbLine
 10
6.06
 20
6.9000004867
 30
0.0
 11
6.06
 21
6.4835461392
 31
0.0
  0
LINE
  5
B0
330
1F
100
AcDbEntity
  8
SK3
100
AcDbLine
 10
-11.24
 20
4.124112717
 30
0.0
 11
-11.24
 21
4.3396433292
 31
0.0
  0
LINE
  5
B1
330
1F
100
AcDbEntity
  8
SK1
  6
Continuous
100
AcDbLine
 10
3.76
 20
6.4835461393
 30
0.0
 11
3.76
 21
6.8934756626
 31
0.0
  0
LINE
  5
B2
330
1F
100
AcDbEntity
  8
SK1
  6
Continuous
100
AcDbLine
 10
3.56
 20
7.9628888917
 30
0.0
 11
3.56
 21
8.4947047194
 31
0.0
  0
LINE
  5
B3
330
1F
100
AcDbEntity
  8
SK1
  6
Continuous
100
AcDbLine
 10
3.56
 20
7.9628888917
 30
0.0
 11
3.56
 21
7.7332788323
 31
0.0
  0
ARC
  5
B4
330
1F
100
AcDbEntity
  8
SK1
  6
Continuous
100
AcDbCircle
 10
3.7527490618
 20
6.6763176772
 30
0.0
 40
0.1929078587082918
100
AcDbArc
 50
182.3249491202
 51
272.1541167163
  0
LINE
  5
B5
330
1F
100
AcDbEntity
  8
SK1
  6
Continuous
100
AcDbLine
 10
3.76
 20
6.4835461393
 30
0.0
 11
6.06
 21
6.4835461392
 31
0.0
  0
ARC
  5
B6
330
1F
100
AcDbEntity
  8
SK1
  6
Continuous
100
AcDbCircle
 10
6.0672545788
 20
6.6763137402
 30
0.0
 40
0.1929040614075613
100
AcDbArc
 50
267.8447587712
 51
357.6761754115
  0
LINE
  5
B7
330
1F
100
AcDbEntity
  8
SK1
  6
Continuous
100
AcDbLine
 10
6.26
 20
7.8488347251
 30
0.0
 11
6.26
 21
8.0784447845
 31
0.0
  0
SPLINE
  5
B8
330
1F
100
AcDbEntity
  8
SK1
  6
Continuous
100
AcDbSpline
210
0.0
220
0.0
230
1.0
 70
     8
 71
     3
 72
     8
 73
     4
 74
     0
 42
0.0000000022765623
 43
0.0000000001
 12
1.0
 22
0.0
 32
0.0
 13
1.0
 23
0.0
 33
0.0
 40
0.0
 40
0.0
 40
0.0
 40
0.0
 40
1.0
 40
1.0
 40
1.0
 40
1.0
 10
6.259999999999998
 20
8.07844478451433
 30
0.0
 10
7.551735260324493
 20
7.389013314546774
 30
0.0
 10
8.843426021530068
 20
6.699510607061966
 30
0.0
 10
10.13500000000004
 20
6.009821298829598
 30
0.0
  0
ARC
  5
B9
330
1F
100
AcDbEntity
  8
SK1
  6
Continuous
100
AcDbCircle
 10
10.031382194
 20
5.806002368
 30
0.0
 40
0.2286455910326203
100
AcDbArc
 50
0.893235122
 51
63.0520513564
  0
LINE
  5
BA
330
1F
100
AcDbEntity
  8
SK1
  6
Continuous
100
AcDbLine
 10
10.26
 20
5.8095667841
 30
0.0
 11
10.26
 21
5.5799567247
 31
0.0
  0
LINE
  5
BB
330
1F
100
AcDbEntity
  8
SK3
100
AcDbLine
 10
-11.24
 20
4.124112717
 30
0.0
 11
-11.24
 21
3.8945026576
 31
0.0
  0
LINE
  5
BC
330
1F
100
AcDbEntity
  8
SK3
100
AcDbLine
 10
-11.24
 20
3.336483531
 30
0.0
 11
10.26
 21
3.336483531
 31
0.0
  0
LINE
  5
BD
330
1F
100
AcDbEntity
  8
SK3
100
AcDbLine
 10
-11.24
 20
3.1068734716
 30
0.0
 11
10.26
 21
3.1068734716
 31
0.0
  0
ARC
  5
BE
330
1F
100
AcDbEntity
  8
SK1
  6
Continuous
100
AcDbCircle
 10
3.7527490618
 20
6.4467076178
 30
0.0
 40
0.192907858708289
100
AcDbArc
 50
182.3249491202
 51
272.1541167163
  0
LINE
  5
BF
330
1F
100
AcDbEntity
  8
SK1
  6
Continuous
100
AcDbLine
 10
3.76
 20
6.2539360799
 30
0.0
 11
6.06
 21
6.2539360798
 31
0.0
  0
ARC
  5
C0
330
1F
100
AcDbEntity
  8
SK1
  6
Continuous
100
AcDbCircle
 10
6.0672545788
 20
6.4467036808
 30
0.0
 40
0.1929040614075577
100
AcDbArc
 50
267.8447587712
 51
357.6761754115
  0
SPLINE
  5
C1
330
1F
100
AcDbEntity
  8
SK1
  6
Continuous
100
AcDbSpline
210
0.0
220
0.0
230
1.0
 70
     8
 71
     3
 72
     8
 73
     4
 74
     0
 42
0.0000000022765623
 43
0.0000000001
 12
1.0
 22
0.0
 32
0.0
 13
1.0
 23
0.0
 33
0.0
 40
0.0
 40
0.0
 40
0.0
 40
0.0
 40
1.0
 40
1.0
 40
1.0
 40
1.0
 10
6.259999999999998
 20
7.848834725095278
 30
0.0
 10
7.551735260324493
 20
7.159403255127719
 30
0.0
 10
8.843426021530068
 20
6.469900547642912
 30
0.0
 10
10.13500000000004
 20
5.780211239410545
 30
0.0
  0
ARC
  5
C2
330
1F
100
AcDbEntity
  8
SK1
  6
Continuous
100
AcDbCircle
 10
10.031382194
 20
5.5763923086
 30
0.0
 40
0.2286455910326161
100
AcDbArc
 50
0.893235122
 51
63.0520513564
  0
LINE
  5
C3
330
1F
100
AcDbEntity
  8
SK1
  6
Continuous
100
AcDbLine
 10
-16.94
 20
-5.6108980197
 30
0.0
 11
-16.94
 21
-4.1796359301
 31
0.0
  0
LINE
  5
C4
330
1F
100
AcDbEntity
  8
SK1
  6
Continuous
100
AcDbLine
 10
-17.24
 20
-5.3104452871
 30
0.0
 11
-17.24
 21
-3.9671837654
 31
0.0
  0
LINE
  5
C5
330
1F
100
AcDbEntity
  8
SK1
  6
Continuous
100
AcDbLine
 10
-16.94
 20
-5.6108980197
 30
0.0
 11
-17.24
 21
-5.3104452871
 31
0.0
  0
LINE
  5
C6
330
1F
100
AcDbEntity
  8
SK3
100
AcDbLine
 10
-11.24
 20
-4.3396423557
 30
0.0
 11
-11.24
 21
-4.1241117435
 31
0.0
  0
LINE
  5
C7
330
1F
100
AcDbEntity
  8
SK1
  6
Continuous
100
AcDbLine
 10
3.76
 20
-6.8934746891
 30
0.0
 11
3.76
 21
-6.4835451658
 31
0.0
  0
LINE
  5
C8
330
1F
100
AcDbEntity
  8
SK1
  6
Continuous
100
AcDbLine
 10
3.56
 20
-8.4947037459
 30
0.0
 11
3.56
 21
-7.9628879182
 31
0.0
  0
SPLINE
  5
C9
330
1F
100
AcDbEntity
  8
SK1
  6
Continuous
100
AcDbSpline
210
0.0
220
0.0
230
1.0
 70
     8
 71
     3
 72
    10
 73
     6
 74
     0
 42
0.0000000310249665
 43
0.0000000001
 12
1.0
 22
0.0
 32
0.0
 13
1.0
 23
0.0
 33
0.0
 40
0.0
 40
0.0
 40
0.0
 40
0.0
 40
0.5
 40
0.5
 40
1.0
 40
1.0
 40
1.0
 40
1.0
 10
3.559999999999994
 20
7.093659627121904
 30
0.0
 10
3.559999999999989
 20
7.041484021887742
 30
0.0
 10
3.5811938916223
 20
6.989574555069169
 30
0.0
 10
3.655790534491361
 20
6.914817142805063
 30
0.0
 10
3.707153470520935
 20
6.893475662579461
 30
0.0
 10
3.759999999999993
 20
6.89347566258026
 30
0.0
  0
LINE
  5
CA
330
1F
100
AcDbEntity
  8
SK1
  6
Continuous
100
AcDbLine
 10
3.76
 20
6.8934756626
 30
0.0
 11
5.335
 21
6.8934756626
 31
0.0
  0
SPLINE
  5
CB
330
1F
100
AcDbEntity
  8
SK1
  6
Continuous
100
AcDbSpline
210
0.0
220
0.0
230
1.0
 70
     8
 71
     3
 72
    10
 73
     6
 74
     0
 42
0.0000000310328312
 43
0.0000000001
 12
1.0
 22
0.0
 32
0.0
 13
1.0
 23
0.0
 33
0.0
 40
0.0
 40
0.0
 40
0.0
 40
0.0
 40
0.5
 40
0.5
 40
1.0
 40
1.0
 40
1.0
 40
1.0
 10
3.759999999999996
 20
-6.89347468911101
 30
0.0
 10
3.707114218845644
 20
-6.893474689111009
 30
0.0
 10
3.655387940883141
 20
-6.915222259217455
 30
0.0
 10
3.581606534284764
 20
-6.989157421364483
 30
0.0
 10
3.559999999999991
 20
-7.041438222790052
 30
0.0
 10
3.559999999999997
 20
-7.093658653652655
 30
0.0
  0
SPLINE
  5
CC
330
1F
100
AcDbEntity
  8
SK1
  6
Continuous
100
AcDbSpline
210
0.0
220
0.0
230
1.0
 70
     8
 71
     3
 72
    11
 73
     7
 74
     0
 42
0.0000000004830488
 43
0.0000000001
 12
1.0
 22
0.0
 32
0.0
 13
1.0
 23
0.0
 33
0.0
 40
0.0
 40
0.0
 40
0.0
 40
0.0
 40
0.7208513756322446
 40
0.7208513756322446
 40
0.7208513756322446
 40
1.0
 40
1.0
 40
1.0
 40
1.0
 10
3.559999999999998
 20
-8.494703745903497
 30
0.0
 10
-1.365848306402142
 20
-7.80198933043467
 30
0.0
 10
-6.29168358982766
 20
-7.109182276224432
 30
0.0
 10
-11.21748710364617
 20
-6.416149418174832
 30
0.0
 10
-13.124997197796
 20
-6.147773473296282
 30
0.0
 10
-15.03250232935265
 20
-5.879362251128033
 30
0.0
 10
-16.94
 20
-5.610898019715681
 30
0.0
  0
LINE
  5
CD
330
1F
100
AcDbEntity
  8
SK1
  6
Continuous
100
AcDbLine
 10
-17.24
 20
5.3104462605
 30
0.0
 11
-16.94
 21
5.6108989932
 31
0.0
  0
SPLINE
  5
CE
330
1F
100
AcDbEntity
  8
SK1
  6
Continuous
100
AcDbSpline
210
0.0
220
0.0
230
1.0
 70
     8
 71
     3
 72
    11
 73
     7
 74
     0
 42
0.0000000004830488
 43
0.0000000001
 12
1.0
 22
0.0
 32
0.0
 13
1.0
 23
0.0
 33
0.0
 40
0.0
 40
0.0
 40
0.0
 40
0.0
 40
0.4765105083775883
 40
0.4765105083775883
 40
0.4765105083775883
 40
1.0
 40
1.0
 40
1.0
 40
1.0
 10
-16.94
 20
5.610898993184925
 30
0.0
 10
-13.68387546619054
 20
6.06917109689627
 30
0.0
 10
-10.42772969982548
 20
6.527292343059815
 30
0.0
 10
-7.171573182004694
 20
6.985337135813863
 30
0.0
 10
-3.594393475410471
 20
7.488540384301294
 30
0.0
 10
-0.0172003960014471
 20
7.99164857001663
 30
0.0
 10
3.559999999999992
 20
8.494704719372749
 30
0.0
  0
LINE
  5
CF
330
1F
100
AcDbEntity
  8
SK3
100
AcDbLine
 10
-17.24
 20
4.3396433292
 30
0.0
 11
-11.24
 21
4.3396433292
 31
0.0
  0
LINE
  5
D0
330
1F
100
AcDbEntity
  8
SK3
100
AcDbLine
 10
-11.24
 20
3.4871196416
 30
0.0
 11
5.335
 21
3.4871196416
 31
0.0
  0
LINE
  5
D1
330
1F
100
AcDbEntity
  8
SK3
100
AcDbLine
 10
-11.24
 20
-4.3396423557
 30
0.0
 11
-17.24
 21
-4.3396423557
 31
0.0
  0
LINE
  5
D2
330
1F
100
AcDbEntity
  8
SK3
100
AcDbLine
 10
-11.24
 20
-3.8945016841
 30
0.0
 11
-11.24
 21
-3.2807224294
 31
0.0
  0
LINE
  5
D3
330
1F
100
AcDbEntity
  8
SK3
100
AcDbLine
 10
-11.24
 20
-3.8945016841
 30
0.0
 11
-11.24
 21
-4.1241117435
 31
0.0
  0
LINE
  5
D4
330
1F
100
AcDbEntity
  8
SK1
  6
Continuous
100
AcDbLine
 10
10.26
 20
-5.5799557512
 30
0.0
 11
10.26
 21
-2.6360107246
 31
0.0
  0
LINE
  5
D5
330
1F
100
AcDbEntity
  8
SK1
  6
Continuous
100
AcDbLine
 10
10.135
 20
-5.7802102659
 30
0.0
 11
10.135
 21
-2.7189588605
 31
0.0
  0
LINE
  5
D6
330
1F
100
AcDbEntity
  8
SK1
  6
Continuous
100
AcDbLine
 10
6.26
 20
-7.8488337516
 30
0.0
 11
6.26
 21
-3.5758107637
 31
0.0
  0
LINE
  5
D7
330
1F
100
AcDbEntity
  8
SK1
  6
Continuous
100
AcDbLine
 10
6.06
 20
-6.2539351064
 30
0.0
 11
6.06
 21
-2.9151821142
 31
0.0
  0
LINE
  5
D8
330
1F
100
AcDbEntity
  8
SK1
  6
Continuous
100
AcDbLine
 10
3.76
 20
-6.2539351064
 30
0.0
 11
3.76
 21
-5.0865545904
 31
0.0
  0
LINE
  5
D9
330
1F
100
AcDbEntity
  8
SK1
  6
Continuous
100
AcDbLine
 10
3.56
 20
-7.7332778588
 30
0.0
 11
3.56
 21
-6.2187945147
 31
0.0
  0
LINE
  5
DA
330
1F
100
AcDbEntity
  8
SK3
100
AcDbLine
 10
10.26
 20
-3.3364825576
 30
0.0
 11
-11.24
 21
-3.3364825576
 31
0.0
  0
LINE
  5
DB
330
1F
100
AcDbEntity
  8
SK3
100
AcDbLine
 10
-11.24
 20
-4.1241117435
 30
0.0
 11
-14.94
 21
-4.1241117435
 31
0.0
  0
ARC
  5
DC
330
1F
100
AcDbEntity
  8
SK1
  6
Continuous
100
AcDbCircle
 10
10.028508674
 20
-5.5745976677
 30
0.0
 40
0.2315533266338604
100
AcDbArc
 50
297.3806412443
 51
358.6740722772
  0
LINE
  5
DD
330
1F
100
AcDbEntity
  8
SK1
  6
Continuous
100
AcDbLine
 10
10.135
 20
-5.7802102659
 30
0.0
 11
6.26
 21
-7.8488337516
 31
0.0
  0
ARC
  5
DE
330
1F
100
AcDbEntity
  8
SK1
  6
Continuous
100
AcDbCircle
 10
6.0672483498
 20
-6.4467094434
 30
0.0
 40
0.1929105584737993
100
AcDbArc
 50
2.3257485766
 51
92.1533172599
  0
LINE
  5
DF
330
1F
100
AcDbEntity
  8
SK1
  6
Continuous
100
AcDbLine
 10
6.06
 20
-6.2539351064
 30
0.0
 11
3.76
 21
-6.2539351064
 31
0.0
  0
ARC
  5
E0
330
1F
100
AcDbEntity
  8
SK1
  6
Continuous
100
AcDbCircle
 10
3.7527520143
 20
-6.4467098372
 30
0.0
 40
0.1929109383187583
100
AcDbArc
 50
87.8467952167
 51
177.6741389463
  0
SPLINE
  5
E1
330
1F
100
AcDbEntity
  8
SK1
  6
Continuous
100
AcDbSpline
210
0.0
220
0.0
230
1.0
 70
     8
 71
     3
 72
    11
 73
     7
 74
     0
 42
0.0000000005360328
 43
0.0000000001
 12
1.0
 22
0.0
 32
0.0
 13
1.0
 23
0.0
 33
0.0
 40
0.0
 40
0.0
 40
0.0
 40
0.0
 40
0.7987819515595034
 40
0.7987819515595034
 40
0.7987819515595034
 40
1.0
 40
1.0
 40
1.0
 40
1.0
 10
3.559999999999997
 20
-7.733277858827233
 30
0.0
 10
-1.365848306402142
 20
-7.093293188500066
 30
0.0
 10
-6.29168358982766
 20
-6.453222931135789
 30
0.0
 10
-11.21748710364617
 20
-5.812944058225963
 30
0.0
 10
-12.45832707090469
 20
-5.651653902524671
 30
0.0
 10
-13.69916491084218
 20
-5.490349776606764
 30
0.0
 10
-14.94000000000126
 20
-5.329027591765284
 30
0.0
  0
LINE
  5
E2
330
1F
100
AcDbEntity
  8
SK1
  6
Continuous
100
AcDbLine
 10
3.56
 20
-7.7332778588
 30
0.0
 11
3.56
 21
-7.9628879182
 31
0.0
  0
SPLINE
  5
E3
330
1F
100
AcDbEntity
  8
SK1
  6
Continuous
100
AcDbSpline
210
0.0
220
0.0
230
1.0
 70
     8
 71
     3
 72
    11
 73
     7
 74
     0
 42
0.0000000005360328
 43
0.0000000001
 12
1.0
 22
0.0
 32
0.0
 13
1.0
 23
0.0
 33
0.0
 40
0.0
 40
0.0
 40
0.0
 40
0.0
 40
0.7987819515595568
 40
0.7987819515595568
 40
0.7987819515595568
 40
1.0
 40
1.0
 40
1.0
 40
1.0
 10
3.559999999999997
 20
-7.962887918246281
 30
0.0
 10
-1.365848306402142
 20
-7.322903247919114
 30
0.0
 10
-6.29168358982766
 20
-6.682832990554838
 30
0.0
 10
-11.21748710364617
 20
-6.042554117645009
 30
0.0
 10
-12.45832707090427
 20
-5.881263961943774
 30
0.0
 10
-13.69916491084136
 20
-5.719959836025919
 30
0.0
 10
-14.94000000000002
 20
-5.558637651184491
 30
0.0
  0
LINE
  5
E4
330
1F
100
AcDbEntity
  8
SK1
  6
Continuous
100
AcDbLine
 10
10.26
 20
-5.5799557512
 30
0.0
 11
10.26
 21
-5.8095658106
 31
0.0
  0
ARC
  5
E5
330
1F
100
AcDbEntity
  8
SK1
  6
Continuous
100
AcDbCircle
 10
10.028508674
 20
-5.8042077271
 30
0.0
 40
0.2315533266338629
100
AcDbArc
 50
297.3806412443
 51
358.6740722772
  0
LINE
  5
E6
330
1F
100
AcDbEntity
  8
SK1
  6
Continuous
100
AcDbLine
 10
10.135
 20
-6.0098203254
 30
0.0
 11
6.26
 21
-8.078443811
 31
0.0
  0
LINE
  5
E7
330
1F
100
AcDbEntity
  8
SK1
  6
Continuous
100
AcDbLine
 10
6.26
 20
-8.078443811
 30
0.0
 11
6.26
 21
-7.8488337516
 31
0.0
  0
ARC
  5
E8
330
1F
100
AcDbEntity
  8
SK1
  6
Continuous
100
AcDbCircle
 10
6.0672483498
 20
-6.6763195028
 30
0.0
 40
0.1929105584737995
100
AcDbArc
 50
2.3257485766
 51
92.1533172599
  0
LINE
  5
E9
330
1F
100
AcDbEntity
  8
SK1
  6
Continuous
100
AcDbLine
 10
6.06
 20
-6.4835451658
 30
0.0
 11
3.76
 21
-6.4835451658
 31
0.0
  0
ARC
  5
EA
330
1F
100
AcDbEntity
  8
SK1
  6
Continuous
100
AcDbCircle
 10
3.7527520143
 20
-6.6763198966
 30
0.0
 40
0.1929109383187582
100
AcDbArc
 50
87.8467952167
 51
177.6741389463
  0
LINE
  5
EB
330
1F
100
AcDbEntity
  8
SK3
100
AcDbLine
 10
10.26
 20
-3.1068724981
 30
0.0
 11
-11.24
 21
-3.1068724981
 31
0.0
  0
LINE
  5
EC
330
1F
100
AcDbEntity
  8
SK3
100
AcDbLine
 10
-11.24
 20
-3.8945016841
 30
0.0
 11
-14.94
 21
-3.8945016841
 31
0.0
  0
LINE
  5
ED
330
1F
100
AcDbEntity
  8
SK1
  6
Continuous
100
AcDbLine
 10
-16.94
 20
-3.7553718614
 30
0.0
 11
-16.94
 21
-0.2999995133
 31
0.0
  0
LINE
  5
EE
330
1F
100
AcDbEntity
  8
SK1
  6
Continuous
100
AcDbLine
 10
-17.24
 20
-3.5429196967
 30
0.0
 11
-17.24
 21
-0.2999995133
 31
0.0
  0
LINE
  5
EF
330
1F
100
AcDbEntity
  8
SK1
  6
Continuous
100
AcDbLine
 10
-16.94
 20
-3.7553718614
 30
0.0
 11
-17.24
 21
-3.5429196967
 31
0.0
  0
LINE
  5
F0
330
1F
100
AcDbEntity
  8
SK1
  6
Continuous
100
AcDbLine
 10
-16.94
 20
-4.1796359301
 30
0.0
 11
-17.24
 21
-3.9671837654
 31
0.0
  0
LINE
  5
F1
330
1F
100
AcDbEntity
  8
SK3
100
AcDbLine
 10
-11.24
 20
-2.8564583607
 30
0.0
 11
-11.24
 21
-1.9378727912
 31
0.0
  0
LINE
  5
F2
330
1F
100
AcDbEntity
  8
SK1
  6
Continuous
100
AcDbLine
 10
3.76
 20
-4.6622905217
 30
0.0
 11
3.76
 21
-2.9151821142
 31
0.0
  0
LINE
  5
F3
330
1F
100
AcDbEntity
  8
SK1
  6
Continuous
100
AcDbLine
 10
3.56
 20
-5.794530446
 30
0.0
 11
3.56
 21
-3.5279459457
 31
0.0
  0
LINE
  5
F4
330
1F
100
AcDbEntity
  8
SK3
100
AcDbLine
 10
-11.24
 20
-2.8564583607
 30
0.0
 11
-11.24
 21
-3.2807224294
 31
0.0
  0
LINE
  5
F5
330
1F
100
AcDbEntity
  8
SK3
100
AcDbLine
 10
-11.24
 20
-3.2807224294
 30
0.0
 11
-17.24
 21
-3.2807224294
 31
0.0
  0
SPLINE
  5
F6
330
1F
100
AcDbEntity
  8
SK1
  6
Continuous
100
AcDbSpline
210
0.0
220
0.0
230
1.0
 70
     8
 71
     3
 72
    10
 73
     6
 74
     0
 42
0.0000000360984298
 43
0.0000000001
 12
1.0
 22
0.0
 32
0.0
 13
1.0
 23
0.0
 33
0.0
 40
0.0
 40
0.0
 40
0.0
 40
0.0
 40
0.5
 40
0.5
 40
1.0
 40
1.0
 40
1.0
 40
1.0
 10
3.759999999999995
 20
-4.662290521691041
 30
0.0
 10
3.707114218845646
 20
-4.662290521691041
 30
0.0
 10
3.655387940883139
 20
-4.677668375987637
 30
0.0
 10
3.581606534284762
 20
-4.72994843050993
 30
0.0
 10
3.559999999999989
 20
-4.766916539723816
 30
0.0
 10
3.559999999999997
 20
-4.803841960503246
 30
0.0
  0
SPLINE
  5
F7
330
1F
100
AcDbEntity
  8
SK1
  6
Continuous
100
AcDbSpline
210
0.0
220
0.0
230
1.0
 70
     8
 71
     3
 72
    11
 73
     7
 74
     0
 42
0.0000000004854093
 43
0.0000000001
 12
1.0
 22
0.0
 32
0.0
 13
1.0
 23
0.0
 33
0.0
 40
0.0
 40
0.0
 40
0.0
 40
0.0
 40
0.7208513756322448
 40
0.7208513756322448
 40
0.7208513756322448
 40
1.0
 40
1.0
 40
1.0
 40
1.0
 10
3.559999999999997
 20
-5.794530445981952
 30
0.0
 10
-1.365848306402144
 20
-5.304707385378268
 30
0.0
 10
-6.291683589827663
 20
-4.814818819292332
 30
0.0
 10
-11.21748710364617
 20
-4.324770585780366
 30
0.0
 10
-13.124997197796
 20
-4.135000135249395
 30
0.0
 10
-15.03250232935265
 20
-3.945204739907658
 30
0.0
 10
-16.94
 20
-3.75537186136995
 30
0.0
  0
SPLINE
  5
F8
330
1F
100
AcDbEntity
  8
SK1
  6
Continuous
100
AcDbSpline
210
0.0
220
0.0
230
1.0
 70
     8
 71
     3
 72
    10
 73
     6
 74
     0
 42
0.0000000360984298
 43
0.0000000001
 12
1.0
 22
0.0
 32
0.0
 13
1.0
 23
0.0
 33
0.0
 40
0.0
 40
0.0
 40
0.0
 40
0.0
 40
0.5
 40
0.5
 40
1.0
 40
1.0
 40
1.0
 40
1.0
 10
3.759999999999995
 20
-5.086554590402964
 30
0.0
 10
3.707114218845644
 20
-5.086554590402964
 30
0.0
 10
3.655387940883139
 20
-5.101932444699562
 30
0.0
 10
3.581606534284762
 20
-5.154212499221853
 30
0.0
 10
3.559999999999991
 20
-5.191180608435739
 30
0.0
 10
3.559999999999997
 20
-5.228106029215169
 30
0.0
  0
LINE
  5
F9
330
1F
100
AcDbEntity
  8
SK1
  6
Continuous
100
AcDbLine
 10
3.56
 20
-5.794530446
 30
0.0
 11
3.56
 21
-6.2187945147
 31
0.0
  0
SPLINE
  5
FA
330
1F
100
AcDbEntity
  8
SK1
  6
Continuous
100
AcDbSpline
210
0.0
220
0.0
230
1.0
 70
     8
 71
     3
 72
    11
 73
     7
 74
     0
 42
0.0000000004854093
 43
0.0000000001
 12
1.0
 22
0.0
 32
0.0
 13
1.0
 23
0.0
 33
0.0
 40
0.0
 40
0.0
 40
0.0
 40
0.0
 40
0.7208513756322449
 40
0.7208513756322449
 40
0.7208513756322449
 40
1.0
 40
1.0
 40
1.0
 40
1.0
 10
3.559999999999997
 20
-6.218794514693876
 30
0.0
 10
-1.365848306402144
 20
-5.728971454090192
 30
0.0
 10
-6.291683589827663
 20
-5.239082888004256
 30
0.0
 10
-11.21748710364617
 20
-4.749034654492289
 30
0.0
 10
-13.124997197796
 20
-4.55926420396132
 30
0.0
 10
-15.03250232935265
 20
-4.369468808619581
 30
0.0
 10
-16.94
 20
-4.179635930081873
 30
0.0
  0
LINE
  5
FB
330
1F
100
AcDbEntity
  8
SK1
  6
Continuous
100
AcDbLine
 10
-17.24
 20
-3.9671837654
 30
0.0
 11
-17.24
 21
-3.5429196967
 31
0.0
  0
LINE
  5
FC
330
1F
100
AcDbEntity
  8
SK3
100
AcDbLine
 10
-11.24
 20
-2.8564583607
 30
0.0
 11
-17.24
 21
-2.8564583607
 31
0.0
  0
LINE
  5
FD
330
1F
100
AcDbEntity
  8
SK3
100
AcDbLine
 10
-14.94
 20
1.9378737647
 30
0.0
 11
-11.24
 21
1.9378737647
 31
0.0
  0
SPLINE
  5
FE
330
1F
100
AcDbEntity
  8
SK1
  6
Continuous
100
AcDbSpline
210
0.0
220
0.0
230
1.0
 70
     8
 71
     3
 72
    11
 73
     7
 74
     0
 42
0.0000000005397591
 43
0.0000000001
 12
1.0
 22
0.0
 32
0.0
 13
1.0
 23
0.0
 33
0.0
 40
0.0
 40
0.0
 40
0.0
 40
0.0
 40
0.5342618011559841
 40
0.5342618011559841
 40
0.5342618011559841
 40
1.0
 40
1.0
 40
1.0
 40
1.0
 10
-14.94
 20
2.532073851204095
 30
0.0
 10
-11.64541089902244
 20
2.70949508742839
 30
0.0
 10
-8.350802987695424
 20
2.886865172012556
 30
0.0
 10
-5.056185319883213
 20
3.064208705897818
 30
0.0
 10
-2.184130279488638
 20
3.218806429133723
 30
0.0
 10
0.6879324548932018
 20
3.373383220398781
 30
0.0
 10
3.559999999999994
 20
3.527946919160222
 30
0.0
  0
LINE
  5
FF
330
1F
100
AcDbEntity
  8
SK1
  6
Continuous
100
AcDbLine
 10
-14.94
 20
2.5320738512
 30
0.0
 11
-14.94
 21
1.9777461317
 31
0.0
  0
SPLINE
  5
100
330
1F
100
AcDbEntity
  8
SK3
100
AcDbSpline
210
0.0
220
0.0
230
1.0
 70
     8
 71
     3
 72
    35
 73
    31
 74
     0
 42
0.0000000109784397
 43
0.0000000001
 12
1.0
 22
0.0
 32
0.0
 13
1.0
 23
0.0
 33
0.0
 40
0.0
 40
0.0
 40
0.0
 40
0.0
 40
0.1072959405890869
 40
0.1072959405890869
 40
0.1072959405890869
 40
0.2145809976874543
 40
0.2145809976874543
 40
0.2145809976874543
 40
0.3220292197269388
 40
0.3220292197269388
 40
0.3220292197269388
 40
0.4295891746725515
 40
0.4295891746725515
 40
0.4295891746725515
 40
0.4999990880364152
 40
0.4999990880364152
 40
0.4999990880364152
 40
0.6072957561454374
 40
0.6072957561454374
 40
0.6072957561454374
 40
0.714581607294642
 40
0.714581607294642
 40
0.714581607294642
 40
0.8220297667899717
 40
0.8220297667899717
 40
0.8220297667899717
 40
0.9295902754034193
 40
0.9295902754034193
 40
0.9295902754034193
 40
1.0
 40
1.0
 40
1.0
 40
1.0
 10
-14.94
 20
1.937873764674163
 30
0.0
 10
-14.97353265752824
 20
1.937873764674163
 30
0.0
 10
-15.00752756114835
 20
1.932688375120448
 30
0.0
 10
-15.03916783236912
 20
1.922726598132768
 30
0.0
 10
-15.07080627893944
 20
1.912765395626922
 30
0.0
 10
-15.1009625319049
 20
1.897753300277558
 30
0.0
 10
-15.12715355470523
 20
1.878870403891502
 30
0.0
 10
-15.15338376171437
 20
1.859959256934224
 30
0.0
 10
-15.17636043748134
 20
1.836641018438876
 30
0.0
 10
-15.19418757530491
 20
1.810765625079982
 30
0.0
 10
-15.21203214036617
 20
1.784864936767128
 30
0.0
 10
-15.22520889639877
 20
1.75568203550793
 30
0.0
 10
-15.23261864205401
 20
1.725585204465596
 30
0.0
 10
-15.23750878628587
 20
1.705722465369418
 30
0.0
 10
-15.24000000000152
 20
1.685168527151685
 30
0.0
 10
-15.24000000000154
 20
1.664673417523135
 30
0.0
 10
-15.24000000000158
 20
1.633693182789356
 30
0.0
 10
-15.23421747875675
 20
1.602129356946984
 30
0.0
 10
-15.22313543579635
 20
1.57262134463094
 30
0.0
 10
-15.21205402784232
 20
1.543115023138111
 30
0.0
 10
-15.19537016248623
 20
1.514853092394216
 30
0.0
 10
-15.17446387376129
 20
1.490224070545191
 30
0.0
 10
-15.15352646703155
 20
1.465558389582243
 30
0.0
 10
-15.12777691332421
 20
1.443859406789113
 30
0.0
 10
-15.09933793163028
 20
1.426990070218618
 30
0.0
 10
-15.07087099026274
 20
1.410104148625856
 30
0.0
 10
-15.03892140591728
 20
1.397595154652829
 30
0.0
 10
-15.00613830049652
 20
1.390558300529477
 30
0.0
 10
-14.98450289338078
 20
1.385914286430789
 30
0.0
 10
-14.96218360709464
 20
1.383546045167391
 30
0.0
 10
-14.94
 20
1.383546045167392
 30
0.0
  0
SPLINE
  5
101
330
1F
100
AcDbEntity
  8
SK1
  6
Continuous
100
AcDbSpline
210
0.0
220
0.0
230
1.0
 70
     8
 71
     3
 72
    35
 73
    31
 74
     0
 42
0.0000000109735307
 43
0.0000000001
 12
1.0
 22
0.0
 32
0.0
 13
1.0
 23
0.0
 33
0.0
 40
0.0
 40
0.0
 40
0.0
 40
0.0
 40
0.1083809555137254
 40
0.1083809555137254
 40
0.1083809555137254
 40
0.2168085987594078
 40
0.2168085987594078
 40
0.2168085987594078
 40
0.3245574505209697
 40
0.3245574505209697
 40
0.3245574505209697
 40
0.4316412783502386
 40
0.4316412783502386
 40
0.4316412783502386
 40
0.5000267814991056
 40
0.5000267814991056
 40
0.5000267814991056
 40
0.606739503527997
 40
0.606739503527997
 40
0.606739503527997
 40
0.7134455115618222
 40
0.7134455115618222
 40
0.7134455115618222
 40
0.820260363676982
 40
0.820260363676982
 40
0.820260363676982
 40
0.9274726653059361
 40
0.9274726653059361
 40
0.9274726653059361
 40
1.0
 40
1.0
 40
1.0
 40
1.0
 10
-14.94
 20
1.977746131697323
 30
0.0
 10
-14.97364985298423
 20
1.97593400935604
 30
0.0
 10
-15.00780778093875
 20
1.979588801701257
 30
0.0
 10
-15.03964382933309
 20
1.988438389773877
 30
0.0
 10
-15.07148804235424
 20
1.997290247399021
 30
0.0
 10
-15.10188813902286
 20
2.011589145581247
 30
0.0
 10
-15.12825856758607
 20
2.030129560658753
 30
0.0
 10
-15.15446561268552
 20
2.048555104746287
 30
0.0
 10
-15.17741923774152
 20
2.071680378856977
 30
0.0
 10
-15.19516127112216
 20
2.097530595727752
 30
0.0
 10
-15.21279595322294
 20
2.123224401334604
 30
0.0
 10
-15.2257707679387
 20
2.152319210722985
 30
0.0
 10
-15.23298676094096
 20
2.182357684240197
 30
0.0
 10
-15.23763418764788
 20
2.201703823297622
 30
0.0
 10
-15.24
 20
2.221717972819653
 30
0.0
 10
-15.24
 20
2.24169586042421
 30
0.0
 10
-15.24
 20
2.272610321446592
 30
0.0
 10
-15.23424132652924
 20
2.304145036425861
 30
0.0
 10
-15.22320872080229
 20
2.333705070298414
 30
0.0
 10
-15.21217649494526
 20
2.363264086372655
 30
0.0
 10
-15.19556752639267
 20
2.39166407225347
 30
0.0
 10
-15.17477801337869
 20
2.416609566491036
 30
0.0
 10
-15.15396640465021
 20
2.441581573543906
 30
0.0
 10
-15.12839648965259
 20
2.463779605174377
 30
0.0
 10
-15.10020581387841
 20
2.481453333605545
 30
0.0
 10
-15.07190947358233
 20
2.499193306850422
 30
0.0
 10
-15.04020284042286
 20
2.512863981329951
 30
0.0
 10
-15.00770515718601
 20
2.521426192586022
 30
0.0
 10
-14.98555255625486
 20
2.527262770155615
 30
0.0
 10
-14.96269507877483
 20
2.53085166876828
 30
0.0
 10
-14.94
 20
2.532073851204095
 30
0.0
  0
LINE
  5
102
330
1F
100
AcDbEntity
  8
SK1
  6
Continuous
100
AcDbLine
 10
5.335
 20
-4.6622905217
 30
0.0
 11
3.76
 21
-4.6622905217
 31
0.0
  0
LINE
  5
103
330
1F
100
AcDbEntity
  8
SK3
100
AcDbLine
 10
5.335
 20
-2.2536330801
 30
0.0
 11
-11.24
 21
-2.2536330801
 31
0.0
  0
SPLINE
  5
104
330
1F
100
AcDbEntity
  8
SK3
100
AcDbSpline
210
0.0
220
0.0
230
1.0
 70
     8
 71
     3
 72
    35
 73
    31
 74
     0
 42
0.0000000122853293
 43
0.0000000001
 12
1.0
 22
0.0
 32
0.0
 13
1.0
 23
0.0
 33
0.0
 40
0.0
 40
0.0
 40
0.0
 40
0.0
 40
0.107200900649627
 40
0.107200900649627
 40
0.107200900649627
 40
0.2143849962190146
 40
0.2143849962190146
 40
0.2143849962190146
 40
0.3218209950552758
 40
0.3218209950552758
 40
0.3218209950552758
 40
0.4294300379237302
 40
0.4294300379237302
 40
0.4294300379237302
 40
0.4999986211060238
 40
0.4999986211060238
 40
0.4999986211060238
 40
0.6072009142856295
 40
0.6072009142856295
 40
0.6072009142856295
 40
0.7143865608466702
 40
0.7143865608466702
 40
0.7143865608466702
 40
0.8218220687425026
 40
0.8218220687425026
 40
0.8218220687425026
 40
0.9294320859235009
 40
0.9294320859235009
 40
0.9294320859235009
 40
1.0
 40
1.0
 40
1.0
 40
1.0
 10
5.334999999999997
 20
-2.677897148808963
 30
0.0
 10
5.368508406018075
 20
-2.677897148808967
 30
0.0
 10
5.402478621223461
 20
-2.674174325048305
 30
0.0
 10
5.434094850257679
 20
-2.666985662746531
 30
0.0
 10
5.46570826110607
 20
-2.659797641222829
 30
0.0
 10
5.495839340075408
 20
-2.648943165584533
 30
0.0
 10
5.52201485069758
 20
-2.635178177847058
 30
0.0
 10
5.548250880355599
 20
-2.621381364797811
 30
0.0
 10
5.571236818963661
 20
-2.60427259276666
 30
0.0
 10
5.589079571104993
 20
-2.58509261660779
 30
0.0
 10
5.606949342598207
 20
-2.565883596133292
 30
0.0
 10
5.620152637340494
 20
-2.54405710011167
 30
0.0
 10
5.627583669854566
 20
-2.521305678840093
 30
0.0
 10
5.632496617480484
 20
-2.506263820133276
 30
0.0
 10
5.634999999999998
 20
-2.490596889076679
 30
0.0
 10
5.634999999999998
 20
-2.474873247418332
 30
0.0
 10
5.634999999999998
 20
-2.451179046048756
 30
0.0
 10
5.629225413629056
 20
-2.426799353537781
 30
0.0
 10
5.618160825937026
 20
-2.403809882291673
 30
0.0
 10
5.607097214799003
 20
-2.380822440082784
 30
0.0
 10
5.590442610554958
 20
-2.358596533562431
 30
0.0
 10
5.569573818337763
 20
-2.339097155489742
 30
0.0
 10
5.54865715713844
 20
-2.319553049606707
 30
0.0
 10
5.522930580740326
 20
-2.302216533950282
 30
0.0
 10
5.494509662738165
 20
-2.288681704615278
 30
0.0
 10
5.466045329581327
 20
-2.275126199779607
 30
0.0
 10
5.434089045056409
 20
-2.265017844484182
 30
0.0
 10
5.401292261205688
 20
-2.259322585278335
 30
0.0
 10
5.379609418901603
 20
-2.255557295126613
 30
0.0
 10
5.357236255396299
 20
-2.253633080097046
 30
0.0
 10
5.334999999999997
 20
-2.253633080097042
 30
0.0
  0
SPLINE
  5
105
330
1F
100
AcDbEntity
  8
SK1
  6
Continuous
100
AcDbSpline
210
0.0
220
0.0
230
1.0
 70
     8
 71
     3
 72
    35
 73
    31
 74
     0
 42
0.0000000122865698
 43
0.0000000001
 12
1.0
 22
0.0
 32
0.0
 13
1.0
 23
0.0
 33
0.0
 40
0.0
 40
0.0
 40
0.0
 40
0.0
 40
0.1074010079751702
 40
0.1074010079751702
 40
0.1074010079751702
 40
0.2147976884317911
 40
0.2147976884317911
 40
0.2147976884317911
 40
0.3222592573584538
 40
0.3222592573584538
 40
0.3222592573584538
 40
0.4297651060668603
 40
0.4297651060668603
 40
0.4297651060668603
 40
0.4999996290832305
 40
0.4999996290832305
 40
0.4999996290832305
 40
0.6074008495563803
 40
0.6074008495563803
 40
0.6074008495563803
 40
0.7147977530414024
 40
0.7147977530414024
 40
0.7147977530414024
 40
0.8222594095406605
 40
0.8222594095406605
 40
0.8222594095406605
 40
0.9297654435310512
 40
0.9297654435310512
 40
0.9297654435310512
 40
1.0
 40
1.0
 40
1.0
 40
1.0
 10
5.334999999999997
 20
-4.662290521691044
 30
0.0
 10
5.368559465580101
 20
-4.662290521691038
 30
0.0
 10
5.402581661123618
 20
-4.666568424742112
 30
0.0
 10
5.434248502942725
 20
-4.674740650640711
 30
0.0
 10
5.465914619456991
 20
-4.682912689360712
 30
0.0
 10
5.496098695381691
 20
-4.695201092060754
 30
0.0
 10
5.522306832279653
 20
-4.710516825224316
 30
0.0
 10
5.548530545289458
 20
-4.725841660888131
 30
0.0
 10
5.571496919577382
 20
-4.744616040217886
 30
0.0
 10
5.58930675536545
 20
-4.765203725902929
 30
0.0
 10
5.60712348928594
 20
-4.785799385641401
 30
0.0
 10
5.620270947374537
 20
-4.808774924720252
 30
0.0
 10
5.627657195833252
 20
-4.832166955931393
 30
0.0
 10
5.632522195943433
 20
-4.847574267918749
 30
0.0
 10
5.63500000000144
 20
-4.863391314998075
 30
0.0
 10
5.635000000001464
 20
-4.879036303452414
 30
0.0
 10
5.6350000000015
 20
-4.902766441088763
 30
0.0
 10
5.629208677262059
 20
-4.926641142468213
 30
0.0
 10
5.618107266276596
 20
-4.948710879599484
 30
0.0
 10
5.607006108914543
 20
-4.970780112524388
 30
0.0
 10
5.590289759620719
 20
-4.991655585221615
 30
0.0
 10
5.56934187164766
 20
-5.009684289607686
 30
0.0
 10
5.548381559124467
 20
-5.027723687126247
 30
0.0
 10
5.522606703585174
 20
-5.04341448323513
 30
0.0
 10
5.494147913513103
 20
-5.055543464713544
 30
0.0
 10
5.46567807558713
 20
-5.067677154727177
 30
0.0
 10
5.433735887336574
 20
-5.076584503224116
 30
0.0
 10
5.40096784774724
 20
-5.081585642731233
 30
0.0
 10
5.37938499427092
 20
-5.084879671380779
 30
0.0
 10
5.357125332677813
 20
-5.086554590402963
 30
0.0
 10
5.334999999999997
 20
-5.086554590402968
 30
0.0
  0
LINE
  5
106
330
1F
100
AcDbEntity
  8
SK3
100
AcDbLine
 10
5.335
 20
-2.6778971488
 30
0.0
 11
-11.24
 21
-2.6778971488
 31
0.0
  0
LINE
  5
107
330
1F
100
AcDbEntity
  8
SK1
  6
Continuous
100
AcDbLine
 10
5.335
 20
-5.0865545904
 30
0.0
 11
3.76
 21
-5.0865545904
 31
0.0
  0
LINE
  5
108
330
1F
100
AcDbEntity
  8
SK1
  6
Continuous
100
AcDbLine
 10
5.335
 20
-5.0865545904
 30
0.0
 11
5.335
 21
-4.6622905217
 31
0.0
  0
ARC
  5
109
330
1F
100
AcDbEntity
  8
SK1
  6
Continuous
100
AcDbCircle
 10
5.335
 20
0.0000004867
 30
0.0
 40
0.2999999999999999
100
AcDbArc
 50
269.9999999999
 51
90.0000000001
  0
LINE
  5
10A
330
1F
100
AcDbEntity
  8
SK1
  6
Continuous
100
AcDbLine
 10
5.335
 20
4.6622914952
 30
0.0
 11
5.335
 21
5.0865555639
 31
0.0
  0
SPLINE
  5
10B
330
1F
100
AcDbEntity
  8
SK1
  6
Continuous
100
AcDbSpline
210
0.0
220
0.0
230
1.0
 70
     8
 71
     3
 72
    35
 73
    31
 74
     0
 42
0.0000000122868924
 43
0.0000000001
 12
1.0
 22
0.0
 32
0.0
 13
1.0
 23
0.0
 33
0.0
 40
0.0
 40
0.0
 40
0.0
 40
0.0
 40
0.1074010079751722
 40
0.1074010079751722
 40
0.1074010079751722
 40
0.2147976884317931
 40
0.2147976884317931
 40
0.2147976884317931
 40
0.3222592573584558
 40
0.3222592573584558
 40
0.3222592573584558
 40
0.4297651060668611
 40
0.4297651060668611
 40
0.4297651060668611
 40
0.4999996290832321
 40
0.4999996290832321
 40
0.4999996290832321
 40
0.6074008495563818
 40
0.6074008495563818
 40
0.6074008495563818
 40
0.7147977530414048
 40
0.7147977530414048
 40
0.7147977530414048
 40
0.8222594095406616
 40
0.8222594095406616
 40
0.8222594095406616
 40
0.9297654435310527
 40
0.9297654435310527
 40
0.9297654435310527
 40
1.0
 40
1.0
 40
1.0
 40
1.0
 10
5.334999999999997
 20
5.086555563872174
 30
0.0
 10
5.368559465580101
 20
5.086555563872169
 30
0.0
 10
5.402581661123618
 20
5.082643307482368
 30
0.0
 10
5.434248502942725
 20
5.075115785772793
 30
0.0
 10
5.465914619456991
 20
5.067588436475359
 30
0.0
 10
5.496098695381691
 20
5.056236384532277
 30
0.0
 10
5.522306832279653
 20
5.041927365789461
 30
0.0
 10
5.548530545289458
 20
5.027609842860438
 30
0.0
 10
5.571496919577382
 20
5.00993305585108
 30
0.0
 10
5.58930675536545
 20
4.990273907286031
 30
0.0
 10
5.60712348928594
 20
4.970607144309951
 30
0.0
 10
5.620270947374537
 20
4.948409613342369
 30
0.0
 10
5.627657195833252
 20
4.925460648591493
 30
0.0
 10
5.632522195943433
 20
4.910345165181263
 30
0.0
 10
5.63500000000144
 20
4.894682265376424
 30
0.0
 10
5.635000000001464
 20
4.879037276922086
 30
0.0
 10
5.6350000000015
 20
4.855307139285739
 30
0.0
 10
5.629208677262059
 20
4.831067165527699
 30
0.0
 10
5.618107266276594
 20
4.808353199745198
 30
0.0
 10
5.607006108914542
 20
4.785639752887143
 30
0.0
 10
5.590289759620719
 20
4.763828467749183
 30
0.0
 10
5.569341871647659
 20
4.744793257940192
 30
0.0
 10
5.548381559124467
 20
4.725746758023155
 30
0.0
 10
5.522606703585172
 20
4.708958233590731
 30
0.0
 10
5.494147913513103
 20
4.695900331809726
 30
0.0
 10
5.46567807558713
 20
4.682837360881693
 30
0.0
 10
5.433735887336574
 20
4.673151403901964
 30
0.0
 10
5.40096784774724
 20
4.66770681948744
 30
0.0
 10
5.37938499427092
 20
4.664120713356867
 30
0.0
 10
5.357125332677813
 20
4.662291495160241
 30
0.0
 10
5.334999999999997
 20
4.662291495160247
 30
0.0
  0
SPLINE
  5
10C
330
1F
100
AcDbEntity
  8
SK3
100
AcDbSpline
210
0.0
220
0.0
230
1.0
 70
     8
 71
     3
 72
    35
 73
    31
 74
     0
 42
0.0000000122847089
 43
0.0000000001
 12
1.0
 22
0.0
 32
0.0
 13
1.0
 23
0.0
 33
0.0
 40
0.0
 40
0.0
 40
0.0
 40
0.0
 40
0.1072009006496265
 40
0.1072009006496265
 40
0.1072009006496265
 40
0.2143849962190155
 40
0.2143849962190155
 40
0.2143849962190155
 40
0.3218209950552763
 40
0.3218209950552763
 40
0.3218209950552763
 40
0.4294300379237314
 40
0.4294300379237314
 40
0.4294300379237314
 40
0.4999986211060241
 40
0.4999986211060241
 40
0.4999986211060241
 40
0.6072009142856292
 40
0.6072009142856292
 40
0.6072009142856292
 40
0.7143865608466707
 40
0.7143865608466707
 40
0.7143865608466707
 40
0.8218220687425024
 40
0.8218220687425024
 40
0.8218220687425024
 40
0.9294320859234995
 40
0.9294320859234995
 40
0.9294320859234995
 40
1.0
 40
1.0
 40
1.0
 40
1.0
 10
5.334999999999996
 20
2.253634053566259
 30
0.0
 10
5.368508406018073
 20
2.253634053566264
 30
0.0
 10
5.402478621223459
 20
2.258077611936843
 30
0.0
 10
5.434094850257678
 20
2.266536363017179
 30
0.0
 10
5.465708261106069
 20
2.27499436010714
 30
0.0
 10
5.495839340075408
 20
2.287692551369993
 30
0.0
 10
5.52201485069758
 20
2.303439959725778
 30
0.0
 10
5.548250880355599
 20
2.319223776844872
 30
0.0
 10
5.571236818963661
 20
2.33849811849878
 30
0.0
 10
5.589079571104993
 20
2.3595118020395
 30
0.0
 10
5.606949342598205
 20
2.380557306686368
 30
0.0
 10
5.620152637340492
 20
2.403923739052073
 30
0.0
 10
5.627583669854566
 20
2.427553826917941
 30
0.0
 10
5.632496617480482
 20
2.443176606640812
 30
0.0
 10
5.634999999999998
 20
2.459150579229206
 30
0.0
 10
5.634999999999998
 20
2.474874220887553
 30
0.0
 10
5.634999999999998
 20
2.498568422257129
 30
0.0
 10
5.629225413629056
 20
2.522230242429054
 30
0.0
 10
5.618160825937028
 20
2.543953259441287
 30
0.0
 10
5.607097214799003
 20
2.565674359192809
 30
0.0
 10
5.590442610554958
 20
2.586060660342858
 30
0.0
 10
5.569573818337763
 20
2.603579219967149
 30
0.0
 10
5.54865715713844
 20
2.621137963786518
 30
0.0
 10
5.522930580740327
 20
2.636307909886162
 30
0.0
 10
5.494509662738166
 20
2.648006118714676
 30
0.0
 10
5.466045329581329
 20
2.659722197463707
 30
0.0
 10
5.434089045056411
 20
2.668285997448716
 30
0.0
 10
5.401292261205689
 20
2.673099672374804
 30
0.0
 10
5.379609418901605
 20
2.676282123276105
 30
0.0
 10
5.357236255396303
 20
2.677898122278191
 30
0.0
 10
5.334999999999996
 20
2.677898122278188
 30
0.0
  0
ARC
  5
10D
330
1F
100
AcDbEntity
  8
SK1
  6
Continuous
100
AcDbCircle
 10
5.3348937106
 20
13.7983626648
 30
0.0
 40
6.904887003045513
100
AcDbArc
 50
270.0008819747
 51
272.4910243942
  0
ARC
  5
10E
330
1F
100
AcDbEntity
  8
SK3
100
AcDbCircle
 10
5.3345854273
 20
6.9967752054
 30
0.0
 40
3.509655588353552
100
AcDbArc
 50
270.0067679771
 51
274.9103323584
  0
ARC
  5
10F
330
1F
100
AcDbEntity
  8
SK3
100
AcDbCircle
 10
5.3345854273
 20
-6.996774232
 30
0.0
 40
3.509655588353744
100
AcDbArc
 50
85.0896676415
 51
89.9932320229
  0
ARC
  5
110
330
1F
100
AcDbEntity
  8
SK1
  6
Continuous
100
AcDbCircle
 10
5.3348937106
 20
-13.7983616913
 30
0.0
 40
6.90488700304591
100
AcDbArc
 50
87.5089756058
 51
89.9991180253
  0
LINE
  5
111
330
1F
100
AcDbEntity
  8
SK1
  6
Continuous
100
AcDbLine
 10
5.335
 20
-6.8934746891
 30
0.0
 11
3.76
 21
-6.8934746891
 31
0.0
  0
LINE
  5
112
330
1F
100
AcDbEntity
  8
SK3
100
AcDbLine
 10
5.335
 20
-3.4871186681
 30
0.0
 11
-11.24
 21
-3.4871186681
 31
0.0
  0
LINE
  5
113
330
1F
100
AcDbEntity
  8
SK3
100
AcDbLine
 10
-14.94
 20
-1.3835450717
 30
0.0
 11
-11.24
 21
-1.3835450717
 31
0.0
  0
SPLINE
  5
114
330
1F
100
AcDbEntity
  8
SK1
  6
Continuous
100
AcDbSpline
210
0.0
220
0.0
230
1.0
 70
     8
 71
     3
 72
    14
 73
    10
 74
     0
 42
0.0000000005397591
 43
0.0000000001
 12
1.0
 22
0.0
 32
0.0
 13
1.0
 23
0.0
 33
0.0
 40
0.0
 40
0.0
 40
0.0
 40
0.0
 40
0.1122596000138738
 40
0.1122596000138738
 40
0.1122596000138738
 40
0.6941423261189223
 40
0.6941423261189223
 40
0.6941423261189223
 40
1.0
 40
1.0
 40
1.0
 40
1.0
 10
-14.94
 20
-1.977745158228073
 30
0.0
 10
-14.24773779053829
 20
-2.015025077887133
 30
0.0
 10
-13.55547472107556
 20
-2.052302658904716
 30
0.0
 10
-12.86321090814714
 20
-2.089578217817384
 30
0.0
 10
-9.274953383474056
 20
-2.282791126331215
 30
0.0
 10
-5.686676608529157
 20
-2.475951680455872
 30
0.0
 10
-2.098390081817291
 20
-2.669085694647809
 30
0.0
 10
-0.2122626528020827
 20
-2.770603608262425
 30
0.0
 10
1.673867618024592
 20
-2.87211378983885
 30
0.0
 10
3.559999999999996
 20
-2.973618226184202
 30
0.0
  0
SPLINE
  5
115
330
1F
100
AcDbEntity
  8
SK3
100
AcDbSpline
210
0.0
220
0.0
230
1.0
 70
     8
 71
     3
 72
    35
 73
    31
 74
     0
 42
0.0000000109782049
 43
0.0000000001
 12
1.0
 22
0.0
 32
0.0
 13
1.0
 23
0.0
 33
0.0
 40
0.0
 40
0.0
 40
0.0
 40
0.0
 40
0.1072959405890866
 40
0.1072959405890866
 40
0.1072959405890866
 40
0.2145809976874539
 40
0.2145809976874539
 40
0.2145809976874539
 40
0.3220292197269384
 40
0.3220292197269384
 40
0.3220292197269384
 40
0.4295891746725515
 40
0.4295891746725515
 40
0.4295891746725515
 40
0.4999990880364124
 40
0.4999990880364124
 40
0.4999990880364124
 40
0.6072957561454331
 40
0.6072957561454331
 40
0.6072957561454331
 40
0.7145816072946375
 40
0.7145816072946375
 40
0.7145816072946375
 40
0.8220297667899675
 40
0.8220297667899675
 40
0.8220297667899675
 40
0.9295902754034151
 40
0.9295902754034151
 40
0.9295902754034151
 40
1.0
 40
1.0
 40
1.0
 40
1.0
 10
-14.94
 20
-1.383545071698137
 30
0.0
 10
-14.97353265752824
 20
-1.383545071698138
 30
0.0
 10
-15.00752756114835
 20
-1.389044324448826
 30
0.0
 10
-15.03916783236912
 20
-1.399559341117711
 30
0.0
 10
-15.07080627893944
 20
-1.4100737514002
 30
0.0
 10
-15.1009625319049
 20
-1.425889145078461
 30
0.0
 10
-15.12715355470523
 20
-1.445635741050486
 30
0.0
 10
-15.15338376171437
 20
-1.465411879768735
 30
0.0
 10
-15.17636043748134
 20
-1.489672744801089
 30
0.0
 10
-15.19418757530491
 20
-1.516345963610222
 30
0.0
 10
-15.21203214036617
 20
-1.543045257301865
 30
0.0
 10
-15.22520889639877
 20
-1.572897443649973
 30
0.0
 10
-15.23261864205401
 20
-1.603375811019349
 30
0.0
 10
-15.23750878628587
 20
-1.623490349267042
 30
0.0
 10
-15.24000000000152
 20
-1.644177334424683
 30
0.0
 10
-15.24000000000154
 20
-1.664672444053234
 30
0.0
 10
-15.24000000000158
 20
-1.695652678787014
 30
0.0
 10
-15.23421747875675
 20
-1.726903449030412
 30
0.0
 10
-15.22313543579635
 20
-1.755859247439416
 30
0.0
 10
-15.21205402784232
 20
-1.784813386667327
 30
0.0
 10
-15.19537016248623
 20
-1.81227317966686
 30
0.0
 10
-15.17446387376129
 20
-1.836038953469099
 30
0.0
 10
-15.15352646703155
 20
-1.859840101482083
 30
0.0
 10
-15.12777691332421
 20
-1.880596170221721
 30
0.0
 10
-15.09933793163028
 20
-1.896666857078096
 30
0.0
 10
-15.07087099026274
 20
-1.912753343767394
 30
0.0
 10
-15.03892140591727
 20
-1.924591753105011
 30
0.0
 10
-15.00613830049652
 20
-1.931246250833632
 30
0.0
 10
-14.98450289338078
 20
-1.935637926535541
 30
0.0
 10
-14.96218360709464
 20
-1.937872791204909
 30
0.0
 10
-14.94
 20
-1.937872791204909
 30
0.0
  0
SPLINE
  5
116
330
1F
100
AcDbEntity
  8
SK1
  6
Continuous
100
AcDbSpline
210
0.0
220
0.0
230
1.0
 70
     8
 71
     3
 72
    35
 73
    31
 74
     0
 42
0.0000000109737232
 43
0.0000000001
 12
1.0
 22
0.0
 32
0.0
 13
1.0
 23
0.0
 33
0.0
 40
0.0
 40
0.0
 40
0.0
 40
0.0
 40
0.1083809555137258
 40
0.1083809555137258
 40
0.1083809555137258
 40
0.2168085987594087
 40
0.2168085987594087
 40
0.2168085987594087
 40
0.3245574505209699
 40
0.3245574505209699
 40
0.3245574505209699
 40
0.4316412783502397
 40
0.4316412783502397
 40
0.4316412783502397
 40
0.5000267814991082
 40
0.5000267814991082
 40
0.5000267814991082
 40
0.6067395035279994
 40
0.6067395035279994
 40
0.6067395035279994
 40
0.7134455115618237
 40
0.7134455115618237
 40
0.7134455115618237
 40
0.820260363676982
 40
0.820260363676982
 40
0.820260363676982
 40
0.9274726653059361
 40
0.9274726653059361
 40
0.9274726653059361
 40
1.0
 40
1.0
 40
1.0
 40
1.0
 10
-14.94
 20
-2.532072877734846
 30
0.0
 10
-14.97364985298422
 20
-2.530260755393563
 30
0.0
 10
-15.00780778093875
 20
-2.523159848837446
 30
0.0
 10
-15.03964382933309
 20
-2.511294815999221
 30
0.0
 10
-15.07148804235424
 20
-2.49942674027188
 30
0.0
 10
-15.10188813902285
 20
-2.482456355817185
 30
0.0
 10
-15.12825856758607
 20
-2.46172457134097
 30
0.0
 10
-15.15446561268551
 20
-2.441121234938693
 30
0.0
 10
-15.17741923774151
 20
-2.416226753791131
 30
0.0
 10
-15.19516127112215
 20
-2.389058491764346
 30
0.0
 10
-15.21279595322294
 20
-2.362054616064508
 30
0.0
 10
-15.2257707679387
 20
-2.332054303242316
 30
0.0
 10
-15.23298676094096
 20
-2.301515796325946
 30
0.0
 10
-15.23763418764788
 20
-2.281847613085152
 30
0.0
 10
-15.24
 20
-2.261672774559518
 30
0.0
 10
-15.24
 20
-2.241694886954961
 30
0.0
 10
-15.24
 20
-2.210780425932578
 30
0.0
 10
-15.23424132652923
 20
-2.179633572414759
 30
0.0
 10
-15.22320872080229
 20
-2.150852297730454
 30
0.0
 10
-15.21217649494526
 20
-2.122072014030563
 30
0.0
 10
-15.19556752639267
 20
-2.094866358383534
 30
0.0
 10
-15.17477801337869
 20
-2.071521175169044
 30
0.0
 10
-15.15396640465021
 20
-2.048151179997536
 30
0.0
 10
-15.12839648965259
 20
-2.028010889434217
 30
0.0
 10
-15.10020581387841
 20
-2.012783663526688
 30
0.0
 10
-15.07190947358233
 20
-1.997499362806253
 30
0.0
 10
-15.04020284042286
 20
-1.986747342152836
 30
0.0
 10
-15.00770515718601
 20
-1.981398825727298
 30
0.0
 10
-14.98555255625486
 20
-1.977752918137975
 30
0.0
 10
-14.96269507877483
 20
-1.97652297579226
 30
0.0
 10
-14.94
 20
-1.977745158228073
 30
0.0
  0
SPLINE
  5
117
330
1F
100
AcDbEntity
  8
SK1
  6
Continuous
100
AcDbSpline
210
0.0
220
0.0
230
1.0
 70
     8
 71
     3
 72
    14
 73
    10
 74
     0
 42
0.0000000005397591
 43
0.0000000001
 12
1.0
 22
0.0
 32
0.0
 13
1.0
 23
0.0
 33
0.0
 40
0.0
 40
0.0
 40
0.0
 40
0.0
 40
0.1122596000138738
 40
0.1122596000138738
 40
0.1122596000138738
 40
0.6941423261189223
 40
0.6941423261189223
 40
0.6941423261189223
 40
1.0
 40
1.0
 40
1.0
 40
1.0
 10
-14.94
 20
-2.532072877734846
 30
0.0
 10
-14.24773779053829
 20
-2.569352797393905
 30
0.0
 10
-13.55547472107556
 20
-2.606630378411488
 30
0.0
 10
-12.86321090814714
 20
-2.643905937324155
 30
0.0
 10
-9.274953383474056
 20
-2.837118845837988
 30
0.0
 10
-5.686676608529157
 20
-3.030279399962644
 30
0.0
 10
-2.098390081817291
 20
-3.223413414154581
 30
0.0
 10
-0.2122626528020827
 20
-3.324931327769197
 30
0.0
 10
1.673867618024592
 20
-3.426441509345622
 30
0.0
 10
3.559999999999996
 20
-3.527945945690974
 30
0.0
  0
LINE
  5
118
330
1F
100
AcDbEntity
  8
SK3
100
AcDbLine
 10
-14.94
 20
-1.9378727912
 30
0.0
 11
-11.24
 21
-1.9378727912
 31
0.0
  0
LINE
  5
119
330
1F
100
AcDbEntity
  8
SK1
  6
Continuous
100
AcDbLine
 10
-14.94
 20
-1.9777451582
 30
0.0
 11
-14.94
 21
-2.5320728777
 31
0.0
  0
SPLINE
  5
11A
330
1F
100
AcDbEntity
  8
SK1
  6
Continuous
100
AcDbSpline
210
0.0
220
0.0
230
1.0
 70
     8
 71
     3
 72
    35
 73
    31
 74
     0
 42
0.0000000144871131
 43
0.0000000001
 12
1.0
 22
0.0
 32
0.0
 13
1.0
 23
0.0
 33
0.0
 40
0.0
 40
0.0
 40
0.0
 40
0.0
 40
0.1083809555138598
 40
0.1083809555138598
 40
0.1083809555138598
 40
0.2168085987596702
 40
0.2168085987596702
 40
0.2168085987596702
 40
0.3245574505213822
 40
0.3245574505213822
 40
0.3245574505213822
 40
0.4316412783507999
 40
0.4316412783507999
 40
0.4316412783507999
 40
0.5000267814997653
 40
0.5000267814997653
 40
0.5000267814997653
 40
0.6067395035288032
 40
0.6067395035288032
 40
0.6067395035288032
 40
0.7134455115627738
 40
0.7134455115627738
 40
0.7134455115627738
 40
0.8202603636780775
 40
0.8202603636780775
 40
0.8202603636780775
 40
0.9274726653071859
 40
0.9274726653071859
 40
0.9274726653071859
 40
1.0
 40
1.0
 40
1.0
 40
1.0
 10
-14.94000000000002
 20
-5.558637651184491
 30
0.0
 10
-14.97364985298422
 20
-5.554262800851329
 30
0.0
 10
-15.00780778093876
 20
-5.5478753948399
 30
0.0
 10
-15.0396438293331
 20
-5.539945292554701
 30
0.0
 10
-15.07148804235424
 20
-5.53201315652697
 30
0.0
 10
-15.10188813902285
 20
-5.522312306854682
 30
0.0
 10
-15.12825856758606
 20
-5.511533551153733
 30
0.0
 10
-15.15446561268551
 20
-5.50082157747103
 30
0.0
 10
-15.17741923774151
 20
-5.488740738714597
 30
0.0
 10
-15.19516127112215
 20
-5.476169230960985
 30
0.0
 10
-15.21279595322293
 20
-5.46367378931649
 30
0.0
 10
-15.22577076793869
 20
-5.450341749436293
 30
0.0
 10
-15.23298676094095
 20
-5.43719225229775
 30
0.0
 10
-15.23763418764787
 20
-5.428723379868805
 30
0.0
 10
-15.24
 20
-5.420205999129196
 30
0.0
 10
-15.24
 20
-5.411930887135822
 30
0.0
 10
-15.24
 20
-5.399125698106898
 30
0.0
 10
-15.23424132652923
 20
-5.38661211041602
 30
0.0
 10
-15.22320872080229
 20
-5.375469275287642
 30
0.0
 10
-15.21217649494526
 20
-5.364326823824552
 30
0.0
 10
-15.19556752639267
 20
-5.354252202516088
 30
0.0
 10
-15.17477801337869
 20
-5.346182622035638
 30
0.0
 10
-15.15396640465022
 20
-5.338104464964369
 30
0.0
 10
-15.12839648965259
 20
-5.331819824530059
 30
0.0
 10
-15.10020581387841
 20
-5.327959003565479
 30
0.0
 10
-15.07190947358233
 20
-5.324083711440129
 30
0.0
 10
-15.04020284042286
 20
-5.32254873248868
 30
0.0
 10
-15.007705157186
 20
-5.323546999277181
 30
0.0
 10
-14.98555255625486
 20
-5.324227484886794
 30
0.0
 10
-14.96269507877484
 20
-5.326076982353212
 30
0.0
 10
-14.94000000000126
 20
-5.329027591765284
 30
0.0
  0
SPLINE
  5
11B
330
1F
100
AcDbEntity
  8
SK3
100
AcDbSpline
210
0.0
220
0.0
230
1.0
 70
     8
 71
     3
 72
    35
 73
    31
 74
     0
 42
0.0000000145448894
 43
0.0000000001
 12
1.0
 22
0.0
 32
0.0
 13
1.0
 23
0.0
 33
0.0
 40
0.0
 40
0.0
 40
0.0
 40
0.0
 40
0.1072959405890865
 40
0.1072959405890865
 40
0.1072959405890865
 40
0.2145809976874535
 40
0.2145809976874535
 40
0.2145809976874535
 40
0.3220292197269374
 40
0.3220292197269374
 40
0.3220292197269374
 40
0.4295891746725504
 40
0.4295891746725504
 40
0.4295891746725504
 40
0.4999990880364116
 40
0.4999990880364116
 40
0.4999990880364116
 40
0.6072957561454339
 40
0.6072957561454339
 40
0.6072957561454339
 40
0.71458160729464
 40
0.71458160729464
 40
0.71458160729464
 40
0.822029766789971
 40
0.822029766789971
 40
0.822029766789971
 40
0.9295902754034149
 40
0.9295902754034149
 40
0.9295902754034149
 40
1.0
 40
1.0
 40
1.0
 40
1.0
 10
-14.94
 20
-3.894501684101607
 30
0.0
 10
-14.97353265752824
 20
-3.894501684101607
 30
0.0
 10
-15.00752756114835
 20
-3.897093412370833
 30
0.0
 10
-15.03916783236912
 20
-3.90200211456487
 30
0.0
 10
-15.07080627893944
 20
-3.906910533680874
 30
0.0
 10
-15.1009625319049
 20
-3.914264782565576
 30
0.0
 10
-15.12715355470523
 20
-3.923307790013859
 30
0.0
 10
-15.15338376171437
 20
-3.9323643266433
 30
0.0
 10
-15.17636043748134
 20
-3.943356132511611
 30
0.0
 10
-15.19418757530491
 20
-3.955202366944736
 30
0.0
 10
-15.21203214036617
 20
-3.967060181876387
 30
0.0
 10
-15.22520889639877
 20
-3.98009464741717
 30
0.0
 10
-15.23261864205401
 20
-3.993100736867598
 30
0.0
 10
-15.23750878628587
 20
-4.001684250562179
 30
0.0
 10
-15.24000000000152
 20
-4.010386127318993
 30
0.0
 10
-15.24000000000154
 20
-4.018875479689464
 30
0.0
 10
-15.24000000000158
 20
-4.031707913081699
 30
0.0
 10
-15.23421747875674
 20
-4.044339350352145
 30
0.0
 10
-15.22313543579635
 20
-4.055781020855456
 30
0.0
 10
-15.21205402784231
 20
-4.067222035745577
 30
0.0
 10
-15.19537016248623
 20
-4.077794116681577
 30
0.0
 10
-15.17446387376129
 20
-4.086774974463971
 30
0.0
 10
-15.15352646703155
 20
-4.095769199821033
 30
0.0
 10
-15.12777691332421
 20
-4.103423730941048
 30
0.0
 10
-15.09933793163028
 20
-4.109281777679488
 30
0.0
 10
-15.07087099026274
 20
-4.115145583733666
 30
0.0
 10
-15.03892140591727
 20
-4.11937862880282
 30
0.0
 10
-15.00613830049652
 20
-4.121752655618064
 30
0.0
 10
-14.98450289338078
 20
-4.12331940885856
 30
0.0
 10
-14.96218360709464
 20
-4.124111743520652
 30
0.0
 10
-14.94
 20
-4.124111743520652
 30
0.0
  0
LINE
  5
11C
330
1F
100
AcDbEntity
  8
SK1
  6
Continuous
100
AcDbLine
 10
-14.94
 20
-5.3290275918
 30
0.0
 11
-14.94
 21
-5.5586376512
 31
0.0
  0
LINE
  5
11D
330
1F
100
AcDbEntity
  8
SK3
100
AcDbLine
 10
-14.94
 20
4.124112717
 30
0.0
 11
-11.24
 21
4.124112717
 31
0.0
  0
SPLINE
  5
11E
330
1F
100
AcDbEntity
  8
SK1
  6
Continuous
100
AcDbSpline
210
0.0
220
0.0
230
1.0
 70
     8
 71
     3
 72
    14
 73
    10
 74
     0
 42
0.0000000005360328
 43
0.0000000001
 12
1.0
 22
0.0
 32
0.0
 13
1.0
 23
0.0
 33
0.0
 40
0.0
 40
0.0
 40
0.0
 40
0.0
 40
0.117409941455307
 40
0.117409941455307
 40
0.117409941455307
 40
0.700551076301213
 40
0.700551076301213
 40
0.700551076301213
 40
1.0
 40
1.0
 40
1.0
 40
1.0
 10
-14.94
 20
5.558638624653716
 30
0.0
 10
-14.21597759591744
 20
5.652769486297817
 30
0.0
 10
-13.49195425129899
 20
5.746894173248278
 30
0.0
 10
-12.7679300988895
 20
5.841013555991202
 30
0.0
 10
-9.171912074626453
 20
6.308477238866576
 30
0.0
 10
-5.575874842004626
 20
6.775814801607933
 30
0.0
 10
-1.979827878763059
 20
7.24308843008972
 30
0.0
 10
-0.1332210655967097
 20
7.483038206827235
 30
0.0
 10
1.713388454899397
 20
7.722970200070547
 30
0.0
 10
3.559999999999993
 20
7.962888891715505
 30
0.0
  0
LINE
  5
11F
330
1F
100
AcDbEntity
  8
SK1
  6
Continuous
100
AcDbLine
 10
-14.94
 20
5.5586386247
 30
0.0
 11
-14.94
 21
5.3290285652
 31
0.0
  0
SPLINE
  5
120
330
1F
100
AcDbEntity
  8
SK3
100
AcDbSpline
210
0.0
220
0.0
230
1.0
 70
     8
 71
     3
 72
    35
 73
    31
 74
     0
 42
0.0000000145461172
 43
0.0000000001
 12
1.0
 22
0.0
 32
0.0
 13
1.0
 23
0.0
 33
0.0
 40
0.0
 40
0.0
 40
0.0
 40
0.0
 40
0.1072959405890862
 40
0.1072959405890862
 40
0.1072959405890862
 40
0.2145809976874528
 40
0.2145809976874528
 40
0.2145809976874528
 40
0.3220292197269362
 40
0.3220292197269362
 40
0.3220292197269362
 40
0.4295891746725481
 40
0.4295891746725481
 40
0.4295891746725481
 40
0.499999088036411
 40
0.499999088036411
 40
0.499999088036411
 40
0.6072957561454329
 40
0.6072957561454329
 40
0.6072957561454329
 40
0.7145816072946372
 40
0.7145816072946372
 40
0.7145816072946372
 40
0.8220297667899673
 40
0.8220297667899673
 40
0.8220297667899673
 40
0.9295902754034151
 40
0.9295902754034151
 40
0.9295902754034151
 40
1.0
 40
1.0
 40
1.0
 40
1.0
 10
-14.94
 20
4.124112716989888
 30
0.0
 10
-14.97353265752824
 20
4.124112716989888
 30
0.0
 10
-15.00752756114835
 20
4.122278721507525
 30
0.0
 10
-15.03916783236912
 20
4.118705658055098
 30
0.0
 10
-15.07080627893944
 20
4.115132800656274
 30
0.0
 10
-15.1009625319049
 20
4.109717885491825
 30
0.0
 10
-15.12715355470523
 20
4.102760033297805
 30
0.0
 10
-15.15338376171437
 20
4.09579177150904
 30
0.0
 10
-15.17636043748134
 20
4.087075667410622
 30
0.0
 10
-15.19418757530491
 20
4.077155553999869
 30
0.0
 10
-15.21203214036617
 20
4.067225743004676
 30
0.0
 10
-15.22520889639877
 20
4.05580707460263
 30
0.0
 10
-15.23261864205401
 20
4.043722095327486
 30
0.0
 10
-15.23750878628587
 20
4.035746478559487
 30
0.0
 10
-15.24000000000152
 20
4.027365805529432
 30
0.0
 10
-15.24000000000154
 20
4.018876453158963
 30
0.0
 10
-15.24000000000158
 20
4.006044019766732
 30
0.0
 10
-15.23421747875675
 20
3.992656799423466
 30
0.0
 10
-15.22313543579635
 20
3.979881966616449
 30
0.0
 10
-15.21205402784232
 20
3.967107865813461
 30
0.0
 10
-15.19537016248623
 20
3.954599253056128
 30
0.0
 10
-15.17446387376129
 20
3.943534330131494
 30
0.0
 10
-15.15352646703155
 20
3.932452937601508
 30
0.0
 10
-15.12777691332421
 20
3.922522010585401
 30
0.0
 10
-15.09933793163028
 20
3.914735852875544
 30
0.0
 10
-15.07087099026274
 20
3.90694204023519
 30
0.0
 10
-15.03892140591728
 20
3.90109006064451
 30
0.0
 10
-15.00613830049652
 20
3.897792943835445
 30
0.0
 10
-14.98450289338078
 20
3.895616991815136
 30
0.0
 10
-14.96218360709464
 20
3.894502657570837
 30
0.0
 10
-14.94
 20
3.894502657570837
 30
0.0
  0
SPLINE
  5
121
330
1F
100
AcDbEntity
  8
SK1
  6
Continuous
100
AcDbSpline
210
0.0
220
0.0
230
1.0
 70
     8
 71
     3
 72
    35
 73
    31
 74
     0
 42
0.0000000144879543
 43
0.0000000001
 12
1.0
 22
0.0
 32
0.0
 13
1.0
 23
0.0
 33
0.0
 40
0.0
 40
0.0
 40
0.0
 40
0.0
 40
0.1083809555137259
 40
0.1083809555137259
 40
0.1083809555137259
 40
0.2168085987594089
 40
0.2168085987594089
 40
0.2168085987594089
 40
0.3245574505209701
 40
0.3245574505209701
 40
0.3245574505209701
 40
0.43164127835024
 40
0.43164127835024
 40
0.43164127835024
 40
0.5000267814991087
 40
0.5000267814991087
 40
0.5000267814991087
 40
0.6067395035279994
 40
0.6067395035279994
 40
0.6067395035279994
 40
0.7134455115618248
 40
0.7134455115618248
 40
0.7134455115618248
 40
0.8202603636769789
 40
0.8202603636769789
 40
0.8202603636769789
 40
0.9274726653059365
 40
0.9274726653059365
 40
0.9274726653059365
 40
1.0
 40
1.0
 40
1.0
 40
1.0
 10
-14.94
 20
5.329028565234666
 30
0.0
 10
-14.97364985298422
 20
5.324653714901662
 30
0.0
 10
-15.00780778093875
 20
5.322721465247806
 30
0.0
 10
-15.03964382933309
 20
5.323371639883295
 30
0.0
 10
-15.07148804235424
 20
5.324021981261629
 30
0.0
 10
-15.10188813902285
 20
5.32727329254323
 30
0.0
 10
-15.12825856758607
 20
5.332761614521653
 30
0.0
 10
-15.15446561268551
 20
5.338215932462068
 30
0.0
 10
-15.17741923774151
 20
5.346025527595439
 30
0.0
 10
-15.19516127112215
 20
5.355414992857588
 30
0.0
 10
-15.21279595322294
 20
5.364747645515937
 30
0.0
 10
-15.2257707679387
 20
5.375893606725456
 30
0.0
 10
-15.23298676094096
 20
5.38783591645011
 30
0.0
 10
-15.23763418764788
 20
5.395527305443884
 30
0.0
 10
-15.24
 20
5.40365674861167
 30
0.0
 10
-15.24
 20
5.411931860605042
 30
0.0
 10
-15.24
 20
5.424737049633968
 30
0.0
 10
-15.23424132652924
 20
5.438187017725399
 30
0.0
 10
-15.22320872080229
 20
5.451209943847867
 30
0.0
 10
-15.21217649494526
 20
5.46423242157057
 30
0.0
 10
-15.19556752639267
 20
5.477190411127395
 30
0.0
 10
-15.17477801337869
 20
5.489123484183771
 30
0.0
 10
-15.15396640465022
 20
5.501069240066109
 30
0.0
 10
-15.12839648965259
 20
5.512321706892587
 30
0.0
 10
-15.10020581387842
 20
5.522088907430114
 30
0.0
 10
-15.07190947358233
 20
5.531892717468721
 30
0.0
 10
-15.04020284042287
 20
5.540473950071042
 30
0.0
 10
-15.00770515718601
 20
5.547234228927745
 30
0.0
 10
-14.98555255625486
 20
5.551842488495181
 30
0.0
 10
-14.96269507877483
 20
5.55568801524148
 30
0.0
 10
-14.94
 20
5.558638624653716
 30
0.0
  0
SPLINE
  5
122
330
1F
100
AcDbEntity
  8
SK1
  6
Continuous
100
AcDbSpline
210
0.0
220
0.0
230
1.0
 70
     8
 71
     3
 72
    14
 73
    10
 74
     0
 42
0.0000000005360328
 43
0.0000000001
 12
1.0
 22
0.0
 32
0.0
 13
1.0
 23
0.0
 33
0.0
 40
0.0
 40
0.0
 40
0.0
 40
0.0
 40
0.1174099414553069
 40
0.1174099414553069
 40
0.1174099414553069
 40
0.7005510763012127
 40
0.7005510763012127
 40
0.7005510763012127
 40
1.0
 40
1.0
 40
1.0
 40
1.0
 10
-14.94
 20
5.329028565234666
 30
0.0
 10
-14.21597759591744
 20
5.423159426878767
 30
0.0
 10
-13.49195425129899
 20
5.517284113829225
 30
0.0
 10
-12.7679300988895
 20
5.611403496572149
 30
0.0
 10
-9.171912074626453
 20
6.078867179447524
 30
0.0
 10
-5.575874842004626
 20
6.54620474218888
 30
0.0
 10
-1.979827878763059
 20
7.013478370670667
 30
0.0
 10
-0.1332210655967097
 20
7.253428147408181
 30
0.0
 10
1.713388454899397
 20
7.493360140651492
 30
0.0
 10
3.559999999999993
 20
7.733278832296453
 30
0.0
  0
LINE
  5
123
330
1F
100
AcDbEntity
  8
SK3
100
AcDbLine
 10
-14.94
 20
3.8945026576
 30
0.0
 11
-11.24
 21
3.8945026576
 31
0.0
  0
SPLINE
  5
124
330
1F
100
AcDbEntity
  8
SK1
  6
Continuous
100
AcDbSpline
210
0.0
220
0.0
230
1.0
 70
     8
 71
     3
 72
    11
 73
     7
 74
     0
 42
0.0000000005397591
 43
0.0000000001
 12
1.0
 22
0.0
 32
0.0
 13
1.0
 23
0.0
 33
0.0
 40
0.0
 40
0.0
 40
0.0
 40
0.0
 40
0.5342618011559842
 40
0.5342618011559842
 40
0.5342618011559842
 40
1.0
 40
1.0
 40
1.0
 40
1.0
 10
-14.94
 20
1.977746131697323
 30
0.0
 10
-11.64541089902244
 20
2.155167367921618
 30
0.0
 10
-8.350802987695424
 20
2.332537452505784
 30
0.0
 10
-5.056185319883213
 20
2.509880986391047
 30
0.0
 10
-2.184130279488636
 20
2.66447870962695
 30
0.0
 10
0.6879324548932034
 20
2.81905550089201
 30
0.0
 10
3.559999999999994
 20
2.973619199653449
 30
0.0
  0
LINE
  5
125
330
1F
100
AcDbEntity
  8
SK3
100
AcDbLine
 10
-14.94
 20
1.3835460452
 30
0.0
 11
-11.24
 21
1.3835460452
 31
0.0
  0
ARC
  5
126
330
1F
100
AcDbEntity
  8
SK1
  6
Continuous
100
AcDbCircle
 10
10.01
 20
6.1712618427
 30
0.0
 40
0.2500000000000001
100
AcDbArc
 50
0.0
 51
60.0
  0
LINE
  5
127
330
1F
100
AcDbEntity
  8
SK1
  6
Continuous
100
AcDbLine
 10
10.135
 20
6.3877681936
 30
0.0
 11
6.26
 21
8.6250004867
 31
0.0
  0
ARC
  5
128
330
1F
100
AcDbEntity
  8
SK1
  6
Continuous
100
AcDbCircle
 10
6.06
 20
7.1000004867
 30
0.0
 40
0.2000000000000005
100
AcDbArc
 50
270.0
 51
0.0
  0
LINE
  5
129
330
1F
100
AcDbEntity
  8
SK3
100
AcDbLine
 10
10.26
 20
3.5000004867
 30
0.0
 11
5.635
 21
3.5000004867
 31
0.0
  0
LINE
  5
12A
330
1F
100
AcDbEntity
  8
SK1
  6
Continuous
100
AcDbLine
 10
6.06
 20
6.9000004867
 30
0.0
 11
5.635
 21
6.9000004867
 31
0.0
  0
ARC
  5
12B
330
1F
100
AcDbEntity
  8
SK1
  6
Continuous
100
AcDbCircle
 10
10.01
 20
-6.1712608692
 30
0.0
 40
0.2499999999999999
100
AcDbArc
 50
300.0
 51
0.0
  0
LINE
  5
12C
330
1F
100
AcDbEntity
  8
SK1
  6
Continuous
100
AcDbLine
 10
6.26
 20
-8.6249995133
 30
0.0
 11
10.135
 21
-6.3877672202
 31
0.0
  0
ARC
  5
12D
330
1F
100
AcDbEntity
  8
SK1
  6
Continuous
100
AcDbCircle
 10
6.06
 20
-7.0999995133
 30
0.0
 40
0.2000000000000004
100
AcDbArc
 50
0.0
 51
90.0
  0
LINE
  5
12E
330
1F
100
AcDbEntity
  8
SK3
100
AcDbLine
 10
5.635
 20
-3.4999995133
 30
0.0
 11
10.26
 21
-3.4999995133
 31
0.0
  0
LINE
  5
12F
330
1F
100
AcDbEntity
  8
SK1
  6
Continuous
100
AcDbLine
 10
5.635
 20
-6.8999995133
 30
0.0
 11
6.06
 21
-6.8999995133
 31
0.0
  0
LINE
  5
130
330
1F
100
AcDbEntity
  8
SK3
100
AcDbLine
 10
-15.24
 20
2.2416958604
 30
0.0
 11
-15.24
 21
1.6646734175
 31
0.0
  0
LINE
  5
131
330
1F
100
AcDbEntity
  8
SK3
100
AcDbLine
 10
5.635
 20
-4.8790363035
 30
0.0
 11
5.635
 21
-2.4748732474
 31
0.0
  0
LINE
  5
132
330
1F
100
AcDbEntity
  8
SK3
100
AcDbLine
 10
5.635
 20
2.4748742209
 30
0.0
 11
5.635
 21
4.8790372769
 31
0.0
  0
LINE
  5
133
330
1F
100
AcDbEntity
  8
SK3
100
AcDbLine
 10
5.635
 20
4.8790372769
 30
0.0
 11
5.635
 21
6.9000004867
 31
0.0
  0
LINE
  5
134
330
1F
100
AcDbEntity
  8
SK3
100
AcDbLine
 10
5.635
 20
-6.8999995133
 30
0.0
 11
5.635
 21
-4.8790363035
 31
0.0
  0
LINE
  5
135
330
1F
100
AcDbEntity
  8
SK3
100
AcDbLine
 10
-15.24
 20
-1.6646724441
 30
0.0
 11
-15.24
 21
-2.241694887
 31
0.0
  0
LINE
  5
136
330
1F
100
AcDbEntity
  8
SK3
100
AcDbLine
 10
-15.24
 20
-4.0188754797
 30
0.0
 11
-15.24
 21
-5.4119308871
 31
0.0
  0
LINE
  5
137
330
1F
100
AcDbEntity
  8
SK3
100
AcDbLine
 10
-15.24
 20
5.4119318606
 30
0.0
 11
-15.24
 21
4.0188764532
 31
0.0
  0
LINE
  5
138
330
1F
100
AcDbEntity
  8
SK1
  6
Continuous
100
AcDbLine
 10
0.0
 20
7.9940483145
 30
0.0
 11
0.0
 21
-7.994048115
 31
0.0
  0
LINE
  5
13A
330
1F
100
AcDbEntity
  8
SK4
  6
Continuous
100
AcDbLine
 10
10.26
 20
0.0000004867
 30
0.0
 11
-17.24
 21
0.0000004867
 31
0.0
  0
DIMENSION
  5
14F
330
1F
100
AcDbEntity
  8
SK2
  6
Continuous
 62
   136
100
AcDbDimension
  2
DMBLK111
 10
20.8493826112
 20
3.5000004867
 30
0.0
 11
20.8493826112
 21
9.6568082521
 31
0.0
 70
   161
  1
\A1;ø <>
 71
     5
 42
-1.0
  3
DIN
100
AcDbAlignedDimension
 13
10.26
 23
3.5000004867
 33
0.0
 14
10.26
 24
-3.4999995133
 34
0.0
  0
DIMENSION
  5
15A
330
1F
100
AcDbEntity
  8
SK2
  6
Continuous
 62
   136
100
AcDbDimension
  2
DMBLK112
 10
10.26
 20
-16.8574217745
 30
0.0
 11
5.1299999468
 21
-16.8574217745
 31
0.0
 70
   160
  1
\A1;<>
 71
     5
 42
-1.0
  3
DIN
100
AcDbAlignedDimension
 13
0.0
 23
-7.994048115
 33
0.0
 14
10.26
 24
-4.1079832379
 34
0.0
100
AcDbRotatedDimension
  0
DIMENSION
  5
164
330
1F
100
AcDbEntity
  8
SK2
  6
Continuous
 62
   136
100
AcDbDimension
  2
DMBLK113
 10
-23.4162528068
 20
7.9940483145
 30
0.0
 11
-23.4162528068
 21
0.0000000171
 31
0.0
 70
   161
  1
\A1;ø <>
 71
     5
 42
-1.0
  3
DIN
100
AcDbAlignedDimension
 13
0.0
 23
7.9940483145
 33
0.0
 14
0.0
 24
-7.994048115
 34
0.0
1001
ACAD
1000
DSTYLE
1002
{
1070
   271
1070
     1
1070
   272
1070
     1
1070
     0
1002
}
  0
DIMENSION
  5
16F
330
1F
100
AcDbEntity
  8
SK2
  6
Continuous
 62
   136
100
AcDbDimension
  2
DMBLK114
 10
10.26
 20
14.3368319327
 30
0.0
 11
-3.4900000745
 21
14.3368319327
 31
0.0
 70
   160
  1
\A1;<>
 71
     5
 42
-1.0
  3
DIN
100
AcDbAlignedDimension
 13
-17.24
 23
0.3000004867
 33
0.0
 14
10.26
 24
5.5799567247
 34
0.0
100
AcDbRotatedDimension
1001
ACAD
1000
DSTYLE
1002
{
1070
   271
1070
     1
1070
   272
1070
     1
1070
     0
1002
}
  0
ENDSEC
  0
SECTION
  2
OBJECTS
  0
DICTIONARY
  5
C
330
0
100
AcDbDictionary
281
     1
  3
ACAD_GROUP
350
D
  3
ACAD_LAYOUT
350
1A
  3
ACAD_MATERIAL
350
3B
  3
ACAD_MLEADERSTYLE
350
17B
  3
ACAD_MLINESTYLE
350
17
  3
ACAD_PLOTSETTINGS
350
19
  3
ACAD_PLOTSTYLENAME
350
E
  3
ACAD_VISUALSTYLE
350
2A
  3
AcDbVariableDictionary
350
179
  0
DICTIONARY
  5
D
102
{ACAD_REACTORS
330
C
102
}
330
C
100
AcDbDictionary
281
     1
  0
DICTIONARY
  5
1A
102
{ACAD_REACTORS
330
C
102
}
330
C
100
AcDbDictionary
281
     1
  3
Layout1
350
1E
  3
Model
350
22
  0
DICTIONARY
  5
3B
102
{ACAD_REACTORS
330
C
102
}
330
C
100
AcDbDictionary
281
     1
  3
ByBlock
350
3D
  3
ByLayer
350
3C
  3
Global
350
3E
  0
DICTIONARY
  5
17B
102
{ACAD_REACTORS
330
C
102
}
330
C
100
AcDbDictionary
281
     1
  0
DICTIONARY
  5
17
102
{ACAD_REACTORS
330
C
102
}
330
C
100
AcDbDictionary
281
     1
  3
Standard
350
18
  0
DICTIONARY
  5
19
102
{ACAD_REACTORS
330
C
102
}
330
C
100
AcDbDictionary
281
     1
  0
ACDBDICTIONARYWDFLT
  5
E
102
{ACAD_REACTORS
330
C
102
}
330
C
100
AcDbDictionary
281
     1
  3
Normal
350
F
100
AcDbDictionaryWithDefault
340
F
  0
DICTIONARY
  5
2A
102
{ACAD_REACTORS
330
C
102
}
330
C
100
AcDbDictionary
281
     1
  3
2dWireframe
350
2F
  3
3D Hidden
350
31
  3
3dWireframe
350
30
  3
Basic
350
32
  3
Brighten
350
36
  3
ColorChange
350
3A
  3
Conceptual
350
34
  3
Dim
350
35
  3
Facepattern
350
39
  3
Flat
350
2B
  3
FlatWithEdges
350
2C
  3
Gouraud
350
2D
  3
GouraudWithEdges
350
2E
  3
Linepattern
350
38
  3
Realistic
350
33
  3
Thicken
350
37
  0
DICTIONARY
  5
179
102
{ACAD_REACTORS
330
C
102
}
330
C
100
AcDbDictionary
281
     1
  3
DIMASSOC
350
17E
  3
HIDETEXT
350
17F
  3
PSOLHEIGHT
350
17D
  3
PSOLWIDTH
350
17C
  0
LAYOUT
  5
1E
102
{ACAD_REACTORS
330
1A
102
}
330
1A
100
AcDbPlotSettings
  1

  2
none_device
  4

  6

 40
0.0
 41
0.0
 42
0.0
 43
0.0
 44
0.0
 45
0.0
 46
0.0
 47
0.0
 48
0.0
 49
0.0
140
0.0
141
0.0
142
1.0
143
1.0
 70
   688
 72
     0
 73
     0
 74
     5
  7

 75
    16
147
1.0
148
0.0
149
0.0
100
AcDbLayout
  1
Layout1
 70
     1
 71
     1
 10
0.0
 20
0.0
 11
210.0
 21
297.0
 12
0.0
 22
0.0
 32
0.0
 14
0.0
 24
0.0
 34
0.0
 15
210.0
 25
297.0
 35
0.0
146
0.0
 13
0.0
 23
0.0
 33
0.0
 16
1.0
 26
0.0
 36
0.0
 17
0.0
 27
1.0
 37
0.0
 76
     0
330
1B
  0
LAYOUT
  5
22
102
{ACAD_REACTORS
330
1A
102
}
330
1A
100
AcDbPlotSettings
  1

  2
none_device
  4

  6

 40
0.0
 41
0.0
 42
0.0
 43
0.0
 44
0.0
 45
0.0
 46
0.0
 47
0.0
 48
0.0
 49
0.0
140
0.0
141
0.0
142
1.0
143
1.0
 70
  1712
 72
     0
 73
     0
 74
     0
  7

 75
     0
147
1.0
148
0.0
149
0.0
100
AcDbLayout
  1
Model
 70
     1
 71
     0
 10
0.0
 20
0.0
 11
210.0
 21
297.0
 12
0.0
 22
0.0
 32
0.0
 14
0.0
 24
0.0
 34
0.0
 15
210.0
 25
297.0
 35
0.0
146
0.0
 13
0.0
 23
0.0
 33
0.0
 16
1.0
 26
0.0
 36
0.0
 17
0.0
 27
1.0
 37
0.0
 76
     0
330
1F
331
29
  0
MATERIAL
  5
3D
102
{ACAD_REACTORS
330
3B
102
}
102
{ACAD_XDICTIONARY
360
1A2
102
}
330
3B
100
AcDbMaterial
  1
ByBlock
  0
MATERIAL
  5
3C
102
{ACAD_REACTORS
330
3B
102
}
102
{ACAD_XDICTIONARY
360
1A0
102
}
330
3B
100
AcDbMaterial
  1
ByLayer
  0
MATERIAL
  5
3E
102
{ACAD_REACTORS
330
3B
102
}
102
{ACAD_XDICTIONARY
360
1A4
102
}
330
3B
100
AcDbMaterial
  1
Global
  0
MLINESTYLE
  5
18
102
{ACAD_REACTORS
330
17
102
}
330
17
100
AcDbMlineStyle
  2
Standard
 70
     0
  3

 62
   256
 51
90.0
 52
90.0
 71
     2
 49
0.5
 62
   256
  6
BYLAYER
 49
-0.5
 62
   256
  6
BYLAYER
  0
ACDBPLACEHOLDER
  5
F
102
{ACAD_REACTORS
330
E
102
}
330
E
  0
VISUALSTYLE
  5
2F
102
{ACAD_REACTORS
330
2A
102
}
102
{ACAD_XDICTIONARY
360
188
102
}
330
2A
100
AcDbVisualStyle
  2
2dWireframe
 70
     4
 71
     0
 72
     2
 73
     0
 90
        0
 40
-0.6
 41
-30.0
 62
     5
 63
     7
 74
     1
 91
        4
 64
     7
 65
   257
 75
     1
175
     1
 42
1.0
 92
        0
 66
   257
 43
1.0
 76
     1
 77
     6
 78
     2
 67
     7
 79
     5
170
     0
171
     0
290
     0
174
     0
 93
        1
 44
0.0
173
     0
291
     0
 45
0.0
1001
ACAD
1000
AcDbSavedByObjectVersion
1070
     0
  0
VISUALSTYLE
  5
31
102
{ACAD_REACTORS
330
2A
102
}
102
{ACAD_XDICTIONARY
360
18C
102
}
330
2A
100
AcDbVisualStyle
  2
3D Hidden
 70
     6
 71
     1
 72
     2
 73
     2
 90
        0
 40
-0.6
 41
-30.0
 62
     5
 63
     7
 74
     2
 91
        2
 64
     7
 65
   257
 75
     2
175
     1
 42
40.0
 92
        0
 66
   257
 43
1.0
 76
     1
 77
     6
 78
     2
 67
     7
 79
     3
170
     0
171
     0
290
     0
174
     0
 93
        1
 44
0.0
173
     0
291
     0
 45
0.0
1001
ACAD
1000
AcDbSavedByObjectVersion
1070
     0
  0
VISUALSTYLE
  5
30
102
{ACAD_REACTORS
330
2A
102
}
102
{ACAD_XDICTIONARY
360
18A
102
}
330
2A
100
AcDbVisualStyle
  2
3dWireframe
 70
     5
 71
     0
 72
     2
 73
     0
 90
        0
 40
-0.6
 41
-30.0
 62
     5
 63
     7
 74
     1
 91
        4
 64
     7
 65
   257
 75
     1
175
     1
 42
1.0
 92
        0
 66
   257
 43
1.0
 76
     1
 77
     6
 78
     2
 67
     7
 79
     5
170
     0
171
     0
290
     0
174
     0
 93
        1
 44
0.0
173
     0
291
     0
 45
0.0
1001
ACAD
1000
AcDbSavedByObjectVersion
1070
     0
  0
VISUALSTYLE
  5
32
102
{ACAD_REACTORS
330
2A
102
}
102
{ACAD_XDICTIONARY
360
18E
102
}
330
2A
100
AcDbVisualStyle
  2
Basic
 70
     7
 71
     1
 72
     0
 73
     1
 90
        0
 40
-0.6
 41
-30.0
 62
     5
 63
     7
 74
     0
 91
        4
 64
     7
 65
   257
 75
     1
175
     1
 42
1.0
 92
        8
 66
     7
 43
1.0
 76
     1
 77
     6
 78
     2
 67
     7
 79
     5
170
     0
171
     0
290
     0
174
     0
 93
        1
 44
0.0
173
     0
291
     1
 45
0.0
1001
ACAD
1000
AcDbSavedByObjectVersion
1070
     0
  0
VISUALSTYLE
  5
36
102
{ACAD_REACTORS
330
2A
102
}
102
{ACAD_XDICTIONARY
360
196
102
}
330
2A
100
AcDbVisualStyle
  2
Brighten
 70
    12
 71
     2
 72
     2
 73
     0
 90
        0
 40
-0.6
 41
-30.0
 62
     5
 63
     7
 74
     1
 91
        4
 64
     7
 65
   257
 75
     1
175
     1
 42
1.0
 92
        8
 66
     7
 43
1.0
 76
     1
 77
     6
 78
     2
 67
     7
 79
     5
170
     0
171
     0
290
     0
174
     0
 93
        1
 44
50.0
173
     0
291
     1
 45
0.0
1001
ACAD
1000
AcDbSavedByObjectVersion
1070
     0
  0
VISUALSTYLE
  5
3A
102
{ACAD_REACTORS
330
2A
102
}
102
{ACAD_XDICTIONARY
360
19E
102
}
330
2A
100
AcDbVisualStyle
  2
ColorChange
 70
    16
 71
     2
 72
     2
 73
     3
 90
        0
 40
-0.6
 41
-30.0
 62
     5
 63
     8
 74
     1
 91
        4
 64
     7
 65
   257
 75
     1
175
     1
 42
1.0
 92
        8
 66
     8
 43
1.0
 76
     1
 77
     6
 78
     2
 67
     7
 79
     5
170
     0
171
     0
290
     0
174
     0
 93
        1
 44
0.0
173
     0
291
     1
 45
0.0
1001
ACAD
1000
AcDbSavedByObjectVersion
1070
     0
  0
VISUALSTYLE
  5
34
102
{ACAD_REACTORS
330
2A
102
}
102
{ACAD_XDICTIONARY
360
192
102
}
330
2A
100
AcDbVisualStyle
  2
Conceptual
 70
     9
 71
     3
 72
     2
 73
     0
 90
        0
 40
-0.6
 41
-30.0
 62
     5
 63
     7
 74
     2
 91
        2
 64
     7
 65
   257
 75
     1
175
     1
 42
40.0
 92
        8
 66
     7
 43
1.0
 76
     1
 77
     6
 78
     2
 67
     7
 79
     3
170
     0
171
     0
290
     0
174
     0
 93
        1
 44
0.0
173
     0
291
     0
 45
0.0
1001
ACAD
1000
AcDbSavedByObjectVersion
1070
     0
  0
VISUALSTYLE
  5
35
102
{ACAD_REACTORS
330
2A
102
}
102
{ACAD_XDICTIONARY
360
194
102
}
330
2A
100
AcDbVisualStyle
  2
Dim
 70
    11
 71
     2
 72
     2
 73
     0
 90
        0
 40
-0.6
 41
-30.0
 62
     5
 63
     7
 74
     1
 91
        4
 64
     7
 65
   257
 75
     1
175
     1
 42
1.0
 92
        8
 66
     7
 43
1.0
 76
     1
 77
     6
 78
     2
 67
     7
 79
     5
170
     0
171
     0
290
     0
174
     0
 93
        1
 44
-50.0
173
     0
291
     1
 45
0.0
1001
ACAD
1000
AcDbSavedByObjectVersion
1070
     0
  0
VISUALSTYLE
  5
39
102
{ACAD_REACTORS
330
2A
102
}
102
{ACAD_XDICTIONARY
360
19C
102
}
330
2A
100
AcDbVisualStyle
  2
Facepattern
 70
    15
 71
     2
 72
     2
 73
     0
 90
        0
 40
-0.6
 41
-30.0
 62
     5
 63
     7
 74
     1
 91
        4
 64
     7
 65
   257
 75
     1
175
     1
 42
1.0
 92
        8
 66
     7
 43
1.0
 76
     1
 77
     6
 78
     2
 67
     7
 79
     5
170
     0
171
     0
290
     0
174
     0
 93
        1
 44
0.0
173
     0
291
     1
 45
0.0
1001
ACAD
1000
AcDbSavedByObjectVersion
1070
     0
  0
VISUALSTYLE
  5
2B
102
{ACAD_REACTORS
330
2A
102
}
102
{ACAD_XDICTIONARY
360
180
102
}
330
2A
100
AcDbVisualStyle
  2
Flat
 70
     0
 71
     2
 72
     1
 73
     1
 90
        2
 40
-0.6
 41
30.0
 62
     5
 63
     7
 74
     0
 91
        4
 64
     7
 65
   257
 75
     1
175
     1
 42
1.0
 92
        8
 66
     7
 43
1.0
 76
     1
 77
     6
 78
     2
 67
     7
 79
     5
170
     0
171
     0
290
     0
174
     0
 93
       13
 44
0.0
173
     0
291
     1
 45
0.0
1001
ACAD
1000
AcDbSavedByObjectVersion
1070
     0
  0
VISUALSTYLE
  5
2C
102
{ACAD_REACTORS
330
2A
102
}
102
{ACAD_XDICTIONARY
360
182
102
}
330
2A
100
AcDbVisualStyle
  2
FlatWithEdges
 70
     1
 71
     2
 72
     1
 73
     1
 90
        2
 40
-0.6
 41
30.0
 62
     5
 63
     7
 74
     1
 91
        4
 64
     7
 65
   257
 75
     1
175
     1
 42
1.0
 92
        0
 66
   257
 43
1.0
 76
     1
 77
     6
 78
     2
 67
     7
 79
     5
170
     0
171
     0
290
     0
174
     0
 93
       13
 44
0.0
173
     0
291
     1
 45
0.0
1001
ACAD
1000
AcDbSavedByObjectVersion
1070
     0
  0
VISUALSTYLE
  5
2D
102
{ACAD_REACTORS
330
2A
102
}
102
{ACAD_XDICTIONARY
360
184
102
}
330
2A
100
AcDbVisualStyle
  2
Gouraud
 70
     2
 71
     2
 72
     2
 73
     1
 90
        2
 40
-0.6
 41
30.0
 62
     5
 63
     7
 74
     0
 91
        4
 64
     7
 65
   257
 75
     1
175
     1
 42
1.0
 92
        0
 66
     7
 43
1.0
 76
     1
 77
     6
 78
     2
 67
     7
 79
     5
170
     0
171
     0
290
     0
174
     0
 93
       13
 44
0.0
173
     0
291
     1
 45
0.0
1001
ACAD
1000
AcDbSavedByObjectVersion
1070
     0
  0
VISUALSTYLE
  5
2E
102
{ACAD_REACTORS
330
2A
102
}
102
{ACAD_XDICTIONARY
360
186
102
}
330
2A
100
AcDbVisualStyle
  2
GouraudWithEdges
 70
     3
 71
     2
 72
     2
 73
     1
 90
        2
 40
-0.6
 41
30.0
 62
     5
 63
     7
 74
     1
 91
        4
 64
     7
 65
   257
 75
     1
175
     1
 42
1.0
 92
        0
 66
   257
 43
1.0
 76
     1
 77
     6
 78
     2
 67
     7
 79
     5
170
     0
171
     0
290
     0
174
     0
 93
       13
 44
0.0
173
     0
291
     1
 45
0.0
1001
ACAD
1000
AcDbSavedByObjectVersion
1070
     0
  0
VISUALSTYLE
  5
38
102
{ACAD_REACTORS
330
2A
102
}
102
{ACAD_XDICTIONARY
360
19A
102
}
330
2A
100
AcDbVisualStyle
  2
Linepattern
 70
    14
 71
     2
 72
     2
 73
     0
 90
        0
 40
-0.6
 41
-30.0
 62
     5
 63
     7
 74
     1
 91
        4
 64
     7
 65
   257
 75
     7
175
     7
 42
1.0
 92
        8
 66
     7
 43
1.0
 76
     1
 77
     6
 78
     2
 67
     7
 79
     5
170
     0
171
     0
290
     0
174
     0
 93
        1
 44
0.0
173
     0
291
     1
 45
0.0
1001
ACAD
1000
AcDbSavedByObjectVersion
1070
     0
  0
VISUALSTYLE
  5
33
102
{ACAD_REACTORS
330
2A
102
}
102
{ACAD_XDICTIONARY
360
190
102
}
330
2A
100
AcDbVisualStyle
  2
Realistic
 70
     8
 71
     2
 72
     2
 73
     0
 90
        0
 40
-0.6
 41
-30.0
 62
     5
 63
     7
 74
     1
 91
        0
 64
     7
 65
   257
 75
     1
175
     1
 42
1.0
 92
        8
 66
     8
 43
1.0
 76
     1
 77
     6
 78
     2
 67
     7
 79
     5
170
     0
171
     0
290
     0
174
     0
 93
       13
 44
0.0
173
     0
291
     0
 45
0.0
1001
ACAD
1000
AcDbSavedByObjectVersion
1070
     0
  0
VISUALSTYLE
  5
37
102
{ACAD_REACTORS
330
2A
102
}
102
{ACAD_XDICTIONARY
360
198
102
}
330
2A
100
AcDbVisualStyle
  2
Thicken
 70
    13
 71
     2
 72
     2
 73
     0
 90
        0
 40
-0.6
 41
-30.0
 62
     5
 63
     7
 74
     1
 91
        4
 64
     7
 65
   257
 75
     1
175
     1
 42
1.0
 92
       12
 66
     7
 43
1.0
 76
     1
 77
     6
 78
     2
 67
     7
 79
     5
170
     0
171
     0
290
     0
174
     0
 93
        1
 44
0.0
173
     0
291
     1
 45
0.0
1001
ACAD
1000
AcDbSavedByObjectVersion
1070
     0
  0
DICTIONARYVAR
  5
17E
102
{ACAD_REACTORS
330
179
102
}
330
179
100
DictionaryVariables
280
     0
  1
2
  0
DICTIONARYVAR
  5
17F
102
{ACAD_REACTORS
330
179
102
}
330
179
100
DictionaryVariables
280
     0
  1
1
  0
DICTIONARYVAR
  5
17D
102
{ACAD_REACTORS
330
179
102
}
330
179
100
DictionaryVariables
280
     0
  1
80.000000
  0
DICTIONARYVAR
  5
17C
102
{ACAD_REACTORS
330
179
102
}
330
179
100
DictionaryVariables
280
     0
  1
5.000000
  0
DICTIONARY
  5
1A2
330
3D
100
AcDbDictionary
280
     1
281
     1
  3
ACAD_XREC_ROUNDTRIP
360
1A3
  0
DICTIONARY
  5
1A0
330
3C
100
AcDbDictionary
280
     1
281
     1
  3
ACAD_XREC_ROUNDTRIP
360
1A1
  0
DICTIONARY
  5
1A4
330
3E
100
AcDbDictionary
280
     1
281
     1
  3
ACAD_XREC_ROUNDTRIP
360
1A5
  0
DICTIONARY
  5
188
330
2F
100
AcDbDictionary
280
     1
281
     1
  3
ACAD_XREC_ROUNDTRIP
360
189
  0
DICTIONARY
  5
18C
330
31
100
AcDbDictionary
280
     1
281
     1
  3
ACAD_XREC_ROUNDTRIP
360
18D
  0
DICTIONARY
  5
18A
330
30
100
AcDbDictionary
280
     1
281
     1
  3
ACAD_XREC_ROUNDTRIP
360
18B
  0
DICTIONARY
  5
18E
330
32
100
AcDbDictionary
280
     1
281
     1
  3
ACAD_XREC_ROUNDTRIP
360
18F
  0
DICTIONARY
  5
196
330
36
100
AcDbDictionary
280
     1
281
     1
  3
ACAD_XREC_ROUNDTRIP
360
197
  0
DICTIONARY
  5
19E
330
3A
100
AcDbDictionary
280
     1
281
     1
  3
ACAD_XREC_ROUNDTRIP
360
19F
  0
DICTIONARY
  5
192
330
34
100
AcDbDictionary
280
     1
281
     1
  3
ACAD_XREC_ROUNDTRIP
360
193
  0
DICTIONARY
  5
194
330
35
100
AcDbDictionary
280
     1
281
     1
  3
ACAD_XREC_ROUNDTRIP
360
195
  0
DICTIONARY
  5
19C
330
39
100
AcDbDictionary
280
     1
281
     1
  3
ACAD_XREC_ROUNDTRIP
360
19D
  0
DICTIONARY
  5
180
330
2B
100
AcDbDictionary
280
     1
281
     1
  3
ACAD_XREC_ROUNDTRIP
360
181
  0
DICTIONARY
  5
182
330
2C
100
AcDbDictionary
280
     1
281
     1
  3
ACAD_XREC_ROUNDTRIP
360
183
  0
DICTIONARY
  5
184
330
2D
100
AcDbDictionary
280
     1
281
     1
  3
ACAD_XREC_ROUNDTRIP
360
185
  0
DICTIONARY
  5
186
330
2E
100
AcDbDictionary
280
     1
281
     1
  3
ACAD_XREC_ROUNDTRIP
360
187
  0
DICTIONARY
  5
19A
330
38
100
AcDbDictionary
280
     1
281
     1
  3
ACAD_XREC_ROUNDTRIP
360
19B
  0
DICTIONARY
  5
190
330
33
100
AcDbDictionary
280
     1
281
     1
  3
ACAD_XREC_ROUNDTRIP
360
191
  0
DICTIONARY
  5
198
330
37
100
AcDbDictionary
280
     1
281
     1
  3
ACAD_XREC_ROUNDTRIP
360
199
  0
XRECORD
  5
1A3
102
{ACAD_REACTORS
330
1A2
102
}
330
1A2
100
AcDbXrecord
280
     1
102
MATERIAL
148
0.0
149
0.0
149
0.0
 93
        0
 94
      127
282
     0
 72
     1
 77
     1
171
     1
175
     1
179
     1
273
     0
  0
XRECORD
  5
1A1
102
{ACAD_REACTORS
330
1A0
102
}
330
1A0
100
AcDbXrecord
280
     1
102
MATERIAL
148
0.0
149
0.0
149
0.0
 93
        0
 94
      127
282
     0
 72
     1
 77
     1
171
     1
175
     1
179
     1
273
     0
  0
XRECORD
  5
1A5
102
{ACAD_REACTORS
330
1A4
102
}
330
1A4
100
AcDbXrecord
280
     1
102
MATERIAL
148
0.0
149
0.0
149
0.0
 93
        0
 94
      127
282
     0
 72
     1
 77
     1
171
     1
175
     1
179
     1
273
     0
  0
XRECORD
  5
189
102
{ACAD_REACTORS
330
188
102
}
330
188
100
AcDbXrecord
280
     1
102
RTVSPropertyOp0
 70
     1
102
RTVSPropertyOp1
 70
     1
102
RTVSPropertyOp2
 70
     1
102
RTVSPropertyOp3
 70
     1
102
RTVSPropertyOp4
 70
     1
102
RTVSPropertyOp5
 70
     1
102
RTVSPropertyOp6
 70
     1
102
RTVSPropertyOp7
 70
     1
102
RTVSPropertyOp8
 70
     1
102
RTVSPropertyOp9
 70
     1
102
RTVSPropertyOp10
 70
     1
102
RTVSPropertyOp11
 70
     1
102
RTVSPropertyOp12
 70
     1
102
RTVSPropertyOp13
 70
     1
102
RTVSPropertyOp14
 70
     1
102
RTVSPropertyOp15
 70
     1
102
RTVSPropertyOp16
 70
     1
102
RTVSPropertyOp17
 70
     1
102
RTVSPropertyOp18
 70
     1
102
RTVSPropertyOp19
 70
     1
102
RTVSPropertyOp20
 70
     1
102
RTVSPropertyOp21
 70
     1
102
RTVSPropertyOp22
 70
     1
102
RTVSPropertyOp23
 70
     1
102
RTVSPropertyOp24
 70
     1
102
RTVSPropertyOp25
 70
     1
102
RTVSPropertyOp26
 70
     1
102
RTVSPropertyOp27
 70
     1
102
RTVSPropertyOp28
 70
     1
102
RTVSPropertyOp29
 70
     1
102
RTVSPropertyOp30
 70
     1
102
RTVSPropertyOp31
 70
     1
102
RTVSPropertyOp32
 70
     1
  0
XRECORD
  5
18D
102
{ACAD_REACTORS
330
18C
102
}
330
18C
100
AcDbXrecord
280
     1
102
RTVSPropertyOp0
 70
     1
102
RTVSPropertyOp1
 70
     1
102
RTVSPropertyOp2
 70
     1
102
RTVSPropertyOp3
 70
     1
102
RTVSPropertyOp4
 70
     1
102
RTVSPropertyOp5
 70
     1
102
RTVSPropertyOp6
 70
     1
102
RTVSPropertyOp7
 70
     1
102
RTVSPropertyOp8
 70
     1
102
RTVSPropertyOp9
 70
     1
102
RTVSPropertyOp10
 70
     1
102
RTVSPropertyOp11
 70
     1
102
RTVSPropertyOp12
 70
     1
102
RTVSPropertyOp13
 70
     1
102
RTVSPropertyOp14
 70
     1
102
RTVSPropertyOp15
 70
     1
102
RTVSPropertyOp16
 70
     1
102
RTVSPropertyOp17
 70
     1
102
RTVSPropertyOp18
 70
     1
102
RTVSPropertyOp19
 70
     1
102
RTVSPropertyOp20
 70
     1
102
RTVSPropertyOp21
 70
     1
102
RTVSPropertyOp22
 70
     1
102
RTVSPropertyOp23
 70
     1
102
RTVSPropertyOp24
 70
     1
102
RTVSPropertyOp25
 70
     1
102
RTVSPropertyOp26
 70
     1
102
RTVSPropertyOp27
 70
     1
102
RTVSPropertyOp28
 70
     1
102
RTVSPropertyOp29
 70
     1
102
RTVSPropertyOp30
 70
     1
102
RTVSPropertyOp31
 70
     1
102
RTVSPropertyOp32
 70
     1
  0
XRECORD
  5
18B
102
{ACAD_REACTORS
330
18A
102
}
330
18A
100
AcDbXrecord
280
     1
102
RTVSPropertyOp0
 70
     1
102
RTVSPropertyOp1
 70
     1
102
RTVSPropertyOp2
 70
     1
102
RTVSPropertyOp3
 70
     1
102
RTVSPropertyOp4
 70
     1
102
RTVSPropertyOp5
 70
     1
102
RTVSPropertyOp6
 70
     1
102
RTVSPropertyOp7
 70
     1
102
RTVSPropertyOp8
 70
     1
102
RTVSPropertyOp9
 70
     1
102
RTVSPropertyOp10
 70
     1
102
RTVSPropertyOp11
 70
     1
102
RTVSPropertyOp12
 70
     1
102
RTVSPropertyOp13
 70
     1
102
RTVSPropertyOp14
 70
     1
102
RTVSPropertyOp15
 70
     1
102
RTVSPropertyOp16
 70
     1
102
RTVSPropertyOp17
 70
     1
102
RTVSPropertyOp18
 70
     1
102
RTVSPropertyOp19
 70
     1
102
RTVSPropertyOp20
 70
     1
102
RTVSPropertyOp21
 70
     1
102
RTVSPropertyOp22
 70
     1
102
RTVSPropertyOp23
 70
     1
102
RTVSPropertyOp24
 70
     1
102
RTVSPropertyOp25
 70
     1
102
RTVSPropertyOp26
 70
     1
102
RTVSPropertyOp27
 70
     1
102
RTVSPropertyOp28
 70
     1
102
RTVSPropertyOp29
 70
     1
102
RTVSPropertyOp30
 70
     1
102
RTVSPropertyOp31
 70
     1
102
RTVSPropertyOp32
 70
     1
  0
XRECORD
  5
18F
102
{ACAD_REACTORS
330
18E
102
}
330
18E
100
AcDbXrecord
280
     1
102
RTVSPropertyOp0
 70
     1
102
RTVSPropertyOp1
 70
     1
102
RTVSPropertyOp2
 70
     1
102
RTVSPropertyOp3
 70
     1
102
RTVSPropertyOp4
 70
     1
102
RTVSPropertyOp5
 70
     1
102
RTVSPropertyOp6
 70
     1
102
RTVSPropertyOp7
 70
     1
102
RTVSPropertyOp8
 70
     1
102
RTVSPropertyOp9
 70
     1
102
RTVSPropertyOp10
 70
     1
102
RTVSPropertyOp11
 70
     1
102
RTVSPropertyOp12
 70
     1
102
RTVSPropertyOp13
 70
     1
102
RTVSPropertyOp14
 70
     1
102
RTVSPropertyOp15
 70
     1
102
RTVSPropertyOp16
 70
     1
102
RTVSPropertyOp17
 70
     1
102
RTVSPropertyOp18
 70
     1
102
RTVSPropertyOp19
 70
     1
102
RTVSPropertyOp20
 70
     1
102
RTVSPropertyOp21
 70
     1
102
RTVSPropertyOp22
 70
     1
102
RTVSPropertyOp23
 70
     1
102
RTVSPropertyOp24
 70
     1
102
RTVSPropertyOp25
 70
     1
102
RTVSPropertyOp26
 70
     1
102
RTVSPropertyOp27
 70
     1
102
RTVSPropertyOp28
 70
     1
102
RTVSPropertyOp29
 70
     1
102
RTVSPropertyOp30
 70
     1
102
RTVSPropertyOp31
 70
     1
102
RTVSPropertyOp32
 70
     1
  0
XRECORD
  5
197
102
{ACAD_REACTORS
330
196
102
}
330
196
100
AcDbXrecord
280
     1
102
RTVSPropertyOp0
 70
     1
102
RTVSPropertyOp1
 70
     1
102
RTVSPropertyOp2
 70
     1
102
RTVSPropertyOp3
 70
     1
102
RTVSPropertyOp4
 70
     1
102
RTVSPropertyOp5
 70
     1
102
RTVSPropertyOp6
 70
     1
102
RTVSPropertyOp7
 70
     1
102
RTVSPropertyOp8
 70
     1
102
RTVSPropertyOp9
 70
     1
102
RTVSPropertyOp10
 70
     1
102
RTVSPropertyOp11
 70
     1
102
RTVSPropertyOp12
 70
     1
102
RTVSPropertyOp13
 70
     1
102
RTVSPropertyOp14
 70
     1
102
RTVSPropertyOp15
 70
     1
102
RTVSPropertyOp16
 70
     1
102
RTVSPropertyOp17
 70
     1
102
RTVSPropertyOp18
 70
     1
102
RTVSPropertyOp19
 70
     1
102
RTVSPropertyOp20
 70
     1
102
RTVSPropertyOp21
 70
     1
102
RTVSPropertyOp22
 70
     1
102
RTVSPropertyOp23
 70
     1
102
RTVSPropertyOp24
 70
     1
102
RTVSPropertyOp25
 70
     1
102
RTVSPropertyOp26
 70
     1
102
RTVSPropertyOp27
 70
     1
102
RTVSPropertyOp28
 70
     1
102
RTVSPropertyOp29
 70
     1
102
RTVSPropertyOp30
 70
     1
102
RTVSPropertyOp31
 70
     1
102
RTVSPropertyOp32
 70
     1
  0
XRECORD
  5
19F
102
{ACAD_REACTORS
330
19E
102
}
330
19E
100
AcDbXrecord
280
     1
102
RTVSPropertyOp0
 70
     1
102
RTVSPropertyOp1
 70
     1
102
RTVSPropertyOp2
 70
     1
102
RTVSPropertyOp3
 70
     1
102
RTVSPropertyOp4
 70
     1
102
RTVSPropertyOp5
 70
     1
102
RTVSPropertyOp6
 70
     1
102
RTVSPropertyOp7
 70
     1
102
RTVSPropertyOp8
 70
     1
102
RTVSPropertyOp9
 70
     1
102
RTVSPropertyOp10
 70
     1
102
RTVSPropertyOp11
 70
     1
102
RTVSPropertyOp12
 70
     1
102
RTVSPropertyOp13
 70
     1
102
RTVSPropertyOp14
 70
     1
102
RTVSPropertyOp15
 70
     1
102
RTVSPropertyOp16
 70
     1
102
RTVSPropertyOp17
 70
     1
102
RTVSPropertyOp18
 70
     1
102
RTVSPropertyOp19
 70
     1
102
RTVSPropertyOp20
 70
     1
102
RTVSPropertyOp21
 70
     1
102
RTVSPropertyOp22
 70
     1
102
RTVSPropertyOp23
 70
     1
102
RTVSPropertyOp24
 70
     1
102
RTVSPropertyOp25
 70
     1
102
RTVSPropertyOp26
 70
     1
102
RTVSPropertyOp27
 70
     1
102
RTVSPropertyOp28
 70
     1
102
RTVSPropertyOp29
 70
     1
102
RTVSPropertyOp30
 70
     1
102
RTVSPropertyOp31
 70
     1
102
RTVSPropertyOp32
 70
     1
  0
XRECORD
  5
193
102
{ACAD_REACTORS
330
192
102
}
330
192
100
AcDbXrecord
280
     1
102
RTVSPropertyOp0
 70
     1
102
RTVSPropertyOp1
 70
     1
102
RTVSPropertyOp2
 70
     1
102
RTVSPropertyOp3
 70
     1
102
RTVSPropertyOp4
 70
     1
102
RTVSPropertyOp5
 70
     1
102
RTVSPropertyOp6
 70
     1
102
RTVSPropertyOp7
 70
     1
102
RTVSPropertyOp8
 70
     1
102
RTVSPropertyOp9
 70
     1
102
RTVSPropertyOp10
 70
     1
102
RTVSPropertyOp11
 70
     1
102
RTVSPropertyOp12
 70
     1
102
RTVSPropertyOp13
 70
     1
102
RTVSPropertyOp14
 70
     1
102
RTVSPropertyOp15
 70
     1
102
RTVSPropertyOp16
 70
     1
102
RTVSPropertyOp17
 70
     1
102
RTVSPropertyOp18
 70
     1
102
RTVSPropertyOp19
 70
     1
102
RTVSPropertyOp20
 70
     1
102
RTVSPropertyOp21
 70
     1
102
RTVSPropertyOp22
 70
     1
102
RTVSPropertyOp23
 70
     1
102
RTVSPropertyOp24
 70
     1
102
RTVSPropertyOp25
 70
     1
102
RTVSPropertyOp26
 70
     1
102
RTVSPropertyOp27
 70
     1
102
RTVSPropertyOp28
 70
     1
102
RTVSPropertyOp29
 70
     1
102
RTVSPropertyOp30
 70
     1
102
RTVSPropertyOp31
 70
     1
102
RTVSPropertyOp32
 70
     1
  0
XRECORD
  5
195
102
{ACAD_REACTORS
330
194
102
}
330
194
100
AcDbXrecord
280
     1
102
RTVSPropertyOp0
 70
     1
102
RTVSPropertyOp1
 70
     1
102
RTVSPropertyOp2
 70
     1
102
RTVSPropertyOp3
 70
     1
102
RTVSPropertyOp4
 70
     1
102
RTVSPropertyOp5
 70
     1
102
RTVSPropertyOp6
 70
     1
102
RTVSPropertyOp7
 70
     1
102
RTVSPropertyOp8
 70
     1
102
RTVSPropertyOp9
 70
     1
102
RTVSPropertyOp10
 70
     1
102
RTVSPropertyOp11
 70
     1
102
RTVSPropertyOp12
 70
     1
102
RTVSPropertyOp13
 70
     1
102
RTVSPropertyOp14
 70
     1
102
RTVSPropertyOp15
 70
     1
102
RTVSPropertyOp16
 70
     1
102
RTVSPropertyOp17
 70
     1
102
RTVSPropertyOp18
 70
     1
102
RTVSPropertyOp19
 70
     1
102
RTVSPropertyOp20
 70
     1
102
RTVSPropertyOp21
 70
     1
102
RTVSPropertyOp22
 70
     1
102
RTVSPropertyOp23
 70
     1
102
RTVSPropertyOp24
 70
     1
102
RTVSPropertyOp25
 70
     1
102
RTVSPropertyOp26
 70
     1
102
RTVSPropertyOp27
 70
     1
102
RTVSPropertyOp28
 70
     1
102
RTVSPropertyOp29
 70
     1
102
RTVSPropertyOp30
 70
     1
102
RTVSPropertyOp31
 70
     1
102
RTVSPropertyOp32
 70
     1
  0
XRECORD
  5
19D
102
{ACAD_REACTORS
330
19C
102
}
330
19C
100
AcDbXrecord
280
     1
102
RTVSPropertyOp0
 70
     1
102
RTVSPropertyOp1
 70
     1
102
RTVSPropertyOp2
 70
     1
102
RTVSPropertyOp3
 70
     1
102
RTVSPropertyOp4
 70
     1
102
RTVSPropertyOp5
 70
     1
102
RTVSPropertyOp6
 70
     1
102
RTVSPropertyOp7
 70
     1
102
RTVSPropertyOp8
 70
     1
102
RTVSPropertyOp9
 70
     1
102
RTVSPropertyOp10
 70
     1
102
RTVSPropertyOp11
 70
     1
102
RTVSPropertyOp12
 70
     1
102
RTVSPropertyOp13
 70
     1
102
RTVSPropertyOp14
 70
     1
102
RTVSPropertyOp15
 70
     1
102
RTVSPropertyOp16
 70
     1
102
RTVSPropertyOp17
 70
     1
102
RTVSPropertyOp18
 70
     1
102
RTVSPropertyOp19
 70
     1
102
RTVSPropertyOp20
 70
     1
102
RTVSPropertyOp21
 70
     1
102
RTVSPropertyOp22
 70
     1
102
RTVSPropertyOp23
 70
     1
102
RTVSPropertyOp24
 70
     1
102
RTVSPropertyOp25
 70
     1
102
RTVSPropertyOp26
 70
     1
102
RTVSPropertyOp27
 70
     1
102
RTVSPropertyOp28
 70
     1
102
RTVSPropertyOp29
 70
     1
102
RTVSPropertyOp30
 70
     1
102
RTVSPropertyOp31
 70
     1
102
RTVSPropertyOp32
 70
     1
  0
XRECORD
  5
181
102
{ACAD_REACTORS
330
180
102
}
330
180
100
AcDbXrecord
280
     1
102
RTVSPropertyOp0
 70
     1
102
RTVSPropertyOp1
 70
     1
102
RTVSPropertyOp2
 70
     1
102
RTVSPropertyOp3
 70
     1
102
RTVSPropertyOp4
 70
     1
102
RTVSPropertyOp5
 70
     1
102
RTVSPropertyOp6
 70
     1
102
RTVSPropertyOp7
 70
     1
102
RTVSPropertyOp8
 70
     1
102
RTVSPropertyOp9
 70
     1
102
RTVSPropertyOp10
 70
     1
102
RTVSPropertyOp11
 70
     1
102
RTVSPropertyOp12
 70
     1
102
RTVSPropertyOp13
 70
     1
102
RTVSPropertyOp14
 70
     1
102
RTVSPropertyOp15
 70
     1
102
RTVSPropertyOp16
 70
     1
102
RTVSPropertyOp17
 70
     1
102
RTVSPropertyOp18
 70
     1
102
RTVSPropertyOp19
 70
     1
102
RTVSPropertyOp20
 70
     1
102
RTVSPropertyOp21
 70
     1
102
RTVSPropertyOp22
 70
     1
102
RTVSPropertyOp23
 70
     1
102
RTVSPropertyOp24
 70
     1
102
RTVSPropertyOp25
 70
     1
102
RTVSPropertyOp26
 70
     1
102
RTVSPropertyOp27
 70
     1
102
RTVSPropertyOp28
 70
     1
102
RTVSPropertyOp29
 70
     1
102
RTVSPropertyOp30
 70
     1
102
RTVSPropertyOp31
 70
     1
102
RTVSPropertyOp32
 70
     1
  0
XRECORD
  5
183
102
{ACAD_REACTORS
330
182
102
}
330
182
100
AcDbXrecord
280
     1
102
RTVSPropertyOp0
 70
     1
102
RTVSPropertyOp1
 70
     1
102
RTVSPropertyOp2
 70
     1
102
RTVSPropertyOp3
 70
     1
102
RTVSPropertyOp4
 70
     1
102
RTVSPropertyOp5
 70
     1
102
RTVSPropertyOp6
 70
     1
102
RTVSPropertyOp7
 70
     1
102
RTVSPropertyOp8
 70
     1
102
RTVSPropertyOp9
 70
     1
102
RTVSPropertyOp10
 70
     1
102
RTVSPropertyOp11
 70
     1
102
RTVSPropertyOp12
 70
     1
102
RTVSPropertyOp13
 70
     1
102
RTVSPropertyOp14
 70
     1
102
RTVSPropertyOp15
 70
     1
102
RTVSPropertyOp16
 70
     1
102
RTVSPropertyOp17
 70
     1
102
RTVSPropertyOp18
 70
     1
102
RTVSPropertyOp19
 70
     1
102
RTVSPropertyOp20
 70
     1
102
RTVSPropertyOp21
 70
     1
102
RTVSPropertyOp22
 70
     1
102
RTVSPropertyOp23
 70
     1
102
RTVSPropertyOp24
 70
     1
102
RTVSPropertyOp25
 70
     1
102
RTVSPropertyOp26
 70
     1
102
RTVSPropertyOp27
 70
     1
102
RTVSPropertyOp28
 70
     1
102
RTVSPropertyOp29
 70
     1
102
RTVSPropertyOp30
 70
     1
102
RTVSPropertyOp31
 70
     1
102
RTVSPropertyOp32
 70
     1
  0
XRECORD
  5
185
102
{ACAD_REACTORS
330
184
102
}
330
184
100
AcDbXrecord
280
     1
102
RTVSPropertyOp0
 70
     1
102
RTVSPropertyOp1
 70
     1
102
RTVSPropertyOp2
 70
     1
102
RTVSPropertyOp3
 70
     1
102
RTVSPropertyOp4
 70
     1
102
RTVSPropertyOp5
 70
     1
102
RTVSPropertyOp6
 70
     1
102
RTVSPropertyOp7
 70
     1
102
RTVSPropertyOp8
 70
     1
102
RTVSPropertyOp9
 70
     1
102
RTVSPropertyOp10
 70
     1
102
RTVSPropertyOp11
 70
     1
102
RTVSPropertyOp12
 70
     1
102
RTVSPropertyOp13
 70
     1
102
RTVSPropertyOp14
 70
     1
102
RTVSPropertyOp15
 70
     1
102
RTVSPropertyOp16
 70
     1
102
RTVSPropertyOp17
 70
     1
102
RTVSPropertyOp18
 70
     1
102
RTVSPropertyOp19
 70
     1
102
RTVSPropertyOp20
 70
     1
102
RTVSPropertyOp21
 70
     1
102
RTVSPropertyOp22
 70
     1
102
RTVSPropertyOp23
 70
     1
102
RTVSPropertyOp24
 70
     1
102
RTVSPropertyOp25
 70
     1
102
RTVSPropertyOp26
 70
     1
102
RTVSPropertyOp27
 70
     1
102
RTVSPropertyOp28
 70
     1
102
RTVSPropertyOp29
 70
     1
102
RTVSPropertyOp30
 70
     1
102
RTVSPropertyOp31
 70
     1
102
RTVSPropertyOp32
 70
     1
  0
XRECORD
  5
187
102
{ACAD_REACTORS
330
186
102
}
330
186
100
AcDbXrecord
280
     1
102
RTVSPropertyOp0
 70
     1
102
RTVSPropertyOp1
 70
     1
102
RTVSPropertyOp2
 70
     1
102
RTVSPropertyOp3
 70
     1
102
RTVSPropertyOp4
 70
     1
102
RTVSPropertyOp5
 70
     1
102
RTVSPropertyOp6
 70
     1
102
RTVSPropertyOp7
 70
     1
102
RTVSPropertyOp8
 70
     1
102
RTVSPropertyOp9
 70
     1
102
RTVSPropertyOp10
 70
     1
102
RTVSPropertyOp11
 70
     1
102
RTVSPropertyOp12
 70
     1
102
RTVSPropertyOp13
 70
     1
102
RTVSPropertyOp14
 70
     1
102
RTVSPropertyOp15
 70
     1
102
RTVSPropertyOp16
 70
     1
102
RTVSPropertyOp17
 70
     1
102
RTVSPropertyOp18
 70
     1
102
RTVSPropertyOp19
 70
     1
102
RTVSPropertyOp20
 70
     1
102
RTVSPropertyOp21
 70
     1
102
RTVSPropertyOp22
 70
     1
102
RTVSPropertyOp23
 70
     1
102
RTVSPropertyOp24
 70
     1
102
RTVSPropertyOp25
 70
     1
102
RTVSPropertyOp26
 70
     1
102
RTVSPropertyOp27
 70
     1
102
RTVSPropertyOp28
 70
     1
102
RTVSPropertyOp29
 70
     1
102
RTVSPropertyOp30
 70
     1
102
RTVSPropertyOp31
 70
     1
102
RTVSPropertyOp32
 70
     1
  0
XRECORD
  5
19B
102
{ACAD_REACTORS
330
19A
102
}
330
19A
100
AcDbXrecord
280
     1
102
RTVSPropertyOp0
 70
     1
102
RTVSPropertyOp1
 70
     1
102
RTVSPropertyOp2
 70
     1
102
RTVSPropertyOp3
 70
     1
102
RTVSPropertyOp4
 70
     1
102
RTVSPropertyOp5
 70
     1
102
RTVSPropertyOp6
 70
     1
102
RTVSPropertyOp7
 70
     1
102
RTVSPropertyOp8
 70
     1
102
RTVSPropertyOp9
 70
     1
102
RTVSPropertyOp10
 70
     1
102
RTVSPropertyOp11
 70
     1
102
RTVSPropertyOp12
 70
     1
102
RTVSPropertyOp13
 70
     1
102
RTVSPropertyOp14
 70
     1
102
RTVSPropertyOp15
 70
     1
102
RTVSPropertyOp16
 70
     1
102
RTVSPropertyOp17
 70
     1
102
RTVSPropertyOp18
 70
     1
102
RTVSPropertyOp19
 70
     1
102
RTVSPropertyOp20
 70
     1
102
RTVSPropertyOp21
 70
     1
102
RTVSPropertyOp22
 70
     1
102
RTVSPropertyOp23
 70
     1
102
RTVSPropertyOp24
 70
     1
102
RTVSPropertyOp25
 70
     1
102
RTVSPropertyOp26
 70
     1
102
RTVSPropertyOp27
 70
     1
102
RTVSPropertyOp28
 70
     1
102
RTVSPropertyOp29
 70
     1
102
RTVSPropertyOp30
 70
     1
102
RTVSPropertyOp31
 70
     1
102
RTVSPropertyOp32
 70
     1
  0
XRECORD
  5
191
102
{ACAD_REACTORS
330
190
102
}
330
190
100
AcDbXrecord
280
     1
102
RTVSPropertyOp0
 70
     1
102
RTVSPropertyOp1
 70
     1
102
RTVSPropertyOp2
 70
     1
102
RTVSPropertyOp3
 70
     1
102
RTVSPropertyOp4
 70
     1
102
RTVSPropertyOp5
 70
     1
102
RTVSPropertyOp6
 70
     1
102
RTVSPropertyOp7
 70
     1
102
RTVSPropertyOp8
 70
     1
102
RTVSPropertyOp9
 70
     1
102
RTVSPropertyOp10
 70
     1
102
RTVSPropertyOp11
 70
     1
102
RTVSPropertyOp12
 70
     1
102
RTVSPropertyOp13
 70
     1
102
RTVSPropertyOp14
 70
     1
102
RTVSPropertyOp15
 70
     1
102
RTVSPropertyOp16
 70
     1
102
RTVSPropertyOp17
 70
     1
102
RTVSPropertyOp18
 70
     1
102
RTVSPropertyOp19
 70
     1
102
RTVSPropertyOp20
 70
     1
102
RTVSPropertyOp21
 70
     1
102
RTVSPropertyOp22
 70
     1
102
RTVSPropertyOp23
 70
     1
102
RTVSPropertyOp24
 70
     1
102
RTVSPropertyOp25
 70
     1
102
RTVSPropertyOp26
 70
     1
102
RTVSPropertyOp27
 70
     1
102
RTVSPropertyOp28
 70
     1
102
RTVSPropertyOp29
 70
     1
102
RTVSPropertyOp30
 70
     1
102
RTVSPropertyOp31
 70
     1
102
RTVSPropertyOp32
 70
     1
  0
XRECORD
  5
199
102
{ACAD_REACTORS
330
198
102
}
330
198
100
AcDbXrecord
280
     1
102
RTVSPropertyOp0
 70
     1
102
RTVSPropertyOp1
 70
     1
102
RTVSPropertyOp2
 70
     1
102
RTVSPropertyOp3
 70
     1
102
RTVSPropertyOp4
 70
     1
102
RTVSPropertyOp5
 70
     1
102
RTVSPropertyOp6
 70
     1
102
RTVSPropertyOp7
 70
     1
102
RTVSPropertyOp8
 70
     1
102
RTVSPropertyOp9
 70
     1
102
RTVSPropertyOp10
 70
     1
102
RTVSPropertyOp11
 70
     1
102
RTVSPropertyOp12
 70
     1
102
RTVSPropertyOp13
 70
     1
102
RTVSPropertyOp14
 70
     1
102
RTVSPropertyOp15
 70
     1
102
RTVSPropertyOp16
 70
     1
102
RTVSPropertyOp17
 70
     1
102
RTVSPropertyOp18
 70
     1
102
RTVSPropertyOp19
 70
     1
102
RTVSPropertyOp20
 70
     1
102
RTVSPropertyOp21
 70
     1
102
RTVSPropertyOp22
 70
     1
102
RTVSPropertyOp23
 70
     1
102
RTVSPropertyOp24
 70
     1
102
RTVSPropertyOp25
 70
     1
102
RTVSPropertyOp26
 70
     1
102
RTVSPropertyOp27
 70
     1
102
RTVSPropertyOp28
 70
     1
102
RTVSPropertyOp29
 70
     1
102
RTVSPropertyOp30
 70
     1
102
RTVSPropertyOp31
 70
     1
102
RTVSPropertyOp32
 70
     1
  0
ENDSEC
  0
EOF
