  0
SECTION
  2
HEADER
  9
$ACADVER
  1
AC1015
  9
$ACADMAINTVER
 70
     6
  9
$DWGCODEPAGE
  3
ANSI_1252
  9
$INSBASE
 10
0.0
 20
0.0
 30
0.0
  9
$EXTMIN
 10
0.0
 20
0.0
 30
0.0
  9
$EXTMAX
 10
210.0
 20
297.0
 30
0.0
  9
$LIMMIN
 10
0.0
 20
0.0
  9
$LIMMAX
 10
210.0
 20
297.0
  9
$ORTHOMODE
 70
     0
  9
$REGENMODE
 70
     1
  9
$FILLMODE
 70
     1
  9
$QTEXTMODE
 70
     0
  9
$MIRRTEXT
 70
     1
  9
$LTSCALE
 40
1.0
  9
$ATTMODE
 70
     1
  9
$TEXTSIZE
 40
2.5
  9
$TRACEWID
 40
1.0
  9
$TEXTSTYLE
  7
Standard
  9
$CLAYER
  8
0
  9
$CELTYPE
  6
ByLayer
  9
$CECOLOR
 62
   256
  9
$CELTSCALE
 40
1.0
  9
$DISPSILH
 70
     0
  9
$DIMSCALE
 40
1.0
  9
$DIMASZ
 40
2.5
  9
$DIMEXO
 40
0.625
  9
$DIMDLI
 40
3.75
  9
$DIMRND
 40
0.0
  9
$DIMDLE
 40
0.0
  9
$DIMEXE
 40
1.25
  9
$DIMTP
 40
0.0
  9
$DIMTM
 40
0.0
  9
$DIMTXT
 40
2.5
  9
$DIMCEN
 40
2.5
  9
$DIMTSZ
 40
0.0
  9
$DIMTOL
 70
     0
  9
$DIMLIM
 70
     0
  9
$DIMTIH
 70
     0
  9
$DIMTOH
 70
     0
  9
$DIMSE1
 70
     0
  9
$DIMSE2
 70
     0
  9
$DIMTAD
 70
     1
  9
$DIMZIN
 70
     8
  9
$DIMBLK
  1

  9
$DIMASO
 70
     1
  9
$DIMSHO
 70
     1
  9
$DIMPOST
  1

  9
$DIMAPOST
  1

  9
$DIMALT
 70
     0
  9
$DIMALTD
 70
     3
  9
$DIMALTF
 40
0.0393700787
  9
$DIMLFAC
 40
1.0
  9
$DIMTOFL
 70
     1
  9
$DIMTVP
 40
0.0
  9
$DIMTIX
 70
     0
  9
$DIMSOXD
 70
     0
  9
$DIMSAH
 70
     0
  9
$DIMBLK1
  1

  9
$DIMBLK2
  1

  9
$DIMSTYLE
  2
ISO-25
  9
$DIMCLRD
 70
     0
  9
$DIMCLRE
 70
     0
  9
$DIMCLRT
 70
     0
  9
$DIMTFAC
 40
1.0
  9
$DIMGAP
 40
0.625
  9
$DIMJUST
 70
     0
  9
$DIMSD1
 70
     0
  9
$DIMSD2
 70
     0
  9
$DIMTOLJ
 70
     0
  9
$DIMTZIN
 70
     8
  9
$DIMALTZ
 70
     0
  9
$DIMALTTZ
 70
     0
  9
$DIMUPT
 70
     0
  9
$DIMDEC
 70
     2
  9
$DIMTDEC
 70
     2
  9
$DIMALTU
 70
     2
  9
$DIMALTTD
 70
     3
  9
$DIMTXSTY
  7
Standard
  9
$DIMAUNIT
 70
     0
  9
$DIMADEC
 70
     0
  9
$DIMALTRND
 40
0.0
  9
$DIMAZIN
 70
     0
  9
$DIMDSEP
 70
    44
  9
$DIMATFIT
 70
     3
  9
$DIMFRAC
 70
     0
  9
$DIMLDRBLK
  1

  9
$DIMLUNIT
 70
     2
  9
$DIMLWD
 70
    -2
  9
$DIMLWE
 70
    -2
  9
$DIMTMOVE
 70
     0
  9
$LUNITS
 70
     2
  9
$LUPREC
 70
     4
  9
$SKETCHINC
 40
1.0
  9
$FILLETRAD
 40
10.0
  9
$AUNITS
 70
     0
  9
$AUPREC
 70
     0
  9
$MENU
  1
.
  9
$ELEVATION
 40
0.0
  9
$PELEVATION
 40
0.0
  9
$THICKNESS
 40
0.0
  9
$LIMCHECK
 70
     0
  9
$CHAMFERA
 40
10.0
  9
$CHAMFERB
 40
10.0
  9
$CHAMFERC
 40
20.0
  9
$CHAMFERD
 40
0.0
  9
$SKPOLY
 70
     0
  9
$TDCREATE
 40
2457560.581526713
  9
$TDUCREATE
 40
2457560.498193379
  9
$TDUPDATE
 40
2457560.581528761
  9
$TDUUPDATE
 40
2457560.498195428
  9
$TDINDWG
 40
0.0000000116
  9
$TDUSRTIMER
 40
0.0000000116
  9
$USRTIMER
 70
     1
  9
$ANGBASE
 50
0.0
  9
$ANGDIR
 70
     0
  9
$PDMODE
 70
     0
  9
$PDSIZE
 40
0.0
  9
$PLINEWID
 40
0.0
  9
$SPLFRAME
 70
     0
  9
$SPLINETYPE
 70
     6
  9
$SPLINESEGS
 70
     8
  9
$HANDSEED
  5
1B3
  9
$SURFTAB1
 70
     6
  9
$SURFTAB2
 70
     6
  9
$SURFTYPE
 70
     6
  9
$SURFU
 70
     6
  9
$SURFV
 70
     6
  9
$UCSBASE
  2

  9
$UCSNAME
  2

  9
$UCSORG
 10
0.0
 20
0.0
 30
0.0
  9
$UCSXDIR
 10
1.0
 20
0.0
 30
0.0
  9
$UCSYDIR
 10
0.0
 20
1.0
 30
0.0
  9
$UCSORTHOREF
  2

  9
$UCSORTHOVIEW
 70
     0
  9
$UCSORGTOP
 10
0.0
 20
0.0
 30
0.0
  9
$UCSORGBOTTOM
 10
0.0
 20
0.0
 30
0.0
  9
$UCSORGLEFT
 10
0.0
 20
0.0
 30
0.0
  9
$UCSORGRIGHT
 10
0.0
 20
0.0
 30
0.0
  9
$UCSORGFRONT
 10
0.0
 20
0.0
 30
0.0
  9
$UCSORGBACK
 10
0.0
 20
0.0
 30
0.0
  9
$PUCSBASE
  2

  9
$PUCSNAME
  2

  9
$PUCSORG
 10
0.0
 20
0.0
 30
0.0
  9
$PUCSXDIR
 10
1.0
 20
0.0
 30
0.0
  9
$PUCSYDIR
 10
0.0
 20
1.0
 30
0.0
  9
$PUCSORTHOREF
  2

  9
$PUCSORTHOVIEW
 70
     0
  9
$PUCSORGTOP
 10
0.0
 20
0.0
 30
0.0
  9
$PUCSORGBOTTOM
 10
0.0
 20
0.0
 30
0.0
  9
$PUCSORGLEFT
 10
0.0
 20
0.0
 30
0.0
  9
$PUCSORGRIGHT
 10
0.0
 20
0.0
 30
0.0
  9
$PUCSORGFRONT
 10
0.0
 20
0.0
 30
0.0
  9
$PUCSORGBACK
 10
0.0
 20
0.0
 30
0.0
  9
$USERI1
 70
     0
  9
$USERI2
 70
     0
  9
$USERI3
 70
     0
  9
$USERI4
 70
     0
  9
$USERI5
 70
     0
  9
$USERR1
 40
0.0
  9
$USERR2
 40
0.0
  9
$USERR3
 40
0.0
  9
$USERR4
 40
0.0
  9
$USERR5
 40
0.0
  9
$WORLDVIEW
 70
     1
  9
$SHADEDGE
 70
     3
  9
$SHADEDIF
 70
    70
  9
$TILEMODE
 70
     1
  9
$MAXACTVP
 70
    64
  9
$PINSBASE
 10
0.0
 20
0.0
 30
0.0
  9
$PLIMCHECK
 70
     0
  9
$PEXTMIN
 10
0.0
 20
0.0
 30
0.0
  9
$PEXTMAX
 10
210.0
 20
297.0
 30
0.0
  9
$PLIMMIN
 10
0.0
 20
0.0
  9
$PLIMMAX
 10
210.0
 20
297.0
  9
$UNITMODE
 70
     0
  9
$VISRETAIN
 70
     1
  9
$PLINEGEN
 70
     0
  9
$PSLTSCALE
 70
     1
  9
$TREEDEPTH
 70
  3020
  9
$CMLSTYLE
  2
Standard
  9
$CMLJUST
 70
     0
  9
$CMLSCALE
 40
20.0
  9
$PROXYGRAPHICS
 70
     1
  9
$MEASUREMENT
 70
     1
  9
$CELWEIGHT
370
    -1
  9
$ENDCAPS
280
     0
  9
$JOINSTYLE
280
     0
  9
$LWDISPLAY
290
     0
  9
$INSUNITS
 70
     4
  9
$HYPERLINKBASE
  1

  9
$STYLESHEET
  1

  9
$XEDIT
290
     1
  9
$CEPSNTYPE
380
     0
  9
$PSTYLEMODE
290
     1
  9
$FINGERPRINTGUID
  2
{CB8972E1-0A8B-427B-A9C9-3A6AFEEABFC1}
  9
$VERSIONGUID
  2
{FAEB1C32-E019-11D5-929B-00C0DF256EC4}
  9
$EXTNAMES
290
     1
  9
$PSVPSCALE
 40
0.0
  9
$OLESTARTUP
290
     0
  0
ENDSEC
  0
SECTION
  2
CLASSES
  0
CLASS
  1
ACDBDICTIONARYWDFLT
  2
AcDbDictionaryWithDefault
  3
ObjectDBX Classes
 90
        0
280
     0
281
     0
  0
CLASS
  1
VISUALSTYLE
  2
AcDbVisualStyle
  3
ObjectDBX Classes
 90
     4095
280
     0
281
     0
  0
CLASS
  1
MATERIAL
  2
AcDbMaterial
  3
ObjectDBX Classes
 90
     1153
280
     0
281
     0
  0
CLASS
  1
DICTIONARYVAR
  2
AcDbDictionaryVar
  3
ObjectDBX Classes
 90
        0
280
     0
281
     0
  0
CLASS
  1
ACDBPLACEHOLDER
  2
AcDbPlaceHolder
  3
ObjectDBX Classes
 90
        0
280
     0
281
     0
  0
CLASS
  1
LAYOUT
  2
AcDbLayout
  3
ObjectDBX Classes
 90
        0
280
     0
281
     0
  0
ENDSEC
  0
SECTION
  2
TABLES
  0
TABLE
  2
VPORT
  5
8
330
0
100
AcDbSymbolTable
 70
     1
  0
VPORT
  5
29
330
8
100
AcDbSymbolTableRecord
100
AcDbViewportTableRecord
  2
*Active
 70
     0
 10
0.0
 20
0.0
 11
1.0
 21
1.0
 12
344.1869158879
 22
148.5
 13
0.0
 23
0.0
 14
10.0
 24
10.0
 15
10.0
 25
10.0
 16
0.0
 26
0.0
 36
1.0
 17
0.0
 27
0.0
 37
0.0
 40
297.0
 41
1.9729729729
 42
50.0
 43
0.0
 44
0.0
 50
0.0
 51
0.0
 71
     0
 72
   100
 73
     1
 74
     3
 75
     0
 76
     0
 77
     0
 78
     0
281
     0
 65
     1
110
0.0
120
0.0
130
0.0
111
1.0
121
0.0
131
0.0
112
0.0
122
1.0
132
0.0
 79
     0
146
0.0
  0
ENDTAB
  0
TABLE
  2
LTYPE
  5
5
330
0
100
AcDbSymbolTable
 70
     2
  0
LTYPE
  5
14
330
5
100
AcDbSymbolTableRecord
100
AcDbLinetypeTableRecord
  2
ByBlock
 70
     0
  3

 72
    65
 73
     0
 40
0.0
  0
LTYPE
  5
15
330
5
100
AcDbSymbolTableRecord
100
AcDbLinetypeTableRecord
  2
ByLayer
 70
     0
  3

 72
    65
 73
     0
 40
0.0
  0
LTYPE
  5
16
330
5
100
AcDbSymbolTableRecord
100
AcDbLinetypeTableRecord
  2
Continuous
 70
     0
  3
Solid line
 72
    65
 73
     0
 40
0.0
  0
LTYPE
  5
5E
330
5
100
AcDbSymbolTableRecord
100
AcDbLinetypeTableRecord
  2
HIDDEN2
 70
     0
  3
Hidden (.5x) _ _ _ _ _ _ _ _ _ _ _ _ _ _ _ _ _ 
 72
    65
 73
     2
 40
4.7625
 49
3.175
 74
     4
 75
     0
340
0
 46
0.0
 50
0.0
 44
0.0
 45
0.0
 49
-1.5875
 74
     4
 75
     0
340
0
 46
0.0
 50
0.0
 44
0.0
 45
0.0
  0
ENDTAB
  0
TABLE
  2
LAYER
  5
2
330
0
100
AcDbSymbolTable
 70
     5
  0
LAYER
  5
10
330
2
100
AcDbSymbolTableRecord
100
AcDbLayerTableRecord
  2
0
 70
     0
 62
     7
  6
Continuous
370
    -3
390
F
  0
LAYER
  5
3F
330
2
100
AcDbSymbolTableRecord
100
AcDbLayerTableRecord
  2
SK2
 70
     0
 62
     7
  6
Continuous
370
    15
390
F
  0
LAYER
  5
40
330
2
100
AcDbSymbolTableRecord
100
AcDbLayerTableRecord
  2
SK1
 70
     0
 62
     4
  6
Continuous
370
    18
390
F
  0
LAYER
  5
5D
330
2
100
AcDbSymbolTableRecord
100
AcDbLayerTableRecord
  2
SK3
 70
     0
 62
     1
  6
HIDDEN2
370
    15
390
F
  0
LAYER
  5
146
330
2
100
AcDbSymbolTableRecord
100
AcDbLayerTableRecord
  2
SK4
 70
     0
 62
     2
  6
Continuous
370
    13
390
F
  0
ENDTAB
  0
TABLE
  2
STYLE
  5
3
330
0
100
AcDbSymbolTable
 70
     2
  0
STYLE
  5
11
330
3
100
AcDbSymbolTableRecord
100
AcDbTextStyleTableRecord
  2
Standard
 70
     0
 40
0.0
 41
1.0
 50
0.0
 71
     0
 42
2.5
  3
txt
  4

  0
STYLE
  5
15A
330
3
100
AcDbSymbolTableRecord
100
AcDbTextStyleTableRecord
  2
SEACAD_Solid_Edge_ISO
 70
     0
 40
0.0
 41
1.0
 50
0.0
 71
     0
 42
0.2
  3
seiso.ttf
  4

1001
ACAD
1000
Solid Edge ISO
1071
        0
  0
ENDTAB
  0
TABLE
  2
VIEW
  5
6
330
0
100
AcDbSymbolTable
 70
     0
  0
ENDTAB
  0
TABLE
  2
UCS
  5
7
330
0
100
AcDbSymbolTable
 70
     0
  0
ENDTAB
  0
TABLE
  2
APPID
  5
9
330
0
100
AcDbSymbolTable
 70
     1
  0
APPID
  5
12
330
9
100
AcDbSymbolTableRecord
100
AcDbRegAppTableRecord
  2
ACAD
 70
     0
  0
ENDTAB
  0
TABLE
  2
DIMSTYLE
  5
A
330
0
100
AcDbSymbolTable
 70
     3
100
AcDbDimStyleTable
  0
DIMSTYLE
105
27
330
A
100
AcDbSymbolTableRecord
100
AcDbDimStyleTableRecord
  2
ISO-25
 70
     0
 41
2.5
 42
0.625
 43
3.75
 44
1.25
 73
     0
 74
     0
 77
     1
 78
     8
140
2.5
141
2.5
143
0.0393700787
147
0.625
171
     3
172
     1
178
     0
271
     2
272
     2
274
     3
278
    44
283
     0
284
     8
340
11
  0
DIMSTYLE
105
148
330
A
100
AcDbSymbolTableRecord
100
AcDbDimStyleTableRecord
  2
Standard
 70
     0
178
     0
340
11
  0
DIMSTYLE
105
15B
102
{ACAD_REACTORS
330
15C
330
167
330
171
330
17C
102
}
330
A
100
AcDbSymbolTableRecord
100
AcDbDimStyleTableRecord
  2
DIN
 70
     0
 41
3.5
 42
0.0
 44
1.75
 73
     0
 74
     0
 77
     1
 78
     8
140
3.5
141
1.75
147
1.75
172
     1
173
     1
178
     0
179
     3
271
     2
272
     2
278
    44
284
     8
340
15A
343
155
344
155
  0
ENDTAB
  0
TABLE
  2
BLOCK_RECORD
  5
1
330
0
100
AcDbSymbolTable
 70
    10
  0
BLOCK_RECORD
  5
1F
330
1
100
AcDbSymbolTableRecord
100
AcDbBlockTableRecord
  2
*Model_Space
340
22
  0
BLOCK_RECORD
  5
1B
330
1
100
AcDbSymbolTableRecord
100
AcDbBlockTableRecord
  2
*Paper_Space
340
1E
  0
BLOCK_RECORD
  5
41
330
1
100
AcDbSymbolTableRecord
100
AcDbBlockTableRecord
  2
Nullpunkt
340
0
102
{BLKREFS
331
4B
102
}
  0
BLOCK_RECORD
  5
4C
330
1
100
AcDbSymbolTableRecord
100
AcDbBlockTableRecord
  2
Einfügepunkt
340
0
102
{BLKREFS
331
56
102
}
  0
BLOCK_RECORD
  5
149
330
1
100
AcDbSymbolTableRecord
100
AcDbBlockTableRecord
  2
_OBLIQUE
340
0
  0
BLOCK_RECORD
  5
14D
330
1
100
AcDbSymbolTableRecord
100
AcDbBlockTableRecord
  2
_DOT
340
0
  0
BLOCK_RECORD
  5
155
330
1
100
AcDbSymbolTableRecord
100
AcDbBlockTableRecord
  2
_SE_FILLED
340
0
  0
BLOCK_RECORD
  5
15D
330
1
100
AcDbSymbolTableRecord
100
AcDbBlockTableRecord
  2
DMBLK103
340
0
  0
BLOCK_RECORD
  5
168
330
1
100
AcDbSymbolTableRecord
100
AcDbBlockTableRecord
  2
DMBLK104
340
0
  0
BLOCK_RECORD
  5
172
330
1
100
AcDbSymbolTableRecord
100
AcDbBlockTableRecord
  2
DMBLK105
340
0
  0
BLOCK_RECORD
  5
17D
330
1
100
AcDbSymbolTableRecord
100
AcDbBlockTableRecord
  2
DMBLK106
340
0
  0
ENDTAB
  0
ENDSEC
  0
SECTION
  2
BLOCKS
  0
BLOCK
  5
20
330
1F
100
AcDbEntity
  8
0
100
AcDbBlockBegin
  2
*Model_Space
 70
     0
 10
0.0
 20
0.0
 30
0.0
  3
*Model_Space
  1

  0
ENDBLK
  5
21
330
1F
100
AcDbEntity
  8
0
100
AcDbBlockEnd
  0
BLOCK
  5
1C
330
1B
100
AcDbEntity
 67
     1
  8
0
100
AcDbBlockBegin
  2
*Paper_Space
 70
     0
 10
0.0
 20
0.0
 30
0.0
  3
*Paper_Space
  1

  0
ENDBLK
  5
1D
330
1B
100
AcDbEntity
 67
     1
  8
0
100
AcDbBlockEnd
  0
BLOCK
  5
49
330
41
100
AcDbEntity
  8
0
100
AcDbBlockBegin
  2
Nullpunkt
 70
     0
 10
0.0
 20
0.0
 30
0.0
  3
Nullpunkt
  1

  0
HATCH
  5
42
330
41
100
AcDbEntity
  8
SK2
  6
Continuous
 62
     7
100
AcDbHatch
 10
0.0
 20
0.0
 30
0.0
210
0.0
220
0.0
230
1.0
  2
SOLID
 70
     1
 71
     0
 91
        1
 92
        1
 93
        3
 72
     1
 10
-1.0
 20
0.0
 11
0.0000000000000009
 21
0.0
 72
     1
 10
0.0
 20
0.0
 11
0.0
 21
1.000000000000001
 72
     2
 10
0.0
 20
0.0
 40
1.0
 50
90.0
 51
180.0
 73
     1
 97
        0
 75
     0
 76
     1
 98
        0
  0
HATCH
  5
43
330
41
100
AcDbEntity
  8
SK2
  6
Continuous
 62
     7
100
AcDbHatch
 10
0.0
 20
0.0
 30
0.0
210
0.0
220
0.0
230
1.0
  2
SOLID
 70
     1
 71
     0
 91
        1
 92
        1
 93
        3
 72
     2
 10
0.0
 20
0.0
 40
1.0
 50
270.0
 51
360.0
 73
     1
 72
     1
 10
1.0
 20
0.0
 11
-0.0000000000000009
 21
0.0
 72
     1
 10
0.0
 20
0.0
 11
0.0
 21
-1.000000000000001
 97
        0
 75
     0
 76
     1
 98
        0
  0
CIRCLE
  5
44
330
41
100
AcDbEntity
  8
SK2
  6
Continuous
 62
     7
100
AcDbCircle
 10
0.0
 20
0.0
 30
0.0
 40
1.0
  0
LINE
  5
45
330
41
100
AcDbEntity
  8
SK1
  6
Continuous
100
AcDbLine
 10
-1.0
 20
0.0
 30
0.0
 11
1.0
 21
0.0
 31
0.0
  0
LINE
  5
46
330
41
100
AcDbEntity
  8
SK1
  6
Continuous
100
AcDbLine
 10
0.0
 20
1.0
 30
0.0
 11
0.0
 21
-1.0
 31
0.0
  0
POINT
  5
47
330
41
100
AcDbEntity
  8
SK1
  6
Continuous
100
AcDbPoint
 10
0.0
 20
0.0
 30
0.0
  0
POINT
  5
48
330
41
100
AcDbEntity
  8
SK1
  6
Continuous
100
AcDbPoint
 10
0.0
 20
0.0
 30
0.0
  0
ENDBLK
  5
4A
330
41
100
AcDbEntity
  8
0
100
AcDbBlockEnd
  0
BLOCK
  5
54
330
4C
100
AcDbEntity
  8
0
100
AcDbBlockBegin
  2
Einfügepunkt
 70
     0
 10
0.0
 20
0.0
 30
0.0
  3
Einfügepunkt
  1

  0
HATCH
  5
4D
330
4C
100
AcDbEntity
  8
SK2
  6
Continuous
 62
     7
100
AcDbHatch
 10
0.0
 20
0.0
 30
0.0
210
0.0
220
0.0
230
1.0
  2
SOLID
 70
     1
 71
     0
 91
        1
 92
        1
 93
        3
 72
     1
 10
-0.4502381196756744
 20
-0.0000000000000018
 11
0.0000000000000033
 21
-0.0000000000000018
 72
     1
 10
0.0
 20
-0.0000000000000018
 11
0.0
 21
0.4502381196756812
 72
     2
 10
0.0
 20
-0.0000000000000018
 40
0.4502381196756812
 50
90.0
 51
180.0
 73
     1
 97
        0
 75
     0
 76
     1
 98
        0
  0
HATCH
  5
4E
330
4C
100
AcDbEntity
  8
SK2
  6
Continuous
 62
     7
100
AcDbHatch
 10
0.0
 20
0.0
 30
0.0
210
0.0
220
0.0
230
1.0
  2
SOLID
 70
     1
 71
     0
 91
        1
 92
        1
 93
        3
 72
     2
 10
0.0
 20
-0.0000000000000018
 40
0.4502381196756812
 50
270.0
 51
360.0
 73
     1
 72
     1
 10
0.4502381196756815
 20
-0.0000000000000018
 11
0.0000000000000038
 21
-0.0000000000000018
 72
     1
 10
0.0
 20
-0.0000000000000018
 11
0.0
 21
-0.4502381196756812
 97
        0
 75
     0
 76
     1
 98
        0
  0
CIRCLE
  5
4F
330
4C
100
AcDbEntity
  8
SK2
  6
Continuous
 62
     7
100
AcDbCircle
 10
0.0
 20
0.0
 30
0.0
 40
0.4502381196756812
  0
LINE
  5
50
330
4C
100
AcDbEntity
  8
SK1
  6
Continuous
100
AcDbLine
 10
-0.4502381197
 20
0.0
 30
0.0
 11
0.4502381197
 21
0.0
 31
0.0
  0
LINE
  5
51
330
4C
100
AcDbEntity
  8
SK1
  6
Continuous
100
AcDbLine
 10
0.0
 20
0.4502381197
 30
0.0
 11
0.0
 21
-0.4502381197
 31
0.0
  0
POINT
  5
52
330
4C
100
AcDbEntity
  8
SK2
  6
Continuous
 62
     7
100
AcDbPoint
 10
0.0
 20
0.0
 30
0.0
  0
POINT
  5
53
330
4C
100
AcDbEntity
  8
SK2
  6
Continuous
 62
     7
100
AcDbPoint
 10
0.0
 20
0.0
 30
0.0
  0
ENDBLK
  5
55
330
4C
100
AcDbEntity
  8
0
100
AcDbBlockEnd
  0
BLOCK
  5
14A
330
149
100
AcDbEntity
  8
0
100
AcDbBlockBegin
  2
_OBLIQUE
 70
     0
 10
0.0
 20
0.0
 30
0.0
  3
_OBLIQUE
  1

  0
LINE
  5
14C
330
149
100
AcDbEntity
  8
0
  6
ByBlock
 62
     0
370
    -2
100
AcDbLine
 10
-0.5
 20
-0.5
 30
0.0
 11
0.5
 21
0.5
 31
0.0
  0
ENDBLK
  5
14B
330
149
100
AcDbEntity
  8
0
100
AcDbBlockEnd
  0
BLOCK
  5
14E
330
14D
100
AcDbEntity
  8
0
100
AcDbBlockBegin
  2
_DOT
 70
     0
 10
0.0
 20
0.0
 30
0.0
  3
_DOT
  1

  0
POLYLINE
  5
150
330
14D
100
AcDbEntity
  8
0
  6
ByBlock
 62
     0
100
AcDb2dPolyline
 66
     1
 10
0.0
 20
0.0
 30
0.0
 70
     1
 40
0.5
 41
0.5
  0
VERTEX
  5
152
330
150
100
AcDbEntity
  8
0
  6
ByBlock
 62
     0
100
AcDbVertex
100
AcDb2dVertex
 10
-0.25
 20
0.0
 30
0.0
 42
1.0
  0
VERTEX
  5
153
330
150
100
AcDbEntity
  8
0
  6
ByBlock
 62
     0
100
AcDbVertex
100
AcDb2dVertex
 10
0.25
 20
0.0
 30
0.0
 42
1.0
  0
SEQEND
  5
154
330
150
100
AcDbEntity
  8
0
  6
ByBlock
 62
     0
  0
LINE
  5
151
330
14D
100
AcDbEntity
  8
0
  6
ByBlock
 62
     0
370
    -2
100
AcDbLine
 10
-0.5
 20
0.0
 30
0.0
 11
-1.0
 21
0.0
 31
0.0
  0
ENDBLK
  5
14F
330
14D
100
AcDbEntity
  8
0
100
AcDbBlockEnd
  0
BLOCK
  5
158
330
155
100
AcDbEntity
  8
0
100
AcDbBlockBegin
  2
_SE_FILLED
 70
     0
 10
0.0
 20
0.0
 30
0.0
  3
_SE_FILLED
  1

  0
SOLID
  5
156
330
155
100
AcDbEntity
  8
0
 62
     0
100
AcDbTrace
 10
0.0
 20
0.0
 30
0.0
 11
-1.0
 21
-0.1665
 31
0.0
 12
-1.0
 22
0.1665
 32
0.0
 13
0.0
 23
0.0
 33
0.0
  0
LINE
  5
157
330
155
100
AcDbEntity
  8
0
 62
     0
100
AcDbLine
 10
0.0
 20
0.0
 30
0.0
 11
-1.0
 21
0.0
 31
0.0
  0
ENDBLK
  5
159
330
155
100
AcDbEntity
  8
0
100
AcDbBlockEnd
  0
BLOCK
  5
165
330
15D
100
AcDbEntity
  8
0
100
AcDbBlockBegin
  2
DMBLK103
 70
     0
 10
0.0
 20
0.0
 30
0.0
  3
DMBLK103
  1

  0
HATCH
  5
15E
330
15D
100
AcDbEntity
  8
SK2
  6
Continuous
 62
   136
100
AcDbHatch
 10
0.0
 20
0.0
 30
0.0
210
0.0
220
0.0
230
1.0
  2
SOLID
 70
     1
 71
     0
 91
        1
 92
        1
 93
        3
 72
     1
 10
20.08247484090427
 20
6.000000207804101
 11
18.91580813822646
 21
6.000000207804101
 72
     1
 10
18.91580813822646
 20
6.000000207804101
 11
19.49914148956536
 21
2.500000099770682
 72
     1
 10
19.49914148956536
 20
2.500000099770683
 11
20.08247484090427
 21
6.000000207804101
 97
        0
 75
     0
 76
     1
 98
        0
  0
HATCH
  5
15F
330
15D
100
AcDbEntity
  8
SK2
  6
Continuous
 62
   136
100
AcDbHatch
 10
0.0
 20
0.0
 30
0.0
210
0.0
220
0.0
230
1.0
  2
SOLID
 70
     1
 71
     0
 91
        1
 92
        1
 93
        3
 72
     1
 10
20.08247484090427
 20
-6.000000008262718
 11
19.49914148956536
 21
-2.499999900229299
 72
     1
 10
19.49914148956536
 20
-2.499999900229299
 11
18.91580813822646
 21
-6.000000008262719
 72
     1
 10
18.91580813822646
 20
-6.000000008262718
 11
20.08247484090427
 21
-6.000000008262718
 97
        0
 75
     0
 76
     1
 98
        0
  0
LINE
  5
160
330
15D
100
AcDbEntity
  8
SK2
  6
Continuous
 62
   136
100
AcDbLine
 10
10.06
 20
2.5000000998
 30
0.0
 11
21.2491415436
 21
2.5000000998
 31
0.0
  0
LINE
  5
161
330
15D
100
AcDbEntity
  8
SK2
  6
Continuous
 62
   136
100
AcDbLine
 10
10.06
 20
-2.4999999002
 30
0.0
 11
21.2491415436
 21
-2.4999999002
 31
0.0
  0
LINE
  5
162
330
15D
100
AcDbEntity
  8
SK2
  6
Continuous
 62
   136
100
AcDbLine
 10
19.4991414896
 20
16.2753394499
 30
0.0
 11
19.4991414896
 21
-9.5000000045
 31
0.0
  0
TEXT
  5
163
330
15D
100
AcDbEntity
  8
SK2
  6
Continuous
 62
   136
100
AcDbText
 10
18.6241414896
 20
13.0617027283
 30
0.0
 40
3.5
  1
5
 50
90.0
  7
SEACAD_Solid_Edge_ISO
 11
15.1241414896
 21
13.0617027283
 31
0.0
100
AcDbText
 73
     3
  0
TEXT
  5
164
330
15D
100
AcDbEntity
  8
SK2
  6
Continuous
 62
   136
100
AcDbText
 10
18.6241414896
 20
8.9889754555
 30
0.0
 40
3.5
  1
ø
 50
90.0
  7
SEACAD_Solid_Edge_ISO
 11
15.1241414896
 21
8.9889754555
 31
0.0
100
AcDbText
 73
     3
  0
ENDBLK
  5
166
330
15D
100
AcDbEntity
  8
0
100
AcDbBlockEnd
  0
BLOCK
  5
16F
330
168
100
AcDbEntity
  8
0
100
AcDbBlockBegin
  2
DMBLK104
 70
     0
 10
0.0
 20
0.0
 30
0.0
  3
DMBLK104
  1

  0
HATCH
  5
169
330
168
100
AcDbEntity
  8
SK2
  6
Continuous
 62
   136
100
AcDbHatch
 10
0.0
 20
0.0
 30
0.0
210
0.0
220
0.0
230
1.0
  2
SOLID
 70
     1
 71
     0
 91
        1
 92
        1
 93
        3
 72
     1
 10
-3.500000108033416
 20
-17.1782317724523
 11
0.0000000000000022
 21
-16.5948984211134
 72
     1
 10
0.0000000000000022
 20
-16.5948984211134
 11
-3.500000108033416
 21
-16.01156506977449
 72
     1
 10
-3.500000108033416
 20
-16.01156506977449
 11
-3.500000108033416
 21
-17.1782317724523
 97
        0
 75
     0
 76
     1
 98
        0
  0
HATCH
  5
16A
330
168
100
AcDbEntity
  8
SK2
  6
Continuous
 62
   136
100
AcDbHatch
 10
0.0
 20
0.0
 30
0.0
210
0.0
220
0.0
230
1.0
  2
SOLID
 70
     1
 71
     0
 91
        1
 92
        1
 93
        3
 72
     1
 10
13.76000010803342
 20
-17.1782317724523
 11
13.76000010803342
 21
-16.01156506977449
 72
     1
 10
13.76000010803342
 20
-16.01156506977449
 11
10.26
 21
-16.5948984211134
 72
     1
 10
10.26
 20
-16.5948984211134
 11
13.76000010803342
 21
-17.1782317724523
 97
        0
 75
     0
 76
     1
 98
        0
  0
LINE
  5
16B
330
168
100
AcDbEntity
  8
SK2
  6
Continuous
 62
   136
100
AcDbLine
 10
0.0
 20
-7.9957679843
 30
0.0
 11
0.0
 21
-18.3448984751
 31
0.0
  0
LINE
  5
16C
330
168
100
AcDbEntity
  8
SK2
  6
Continuous
 62
   136
100
AcDbLine
 10
10.26
 20
-4.0959107383
 30
0.0
 11
10.26
 21
-18.3448984751
 31
0.0
  0
LINE
  5
16D
330
168
100
AcDbEntity
  8
SK2
  6
Continuous
 62
   136
100
AcDbLine
 10
-7.0000002161
 20
-16.5948984211
 30
0.0
 11
17.2600001097
 21
-16.5948984211
 31
0.0
  0
TEXT
  5
16E
330
168
100
AcDbEntity
  8
SK2
  6
Continuous
 62
   136
100
AcDbText
 10
0.9140908559
 20
-15.7198984211
 30
0.0
 40
3.5
  1
10,26
  7
SEACAD_Solid_Edge_ISO
 11
0.9140908559
 21
-12.2198984211
 31
0.0
100
AcDbText
 73
     3
  0
ENDBLK
  5
170
330
168
100
AcDbEntity
  8
0
100
AcDbBlockEnd
  0
BLOCK
  5
17A
330
172
100
AcDbEntity
  8
0
100
AcDbBlockBegin
  2
DMBLK105
 70
     0
 10
0.0
 20
0.0
 30
0.0
  3
DMBLK105
  1

  0
HATCH
  5
173
330
172
100
AcDbEntity
  8
SK2
  6
Continuous
 62
   136
100
AcDbHatch
 10
0.0
 20
0.0
 30
0.0
210
0.0
220
0.0
230
1.0
  2
SOLID
 70
     1
 71
     0
 91
        1
 92
        1
 93
        3
 72
     1
 10
-23.87064268502096
 20
4.495768075843291
 11
-22.70397598234316
 21
4.495768075843291
 72
     1
 10
-22.70397598234316
 20
4.495768075843291
 11
-23.28730933368206
 21
7.995768183876709
 72
     1
 10
-23.28730933368206
 20
7.995768183876709
 11
-23.87064268502096
 21
4.495768075843291
 97
        0
 75
     0
 76
     1
 98
        0
  0
HATCH
  5
174
330
172
100
AcDbEntity
  8
SK2
  6
Continuous
 62
   136
100
AcDbHatch
 10
0.0
 20
0.0
 30
0.0
210
0.0
220
0.0
230
1.0
  2
SOLID
 70
     1
 71
     0
 91
        1
 92
        1
 93
        3
 72
     1
 10
-23.87064268502096
 20
-4.495768608490987
 11
-23.28730933368206
 21
-7.995768716524406
 72
     1
 10
-23.28730933368206
 20
-7.995768716524406
 11
-22.70397598234316
 21
-4.495768608490987
 72
     1
 10
-22.70397598234316
 20
-4.495768608490987
 11
-23.87064268502096
 21
-4.495768608490987
 97
        0
 75
     0
 76
     1
 98
        0
  0
LINE
  5
175
330
172
100
AcDbEntity
  8
SK2
  6
Continuous
 62
   136
100
AcDbLine
 10
0.0
 20
7.9957681839
 30
0.0
 11
-25.0373093877
 21
7.9957681839
 31
0.0
  0
LINE
  5
176
330
172
100
AcDbEntity
  8
SK2
  6
Continuous
 62
   136
100
AcDbLine
 10
0.0
 20
-7.9957679843
 30
0.0
 11
-25.0373093877
 21
-7.9957679843
 31
0.0
  0
LINE
  5
177
330
172
100
AcDbEntity
  8
SK2
  6
Continuous
 62
   136
100
AcDbLine
 10
-23.2873093337
 20
7.9957681839
 30
0.0
 11
-23.2873093337
 21
-7.9957687165
 31
0.0
  0
TEXT
  5
178
330
172
100
AcDbEntity
  8
SK2
  6
Continuous
 62
   136
100
AcDbText
 10
-24.1623093337
 20
0.2465906428
 30
0.0
 40
3.5
  1
16
 50
90.0
  7
SEACAD_Solid_Edge_ISO
 11
-27.6623093337
 21
0.2465906428
 31
0.0
100
AcDbText
 73
     3
  0
TEXT
  5
179
330
172
100
AcDbEntity
  8
SK2
  6
Continuous
 62
   136
100
AcDbText
 10
-24.1623093337
 20
-3.82613663
 30
0.0
 40
3.5
  1
ø
 50
90.0
  7
SEACAD_Solid_Edge_ISO
 11
-27.6623093337
 21
-3.82613663
 31
0.0
100
AcDbText
 73
     3
  0
ENDBLK
  5
17B
330
172
100
AcDbEntity
  8
0
100
AcDbBlockEnd
  0
BLOCK
  5
184
330
17D
100
AcDbEntity
  8
0
100
AcDbBlockBegin
  2
DMBLK106
 70
     0
 10
0.0
 20
0.0
 30
0.0
  3
DMBLK106
  1

  0
HATCH
  5
17E
330
17D
100
AcDbEntity
  8
SK2
  6
Continuous
 62
   136
100
AcDbHatch
 10
0.0
 20
0.0
 30
0.0
210
0.0
220
0.0
230
1.0
  2
SOLID
 70
     1
 71
     0
 91
        1
 92
        1
 93
        3
 72
     1
 10
-13.73999989196658
 20
15.08077613235318
 11
-17.24
 21
14.49744278101428
 72
     1
 10
-17.24
 20
14.49744278101428
 11
-13.73999989196658
 21
13.91410942967538
 72
     1
 10
-13.73999989196658
 20
13.91410942967538
 11
-13.73999989196658
 21
15.08077613235318
 97
        0
 75
     0
 76
     1
 98
        0
  0
HATCH
  5
17F
330
17D
100
AcDbEntity
  8
SK2
  6
Continuous
 62
   136
100
AcDbHatch
 10
0.0
 20
0.0
 30
0.0
210
0.0
220
0.0
230
1.0
  2
SOLID
 70
     1
 71
     0
 91
        1
 92
        1
 93
        3
 72
     1
 10
6.759999742954971
 20
15.08077613235318
 11
6.759999742954971
 21
13.91410942967538
 72
     1
 10
6.759999742954971
 20
13.91410942967538
 11
10.25999985098839
 21
14.49744278101428
 72
     1
 10
10.25999985098839
 20
14.49744278101428
 11
6.759999742954971
 21
15.08077613235318
 97
        0
 75
     0
 76
     1
 98
        0
  0
LINE
  5
180
330
17D
100
AcDbEntity
  8
SK2
  6
Continuous
 62
   136
100
AcDbLine
 10
-17.24
 20
5.3130344302
 30
0.0
 11
-17.24
 21
16.247442835
 31
0.0
  0
LINE
  5
181
330
17D
100
AcDbEntity
  8
SK2
  6
Continuous
 62
   136
100
AcDbLine
 10
10.26
 20
5.9818771065
 30
0.0
 11
10.26
 21
16.247442835
 31
0.0
  0
LINE
  5
182
330
17D
100
AcDbEntity
  8
SK2
  6
Continuous
 62
   136
100
AcDbLine
 10
-17.24
 20
14.497442781
 30
0.0
 11
10.259999851
 21
14.497442781
 31
0.0
  0
TEXT
  5
183
330
17D
100
AcDbEntity
  8
SK2
  6
Continuous
 62
   136
100
AcDbText
 10
-6.9900000745
 20
15.372442781
 30
0.0
 40
3.5
  1
27,5
  7
SEACAD_Solid_Edge_ISO
 11
-6.9900000745
 21
18.872442781
 31
0.0
100
AcDbText
 73
     3
  0
ENDBLK
  5
185
330
17D
100
AcDbEntity
  8
0
100
AcDbBlockEnd
  0
ENDSEC
  0
SECTION
  2
ENTITIES
  0
INSERT
  5
4B
330
1F
100
AcDbEntity
  8
SK2
 62
     7
100
AcDbBlockReference
  2
Nullpunkt
 10
0.0
 20
0.0000000998
 30
0.0
  0
INSERT
  5
56
330
1F
100
AcDbEntity
  8
SK2
 62
     7
100
AcDbBlockReference
  2
Einfügepunkt
 10
10.26
 20
0.0000000998
 30
0.0
  0
LINE
  5
57
330
1F
100
AcDbEntity
  8
SK1
  6
Continuous
100
AcDbLine
 10
10.26
 20
-6.1712612562
 30
0.0
 11
10.26
 21
-5.7924925577
 31
0.0
  0
LINE
  5
58
330
1F
100
AcDbEntity
  8
SK1
  6
Continuous
100
AcDbLine
 10
10.135
 20
-5.9926770999
 30
0.0
 11
10.135
 21
-6.3877676071
 31
0.0
  0
LINE
  5
59
330
1F
100
AcDbEntity
  8
SK1
  6
Continuous
100
AcDbLine
 10
6.26
 20
-8.6249999002
 30
0.0
 11
6.26
 21
-8.0607836332
 31
0.0
  0
LINE
  5
5A
330
1F
100
AcDbEntity
  8
SK1
  6
Continuous
100
AcDbLine
 10
6.06
 20
-6.8999999002
 30
0.0
 11
6.06
 21
-6.4662539215
 31
0.0
  0
LINE
  5
5B
330
1F
100
AcDbEntity
  8
SK1
  6
Continuous
100
AcDbLine
 10
-16.94
 20
-3.7924600365
 30
0.0
 11
-16.94
 21
-0.2499999002
 31
0.0
  0
LINE
  5
5C
330
1F
100
AcDbEntity
  8
SK1
  6
Continuous
100
AcDbLine
 10
-17.24
 20
-3.5801058433
 30
0.0
 11
-17.24
 21
-0.2499999002
 31
0.0
  0
LINE
  5
5F
330
1F
100
AcDbEntity
  8
SK3
100
AcDbLine
 10
10.06
 20
-2.3937920789
 30
0.0
 11
10.06
 21
-2.4999999002
 31
0.0
  0
LINE
  5
60
330
1F
100
AcDbEntity
  8
SK3
100
AcDbLine
 10
-17.04
 20
-1.5821291149
 30
0.0
 11
-17.04
 21
-0.2499999002
 31
0.0
  0
LINE
  5
61
330
1F
100
AcDbEntity
  8
SK3
100
AcDbLine
 10
10.06
 20
-1.1828828023
 30
0.0
 11
10.26
 21
-1.2272839941
 31
0.0
  0
LINE
  5
62
330
1F
100
AcDbEntity
  8
SK3
100
AcDbLine
 10
10.06
 20
-0.7209430361
 30
0.0
 11
10.26
 21
-0.7653442278
 31
0.0
  0
LINE
  5
63
330
1F
100
AcDbEntity
  8
SK3
100
AcDbLine
 10
10.06
 20
2.3937922785
 30
0.0
 11
10.06
 21
2.5000000998
 31
0.0
  0
LINE
  5
64
330
1F
100
AcDbEntity
  8
SK3
100
AcDbLine
 10
-12.2210926793
 20
2.2024505623
 30
0.0
 11
10.06
 21
2.2024505623
 31
0.0
  0
LINE
  5
65
330
1F
100
AcDbEntity
  8
SK3
100
AcDbLine
 10
-12.24
 20
2.309698931
 30
0.0
 11
-12.2210926793
 21
2.2024505623
 31
0.0
  0
LINE
  5
66
330
1F
100
AcDbEntity
  8
SK3
100
AcDbLine
 10
-12.2210926793
 20
2.3937922785
 30
0.0
 11
-12.24
 21
2.309698931
 31
0.0
  0
LINE
  5
67
330
1F
100
AcDbEntity
  8
SK3
100
AcDbLine
 10
-12.2210926793
 20
2.3937922785
 30
0.0
 11
10.06
 21
2.3937922785
 31
0.0
  0
LINE
  5
68
330
1F
100
AcDbEntity
  8
SK1
  6
Continuous
100
AcDbLine
 10
3.56
 20
7.9452496334
 30
0.0
 11
3.56
 21
8.4963228338
 31
0.0
  0
LINE
  5
69
330
1F
100
AcDbEntity
  8
SK1
  6
Continuous
100
AcDbLine
 10
10.26
 20
5.7924927572
 30
0.0
 11
10.26
 21
6.1712614557
 31
0.0
  0
LINE
  5
6A
330
1F
100
AcDbEntity
  8
SK1
  6
Continuous
100
AcDbLine
 10
10.135
 20
5.9926772995
 30
0.0
 11
10.135
 21
6.3877678067
 31
0.0
  0
LINE
  5
6B
330
1F
100
AcDbEntity
  8
SK1
  6
Continuous
100
AcDbLine
 10
6.26
 20
8.0607838328
 30
0.0
 11
6.26
 21
8.6250000998
 31
0.0
  0
LINE
  5
6C
330
1F
100
AcDbEntity
  8
SK1
  6
Continuous
100
AcDbLine
 10
6.06
 20
6.4662541211
 30
0.0
 11
6.06
 21
6.9000000998
 31
0.0
  0
LINE
  5
6D
330
1F
100
AcDbEntity
  8
SK1
  6
Continuous
100
AcDbLine
 10
3.76
 20
6.4662541211
 30
0.0
 11
3.76
 21
6.8954696269
 31
0.0
  0
LINE
  5
6E
330
1F
100
AcDbEntity
  8
SK3
100
AcDbLine
 10
-12.2210926793
 20
2.2024505623
 30
0.0
 11
-12.24
 21
2.214028073
 31
0.0
  0
LINE
  5
6F
330
1F
100
AcDbEntity
  8
SK1
  6
Continuous
100
AcDbLine
 10
3.56
 20
7.7539079172
 30
0.0
 11
3.56
 21
7.9452496334
 31
0.0
  0
SPLINE
  5
70
330
1F
100
AcDbEntity
  8
SK1
  6
Continuous
100
AcDbSpline
210
0.0
220
0.0
230
1.0
 70
     8
 71
     3
 72
    14
 73
    10
 74
     0
 42
0.0000000006276366
 43
0.0000000001
 12
1.0
 22
0.0
 32
0.0
 13
1.0
 23
0.0
 33
0.0
 40
0.0
 40
0.0
 40
0.0
 40
0.0
 40
0.1554226057713496
 40
0.1554226057713496
 40
0.1554226057713496
 40
0.876546871892003
 40
0.876546871892003
 40
0.876546871892003
 40
1.0
 40
1.0
 40
1.0
 40
1.0
 10
3.560000000000002
 20
7.945249633399394
 30
0.0
 10
2.741438512714127
 20
7.838919316803103
 30
0.0
 10
1.922877303841417
 20
7.732587170761087
 30
0.0
 10
1.10431641034452
 20
7.62625295250947
 30
0.0
 10
-2.69361324493483
 20
7.132887237048148
 30
0.0
 10
-6.491536507903598
 20
6.639479513405597
 30
0.0
 10
-10.28944716197091
 20
6.145988963647446
 30
0.0
 10
-10.93963184251732
 20
6.061505671471113
 30
0.0
 10
-11.5898161394151
 20
5.977019859073081
 30
0.0
 10
-12.23999999999999
 20
5.892531180777748
 30
0.0
  0
LINE
  5
71
330
1F
100
AcDbEntity
  8
SK3
100
AcDbLine
 10
-12.2210926793
 20
2.3937922785
 30
0.0
 11
-12.24
 21
2.4053697891
 31
0.0
  0
LINE
  5
72
330
1F
100
AcDbEntity
  8
SK3
100
AcDbLine
 10
10.06
 20
2.3937922785
 30
0.0
 11
10.26
 21
2.5009862378
 31
0.0
  0
LINE
  5
73
330
1F
100
AcDbEntity
  8
SK1
  6
Continuous
100
AcDbLine
 10
10.26
 20
5.601151041
 30
0.0
 11
10.26
 21
5.7924927572
 31
0.0
  0
ARC
  5
74
330
1F
100
AcDbEntity
  8
SK1
  6
Continuous
100
AcDbCircle
 10
10.0314580041
 20
5.7889044481
 30
0.0
 40
0.2285701639912166
100
AcDbArc
 50
0.899519913
 51
63.0637567096
  0
SPLINE
  5
75
330
1F
100
AcDbEntity
  8
SK1
  6
Continuous
100
AcDbSpline
210
0.0
220
0.0
230
1.0
 70
     8
 71
     3
 72
    11
 73
     7
 74
     0
 42
0.0000000022766885
 43
0.0000000001
 12
1.0
 22
0.0
 32
0.0
 13
1.0
 23
0.0
 33
0.0
 40
0.0
 40
0.0
 40
0.0
 40
0.0
 40
0.0764715852480354
 40
0.0764715852480354
 40
0.0764715852480354
 40
1.0
 40
1.0
 40
1.0
 40
1.0
 10
10.135
 20
5.992677299457178
 30
0.0
 10
10.03622911855154
 20
6.045402290383912
 30
0.0
 10
9.937457729607015
 20
6.098126469841548
 30
0.0
 10
9.838685871931181
 20
6.150849899769146
 30
0.0
 10
8.645842589961196
 20
6.787577715479105
 30
0.0
 10
7.452934826779427
 20
7.424202423645293
 30
0.0
 10
6.260000000000003
 20
8.060783832780354
 30
0.0
  0
LINE
  5
76
330
1F
100
AcDbEntity
  8
SK1
  6
Continuous
100
AcDbLine
 10
6.26
 20
8.0607838328
 30
0.0
 11
6.26
 21
7.8694421166
 31
0.0
  0
ARC
  5
77
330
1F
100
AcDbEntity
  8
SK1
  6
Continuous
100
AcDbCircle
 10
6.0672729687
 20
6.659004036
 30
0.0
 40
0.1928870804277124
100
AcDbArc
 50
267.8391024684
 51
357.6657748029
  0
LINE
  5
78
330
1F
100
AcDbEntity
  8
SK1
  6
Continuous
100
AcDbLine
 10
6.06
 20
6.4662541211
 30
0.0
 11
3.76
 21
6.4662541211
 31
0.0
  0
ARC
  5
79
330
1F
100
AcDbEntity
  8
SK1
  6
Continuous
100
AcDbCircle
 10
3.7527210422
 20
6.6589975577
 30
0.0
 40
0.1928808325846515
100
AcDbArc
 50
182.332374834
 51
272.1627478967
  0
LINE
  5
7A
330
1F
100
AcDbEntity
  8
SK3
100
AcDbLine
 10
-12.24
 20
2.6321081064
 30
0.0
 11
-12.24
 21
5.7011894646
 31
0.0
  0
LINE
  5
7B
330
1F
100
AcDbEntity
  8
SK1
  6
Continuous
100
AcDbLine
 10
-12.24
 20
5.7011894646
 30
0.0
 11
-12.24
 21
5.8925311808
 31
0.0
  0
SPLINE
  5
7C
330
1F
100
AcDbEntity
  8
SK1
  6
Continuous
100
AcDbSpline
210
0.0
220
0.0
230
1.0
 70
     8
 71
     3
 72
    14
 73
    10
 74
     0
 42
0.0000000006276366
 43
0.0000000001
 12
1.0
 22
0.0
 32
0.0
 13
1.0
 23
0.0
 33
0.0
 40
0.0
 40
0.0
 40
0.0
 40
0.0
 40
0.1554226057713496
 40
0.1554226057713496
 40
0.1554226057713496
 40
0.876546871892003
 40
0.876546871892003
 40
0.876546871892003
 40
1.0
 40
1.0
 40
1.0
 40
1.0
 10
3.560000000000002
 20
7.753907917216849
 30
0.0
 10
2.741438512714127
 20
7.647577600620557
 30
0.0
 10
1.922877303841417
 20
7.541245454578541
 30
0.0
 10
1.10431641034452
 20
7.434911236326926
 30
0.0
 10
-2.69361324493483
 20
6.941545520865605
 30
0.0
 10
-6.491536507903598
 20
6.448137797223051
 30
0.0
 10
-10.28944716197091
 20
5.954647247464901
 30
0.0
 10
-10.93963184251732
 20
5.870163955288568
 30
0.0
 10
-11.5898161394151
 20
5.785678142890534
 30
0.0
 10
-12.23999999999999
 20
5.701189464595203
 30
0.0
  0
LINE
  5
7D
330
1F
100
AcDbEntity
  8
SK3
100
AcDbLine
 10
10.06
 20
2.2024505623
 30
0.0
 11
10.26
 21
2.3096445216
 31
0.0
  0
ARC
  5
7E
330
1F
100
AcDbEntity
  8
SK1
  6
Continuous
100
AcDbCircle
 10
10.0314580041
 20
5.5975627319
 30
0.0
 40
0.2285701639912184
100
AcDbArc
 50
0.899519913
 51
63.0637567096
  0
SPLINE
  5
7F
330
1F
100
AcDbEntity
  8
SK1
  6
Continuous
100
AcDbSpline
210
0.0
220
0.0
230
1.0
 70
     8
 71
     3
 72
    11
 73
     7
 74
     0
 42
0.0000000022766885
 43
0.0000000001
 12
1.0
 22
0.0
 32
0.0
 13
1.0
 23
0.0
 33
0.0
 40
0.0
 40
0.0
 40
0.0
 40
0.0
 40
0.0764715852480357
 40
0.0764715852480357
 40
0.0764715852480357
 40
1.0
 40
1.0
 40
1.0
 40
1.0
 10
10.135
 20
5.801335583274633
 30
0.0
 10
10.03622911855154
 20
5.854060574201366
 30
0.0
 10
9.937457729607015
 20
5.906784753659005
 30
0.0
 10
9.838685871931181
 20
5.959508183586602
 30
0.0
 10
8.645842589961196
 20
6.596235999296559
 30
0.0
 10
7.452934826779429
 20
7.232860707462748
 30
0.0
 10
6.260000000000003
 20
7.869442116597809
 30
0.0
  0
ARC
  5
80
330
1F
100
AcDbEntity
  8
SK1
  6
Continuous
100
AcDbCircle
 10
6.0672729687
 20
6.4676623199
 30
0.0
 40
0.1928870804277115
100
AcDbArc
 50
267.8391024684
 51
357.6657748029
  0
LINE
  5
81
330
1F
100
AcDbEntity
  8
SK1
  6
Continuous
100
AcDbLine
 10
6.06
 20
6.2749124049
 30
0.0
 11
3.76
 21
6.2749124049
 31
0.0
  0
ARC
  5
82
330
1F
100
AcDbEntity
  8
SK1
  6
Continuous
100
AcDbCircle
 10
3.7527210422
 20
6.4676558415
 30
0.0
 40
0.1928808325846516
100
AcDbArc
 50
182.332374834
 51
272.1627478967
  0
LINE
  5
83
330
1F
100
AcDbEntity
  8
SK3
100
AcDbLine
 10
10.06
 20
1.1828830019
 30
0.0
 11
10.06
 21
2.2024505623
 31
0.0
  0
LINE
  5
84
330
1F
100
AcDbEntity
  8
SK3
100
AcDbLine
 10
-12.2210926793
 20
0.7209432356
 30
0.0
 11
10.06
 21
0.7209432356
 31
0.0
  0
LINE
  5
85
330
1F
100
AcDbEntity
  8
SK3
100
AcDbLine
 10
-12.24
 20
0.9567086807
 30
0.0
 11
-12.2210926793
 21
0.7209432356
 31
0.0
  0
LINE
  5
86
330
1F
100
AcDbEntity
  8
SK3
100
AcDbLine
 10
-12.2210926793
 20
1.1828830019
 30
0.0
 11
-12.24
 21
0.9567086807
 31
0.0
  0
LINE
  5
87
330
1F
100
AcDbEntity
  8
SK3
100
AcDbLine
 10
-12.2210926793
 20
1.1828830019
 30
0.0
 11
10.06
 21
1.1828830019
 31
0.0
  0
LINE
  5
88
330
1F
100
AcDbEntity
  8
SK1
  6
Continuous
100
AcDbLine
 10
3.56
 20
3.4823719292
 30
0.0
 11
3.56
 21
5.8310308248
 31
0.0
  0
LINE
  5
89
330
1F
100
AcDbEntity
  8
SK1
  6
Continuous
100
AcDbLine
 10
10.26
 20
2.5906708346
 30
0.0
 11
10.26
 21
5.601151041
 31
0.0
  0
LINE
  5
8A
330
1F
100
AcDbEntity
  8
SK1
  6
Continuous
100
AcDbLine
 10
10.135
 20
2.673589987
 30
0.0
 11
10.135
 21
5.8013355833
 31
0.0
  0
LINE
  5
8B
330
1F
100
AcDbEntity
  8
SK1
  6
Continuous
100
AcDbLine
 10
6.26
 20
3.5302277615
 30
0.0
 11
6.26
 21
7.8694421166
 31
0.0
  0
LINE
  5
8C
330
1F
100
AcDbEntity
  8
SK1
  6
Continuous
100
AcDbLine
 10
6.06
 20
2.8697519293
 30
0.0
 11
6.06
 21
6.2749124049
 31
0.0
  0
LINE
  5
8D
330
1F
100
AcDbEntity
  8
SK1
  6
Continuous
100
AcDbLine
 10
3.76
 20
2.8697519293
 30
0.0
 11
3.76
 21
4.6990566666
 31
0.0
  0
LINE
  5
8E
330
1F
100
AcDbEntity
  8
SK3
100
AcDbLine
 10
-12.2210926793
 20
0.7209432356
 30
0.0
 11
-12.24
 21
0.7257387976
 31
0.0
  0
LINE
  5
8F
330
1F
100
AcDbEntity
  8
SK1
  6
Continuous
100
AcDbLine
 10
3.56
 20
3.020432163
 30
0.0
 11
3.56
 21
3.4823719292
 31
0.0
  0
LINE
  5
90
330
1F
100
AcDbEntity
  8
SK1
  6
Continuous
100
AcDbLine
 10
3.56
 20
3.4823719292
 30
0.0
 11
-12.24
 21
2.6321081064
 31
0.0
  0
LINE
  5
91
330
1F
100
AcDbEntity
  8
SK3
100
AcDbLine
 10
-12.2210926793
 20
1.1828830019
 30
0.0
 11
-12.24
 21
1.1876785638
 31
0.0
  0
LINE
  5
92
330
1F
100
AcDbEntity
  8
SK3
100
AcDbLine
 10
10.06
 20
1.1828830019
 30
0.0
 11
10.26
 21
1.2272841936
 31
0.0
  0
LINE
  5
93
330
1F
100
AcDbEntity
  8
SK1
  6
Continuous
100
AcDbLine
 10
10.26
 20
2.1287310684
 30
0.0
 11
10.26
 21
2.5906708346
 31
0.0
  0
SPLINE
  5
94
330
1F
100
AcDbEntity
  8
SK1
  6
Continuous
100
AcDbSpline
210
0.0
220
0.0
230
1.0
 70
     8
 71
     3
 72
     8
 73
     4
 74
     0
 42
0.0000000587422145
 43
0.0000000001
 12
1.0
 22
0.0
 32
0.0
 13
1.0
 23
0.0
 33
0.0
 40
0.0
 40
0.0
 40
0.0
 40
0.0
 40
1.0
 40
1.0
 40
1.0
 40
1.0
 10
10.26
 20
2.590670834619505
 30
0.0
 10
10.26
 20
2.62420926750138
 30
0.0
 10
10.21129822886516
 20
2.656719549090373
 30
0.0
 10
10.135
 20
2.673589986987403
 30
0.0
  0
LINE
  5
95
330
1F
100
AcDbEntity
  8
SK1
  6
Continuous
100
AcDbLine
 10
10.135
 20
2.673589987
 30
0.0
 11
6.26
 21
3.5302277615
 31
0.0
  0
LINE
  5
96
330
1F
100
AcDbEntity
  8
SK1
  6
Continuous
100
AcDbLine
 10
6.26
 20
3.5302277615
 30
0.0
 11
6.26
 21
3.0682879953
 31
0.0
  0
SPLINE
  5
97
330
1F
100
AcDbEntity
  8
SK1
  6
Continuous
100
AcDbSpline
210
0.0
220
0.0
230
1.0
 70
     8
 71
     3
 72
    10
 73
     6
 74
     0
 42
0.0000000427803786
 43
0.0000000001
 12
1.0
 22
0.0
 32
0.0
 13
1.0
 23
0.0
 33
0.0
 40
0.0
 40
0.0
 40
0.0
 40
0.0
 40
0.5
 40
0.5
 40
1.0
 40
1.0
 40
1.0
 40
1.0
 10
6.259999999999996
 20
2.946337484196483
 30
0.0
 10
6.260000000000005
 20
2.926373838516542
 30
0.0
 10
6.238799183907115
 20
2.906512217438703
 30
0.0
 10
6.164196628838145
 20
2.87791366144988
 30
0.0
 10
6.11283876223505
 20
2.869751929320901
 30
0.0
 10
6.059999999999998
 20
2.869751929321206
 30
0.0
  0
LINE
  5
98
330
1F
100
AcDbEntity
  8
SK1
  6
Continuous
100
AcDbLine
 10
6.06
 20
2.8697519293
 30
0.0
 11
3.76
 21
2.8697519293
 31
0.0
  0
SPLINE
  5
99
330
1F
100
AcDbEntity
  8
SK1
  6
Continuous
100
AcDbSpline
210
0.0
220
0.0
230
1.0
 70
     8
 71
     3
 72
    10
 73
     6
 74
     0
 42
0.000000042786832
 43
0.0000000001
 12
1.0
 22
0.0
 32
0.0
 13
1.0
 23
0.0
 33
0.0
 40
0.0
 40
0.0
 40
0.0
 40
0.0
 40
0.5
 40
0.5
 40
1.0
 40
1.0
 40
1.0
 40
1.0
 10
3.760000000000001
 20
2.869751929321206
 30
0.0
 10
3.707121712915797
 20
2.869751929321207
 30
0.0
 10
3.655400779787923
 20
2.878068981031677
 30
0.0
 10
3.581613281239284
 20
2.906353112922563
 30
0.0
 10
3.559999999999893
 20
2.926356580266972
 30
0.0
 10
3.559999999997664
 20
2.946337484196584
 30
0.0
  0
LINE
  5
9A
330
1F
100
AcDbEntity
  8
SK3
100
AcDbLine
 10
-12.24
 20
0.7257387976
 30
0.0
 11
-12.24
 21
2.1701683402
 31
0.0
  0
LINE
  5
9B
330
1F
100
AcDbEntity
  8
SK1
  6
Continuous
100
AcDbLine
 10
-12.24
 20
2.1701683402
 30
0.0
 11
-12.24
 21
2.6321081064
 31
0.0
  0
LINE
  5
9C
330
1F
100
AcDbEntity
  8
SK1
  6
Continuous
100
AcDbLine
 10
3.56
 20
3.020432163
 30
0.0
 11
-12.24
 21
2.1701683402
 31
0.0
  0
LINE
  5
9D
330
1F
100
AcDbEntity
  8
SK3
100
AcDbLine
 10
10.06
 20
0.7209432356
 30
0.0
 11
10.26
 21
0.7653444274
 31
0.0
  0
SPLINE
  5
9E
330
1F
100
AcDbEntity
  8
SK1
  6
Continuous
100
AcDbSpline
210
0.0
220
0.0
230
1.0
 70
     8
 71
     3
 72
     8
 73
     4
 74
     0
 42
0.0000000587422145
 43
0.0000000001
 12
1.0
 22
0.0
 32
0.0
 13
1.0
 23
0.0
 33
0.0
 40
0.0
 40
0.0
 40
0.0
 40
0.0
 40
1.0
 40
1.0
 40
1.0
 40
1.0
 10
10.26
 20
2.128731068363863
 30
0.0
 10
10.26
 20
2.162269501245779
 30
0.0
 10
10.21129822886516
 20
2.194779782834728
 30
0.0
 10
10.135
 20
2.211650220731761
 30
0.0
  0
LINE
  5
9F
330
1F
100
AcDbEntity
  8
SK1
  6
Continuous
100
AcDbLine
 10
10.135
 20
2.2116502207
 30
0.0
 11
6.26
 21
3.0682879953
 31
0.0
  0
SPLINE
  5
A0
330
1F
100
AcDbEntity
  8
SK1
  6
Continuous
100
AcDbSpline
210
0.0
220
0.0
230
1.0
 70
     8
 71
     3
 72
    10
 73
     6
 74
     0
 42
0.0000000427803786
 43
0.0000000001
 12
1.0
 22
0.0
 32
0.0
 13
1.0
 23
0.0
 33
0.0
 40
0.0
 40
0.0
 40
0.0
 40
0.0
 40
0.5
 40
0.5
 40
1.0
 40
1.0
 40
1.0
 40
1.0
 10
6.259999999999996
 20
2.484397717940842
 30
0.0
 10
6.260000000000005
 20
2.464434072260899
 30
0.0
 10
6.238799183907115
 20
2.444572451183062
 30
0.0
 10
6.164196628838143
 20
2.415973895194238
 30
0.0
 10
6.112838762235052
 20
2.407812163065259
 30
0.0
 10
6.059999999999998
 20
2.407812163065564
 30
0.0
  0
LINE
  5
A1
330
1F
100
AcDbEntity
  8
SK1
  6
Continuous
100
AcDbLine
 10
6.06
 20
2.4078121631
 30
0.0
 11
3.76
 21
2.4078121631
 31
0.0
  0
SPLINE
  5
A2
330
1F
100
AcDbEntity
  8
SK1
  6
Continuous
100
AcDbSpline
210
0.0
220
0.0
230
1.0
 70
     8
 71
     3
 72
    10
 73
     6
 74
     0
 42
0.000000042786832
 43
0.0000000001
 12
1.0
 22
0.0
 32
0.0
 13
1.0
 23
0.0
 33
0.0
 40
0.0
 40
0.0
 40
0.0
 40
0.0
 40
0.5
 40
0.5
 40
1.0
 40
1.0
 40
1.0
 40
1.0
 10
3.760000000000001
 20
2.407812163065566
 30
0.0
 10
3.707121712915797
 20
2.407812163065565
 30
0.0
 10
3.655400779787924
 20
2.416129214776035
 30
0.0
 10
3.581613281239284
 20
2.444413346666922
 30
0.0
 10
3.559999999999892
 20
2.464416814011331
 30
0.0
 10
3.559999999997664
 20
2.484397717940944
 30
0.0
  0
LINE
  5
A3
330
1F
100
AcDbEntity
  8
SK3
100
AcDbLine
 10
10.06
 20
-0.7209430361
 30
0.0
 11
10.06
 21
0.7209432356
 31
0.0
  0
LINE
  5
A4
330
1F
100
AcDbEntity
  8
SK3
100
AcDbLine
 10
-12.2210926793
 20
-1.1828828023
 30
0.0
 11
10.06
 21
-1.1828828023
 31
0.0
  0
LINE
  5
A5
330
1F
100
AcDbEntity
  8
SK3
100
AcDbLine
 10
-12.24
 20
-0.9567084811
 30
0.0
 11
-12.2210926793
 21
-1.1828828023
 31
0.0
  0
LINE
  5
A6
330
1F
100
AcDbEntity
  8
SK3
100
AcDbLine
 10
-12.2210926793
 20
-0.7209430361
 30
0.0
 11
-12.24
 21
-0.9567084811
 31
0.0
  0
LINE
  5
A7
330
1F
100
AcDbEntity
  8
SK3
100
AcDbLine
 10
-12.2210926793
 20
-0.7209430361
 30
0.0
 11
10.06
 21
-0.7209430361
 31
0.0
  0
LINE
  5
A8
330
1F
100
AcDbEntity
  8
SK1
  6
Continuous
100
AcDbLine
 10
3.56
 20
-3.0204319634
 30
0.0
 11
3.56
 21
-0.2499999002
 31
0.0
  0
LINE
  5
A9
330
1F
100
AcDbEntity
  8
SK1
  6
Continuous
100
AcDbLine
 10
10.26
 20
-2.1287308688
 30
0.0
 11
10.26
 21
2.1287310684
 31
0.0
  0
LINE
  5
AA
330
1F
100
AcDbEntity
  8
SK1
  6
Continuous
100
AcDbLine
 10
10.135
 20
-2.2116500212
 30
0.0
 11
10.135
 21
2.2116502207
 31
0.0
  0
LINE
  5
AB
330
1F
100
AcDbEntity
  8
SK1
  6
Continuous
100
AcDbLine
 10
6.26
 20
-3.0682877957
 30
0.0
 11
6.26
 21
3.0682879953
 31
0.0
  0
LINE
  5
AC
330
1F
100
AcDbEntity
  8
SK1
  6
Continuous
100
AcDbLine
 10
6.06
 20
-2.4078119635
 30
0.0
 11
6.06
 21
2.4078121631
 31
0.0
  0
LINE
  5
AD
330
1F
100
AcDbEntity
  8
SK1
  6
Continuous
100
AcDbLine
 10
3.76
 20
-2.4078119635
 30
0.0
 11
3.76
 21
-0.2499999002
 31
0.0
  0
LINE
  5
AE
330
1F
100
AcDbEntity
  8
SK3
100
AcDbLine
 10
-12.2210926793
 20
-1.1828828023
 30
0.0
 11
-12.24
 21
-1.1876783643
 31
0.0
  0
LINE
  5
AF
330
1F
100
AcDbEntity
  8
SK1
  6
Continuous
100
AcDbLine
 10
3.56
 20
-3.0204319634
 30
0.0
 11
-12.24
 21
-2.1701681406
 31
0.0
  0
LINE
  5
B0
330
1F
100
AcDbEntity
  8
SK3
100
AcDbLine
 10
-12.2210926793
 20
-0.7209430361
 30
0.0
 11
-12.24
 21
-0.725738598
 31
0.0
  0
LINE
  5
B1
330
1F
100
AcDbEntity
  8
SK3
100
AcDbLine
 10
10.06
 20
-0.7209430361
 30
0.0
 11
10.26
 21
-0.7653442278
 31
0.0
  0
SPLINE
  5
B2
330
1F
100
AcDbEntity
  8
SK1
  6
Continuous
100
AcDbSpline
210
0.0
220
0.0
230
1.0
 70
     8
 71
     3
 72
    10
 73
     6
 74
     0
 42
0.0000000616090775
 43
0.0000000001
 12
1.0
 22
0.0
 32
0.0
 13
1.0
 23
0.0
 33
0.0
 40
0.0
 40
0.0
 40
0.0
 40
0.0
 40
0.5
 40
0.5
 40
1.0
 40
1.0
 40
1.0
 40
1.0
 10
10.26
 20
-2.128730868822472
 30
0.0
 10
10.26
 20
-2.145467618213793
 30
0.0
 10
10.24838202784915
 20
-2.162096781303422
 30
0.0
 10
10.20460679453789
 20
-2.191128689811534
 30
0.0
 10
10.17260614254303
 20
-2.203334859727742
 30
0.0
 10
10.13500000000283
 20
-2.211650021191805
 30
0.0
  0
LINE
  5
B3
330
1F
100
AcDbEntity
  8
SK1
  6
Continuous
100
AcDbLine
 10
10.135
 20
-2.2116500212
 30
0.0
 11
6.26
 21
-3.0682877957
 31
0.0
  0
SPLINE
  5
B4
330
1F
100
AcDbEntity
  8
SK1
  6
Continuous
100
AcDbSpline
210
0.0
220
0.0
230
1.0
 70
     8
 71
     3
 72
    10
 73
     6
 74
     0
 42
0.0000000427806241
 43
0.0000000001
 12
1.0
 22
0.0
 32
0.0
 13
1.0
 23
0.0
 33
0.0
 40
0.0
 40
0.0
 40
0.0
 40
0.0
 40
0.5
 40
0.5
 40
1.0
 40
1.0
 40
1.0
 40
1.0
 10
6.259999999999996
 20
-2.484397518399448
 30
0.0
 10
6.260000000000002
 20
-2.464405948299899
 30
0.0
 10
6.238711149789123
 20
-2.444519942043153
 30
0.0
 10
6.164100792254334
 20
-2.415955565055843
 30
0.0
 10
6.112203044550076
 20
-2.407811963524185
 30
0.0
 10
6.06000000000008
 20
-2.407811963523873
 30
0.0
  0
LINE
  5
B5
330
1F
100
AcDbEntity
  8
SK1
  6
Continuous
100
AcDbLine
 10
6.06
 20
-2.4078119635
 30
0.0
 11
3.76
 21
-2.4078119635
 31
0.0
  0
SPLINE
  5
B6
330
1F
100
AcDbEntity
  8
SK1
  6
Continuous
100
AcDbSpline
210
0.0
220
0.0
230
1.0
 70
     8
 71
     3
 72
    10
 73
     6
 74
     0
 42
0.0000000427907261
 43
0.0000000001
 12
1.0
 22
0.0
 32
0.0
 13
1.0
 23
0.0
 33
0.0
 40
0.0
 40
0.0
 40
0.0
 40
0.0
 40
0.5
 40
0.5
 40
1.0
 40
1.0
 40
1.0
 40
1.0
 10
3.760000000000001
 20
-2.407811963524173
 30
0.0
 10
3.707811976925956
 20
-2.407811963524171
 30
0.0
 10
3.655603717365276
 20
-2.416091045625651
 30
0.0
 10
3.581808074207943
 20
-2.44429887334663
 30
0.0
 10
3.560000000000141
 20
-2.464438978686605
 30
0.0
 10
3.559999999996724
 20
-2.484397518399297
 30
0.0
  0
LINE
  5
B7
330
1F
100
AcDbEntity
  8
SK1
  6
Continuous
100
AcDbLine
 10
-12.24
 20
-2.6321079069
 30
0.0
 11
-12.24
 21
-2.1701681406
 31
0.0
  0
LINE
  5
B8
330
1F
100
AcDbEntity
  8
SK3
100
AcDbLine
 10
-12.24
 20
-0.725738598
 30
0.0
 11
-12.24
 21
-2.1701681406
 31
0.0
  0
LINE
  5
B9
330
1F
100
AcDbEntity
  8
SK1
  6
Continuous
100
AcDbLine
 10
3.56
 20
-3.0204319634
 30
0.0
 11
3.56
 21
-3.4823717297
 31
0.0
  0
LINE
  5
BA
330
1F
100
AcDbEntity
  8
SK1
  6
Continuous
100
AcDbLine
 10
3.56
 20
-3.4823717297
 30
0.0
 11
-12.24
 21
-2.6321079069
 31
0.0
  0
LINE
  5
BB
330
1F
100
AcDbEntity
  8
SK3
100
AcDbLine
 10
10.06
 20
-1.1828828023
 30
0.0
 11
10.26
 21
-1.2272839941
 31
0.0
  0
LINE
  5
BC
330
1F
100
AcDbEntity
  8
SK1
  6
Continuous
100
AcDbLine
 10
10.26
 20
-2.1287308688
 30
0.0
 11
10.26
 21
-2.5906706351
 31
0.0
  0
SPLINE
  5
BD
330
1F
100
AcDbEntity
  8
SK1
  6
Continuous
100
AcDbSpline
210
0.0
220
0.0
230
1.0
 70
     8
 71
     3
 72
    10
 73
     6
 74
     0
 42
0.0000000616090775
 43
0.0000000001
 12
1.0
 22
0.0
 32
0.0
 13
1.0
 23
0.0
 33
0.0
 40
0.0
 40
0.0
 40
0.0
 40
0.0
 40
0.5
 40
0.5
 40
1.0
 40
1.0
 40
1.0
 40
1.0
 10
10.26
 20
-2.590670635078115
 30
0.0
 10
10.26
 20
-2.607407384469437
 30
0.0
 10
10.24838202784915
 20
-2.624036547559067
 30
0.0
 10
10.20460679453789
 20
-2.653068456067178
 30
0.0
 10
10.17260614254303
 20
-2.665274625983386
 30
0.0
 10
10.13500000000283
 20
-2.673589787447449
 30
0.0
  0
LINE
  5
BE
330
1F
100
AcDbEntity
  8
SK1
  6
Continuous
100
AcDbLine
 10
10.135
 20
-2.6735897874
 30
0.0
 11
6.26
 21
-3.530227562
 31
0.0
  0
LINE
  5
BF
330
1F
100
AcDbEntity
  8
SK1
  6
Continuous
100
AcDbLine
 10
6.26
 20
-3.530227562
 30
0.0
 11
6.26
 21
-3.0682877957
 31
0.0
  0
SPLINE
  5
C0
330
1F
100
AcDbEntity
  8
SK1
  6
Continuous
100
AcDbSpline
210
0.0
220
0.0
230
1.0
 70
     8
 71
     3
 72
    10
 73
     6
 74
     0
 42
0.0000000427806241
 43
0.0000000001
 12
1.0
 22
0.0
 32
0.0
 13
1.0
 23
0.0
 33
0.0
 40
0.0
 40
0.0
 40
0.0
 40
0.0
 40
0.5
 40
0.5
 40
1.0
 40
1.0
 40
1.0
 40
1.0
 10
6.259999999999996
 20
-2.94633728465509
 30
0.0
 10
6.260000000000002
 20
-2.926345714555543
 30
0.0
 10
6.238711149789123
 20
-2.906459708298794
 30
0.0
 10
6.164100792254334
 20
-2.877895331311485
 30
0.0
 10
6.112203044550076
 20
-2.869751729779828
 30
0.0
 10
6.06000000000008
 20
-2.869751729779516
 30
0.0
  0
LINE
  5
C1
330
1F
100
AcDbEntity
  8
SK1
  6
Continuous
100
AcDbLine
 10
6.06
 20
-2.8697517298
 30
0.0
 11
3.76
 21
-2.8697517298
 31
0.0
  0
SPLINE
  5
C2
330
1F
100
AcDbEntity
  8
SK1
  6
Continuous
100
AcDbSpline
210
0.0
220
0.0
230
1.0
 70
     8
 71
     3
 72
    10
 73
     6
 74
     0
 42
0.0000000427907261
 43
0.0000000001
 12
1.0
 22
0.0
 32
0.0
 13
1.0
 23
0.0
 33
0.0
 40
0.0
 40
0.0
 40
0.0
 40
0.0
 40
0.5
 40
0.5
 40
1.0
 40
1.0
 40
1.0
 40
1.0
 10
3.760000000000001
 20
-2.869751729779816
 30
0.0
 10
3.707811976925958
 20
-2.869751729779814
 30
0.0
 10
3.655603717365278
 20
-2.878030811881295
 30
0.0
 10
3.581808074207946
 20
-2.906238639602274
 30
0.0
 10
3.560000000000141
 20
-2.926378744942249
 30
0.0
 10
3.559999999996724
 20
-2.946337284654941
 30
0.0
  0
LINE
  5
C3
330
1F
100
AcDbEntity
  8
SK3
100
AcDbLine
 10
10.06
 20
-2.2024503628
 30
0.0
 11
10.06
 21
-1.1828828023
 31
0.0
  0
LINE
  5
C4
330
1F
100
AcDbEntity
  8
SK3
100
AcDbLine
 10
-12.2210926793
 20
-2.3937920789
 30
0.0
 11
10.06
 21
-2.3937920789
 31
0.0
  0
LINE
  5
C5
330
1F
100
AcDbEntity
  8
SK3
100
AcDbLine
 10
-12.24
 20
-2.3096987315
 30
0.0
 11
-12.2210926793
 21
-2.3937920789
 31
0.0
  0
LINE
  5
C6
330
1F
100
AcDbEntity
  8
SK3
100
AcDbLine
 10
-12.2210926793
 20
-2.2024503628
 30
0.0
 11
-12.24
 21
-2.3096987315
 31
0.0
  0
LINE
  5
C7
330
1F
100
AcDbEntity
  8
SK3
100
AcDbLine
 10
-12.2210926793
 20
-2.2024503628
 30
0.0
 11
10.06
 21
-2.2024503628
 31
0.0
  0
LINE
  5
C8
330
1F
100
AcDbEntity
  8
SK1
  6
Continuous
100
AcDbLine
 10
3.56
 20
-7.7539077177
 30
0.0
 11
3.56
 21
-6.1845840159
 31
0.0
  0
LINE
  5
C9
330
1F
100
AcDbEntity
  8
SK1
  6
Continuous
100
AcDbLine
 10
10.26
 20
-5.6011508415
 30
0.0
 11
10.26
 21
-2.5906706351
 31
0.0
  0
LINE
  5
CA
330
1F
100
AcDbEntity
  8
SK1
  6
Continuous
100
AcDbLine
 10
10.135
 20
-5.8013353837
 30
0.0
 11
10.135
 21
-2.6735897874
 31
0.0
  0
LINE
  5
CB
330
1F
100
AcDbEntity
  8
SK1
  6
Continuous
100
AcDbLine
 10
6.26
 20
-7.8694419171
 30
0.0
 11
6.26
 21
-3.530227562
 31
0.0
  0
LINE
  5
CC
330
1F
100
AcDbEntity
  8
SK1
  6
Continuous
100
AcDbLine
 10
6.06
 20
-6.2749122053
 30
0.0
 11
6.06
 21
-2.8697517298
 31
0.0
  0
LINE
  5
CD
330
1F
100
AcDbEntity
  8
SK1
  6
Continuous
100
AcDbLine
 10
3.76
 20
-6.2749122053
 30
0.0
 11
3.76
 21
-5.0526098576
 31
0.0
  0
LINE
  5
CE
330
1F
100
AcDbEntity
  8
SK3
100
AcDbLine
 10
-12.2210926793
 20
-2.3937920789
 30
0.0
 11
-12.24
 21
-2.4053695896
 31
0.0
  0
LINE
  5
CF
330
1F
100
AcDbEntity
  8
SK1
  6
Continuous
100
AcDbLine
 10
3.56
 20
-7.7539077177
 30
0.0
 11
-12.24
 21
-5.7011892651
 31
0.0
  0
LINE
  5
D0
330
1F
100
AcDbEntity
  8
SK3
100
AcDbLine
 10
-12.2210926793
 20
-2.2024503628
 30
0.0
 11
-12.24
 21
-2.2140278734
 31
0.0
  0
LINE
  5
D1
330
1F
100
AcDbEntity
  8
SK3
100
AcDbLine
 10
10.06
 20
-2.2024503628
 30
0.0
 11
10.26
 21
-2.3096443221
 31
0.0
  0
ARC
  5
D2
330
1F
100
AcDbEntity
  8
SK1
  6
Continuous
100
AcDbCircle
 10
10.0285904447
 20
-5.5957719599
 30
0.0
 40
0.2314720602209263
100
AcDbArc
 50
297.3682661762
 51
358.6684572011
  0
LINE
  5
D3
330
1F
100
AcDbEntity
  8
SK1
  6
Continuous
100
AcDbLine
 10
10.135
 20
-5.8013353837
 30
0.0
 11
6.26
 21
-7.8694419171
 31
0.0
  0
ARC
  5
D4
330
1F
100
AcDbEntity
  8
SK1
  6
Continuous
100
AcDbCircle
 10
6.0672722027
 20
-6.4676629489
 30
0.0
 40
0.1928878795548929
100
AcDbArc
 50
2.3344618538
 51
92.1606608749
  0
LINE
  5
D5
330
1F
100
AcDbEntity
  8
SK1
  6
Continuous
100
AcDbLine
 10
6.06
 20
-6.2749122053
 30
0.0
 11
3.76
 21
-6.2749122053
 31
0.0
  0
ARC
  5
D6
330
1F
100
AcDbEntity
  8
SK1
  6
Continuous
100
AcDbCircle
 10
3.7527281563
 20
-6.4676633372
 30
0.0
 40
0.1928882540548507
100
AcDbArc
 50
87.8394500293
 51
177.6654272414
  0
LINE
  5
D7
330
1F
100
AcDbEntity
  8
SK1
  6
Continuous
100
AcDbLine
 10
-12.24
 20
-5.8925309812
 30
0.0
 11
-12.24
 21
-5.7011892651
 31
0.0
  0
LINE
  5
D8
330
1F
100
AcDbEntity
  8
SK3
100
AcDbLine
 10
-12.24
 20
-2.6321079069
 30
0.0
 11
-12.24
 21
-5.7011892651
 31
0.0
  0
LINE
  5
D9
330
1F
100
AcDbEntity
  8
SK1
  6
Continuous
100
AcDbLine
 10
3.56
 20
-7.7539077177
 30
0.0
 11
3.56
 21
-7.9452494339
 31
0.0
  0
LINE
  5
DA
330
1F
100
AcDbEntity
  8
SK1
  6
Continuous
100
AcDbLine
 10
3.56
 20
-7.9452494339
 30
0.0
 11
-12.24
 21
-5.8925309812
 31
0.0
  0
LINE
  5
DB
330
1F
100
AcDbEntity
  8
SK3
100
AcDbLine
 10
10.06
 20
-2.3937920789
 30
0.0
 11
10.26
 21
-2.5009860383
 31
0.0
  0
LINE
  5
DC
330
1F
100
AcDbEntity
  8
SK1
  6
Continuous
100
AcDbLine
 10
10.26
 20
-5.6011508415
 30
0.0
 11
10.26
 21
-5.7924925577
 31
0.0
  0
ARC
  5
DD
330
1F
100
AcDbEntity
  8
SK1
  6
Continuous
100
AcDbCircle
 10
10.0285904447
 20
-5.7871136761
 30
0.0
 40
0.2314720602209257
100
AcDbArc
 50
297.3682661762
 51
358.6684572011
  0
LINE
  5
DE
330
1F
100
AcDbEntity
  8
SK1
  6
Continuous
100
AcDbLine
 10
10.135
 20
-5.9926770999
 30
0.0
 11
6.26
 21
-8.0607836332
 31
0.0
  0
LINE
  5
DF
330
1F
100
AcDbEntity
  8
SK1
  6
Continuous
100
AcDbLine
 10
6.26
 20
-8.0607836332
 30
0.0
 11
6.26
 21
-7.8694419171
 31
0.0
  0
ARC
  5
E0
330
1F
100
AcDbEntity
  8
SK1
  6
Continuous
100
AcDbCircle
 10
6.0672722027
 20
-6.6590046651
 30
0.0
 40
0.1928878795548953
100
AcDbArc
 50
2.3344618538
 51
92.1606608749
  0
LINE
  5
E1
330
1F
100
AcDbEntity
  8
SK1
  6
Continuous
100
AcDbLine
 10
6.06
 20
-6.4662539215
 30
0.0
 11
3.76
 21
-6.4662539215
 31
0.0
  0
ARC
  5
E2
330
1F
100
AcDbEntity
  8
SK1
  6
Continuous
100
AcDbCircle
 10
3.7527281563
 20
-6.6590050534
 30
0.0
 40
0.1928882540548475
100
AcDbArc
 50
87.8394500293
 51
177.6654272414
  0
LINE
  5
E3
330
1F
100
AcDbEntity
  8
SK3
100
AcDbLine
 10
-17.24
 20
-2.01772521
 30
0.0
 11
-17.04
 21
-1.9356825055
 31
0.0
  0
LINE
  5
E4
330
1F
100
AcDbEntity
  8
SK3
100
AcDbLine
 10
-17.24
 20
-1.6641718194
 30
0.0
 11
-17.04
 21
-1.5821291149
 31
0.0
  0
LINE
  5
E5
330
1F
100
AcDbEntity
  8
SK3
100
AcDbLine
 10
5.7312161304
 20
-1.9356825055
 30
0.0
 11
5.76
 21
-1.7677668532
 31
0.0
  0
ARC
  5
E6
330
1F
100
AcDbEntity
  8
SK3
100
AcDbCircle
 10
5.1039751393
 20
-1.7744357208
 30
0.0
 40
0.6560587562269815
100
AcDbArc
 50
0.5824242811
 51
17.0450818088
  0
LINE
  5
E7
330
1F
100
AcDbEntity
  8
SK1
  6
Continuous
100
AcDbLine
 10
3.56
 20
-5.8310306253
 30
0.0
 11
3.56
 21
-3.4823717297
 31
0.0
  0
LINE
  5
E8
330
1F
100
AcDbEntity
  8
SK1
  6
Continuous
100
AcDbLine
 10
3.76
 20
-4.6990564671
 30
0.0
 11
3.76
 21
-2.8697517298
 31
0.0
  0
LINE
  5
E9
330
1F
100
AcDbEntity
  8
SK3
100
AcDbLine
 10
5.76
 20
-1.9445435485
 30
0.0
 11
5.7312161304
 21
-1.9356825055
 31
0.0
  0
LINE
  5
EA
330
1F
100
AcDbEntity
  8
SK3
100
AcDbLine
 10
5.76
 20
-4.6990564671
 30
0.0
 11
5.76
 21
-1.5909901579
 31
0.0
  0
LINE
  5
EB
330
1F
100
AcDbEntity
  8
SK1
  6
Continuous
100
AcDbLine
 10
5.76
 20
-4.6990564671
 30
0.0
 11
3.76
 21
-4.6990564671
 31
0.0
  0
SPLINE
  5
EC
330
1F
100
AcDbEntity
  8
SK1
  6
Continuous
100
AcDbSpline
210
0.0
220
0.0
230
1.0
 70
     8
 71
     3
 72
    10
 73
     6
 74
     0
 42
0.000000036102146
 43
0.0000000001
 12
1.0
 22
0.0
 32
0.0
 13
1.0
 23
0.0
 33
0.0
 40
0.0
 40
0.0
 40
0.0
 40
0.0
 40
0.5
 40
0.5
 40
1.0
 40
1.0
 40
1.0
 40
1.0
 10
3.760000000000001
 20
-4.699056467053105
 30
0.0
 10
3.707121712915864
 20
-4.699056467053106
 30
0.0
 10
3.655400779788057
 20
-4.714424374745348
 30
0.0
 10
3.581613281239431
 20
-4.766686635842913
 30
0.0
 10
3.559999999999995
 20
-4.803648223960349
 30
0.0
 10
3.560000000000002
 20
-4.840568120323678
 30
0.0
  0
SPLINE
  5
ED
330
1F
100
AcDbEntity
  8
SK1
  6
Continuous
100
AcDbSpline
210
0.0
220
0.0
230
1.0
 70
     8
 71
     3
 72
    11
 73
     7
 74
     0
 42
0.0000000004854107
 43
0.0000000001
 12
1.0
 22
0.0
 32
0.0
 13
1.0
 23
0.0
 33
0.0
 40
0.0
 40
0.0
 40
0.0
 40
0.0
 40
0.7208554085657484
 40
0.7208554085657484
 40
0.7208554085657484
 40
1.0
 40
1.0
 40
1.0
 40
1.0
 10
3.560000000000002
 20
-5.831030625281628
 30
0.0
 10
-1.365866501226732
 20
-5.341299064259378
 30
0.0
 10
-6.291723963212149
 20
-4.851522032243858
 30
0.0
 10
-11.21755939038181
 20
-4.361634220561148
 30
0.0
 10
-13.12504361224564
 20
-4.171929695291393
 30
0.0
 10
-15.03252439221632
 20
-3.982207864107609
 30
0.0
 10
-16.94
 20
-3.792460036471327
 30
0.0
  0
LINE
  5
EE
330
1F
100
AcDbEntity
  8
SK1
  6
Continuous
100
AcDbLine
 10
-16.94
 20
-3.7924600365
 30
0.0
 11
-17.24
 21
-3.5801058433
 31
0.0
  0
LINE
  5
EF
330
1F
100
AcDbEntity
  8
SK3
100
AcDbLine
 10
-17.04
 20
-1.5821291149
 30
0.0
 11
5.7312161304
 21
-1.5821291149
 31
0.0
  0
LINE
  5
F0
330
1F
100
AcDbEntity
  8
SK1
  6
Continuous
100
AcDbLine
 10
5.76
 20
-4.6990564671
 30
0.0
 11
5.76
 21
-5.0526098576
 31
0.0
  0
LINE
  5
F1
330
1F
100
AcDbEntity
  8
SK3
100
AcDbLine
 10
5.76
 20
-1.5909901579
 30
0.0
 11
5.7312161304
 21
-1.5821291149
 31
0.0
  0
LINE
  5
F2
330
1F
100
AcDbEntity
  8
SK1
  6
Continuous
100
AcDbLine
 10
5.76
 20
-5.0526098576
 30
0.0
 11
3.76
 21
-5.0526098576
 31
0.0
  0
SPLINE
  5
F3
330
1F
100
AcDbEntity
  8
SK1
  6
Continuous
100
AcDbSpline
210
0.0
220
0.0
230
1.0
 70
     8
 71
     3
 72
    10
 73
     6
 74
     0
 42
0.000000036102146
 43
0.0000000001
 12
1.0
 22
0.0
 32
0.0
 13
1.0
 23
0.0
 33
0.0
 40
0.0
 40
0.0
 40
0.0
 40
0.0
 40
0.5
 40
0.5
 40
1.0
 40
1.0
 40
1.0
 40
1.0
 10
3.760000000000001
 20
-5.052609857646379
 30
0.0
 10
3.707121712915864
 20
-5.052609857646381
 30
0.0
 10
3.655400779788057
 20
-5.067977765338622
 30
0.0
 10
3.581613281239431
 20
-5.120240026436186
 30
0.0
 10
3.559999999999996
 20
-5.157201614553623
 30
0.0
 10
3.560000000000002
 20
-5.194121510916952
 30
0.0
  0
LINE
  5
F4
330
1F
100
AcDbEntity
  8
SK1
  6
Continuous
100
AcDbLine
 10
3.56
 20
-5.8310306253
 30
0.0
 11
3.56
 21
-6.1845840159
 31
0.0
  0
SPLINE
  5
F5
330
1F
100
AcDbEntity
  8
SK1
  6
Continuous
100
AcDbSpline
210
0.0
220
0.0
230
1.0
 70
     8
 71
     3
 72
    11
 73
     7
 74
     0
 42
0.0000000004854107
 43
0.0000000001
 12
1.0
 22
0.0
 32
0.0
 13
1.0
 23
0.0
 33
0.0
 40
0.0
 40
0.0
 40
0.0
 40
0.0
 40
0.7208554085657484
 40
0.7208554085657484
 40
0.7208554085657484
 40
1.0
 40
1.0
 40
1.0
 40
1.0
 10
3.560000000000002
 20
-6.184584015874904
 30
0.0
 10
-1.365866501226732
 20
-5.694852454852652
 30
0.0
 10
-6.291723963212149
 20
-5.205075422837134
 30
0.0
 10
-11.21755939038181
 20
-4.715187611154423
 30
0.0
 10
-13.12504361224564
 20
-4.525483085884667
 30
0.0
 10
-15.03252439221632
 20
-4.335761254700881
 30
0.0
 10
-16.94
 20
-4.1460134270646
 30
0.0
  0
LINE
  5
F6
330
1F
100
AcDbEntity
  8
SK1
  6
Continuous
100
AcDbLine
 10
-16.94
 20
-4.1460134271
 30
0.0
 11
-17.24
 21
-3.9336592339
 31
0.0
  0
LINE
  5
F7
330
1F
100
AcDbEntity
  8
SK1
  6
Continuous
100
AcDbLine
 10
-17.24
 20
-3.9336592339
 30
0.0
 11
-17.24
 21
-3.5801058433
 31
0.0
  0
LINE
  5
F8
330
1F
100
AcDbEntity
  8
SK3
100
AcDbLine
 10
-17.04
 20
-1.9356825055
 30
0.0
 11
5.7312161304
 21
-1.9356825055
 31
0.0
  0
LINE
  5
F9
330
1F
100
AcDbEntity
  8
SK3
100
AcDbLine
 10
-17.04
 20
0.2500000998
 30
0.0
 11
-17.04
 21
1.5821293144
 31
0.0
  0
LINE
  5
FA
330
1F
100
AcDbEntity
  8
SK1
  6
Continuous
100
AcDbLine
 10
5.7312161304
 20
-0.2499999002
 30
0.0
 11
5.76
 21
0.0000000998
 31
0.0
  0
ARC
  5
FB
330
1F
100
AcDbEntity
  8
SK1
  6
Continuous
100
AcDbCircle
 10
4.6462314767
 20
-0.0015771495
 30
0.0
 40
1.113769640082349
100
AcDbArc
 50
0.0811386446
 51
13.0545759528
  0
LINE
  5
FC
330
1F
100
AcDbEntity
  8
SK1
  6
Continuous
100
AcDbLine
 10
3.56
 20
0.2500000998
 30
0.0
 11
3.56
 21
3.020432163
 31
0.0
  0
LINE
  5
FD
330
1F
100
AcDbEntity
  8
SK1
  6
Continuous
100
AcDbLine
 10
-16.94
 20
0.2500000998
 30
0.0
 11
-16.94
 21
3.792460236
 31
0.0
  0
LINE
  5
FE
330
1F
100
AcDbEntity
  8
SK1
  6
Continuous
100
AcDbLine
 10
-17.24
 20
0.2500000998
 30
0.0
 11
-17.24
 21
3.5801060428
 31
0.0
  0
LINE
  5
FF
330
1F
100
AcDbEntity
  8
SK1
  6
Continuous
100
AcDbLine
 10
3.76
 20
0.2500000998
 30
0.0
 11
3.76
 21
2.4078121631
 31
0.0
  0
LINE
  5
100
330
1F
100
AcDbEntity
  8
SK1
  6
Continuous
100
AcDbLine
 10
5.76
 20
0.2500000998
 30
0.0
 11
3.76
 21
0.2500000998
 31
0.0
  0
LINE
  5
101
330
1F
100
AcDbEntity
  8
SK1
  6
Continuous
100
AcDbLine
 10
3.76
 20
0.2500000998
 30
0.0
 11
3.56
 21
0.2500000998
 31
0.0
  0
LINE
  5
102
330
1F
100
AcDbEntity
  8
SK1
  6
Continuous
100
AcDbLine
 10
3.56
 20
0.2500000998
 30
0.0
 11
-16.94
 21
0.2500000998
 31
0.0
  0
LINE
  5
103
330
1F
100
AcDbEntity
  8
SK1
  6
Continuous
100
AcDbLine
 10
-16.94
 20
0.2500000998
 30
0.0
 11
-17.24
 21
0.2500000998
 31
0.0
  0
LINE
  5
104
330
1F
100
AcDbEntity
  8
SK1
  6
Continuous
100
AcDbLine
 10
5.76
 20
0.2500000998
 30
0.0
 11
5.76
 21
-0.2499999002
 31
0.0
  0
LINE
  5
105
330
1F
100
AcDbEntity
  8
SK1
  6
Continuous
100
AcDbLine
 10
5.76
 20
-0.2499999002
 30
0.0
 11
3.76
 21
-0.2499999002
 31
0.0
  0
LINE
  5
106
330
1F
100
AcDbEntity
  8
SK1
  6
Continuous
100
AcDbLine
 10
3.76
 20
-0.2499999002
 30
0.0
 11
3.56
 21
-0.2499999002
 31
0.0
  0
LINE
  5
107
330
1F
100
AcDbEntity
  8
SK1
  6
Continuous
100
AcDbLine
 10
3.56
 20
-0.2499999002
 30
0.0
 11
-16.94
 21
-0.2499999002
 31
0.0
  0
LINE
  5
108
330
1F
100
AcDbEntity
  8
SK1
  6
Continuous
100
AcDbLine
 10
-16.94
 20
-0.2499999002
 30
0.0
 11
-17.24
 21
-0.2499999002
 31
0.0
  0
LINE
  5
109
330
1F
100
AcDbEntity
  8
SK3
100
AcDbLine
 10
-17.04
 20
1.935682705
 30
0.0
 11
-17.04
 21
2.4874686925
 31
0.0
  0
LINE
  5
10A
330
1F
100
AcDbEntity
  8
SK3
100
AcDbLine
 10
-17.24
 20
1.664172019
 30
0.0
 11
-17.04
 21
1.5821293144
 31
0.0
  0
LINE
  5
10B
330
1F
100
AcDbEntity
  8
SK3
100
AcDbLine
 10
-17.24
 20
2.0177254096
 30
0.0
 11
-17.04
 21
1.935682705
 31
0.0
  0
LINE
  5
10C
330
1F
100
AcDbEntity
  8
SK3
100
AcDbLine
 10
5.7312161304
 20
1.5821293144
 30
0.0
 11
5.76
 21
1.7677670527
 31
0.0
  0
ARC
  5
10D
330
1F
100
AcDbEntity
  8
SK3
100
AcDbCircle
 10
5.2688100272
 20
1.7699928167
 30
0.0
 40
0.4911950156319297
100
AcDbArc
 50
359.7403733511
 51
19.7136760746
  0
LINE
  5
10E
330
1F
100
AcDbEntity
  8
SK1
  6
Continuous
100
AcDbLine
 10
3.56
 20
6.1845842154
 30
0.0
 11
3.56
 21
7.7539079172
 31
0.0
  0
LINE
  5
10F
330
1F
100
AcDbEntity
  8
SK1
  6
Continuous
100
AcDbLine
 10
-16.94
 20
4.1460136266
 30
0.0
 11
-16.94
 21
5.6133486592
 31
0.0
  0
LINE
  5
110
330
1F
100
AcDbEntity
  8
SK1
  6
Continuous
100
AcDbLine
 10
-17.24
 20
3.9336594334
 30
0.0
 11
-17.24
 21
5.3130344792
 31
0.0
  0
LINE
  5
111
330
1F
100
AcDbEntity
  8
SK1
  6
Continuous
100
AcDbLine
 10
3.76
 20
5.0526100572
 30
0.0
 11
3.76
 21
6.2749124049
 31
0.0
  0
LINE
  5
112
330
1F
100
AcDbEntity
  8
SK3
100
AcDbLine
 10
5.76
 20
4.6990566666
 30
0.0
 11
5.76
 21
1.5909903574
 31
0.0
  0
LINE
  5
113
330
1F
100
AcDbEntity
  8
SK3
100
AcDbLine
 10
5.76
 20
1.5909903574
 30
0.0
 11
5.7312161304
 21
1.5821293144
 31
0.0
  0
LINE
  5
114
330
1F
100
AcDbEntity
  8
SK1
  6
Continuous
100
AcDbLine
 10
5.76
 20
5.0526100572
 30
0.0
 11
3.76
 21
5.0526100572
 31
0.0
  0
SPLINE
  5
115
330
1F
100
AcDbEntity
  8
SK1
  6
Continuous
100
AcDbSpline
210
0.0
220
0.0
230
1.0
 70
     8
 71
     3
 72
    10
 73
     6
 74
     0
 42
0.000000036102146
 43
0.0000000001
 12
1.0
 22
0.0
 32
0.0
 13
1.0
 23
0.0
 33
0.0
 40
0.0
 40
0.0
 40
0.0
 40
0.0
 40
0.5
 40
0.5
 40
1.0
 40
1.0
 40
1.0
 40
1.0
 10
3.760000000000001
 20
5.052610057187764
 30
0.0
 10
3.707121712915864
 20
5.052610057187764
 30
0.0
 10
3.655400779788057
 20
5.067977964880003
 30
0.0
 10
3.581613281239431
 20
5.120240225977569
 30
0.0
 10
3.559999999999995
 20
5.157201814095006
 30
0.0
 10
3.560000000000002
 20
5.194121710458336
 30
0.0
  0
LINE
  5
116
330
1F
100
AcDbEntity
  8
SK1
  6
Continuous
100
AcDbLine
 10
3.56
 20
5.8310308248
 30
0.0
 11
3.56
 21
6.1845842154
 31
0.0
  0
SPLINE
  5
117
330
1F
100
AcDbEntity
  8
SK1
  6
Continuous
100
AcDbSpline
210
0.0
220
0.0
230
1.0
 70
     8
 71
     3
 72
    11
 73
     7
 74
     0
 42
0.0000000004854107
 43
0.0000000001
 12
1.0
 22
0.0
 32
0.0
 13
1.0
 23
0.0
 33
0.0
 40
0.0
 40
0.0
 40
0.0
 40
0.0
 40
0.7208554085657483
 40
0.7208554085657483
 40
0.7208554085657483
 40
1.0
 40
1.0
 40
1.0
 40
1.0
 10
3.560000000000002
 20
6.184584215416288
 30
0.0
 10
-1.365866501226732
 20
5.694852654394036
 30
0.0
 10
-6.291723963212149
 20
5.205075622378518
 30
0.0
 10
-11.21755939038181
 20
4.715187810695808
 30
0.0
 10
-13.12504361224564
 20
4.525483285426051
 30
0.0
 10
-15.03252439221632
 20
4.335761454242266
 30
0.0
 10
-16.94
 20
4.146013626605984
 30
0.0
  0
LINE
  5
118
330
1F
100
AcDbEntity
  8
SK1
  6
Continuous
100
AcDbLine
 10
-16.94
 20
4.1460136266
 30
0.0
 11
-17.24
 21
3.9336594334
 31
0.0
  0
LINE
  5
119
330
1F
100
AcDbEntity
  8
SK1
  6
Continuous
100
AcDbLine
 10
-17.24
 20
3.9336594334
 30
0.0
 11
-17.24
 21
3.5801060428
 31
0.0
  0
LINE
  5
11A
330
1F
100
AcDbEntity
  8
SK3
100
AcDbLine
 10
-17.04
 20
1.935682705
 30
0.0
 11
5.7312161304
 21
1.935682705
 31
0.0
  0
LINE
  5
11B
330
1F
100
AcDbEntity
  8
SK1
  6
Continuous
100
AcDbLine
 10
5.76
 20
5.0526100572
 30
0.0
 11
5.76
 21
4.6990566666
 31
0.0
  0
LINE
  5
11C
330
1F
100
AcDbEntity
  8
SK3
100
AcDbLine
 10
5.76
 20
1.944543748
 30
0.0
 11
5.7312161304
 21
1.935682705
 31
0.0
  0
LINE
  5
11D
330
1F
100
AcDbEntity
  8
SK1
  6
Continuous
100
AcDbLine
 10
5.76
 20
4.6990566666
 30
0.0
 11
3.76
 21
4.6990566666
 31
0.0
  0
SPLINE
  5
11E
330
1F
100
AcDbEntity
  8
SK1
  6
Continuous
100
AcDbSpline
210
0.0
220
0.0
230
1.0
 70
     8
 71
     3
 72
    10
 73
     6
 74
     0
 42
0.000000036102146
 43
0.0000000001
 12
1.0
 22
0.0
 32
0.0
 13
1.0
 23
0.0
 33
0.0
 40
0.0
 40
0.0
 40
0.0
 40
0.0
 40
0.5
 40
0.5
 40
1.0
 40
1.0
 40
1.0
 40
1.0
 10
3.760000000000001
 20
4.699056666594489
 30
0.0
 10
3.707121712915864
 20
4.699056666594489
 30
0.0
 10
3.655400779788057
 20
4.71442457428673
 30
0.0
 10
3.581613281239431
 20
4.766686835384294
 30
0.0
 10
3.559999999999995
 20
4.803648423501732
 30
0.0
 10
3.560000000000002
 20
4.840568319865064
 30
0.0
  0
SPLINE
  5
11F
330
1F
100
AcDbEntity
  8
SK1
  6
Continuous
100
AcDbSpline
210
0.0
220
0.0
230
1.0
 70
     8
 71
     3
 72
    11
 73
     7
 74
     0
 42
0.0000000004854107
 43
0.0000000001
 12
1.0
 22
0.0
 32
0.0
 13
1.0
 23
0.0
 33
0.0
 40
0.0
 40
0.0
 40
0.0
 40
0.0
 40
0.7208554085657483
 40
0.7208554085657483
 40
0.7208554085657483
 40
1.0
 40
1.0
 40
1.0
 40
1.0
 10
3.560000000000002
 20
5.831030824823013
 30
0.0
 10
-1.365866501226732
 20
5.34129926380076
 30
0.0
 10
-6.291723963212149
 20
4.851522231785242
 30
0.0
 10
-11.21755939038181
 20
4.361634420102531
 30
0.0
 10
-13.12504361224564
 20
4.171929894832775
 30
0.0
 10
-15.03252439221632
 20
3.982208063648991
 30
0.0
 10
-16.94
 20
3.79246023601271
 30
0.0
  0
LINE
  5
120
330
1F
100
AcDbEntity
  8
SK1
  6
Continuous
100
AcDbLine
 10
-16.94
 20
3.792460236
 30
0.0
 11
-17.24
 21
3.5801060428
 31
0.0
  0
LINE
  5
121
330
1F
100
AcDbEntity
  8
SK3
100
AcDbLine
 10
-17.04
 20
1.5821293144
 30
0.0
 11
5.7312161304
 21
1.5821293144
 31
0.0
  0
LINE
  5
122
330
1F
100
AcDbEntity
  8
SK3
100
AcDbLine
 10
-17.24
 20
2.603494598
 30
0.0
 11
-17.04
 21
2.4874686925
 31
0.0
  0
LINE
  5
123
330
1F
100
AcDbEntity
  8
SK3
100
AcDbLine
 10
5.76
 20
6.8954696269
 30
0.0
 11
5.76
 21
5.0526100572
 31
0.0
  0
ARC
  5
124
330
1F
100
AcDbEntity
  8
SK3
100
AcDbCircle
 10
-6.2295788083
 20
30.0000000998
 30
0.0
 40
30.0
100
AcDbArc
 50
293.4965072756
 51
293.5564643091
  0
LINE
  5
125
330
1F
100
AcDbEntity
  8
SK1
  6
Continuous
100
AcDbLine
 10
5.76
 20
6.8954696269
 30
0.0
 11
5.76
 21
6.9000000998
 31
0.0
  0
LINE
  5
126
330
1F
100
AcDbEntity
  8
SK1
  6
Continuous
100
AcDbLine
 10
5.76
 20
6.8954696269
 30
0.0
 11
3.76
 21
6.8954696269
 31
0.0
  0
SPLINE
  5
127
330
1F
100
AcDbEntity
  8
SK1
  6
Continuous
100
AcDbSpline
210
0.0
220
0.0
230
1.0
 70
     8
 71
     3
 72
    10
 73
     6
 74
     0
 42
0.0000000310371786
 43
0.0000000001
 12
1.0
 22
0.0
 32
0.0
 13
1.0
 23
0.0
 33
0.0
 40
0.0
 40
0.0
 40
0.0
 40
0.0
 40
0.5
 40
0.5
 40
1.0
 40
1.0
 40
1.0
 40
1.0
 10
3.760000000000001
 20
6.895469626931261
 30
0.0
 10
3.707121712915864
 20
6.895469626931262
 30
0.0
 10
3.655400779788057
 20
6.917203130414923
 30
0.0
 10
3.581613281239431
 20
6.991113128859384
 30
0.0
 10
3.559999999999995
 20
7.043384708061913
 30
0.0
 10
3.560000000000002
 20
7.095597326220345
 30
0.0
  0
SPLINE
  5
128
330
1F
100
AcDbEntity
  8
SK1
  6
Continuous
100
AcDbSpline
210
0.0
220
0.0
230
1.0
 70
     8
 71
     3
 72
    11
 73
     7
 74
     0
 42
0.0000000004830515
 43
0.0000000001
 12
1.0
 22
0.0
 32
0.0
 13
1.0
 23
0.0
 33
0.0
 40
0.0
 40
0.0
 40
0.0
 40
0.0
 40
0.7208554085657484
 40
0.7208554085657484
 40
0.7208554085657484
 40
1.0
 40
1.0
 40
1.0
 40
1.0
 10
3.560000000000002
 20
8.496322833753904
 30
0.0
 10
-1.365866501226732
 20
7.803737818234091
 30
0.0
 10
-6.291723963212149
 20
7.111088497018905
 30
0.0
 10
-11.21755939038181
 20
6.418282509695939
 30
0.0
 10
-13.12504361224564
 20
6.149999797215899
 30
0.0
 10
-15.03252439221632
 20
5.881692610477532
 30
0.0
 10
-16.94
 20
5.61334865920347
 30
0.0
  0
LINE
  5
129
330
1F
100
AcDbEntity
  8
SK1
  6
Continuous
100
AcDbLine
 10
-16.94
 20
5.6133486592
 30
0.0
 11
-17.24
 21
5.3130344792
 31
0.0
  0
LINE
  5
12A
330
1F
100
AcDbEntity
  8
SK3
100
AcDbLine
 10
-17.04
 20
2.4874686925
 30
0.0
 11
5.7312161304
 21
2.4874686925
 31
0.0
  0
LINE
  5
12B
330
1F
100
AcDbEntity
  8
SK3
100
AcDbLine
 10
-17.04
 20
-2.487468493
 30
0.0
 11
-17.04
 21
-1.9356825055
 31
0.0
  0
LINE
  5
12C
330
1F
100
AcDbEntity
  8
SK3
100
AcDbLine
 10
-17.24
 20
-2.6034943985
 30
0.0
 11
-17.04
 21
-2.487468493
 31
0.0
  0
LINE
  5
12D
330
1F
100
AcDbEntity
  8
SK1
  6
Continuous
100
AcDbLine
 10
3.56
 20
-8.4963226342
 30
0.0
 11
3.56
 21
-7.9452494339
 31
0.0
  0
LINE
  5
12E
330
1F
100
AcDbEntity
  8
SK1
  6
Continuous
100
AcDbLine
 10
-16.94
 20
-5.6133484597
 30
0.0
 11
-16.94
 21
-4.1460134271
 31
0.0
  0
LINE
  5
12F
330
1F
100
AcDbEntity
  8
SK1
  6
Continuous
100
AcDbLine
 10
-17.24
 20
-5.3130342796
 30
0.0
 11
-17.24
 21
-3.9336592339
 31
0.0
  0
LINE
  5
130
330
1F
100
AcDbEntity
  8
SK1
  6
Continuous
100
AcDbLine
 10
3.76
 20
-6.8954694274
 30
0.0
 11
3.76
 21
-6.4662539215
 31
0.0
  0
LINE
  5
131
330
1F
100
AcDbEntity
  8
SK3
100
AcDbLine
 10
5.76
 20
-6.8954694274
 30
0.0
 11
5.76
 21
-5.0526098576
 31
0.0
  0
LINE
  5
132
330
1F
100
AcDbEntity
  8
SK1
  6
Continuous
100
AcDbLine
 10
5.76
 20
-6.8954694274
 30
0.0
 11
3.76
 21
-6.8954694274
 31
0.0
  0
SPLINE
  5
133
330
1F
100
AcDbEntity
  8
SK1
  6
Continuous
100
AcDbSpline
210
0.0
220
0.0
230
1.0
 70
     8
 71
     3
 72
    10
 73
     6
 74
     0
 42
0.0000000310371786
 43
0.0000000001
 12
1.0
 22
0.0
 32
0.0
 13
1.0
 23
0.0
 33
0.0
 40
0.0
 40
0.0
 40
0.0
 40
0.0
 40
0.5
 40
0.5
 40
1.0
 40
1.0
 40
1.0
 40
1.0
 10
3.760000000000001
 20
-6.895469427389878
 30
0.0
 10
3.707121712915864
 20
-6.895469427389876
 30
0.0
 10
3.655400779788057
 20
-6.917202930873541
 30
0.0
 10
3.581613281239431
 20
-6.991112929317998
 30
0.0
 10
3.559999999999997
 20
-7.043384508520529
 30
0.0
 10
3.560000000000002
 20
-7.095597126678961
 30
0.0
  0
SPLINE
  5
134
330
1F
100
AcDbEntity
  8
SK1
  6
Continuous
100
AcDbSpline
210
0.0
220
0.0
230
1.0
 70
     8
 71
     3
 72
    11
 73
     7
 74
     0
 42
0.0000000004830515
 43
0.0000000001
 12
1.0
 22
0.0
 32
0.0
 13
1.0
 23
0.0
 33
0.0
 40
0.0
 40
0.0
 40
0.0
 40
0.0
 40
0.7208554085657484
 40
0.7208554085657484
 40
0.7208554085657484
 40
1.0
 40
1.0
 40
1.0
 40
1.0
 10
3.560000000000002
 20
-8.496322634212522
 30
0.0
 10
-1.365866501226734
 20
-7.803737618692708
 30
0.0
 10
-6.291723963212149
 20
-7.111088297477521
 30
0.0
 10
-11.21755939038181
 20
-6.418282310154556
 30
0.0
 10
-13.12504361224564
 20
-6.149999597674515
 30
0.0
 10
-15.03252439221632
 20
-5.881692410936148
 30
0.0
 10
-16.94
 20
-5.613348459662086
 30
0.0
  0
LINE
  5
135
330
1F
100
AcDbEntity
  8
SK1
  6
Continuous
100
AcDbLine
 10
-16.94
 20
-5.6133484597
 30
0.0
 11
-17.24
 21
-5.3130342796
 31
0.0
  0
LINE
  5
136
330
1F
100
AcDbEntity
  8
SK3
100
AcDbLine
 10
-17.04
 20
-2.487468493
 30
0.0
 11
5.7312161304
 21
-2.487468493
 31
0.0
  0
LINE
  5
137
330
1F
100
AcDbEntity
  8
SK1
  6
Continuous
100
AcDbLine
 10
5.76
 20
-6.8954694274
 30
0.0
 11
5.76
 21
-6.8999999002
 31
0.0
  0
ARC
  5
138
330
1F
100
AcDbEntity
  8
SK3
100
AcDbCircle
 10
-6.2295788083
 20
-29.9999999002
 30
0.0
 40
30.0
100
AcDbArc
 50
66.4435356909
 51
66.5034927244
  0
LINE
  5
139
330
1F
100
AcDbEntity
  8
SK3
100
AcDbLine
 10
5.76
 20
-2.4999999002
 30
0.0
 11
10.06
 21
-2.4999999002
 31
0.0
  0
LINE
  5
13A
330
1F
100
AcDbEntity
  8
SK3
100
AcDbLine
 10
10.06
 20
2.5000000998
 30
0.0
 11
5.76
 21
2.5000000998
 31
0.0
  0
LINE
  5
13B
330
1F
100
AcDbEntity
  8
SK3
100
AcDbLine
 10
10.26
 20
2.6154701536
 30
0.0
 11
10.06
 21
2.5000000998
 31
0.0
  0
ARC
  5
13C
330
1F
100
AcDbEntity
  8
SK1
  6
Continuous
100
AcDbCircle
 10
10.01
 20
6.1712614557
 30
0.0
 40
0.2500000000000001
100
AcDbArc
 50
0.0
 51
60.0
  0
LINE
  5
13D
330
1F
100
AcDbEntity
  8
SK1
  6
Continuous
100
AcDbLine
 10
10.135
 20
6.3877678067
 30
0.0
 11
6.26
 21
8.6250000998
 31
0.0
  0
ARC
  5
13E
330
1F
100
AcDbEntity
  8
SK1
  6
Continuous
100
AcDbCircle
 10
6.06
 20
7.1000000998
 30
0.0
 40
0.1999999999999988
100
AcDbArc
 50
270.0
 51
0.0
  0
LINE
  5
13F
330
1F
100
AcDbEntity
  8
SK1
  6
Continuous
100
AcDbLine
 10
6.06
 20
6.9000000998
 30
0.0
 11
5.76
 21
6.9000000998
 31
0.0
  0
LINE
  5
140
330
1F
100
AcDbEntity
  8
SK3
100
AcDbLine
 10
10.06
 20
-2.4999999002
 30
0.0
 11
10.26
 21
-2.6154699541
 31
0.0
  0
ARC
  5
141
330
1F
100
AcDbEntity
  8
SK1
  6
Continuous
100
AcDbCircle
 10
10.01
 20
-6.1712612562
 30
0.0
 40
0.2499999999999999
100
AcDbArc
 50
300.0
 51
0.0
  0
LINE
  5
142
330
1F
100
AcDbEntity
  8
SK1
  6
Continuous
100
AcDbLine
 10
6.26
 20
-8.6249999002
 30
0.0
 11
10.135
 21
-6.3877676071
 31
0.0
  0
ARC
  5
143
330
1F
100
AcDbEntity
  8
SK1
  6
Continuous
100
AcDbCircle
 10
6.06
 20
-7.0999999002
 30
0.0
 40
0.1999999999999994
100
AcDbArc
 50
0.0
 51
90.0
  0
LINE
  5
144
330
1F
100
AcDbEntity
  8
SK1
  6
Continuous
100
AcDbLine
 10
5.76
 20
-6.8999999002
 30
0.0
 11
6.06
 21
-6.8999999002
 31
0.0
  0
LINE
  5
145
330
1F
100
AcDbEntity
  8
SK1
  6
Continuous
100
AcDbLine
 10
0.0
 20
7.9957681839
 30
0.0
 11
0.0
 21
-7.9957679843
 31
0.0
  0
LINE
  5
147
330
1F
100
AcDbEntity
  8
SK4
  6
Continuous
100
AcDbLine
 10
10.26
 20
0.0000000998
 30
0.0
 11
-17.24
 21
0.0000000998
 31
0.0
  0
DIMENSION
  5
15C
330
1F
100
AcDbEntity
  8
SK2
  6
Continuous
 62
   136
100
AcDbDimension
  2
DMBLK103
 10
19.4991414896
 20
2.5000000998
 30
0.0
 11
19.4991414896
 21
7.7639754555
 31
0.0
 70
   161
  1
\A1;ø <>
 71
     5
 42
-1.0
  3
DIN
100
AcDbAlignedDimension
 13
10.06
 23
2.5000000998
 33
0.0
 14
10.06
 24
-2.4999999002
 34
0.0
  0
DIMENSION
  5
167
330
1F
100
AcDbEntity
  8
SK2
  6
Continuous
 62
   136
100
AcDbDimension
  2
DMBLK104
 10
10.26
 20
-16.5948984211
 30
0.0
 11
5.1299999468
 21
-16.5948984211
 31
0.0
 70
   160
  1
\A1;<>
 71
     5
 42
-1.0
  3
DIN
100
AcDbAlignedDimension
 13
0.0
 23
-7.9957679843
 33
0.0
 14
10.26
 24
-4.0959107383
 34
0.0
100
AcDbRotatedDimension
  0
DIMENSION
  5
171
330
1F
100
AcDbEntity
  8
SK2
  6
Continuous
 62
   136
100
AcDbDimension
  2
DMBLK105
 10
-23.2873093337
 20
7.9957681839
 30
0.0
 11
-23.2873093337
 21
-0.0000002663
 31
0.0
 70
   161
  1
\A1;ø <>
 71
     5
 42
-1.0
  3
DIN
100
AcDbAlignedDimension
 13
0.0
 23
7.9957681839
 33
0.0
 14
0.0
 24
-7.9957679843
 34
0.0
1001
ACAD
1000
DSTYLE
1002
{
1070
   271
1070
     1
1070
   272
1070
     1
1070
     0
1002
}
  0
DIMENSION
  5
17C
330
1F
100
AcDbEntity
  8
SK2
  6
Continuous
 62
   136
100
AcDbDimension
  2
DMBLK106
 10
10.26
 20
14.497442781
 30
0.0
 11
-3.4900000745
 21
14.497442781
 31
0.0
 70
   160
  1
\A1;<>
 71
     5
 42
-1.0
  3
DIN
100
AcDbAlignedDimension
 13
-17.24
 23
3.9336594334
 33
0.0
 14
10.26
 24
5.9818771065
 34
0.0
100
AcDbRotatedDimension
1001
ACAD
1000
DSTYLE
1002
{
1070
   271
1070
     1
1070
   272
1070
     1
1070
     0
1002
}
  0
ENDSEC
  0
SECTION
  2
OBJECTS
  0
DICTIONARY
  5
C
330
0
100
AcDbDictionary
281
     1
  3
ACAD_GROUP
350
D
  3
ACAD_LAYOUT
350
1A
  3
ACAD_MATERIAL
350
3B
  3
ACAD_MLEADERSTYLE
350
188
  3
ACAD_MLINESTYLE
350
17
  3
ACAD_PLOTSETTINGS
350
19
  3
ACAD_PLOTSTYLENAME
350
E
  3
ACAD_VISUALSTYLE
350
2A
  3
AcDbVariableDictionary
350
186
  0
DICTIONARY
  5
D
102
{ACAD_REACTORS
330
C
102
}
330
C
100
AcDbDictionary
281
     1
  0
DICTIONARY
  5
1A
102
{ACAD_REACTORS
330
C
102
}
330
C
100
AcDbDictionary
281
     1
  3
Layout1
350
1E
  3
Model
350
22
  0
DICTIONARY
  5
3B
102
{ACAD_REACTORS
330
C
102
}
330
C
100
AcDbDictionary
281
     1
  3
ByBlock
350
3D
  3
ByLayer
350
3C
  3
Global
350
3E
  0
DICTIONARY
  5
188
102
{ACAD_REACTORS
330
C
102
}
330
C
100
AcDbDictionary
281
     1
  0
DICTIONARY
  5
17
102
{ACAD_REACTORS
330
C
102
}
330
C
100
AcDbDictionary
281
     1
  3
Standard
350
18
  0
DICTIONARY
  5
19
102
{ACAD_REACTORS
330
C
102
}
330
C
100
AcDbDictionary
281
     1
  0
ACDBDICTIONARYWDFLT
  5
E
102
{ACAD_REACTORS
330
C
102
}
330
C
100
AcDbDictionary
281
     1
  3
Normal
350
F
100
AcDbDictionaryWithDefault
340
F
  0
DICTIONARY
  5
2A
102
{ACAD_REACTORS
330
C
102
}
330
C
100
AcDbDictionary
281
     1
  3
2dWireframe
350
2F
  3
3D Hidden
350
31
  3
3dWireframe
350
30
  3
Basic
350
32
  3
Brighten
350
36
  3
ColorChange
350
3A
  3
Conceptual
350
34
  3
Dim
350
35
  3
Facepattern
350
39
  3
Flat
350
2B
  3
FlatWithEdges
350
2C
  3
Gouraud
350
2D
  3
GouraudWithEdges
350
2E
  3
Linepattern
350
38
  3
Realistic
350
33
  3
Thicken
350
37
  0
DICTIONARY
  5
186
102
{ACAD_REACTORS
330
C
102
}
330
C
100
AcDbDictionary
281
     1
  3
DIMASSOC
350
18B
  3
HIDETEXT
350
18C
  3
PSOLHEIGHT
350
18A
  3
PSOLWIDTH
350
189
  0
LAYOUT
  5
1E
102
{ACAD_REACTORS
330
1A
102
}
330
1A
100
AcDbPlotSettings
  1

  2
none_device
  4

  6

 40
0.0
 41
0.0
 42
0.0
 43
0.0
 44
0.0
 45
0.0
 46
0.0
 47
0.0
 48
0.0
 49
0.0
140
0.0
141
0.0
142
1.0
143
1.0
 70
   688
 72
     0
 73
     0
 74
     5
  7

 75
    16
147
1.0
148
0.0
149
0.0
100
AcDbLayout
  1
Layout1
 70
     1
 71
     1
 10
0.0
 20
0.0
 11
210.0
 21
297.0
 12
0.0
 22
0.0
 32
0.0
 14
0.0
 24
0.0
 34
0.0
 15
210.0
 25
297.0
 35
0.0
146
0.0
 13
0.0
 23
0.0
 33
0.0
 16
1.0
 26
0.0
 36
0.0
 17
0.0
 27
1.0
 37
0.0
 76
     0
330
1B
  0
LAYOUT
  5
22
102
{ACAD_REACTORS
330
1A
102
}
330
1A
100
AcDbPlotSettings
  1

  2
none_device
  4

  6

 40
0.0
 41
0.0
 42
0.0
 43
0.0
 44
0.0
 45
0.0
 46
0.0
 47
0.0
 48
0.0
 49
0.0
140
0.0
141
0.0
142
1.0
143
1.0
 70
  1712
 72
     0
 73
     0
 74
     0
  7

 75
     0
147
1.0
148
0.0
149
0.0
100
AcDbLayout
  1
Model
 70
     1
 71
     0
 10
0.0
 20
0.0
 11
210.0
 21
297.0
 12
0.0
 22
0.0
 32
0.0
 14
0.0
 24
0.0
 34
0.0
 15
210.0
 25
297.0
 35
0.0
146
0.0
 13
0.0
 23
0.0
 33
0.0
 16
1.0
 26
0.0
 36
0.0
 17
0.0
 27
1.0
 37
0.0
 76
     0
330
1F
331
29
  0
MATERIAL
  5
3D
102
{ACAD_REACTORS
330
3B
102
}
102
{ACAD_XDICTIONARY
360
1AF
102
}
330
3B
100
AcDbMaterial
  1
ByBlock
  0
MATERIAL
  5
3C
102
{ACAD_REACTORS
330
3B
102
}
102
{ACAD_XDICTIONARY
360
1AD
102
}
330
3B
100
AcDbMaterial
  1
ByLayer
  0
MATERIAL
  5
3E
102
{ACAD_REACTORS
330
3B
102
}
102
{ACAD_XDICTIONARY
360
1B1
102
}
330
3B
100
AcDbMaterial
  1
Global
  0
MLINESTYLE
  5
18
102
{ACAD_REACTORS
330
17
102
}
330
17
100
AcDbMlineStyle
  2
Standard
 70
     0
  3

 62
   256
 51
90.0
 52
90.0
 71
     2
 49
0.5
 62
   256
  6
BYLAYER
 49
-0.5
 62
   256
  6
BYLAYER
  0
ACDBPLACEHOLDER
  5
F
102
{ACAD_REACTORS
330
E
102
}
330
E
  0
VISUALSTYLE
  5
2F
102
{ACAD_REACTORS
330
2A
102
}
102
{ACAD_XDICTIONARY
360
195
102
}
330
2A
100
AcDbVisualStyle
  2
2dWireframe
 70
     4
 71
     0
 72
     2
 73
     0
 90
        0
 40
-0.6
 41
-30.0
 62
     5
 63
     7
 74
     1
 91
        4
 64
     7
 65
   257
 75
     1
175
     1
 42
1.0
 92
        0
 66
   257
 43
1.0
 76
     1
 77
     6
 78
     2
 67
     7
 79
     5
170
     0
171
     0
290
     0
174
     0
 93
        1
 44
0.0
173
     0
291
     0
 45
0.0
1001
ACAD
1000
AcDbSavedByObjectVersion
1070
     0
  0
VISUALSTYLE
  5
31
102
{ACAD_REACTORS
330
2A
102
}
102
{ACAD_XDICTIONARY
360
199
102
}
330
2A
100
AcDbVisualStyle
  2
3D Hidden
 70
     6
 71
     1
 72
     2
 73
     2
 90
        0
 40
-0.6
 41
-30.0
 62
     5
 63
     7
 74
     2
 91
        2
 64
     7
 65
   257
 75
     2
175
     1
 42
40.0
 92
        0
 66
   257
 43
1.0
 76
     1
 77
     6
 78
     2
 67
     7
 79
     3
170
     0
171
     0
290
     0
174
     0
 93
        1
 44
0.0
173
     0
291
     0
 45
0.0
1001
ACAD
1000
AcDbSavedByObjectVersion
1070
     0
  0
VISUALSTYLE
  5
30
102
{ACAD_REACTORS
330
2A
102
}
102
{ACAD_XDICTIONARY
360
197
102
}
330
2A
100
AcDbVisualStyle
  2
3dWireframe
 70
     5
 71
     0
 72
     2
 73
     0
 90
        0
 40
-0.6
 41
-30.0
 62
     5
 63
     7
 74
     1
 91
        4
 64
     7
 65
   257
 75
     1
175
     1
 42
1.0
 92
        0
 66
   257
 43
1.0
 76
     1
 77
     6
 78
     2
 67
     7
 79
     5
170
     0
171
     0
290
     0
174
     0
 93
        1
 44
0.0
173
     0
291
     0
 45
0.0
1001
ACAD
1000
AcDbSavedByObjectVersion
1070
     0
  0
VISUALSTYLE
  5
32
102
{ACAD_REACTORS
330
2A
102
}
102
{ACAD_XDICTIONARY
360
19B
102
}
330
2A
100
AcDbVisualStyle
  2
Basic
 70
     7
 71
     1
 72
     0
 73
     1
 90
        0
 40
-0.6
 41
-30.0
 62
     5
 63
     7
 74
     0
 91
        4
 64
     7
 65
   257
 75
     1
175
     1
 42
1.0
 92
        8
 66
     7
 43
1.0
 76
     1
 77
     6
 78
     2
 67
     7
 79
     5
170
     0
171
     0
290
     0
174
     0
 93
        1
 44
0.0
173
     0
291
     1
 45
0.0
1001
ACAD
1000
AcDbSavedByObjectVersion
1070
     0
  0
VISUALSTYLE
  5
36
102
{ACAD_REACTORS
330
2A
102
}
102
{ACAD_XDICTIONARY
360
1A3
102
}
330
2A
100
AcDbVisualStyle
  2
Brighten
 70
    12
 71
     2
 72
     2
 73
     0
 90
        0
 40
-0.6
 41
-30.0
 62
     5
 63
     7
 74
     1
 91
        4
 64
     7
 65
   257
 75
     1
175
     1
 42
1.0
 92
        8
 66
     7
 43
1.0
 76
     1
 77
     6
 78
     2
 67
     7
 79
     5
170
     0
171
     0
290
     0
174
     0
 93
        1
 44
50.0
173
     0
291
     1
 45
0.0
1001
ACAD
1000
AcDbSavedByObjectVersion
1070
     0
  0
VISUALSTYLE
  5
3A
102
{ACAD_REACTORS
330
2A
102
}
102
{ACAD_XDICTIONARY
360
1AB
102
}
330
2A
100
AcDbVisualStyle
  2
ColorChange
 70
    16
 71
     2
 72
     2
 73
     3
 90
        0
 40
-0.6
 41
-30.0
 62
     5
 63
     8
 74
     1
 91
        4
 64
     7
 65
   257
 75
     1
175
     1
 42
1.0
 92
        8
 66
     8
 43
1.0
 76
     1
 77
     6
 78
     2
 67
     7
 79
     5
170
     0
171
     0
290
     0
174
     0
 93
        1
 44
0.0
173
     0
291
     1
 45
0.0
1001
ACAD
1000
AcDbSavedByObjectVersion
1070
     0
  0
VISUALSTYLE
  5
34
102
{ACAD_REACTORS
330
2A
102
}
102
{ACAD_XDICTIONARY
360
19F
102
}
330
2A
100
AcDbVisualStyle
  2
Conceptual
 70
     9
 71
     3
 72
     2
 73
     0
 90
        0
 40
-0.6
 41
-30.0
 62
     5
 63
     7
 74
     2
 91
        2
 64
     7
 65
   257
 75
     1
175
     1
 42
40.0
 92
        8
 66
     7
 43
1.0
 76
     1
 77
     6
 78
     2
 67
     7
 79
     3
170
     0
171
     0
290
     0
174
     0
 93
        1
 44
0.0
173
     0
291
     0
 45
0.0
1001
ACAD
1000
AcDbSavedByObjectVersion
1070
     0
  0
VISUALSTYLE
  5
35
102
{ACAD_REACTORS
330
2A
102
}
102
{ACAD_XDICTIONARY
360
1A1
102
}
330
2A
100
AcDbVisualStyle
  2
Dim
 70
    11
 71
     2
 72
     2
 73
     0
 90
        0
 40
-0.6
 41
-30.0
 62
     5
 63
     7
 74
     1
 91
        4
 64
     7
 65
   257
 75
     1
175
     1
 42
1.0
 92
        8
 66
     7
 43
1.0
 76
     1
 77
     6
 78
     2
 67
     7
 79
     5
170
     0
171
     0
290
     0
174
     0
 93
        1
 44
-50.0
173
     0
291
     1
 45
0.0
1001
ACAD
1000
AcDbSavedByObjectVersion
1070
     0
  0
VISUALSTYLE
  5
39
102
{ACAD_REACTORS
330
2A
102
}
102
{ACAD_XDICTIONARY
360
1A9
102
}
330
2A
100
AcDbVisualStyle
  2
Facepattern
 70
    15
 71
     2
 72
     2
 73
     0
 90
        0
 40
-0.6
 41
-30.0
 62
     5
 63
     7
 74
     1
 91
        4
 64
     7
 65
   257
 75
     1
175
     1
 42
1.0
 92
        8
 66
     7
 43
1.0
 76
     1
 77
     6
 78
     2
 67
     7
 79
     5
170
     0
171
     0
290
     0
174
     0
 93
        1
 44
0.0
173
     0
291
     1
 45
0.0
1001
ACAD
1000
AcDbSavedByObjectVersion
1070
     0
  0
VISUALSTYLE
  5
2B
102
{ACAD_REACTORS
330
2A
102
}
102
{ACAD_XDICTIONARY
360
18D
102
}
330
2A
100
AcDbVisualStyle
  2
Flat
 70
     0
 71
     2
 72
     1
 73
     1
 90
        2
 40
-0.6
 41
30.0
 62
     5
 63
     7
 74
     0
 91
        4
 64
     7
 65
   257
 75
     1
175
     1
 42
1.0
 92
        8
 66
     7
 43
1.0
 76
     1
 77
     6
 78
     2
 67
     7
 79
     5
170
     0
171
     0
290
     0
174
     0
 93
       13
 44
0.0
173
     0
291
     1
 45
0.0
1001
ACAD
1000
AcDbSavedByObjectVersion
1070
     0
  0
VISUALSTYLE
  5
2C
102
{ACAD_REACTORS
330
2A
102
}
102
{ACAD_XDICTIONARY
360
18F
102
}
330
2A
100
AcDbVisualStyle
  2
FlatWithEdges
 70
     1
 71
     2
 72
     1
 73
     1
 90
        2
 40
-0.6
 41
30.0
 62
     5
 63
     7
 74
     1
 91
        4
 64
     7
 65
   257
 75
     1
175
     1
 42
1.0
 92
        0
 66
   257
 43
1.0
 76
     1
 77
     6
 78
     2
 67
     7
 79
     5
170
     0
171
     0
290
     0
174
     0
 93
       13
 44
0.0
173
     0
291
     1
 45
0.0
1001
ACAD
1000
AcDbSavedByObjectVersion
1070
     0
  0
VISUALSTYLE
  5
2D
102
{ACAD_REACTORS
330
2A
102
}
102
{ACAD_XDICTIONARY
360
191
102
}
330
2A
100
AcDbVisualStyle
  2
Gouraud
 70
     2
 71
     2
 72
     2
 73
     1
 90
        2
 40
-0.6
 41
30.0
 62
     5
 63
     7
 74
     0
 91
        4
 64
     7
 65
   257
 75
     1
175
     1
 42
1.0
 92
        0
 66
     7
 43
1.0
 76
     1
 77
     6
 78
     2
 67
     7
 79
     5
170
     0
171
     0
290
     0
174
     0
 93
       13
 44
0.0
173
     0
291
     1
 45
0.0
1001
ACAD
1000
AcDbSavedByObjectVersion
1070
     0
  0
VISUALSTYLE
  5
2E
102
{ACAD_REACTORS
330
2A
102
}
102
{ACAD_XDICTIONARY
360
193
102
}
330
2A
100
AcDbVisualStyle
  2
GouraudWithEdges
 70
     3
 71
     2
 72
     2
 73
     1
 90
        2
 40
-0.6
 41
30.0
 62
     5
 63
     7
 74
     1
 91
        4
 64
     7
 65
   257
 75
     1
175
     1
 42
1.0
 92
        0
 66
   257
 43
1.0
 76
     1
 77
     6
 78
     2
 67
     7
 79
     5
170
     0
171
     0
290
     0
174
     0
 93
       13
 44
0.0
173
     0
291
     1
 45
0.0
1001
ACAD
1000
AcDbSavedByObjectVersion
1070
     0
  0
VISUALSTYLE
  5
38
102
{ACAD_REACTORS
330
2A
102
}
102
{ACAD_XDICTIONARY
360
1A7
102
}
330
2A
100
AcDbVisualStyle
  2
Linepattern
 70
    14
 71
     2
 72
     2
 73
     0
 90
        0
 40
-0.6
 41
-30.0
 62
     5
 63
     7
 74
     1
 91
        4
 64
     7
 65
   257
 75
     7
175
     7
 42
1.0
 92
        8
 66
     7
 43
1.0
 76
     1
 77
     6
 78
     2
 67
     7
 79
     5
170
     0
171
     0
290
     0
174
     0
 93
        1
 44
0.0
173
     0
291
     1
 45
0.0
1001
ACAD
1000
AcDbSavedByObjectVersion
1070
     0
  0
VISUALSTYLE
  5
33
102
{ACAD_REACTORS
330
2A
102
}
102
{ACAD_XDICTIONARY
360
19D
102
}
330
2A
100
AcDbVisualStyle
  2
Realistic
 70
     8
 71
     2
 72
     2
 73
     0
 90
        0
 40
-0.6
 41
-30.0
 62
     5
 63
     7
 74
     1
 91
        0
 64
     7
 65
   257
 75
     1
175
     1
 42
1.0
 92
        8
 66
     8
 43
1.0
 76
     1
 77
     6
 78
     2
 67
     7
 79
     5
170
     0
171
     0
290
     0
174
     0
 93
       13
 44
0.0
173
     0
291
     0
 45
0.0
1001
ACAD
1000
AcDbSavedByObjectVersion
1070
     0
  0
VISUALSTYLE
  5
37
102
{ACAD_REACTORS
330
2A
102
}
102
{ACAD_XDICTIONARY
360
1A5
102
}
330
2A
100
AcDbVisualStyle
  2
Thicken
 70
    13
 71
     2
 72
     2
 73
     0
 90
        0
 40
-0.6
 41
-30.0
 62
     5
 63
     7
 74
     1
 91
        4
 64
     7
 65
   257
 75
     1
175
     1
 42
1.0
 92
       12
 66
     7
 43
1.0
 76
     1
 77
     6
 78
     2
 67
     7
 79
     5
170
     0
171
     0
290
     0
174
     0
 93
        1
 44
0.0
173
     0
291
     1
 45
0.0
1001
ACAD
1000
AcDbSavedByObjectVersion
1070
     0
  0
DICTIONARYVAR
  5
18B
102
{ACAD_REACTORS
330
186
102
}
330
186
100
DictionaryVariables
280
     0
  1
2
  0
DICTIONARYVAR
  5
18C
102
{ACAD_REACTORS
330
186
102
}
330
186
100
DictionaryVariables
280
     0
  1
1
  0
DICTIONARYVAR
  5
18A
102
{ACAD_REACTORS
330
186
102
}
330
186
100
DictionaryVariables
280
     0
  1
80.000000
  0
DICTIONARYVAR
  5
189
102
{ACAD_REACTORS
330
186
102
}
330
186
100
DictionaryVariables
280
     0
  1
5.000000
  0
DICTIONARY
  5
1AF
330
3D
100
AcDbDictionary
280
     1
281
     1
  3
ACAD_XREC_ROUNDTRIP
360
1B0
  0
DICTIONARY
  5
1AD
330
3C
100
AcDbDictionary
280
     1
281
     1
  3
ACAD_XREC_ROUNDTRIP
360
1AE
  0
DICTIONARY
  5
1B1
330
3E
100
AcDbDictionary
280
     1
281
     1
  3
ACAD_XREC_ROUNDTRIP
360
1B2
  0
DICTIONARY
  5
195
330
2F
100
AcDbDictionary
280
     1
281
     1
  3
ACAD_XREC_ROUNDTRIP
360
196
  0
DICTIONARY
  5
199
330
31
100
AcDbDictionary
280
     1
281
     1
  3
ACAD_XREC_ROUNDTRIP
360
19A
  0
DICTIONARY
  5
197
330
30
100
AcDbDictionary
280
     1
281
     1
  3
ACAD_XREC_ROUNDTRIP
360
198
  0
DICTIONARY
  5
19B
330
32
100
AcDbDictionary
280
     1
281
     1
  3
ACAD_XREC_ROUNDTRIP
360
19C
  0
DICTIONARY
  5
1A3
330
36
100
AcDbDictionary
280
     1
281
     1
  3
ACAD_XREC_ROUNDTRIP
360
1A4
  0
DICTIONARY
  5
1AB
330
3A
100
AcDbDictionary
280
     1
281
     1
  3
ACAD_XREC_ROUNDTRIP
360
1AC
  0
DICTIONARY
  5
19F
330
34
100
AcDbDictionary
280
     1
281
     1
  3
ACAD_XREC_ROUNDTRIP
360
1A0
  0
DICTIONARY
  5
1A1
330
35
100
AcDbDictionary
280
     1
281
     1
  3
ACAD_XREC_ROUNDTRIP
360
1A2
  0
DICTIONARY
  5
1A9
330
39
100
AcDbDictionary
280
     1
281
     1
  3
ACAD_XREC_ROUNDTRIP
360
1AA
  0
DICTIONARY
  5
18D
330
2B
100
AcDbDictionary
280
     1
281
     1
  3
ACAD_XREC_ROUNDTRIP
360
18E
  0
DICTIONARY
  5
18F
330
2C
100
AcDbDictionary
280
     1
281
     1
  3
ACAD_XREC_ROUNDTRIP
360
190
  0
DICTIONARY
  5
191
330
2D
100
AcDbDictionary
280
     1
281
     1
  3
ACAD_XREC_ROUNDTRIP
360
192
  0
DICTIONARY
  5
193
330
2E
100
AcDbDictionary
280
     1
281
     1
  3
ACAD_XREC_ROUNDTRIP
360
194
  0
DICTIONARY
  5
1A7
330
38
100
AcDbDictionary
280
     1
281
     1
  3
ACAD_XREC_ROUNDTRIP
360
1A8
  0
DICTIONARY
  5
19D
330
33
100
AcDbDictionary
280
     1
281
     1
  3
ACAD_XREC_ROUNDTRIP
360
19E
  0
DICTIONARY
  5
1A5
330
37
100
AcDbDictionary
280
     1
281
     1
  3
ACAD_XREC_ROUNDTRIP
360
1A6
  0
XRECORD
  5
1B0
102
{ACAD_REACTORS
330
1AF
102
}
330
1AF
100
AcDbXrecord
280
     1
102
MATERIAL
148
0.0
149
0.0
149
0.0
 93
        0
 94
      127
282
     0
 72
     1
 77
     1
171
     1
175
     1
179
     1
273
     0
  0
XRECORD
  5
1AE
102
{ACAD_REACTORS
330
1AD
102
}
330
1AD
100
AcDbXrecord
280
     1
102
MATERIAL
148
0.0
149
0.0
149
0.0
 93
        0
 94
      127
282
     0
 72
     1
 77
     1
171
     1
175
     1
179
     1
273
     0
  0
XRECORD
  5
1B2
102
{ACAD_REACTORS
330
1B1
102
}
330
1B1
100
AcDbXrecord
280
     1
102
MATERIAL
148
0.0
149
0.0
149
0.0
 93
        0
 94
      127
282
     0
 72
     1
 77
     1
171
     1
175
     1
179
     1
273
     0
  0
XRECORD
  5
196
102
{ACAD_REACTORS
330
195
102
}
330
195
100
AcDbXrecord
280
     1
102
RTVSPropertyOp0
 70
     1
102
RTVSPropertyOp1
 70
     1
102
RTVSPropertyOp2
 70
     1
102
RTVSPropertyOp3
 70
     1
102
RTVSPropertyOp4
 70
     1
102
RTVSPropertyOp5
 70
     1
102
RTVSPropertyOp6
 70
     1
102
RTVSPropertyOp7
 70
     1
102
RTVSPropertyOp8
 70
     1
102
RTVSPropertyOp9
 70
     1
102
RTVSPropertyOp10
 70
     1
102
RTVSPropertyOp11
 70
     1
102
RTVSPropertyOp12
 70
     1
102
RTVSPropertyOp13
 70
     1
102
RTVSPropertyOp14
 70
     1
102
RTVSPropertyOp15
 70
     1
102
RTVSPropertyOp16
 70
     1
102
RTVSPropertyOp17
 70
     1
102
RTVSPropertyOp18
 70
     1
102
RTVSPropertyOp19
 70
     1
102
RTVSPropertyOp20
 70
     1
102
RTVSPropertyOp21
 70
     1
102
RTVSPropertyOp22
 70
     1
102
RTVSPropertyOp23
 70
     1
102
RTVSPropertyOp24
 70
     1
102
RTVSPropertyOp25
 70
     1
102
RTVSPropertyOp26
 70
     1
102
RTVSPropertyOp27
 70
     1
102
RTVSPropertyOp28
 70
     1
102
RTVSPropertyOp29
 70
     1
102
RTVSPropertyOp30
 70
     1
102
RTVSPropertyOp31
 70
     1
102
RTVSPropertyOp32
 70
     1
  0
XRECORD
  5
19A
102
{ACAD_REACTORS
330
199
102
}
330
199
100
AcDbXrecord
280
     1
102
RTVSPropertyOp0
 70
     1
102
RTVSPropertyOp1
 70
     1
102
RTVSPropertyOp2
 70
     1
102
RTVSPropertyOp3
 70
     1
102
RTVSPropertyOp4
 70
     1
102
RTVSPropertyOp5
 70
     1
102
RTVSPropertyOp6
 70
     1
102
RTVSPropertyOp7
 70
     1
102
RTVSPropertyOp8
 70
     1
102
RTVSPropertyOp9
 70
     1
102
RTVSPropertyOp10
 70
     1
102
RTVSPropertyOp11
 70
     1
102
RTVSPropertyOp12
 70
     1
102
RTVSPropertyOp13
 70
     1
102
RTVSPropertyOp14
 70
     1
102
RTVSPropertyOp15
 70
     1
102
RTVSPropertyOp16
 70
     1
102
RTVSPropertyOp17
 70
     1
102
RTVSPropertyOp18
 70
     1
102
RTVSPropertyOp19
 70
     1
102
RTVSPropertyOp20
 70
     1
102
RTVSPropertyOp21
 70
     1
102
RTVSPropertyOp22
 70
     1
102
RTVSPropertyOp23
 70
     1
102
RTVSPropertyOp24
 70
     1
102
RTVSPropertyOp25
 70
     1
102
RTVSPropertyOp26
 70
     1
102
RTVSPropertyOp27
 70
     1
102
RTVSPropertyOp28
 70
     1
102
RTVSPropertyOp29
 70
     1
102
RTVSPropertyOp30
 70
     1
102
RTVSPropertyOp31
 70
     1
102
RTVSPropertyOp32
 70
     1
  0
XRECORD
  5
198
102
{ACAD_REACTORS
330
197
102
}
330
197
100
AcDbXrecord
280
     1
102
RTVSPropertyOp0
 70
     1
102
RTVSPropertyOp1
 70
     1
102
RTVSPropertyOp2
 70
     1
102
RTVSPropertyOp3
 70
     1
102
RTVSPropertyOp4
 70
     1
102
RTVSPropertyOp5
 70
     1
102
RTVSPropertyOp6
 70
     1
102
RTVSPropertyOp7
 70
     1
102
RTVSPropertyOp8
 70
     1
102
RTVSPropertyOp9
 70
     1
102
RTVSPropertyOp10
 70
     1
102
RTVSPropertyOp11
 70
     1
102
RTVSPropertyOp12
 70
     1
102
RTVSPropertyOp13
 70
     1
102
RTVSPropertyOp14
 70
     1
102
RTVSPropertyOp15
 70
     1
102
RTVSPropertyOp16
 70
     1
102
RTVSPropertyOp17
 70
     1
102
RTVSPropertyOp18
 70
     1
102
RTVSPropertyOp19
 70
     1
102
RTVSPropertyOp20
 70
     1
102
RTVSPropertyOp21
 70
     1
102
RTVSPropertyOp22
 70
     1
102
RTVSPropertyOp23
 70
     1
102
RTVSPropertyOp24
 70
     1
102
RTVSPropertyOp25
 70
     1
102
RTVSPropertyOp26
 70
     1
102
RTVSPropertyOp27
 70
     1
102
RTVSPropertyOp28
 70
     1
102
RTVSPropertyOp29
 70
     1
102
RTVSPropertyOp30
 70
     1
102
RTVSPropertyOp31
 70
     1
102
RTVSPropertyOp32
 70
     1
  0
XRECORD
  5
19C
102
{ACAD_REACTORS
330
19B
102
}
330
19B
100
AcDbXrecord
280
     1
102
RTVSPropertyOp0
 70
     1
102
RTVSPropertyOp1
 70
     1
102
RTVSPropertyOp2
 70
     1
102
RTVSPropertyOp3
 70
     1
102
RTVSPropertyOp4
 70
     1
102
RTVSPropertyOp5
 70
     1
102
RTVSPropertyOp6
 70
     1
102
RTVSPropertyOp7
 70
     1
102
RTVSPropertyOp8
 70
     1
102
RTVSPropertyOp9
 70
     1
102
RTVSPropertyOp10
 70
     1
102
RTVSPropertyOp11
 70
     1
102
RTVSPropertyOp12
 70
     1
102
RTVSPropertyOp13
 70
     1
102
RTVSPropertyOp14
 70
     1
102
RTVSPropertyOp15
 70
     1
102
RTVSPropertyOp16
 70
     1
102
RTVSPropertyOp17
 70
     1
102
RTVSPropertyOp18
 70
     1
102
RTVSPropertyOp19
 70
     1
102
RTVSPropertyOp20
 70
     1
102
RTVSPropertyOp21
 70
     1
102
RTVSPropertyOp22
 70
     1
102
RTVSPropertyOp23
 70
     1
102
RTVSPropertyOp24
 70
     1
102
RTVSPropertyOp25
 70
     1
102
RTVSPropertyOp26
 70
     1
102
RTVSPropertyOp27
 70
     1
102
RTVSPropertyOp28
 70
     1
102
RTVSPropertyOp29
 70
     1
102
RTVSPropertyOp30
 70
     1
102
RTVSPropertyOp31
 70
     1
102
RTVSPropertyOp32
 70
     1
  0
XRECORD
  5
1A4
102
{ACAD_REACTORS
330
1A3
102
}
330
1A3
100
AcDbXrecord
280
     1
102
RTVSPropertyOp0
 70
     1
102
RTVSPropertyOp1
 70
     1
102
RTVSPropertyOp2
 70
     1
102
RTVSPropertyOp3
 70
     1
102
RTVSPropertyOp4
 70
     1
102
RTVSPropertyOp5
 70
     1
102
RTVSPropertyOp6
 70
     1
102
RTVSPropertyOp7
 70
     1
102
RTVSPropertyOp8
 70
     1
102
RTVSPropertyOp9
 70
     1
102
RTVSPropertyOp10
 70
     1
102
RTVSPropertyOp11
 70
     1
102
RTVSPropertyOp12
 70
     1
102
RTVSPropertyOp13
 70
     1
102
RTVSPropertyOp14
 70
     1
102
RTVSPropertyOp15
 70
     1
102
RTVSPropertyOp16
 70
     1
102
RTVSPropertyOp17
 70
     1
102
RTVSPropertyOp18
 70
     1
102
RTVSPropertyOp19
 70
     1
102
RTVSPropertyOp20
 70
     1
102
RTVSPropertyOp21
 70
     1
102
RTVSPropertyOp22
 70
     1
102
RTVSPropertyOp23
 70
     1
102
RTVSPropertyOp24
 70
     1
102
RTVSPropertyOp25
 70
     1
102
RTVSPropertyOp26
 70
     1
102
RTVSPropertyOp27
 70
     1
102
RTVSPropertyOp28
 70
     1
102
RTVSPropertyOp29
 70
     1
102
RTVSPropertyOp30
 70
     1
102
RTVSPropertyOp31
 70
     1
102
RTVSPropertyOp32
 70
     1
  0
XRECORD
  5
1AC
102
{ACAD_REACTORS
330
1AB
102
}
330
1AB
100
AcDbXrecord
280
     1
102
RTVSPropertyOp0
 70
     1
102
RTVSPropertyOp1
 70
     1
102
RTVSPropertyOp2
 70
     1
102
RTVSPropertyOp3
 70
     1
102
RTVSPropertyOp4
 70
     1
102
RTVSPropertyOp5
 70
     1
102
RTVSPropertyOp6
 70
     1
102
RTVSPropertyOp7
 70
     1
102
RTVSPropertyOp8
 70
     1
102
RTVSPropertyOp9
 70
     1
102
RTVSPropertyOp10
 70
     1
102
RTVSPropertyOp11
 70
     1
102
RTVSPropertyOp12
 70
     1
102
RTVSPropertyOp13
 70
     1
102
RTVSPropertyOp14
 70
     1
102
RTVSPropertyOp15
 70
     1
102
RTVSPropertyOp16
 70
     1
102
RTVSPropertyOp17
 70
     1
102
RTVSPropertyOp18
 70
     1
102
RTVSPropertyOp19
 70
     1
102
RTVSPropertyOp20
 70
     1
102
RTVSPropertyOp21
 70
     1
102
RTVSPropertyOp22
 70
     1
102
RTVSPropertyOp23
 70
     1
102
RTVSPropertyOp24
 70
     1
102
RTVSPropertyOp25
 70
     1
102
RTVSPropertyOp26
 70
     1
102
RTVSPropertyOp27
 70
     1
102
RTVSPropertyOp28
 70
     1
102
RTVSPropertyOp29
 70
     1
102
RTVSPropertyOp30
 70
     1
102
RTVSPropertyOp31
 70
     1
102
RTVSPropertyOp32
 70
     1
  0
XRECORD
  5
1A0
102
{ACAD_REACTORS
330
19F
102
}
330
19F
100
AcDbXrecord
280
     1
102
RTVSPropertyOp0
 70
     1
102
RTVSPropertyOp1
 70
     1
102
RTVSPropertyOp2
 70
     1
102
RTVSPropertyOp3
 70
     1
102
RTVSPropertyOp4
 70
     1
102
RTVSPropertyOp5
 70
     1
102
RTVSPropertyOp6
 70
     1
102
RTVSPropertyOp7
 70
     1
102
RTVSPropertyOp8
 70
     1
102
RTVSPropertyOp9
 70
     1
102
RTVSPropertyOp10
 70
     1
102
RTVSPropertyOp11
 70
     1
102
RTVSPropertyOp12
 70
     1
102
RTVSPropertyOp13
 70
     1
102
RTVSPropertyOp14
 70
     1
102
RTVSPropertyOp15
 70
     1
102
RTVSPropertyOp16
 70
     1
102
RTVSPropertyOp17
 70
     1
102
RTVSPropertyOp18
 70
     1
102
RTVSPropertyOp19
 70
     1
102
RTVSPropertyOp20
 70
     1
102
RTVSPropertyOp21
 70
     1
102
RTVSPropertyOp22
 70
     1
102
RTVSPropertyOp23
 70
     1
102
RTVSPropertyOp24
 70
     1
102
RTVSPropertyOp25
 70
     1
102
RTVSPropertyOp26
 70
     1
102
RTVSPropertyOp27
 70
     1
102
RTVSPropertyOp28
 70
     1
102
RTVSPropertyOp29
 70
     1
102
RTVSPropertyOp30
 70
     1
102
RTVSPropertyOp31
 70
     1
102
RTVSPropertyOp32
 70
     1
  0
XRECORD
  5
1A2
102
{ACAD_REACTORS
330
1A1
102
}
330
1A1
100
AcDbXrecord
280
     1
102
RTVSPropertyOp0
 70
     1
102
RTVSPropertyOp1
 70
     1
102
RTVSPropertyOp2
 70
     1
102
RTVSPropertyOp3
 70
     1
102
RTVSPropertyOp4
 70
     1
102
RTVSPropertyOp5
 70
     1
102
RTVSPropertyOp6
 70
     1
102
RTVSPropertyOp7
 70
     1
102
RTVSPropertyOp8
 70
     1
102
RTVSPropertyOp9
 70
     1
102
RTVSPropertyOp10
 70
     1
102
RTVSPropertyOp11
 70
     1
102
RTVSPropertyOp12
 70
     1
102
RTVSPropertyOp13
 70
     1
102
RTVSPropertyOp14
 70
     1
102
RTVSPropertyOp15
 70
     1
102
RTVSPropertyOp16
 70
     1
102
RTVSPropertyOp17
 70
     1
102
RTVSPropertyOp18
 70
     1
102
RTVSPropertyOp19
 70
     1
102
RTVSPropertyOp20
 70
     1
102
RTVSPropertyOp21
 70
     1
102
RTVSPropertyOp22
 70
     1
102
RTVSPropertyOp23
 70
     1
102
RTVSPropertyOp24
 70
     1
102
RTVSPropertyOp25
 70
     1
102
RTVSPropertyOp26
 70
     1
102
RTVSPropertyOp27
 70
     1
102
RTVSPropertyOp28
 70
     1
102
RTVSPropertyOp29
 70
     1
102
RTVSPropertyOp30
 70
     1
102
RTVSPropertyOp31
 70
     1
102
RTVSPropertyOp32
 70
     1
  0
XRECORD
  5
1AA
102
{ACAD_REACTORS
330
1A9
102
}
330
1A9
100
AcDbXrecord
280
     1
102
RTVSPropertyOp0
 70
     1
102
RTVSPropertyOp1
 70
     1
102
RTVSPropertyOp2
 70
     1
102
RTVSPropertyOp3
 70
     1
102
RTVSPropertyOp4
 70
     1
102
RTVSPropertyOp5
 70
     1
102
RTVSPropertyOp6
 70
     1
102
RTVSPropertyOp7
 70
     1
102
RTVSPropertyOp8
 70
     1
102
RTVSPropertyOp9
 70
     1
102
RTVSPropertyOp10
 70
     1
102
RTVSPropertyOp11
 70
     1
102
RTVSPropertyOp12
 70
     1
102
RTVSPropertyOp13
 70
     1
102
RTVSPropertyOp14
 70
     1
102
RTVSPropertyOp15
 70
     1
102
RTVSPropertyOp16
 70
     1
102
RTVSPropertyOp17
 70
     1
102
RTVSPropertyOp18
 70
     1
102
RTVSPropertyOp19
 70
     1
102
RTVSPropertyOp20
 70
     1
102
RTVSPropertyOp21
 70
     1
102
RTVSPropertyOp22
 70
     1
102
RTVSPropertyOp23
 70
     1
102
RTVSPropertyOp24
 70
     1
102
RTVSPropertyOp25
 70
     1
102
RTVSPropertyOp26
 70
     1
102
RTVSPropertyOp27
 70
     1
102
RTVSPropertyOp28
 70
     1
102
RTVSPropertyOp29
 70
     1
102
RTVSPropertyOp30
 70
     1
102
RTVSPropertyOp31
 70
     1
102
RTVSPropertyOp32
 70
     1
  0
XRECORD
  5
18E
102
{ACAD_REACTORS
330
18D
102
}
330
18D
100
AcDbXrecord
280
     1
102
RTVSPropertyOp0
 70
     1
102
RTVSPropertyOp1
 70
     1
102
RTVSPropertyOp2
 70
     1
102
RTVSPropertyOp3
 70
     1
102
RTVSPropertyOp4
 70
     1
102
RTVSPropertyOp5
 70
     1
102
RTVSPropertyOp6
 70
     1
102
RTVSPropertyOp7
 70
     1
102
RTVSPropertyOp8
 70
     1
102
RTVSPropertyOp9
 70
     1
102
RTVSPropertyOp10
 70
     1
102
RTVSPropertyOp11
 70
     1
102
RTVSPropertyOp12
 70
     1
102
RTVSPropertyOp13
 70
     1
102
RTVSPropertyOp14
 70
     1
102
RTVSPropertyOp15
 70
     1
102
RTVSPropertyOp16
 70
     1
102
RTVSPropertyOp17
 70
     1
102
RTVSPropertyOp18
 70
     1
102
RTVSPropertyOp19
 70
     1
102
RTVSPropertyOp20
 70
     1
102
RTVSPropertyOp21
 70
     1
102
RTVSPropertyOp22
 70
     1
102
RTVSPropertyOp23
 70
     1
102
RTVSPropertyOp24
 70
     1
102
RTVSPropertyOp25
 70
     1
102
RTVSPropertyOp26
 70
     1
102
RTVSPropertyOp27
 70
     1
102
RTVSPropertyOp28
 70
     1
102
RTVSPropertyOp29
 70
     1
102
RTVSPropertyOp30
 70
     1
102
RTVSPropertyOp31
 70
     1
102
RTVSPropertyOp32
 70
     1
  0
XRECORD
  5
190
102
{ACAD_REACTORS
330
18F
102
}
330
18F
100
AcDbXrecord
280
     1
102
RTVSPropertyOp0
 70
     1
102
RTVSPropertyOp1
 70
     1
102
RTVSPropertyOp2
 70
     1
102
RTVSPropertyOp3
 70
     1
102
RTVSPropertyOp4
 70
     1
102
RTVSPropertyOp5
 70
     1
102
RTVSPropertyOp6
 70
     1
102
RTVSPropertyOp7
 70
     1
102
RTVSPropertyOp8
 70
     1
102
RTVSPropertyOp9
 70
     1
102
RTVSPropertyOp10
 70
     1
102
RTVSPropertyOp11
 70
     1
102
RTVSPropertyOp12
 70
     1
102
RTVSPropertyOp13
 70
     1
102
RTVSPropertyOp14
 70
     1
102
RTVSPropertyOp15
 70
     1
102
RTVSPropertyOp16
 70
     1
102
RTVSPropertyOp17
 70
     1
102
RTVSPropertyOp18
 70
     1
102
RTVSPropertyOp19
 70
     1
102
RTVSPropertyOp20
 70
     1
102
RTVSPropertyOp21
 70
     1
102
RTVSPropertyOp22
 70
     1
102
RTVSPropertyOp23
 70
     1
102
RTVSPropertyOp24
 70
     1
102
RTVSPropertyOp25
 70
     1
102
RTVSPropertyOp26
 70
     1
102
RTVSPropertyOp27
 70
     1
102
RTVSPropertyOp28
 70
     1
102
RTVSPropertyOp29
 70
     1
102
RTVSPropertyOp30
 70
     1
102
RTVSPropertyOp31
 70
     1
102
RTVSPropertyOp32
 70
     1
  0
XRECORD
  5
192
102
{ACAD_REACTORS
330
191
102
}
330
191
100
AcDbXrecord
280
     1
102
RTVSPropertyOp0
 70
     1
102
RTVSPropertyOp1
 70
     1
102
RTVSPropertyOp2
 70
     1
102
RTVSPropertyOp3
 70
     1
102
RTVSPropertyOp4
 70
     1
102
RTVSPropertyOp5
 70
     1
102
RTVSPropertyOp6
 70
     1
102
RTVSPropertyOp7
 70
     1
102
RTVSPropertyOp8
 70
     1
102
RTVSPropertyOp9
 70
     1
102
RTVSPropertyOp10
 70
     1
102
RTVSPropertyOp11
 70
     1
102
RTVSPropertyOp12
 70
     1
102
RTVSPropertyOp13
 70
     1
102
RTVSPropertyOp14
 70
     1
102
RTVSPropertyOp15
 70
     1
102
RTVSPropertyOp16
 70
     1
102
RTVSPropertyOp17
 70
     1
102
RTVSPropertyOp18
 70
     1
102
RTVSPropertyOp19
 70
     1
102
RTVSPropertyOp20
 70
     1
102
RTVSPropertyOp21
 70
     1
102
RTVSPropertyOp22
 70
     1
102
RTVSPropertyOp23
 70
     1
102
RTVSPropertyOp24
 70
     1
102
RTVSPropertyOp25
 70
     1
102
RTVSPropertyOp26
 70
     1
102
RTVSPropertyOp27
 70
     1
102
RTVSPropertyOp28
 70
     1
102
RTVSPropertyOp29
 70
     1
102
RTVSPropertyOp30
 70
     1
102
RTVSPropertyOp31
 70
     1
102
RTVSPropertyOp32
 70
     1
  0
XRECORD
  5
194
102
{ACAD_REACTORS
330
193
102
}
330
193
100
AcDbXrecord
280
     1
102
RTVSPropertyOp0
 70
     1
102
RTVSPropertyOp1
 70
     1
102
RTVSPropertyOp2
 70
     1
102
RTVSPropertyOp3
 70
     1
102
RTVSPropertyOp4
 70
     1
102
RTVSPropertyOp5
 70
     1
102
RTVSPropertyOp6
 70
     1
102
RTVSPropertyOp7
 70
     1
102
RTVSPropertyOp8
 70
     1
102
RTVSPropertyOp9
 70
     1
102
RTVSPropertyOp10
 70
     1
102
RTVSPropertyOp11
 70
     1
102
RTVSPropertyOp12
 70
     1
102
RTVSPropertyOp13
 70
     1
102
RTVSPropertyOp14
 70
     1
102
RTVSPropertyOp15
 70
     1
102
RTVSPropertyOp16
 70
     1
102
RTVSPropertyOp17
 70
     1
102
RTVSPropertyOp18
 70
     1
102
RTVSPropertyOp19
 70
     1
102
RTVSPropertyOp20
 70
     1
102
RTVSPropertyOp21
 70
     1
102
RTVSPropertyOp22
 70
     1
102
RTVSPropertyOp23
 70
     1
102
RTVSPropertyOp24
 70
     1
102
RTVSPropertyOp25
 70
     1
102
RTVSPropertyOp26
 70
     1
102
RTVSPropertyOp27
 70
     1
102
RTVSPropertyOp28
 70
     1
102
RTVSPropertyOp29
 70
     1
102
RTVSPropertyOp30
 70
     1
102
RTVSPropertyOp31
 70
     1
102
RTVSPropertyOp32
 70
     1
  0
XRECORD
  5
1A8
102
{ACAD_REACTORS
330
1A7
102
}
330
1A7
100
AcDbXrecord
280
     1
102
RTVSPropertyOp0
 70
     1
102
RTVSPropertyOp1
 70
     1
102
RTVSPropertyOp2
 70
     1
102
RTVSPropertyOp3
 70
     1
102
RTVSPropertyOp4
 70
     1
102
RTVSPropertyOp5
 70
     1
102
RTVSPropertyOp6
 70
     1
102
RTVSPropertyOp7
 70
     1
102
RTVSPropertyOp8
 70
     1
102
RTVSPropertyOp9
 70
     1
102
RTVSPropertyOp10
 70
     1
102
RTVSPropertyOp11
 70
     1
102
RTVSPropertyOp12
 70
     1
102
RTVSPropertyOp13
 70
     1
102
RTVSPropertyOp14
 70
     1
102
RTVSPropertyOp15
 70
     1
102
RTVSPropertyOp16
 70
     1
102
RTVSPropertyOp17
 70
     1
102
RTVSPropertyOp18
 70
     1
102
RTVSPropertyOp19
 70
     1
102
RTVSPropertyOp20
 70
     1
102
RTVSPropertyOp21
 70
     1
102
RTVSPropertyOp22
 70
     1
102
RTVSPropertyOp23
 70
     1
102
RTVSPropertyOp24
 70
     1
102
RTVSPropertyOp25
 70
     1
102
RTVSPropertyOp26
 70
     1
102
RTVSPropertyOp27
 70
     1
102
RTVSPropertyOp28
 70
     1
102
RTVSPropertyOp29
 70
     1
102
RTVSPropertyOp30
 70
     1
102
RTVSPropertyOp31
 70
     1
102
RTVSPropertyOp32
 70
     1
  0
XRECORD
  5
19E
102
{ACAD_REACTORS
330
19D
102
}
330
19D
100
AcDbXrecord
280
     1
102
RTVSPropertyOp0
 70
     1
102
RTVSPropertyOp1
 70
     1
102
RTVSPropertyOp2
 70
     1
102
RTVSPropertyOp3
 70
     1
102
RTVSPropertyOp4
 70
     1
102
RTVSPropertyOp5
 70
     1
102
RTVSPropertyOp6
 70
     1
102
RTVSPropertyOp7
 70
     1
102
RTVSPropertyOp8
 70
     1
102
RTVSPropertyOp9
 70
     1
102
RTVSPropertyOp10
 70
     1
102
RTVSPropertyOp11
 70
     1
102
RTVSPropertyOp12
 70
     1
102
RTVSPropertyOp13
 70
     1
102
RTVSPropertyOp14
 70
     1
102
RTVSPropertyOp15
 70
     1
102
RTVSPropertyOp16
 70
     1
102
RTVSPropertyOp17
 70
     1
102
RTVSPropertyOp18
 70
     1
102
RTVSPropertyOp19
 70
     1
102
RTVSPropertyOp20
 70
     1
102
RTVSPropertyOp21
 70
     1
102
RTVSPropertyOp22
 70
     1
102
RTVSPropertyOp23
 70
     1
102
RTVSPropertyOp24
 70
     1
102
RTVSPropertyOp25
 70
     1
102
RTVSPropertyOp26
 70
     1
102
RTVSPropertyOp27
 70
     1
102
RTVSPropertyOp28
 70
     1
102
RTVSPropertyOp29
 70
     1
102
RTVSPropertyOp30
 70
     1
102
RTVSPropertyOp31
 70
     1
102
RTVSPropertyOp32
 70
     1
  0
XRECORD
  5
1A6
102
{ACAD_REACTORS
330
1A5
102
}
330
1A5
100
AcDbXrecord
280
     1
102
RTVSPropertyOp0
 70
     1
102
RTVSPropertyOp1
 70
     1
102
RTVSPropertyOp2
 70
     1
102
RTVSPropertyOp3
 70
     1
102
RTVSPropertyOp4
 70
     1
102
RTVSPropertyOp5
 70
     1
102
RTVSPropertyOp6
 70
     1
102
RTVSPropertyOp7
 70
     1
102
RTVSPropertyOp8
 70
     1
102
RTVSPropertyOp9
 70
     1
102
RTVSPropertyOp10
 70
     1
102
RTVSPropertyOp11
 70
     1
102
RTVSPropertyOp12
 70
     1
102
RTVSPropertyOp13
 70
     1
102
RTVSPropertyOp14
 70
     1
102
RTVSPropertyOp15
 70
     1
102
RTVSPropertyOp16
 70
     1
102
RTVSPropertyOp17
 70
     1
102
RTVSPropertyOp18
 70
     1
102
RTVSPropertyOp19
 70
     1
102
RTVSPropertyOp20
 70
     1
102
RTVSPropertyOp21
 70
     1
102
RTVSPropertyOp22
 70
     1
102
RTVSPropertyOp23
 70
     1
102
RTVSPropertyOp24
 70
     1
102
RTVSPropertyOp25
 70
     1
102
RTVSPropertyOp26
 70
     1
102
RTVSPropertyOp27
 70
     1
102
RTVSPropertyOp28
 70
     1
102
RTVSPropertyOp29
 70
     1
102
RTVSPropertyOp30
 70
     1
102
RTVSPropertyOp31
 70
     1
102
RTVSPropertyOp32
 70
     1
  0
ENDSEC
  0
EOF
