  0
SECTION
  2
HEADER
  9
$ACADVER
  1
AC1015
  9
$ACADMAINTVER
 70
     6
  9
$DWGCODEPAGE
  3
ANSI_1252
  9
$INSBASE
 10
0.0
 20
0.0
 30
0.0
  9
$EXTMIN
 10
0.0
 20
0.0
 30
0.0
  9
$EXTMAX
 10
210.0
 20
297.0
 30
0.0
  9
$LIMMIN
 10
0.0
 20
0.0
  9
$LIMMAX
 10
210.0
 20
297.0
  9
$ORTHOMODE
 70
     0
  9
$REGENMODE
 70
     1
  9
$FILLMODE
 70
     1
  9
$QTEXTMODE
 70
     0
  9
$MIRRTEXT
 70
     1
  9
$LTSCALE
 40
1.0
  9
$ATTMODE
 70
     1
  9
$TEXTSIZE
 40
2.5
  9
$TRACEWID
 40
1.0
  9
$TEXTSTYLE
  7
Standard
  9
$CLAYER
  8
0
  9
$CELTYPE
  6
ByLayer
  9
$CECOLOR
 62
   256
  9
$CELTSCALE
 40
1.0
  9
$DISPSILH
 70
     0
  9
$DIMSCALE
 40
1.0
  9
$DIMASZ
 40
2.5
  9
$DIMEXO
 40
0.625
  9
$DIMDLI
 40
3.75
  9
$DIMRND
 40
0.0
  9
$DIMDLE
 40
0.0
  9
$DIMEXE
 40
1.25
  9
$DIMTP
 40
0.0
  9
$DIMTM
 40
0.0
  9
$DIMTXT
 40
2.5
  9
$DIMCEN
 40
2.5
  9
$DIMTSZ
 40
0.0
  9
$DIMTOL
 70
     0
  9
$DIMLIM
 70
     0
  9
$DIMTIH
 70
     0
  9
$DIMTOH
 70
     0
  9
$DIMSE1
 70
     0
  9
$DIMSE2
 70
     0
  9
$DIMTAD
 70
     1
  9
$DIMZIN
 70
     8
  9
$DIMBLK
  1

  9
$DIMASO
 70
     1
  9
$DIMSHO
 70
     1
  9
$DIMPOST
  1

  9
$DIMAPOST
  1

  9
$DIMALT
 70
     0
  9
$DIMALTD
 70
     3
  9
$DIMALTF
 40
0.0393700787
  9
$DIMLFAC
 40
1.0
  9
$DIMTOFL
 70
     1
  9
$DIMTVP
 40
0.0
  9
$DIMTIX
 70
     0
  9
$DIMSOXD
 70
     0
  9
$DIMSAH
 70
     0
  9
$DIMBLK1
  1

  9
$DIMBLK2
  1

  9
$DIMSTYLE
  2
ISO-25
  9
$DIMCLRD
 70
     0
  9
$DIMCLRE
 70
     0
  9
$DIMCLRT
 70
     0
  9
$DIMTFAC
 40
1.0
  9
$DIMGAP
 40
0.625
  9
$DIMJUST
 70
     0
  9
$DIMSD1
 70
     0
  9
$DIMSD2
 70
     0
  9
$DIMTOLJ
 70
     0
  9
$DIMTZIN
 70
     8
  9
$DIMALTZ
 70
     0
  9
$DIMALTTZ
 70
     0
  9
$DIMUPT
 70
     0
  9
$DIMDEC
 70
     2
  9
$DIMTDEC
 70
     2
  9
$DIMALTU
 70
     2
  9
$DIMALTTD
 70
     3
  9
$DIMTXSTY
  7
Standard
  9
$DIMAUNIT
 70
     0
  9
$DIMADEC
 70
     0
  9
$DIMALTRND
 40
0.0
  9
$DIMAZIN
 70
     0
  9
$DIMDSEP
 70
    44
  9
$DIMATFIT
 70
     3
  9
$DIMFRAC
 70
     0
  9
$DIMLDRBLK
  1

  9
$DIMLUNIT
 70
     2
  9
$DIMLWD
 70
    -2
  9
$DIMLWE
 70
    -2
  9
$DIMTMOVE
 70
     0
  9
$LUNITS
 70
     2
  9
$LUPREC
 70
     4
  9
$SKETCHINC
 40
1.0
  9
$FILLETRAD
 40
10.0
  9
$AUNITS
 70
     0
  9
$AUPREC
 70
     0
  9
$MENU
  1
.
  9
$ELEVATION
 40
0.0
  9
$PELEVATION
 40
0.0
  9
$THICKNESS
 40
0.0
  9
$LIMCHECK
 70
     0
  9
$CHAMFERA
 40
10.0
  9
$CHAMFERB
 40
10.0
  9
$CHAMFERC
 40
20.0
  9
$CHAMFERD
 40
0.0
  9
$SKPOLY
 70
     0
  9
$TDCREATE
 40
2457560.570418287
  9
$TDUCREATE
 40
2457560.487084954
  9
$TDUPDATE
 40
2457560.570420764
  9
$TDUUPDATE
 40
2457560.48708743
  9
$TDINDWG
 40
0.0000000116
  9
$TDUSRTIMER
 40
0.0000000116
  9
$USRTIMER
 70
     1
  9
$ANGBASE
 50
0.0
  9
$ANGDIR
 70
     0
  9
$PDMODE
 70
     0
  9
$PDSIZE
 40
0.0
  9
$PLINEWID
 40
0.0
  9
$SPLFRAME
 70
     0
  9
$SPLINETYPE
 70
     6
  9
$SPLINESEGS
 70
     8
  9
$HANDSEED
  5
1E3
  9
$SURFTAB1
 70
     6
  9
$SURFTAB2
 70
     6
  9
$SURFTYPE
 70
     6
  9
$SURFU
 70
     6
  9
$SURFV
 70
     6
  9
$UCSBASE
  2

  9
$UCSNAME
  2

  9
$UCSORG
 10
0.0
 20
0.0
 30
0.0
  9
$UCSXDIR
 10
1.0
 20
0.0
 30
0.0
  9
$UCSYDIR
 10
0.0
 20
1.0
 30
0.0
  9
$UCSORTHOREF
  2

  9
$UCSORTHOVIEW
 70
     0
  9
$UCSORGTOP
 10
0.0
 20
0.0
 30
0.0
  9
$UCSORGBOTTOM
 10
0.0
 20
0.0
 30
0.0
  9
$UCSORGLEFT
 10
0.0
 20
0.0
 30
0.0
  9
$UCSORGRIGHT
 10
0.0
 20
0.0
 30
0.0
  9
$UCSORGFRONT
 10
0.0
 20
0.0
 30
0.0
  9
$UCSORGBACK
 10
0.0
 20
0.0
 30
0.0
  9
$PUCSBASE
  2

  9
$PUCSNAME
  2

  9
$PUCSORG
 10
0.0
 20
0.0
 30
0.0
  9
$PUCSXDIR
 10
1.0
 20
0.0
 30
0.0
  9
$PUCSYDIR
 10
0.0
 20
1.0
 30
0.0
  9
$PUCSORTHOREF
  2

  9
$PUCSORTHOVIEW
 70
     0
  9
$PUCSORGTOP
 10
0.0
 20
0.0
 30
0.0
  9
$PUCSORGBOTTOM
 10
0.0
 20
0.0
 30
0.0
  9
$PUCSORGLEFT
 10
0.0
 20
0.0
 30
0.0
  9
$PUCSORGRIGHT
 10
0.0
 20
0.0
 30
0.0
  9
$PUCSORGFRONT
 10
0.0
 20
0.0
 30
0.0
  9
$PUCSORGBACK
 10
0.0
 20
0.0
 30
0.0
  9
$USERI1
 70
     0
  9
$USERI2
 70
     0
  9
$USERI3
 70
     0
  9
$USERI4
 70
     0
  9
$USERI5
 70
     0
  9
$USERR1
 40
0.0
  9
$USERR2
 40
0.0
  9
$USERR3
 40
0.0
  9
$USERR4
 40
0.0
  9
$USERR5
 40
0.0
  9
$WORLDVIEW
 70
     1
  9
$SHADEDGE
 70
     3
  9
$SHADEDIF
 70
    70
  9
$TILEMODE
 70
     1
  9
$MAXACTVP
 70
    64
  9
$PINSBASE
 10
0.0
 20
0.0
 30
0.0
  9
$PLIMCHECK
 70
     0
  9
$PEXTMIN
 10
0.0
 20
0.0
 30
0.0
  9
$PEXTMAX
 10
210.0
 20
297.0
 30
0.0
  9
$PLIMMIN
 10
0.0
 20
0.0
  9
$PLIMMAX
 10
210.0
 20
297.0
  9
$UNITMODE
 70
     0
  9
$VISRETAIN
 70
     1
  9
$PLINEGEN
 70
     0
  9
$PSLTSCALE
 70
     1
  9
$TREEDEPTH
 70
  3020
  9
$CMLSTYLE
  2
Standard
  9
$CMLJUST
 70
     0
  9
$CMLSCALE
 40
20.0
  9
$PROXYGRAPHICS
 70
     1
  9
$MEASUREMENT
 70
     1
  9
$CELWEIGHT
370
    -1
  9
$ENDCAPS
280
     0
  9
$JOINSTYLE
280
     0
  9
$LWDISPLAY
290
     0
  9
$INSUNITS
 70
     4
  9
$HYPERLINKBASE
  1

  9
$STYLESHEET
  1

  9
$XEDIT
290
     1
  9
$CEPSNTYPE
380
     0
  9
$PSTYLEMODE
290
     1
  9
$FINGERPRINTGUID
  2
{9558FDFD-4A7D-4BAA-8CAB-01D522D35ED9}
  9
$VERSIONGUID
  2
{FAEB1C32-E019-11D5-929B-00C0DF256EC4}
  9
$EXTNAMES
290
     1
  9
$PSVPSCALE
 40
0.0
  9
$OLESTARTUP
290
     0
  0
ENDSEC
  0
SECTION
  2
CLASSES
  0
CLASS
  1
ACDBDICTIONARYWDFLT
  2
AcDbDictionaryWithDefault
  3
ObjectDBX Classes
 90
        0
280
     0
281
     0
  0
CLASS
  1
VISUALSTYLE
  2
AcDbVisualStyle
  3
ObjectDBX Classes
 90
     4095
280
     0
281
     0
  0
CLASS
  1
MATERIAL
  2
AcDbMaterial
  3
ObjectDBX Classes
 90
     1153
280
     0
281
     0
  0
CLASS
  1
DICTIONARYVAR
  2
AcDbDictionaryVar
  3
ObjectDBX Classes
 90
        0
280
     0
281
     0
  0
CLASS
  1
ACDBPLACEHOLDER
  2
AcDbPlaceHolder
  3
ObjectDBX Classes
 90
        0
280
     0
281
     0
  0
CLASS
  1
LAYOUT
  2
AcDbLayout
  3
ObjectDBX Classes
 90
        0
280
     0
281
     0
  0
ENDSEC
  0
SECTION
  2
TABLES
  0
TABLE
  2
VPORT
  5
8
330
0
100
AcDbSymbolTable
 70
     1
  0
VPORT
  5
29
330
8
100
AcDbSymbolTableRecord
100
AcDbViewportTableRecord
  2
*Active
 70
     0
 10
0.0
 20
0.0
 11
1.0
 21
1.0
 12
344.1869158879
 22
148.5
 13
0.0
 23
0.0
 14
10.0
 24
10.0
 15
10.0
 25
10.0
 16
0.0
 26
0.0
 36
1.0
 17
0.0
 27
0.0
 37
0.0
 40
297.0
 41
1.9729729729
 42
50.0
 43
0.0
 44
0.0
 50
0.0
 51
0.0
 71
     0
 72
   100
 73
     1
 74
     3
 75
     0
 76
     0
 77
     0
 78
     0
281
     0
 65
     1
110
0.0
120
0.0
130
0.0
111
1.0
121
0.0
131
0.0
112
0.0
122
1.0
132
0.0
 79
     0
146
0.0
  0
ENDTAB
  0
TABLE
  2
LTYPE
  5
5
330
0
100
AcDbSymbolTable
 70
     2
  0
LTYPE
  5
14
330
5
100
AcDbSymbolTableRecord
100
AcDbLinetypeTableRecord
  2
ByBlock
 70
     0
  3

 72
    65
 73
     0
 40
0.0
  0
LTYPE
  5
15
330
5
100
AcDbSymbolTableRecord
100
AcDbLinetypeTableRecord
  2
ByLayer
 70
     0
  3

 72
    65
 73
     0
 40
0.0
  0
LTYPE
  5
16
330
5
100
AcDbSymbolTableRecord
100
AcDbLinetypeTableRecord
  2
Continuous
 70
     0
  3
Solid line
 72
    65
 73
     0
 40
0.0
  0
LTYPE
  5
5A
330
5
100
AcDbSymbolTableRecord
100
AcDbLinetypeTableRecord
  2
HIDDEN2
 70
     0
  3
Hidden (.5x) _ _ _ _ _ _ _ _ _ _ _ _ _ _ _ _ _ 
 72
    65
 73
     2
 40
4.7625
 49
3.175
 74
     4
 75
     0
340
0
 46
0.0
 50
0.0
 44
0.0
 45
0.0
 49
-1.5875
 74
     4
 75
     0
340
0
 46
0.0
 50
0.0
 44
0.0
 45
0.0
  0
ENDTAB
  0
TABLE
  2
LAYER
  5
2
330
0
100
AcDbSymbolTable
 70
     5
  0
LAYER
  5
10
330
2
100
AcDbSymbolTableRecord
100
AcDbLayerTableRecord
  2
0
 70
     0
 62
     7
  6
Continuous
370
    -3
390
F
  0
LAYER
  5
3F
330
2
100
AcDbSymbolTableRecord
100
AcDbLayerTableRecord
  2
SK2
 70
     0
 62
     7
  6
Continuous
370
    15
390
F
  0
LAYER
  5
40
330
2
100
AcDbSymbolTableRecord
100
AcDbLayerTableRecord
  2
SK1
 70
     0
 62
     4
  6
Continuous
370
    18
390
F
  0
LAYER
  5
59
330
2
100
AcDbSymbolTableRecord
100
AcDbLayerTableRecord
  2
SK3
 70
     0
 62
     1
  6
HIDDEN2
370
    15
390
F
  0
LAYER
  5
176
330
2
100
AcDbSymbolTableRecord
100
AcDbLayerTableRecord
  2
SK4
 70
     0
 62
     2
  6
Continuous
370
    13
390
F
  0
ENDTAB
  0
TABLE
  2
STYLE
  5
3
330
0
100
AcDbSymbolTable
 70
     2
  0
STYLE
  5
11
330
3
100
AcDbSymbolTableRecord
100
AcDbTextStyleTableRecord
  2
Standard
 70
     0
 40
0.0
 41
1.0
 50
0.0
 71
     0
 42
2.5
  3
txt
  4

  0
STYLE
  5
18A
330
3
100
AcDbSymbolTableRecord
100
AcDbTextStyleTableRecord
  2
SEACAD_Solid_Edge_ISO
 70
     0
 40
0.0
 41
1.0
 50
0.0
 71
     0
 42
0.2
  3
seiso.ttf
  4

1001
ACAD
1000
Solid Edge ISO
1071
        0
  0
ENDTAB
  0
TABLE
  2
VIEW
  5
6
330
0
100
AcDbSymbolTable
 70
     0
  0
ENDTAB
  0
TABLE
  2
UCS
  5
7
330
0
100
AcDbSymbolTable
 70
     0
  0
ENDTAB
  0
TABLE
  2
APPID
  5
9
330
0
100
AcDbSymbolTable
 70
     1
  0
APPID
  5
12
330
9
100
AcDbSymbolTableRecord
100
AcDbRegAppTableRecord
  2
ACAD
 70
     0
  0
ENDTAB
  0
TABLE
  2
DIMSTYLE
  5
A
330
0
100
AcDbSymbolTable
 70
     3
100
AcDbDimStyleTable
  0
DIMSTYLE
105
27
330
A
100
AcDbSymbolTableRecord
100
AcDbDimStyleTableRecord
  2
ISO-25
 70
     0
 41
2.5
 42
0.625
 43
3.75
 44
1.25
 73
     0
 74
     0
 77
     1
 78
     8
140
2.5
141
2.5
143
0.0393700787
147
0.625
171
     3
172
     1
178
     0
271
     2
272
     2
274
     3
278
    44
283
     0
284
     8
340
11
  0
DIMSTYLE
105
178
330
A
100
AcDbSymbolTableRecord
100
AcDbDimStyleTableRecord
  2
Standard
 70
     0
178
     0
340
11
  0
DIMSTYLE
105
18B
102
{ACAD_REACTORS
330
18C
330
197
330
1A1
330
1AC
102
}
330
A
100
AcDbSymbolTableRecord
100
AcDbDimStyleTableRecord
  2
DIN
 70
     0
 41
3.5
 42
0.0
 44
1.75
 73
     0
 74
     0
 77
     1
 78
     8
140
3.5
141
1.75
147
1.75
172
     1
173
     1
178
     0
179
     3
271
     2
272
     2
278
    44
284
     8
340
18A
343
185
344
185
  0
ENDTAB
  0
TABLE
  2
BLOCK_RECORD
  5
1
330
0
100
AcDbSymbolTable
 70
    10
  0
BLOCK_RECORD
  5
1F
330
1
100
AcDbSymbolTableRecord
100
AcDbBlockTableRecord
  2
*Model_Space
340
22
  0
BLOCK_RECORD
  5
1B
330
1
100
AcDbSymbolTableRecord
100
AcDbBlockTableRecord
  2
*Paper_Space
340
1E
  0
BLOCK_RECORD
  5
41
330
1
100
AcDbSymbolTableRecord
100
AcDbBlockTableRecord
  2
Nullpunkt
340
0
102
{BLKREFS
331
4B
102
}
  0
BLOCK_RECORD
  5
4C
330
1
100
AcDbSymbolTableRecord
100
AcDbBlockTableRecord
  2
Einfügepunkt
340
0
102
{BLKREFS
331
56
102
}
  0
BLOCK_RECORD
  5
179
330
1
100
AcDbSymbolTableRecord
100
AcDbBlockTableRecord
  2
_OBLIQUE
340
0
  0
BLOCK_RECORD
  5
17D
330
1
100
AcDbSymbolTableRecord
100
AcDbBlockTableRecord
  2
_DOT
340
0
  0
BLOCK_RECORD
  5
185
330
1
100
AcDbSymbolTableRecord
100
AcDbBlockTableRecord
  2
_SE_FILLED
340
0
  0
BLOCK_RECORD
  5
18D
330
1
100
AcDbSymbolTableRecord
100
AcDbBlockTableRecord
  2
DMBLK91
340
0
  0
BLOCK_RECORD
  5
198
330
1
100
AcDbSymbolTableRecord
100
AcDbBlockTableRecord
  2
DMBLK92
340
0
  0
BLOCK_RECORD
  5
1A2
330
1
100
AcDbSymbolTableRecord
100
AcDbBlockTableRecord
  2
DMBLK93
340
0
  0
BLOCK_RECORD
  5
1AD
330
1
100
AcDbSymbolTableRecord
100
AcDbBlockTableRecord
  2
DMBLK94
340
0
  0
ENDTAB
  0
ENDSEC
  0
SECTION
  2
BLOCKS
  0
BLOCK
  5
20
330
1F
100
AcDbEntity
  8
0
100
AcDbBlockBegin
  2
*Model_Space
 70
     0
 10
0.0
 20
0.0
 30
0.0
  3
*Model_Space
  1

  0
ENDBLK
  5
21
330
1F
100
AcDbEntity
  8
0
100
AcDbBlockEnd
  0
BLOCK
  5
1C
330
1B
100
AcDbEntity
 67
     1
  8
0
100
AcDbBlockBegin
  2
*Paper_Space
 70
     0
 10
0.0
 20
0.0
 30
0.0
  3
*Paper_Space
  1

  0
ENDBLK
  5
1D
330
1B
100
AcDbEntity
 67
     1
  8
0
100
AcDbBlockEnd
  0
BLOCK
  5
49
330
41
100
AcDbEntity
  8
0
100
AcDbBlockBegin
  2
Nullpunkt
 70
     0
 10
0.0
 20
0.0
 30
0.0
  3
Nullpunkt
  1

  0
HATCH
  5
42
330
41
100
AcDbEntity
  8
SK2
  6
Continuous
 62
     7
100
AcDbHatch
 10
0.0
 20
0.0
 30
0.0
210
0.0
220
0.0
230
1.0
  2
SOLID
 70
     1
 71
     0
 91
        1
 92
        1
 93
        3
 72
     1
 10
-1.0
 20
0.0
 11
0.0000000000000009
 21
0.0
 72
     1
 10
0.0
 20
0.0
 11
0.0
 21
1.000000000000001
 72
     2
 10
0.0
 20
0.0
 40
1.0
 50
90.0
 51
180.0
 73
     1
 97
        0
 75
     0
 76
     1
 98
        0
  0
HATCH
  5
43
330
41
100
AcDbEntity
  8
SK2
  6
Continuous
 62
     7
100
AcDbHatch
 10
0.0
 20
0.0
 30
0.0
210
0.0
220
0.0
230
1.0
  2
SOLID
 70
     1
 71
     0
 91
        1
 92
        1
 93
        3
 72
     2
 10
0.0
 20
0.0
 40
1.0
 50
270.0
 51
360.0
 73
     1
 72
     1
 10
1.0
 20
0.0
 11
-0.0000000000000009
 21
0.0
 72
     1
 10
0.0
 20
0.0
 11
0.0
 21
-1.000000000000001
 97
        0
 75
     0
 76
     1
 98
        0
  0
CIRCLE
  5
44
330
41
100
AcDbEntity
  8
SK2
  6
Continuous
 62
     7
100
AcDbCircle
 10
0.0
 20
0.0
 30
0.0
 40
1.0
  0
LINE
  5
45
330
41
100
AcDbEntity
  8
SK1
  6
Continuous
100
AcDbLine
 10
-1.0
 20
0.0
 30
0.0
 11
1.0
 21
0.0
 31
0.0
  0
LINE
  5
46
330
41
100
AcDbEntity
  8
SK1
  6
Continuous
100
AcDbLine
 10
0.0
 20
1.0
 30
0.0
 11
0.0
 21
-1.0
 31
0.0
  0
POINT
  5
47
330
41
100
AcDbEntity
  8
SK1
  6
Continuous
100
AcDbPoint
 10
0.0
 20
0.0
 30
0.0
  0
POINT
  5
48
330
41
100
AcDbEntity
  8
SK1
  6
Continuous
100
AcDbPoint
 10
0.0
 20
0.0
 30
0.0
  0
ENDBLK
  5
4A
330
41
100
AcDbEntity
  8
0
100
AcDbBlockEnd
  0
BLOCK
  5
54
330
4C
100
AcDbEntity
  8
0
100
AcDbBlockBegin
  2
Einfügepunkt
 70
     0
 10
0.0
 20
0.0
 30
0.0
  3
Einfügepunkt
  1

  0
HATCH
  5
4D
330
4C
100
AcDbEntity
  8
SK2
  6
Continuous
 62
     7
100
AcDbHatch
 10
0.0
 20
0.0
 30
0.0
210
0.0
220
0.0
230
1.0
  2
SOLID
 70
     1
 71
     0
 91
        1
 92
        1
 93
        3
 72
     1
 10
-0.4502381196756744
 20
-0.0000000000000018
 11
0.0000000000000033
 21
-0.0000000000000018
 72
     1
 10
0.0
 20
-0.0000000000000018
 11
0.0
 21
0.4502381196756812
 72
     2
 10
0.0
 20
-0.0000000000000018
 40
0.4502381196756812
 50
90.0
 51
180.0
 73
     1
 97
        0
 75
     0
 76
     1
 98
        0
  0
HATCH
  5
4E
330
4C
100
AcDbEntity
  8
SK2
  6
Continuous
 62
     7
100
AcDbHatch
 10
0.0
 20
0.0
 30
0.0
210
0.0
220
0.0
230
1.0
  2
SOLID
 70
     1
 71
     0
 91
        1
 92
        1
 93
        3
 72
     2
 10
0.0
 20
-0.0000000000000018
 40
0.4502381196756812
 50
270.0
 51
360.0
 73
     1
 72
     1
 10
0.4502381196756815
 20
-0.0000000000000018
 11
0.0000000000000038
 21
-0.0000000000000018
 72
     1
 10
0.0
 20
-0.0000000000000018
 11
0.0
 21
-0.4502381196756812
 97
        0
 75
     0
 76
     1
 98
        0
  0
CIRCLE
  5
4F
330
4C
100
AcDbEntity
  8
SK2
  6
Continuous
 62
     7
100
AcDbCircle
 10
0.0
 20
0.0
 30
0.0
 40
0.4502381196756812
  0
LINE
  5
50
330
4C
100
AcDbEntity
  8
SK1
  6
Continuous
100
AcDbLine
 10
-0.4502381197
 20
0.0
 30
0.0
 11
0.4502381197
 21
0.0
 31
0.0
  0
LINE
  5
51
330
4C
100
AcDbEntity
  8
SK1
  6
Continuous
100
AcDbLine
 10
0.0
 20
0.4502381197
 30
0.0
 11
0.0
 21
-0.4502381197
 31
0.0
  0
POINT
  5
52
330
4C
100
AcDbEntity
  8
SK2
  6
Continuous
 62
     7
100
AcDbPoint
 10
0.0
 20
0.0
 30
0.0
  0
POINT
  5
53
330
4C
100
AcDbEntity
  8
SK2
  6
Continuous
 62
     7
100
AcDbPoint
 10
0.0
 20
0.0
 30
0.0
  0
ENDBLK
  5
55
330
4C
100
AcDbEntity
  8
0
100
AcDbBlockEnd
  0
BLOCK
  5
17A
330
179
100
AcDbEntity
  8
0
100
AcDbBlockBegin
  2
_OBLIQUE
 70
     0
 10
0.0
 20
0.0
 30
0.0
  3
_OBLIQUE
  1

  0
LINE
  5
17C
330
179
100
AcDbEntity
  8
0
  6
ByBlock
 62
     0
370
    -2
100
AcDbLine
 10
-0.5
 20
-0.5
 30
0.0
 11
0.5
 21
0.5
 31
0.0
  0
ENDBLK
  5
17B
330
179
100
AcDbEntity
  8
0
100
AcDbBlockEnd
  0
BLOCK
  5
17E
330
17D
100
AcDbEntity
  8
0
100
AcDbBlockBegin
  2
_DOT
 70
     0
 10
0.0
 20
0.0
 30
0.0
  3
_DOT
  1

  0
POLYLINE
  5
180
330
17D
100
AcDbEntity
  8
0
  6
ByBlock
 62
     0
100
AcDb2dPolyline
 66
     1
 10
0.0
 20
0.0
 30
0.0
 70
     1
 40
0.5
 41
0.5
  0
VERTEX
  5
182
330
180
100
AcDbEntity
  8
0
  6
ByBlock
 62
     0
100
AcDbVertex
100
AcDb2dVertex
 10
-0.25
 20
0.0
 30
0.0
 42
1.0
  0
VERTEX
  5
183
330
180
100
AcDbEntity
  8
0
  6
ByBlock
 62
     0
100
AcDbVertex
100
AcDb2dVertex
 10
0.25
 20
0.0
 30
0.0
 42
1.0
  0
SEQEND
  5
184
330
180
100
AcDbEntity
  8
0
  6
ByBlock
 62
     0
  0
LINE
  5
181
330
17D
100
AcDbEntity
  8
0
  6
ByBlock
 62
     0
370
    -2
100
AcDbLine
 10
-0.5
 20
0.0
 30
0.0
 11
-1.0
 21
0.0
 31
0.0
  0
ENDBLK
  5
17F
330
17D
100
AcDbEntity
  8
0
100
AcDbBlockEnd
  0
BLOCK
  5
188
330
185
100
AcDbEntity
  8
0
100
AcDbBlockBegin
  2
_SE_FILLED
 70
     0
 10
0.0
 20
0.0
 30
0.0
  3
_SE_FILLED
  1

  0
SOLID
  5
186
330
185
100
AcDbEntity
  8
0
 62
     0
100
AcDbTrace
 10
0.0
 20
0.0
 30
0.0
 11
-1.0
 21
-0.1665
 31
0.0
 12
-1.0
 22
0.1665
 32
0.0
 13
0.0
 23
0.0
 33
0.0
  0
LINE
  5
187
330
185
100
AcDbEntity
  8
0
 62
     0
100
AcDbLine
 10
0.0
 20
0.0
 30
0.0
 11
-1.0
 21
0.0
 31
0.0
  0
ENDBLK
  5
189
330
185
100
AcDbEntity
  8
0
100
AcDbBlockEnd
  0
BLOCK
  5
195
330
18D
100
AcDbEntity
  8
0
100
AcDbBlockBegin
  2
DMBLK91
 70
     0
 10
0.0
 20
0.0
 30
0.0
  3
DMBLK91
  1

  0
HATCH
  5
18E
330
18D
100
AcDbEntity
  8
SK2
  6
Continuous
 62
   136
100
AcDbHatch
 10
0.0
 20
0.0
 30
0.0
210
0.0
220
0.0
230
1.0
  2
SOLID
 70
     1
 71
     0
 91
        1
 92
        1
 93
        3
 72
     1
 10
19.03422192307809
 20
4.750000207804103
 11
17.86755522040028
 21
4.750000207804103
 72
     1
 10
17.86755522040028
 20
4.750000207804103
 11
18.45088857173919
 21
1.250000099770684
 72
     1
 10
18.45088857173919
 20
1.250000099770684
 11
19.03422192307809
 21
4.750000207804103
 97
        0
 75
     0
 76
     1
 98
        0
  0
HATCH
  5
18F
330
18D
100
AcDbEntity
  8
SK2
  6
Continuous
 62
   136
100
AcDbHatch
 10
0.0
 20
0.0
 30
0.0
210
0.0
220
0.0
230
1.0
  2
SOLID
 70
     1
 71
     0
 91
        1
 92
        1
 93
        3
 72
     1
 10
19.03422192307809
 20
-4.750000008262719
 11
18.45088857173919
 21
-1.2499999002293
 72
     1
 10
18.45088857173919
 20
-1.2499999002293
 11
17.86755522040028
 21
-4.750000008262719
 72
     1
 10
17.86755522040028
 20
-4.750000008262719
 11
19.03422192307809
 21
-4.750000008262719
 97
        0
 75
     0
 76
     1
 98
        0
  0
LINE
  5
190
330
18D
100
AcDbEntity
  8
SK2
  6
Continuous
 62
   136
100
AcDbLine
 10
10.06
 20
1.2500000998
 30
0.0
 11
20.2008886258
 21
1.2500000998
 31
0.0
  0
LINE
  5
191
330
18D
100
AcDbEntity
  8
SK2
  6
Continuous
 62
   136
100
AcDbLine
 10
10.06
 20
-1.2499999002
 30
0.0
 11
20.2008886258
 21
-1.2499999002
 31
0.0
  0
LINE
  5
192
330
18D
100
AcDbEntity
  8
SK2
  6
Continuous
 62
   136
100
AcDbLine
 10
18.4508885717
 20
17.3835245773
 30
0.0
 11
18.4508885717
 21
-8.2499995948
 31
0.0
  0
TEXT
  5
193
330
18D
100
AcDbEntity
  8
SK2
  6
Continuous
 62
   136
100
AcDbText
 10
17.5758885717
 20
11.3857968077
 30
0.0
 40
3.5
  1
2,5
 50
90.0
  7
SEACAD_Solid_Edge_ISO
 11
14.0758885717
 21
11.3857968077
 31
0.0
100
AcDbText
 73
     3
  0
TEXT
  5
194
330
18D
100
AcDbEntity
  8
SK2
  6
Continuous
 62
   136
100
AcDbText
 10
17.5758885717
 20
7.313069535
 30
0.0
 40
3.5
  1
ø
 50
90.0
  7
SEACAD_Solid_Edge_ISO
 11
14.0758885717
 21
7.313069535
 31
0.0
100
AcDbText
 73
     3
  0
ENDBLK
  5
196
330
18D
100
AcDbEntity
  8
0
100
AcDbBlockEnd
  0
BLOCK
  5
19F
330
198
100
AcDbEntity
  8
0
100
AcDbBlockBegin
  2
DMBLK92
 70
     0
 10
0.0
 20
0.0
 30
0.0
  3
DMBLK92
  1

  0
HATCH
  5
199
330
198
100
AcDbEntity
  8
SK2
  6
Continuous
 62
   136
100
AcDbHatch
 10
0.0
 20
0.0
 30
0.0
210
0.0
220
0.0
230
1.0
  2
SOLID
 70
     1
 71
     0
 91
        1
 92
        1
 93
        3
 72
     1
 10
-3.50000010803342
 20
-16.43120036595483
 11
-0.0000000000000013
 21
-15.84786701461593
 72
     1
 10
-0.0000000000000013
 20
-15.84786701461593
 11
-3.50000010803342
 21
-15.26453366327703
 72
     1
 10
-3.50000010803342
 20
-15.26453366327703
 11
-3.50000010803342
 21
-16.43120036595483
 97
        0
 75
     0
 76
     1
 98
        0
  0
HATCH
  5
19A
330
198
100
AcDbEntity
  8
SK2
  6
Continuous
 62
   136
100
AcDbHatch
 10
0.0
 20
0.0
 30
0.0
210
0.0
220
0.0
230
1.0
  2
SOLID
 70
     1
 71
     0
 91
        1
 92
        1
 93
        3
 72
     1
 10
13.76000010803342
 20
-16.43120036595483
 11
13.76000010803342
 21
-15.26453366327703
 72
     1
 10
13.76000010803342
 20
-15.26453366327703
 11
10.26
 21
-15.84786701461593
 72
     1
 10
10.26
 20
-15.84786701461593
 11
13.76000010803342
 21
-16.43120036595483
 97
        0
 75
     0
 76
     1
 98
        0
  0
LINE
  5
19B
330
198
100
AcDbEntity
  8
SK2
  6
Continuous
 62
   136
100
AcDbLine
 10
0.0
 20
-7.9965103742
 30
0.0
 11
0.0
 21
-17.5978670686
 31
0.0
  0
LINE
  5
19C
330
198
100
AcDbEntity
  8
SK2
  6
Continuous
 62
   136
100
AcDbLine
 10
10.26
 20
-5.6116074261
 30
0.0
 11
10.26
 21
-17.5978670686
 31
0.0
  0
LINE
  5
19D
330
198
100
AcDbEntity
  8
SK2
  6
Continuous
 62
   136
100
AcDbLine
 10
-7.0000002161
 20
-15.8478670146
 30
0.0
 11
17.2600001097
 21
-15.8478670146
 31
0.0
  0
TEXT
  5
19E
330
198
100
AcDbEntity
  8
SK2
  6
Continuous
 62
   136
100
AcDbText
 10
0.9140908559
 20
-14.9728670146
 30
0.0
 40
3.5
  1
10,26
  7
SEACAD_Solid_Edge_ISO
 11
0.9140908559
 21
-11.4728670146
 31
0.0
100
AcDbText
 73
     3
  0
ENDBLK
  5
1A0
330
198
100
AcDbEntity
  8
0
100
AcDbBlockEnd
  0
BLOCK
  5
1AA
330
1A2
100
AcDbEntity
  8
0
100
AcDbBlockBegin
  2
DMBLK93
 70
     0
 10
0.0
 20
0.0
 30
0.0
  3
DMBLK93
  1

  0
HATCH
  5
1A3
330
1A2
100
AcDbEntity
  8
SK2
  6
Continuous
 62
   136
100
AcDbHatch
 10
0.0
 20
0.0
 30
0.0
210
0.0
220
0.0
230
1.0
  2
SOLID
 70
     1
 71
     0
 91
        1
 92
        1
 93
        3
 72
     1
 10
-23.81908094199996
 20
4.496510465665786
 11
-22.65241423932215
 21
4.496510465665786
 72
     1
 10
-22.65241423932215
 20
4.496510465665786
 11
-23.23574759066105
 21
7.996510573699204
 72
     1
 10
-23.23574759066105
 20
7.996510573699204
 11
-23.81908094199996
 21
4.496510465665786
 97
        0
 75
     0
 76
     1
 98
        0
  0
HATCH
  5
1A4
330
1A2
100
AcDbEntity
  8
SK2
  6
Continuous
 62
   136
100
AcDbHatch
 10
0.0
 20
0.0
 30
0.0
210
0.0
220
0.0
230
1.0
  2
SOLID
 70
     1
 71
     0
 91
        1
 92
        1
 93
        3
 72
     1
 10
-23.81908094199996
 20
-4.496510746852429
 11
-23.23574759066105
 21
-7.996510854885848
 72
     1
 10
-23.23574759066105
 20
-7.996510854885848
 11
-22.65241423932215
 21
-4.496510746852429
 72
     1
 10
-22.65241423932215
 20
-4.496510746852429
 11
-23.81908094199996
 21
-4.496510746852429
 97
        0
 75
     0
 76
     1
 98
        0
  0
LINE
  5
1A5
330
1A2
100
AcDbEntity
  8
SK2
  6
Continuous
 62
   136
100
AcDbLine
 10
0.0
 20
7.9965105737
 30
0.0
 11
-24.9857476447
 21
7.9965105737
 31
0.0
  0
LINE
  5
1A6
330
1A2
100
AcDbEntity
  8
SK2
  6
Continuous
 62
   136
100
AcDbLine
 10
0.0
 20
-7.9965103742
 30
0.0
 11
-24.9857476447
 21
-7.9965103742
 31
0.0
  0
LINE
  5
1A7
330
1A2
100
AcDbEntity
  8
SK2
  6
Continuous
 62
   136
100
AcDbLine
 10
-23.2357475907
 20
7.9965105737
 30
0.0
 11
-23.2357475907
 21
-7.9965108549
 31
0.0
  0
TEXT
  5
1A8
330
1A2
100
AcDbEntity
  8
SK2
  6
Continuous
 62
   136
100
AcDbText
 10
-24.1107475907
 20
0.2465907685
 30
0.0
 40
3.5
  1
16
 50
90.0
  7
SEACAD_Solid_Edge_ISO
 11
-27.6107475907
 21
0.2465907685
 31
0.0
100
AcDbText
 73
     3
  0
TEXT
  5
1A9
330
1A2
100
AcDbEntity
  8
SK2
  6
Continuous
 62
   136
100
AcDbText
 10
-24.1107475907
 20
-3.8261365042
 30
0.0
 40
3.5
  1
ø
 50
90.0
  7
SEACAD_Solid_Edge_ISO
 11
-27.6107475907
 21
-3.8261365042
 31
0.0
100
AcDbText
 73
     3
  0
ENDBLK
  5
1AB
330
1A2
100
AcDbEntity
  8
0
100
AcDbBlockEnd
  0
BLOCK
  5
1B4
330
1AD
100
AcDbEntity
  8
0
100
AcDbBlockBegin
  2
DMBLK94
 70
     0
 10
0.0
 20
0.0
 30
0.0
  3
DMBLK94
  1

  0
HATCH
  5
1AE
330
1AD
100
AcDbEntity
  8
SK2
  6
Continuous
 62
   136
100
AcDbHatch
 10
0.0
 20
0.0
 30
0.0
210
0.0
220
0.0
230
1.0
  2
SOLID
 70
     1
 71
     0
 91
        1
 92
        1
 93
        3
 72
     1
 10
-13.73999989196658
 20
14.46426060684941
 11
-17.24
 21
13.88092725551051
 72
     1
 10
-17.24
 20
13.88092725551051
 11
-13.73999989196658
 21
13.2975939041716
 72
     1
 10
-13.73999989196658
 20
13.2975939041716
 11
-13.73999989196658
 21
14.46426060684941
 97
        0
 75
     0
 76
     1
 98
        0
  0
HATCH
  5
1AF
330
1AD
100
AcDbEntity
  8
SK2
  6
Continuous
 62
   136
100
AcDbHatch
 10
0.0
 20
0.0
 30
0.0
210
0.0
220
0.0
230
1.0
  2
SOLID
 70
     1
 71
     0
 91
        1
 92
        1
 93
        3
 72
     1
 10
6.759999742954971
 20
14.46426060684941
 11
6.759999742954971
 21
13.2975939041716
 72
     1
 10
6.759999742954971
 20
13.2975939041716
 11
10.25999985098839
 21
13.88092725551051
 72
     1
 10
10.25999985098839
 20
13.88092725551051
 11
6.759999742954971
 21
14.46426060684941
 97
        0
 75
     0
 76
     1
 98
        0
  0
LINE
  5
1B0
330
1AD
100
AcDbEntity
  8
SK2
  6
Continuous
 62
   136
100
AcDbLine
 10
-17.24
 20
5.3141518963
 30
0.0
 11
-17.24
 21
15.6309273095
 31
0.0
  0
LINE
  5
1B1
330
1AD
100
AcDbEntity
  8
SK2
  6
Continuous
 62
   136
100
AcDbLine
 10
10.26
 20
5.6116076716
 30
0.0
 11
10.26
 21
15.6309273095
 31
0.0
  0
LINE
  5
1B2
330
1AD
100
AcDbEntity
  8
SK2
  6
Continuous
 62
   136
100
AcDbLine
 10
-17.24
 20
13.8809272555
 30
0.0
 11
10.259999851
 21
13.8809272555
 31
0.0
  0
TEXT
  5
1B3
330
1AD
100
AcDbEntity
  8
SK2
  6
Continuous
 62
   136
100
AcDbText
 10
-6.9900000745
 20
14.7559272555
 30
0.0
 40
3.5
  1
27,5
  7
SEACAD_Solid_Edge_ISO
 11
-6.9900000745
 21
18.2559272555
 31
0.0
100
AcDbText
 73
     3
  0
ENDBLK
  5
1B5
330
1AD
100
AcDbEntity
  8
0
100
AcDbBlockEnd
  0
ENDSEC
  0
SECTION
  2
ENTITIES
  0
INSERT
  5
4B
330
1F
100
AcDbEntity
  8
SK2
 62
     7
100
AcDbBlockReference
  2
Nullpunkt
 10
0.0
 20
0.0000000998
 30
0.0
  0
INSERT
  5
56
330
1F
100
AcDbEntity
  8
SK2
 62
     7
100
AcDbBlockReference
  2
Einfügepunkt
 10
10.26
 20
0.0000000998
 30
0.0
  0
LINE
  5
57
330
1F
100
AcDbEntity
  8
SK1
  6
Continuous
100
AcDbLine
 10
-16.94
 20
-5.6144061066
 30
0.0
 11
-16.94
 21
-4.1290836268
 31
0.0
  0
LINE
  5
58
330
1F
100
AcDbEntity
  8
SK1
  6
Continuous
100
AcDbLine
 10
-17.24
 20
-5.3141516968
 30
0.0
 11
-17.24
 21
-3.9167716976
 31
0.0
  0
LINE
  5
5B
330
1F
100
AcDbEntity
  8
SK3
100
AcDbLine
 10
-16.44
 20
-3.7432438143
 30
0.0
 11
-16.44
 21
-2.8059720812
 31
0.0
  0
LINE
  5
5C
330
1F
100
AcDbEntity
  8
SK3
100
AcDbLine
 10
-7.24
 20
2.8036095742
 30
0.0
 11
-7.24
 21
2.9500000998
 31
0.0
  0
ARC
  5
5D
330
1F
100
AcDbEntity
  8
SK3
100
AcDbCircle
 10
-8.0113762659
 20
2.6007485124
 30
0.0
 40
0.7719850916710854
100
AcDbArc
 50
2.2756644327
 51
92.1249052414
  0
ARC
  5
5E
330
1F
100
AcDbEntity
  8
SK3
100
AcDbCircle
 10
-8.0113762659
 20
2.772956057
 30
0.0
 40
0.7719850916841952
100
AcDbArc
 50
2.2756644337
 51
92.124905241
  0
LINE
  5
5F
330
1F
100
AcDbEntity
  8
SK3
100
AcDbLine
 10
-7.04
 20
1.222090682
 30
0.0
 11
-7.04
 21
1.2500000998
 31
0.0
  0
LINE
  5
60
330
1F
100
AcDbEntity
  8
SK3
100
AcDbLine
 10
10.06
 20
1.222090682
 30
0.0
 11
10.06
 21
1.2500000998
 31
0.0
  0
LINE
  5
61
330
1F
100
AcDbEntity
  8
SK1
  6
Continuous
100
AcDbLine
 10
10.135
 20
6.3877678067
 30
0.0
 11
10.135
 21
5.9839695656
 31
0.0
  0
LINE
  5
62
330
1F
100
AcDbEntity
  8
SK1
  6
Continuous
100
AcDbLine
 10
10.26
 20
6.1712614557
 30
0.0
 11
10.26
 21
5.7838152161
 31
0.0
  0
LINE
  5
63
330
1F
100
AcDbEntity
  8
SK1
  6
Continuous
100
AcDbLine
 10
6.26
 20
8.0518529929
 30
0.0
 11
6.26
 21
8.6220648177
 31
0.0
  0
LINE
  5
64
330
1F
100
AcDbEntity
  8
SK1
  6
Continuous
100
AcDbLine
 10
6.06
 20
6.457482513
 30
0.0
 11
6.06
 21
6.8963306458
 31
0.0
  0
LINE
  5
65
330
1F
100
AcDbEntity
  8
SK1
  6
Continuous
100
AcDbLine
 10
3.76
 20
6.457482513
 30
0.0
 11
3.76
 21
6.8963306458
 31
0.0
  0
LINE
  5
66
330
1F
100
AcDbEntity
  8
SK1
  6
Continuous
100
AcDbLine
 10
3.56
 20
7.9363281574
 30
0.0
 11
3.56
 21
8.4970216368
 31
0.0
  0
LINE
  5
67
330
1F
100
AcDbEntity
  8
SK1
  6
Continuous
100
AcDbLine
 10
-13.74
 20
5.6889445916
 30
0.0
 11
-13.74
 21
5.5167370471
 31
0.0
  0
LINE
  5
68
330
1F
100
AcDbEntity
  8
SK3
100
AcDbLine
 10
-13.74
 20
5.5167370471
 30
0.0
 11
-13.74
 21
3.3722027649
 31
0.0
  0
SPLINE
  5
69
330
1F
100
AcDbEntity
  8
SK1
  6
Continuous
100
AcDbSpline
210
0.0
220
0.0
230
1.0
 70
     8
 71
     3
 72
    11
 73
     7
 74
     0
 42
0.0000000005732182
 43
0.0000000001
 12
1.0
 22
0.0
 32
0.0
 13
1.0
 23
0.0
 33
0.0
 40
0.0
 40
0.0
 40
0.0
 40
0.0
 40
0.6098516461209733
 40
0.6098516461209733
 40
0.6098516461209733
 40
1.0
 40
1.0
 40
1.0
 40
1.0
 10
-13.74000000000001
 20
5.516737047054018
 30
0.0
 10
-10.22320226282579
 20
5.973682084875122
 30
0.0
 10
-6.706393498505828
 20
6.430554683930401
 30
0.0
 10
-3.189579143300748
 20
6.887390540870996
 30
0.0
 10
-0.9397215911725321
 20
7.179648106670435
 30
0.0
 10
1.310138364836688
 20
7.47188987718592
 30
0.0
 10
3.56
 20
7.764120612817295
 30
0.0
  0
ARC
  5
6A
330
1F
100
AcDbEntity
  8
SK1
  6
Continuous
100
AcDbCircle
 10
3.7527175072
 20
6.4780155346
 30
0.0
 40
0.1928780976444695
100
AcDbArc
 50
182.3382240612
 51
272.1638294261
  0
LINE
  5
6B
330
1F
100
AcDbEntity
  8
SK1
  6
Continuous
100
AcDbLine
 10
3.76
 20
6.2852749684
 30
0.0
 11
6.06
 21
6.2852749684
 31
0.0
  0
ARC
  5
6C
330
1F
100
AcDbEntity
  8
SK1
  6
Continuous
100
AcDbCircle
 10
6.067282136
 20
6.4780159205
 30
0.0
 40
0.1928784698335221
100
AcDbArc
 50
267.8362807996
 51
357.6616657138
  0
LINE
  5
6D
330
1F
100
AcDbEntity
  8
SK1
  6
Continuous
100
AcDbLine
 10
6.26
 20
7.8796454484
 30
0.0
 11
10.135
 21
5.8117620211
 31
0.0
  0
ARC
  5
6E
330
1F
100
AcDbEntity
  8
SK1
  6
Continuous
100
AcDbCircle
 10
10.0286393546
 20
5.6062283287
 30
0.0
 40
0.2314231742630217
100
AcDbArc
 50
1.3319383611
 51
62.6391036979
  0
LINE
  5
6F
330
1F
100
AcDbEntity
  8
SK3
100
AcDbLine
 10
10.26
 20
1.2372953086
 30
0.0
 11
10.06
 21
1.0498831374
 31
0.0
  0
LINE
  5
70
330
1F
100
AcDbEntity
  8
SK3
100
AcDbLine
 10
10.06
 20
1.0498831374
 30
0.0
 11
-7.04
 21
1.0498831374
 31
0.0
  0
LINE
  5
71
330
1F
100
AcDbEntity
  8
SK3
100
AcDbLine
 10
-7.04
 20
1.0498831374
 30
0.0
 11
-7.24
 21
1.2372953086
 31
0.0
  0
LINE
  5
72
330
1F
100
AcDbEntity
  8
SK3
100
AcDbLine
 10
-8.04
 20
3.3722027649
 30
0.0
 11
-13.74
 21
3.3722027649
 31
0.0
  0
SPLINE
  5
73
330
1F
100
AcDbEntity
  8
SK1
  6
Continuous
100
AcDbSpline
210
0.0
220
0.0
230
1.0
 70
     8
 71
     3
 72
    11
 73
     7
 74
     0
 42
0.0000000005732182
 43
0.0000000001
 12
1.0
 22
0.0
 32
0.0
 13
1.0
 23
0.0
 33
0.0
 40
0.0
 40
0.0
 40
0.0
 40
0.0
 40
0.6098516461209733
 40
0.6098516461209733
 40
0.6098516461209733
 40
1.0
 40
1.0
 40
1.0
 40
1.0
 10
-13.74000000000001
 20
5.688944591618308
 30
0.0
 10
-10.22320226282579
 20
6.145889629439413
 30
0.0
 10
-6.706393498505828
 20
6.602762228494693
 30
0.0
 10
-3.189579143300748
 20
7.059598085435288
 30
0.0
 10
-0.9397215911725321
 20
7.351855651234727
 30
0.0
 10
1.310138364836688
 20
7.644097421750211
 30
0.0
 10
3.56
 20
7.936328157381585
 30
0.0
  0
LINE
  5
74
330
1F
100
AcDbEntity
  8
SK1
  6
Continuous
100
AcDbLine
 10
3.56
 20
7.9363281574
 30
0.0
 11
3.56
 21
7.7641206128
 31
0.0
  0
ARC
  5
75
330
1F
100
AcDbEntity
  8
SK1
  6
Continuous
100
AcDbCircle
 10
3.7527175072
 20
6.6502230791
 30
0.0
 40
0.1928780976444694
100
AcDbArc
 50
182.3382240612
 51
272.1638294261
  0
LINE
  5
76
330
1F
100
AcDbEntity
  8
SK1
  6
Continuous
100
AcDbLine
 10
3.76
 20
6.457482513
 30
0.0
 11
6.06
 21
6.457482513
 31
0.0
  0
ARC
  5
77
330
1F
100
AcDbEntity
  8
SK1
  6
Continuous
100
AcDbCircle
 10
6.067282136
 20
6.6502234651
 30
0.0
 40
0.1928784698335255
100
AcDbArc
 50
267.8362807996
 51
357.6616657138
  0
LINE
  5
78
330
1F
100
AcDbEntity
  8
SK1
  6
Continuous
100
AcDbLine
 10
6.26
 20
7.8796454484
 30
0.0
 11
6.26
 21
8.0518529929
 31
0.0
  0
LINE
  5
79
330
1F
100
AcDbEntity
  8
SK1
  6
Continuous
100
AcDbLine
 10
6.26
 20
8.0518529929
 30
0.0
 11
10.135
 21
5.9839695656
 31
0.0
  0
ARC
  5
7A
330
1F
100
AcDbEntity
  8
SK1
  6
Continuous
100
AcDbCircle
 10
10.0286393546
 20
5.7784358733
 30
0.0
 40
0.2314231742630226
100
AcDbArc
 50
1.3319383611
 51
62.6391036979
  0
LINE
  5
7B
330
1F
100
AcDbEntity
  8
SK1
  6
Continuous
100
AcDbLine
 10
10.26
 20
5.7838152161
 30
0.0
 11
10.26
 21
5.6116076716
 31
0.0
  0
LINE
  5
7C
330
1F
100
AcDbEntity
  8
SK3
100
AcDbLine
 10
10.26
 20
1.4095028532
 30
0.0
 11
10.06
 21
1.222090682
 31
0.0
  0
LINE
  5
7D
330
1F
100
AcDbEntity
  8
SK3
100
AcDbLine
 10
10.06
 20
1.222090682
 30
0.0
 11
-7.04
 21
1.222090682
 31
0.0
  0
LINE
  5
7E
330
1F
100
AcDbEntity
  8
SK3
100
AcDbLine
 10
-7.04
 20
1.222090682
 30
0.0
 11
-7.24
 21
1.4095028532
 31
0.0
  0
LINE
  5
7F
330
1F
100
AcDbEntity
  8
SK3
100
AcDbLine
 10
-7.24
 20
2.6314020296
 30
0.0
 11
-7.24
 21
2.8036095742
 31
0.0
  0
LINE
  5
80
330
1F
100
AcDbEntity
  8
SK3
100
AcDbLine
 10
-8.04
 20
3.5444103094
 30
0.0
 11
-13.74
 21
3.5444103094
 31
0.0
  0
LINE
  5
81
330
1F
100
AcDbEntity
  8
SK3
100
AcDbLine
 10
-7.24
 20
1.3335007122
 30
0.0
 11
-7.24
 21
2.6314020296
 31
0.0
  0
SPLINE
  5
82
330
1F
100
AcDbEntity
  8
SK3
100
AcDbSpline
210
0.0
220
0.0
230
1.0
 70
     8
 71
     3
 72
    20
 73
    16
 74
     0
 42
0.0000000109139798
 43
0.0000000001
 12
1.0
 22
0.0
 32
0.0
 13
1.0
 23
0.0
 33
0.0
 40
0.0
 40
0.0
 40
0.0
 40
0.0
 40
0.1464845084811184
 40
0.1464845084811184
 40
0.1464845084811184
 40
0.3621616489688102
 40
0.3621616489688102
 40
0.3621616489688102
 40
0.5773685909377816
 40
0.5773685909377816
 40
0.5773685909377816
 40
0.7920736747699986
 40
0.7920736747699986
 40
0.7920736747699986
 40
1.0
 40
1.0
 40
1.0
 40
1.0
 10
-7.240000000000004
 20
0.917754922614038
 30
0.0
 10
-7.239999999999979
 20
0.9411915652039393
 30
0.0
 10
-7.247082969632838
 20
0.964779829034832
 30
0.0
 10
-7.260983554852663
 20
0.987604790894098
 30
0.0
 10
-7.281419550289179
 20
1.02116099079634
 30
0.0
 10
-7.317296779458627
 20
1.053831267499058
 30
0.0
 10
-7.365663395940341
 20
1.082893135116014
 30
0.0
 10
-7.413925438949569
 20
1.111892168062393
 30
0.0
 10
-7.475960078405682
 20
1.138100413476303
 30
0.0
 10
-7.546629150900097
 20
1.159329623678661
 30
0.0
 10
-7.617135726171758
 20
1.180510019207537
 30
0.0
 10
-7.698187174705912
 20
1.197319690825419
 30
0.0
 10
-7.783057220591666
 20
1.208354965884523
 30
0.0
 10
-7.865251555597502
 20
1.219042330143881
 30
0.0
 10
-7.953190726422845
 20
1.224604634160344
 30
0.0
 10
-8.04
 20
1.224604634160344
 30
0.0
  0
SPLINE
  5
83
330
1F
100
AcDbEntity
  8
SK3
100
AcDbSpline
210
0.0
220
0.0
230
1.0
 70
     8
 71
     3
 72
    20
 73
    16
 74
     0
 42
0.0000000109139798
 43
0.0000000001
 12
1.0
 22
0.0
 32
0.0
 13
1.0
 23
0.0
 33
0.0
 40
0.0
 40
0.0
 40
0.0
 40
0.0
 40
0.1464845084817704
 40
0.1464845084817704
 40
0.1464845084817704
 40
0.3621616489692973
 40
0.3621616489692973
 40
0.3621616489692973
 40
0.5773685909381053
 40
0.5773685909381053
 40
0.5773685909381053
 40
0.7920736747701574
 40
0.7920736747701574
 40
0.7920736747701574
 40
1.0
 40
1.0
 40
1.0
 40
1.0
 10
-7.239999999994366
 20
1.33350071224388
 30
0.0
 10
-7.239999999999906
 20
1.356937354833773
 30
0.0
 10
-7.247082969632765
 20
1.380525618664793
 30
0.0
 10
-7.260983554852663
 20
1.403350580524177
 30
0.0
 10
-7.281419550289179
 20
1.436906780426419
 30
0.0
 10
-7.317296779458627
 20
1.469577057129137
 30
0.0
 10
-7.365663395940341
 20
1.498638924746093
 30
0.0
 10
-7.413925438949573
 20
1.527637957692473
 30
0.0
 10
-7.475960078405678
 20
1.553846203106383
 30
0.0
 10
-7.546629150900097
 20
1.575075413308741
 30
0.0
 10
-7.617135726171758
 20
1.596255808837617
 30
0.0
 10
-7.698187174705912
 20
1.613065480455498
 30
0.0
 10
-7.783057220591666
 20
1.624100755514602
 30
0.0
 10
-7.865251555597502
 20
1.634788119773961
 30
0.0
 10
-7.953190726422845
 20
1.640350423790423
 30
0.0
 10
-8.04
 20
1.640350423790423
 30
0.0
  0
LINE
  5
84
330
1F
100
AcDbEntity
  8
SK3
100
AcDbLine
 10
-7.04
 20
0.6784141379
 30
0.0
 11
-7.04
 21
1.0498831374
 31
0.0
  0
LINE
  5
85
330
1F
100
AcDbEntity
  8
SK3
100
AcDbLine
 10
10.06
 20
0.6784141379
 30
0.0
 11
10.06
 21
1.0498831374
 31
0.0
  0
LINE
  5
86
330
1F
100
AcDbEntity
  8
SK1
  6
Continuous
100
AcDbLine
 10
10.135
 20
2.6508489539
 30
0.0
 11
10.135
 21
5.8117620211
 31
0.0
  0
LINE
  5
87
330
1F
100
AcDbEntity
  8
SK1
  6
Continuous
100
AcDbLine
 10
10.26
 20
2.5679423078
 30
0.0
 11
10.26
 21
5.6116076716
 31
0.0
  0
LINE
  5
88
330
1F
100
AcDbEntity
  8
SK1
  6
Continuous
100
AcDbLine
 10
6.26
 20
3.5073943149
 30
0.0
 11
6.26
 21
5.9376215039
 31
0.0
  0
LINE
  5
89
330
1F
100
AcDbEntity
  8
SK1
  6
Continuous
100
AcDbLine
 10
6.06
 20
2.8469844387
 30
0.0
 11
6.06
 21
4.7173431684
 31
0.0
  0
LINE
  5
8A
330
1F
100
AcDbEntity
  8
SK1
  6
Continuous
100
AcDbLine
 10
3.76
 20
2.8469844387
 30
0.0
 11
3.76
 21
4.7173431684
 31
0.0
  0
LINE
  5
8B
330
1F
100
AcDbEntity
  8
SK1
  6
Continuous
100
AcDbLine
 10
3.56
 20
3.4595423612
 30
0.0
 11
3.56
 21
5.8492026227
 31
0.0
  0
LINE
  5
8C
330
1F
100
AcDbEntity
  8
SK1
  6
Continuous
100
AcDbLine
 10
-13.74
 20
2.5286456084
 30
0.0
 11
-13.74
 21
2.1128998188
 31
0.0
  0
LINE
  5
8D
330
1F
100
AcDbEntity
  8
SK3
100
AcDbLine
 10
-13.74
 20
2.1128998188
 30
0.0
 11
-13.74
 21
1.2246046342
 31
0.0
  0
LINE
  5
8E
330
1F
100
AcDbEntity
  8
SK1
  6
Continuous
100
AcDbLine
 10
-13.74
 20
2.1128998188
 30
0.0
 11
3.56
 21
3.0437965716
 31
0.0
  0
SPLINE
  5
8F
330
1F
100
AcDbEntity
  8
SK1
  6
Continuous
100
AcDbSpline
210
0.0
220
0.0
230
1.0
 70
     8
 71
     3
 72
    10
 73
     6
 74
     0
 42
0.000000042775254
 43
0.0000000001
 12
1.0
 22
0.0
 32
0.0
 13
1.0
 23
0.0
 33
0.0
 40
0.0
 40
0.0
 40
0.0
 40
0.0
 40
0.5
 40
0.5
 40
1.0
 40
1.0
 40
1.0
 40
1.0
 10
3.56
 20
2.507814911705428
 30
0.0
 10
3.560000000000004
 20
2.487606548331357
 30
0.0
 10
3.581642974693984
 20
2.467825822034963
 30
0.0
 10
3.655352213045453
 20
2.4395713846205
 30
0.0
 10
3.707280214739566
 20
2.431238649031677
 30
0.0
 10
3.759999999999999
 20
2.431238649031676
 30
0.0
  0
LINE
  5
90
330
1F
100
AcDbEntity
  8
SK1
  6
Continuous
100
AcDbLine
 10
3.76
 20
2.431238649
 30
0.0
 11
6.06
 21
2.431238649
 31
0.0
  0
SPLINE
  5
91
330
1F
100
AcDbEntity
  8
SK1
  6
Continuous
100
AcDbSpline
210
0.0
220
0.0
230
1.0
 70
     8
 71
     3
 72
    10
 73
     6
 74
     0
 42
0.0000000427913399
 43
0.0000000001
 12
1.0
 22
0.0
 32
0.0
 13
1.0
 23
0.0
 33
0.0
 40
0.0
 40
0.0
 40
0.0
 40
0.0
 40
0.5
 40
0.5
 40
1.0
 40
1.0
 40
1.0
 40
1.0
 10
6.060000000002449
 20
2.431238649025074
 30
0.0
 10
6.112107458752309
 20
2.431238649031969
 30
0.0
 10
6.164719623105197
 20
2.439582036215435
 30
0.0
 10
6.238454104659719
 20
2.467879958330973
 30
0.0
 10
6.260000000000002
 20
2.487866619661605
 30
0.0
 10
6.259999999999994
 20
2.507814911705431
 30
0.0
  0
SPLINE
  5
92
330
1F
100
AcDbEntity
  8
SK1
  6
Continuous
100
AcDbSpline
210
0.0
220
0.0
230
1.0
 70
     8
 71
     3
 72
     8
 73
     4
 74
     0
 42
0.0000000025198196
 43
0.0000000001
 12
1.0
 22
0.0
 32
0.0
 13
1.0
 23
0.0
 33
0.0
 40
0.0
 40
0.0
 40
0.0
 40
0.0
 40
1.0
 40
1.0
 40
1.0
 40
1.0
 10
6.260000000000002
 20
3.091648525283202
 30
0.0
 10
7.55170520635035
 20
2.806158940712292
 30
0.0
 10
8.843385391970827
 20
2.520652768987044
 30
0.0
 10
10.13500000000511
 20
2.235103164287707
 30
0.0
  0
SPLINE
  5
93
330
1F
100
AcDbEntity
  8
SK1
  6
Continuous
100
AcDbSpline
210
0.0
220
0.0
230
1.0
 70
     8
 71
     3
 72
    10
 73
     6
 74
     0
 42
0.0000000616174816
 43
0.0000000001
 12
1.0
 22
0.0
 32
0.0
 13
1.0
 23
0.0
 33
0.0
 40
0.0
 40
0.0
 40
0.0
 40
0.0
 40
0.5
 40
0.5
 40
1.0
 40
1.0
 40
1.0
 40
1.0
 10
10.13500000000511
 20
2.235103164287707
 30
0.0
 10
10.17265630117929
 20
2.226778125338105
 30
0.0
 10
10.20476250613812
 20
2.214505299112161
 30
0.0
 10
10.24840383410932
 20
2.18551900750226
 30
0.0
 10
10.26
 20
2.168873505666946
 30
0.0
 10
10.26
 20
2.152196518153779
 30
0.0
  0
ARC
  5
94
330
1F
100
AcDbEntity
  8
SK3
100
AcDbCircle
 10
63.8098699753
 20
-137.9203231801
 30
0.0
 40
148.2686334667889
100
AcDbArc
 50
111.171937674
 51
111.2548417703
  0
LINE
  5
95
330
1F
100
AcDbEntity
  8
SK3
100
AcDbLine
 10
10.06
 20
0.2626683483
 30
0.0
 11
-7.04
 21
0.2626683483
 31
0.0
  0
ARC
  5
96
330
1F
100
AcDbEntity
  8
SK3
100
AcDbCircle
 10
-60.7895280238
 20
-137.9194421872
 30
0.0
 40
148.2676884382448
100
AcDbArc
 50
68.7451579655
 51
68.8280625902
  0
LINE
  5
97
330
1F
100
AcDbEntity
  8
SK3
100
AcDbLine
 10
-8.04
 20
1.2246046342
 30
0.0
 11
-13.74
 21
1.2246046342
 31
0.0
  0
LINE
  5
98
330
1F
100
AcDbEntity
  8
SK1
  6
Continuous
100
AcDbLine
 10
-13.74
 20
2.5286456084
 30
0.0
 11
3.56
 21
3.4595423612
 31
0.0
  0
LINE
  5
99
330
1F
100
AcDbEntity
  8
SK1
  6
Continuous
100
AcDbLine
 10
3.56
 20
3.4595423612
 30
0.0
 11
3.56
 21
3.0437965716
 31
0.0
  0
SPLINE
  5
9A
330
1F
100
AcDbEntity
  8
SK1
  6
Continuous
100
AcDbSpline
210
0.0
220
0.0
230
1.0
 70
     8
 71
     3
 72
    10
 73
     6
 74
     0
 42
0.000000042775254
 43
0.0000000001
 12
1.0
 22
0.0
 32
0.0
 13
1.0
 23
0.0
 33
0.0
 40
0.0
 40
0.0
 40
0.0
 40
0.0
 40
0.5
 40
0.5
 40
1.0
 40
1.0
 40
1.0
 40
1.0
 10
3.56
 20
2.923560701335507
 30
0.0
 10
3.56
 20
2.903352337961436
 30
0.0
 10
3.581642974693983
 20
2.883571611665041
 30
0.0
 10
3.65535221304545
 20
2.855317174250579
 30
0.0
 10
3.707280214739564
 20
2.846984438661757
 30
0.0
 10
3.759999999999999
 20
2.846984438661756
 30
0.0
  0
LINE
  5
9B
330
1F
100
AcDbEntity
  8
SK1
  6
Continuous
100
AcDbLine
 10
3.76
 20
2.8469844387
 30
0.0
 11
6.06
 21
2.8469844387
 31
0.0
  0
SPLINE
  5
9C
330
1F
100
AcDbEntity
  8
SK1
  6
Continuous
100
AcDbSpline
210
0.0
220
0.0
230
1.0
 70
     8
 71
     3
 72
    10
 73
     6
 74
     0
 42
0.0000000427913399
 43
0.0000000001
 12
1.0
 22
0.0
 32
0.0
 13
1.0
 23
0.0
 33
0.0
 40
0.0
 40
0.0
 40
0.0
 40
0.0
 40
0.5
 40
0.5
 40
1.0
 40
1.0
 40
1.0
 40
1.0
 10
6.060000000002449
 20
2.846984438655153
 30
0.0
 10
6.112107458752309
 20
2.846984438662048
 30
0.0
 10
6.164719623105198
 20
2.855327825845513
 30
0.0
 10
6.238454104659719
 20
2.883625747961052
 30
0.0
 10
6.260000000000003
 20
2.903612409291684
 30
0.0
 10
6.259999999999994
 20
2.92356070133551
 30
0.0
  0
LINE
  5
9D
330
1F
100
AcDbEntity
  8
SK1
  6
Continuous
100
AcDbLine
 10
6.26
 20
3.0916485253
 30
0.0
 11
6.26
 21
3.5073943149
 31
0.0
  0
SPLINE
  5
9E
330
1F
100
AcDbEntity
  8
SK1
  6
Continuous
100
AcDbSpline
210
0.0
220
0.0
230
1.0
 70
     8
 71
     3
 72
     8
 73
     4
 74
     0
 42
0.0000000025198196
 43
0.0000000001
 12
1.0
 22
0.0
 32
0.0
 13
1.0
 23
0.0
 33
0.0
 40
0.0
 40
0.0
 40
0.0
 40
0.0
 40
1.0
 40
1.0
 40
1.0
 40
1.0
 10
6.260000000000002
 20
3.507394314913281
 30
0.0
 10
7.551705206350352
 20
3.22190473034237
 30
0.0
 10
8.843385391970827
 20
2.936398558617123
 30
0.0
 10
10.13500000000511
 20
2.650848953917787
 30
0.0
  0
SPLINE
  5
9F
330
1F
100
AcDbEntity
  8
SK1
  6
Continuous
100
AcDbSpline
210
0.0
220
0.0
230
1.0
 70
     8
 71
     3
 72
    10
 73
     6
 74
     0
 42
0.0000000616174816
 43
0.0000000001
 12
1.0
 22
0.0
 32
0.0
 13
1.0
 23
0.0
 33
0.0
 40
0.0
 40
0.0
 40
0.0
 40
0.0
 40
0.5
 40
0.5
 40
1.0
 40
1.0
 40
1.0
 40
1.0
 10
10.13500000000511
 20
2.650848953917787
 30
0.0
 10
10.17265630117929
 20
2.642523914968185
 30
0.0
 10
10.20476250613812
 20
2.630251088742241
 30
0.0
 10
10.24840383410932
 20
2.601264797132339
 30
0.0
 10
10.26
 20
2.584619295297025
 30
0.0
 10
10.26
 20
2.567942307783857
 30
0.0
  0
LINE
  5
A0
330
1F
100
AcDbEntity
  8
SK1
  6
Continuous
100
AcDbLine
 10
10.26
 20
2.5679423078
 30
0.0
 11
10.26
 21
2.1521965182
 31
0.0
  0
ARC
  5
A1
330
1F
100
AcDbEntity
  8
SK3
100
AcDbCircle
 10
63.8098699752
 20
-137.5045773902
 30
0.0
 40
148.2686334664618
100
AcDbArc
 50
111.171937674
 51
111.2548417703
  0
LINE
  5
A2
330
1F
100
AcDbEntity
  8
SK3
100
AcDbLine
 10
10.06
 20
0.6784141379
 30
0.0
 11
-7.04
 21
0.6784141379
 31
0.0
  0
ARC
  5
A3
330
1F
100
AcDbEntity
  8
SK3
100
AcDbCircle
 10
-60.7895280236
 20
-137.5036963972
 30
0.0
 40
148.2676884378365
100
AcDbArc
 50
68.7451579655
 51
68.8280625902
  0
LINE
  5
A4
330
1F
100
AcDbEntity
  8
SK3
100
AcDbLine
 10
-7.24
 20
0.9177549227
 30
0.0
 11
-7.24
 21
1.3335007122
 31
0.0
  0
LINE
  5
A5
330
1F
100
AcDbEntity
  8
SK3
100
AcDbLine
 10
-8.04
 20
1.6403504238
 30
0.0
 11
-13.74
 21
1.6403504238
 31
0.0
  0
LINE
  5
A6
330
1F
100
AcDbEntity
  8
SK3
100
AcDbLine
 10
-7.24
 20
-0.9177547231
 30
0.0
 11
-7.24
 21
0.9177549226
 31
0.0
  0
SPLINE
  5
A7
330
1F
100
AcDbEntity
  8
SK3
100
AcDbSpline
210
0.0
220
0.0
230
1.0
 70
     8
 71
     3
 72
    23
 73
    19
 74
     0
 42
0.0000000109131953
 43
0.0000000001
 12
1.0
 22
0.0
 32
0.0
 13
1.0
 23
0.0
 33
0.0
 40
0.0
 40
0.0
 40
0.0
 40
0.0
 40
0.0719738156482802
 40
0.0719738156482802
 40
0.0719738156482802
 40
0.2879682196012543
 40
0.2879682196012543
 40
0.2879682196012543
 40
0.5035544358820058
 40
0.5035544358820058
 40
0.5035544358820058
 40
0.7186279922125438
 40
0.7186279922125438
 40
0.7186279922125438
 40
0.9332624917760253
 40
0.9332624917760253
 40
0.9332624917760253
 40
1.0
 40
1.0
 40
1.0
 40
1.0
 10
-7.240000000000004
 20
-1.333500512702731
 30
0.0
 10
-7.239999999999979
 20
-1.34506113683167
 30
0.0
 10
-7.241706566532693
 20
-1.356640069459315
 30
0.0
 10
-7.245104523432365
 20
-1.368127329421088
 30
0.0
 10
-7.255237168257662
 20
-1.40238212683178
 30
0.0
 10
-7.280979444154102
 20
-1.436442148034821
 30
0.0
 10
-7.32022391505541
 20
-1.467472460547363
 30
0.0
 10
-7.359394560700571
 20
-1.498444399976592
 30
0.0
 10
-7.413102830046987
 20
-1.527254684509809
 30
0.0
 10
-7.476907019670222
 20
-1.551498847053522
 30
0.0
 10
-7.540561362576356
 20
-1.575686071202005
 30
0.0
 10
-7.616025792123803
 20
-1.595997314176614
 30
0.0
 10
-7.69703976843817
 20
-1.61073629005335
 30
0.0
 10
-7.77789114961559
 20
-1.625445684789767
 30
0.0
 10
-7.86650386021244
 20
-1.635011536682335
 30
0.0
 10
-7.955524677257679
 20
-1.638635559665019
 30
0.0
 10
-7.983564487156907
 20
-1.639777055765344
 30
0.0
 10
-8.01180197753621
 20
-1.640350224249112
 30
0.0
 10
-8.04
 20
-1.640350224249036
 30
0.0
  0
SPLINE
  5
A8
330
1F
100
AcDbEntity
  8
SK3
100
AcDbSpline
210
0.0
220
0.0
230
1.0
 70
     8
 71
     3
 72
    23
 73
    19
 74
     0
 42
0.0000000109131953
 43
0.0000000001
 12
1.0
 22
0.0
 32
0.0
 13
1.0
 23
0.0
 33
0.0
 40
0.0
 40
0.0
 40
0.0
 40
0.0
 40
0.0719738156472681
 40
0.0719738156472681
 40
0.0719738156472681
 40
0.2879682196004771
 40
0.2879682196004771
 40
0.2879682196004771
 40
0.5035544358814638
 40
0.5035544358814638
 40
0.5035544358814638
 40
0.7186279922122366
 40
0.7186279922122366
 40
0.7186279922122366
 40
0.9332624917759552
 40
0.9332624917759552
 40
0.9332624917759552
 40
1.0
 40
1.0
 40
1.0
 40
1.0
 10
-7.239999999991954
 20
-0.9177547230730022
 30
0.0
 10
-7.240000000000031
 20
-0.92931534720194
 30
0.0
 10
-7.241706566532745
 20
-0.9408942798294089
 30
0.0
 10
-7.245104523432365
 20
-0.9523815397910089
 30
0.0
 10
-7.255237168257662
 20
-0.9866363372017001
 30
0.0
 10
-7.280979444154102
 20
-1.020696358404741
 30
0.0
 10
-7.32022391505541
 20
-1.051726670917284
 30
0.0
 10
-7.359394560700571
 20
-1.082698610346513
 30
0.0
 10
-7.413102830046987
 20
-1.11150889487973
 30
0.0
 10
-7.476907019670222
 20
-1.135753057423442
 30
0.0
 10
-7.540561362576356
 20
-1.159940281571926
 30
0.0
 10
-7.616025792123803
 20
-1.180251524546534
 30
0.0
 10
-7.69703976843817
 20
-1.19499050042327
 30
0.0
 10
-7.77789114961559
 20
-1.209699895159687
 30
0.0
 10
-7.866503860212443
 20
-1.219265747052256
 30
0.0
 10
-7.955524677257682
 20
-1.22288977003494
 30
0.0
 10
-7.983564487156911
 20
-1.224031266135264
 30
0.0
 10
-8.01180197753621
 20
-1.224604434619032
 30
0.0
 10
-8.04
 20
-1.224604434618957
 30
0.0
  0
LINE
  5
A9
330
1F
100
AcDbEntity
  8
SK3
100
AcDbLine
 10
-7.04
 20
-0.2626681488
 30
0.0
 11
-7.04
 21
0.2626683483
 31
0.0
  0
LINE
  5
AA
330
1F
100
AcDbEntity
  8
SK3
100
AcDbLine
 10
10.06
 20
-0.2626681488
 30
0.0
 11
10.06
 21
0.2626683483
 31
0.0
  0
LINE
  5
AB
330
1F
100
AcDbEntity
  8
SK1
  6
Continuous
100
AcDbLine
 10
10.135
 20
-2.2351029647
 30
0.0
 11
10.135
 21
2.2351031643
 31
0.0
  0
LINE
  5
AC
330
1F
100
AcDbEntity
  8
SK1
  6
Continuous
100
AcDbLine
 10
10.26
 20
-2.1521963186
 30
0.0
 11
10.26
 21
2.1521965182
 31
0.0
  0
LINE
  5
AD
330
1F
100
AcDbEntity
  8
SK1
  6
Continuous
100
AcDbLine
 10
6.26
 20
-3.0916483257
 30
0.0
 11
6.26
 21
-0.2249999002
 31
0.0
  0
LINE
  5
AE
330
1F
100
AcDbEntity
  8
SK1
  6
Continuous
100
AcDbLine
 10
6.06
 20
-2.4312384495
 30
0.0
 11
6.06
 21
-0.2249999002
 31
0.0
  0
LINE
  5
AF
330
1F
100
AcDbEntity
  8
SK1
  6
Continuous
100
AcDbLine
 10
3.76
 20
-2.4312384495
 30
0.0
 11
3.76
 21
-0.2249999002
 31
0.0
  0
LINE
  5
B0
330
1F
100
AcDbEntity
  8
SK1
  6
Continuous
100
AcDbLine
 10
3.56
 20
-3.0437963721
 30
0.0
 11
3.56
 21
-0.2249999002
 31
0.0
  0
LINE
  5
B1
330
1F
100
AcDbEntity
  8
SK3
100
AcDbLine
 10
-13.74
 20
-2.1128996193
 30
0.0
 11
-13.74
 21
-1.2246044346
 31
0.0
  0
LINE
  5
B2
330
1F
100
AcDbEntity
  8
SK1
  6
Continuous
100
AcDbLine
 10
-13.74
 20
-2.1128996193
 30
0.0
 11
-13.74
 21
-2.5286454089
 31
0.0
  0
LINE
  5
B3
330
1F
100
AcDbEntity
  8
SK1
  6
Continuous
100
AcDbLine
 10
-13.74
 20
-2.5286454089
 30
0.0
 11
3.56
 21
-3.4595421617
 31
0.0
  0
LINE
  5
B4
330
1F
100
AcDbEntity
  8
SK1
  6
Continuous
100
AcDbLine
 10
3.56
 20
-3.4595421617
 30
0.0
 11
3.56
 21
-3.0437963721
 31
0.0
  0
SPLINE
  5
B5
330
1F
100
AcDbEntity
  8
SK1
  6
Continuous
100
AcDbSpline
210
0.0
220
0.0
230
1.0
 70
     8
 71
     3
 72
    10
 73
     6
 74
     0
 42
0.0000000427813181
 43
0.0000000001
 12
1.0
 22
0.0
 32
0.0
 13
1.0
 23
0.0
 33
0.0
 40
0.0
 40
0.0
 40
0.0
 40
0.0
 40
0.5
 40
0.5
 40
1.0
 40
1.0
 40
1.0
 40
1.0
 10
3.559999999997639
 20
-2.923560501794015
 30
0.0
 10
3.5600000000001
 20
-2.903598190997905
 30
0.0
 10
3.58120380587071
 20
-2.883737982546629
 30
0.0
 10
3.655808911612904
 20
-2.855143685150885
 30
0.0
 10
3.707164589448898
 20
-2.84698423912006
 30
0.0
 10
3.759999999999999
 20
-2.846984239120365
 30
0.0
  0
LINE
  5
B6
330
1F
100
AcDbEntity
  8
SK1
  6
Continuous
100
AcDbLine
 10
3.76
 20
-2.8469842391
 30
0.0
 11
6.06
 21
-2.8469842391
 31
0.0
  0
SPLINE
  5
B7
330
1F
100
AcDbEntity
  8
SK1
  6
Continuous
100
AcDbSpline
210
0.0
220
0.0
230
1.0
 70
     8
 71
     3
 72
    10
 73
     6
 74
     0
 42
0.0000000427877658
 43
0.0000000001
 12
1.0
 22
0.0
 32
0.0
 13
1.0
 23
0.0
 33
0.0
 40
0.0
 40
0.0
 40
0.0
 40
0.0
 40
0.5
 40
0.5
 40
1.0
 40
1.0
 40
1.0
 40
1.0
 10
6.059999999999996
 20
-2.846984239120366
 30
0.0
 10
6.112875053093044
 20
-2.846984239120365
 30
0.0
 10
6.164593677513492
 20
-2.855298967920999
 30
0.0
 10
6.238383806397463
 20
-2.883578944342832
 30
0.0
 10
6.260000000000002
 20
-2.903580887724585
 30
0.0
 10
6.259999999999994
 20
-2.923560501794122
 30
0.0
  0
LINE
  5
B8
330
1F
100
AcDbEntity
  8
SK1
  6
Continuous
100
AcDbLine
 10
6.26
 20
-3.0916483257
 30
0.0
 11
6.26
 21
-3.5073941154
 31
0.0
  0
LINE
  5
B9
330
1F
100
AcDbEntity
  8
SK1
  6
Continuous
100
AcDbLine
 10
6.26
 20
-3.5073941154
 30
0.0
 11
10.135
 21
-2.6508487544
 31
0.0
  0
SPLINE
  5
BA
330
1F
100
AcDbEntity
  8
SK1
  6
Continuous
100
AcDbSpline
210
0.0
220
0.0
230
1.0
 70
     8
 71
     3
 72
     8
 73
     4
 74
     0
 42
0.0000000587442537
 43
0.0000000001
 12
1.0
 22
0.0
 32
0.0
 13
1.0
 23
0.0
 33
0.0
 40
0.0
 40
0.0
 40
0.0
 40
0.0
 40
1.0
 40
1.0
 40
1.0
 40
1.0
 10
10.135
 20
-2.650848754373845
 30
0.0
 10
10.21129434651475
 20
-2.633981632902125
 30
0.0
 10
10.26
 20
-2.601481596891619
 30
0.0
 10
10.26
 20
-2.567942108242469
 30
0.0
  0
LINE
  5
BB
330
1F
100
AcDbEntity
  8
SK1
  6
Continuous
100
AcDbLine
 10
10.26
 20
-2.5679421082
 30
0.0
 11
10.26
 21
-2.1521963186
 31
0.0
  0
LINE
  5
BC
330
1F
100
AcDbEntity
  8
SK3
100
AcDbLine
 10
10.26
 20
-0.7560426015
 30
0.0
 11
10.06
 21
-0.6784139384
 31
0.0
  0
LINE
  5
BD
330
1F
100
AcDbEntity
  8
SK3
100
AcDbLine
 10
10.06
 20
-0.6784139384
 30
0.0
 11
-7.04
 21
-0.6784139384
 31
0.0
  0
LINE
  5
BE
330
1F
100
AcDbEntity
  8
SK3
100
AcDbLine
 10
-7.04
 20
-0.6784139384
 30
0.0
 11
-7.24
 21
-0.7560426015
 31
0.0
  0
LINE
  5
BF
330
1F
100
AcDbEntity
  8
SK3
100
AcDbLine
 10
-7.24
 20
-0.9177547231
 30
0.0
 11
-7.24
 21
-1.3335005127
 31
0.0
  0
LINE
  5
C0
330
1F
100
AcDbEntity
  8
SK3
100
AcDbLine
 10
-8.04
 20
-1.6403502242
 30
0.0
 11
-13.74
 21
-1.6403502242
 31
0.0
  0
LINE
  5
C1
330
1F
100
AcDbEntity
  8
SK1
  6
Continuous
100
AcDbLine
 10
-13.74
 20
-2.1128996193
 30
0.0
 11
3.56
 21
-3.0437963721
 31
0.0
  0
SPLINE
  5
C2
330
1F
100
AcDbEntity
  8
SK1
  6
Continuous
100
AcDbSpline
210
0.0
220
0.0
230
1.0
 70
     8
 71
     3
 72
    10
 73
     6
 74
     0
 42
0.0000000427813181
 43
0.0000000001
 12
1.0
 22
0.0
 32
0.0
 13
1.0
 23
0.0
 33
0.0
 40
0.0
 40
0.0
 40
0.0
 40
0.0
 40
0.5
 40
0.5
 40
1.0
 40
1.0
 40
1.0
 40
1.0
 10
3.559999999997639
 20
-2.507814712163936
 30
0.0
 10
3.5600000000001
 20
-2.487852401367824
 30
0.0
 10
3.58120380587071
 20
-2.46799219291655
 30
0.0
 10
3.655808911612904
 20
-2.439397895520807
 30
0.0
 10
3.707164589448899
 20
-2.431238449489981
 30
0.0
 10
3.759999999999999
 20
-2.431238449490285
 30
0.0
  0
LINE
  5
C3
330
1F
100
AcDbEntity
  8
SK1
  6
Continuous
100
AcDbLine
 10
3.76
 20
-2.4312384495
 30
0.0
 11
6.06
 21
-2.4312384495
 31
0.0
  0
SPLINE
  5
C4
330
1F
100
AcDbEntity
  8
SK1
  6
Continuous
100
AcDbSpline
210
0.0
220
0.0
230
1.0
 70
     8
 71
     3
 72
    10
 73
     6
 74
     0
 42
0.0000000427877658
 43
0.0000000001
 12
1.0
 22
0.0
 32
0.0
 13
1.0
 23
0.0
 33
0.0
 40
0.0
 40
0.0
 40
0.0
 40
0.0
 40
0.5
 40
0.5
 40
1.0
 40
1.0
 40
1.0
 40
1.0
 10
6.059999999999996
 20
-2.431238449490287
 30
0.0
 10
6.112875053093044
 20
-2.431238449490287
 30
0.0
 10
6.164593677513491
 20
-2.439553178290921
 30
0.0
 10
6.238383806397463
 20
-2.467833154712751
 30
0.0
 10
6.260000000000002
 20
-2.487835098094503
 30
0.0
 10
6.259999999999994
 20
-2.507814712164041
 30
0.0
  0
LINE
  5
C5
330
1F
100
AcDbEntity
  8
SK1
  6
Continuous
100
AcDbLine
 10
6.26
 20
-3.0916483257
 30
0.0
 11
10.135
 21
-2.2351029647
 31
0.0
  0
SPLINE
  5
C6
330
1F
100
AcDbEntity
  8
SK1
  6
Continuous
100
AcDbSpline
210
0.0
220
0.0
230
1.0
 70
     8
 71
     3
 72
     8
 73
     4
 74
     0
 42
0.0000000587442537
 43
0.0000000001
 12
1.0
 22
0.0
 32
0.0
 13
1.0
 23
0.0
 33
0.0
 40
0.0
 40
0.0
 40
0.0
 40
0.0
 40
1.0
 40
1.0
 40
1.0
 40
1.0
 10
10.135
 20
-2.235102964743767
 30
0.0
 10
10.21129434651475
 20
-2.218235843272046
 30
0.0
 10
10.26
 20
-2.185735807261539
 30
0.0
 10
10.26
 20
-2.15219631861239
 30
0.0
  0
LINE
  5
C7
330
1F
100
AcDbEntity
  8
SK3
100
AcDbLine
 10
10.26
 20
-0.3402968118
 30
0.0
 11
10.06
 21
-0.2626681488
 31
0.0
  0
LINE
  5
C8
330
1F
100
AcDbEntity
  8
SK3
100
AcDbLine
 10
10.06
 20
-0.2626681488
 30
0.0
 11
-7.04
 21
-0.2626681488
 31
0.0
  0
LINE
  5
C9
330
1F
100
AcDbEntity
  8
SK3
100
AcDbLine
 10
-7.04
 20
-0.2626681488
 30
0.0
 11
-7.24
 21
-0.3402968118
 31
0.0
  0
LINE
  5
CA
330
1F
100
AcDbEntity
  8
SK3
100
AcDbLine
 10
-8.04
 20
-1.2246044346
 30
0.0
 11
-13.74
 21
-1.2246044346
 31
0.0
  0
LINE
  5
CB
330
1F
100
AcDbEntity
  8
SK3
100
AcDbLine
 10
-7.24
 20
-2.6314018301
 30
0.0
 11
-7.24
 21
-1.3335005127
 31
0.0
  0
ARC
  5
CC
330
1F
100
AcDbEntity
  8
SK3
100
AcDbCircle
 10
-8.0127364206
 20
-2.7714870094
 30
0.0
 40
0.7734037898005875
100
AcDbArc
 50
267.9798240451
 51
357.6196062809
  0
ARC
  5
CD
330
1F
100
AcDbEntity
  8
SK3
100
AcDbCircle
 10
-8.0127364206
 20
-2.5992794648
 30
0.0
 40
0.7734037898011431
100
AcDbArc
 50
267.9798240451
 51
357.6196062808
  0
LINE
  5
CE
330
1F
100
AcDbEntity
  8
SK3
100
AcDbLine
 10
-7.04
 20
-1.0498829379
 30
0.0
 11
-7.04
 21
-0.6784139384
 31
0.0
  0
LINE
  5
CF
330
1F
100
AcDbEntity
  8
SK3
100
AcDbLine
 10
10.06
 20
-1.0498829379
 30
0.0
 11
10.06
 21
-0.6784139384
 31
0.0
  0
LINE
  5
D0
330
1F
100
AcDbEntity
  8
SK1
  6
Continuous
100
AcDbLine
 10
10.135
 20
-5.8117618215
 30
0.0
 11
10.135
 21
-2.6508487544
 31
0.0
  0
LINE
  5
D1
330
1F
100
AcDbEntity
  8
SK1
  6
Continuous
100
AcDbLine
 10
10.26
 20
-5.611607472
 30
0.0
 11
10.26
 21
-2.5679421082
 31
0.0
  0
LINE
  5
D2
330
1F
100
AcDbEntity
  8
SK1
  6
Continuous
100
AcDbLine
 10
6.26
 20
-7.8796452488
 30
0.0
 11
6.26
 21
-6.2558193559
 31
0.0
  0
LINE
  5
D3
330
1F
100
AcDbEntity
  8
SK1
  6
Continuous
100
AcDbLine
 10
6.06
 20
-6.2852747688
 30
0.0
 11
6.06
 21
-5.0355410204
 31
0.0
  0
LINE
  5
D4
330
1F
100
AcDbEntity
  8
SK1
  6
Continuous
100
AcDbLine
 10
3.76
 20
-6.2852747688
 30
0.0
 11
3.76
 21
-5.0355410204
 31
0.0
  0
LINE
  5
D5
330
1F
100
AcDbEntity
  8
SK1
  6
Continuous
100
AcDbLine
 10
3.56
 20
-7.7641204133
 30
0.0
 11
3.56
 21
-6.1674004747
 31
0.0
  0
LINE
  5
D6
330
1F
100
AcDbEntity
  8
SK3
100
AcDbLine
 10
-13.74
 20
-5.5167368475
 30
0.0
 11
-13.74
 21
-3.3722025653
 31
0.0
  0
LINE
  5
D7
330
1F
100
AcDbEntity
  8
SK1
  6
Continuous
100
AcDbLine
 10
-13.74
 20
-5.5167368475
 30
0.0
 11
-13.74
 21
-5.6889443921
 31
0.0
  0
SPLINE
  5
D8
330
1F
100
AcDbEntity
  8
SK1
  6
Continuous
100
AcDbSpline
210
0.0
220
0.0
230
1.0
 70
     8
 71
     3
 72
    14
 73
    10
 74
     0
 42
0.0000000005732182
 43
0.0000000001
 12
1.0
 22
0.0
 32
0.0
 13
1.0
 23
0.0
 33
0.0
 40
0.0
 40
0.0
 40
0.0
 40
0.0
 40
0.1250514946192908
 40
0.1250514946192908
 40
0.1250514946192908
 40
0.7654722914695266
 40
0.7654722914695266
 40
0.7654722914695266
 40
1.0
 40
1.0
 40
1.0
 40
1.0
 10
-13.74000000000001
 20
-5.688944392076925
 30
0.0
 10
-13.01887246649223
 20
-5.782642032003558
 30
0.0
 10
-12.29774445179643
 20
-5.87633651093812
 30
0.0
 10
-11.57661602176744
 20
-5.970028261226664
 30
0.0
 10
-7.883532263454969
 20
-6.449847759210652
 30
0.0
 10
-4.190438006192576
 20
-6.929598283703693
 30
0.0
 10
-0.4973384253410262
 20
-7.409313821724944
 30
0.0
 10
0.8551070079515811
 20
-7.584989856035059
 30
0.0
 10
2.207553197311543
 20
-7.760660922199026
 30
0.0
 10
3.56
 20
-7.936327957840201
 30
0.0
  0
LINE
  5
D9
330
1F
100
AcDbEntity
  8
SK1
  6
Continuous
100
AcDbLine
 10
3.56
 20
-7.9363279578
 30
0.0
 11
3.56
 21
-7.7641204133
 31
0.0
  0
ARC
  5
DA
330
1F
100
AcDbEntity
  8
SK1
  6
Continuous
100
AcDbCircle
 10
3.7527233814
 20
-6.6502292345
 30
0.0
 40
0.1928842263025293
100
AcDbArc
 50
87.8379855158
 51
177.6599609976
  0
LINE
  5
DB
330
1F
100
AcDbEntity
  8
SK1
  6
Continuous
100
AcDbLine
 10
3.76
 20
-6.4574823134
 30
0.0
 11
6.06
 21
-6.4574823134
 31
0.0
  0
ARC
  5
DC
330
1F
100
AcDbEntity
  8
SK1
  6
Continuous
100
AcDbCircle
 10
6.0672676631
 20
-6.6502389228
 30
0.0
 40
0.1928935701247845
100
AcDbArc
 50
2.3428057496
 51
92.1592477363
  0
LINE
  5
DD
330
1F
100
AcDbEntity
  8
SK1
  6
Continuous
100
AcDbLine
 10
6.26
 20
-7.8796452488
 30
0.0
 11
6.26
 21
-8.0518527934
 31
0.0
  0
SPLINE
  5
DE
330
1F
100
AcDbEntity
  8
SK1
  6
Continuous
100
AcDbSpline
210
0.0
220
0.0
230
1.0
 70
     8
 71
     3
 72
     8
 73
     4
 74
     0
 42
0.0000000022767429
 43
0.0000000001
 12
1.0
 22
0.0
 32
0.0
 13
1.0
 23
0.0
 33
0.0
 40
0.0
 40
0.0
 40
0.0
 40
0.0
 40
1.0
 40
1.0
 40
1.0
 40
1.0
 10
6.260000000000002
 20
-8.051852793385395
 30
0.0
 10
7.551705218583284
 20
-7.362619959870751
 30
0.0
 10
8.843385412416609
 20
-6.673347083565136
 30
0.0
 10
10.13500000000006
 20
-5.983969366076286
 30
0.0
  0
ARC
  5
DF
330
1F
100
AcDbEntity
  8
SK1
  6
Continuous
100
AcDbCircle
 10
10.0315105591
 20
-5.7802287927
 30
0.0
 40
0.2285175827253374
100
AcDbArc
 50
296.9281619501
 51
359.100795991
  0
LINE
  5
E0
330
1F
100
AcDbEntity
  8
SK1
  6
Continuous
100
AcDbLine
 10
10.26
 20
-5.7838150166
 30
0.0
 11
10.26
 21
-5.611607472
 31
0.0
  0
ARC
  5
E1
330
1F
100
AcDbEntity
  8
SK3
100
AcDbCircle
 10
97.7288870611
 20
92.1347904483
 30
0.0
 40
128.0677202719649
100
AcDbArc
 50
226.7996932678
 51
226.9223158419
  0
LINE
  5
E2
330
1F
100
AcDbEntity
  8
SK3
100
AcDbLine
 10
10.06
 20
-1.2220904825
 30
0.0
 11
-7.04
 21
-1.2220904825
 31
0.0
  0
ARC
  5
E3
330
1F
100
AcDbEntity
  8
SK3
100
AcDbCircle
 10
-94.7082962493
 20
92.1341599536
 30
0.0
 40
128.0668562225737
100
AcDbArc
 50
313.0776837445
 51
313.2003071459
  0
LINE
  5
E4
330
1F
100
AcDbEntity
  8
SK3
100
AcDbLine
 10
-7.24
 20
-2.6314018301
 30
0.0
 11
-7.24
 21
-2.8036093747
 31
0.0
  0
LINE
  5
E5
330
1F
100
AcDbEntity
  8
SK3
100
AcDbLine
 10
-8.04
 20
-3.5444101099
 30
0.0
 11
-13.74
 21
-3.5444101099
 31
0.0
  0
SPLINE
  5
E6
330
1F
100
AcDbEntity
  8
SK1
  6
Continuous
100
AcDbSpline
210
0.0
220
0.0
230
1.0
 70
     8
 71
     3
 72
    14
 73
    10
 74
     0
 42
0.0000000005732182
 43
0.0000000001
 12
1.0
 22
0.0
 32
0.0
 13
1.0
 23
0.0
 33
0.0
 40
0.0
 40
0.0
 40
0.0
 40
0.0
 40
0.1250514946192908
 40
0.1250514946192908
 40
0.1250514946192908
 40
0.7654722914695266
 40
0.7654722914695266
 40
0.7654722914695266
 40
1.0
 40
1.0
 40
1.0
 40
1.0
 10
-13.74000000000001
 20
-5.516736847512635
 30
0.0
 10
-13.01887246649223
 20
-5.610434487439268
 30
0.0
 10
-12.29774445179643
 20
-5.704128966373829
 30
0.0
 10
-11.57661602176744
 20
-5.797820716662374
 30
0.0
 10
-7.883532263454969
 20
-6.277640214646361
 30
0.0
 10
-4.190438006192576
 20
-6.757390739139401
 30
0.0
 10
-0.4973384253410262
 20
-7.237106277160653
 30
0.0
 10
0.8551070079515811
 20
-7.412782311470769
 30
0.0
 10
2.207553197311543
 20
-7.588453377634735
 30
0.0
 10
3.56
 20
-7.764120413275911
 30
0.0
  0
ARC
  5
E7
330
1F
100
AcDbEntity
  8
SK1
  6
Continuous
100
AcDbCircle
 10
3.7527233814
 20
-6.4780216899
 30
0.0
 40
0.1928842263025288
100
AcDbArc
 50
87.8379855158
 51
177.6599609976
  0
LINE
  5
E8
330
1F
100
AcDbEntity
  8
SK1
  6
Continuous
100
AcDbLine
 10
3.76
 20
-6.2852747688
 30
0.0
 11
6.06
 21
-6.2852747688
 31
0.0
  0
ARC
  5
E9
330
1F
100
AcDbEntity
  8
SK1
  6
Continuous
100
AcDbCircle
 10
6.0672676631
 20
-6.4780313783
 30
0.0
 40
0.1928935701247846
100
AcDbArc
 50
2.3428057496
 51
92.1592477363
  0
SPLINE
  5
EA
330
1F
100
AcDbEntity
  8
SK1
  6
Continuous
100
AcDbSpline
210
0.0
220
0.0
230
1.0
 70
     8
 71
     3
 72
     8
 73
     4
 74
     0
 42
0.0000000022767429
 43
0.0000000001
 12
1.0
 22
0.0
 32
0.0
 13
1.0
 23
0.0
 33
0.0
 40
0.0
 40
0.0
 40
0.0
 40
0.0
 40
1.0
 40
1.0
 40
1.0
 40
1.0
 10
6.260000000000002
 20
-7.879645248821105
 30
0.0
 10
7.551705218583284
 20
-7.190412415306461
 30
0.0
 10
8.843385412416609
 20
-6.501139539000845
 30
0.0
 10
10.13500000000006
 20
-5.811761821511996
 30
0.0
  0
ARC
  5
EB
330
1F
100
AcDbEntity
  8
SK1
  6
Continuous
100
AcDbCircle
 10
10.0315105591
 20
-5.6080212482
 30
0.0
 40
0.228517582725335
100
AcDbArc
 50
296.9281619501
 51
359.100795991
  0
ARC
  5
EC
330
1F
100
AcDbEntity
  8
SK3
100
AcDbCircle
 10
97.728887061
 20
92.3069979927
 30
0.0
 40
128.0677202717966
100
AcDbArc
 50
226.7996932678
 51
226.9223158419
  0
LINE
  5
ED
330
1F
100
AcDbEntity
  8
SK3
100
AcDbLine
 10
10.06
 20
-1.0498829379
 30
0.0
 11
-7.04
 21
-1.0498829379
 31
0.0
  0
ARC
  5
EE
330
1F
100
AcDbEntity
  8
SK3
100
AcDbCircle
 10
-94.7082962492
 20
92.3063674981
 30
0.0
 40
128.0668562225206
100
AcDbArc
 50
313.0776837445
 51
313.2003071459
  0
LINE
  5
EF
330
1F
100
AcDbEntity
  8
SK3
100
AcDbLine
 10
-8.04
 20
-3.3722025653
 30
0.0
 11
-13.74
 21
-3.3722025653
 31
0.0
  0
LINE
  5
F0
330
1F
100
AcDbEntity
  8
SK3
100
AcDbLine
 10
-7.24
 20
-2.8036093747
 30
0.0
 11
-7.24
 21
-2.9499999002
 31
0.0
  0
LINE
  5
F1
330
1F
100
AcDbEntity
  8
SK3
100
AcDbLine
 10
-7.04
 20
-1.2499999002
 30
0.0
 11
-7.04
 21
-1.2220904825
 31
0.0
  0
LINE
  5
F2
330
1F
100
AcDbEntity
  8
SK3
100
AcDbLine
 10
10.06
 20
-1.2499999002
 30
0.0
 11
10.06
 21
-1.2220904825
 31
0.0
  0
LINE
  5
F3
330
1F
100
AcDbEntity
  8
SK1
  6
Continuous
100
AcDbLine
 10
10.135
 20
-6.3877676071
 30
0.0
 11
10.135
 21
-5.9839693661
 31
0.0
  0
LINE
  5
F4
330
1F
100
AcDbEntity
  8
SK1
  6
Continuous
100
AcDbLine
 10
10.26
 20
-6.1712612562
 30
0.0
 11
10.26
 21
-5.7838150166
 31
0.0
  0
LINE
  5
F5
330
1F
100
AcDbEntity
  8
SK3
100
AcDbLine
 10
-17.24
 20
-4.2058660356
 30
0.0
 11
-16.44
 21
-3.7432438143
 31
0.0
  0
LINE
  5
F6
330
1F
100
AcDbEntity
  8
SK1
  6
Continuous
100
AcDbLine
 10
6.26
 20
-8.6220646181
 30
0.0
 11
6.26
 21
-8.0518527934
 31
0.0
  0
LINE
  5
F7
330
1F
100
AcDbEntity
  8
SK1
  6
Continuous
100
AcDbLine
 10
8.46
 20
-7.354829308
 30
0.0
 11
8.46
 21
-7.3513868862
 31
0.0
  0
LINE
  5
F8
330
1F
100
AcDbEntity
  8
SK1
  6
Continuous
100
AcDbLine
 10
6.06
 20
-6.8963304463
 30
0.0
 11
6.06
 21
-6.4574823134
 31
0.0
  0
LINE
  5
F9
330
1F
100
AcDbEntity
  8
SK1
  6
Continuous
100
AcDbLine
 10
3.76
 20
-6.8963304463
 30
0.0
 11
3.76
 21
-6.4574823134
 31
0.0
  0
LINE
  5
FA
330
1F
100
AcDbEntity
  8
SK1
  6
Continuous
100
AcDbLine
 10
3.56
 20
-8.4970214372
 30
0.0
 11
3.56
 21
-7.9363279578
 31
0.0
  0
LINE
  5
FB
330
1F
100
AcDbEntity
  8
SK3
100
AcDbLine
 10
8.46
 20
-7.3513868862
 30
0.0
 11
8.46
 21
-5.3573145149
 31
0.0
  0
LINE
  5
FC
330
1F
100
AcDbEntity
  8
SK1
  6
Continuous
100
AcDbLine
 10
8.46
 20
-7.3513868862
 30
0.0
 11
6.26
 21
-8.6220646181
 31
0.0
  0
ARC
  5
FD
330
1F
100
AcDbEntity
  8
SK1
  6
Continuous
100
AcDbCircle
 10
6.0599471883
 20
-7.0963832573
 30
0.0
 40
0.2000528180609313
100
AcDbArc
 50
359.9855061315
 51
89.9848745691
  0
LINE
  5
FE
330
1F
100
AcDbEntity
  8
SK1
  6
Continuous
100
AcDbLine
 10
6.06
 20
-6.8963304463
 30
0.0
 11
3.76
 21
-6.8963304463
 31
0.0
  0
ARC
  5
FF
330
1F
100
AcDbEntity
  8
SK1
  6
Continuous
100
AcDbCircle
 10
3.7600528091
 20
-7.0963832548
 30
0.0
 40
0.2000528155079619
100
AcDbArc
 50
90.0151247007
 51
180.0144945998
  0
SPLINE
  5
100
330
1F
100
AcDbEntity
  8
SK1
  6
Continuous
100
AcDbSpline
210
0.0
220
0.0
230
1.0
 70
     8
 71
     3
 72
    11
 73
     7
 74
     0
 42
0.0000000004830526
 43
0.0000000001
 12
1.0
 22
0.0
 32
0.0
 13
1.0
 23
0.0
 33
0.0
 40
0.0
 40
0.0
 40
0.0
 40
0.0
 40
0.7208571485875953
 40
0.7208571485875953
 40
0.7208571485875953
 40
1.0
 40
1.0
 40
1.0
 40
1.0
 10
3.56
 20
-8.497021437215079
 30
0.0
 10
-1.365874353970665
 20
-7.804492276517007
 30
0.0
 10
-6.29174138772718
 20
-7.11191103756503
 30
0.0
 10
-11.21759058285812
 20
-6.419202948720281
 30
0.0
 10
-13.12506364162397
 20
-6.150960466111064
 30
0.0
 10
-15.03253391397663
 20
-5.882698167688641
 30
0.0
 10
-16.94
 20
-5.614406106560129
 30
0.0
  0
LINE
  5
101
330
1F
100
AcDbEntity
  8
SK1
  6
Continuous
100
AcDbLine
 10
-16.94
 20
-5.6144061066
 30
0.0
 11
-17.24
 21
-5.3141516968
 31
0.0
  0
LINE
  5
102
330
1F
100
AcDbEntity
  8
SK3
100
AcDbLine
 10
-16.44
 20
-3.7432438143
 30
0.0
 11
-8.04
 21
-3.7432438143
 31
0.0
  0
SPLINE
  5
103
330
1F
100
AcDbEntity
  8
SK3
100
AcDbSpline
210
0.0
220
0.0
230
1.0
 70
     8
 71
     3
 72
     8
 73
     4
 74
     0
 42
0.0000000152086378
 43
0.0000000001
 12
1.0
 22
0.0
 32
0.0
 13
1.0
 23
0.0
 33
0.0
 40
0.0
 40
0.0
 40
0.0
 40
0.0
 40
1.0
 40
1.0
 40
1.0
 40
1.0
 10
-8.04
 20
-3.743243814269646
 30
0.0
 10
-7.824761472822919
 20
-3.743243814269648
 30
0.0
 10
-7.615739538703585
 20
-3.654593707471514
 30
0.0
 10
-7.465978529139893
 20
-3.499999900229309
 30
0.0
  0
LINE
  5
104
330
1F
100
AcDbEntity
  8
SK3
100
AcDbLine
 10
8.46
 20
-3.4999999002
 30
0.0
 11
-7.4659785291
 21
-3.4999999002
 31
0.0
  0
LINE
  5
105
330
1F
100
AcDbEntity
  8
SK3
100
AcDbLine
 10
-16.44
 20
-2.4877740297
 30
0.0
 11
-16.44
 21
-0.2249999002
 31
0.0
  0
LINE
  5
106
330
1F
100
AcDbEntity
  8
SK3
100
AcDbLine
 10
-17.24
 20
-3.1330953911
 30
0.0
 11
-16.44
 21
-2.8059720812
 31
0.0
  0
LINE
  5
107
330
1F
100
AcDbEntity
  8
SK3
100
AcDbLine
 10
-17.24
 20
-2.8148973395
 30
0.0
 11
-16.44
 21
-2.4877740297
 31
0.0
  0
LINE
  5
108
330
1F
100
AcDbEntity
  8
SK1
  6
Continuous
100
AcDbLine
 10
-16.94
 20
-3.8108855753
 30
0.0
 11
-16.94
 21
-0.2249999002
 31
0.0
  0
LINE
  5
109
330
1F
100
AcDbEntity
  8
SK1
  6
Continuous
100
AcDbLine
 10
-17.24
 20
-3.598573646
 30
0.0
 11
-17.24
 21
-0.2249999002
 31
0.0
  0
LINE
  5
10A
330
1F
100
AcDbEntity
  8
SK3
100
AcDbLine
 10
-7.4659785291
 20
-2.6339726601
 30
0.0
 11
-7.4659785291
 21
-2.3157746086
 31
0.0
  0
LINE
  5
10B
330
1F
100
AcDbEntity
  8
SK1
  6
Continuous
100
AcDbLine
 10
6.26
 20
-5.9376213043
 30
0.0
 11
6.26
 21
-3.5073941154
 31
0.0
  0
LINE
  5
10C
330
1F
100
AcDbEntity
  8
SK1
  6
Continuous
100
AcDbLine
 10
8.46
 20
-5.0391164634
 30
0.0
 11
8.46
 21
-5.3573145149
 31
0.0
  0
LINE
  5
10D
330
1F
100
AcDbEntity
  8
SK1
  6
Continuous
100
AcDbLine
 10
6.06
 20
-4.7173429689
 30
0.0
 11
6.06
 21
-2.8469842391
 31
0.0
  0
LINE
  5
10E
330
1F
100
AcDbEntity
  8
SK1
  6
Continuous
100
AcDbLine
 10
3.76
 20
-4.7173429689
 30
0.0
 11
3.76
 21
-2.8469842391
 31
0.0
  0
LINE
  5
10F
330
1F
100
AcDbEntity
  8
SK1
  6
Continuous
100
AcDbLine
 10
3.56
 20
-5.8492024232
 30
0.0
 11
3.56
 21
-3.4595421617
 31
0.0
  0
LINE
  5
110
330
1F
100
AcDbEntity
  8
SK3
100
AcDbLine
 10
8.46
 20
-5.0391164634
 30
0.0
 11
8.46
 21
-2.3157746086
 31
0.0
  0
LINE
  5
111
330
1F
100
AcDbEntity
  8
SK1
  6
Continuous
100
AcDbLine
 10
8.46
 20
-5.0391164634
 30
0.0
 11
6.26
 21
-5.9376213043
 31
0.0
  0
SPLINE
  5
112
330
1F
100
AcDbEntity
  8
SK1
  6
Continuous
100
AcDbSpline
210
0.0
220
0.0
230
1.0
 70
     8
 71
     3
 72
    10
 73
     6
 74
     0
 42
0.0000000360951347
 43
0.0000000001
 12
1.0
 22
0.0
 32
0.0
 13
1.0
 23
0.0
 33
0.0
 40
0.0
 40
0.0
 40
0.0
 40
0.0
 40
0.5
 40
0.5
 40
1.0
 40
1.0
 40
1.0
 40
1.0
 10
6.260000000002357
 20
-4.858837452379404
 30
0.0
 10
6.259999999999898
 20
-4.821951911646968
 30
0.0
 10
6.238796194129152
 20
-4.785255031447779
 30
0.0
 10
6.164191088386487
 20
-4.732419659226781
 30
0.0
 10
6.112835410550239
 20
-4.717342968857858
 30
0.0
 10
6.059999999998948
 20
-4.717342968858618
 30
0.0
  0
LINE
  5
113
330
1F
100
AcDbEntity
  8
SK1
  6
Continuous
100
AcDbLine
 10
6.06
 20
-4.7173429689
 30
0.0
 11
3.76
 21
-4.7173429689
 31
0.0
  0
SPLINE
  5
114
330
1F
100
AcDbEntity
  8
SK1
  6
Continuous
100
AcDbSpline
210
0.0
220
0.0
230
1.0
 70
     8
 71
     3
 72
    10
 73
     6
 74
     0
 42
0.0000000361037498
 43
0.0000000001
 12
1.0
 22
0.0
 32
0.0
 13
1.0
 23
0.0
 33
0.0
 40
0.0
 40
0.0
 40
0.0
 40
0.0
 40
0.5
 40
0.5
 40
1.0
 40
1.0
 40
1.0
 40
1.0
 10
3.759999999999999
 20
-4.717342968858618
 30
0.0
 10
3.707124946906952
 20
-4.717342968858617
 30
0.0
 10
3.655406322486503
 20
-4.732706584373195
 30
0.0
 10
3.581616193602535
 20
-4.784961167165259
 30
0.0
 10
3.559999999999993
 20
-4.82191993936696
 30
0.0
 10
3.56
 20
-4.858837452379598
 30
0.0
  0
SPLINE
  5
115
330
1F
100
AcDbEntity
  8
SK1
  6
Continuous
100
AcDbSpline
210
0.0
220
0.0
230
1.0
 70
     8
 71
     3
 72
    11
 73
     7
 74
     0
 42
0.0000000004854113
 43
0.0000000001
 12
1.0
 22
0.0
 32
0.0
 13
1.0
 23
0.0
 33
0.0
 40
0.0
 40
0.0
 40
0.0
 40
0.0
 40
0.7208571485875953
 40
0.7208571485875953
 40
0.7208571485875953
 40
1.0
 40
1.0
 40
1.0
 40
1.0
 10
3.56
 20
-5.849202423153113
 30
0.0
 10
-1.365874353970665
 20
-5.359510357454077
 30
0.0
 10
-6.29174138772718
 20
-4.869781466868555
 30
0.0
 10
-11.21759058285812
 20
-4.37996287986366
 30
0.0
 10
-13.12506364162397
 20
-4.190286801408369
 30
0.0
 10
-15.03253391397663
 20
-4.000596711057183
 30
0.0
 10
-16.94
 20
-3.810885575294697
 30
0.0
  0
LINE
  5
116
330
1F
100
AcDbEntity
  8
SK1
  6
Continuous
100
AcDbLine
 10
-16.94
 20
-3.8108855753
 30
0.0
 11
-17.24
 21
-3.598573646
 31
0.0
  0
LINE
  5
117
330
1F
100
AcDbEntity
  8
SK3
100
AcDbLine
 10
-16.44
 20
-2.4877740297
 30
0.0
 11
-8.04
 21
-2.4877740297
 31
0.0
  0
ARC
  5
118
330
1F
100
AcDbEntity
  8
SK3
100
AcDbCircle
 10
-8.0231387623
 20
-1.5001921449
 30
0.0
 40
0.987725812465816
100
AcDbArc
 50
269.0218695603
 51
304.338700183
  0
LINE
  5
119
330
1F
100
AcDbEntity
  8
SK3
100
AcDbLine
 10
8.46
 20
-2.6339726601
 30
0.0
 11
-7.4659785291
 21
-2.6339726601
 31
0.0
  0
LINE
  5
11A
330
1F
100
AcDbEntity
  8
SK3
100
AcDbLine
 10
8.46
 20
-2.3157746086
 30
0.0
 11
-7.4659785291
 21
-2.3157746086
 31
0.0
  0
LINE
  5
11B
330
1F
100
AcDbEntity
  8
SK1
  6
Continuous
100
AcDbLine
 10
8.46
 20
-5.3573145149
 30
0.0
 11
6.26
 21
-6.2558193559
 31
0.0
  0
LINE
  5
11C
330
1F
100
AcDbEntity
  8
SK1
  6
Continuous
100
AcDbLine
 10
6.26
 20
-6.2558193559
 30
0.0
 11
6.26
 21
-5.9376213043
 31
0.0
  0
SPLINE
  5
11D
330
1F
100
AcDbEntity
  8
SK1
  6
Continuous
100
AcDbSpline
210
0.0
220
0.0
230
1.0
 70
     8
 71
     3
 72
    10
 73
     6
 74
     0
 42
0.0000000360951347
 43
0.0000000001
 12
1.0
 22
0.0
 32
0.0
 13
1.0
 23
0.0
 33
0.0
 40
0.0
 40
0.0
 40
0.0
 40
0.0
 40
0.5
 40
0.5
 40
1.0
 40
1.0
 40
1.0
 40
1.0
 10
6.260000000002357
 20
-5.17703550391335
 30
0.0
 10
6.259999999999898
 20
-5.140149963180915
 30
0.0
 10
6.238796194129152
 20
-5.103453082981725
 30
0.0
 10
6.164191088386488
 20
-5.050617710760725
 30
0.0
 10
6.112835410550239
 20
-5.035541020391802
 30
0.0
 10
6.059999999998948
 20
-5.035541020392563
 30
0.0
  0
LINE
  5
11E
330
1F
100
AcDbEntity
  8
SK1
  6
Continuous
100
AcDbLine
 10
6.06
 20
-5.0355410204
 30
0.0
 11
3.76
 21
-5.0355410204
 31
0.0
  0
SPLINE
  5
11F
330
1F
100
AcDbEntity
  8
SK1
  6
Continuous
100
AcDbSpline
210
0.0
220
0.0
230
1.0
 70
     8
 71
     3
 72
    10
 73
     6
 74
     0
 42
0.0000000361037498
 43
0.0000000001
 12
1.0
 22
0.0
 32
0.0
 13
1.0
 23
0.0
 33
0.0
 40
0.0
 40
0.0
 40
0.0
 40
0.0
 40
0.5
 40
0.5
 40
1.0
 40
1.0
 40
1.0
 40
1.0
 10
3.759999999999999
 20
-5.035541020392563
 30
0.0
 10
3.707124946906952
 20
-5.035541020392563
 30
0.0
 10
3.655406322486504
 20
-5.050904635907141
 30
0.0
 10
3.581616193602537
 20
-5.103159218699206
 30
0.0
 10
3.559999999999995
 20
-5.140117990900906
 30
0.0
 10
3.56
 20
-5.177035503913543
 30
0.0
  0
LINE
  5
120
330
1F
100
AcDbEntity
  8
SK1
  6
Continuous
100
AcDbLine
 10
3.56
 20
-5.8492024232
 30
0.0
 11
3.56
 21
-6.1674004747
 31
0.0
  0
SPLINE
  5
121
330
1F
100
AcDbEntity
  8
SK1
  6
Continuous
100
AcDbSpline
210
0.0
220
0.0
230
1.0
 70
     8
 71
     3
 72
    11
 73
     7
 74
     0
 42
0.0000000004854113
 43
0.0000000001
 12
1.0
 22
0.0
 32
0.0
 13
1.0
 23
0.0
 33
0.0
 40
0.0
 40
0.0
 40
0.0
 40
0.0
 40
0.7208571485875953
 40
0.7208571485875953
 40
0.7208571485875953
 40
1.0
 40
1.0
 40
1.0
 40
1.0
 10
3.56
 20
-6.167400474687059
 30
0.0
 10
-1.365874353970665
 20
-5.677708408988024
 30
0.0
 10
-6.29174138772718
 20
-5.187979518402502
 30
0.0
 10
-11.21759058285812
 20
-4.698160931397607
 30
0.0
 10
-13.12506364162397
 20
-4.508484852942314
 30
0.0
 10
-15.03253391397663
 20
-4.31879476259113
 30
0.0
 10
-16.94
 20
-4.129083626828644
 30
0.0
  0
LINE
  5
122
330
1F
100
AcDbEntity
  8
SK1
  6
Continuous
100
AcDbLine
 10
-16.94
 20
-4.1290836268
 30
0.0
 11
-17.24
 21
-3.9167716976
 31
0.0
  0
LINE
  5
123
330
1F
100
AcDbEntity
  8
SK1
  6
Continuous
100
AcDbLine
 10
-17.24
 20
-3.9167716976
 30
0.0
 11
-17.24
 21
-3.598573646
 31
0.0
  0
LINE
  5
124
330
1F
100
AcDbEntity
  8
SK3
100
AcDbLine
 10
-16.44
 20
-2.8059720812
 30
0.0
 11
-8.04
 21
-2.8059720812
 31
0.0
  0
ARC
  5
125
330
1F
100
AcDbEntity
  8
SK3
100
AcDbCircle
 10
-8.0231387623
 20
-1.8183901964
 30
0.0
 40
0.9877258124658133
100
AcDbArc
 50
269.0218695603
 51
304.338700183
  0
LINE
  5
126
330
1F
100
AcDbEntity
  8
SK3
100
AcDbLine
 10
-16.44
 20
0.2250000998
 30
0.0
 11
-16.44
 21
2.4877742293
 31
0.0
  0
LINE
  5
127
330
1F
100
AcDbEntity
  8
SK1
  6
Continuous
100
AcDbLine
 10
-16.94
 20
0.2250000998
 30
0.0
 11
-16.94
 21
3.8108857748
 31
0.0
  0
LINE
  5
128
330
1F
100
AcDbEntity
  8
SK1
  6
Continuous
100
AcDbLine
 10
-17.24
 20
0.2250000998
 30
0.0
 11
-17.24
 21
3.5985738456
 31
0.0
  0
LINE
  5
129
330
1F
100
AcDbEntity
  8
SK1
  6
Continuous
100
AcDbLine
 10
-7.4659785291
 20
-0.2249999002
 30
0.0
 11
-7.4659785291
 21
0.2250000998
 31
0.0
  0
LINE
  5
12A
330
1F
100
AcDbEntity
  8
SK1
  6
Continuous
100
AcDbLine
 10
6.26
 20
0.2250000998
 30
0.0
 11
6.26
 21
3.0916485253
 31
0.0
  0
LINE
  5
12B
330
1F
100
AcDbEntity
  8
SK1
  6
Continuous
100
AcDbLine
 10
8.46
 20
0.2250000998
 30
0.0
 11
8.46
 21
-0.2249999002
 31
0.0
  0
LINE
  5
12C
330
1F
100
AcDbEntity
  8
SK1
  6
Continuous
100
AcDbLine
 10
6.06
 20
0.2250000998
 30
0.0
 11
6.06
 21
2.431238649
 31
0.0
  0
LINE
  5
12D
330
1F
100
AcDbEntity
  8
SK1
  6
Continuous
100
AcDbLine
 10
3.76
 20
0.2250000998
 30
0.0
 11
3.76
 21
2.431238649
 31
0.0
  0
LINE
  5
12E
330
1F
100
AcDbEntity
  8
SK1
  6
Continuous
100
AcDbLine
 10
3.56
 20
0.2250000998
 30
0.0
 11
3.56
 21
3.0437965716
 31
0.0
  0
LINE
  5
12F
330
1F
100
AcDbEntity
  8
SK1
  6
Continuous
100
AcDbLine
 10
8.46
 20
0.2250000998
 30
0.0
 11
6.26
 21
0.2250000998
 31
0.0
  0
LINE
  5
130
330
1F
100
AcDbEntity
  8
SK1
  6
Continuous
100
AcDbLine
 10
6.26
 20
0.2250000998
 30
0.0
 11
6.06
 21
0.2250000998
 31
0.0
  0
LINE
  5
131
330
1F
100
AcDbEntity
  8
SK1
  6
Continuous
100
AcDbLine
 10
6.06
 20
0.2250000998
 30
0.0
 11
3.76
 21
0.2250000998
 31
0.0
  0
LINE
  5
132
330
1F
100
AcDbEntity
  8
SK1
  6
Continuous
100
AcDbLine
 10
3.76
 20
0.2250000998
 30
0.0
 11
3.56
 21
0.2250000998
 31
0.0
  0
LINE
  5
133
330
1F
100
AcDbEntity
  8
SK1
  6
Continuous
100
AcDbLine
 10
3.56
 20
0.2250000998
 30
0.0
 11
-16.94
 21
0.2250000998
 31
0.0
  0
LINE
  5
134
330
1F
100
AcDbEntity
  8
SK1
  6
Continuous
100
AcDbLine
 10
-16.94
 20
0.2250000998
 30
0.0
 11
-17.24
 21
0.2250000998
 31
0.0
  0
LINE
  5
135
330
1F
100
AcDbEntity
  8
SK1
  6
Continuous
100
AcDbLine
 10
8.46
 20
-0.2249999002
 30
0.0
 11
6.26
 21
-0.2249999002
 31
0.0
  0
LINE
  5
136
330
1F
100
AcDbEntity
  8
SK1
  6
Continuous
100
AcDbLine
 10
6.26
 20
-0.2249999002
 30
0.0
 11
6.06
 21
-0.2249999002
 31
0.0
  0
LINE
  5
137
330
1F
100
AcDbEntity
  8
SK1
  6
Continuous
100
AcDbLine
 10
6.06
 20
-0.2249999002
 30
0.0
 11
3.76
 21
-0.2249999002
 31
0.0
  0
LINE
  5
138
330
1F
100
AcDbEntity
  8
SK1
  6
Continuous
100
AcDbLine
 10
3.76
 20
-0.2249999002
 30
0.0
 11
3.56
 21
-0.2249999002
 31
0.0
  0
LINE
  5
139
330
1F
100
AcDbEntity
  8
SK1
  6
Continuous
100
AcDbLine
 10
3.56
 20
-0.2249999002
 30
0.0
 11
-16.94
 21
-0.2249999002
 31
0.0
  0
LINE
  5
13A
330
1F
100
AcDbEntity
  8
SK1
  6
Continuous
100
AcDbLine
 10
-16.94
 20
-0.2249999002
 30
0.0
 11
-17.24
 21
-0.2249999002
 31
0.0
  0
LINE
  5
13B
330
1F
100
AcDbEntity
  8
SK3
100
AcDbLine
 10
-16.44
 20
2.8059722808
 30
0.0
 11
-16.44
 21
3.7432440138
 31
0.0
  0
LINE
  5
13C
330
1F
100
AcDbEntity
  8
SK3
100
AcDbLine
 10
-17.24
 20
2.8148975391
 30
0.0
 11
-16.44
 21
2.4877742293
 31
0.0
  0
LINE
  5
13D
330
1F
100
AcDbEntity
  8
SK3
100
AcDbLine
 10
-17.24
 20
3.1330955906
 30
0.0
 11
-16.44
 21
2.8059722808
 31
0.0
  0
LINE
  5
13E
330
1F
100
AcDbEntity
  8
SK1
  6
Continuous
100
AcDbLine
 10
-16.94
 20
4.1290838264
 30
0.0
 11
-16.94
 21
5.6144063061
 31
0.0
  0
LINE
  5
13F
330
1F
100
AcDbEntity
  8
SK1
  6
Continuous
100
AcDbLine
 10
-17.24
 20
3.9167718971
 30
0.0
 11
-17.24
 21
5.3141518963
 31
0.0
  0
LINE
  5
140
330
1F
100
AcDbEntity
  8
SK3
100
AcDbLine
 10
-7.4659785291
 20
2.3157748082
 30
0.0
 11
-7.4659785291
 21
2.6339728597
 31
0.0
  0
LINE
  5
141
330
1F
100
AcDbEntity
  8
SK1
  6
Continuous
100
AcDbLine
 10
6.26
 20
6.2558195554
 30
0.0
 11
6.26
 21
7.8796454484
 31
0.0
  0
LINE
  5
142
330
1F
100
AcDbEntity
  8
SK1
  6
Continuous
100
AcDbLine
 10
8.46
 20
5.3573147144
 30
0.0
 11
8.46
 21
5.0391166629
 31
0.0
  0
LINE
  5
143
330
1F
100
AcDbEntity
  8
SK1
  6
Continuous
100
AcDbLine
 10
6.06
 20
5.0355412199
 30
0.0
 11
6.06
 21
6.2852749684
 31
0.0
  0
LINE
  5
144
330
1F
100
AcDbEntity
  8
SK1
  6
Continuous
100
AcDbLine
 10
3.76
 20
5.0355412199
 30
0.0
 11
3.76
 21
6.2852749684
 31
0.0
  0
LINE
  5
145
330
1F
100
AcDbEntity
  8
SK1
  6
Continuous
100
AcDbLine
 10
3.56
 20
6.1674006742
 30
0.0
 11
3.56
 21
7.7641206128
 31
0.0
  0
LINE
  5
146
330
1F
100
AcDbEntity
  8
SK3
100
AcDbLine
 10
8.46
 20
5.0391166629
 30
0.0
 11
8.46
 21
2.3157748082
 31
0.0
  0
LINE
  5
147
330
1F
100
AcDbEntity
  8
SK1
  6
Continuous
100
AcDbLine
 10
8.46
 20
5.3573147144
 30
0.0
 11
6.26
 21
6.2558195554
 31
0.0
  0
LINE
  5
148
330
1F
100
AcDbEntity
  8
SK1
  6
Continuous
100
AcDbLine
 10
6.26
 20
6.2558195554
 30
0.0
 11
6.26
 21
5.9376215039
 31
0.0
  0
SPLINE
  5
149
330
1F
100
AcDbEntity
  8
SK1
  6
Continuous
100
AcDbSpline
210
0.0
220
0.0
230
1.0
 70
     8
 71
     3
 72
    10
 73
     6
 74
     0
 42
0.0000000360951347
 43
0.0000000001
 12
1.0
 22
0.0
 32
0.0
 13
1.0
 23
0.0
 33
0.0
 40
0.0
 40
0.0
 40
0.0
 40
0.0
 40
0.5
 40
0.5
 40
1.0
 40
1.0
 40
1.0
 40
1.0
 10
6.260000000002357
 20
5.177035703454732
 30
0.0
 10
6.259999999999898
 20
5.140150162722296
 30
0.0
 10
6.238796194129152
 20
5.103453282523106
 30
0.0
 10
6.164191088386487
 20
5.050617910302106
 30
0.0
 10
6.112835410550239
 20
5.035541219933184
 30
0.0
 10
6.059999999998948
 20
5.035541219933945
 30
0.0
  0
LINE
  5
14A
330
1F
100
AcDbEntity
  8
SK1
  6
Continuous
100
AcDbLine
 10
6.06
 20
5.0355412199
 30
0.0
 11
3.76
 21
5.0355412199
 31
0.0
  0
SPLINE
  5
14B
330
1F
100
AcDbEntity
  8
SK1
  6
Continuous
100
AcDbSpline
210
0.0
220
0.0
230
1.0
 70
     8
 71
     3
 72
    10
 73
     6
 74
     0
 42
0.0000000361037498
 43
0.0000000001
 12
1.0
 22
0.0
 32
0.0
 13
1.0
 23
0.0
 33
0.0
 40
0.0
 40
0.0
 40
0.0
 40
0.0
 40
0.5
 40
0.5
 40
1.0
 40
1.0
 40
1.0
 40
1.0
 10
3.759999999999999
 20
5.035541219933943
 30
0.0
 10
3.707124946906952
 20
5.035541219933943
 30
0.0
 10
3.655406322486503
 20
5.050904835448521
 30
0.0
 10
3.581616193602535
 20
5.103159418240589
 30
0.0
 10
3.559999999999993
 20
5.140118190442285
 30
0.0
 10
3.56
 20
5.177035703454925
 30
0.0
  0
LINE
  5
14C
330
1F
100
AcDbEntity
  8
SK1
  6
Continuous
100
AcDbLine
 10
3.56
 20
5.8492026227
 30
0.0
 11
3.56
 21
6.1674006742
 31
0.0
  0
SPLINE
  5
14D
330
1F
100
AcDbEntity
  8
SK1
  6
Continuous
100
AcDbSpline
210
0.0
220
0.0
230
1.0
 70
     8
 71
     3
 72
    11
 73
     7
 74
     0
 42
0.0000000004854113
 43
0.0000000001
 12
1.0
 22
0.0
 32
0.0
 13
1.0
 23
0.0
 33
0.0
 40
0.0
 40
0.0
 40
0.0
 40
0.0
 40
0.7208571485875953
 40
0.7208571485875953
 40
0.7208571485875953
 40
1.0
 40
1.0
 40
1.0
 40
1.0
 10
3.56
 20
6.16740067422844
 30
0.0
 10
-1.365874353970665
 20
5.677708608529405
 30
0.0
 10
-6.29174138772718
 20
5.187979717943882
 30
0.0
 10
-11.21759058285812
 20
4.698161130938988
 30
0.0
 10
-13.12506364162397
 20
4.508485052483695
 30
0.0
 10
-15.03253391397663
 20
4.31879496213251
 30
0.0
 10
-16.94
 20
4.129083826370024
 30
0.0
  0
LINE
  5
14E
330
1F
100
AcDbEntity
  8
SK1
  6
Continuous
100
AcDbLine
 10
-16.94
 20
4.1290838264
 30
0.0
 11
-17.24
 21
3.9167718971
 31
0.0
  0
LINE
  5
14F
330
1F
100
AcDbEntity
  8
SK1
  6
Continuous
100
AcDbLine
 10
-17.24
 20
3.9167718971
 30
0.0
 11
-17.24
 21
3.5985738456
 31
0.0
  0
LINE
  5
150
330
1F
100
AcDbEntity
  8
SK3
100
AcDbLine
 10
-16.44
 20
2.8059722808
 30
0.0
 11
-8.04
 21
2.8059722808
 31
0.0
  0
ARC
  5
151
330
1F
100
AcDbEntity
  8
SK3
100
AcDbCircle
 10
-8.0231387623
 20
1.8183903959
 30
0.0
 40
0.987725812465824
100
AcDbArc
 50
55.661299817
 51
90.9781304397
  0
LINE
  5
152
330
1F
100
AcDbEntity
  8
SK3
100
AcDbLine
 10
8.46
 20
2.3157748082
 30
0.0
 11
-7.4659785291
 21
2.3157748082
 31
0.0
  0
LINE
  5
153
330
1F
100
AcDbEntity
  8
SK3
100
AcDbLine
 10
8.46
 20
2.6339728597
 30
0.0
 11
-7.4659785291
 21
2.6339728597
 31
0.0
  0
LINE
  5
154
330
1F
100
AcDbEntity
  8
SK1
  6
Continuous
100
AcDbLine
 10
8.46
 20
5.0391166629
 30
0.0
 11
6.26
 21
5.9376215039
 31
0.0
  0
SPLINE
  5
155
330
1F
100
AcDbEntity
  8
SK1
  6
Continuous
100
AcDbSpline
210
0.0
220
0.0
230
1.0
 70
     8
 71
     3
 72
    10
 73
     6
 74
     0
 42
0.0000000360951347
 43
0.0000000001
 12
1.0
 22
0.0
 32
0.0
 13
1.0
 23
0.0
 33
0.0
 40
0.0
 40
0.0
 40
0.0
 40
0.0
 40
0.5
 40
0.5
 40
1.0
 40
1.0
 40
1.0
 40
1.0
 10
6.260000000002357
 20
4.858837651920785
 30
0.0
 10
6.259999999999898
 20
4.82195211118835
 30
0.0
 10
6.238796194129152
 20
4.785255230989158
 30
0.0
 10
6.164191088386488
 20
4.732419858768159
 30
0.0
 10
6.112835410550239
 20
4.717343168399237
 30
0.0
 10
6.059999999998948
 20
4.717343168399998
 30
0.0
  0
LINE
  5
156
330
1F
100
AcDbEntity
  8
SK1
  6
Continuous
100
AcDbLine
 10
6.06
 20
4.7173431684
 30
0.0
 11
3.76
 21
4.7173431684
 31
0.0
  0
SPLINE
  5
157
330
1F
100
AcDbEntity
  8
SK1
  6
Continuous
100
AcDbSpline
210
0.0
220
0.0
230
1.0
 70
     8
 71
     3
 72
    10
 73
     6
 74
     0
 42
0.0000000361037498
 43
0.0000000001
 12
1.0
 22
0.0
 32
0.0
 13
1.0
 23
0.0
 33
0.0
 40
0.0
 40
0.0
 40
0.0
 40
0.0
 40
0.5
 40
0.5
 40
1.0
 40
1.0
 40
1.0
 40
1.0
 10
3.759999999999999
 20
4.717343168399998
 30
0.0
 10
3.707124946906953
 20
4.717343168399997
 30
0.0
 10
3.655406322486504
 20
4.732706783914574
 30
0.0
 10
3.581616193602537
 20
4.784961366706641
 30
0.0
 10
3.559999999999995
 20
4.82192013890834
 30
0.0
 10
3.56
 20
4.858837651920978
 30
0.0
  0
SPLINE
  5
158
330
1F
100
AcDbEntity
  8
SK1
  6
Continuous
100
AcDbSpline
210
0.0
220
0.0
230
1.0
 70
     8
 71
     3
 72
    11
 73
     7
 74
     0
 42
0.0000000004854113
 43
0.0000000001
 12
1.0
 22
0.0
 32
0.0
 13
1.0
 23
0.0
 33
0.0
 40
0.0
 40
0.0
 40
0.0
 40
0.0
 40
0.7208571485875953
 40
0.7208571485875953
 40
0.7208571485875953
 40
1.0
 40
1.0
 40
1.0
 40
1.0
 10
3.56
 20
5.849202622694492
 30
0.0
 10
-1.365874353970665
 20
5.359510556995458
 30
0.0
 10
-6.29174138772718
 20
4.869781666409936
 30
0.0
 10
-11.21759058285812
 20
4.379963079405041
 30
0.0
 10
-13.12506364162397
 20
4.190287000949749
 30
0.0
 10
-15.03253391397663
 20
4.000596910598563
 30
0.0
 10
-16.94
 20
3.810885774836078
 30
0.0
  0
LINE
  5
159
330
1F
100
AcDbEntity
  8
SK1
  6
Continuous
100
AcDbLine
 10
-16.94
 20
3.8108857748
 30
0.0
 11
-17.24
 21
3.5985738456
 31
0.0
  0
LINE
  5
15A
330
1F
100
AcDbEntity
  8
SK3
100
AcDbLine
 10
-16.44
 20
2.4877742293
 30
0.0
 11
-8.04
 21
2.4877742293
 31
0.0
  0
ARC
  5
15B
330
1F
100
AcDbEntity
  8
SK3
100
AcDbCircle
 10
-8.0231387623
 20
1.5001923443
 30
0.0
 40
0.9877258125284419
100
AcDbArc
 50
55.6612998181
 51
90.9781304393
  0
LINE
  5
15C
330
1F
100
AcDbEntity
  8
SK3
100
AcDbLine
 10
-17.24
 20
4.2058662351
 30
0.0
 11
-16.44
 21
3.7432440138
 31
0.0
  0
LINE
  5
15D
330
1F
100
AcDbEntity
  8
SK1
  6
Continuous
100
AcDbLine
 10
8.46
 20
7.3513870857
 30
0.0
 11
8.46
 21
7.3548295076
 31
0.0
  0
LINE
  5
15E
330
1F
100
AcDbEntity
  8
SK3
100
AcDbLine
 10
8.46
 20
7.3513870857
 30
0.0
 11
8.46
 21
5.3573147144
 31
0.0
  0
LINE
  5
15F
330
1F
100
AcDbEntity
  8
SK3
100
AcDbLine
 10
8.46
 20
3.5000000998
 30
0.0
 11
-7.4659785291
 21
3.5000000998
 31
0.0
  0
LINE
  5
160
330
1F
100
AcDbEntity
  8
SK1
  6
Continuous
100
AcDbLine
 10
8.46
 20
7.3513870857
 30
0.0
 11
6.26
 21
8.6220648177
 31
0.0
  0
ARC
  5
161
330
1F
100
AcDbEntity
  8
SK1
  6
Continuous
100
AcDbCircle
 10
6.0599471883
 20
7.0963834569
 30
0.0
 40
0.2000528180609303
100
AcDbArc
 50
270.0151254309
 51
0.0144938685
  0
LINE
  5
162
330
1F
100
AcDbEntity
  8
SK1
  6
Continuous
100
AcDbLine
 10
6.06
 20
6.8963306458
 30
0.0
 11
3.76
 21
6.8963306458
 31
0.0
  0
ARC
  5
163
330
1F
100
AcDbEntity
  8
SK1
  6
Continuous
100
AcDbCircle
 10
3.7600528091
 20
7.0963834543
 30
0.0
 40
0.2000528155079573
100
AcDbArc
 50
179.9855054002
 51
269.9848752993
  0
SPLINE
  5
164
330
1F
100
AcDbEntity
  8
SK1
  6
Continuous
100
AcDbSpline
210
0.0
220
0.0
230
1.0
 70
     8
 71
     3
 72
    11
 73
     7
 74
     0
 42
0.0000000004830526
 43
0.0000000001
 12
1.0
 22
0.0
 32
0.0
 13
1.0
 23
0.0
 33
0.0
 40
0.0
 40
0.0
 40
0.0
 40
0.0
 40
0.7208571485875953
 40
0.7208571485875953
 40
0.7208571485875953
 40
1.0
 40
1.0
 40
1.0
 40
1.0
 10
3.56
 20
8.497021636756463
 30
0.0
 10
-1.365874353970665
 20
7.80449247605839
 30
0.0
 10
-6.29174138772718
 20
7.111911237106414
 30
0.0
 10
-11.21759058285812
 20
6.419203148261665
 30
0.0
 10
-13.12506364162397
 20
6.150960665652447
 30
0.0
 10
-15.03253391397663
 20
5.882698367230025
 30
0.0
 10
-16.94
 20
5.614406306101513
 30
0.0
  0
LINE
  5
165
330
1F
100
AcDbEntity
  8
SK1
  6
Continuous
100
AcDbLine
 10
-16.94
 20
5.6144063061
 30
0.0
 11
-17.24
 21
5.3141518963
 31
0.0
  0
LINE
  5
166
330
1F
100
AcDbEntity
  8
SK3
100
AcDbLine
 10
-16.44
 20
3.7432440138
 30
0.0
 11
-8.04
 21
3.7432440138
 31
0.0
  0
SPLINE
  5
167
330
1F
100
AcDbEntity
  8
SK3
100
AcDbSpline
210
0.0
220
0.0
230
1.0
 70
     8
 71
     3
 72
     8
 73
     4
 74
     0
 42
0.0000000152086378
 43
0.0000000001
 12
1.0
 22
0.0
 32
0.0
 13
1.0
 23
0.0
 33
0.0
 40
0.0
 40
0.0
 40
0.0
 40
0.0
 40
1.0
 40
1.0
 40
1.0
 40
1.0
 10
-8.04
 20
3.743244013811029
 30
0.0
 10
-7.824761472822919
 20
3.743244013811031
 30
0.0
 10
-7.615739538703589
 20
3.654593907012899
 30
0.0
 10
-7.465978529139897
 20
3.500000099770695
 30
0.0
  0
LINE
  5
168
330
1F
100
AcDbEntity
  8
SK3
100
AcDbLine
 10
-7.4659785291
 20
2.6339728597
 30
0.0
 11
-7.4659785291
 21
2.3157748082
 31
0.0
  0
ARC
  5
169
330
1F
100
AcDbEntity
  8
SK3
100
AcDbCircle
 10
-8.04
 20
2.9500000998
 30
0.0
 40
0.7999999999999952
100
AcDbArc
 50
0.0
 51
43.7738470122
  0
LINE
  5
16A
330
1F
100
AcDbEntity
  8
SK3
100
AcDbLine
 10
-7.04
 20
1.2500000998
 30
0.0
 11
-7.24
 21
1.4500000998
 31
0.0
  0
LINE
  5
16B
330
1F
100
AcDbEntity
  8
SK3
100
AcDbLine
 10
10.06
 20
1.2500000998
 30
0.0
 11
-7.04
 21
1.2500000998
 31
0.0
  0
LINE
  5
16C
330
1F
100
AcDbEntity
  8
SK3
100
AcDbLine
 10
10.26
 20
1.4500000998
 30
0.0
 11
10.06
 21
1.2500000998
 31
0.0
  0
ARC
  5
16D
330
1F
100
AcDbEntity
  8
SK1
  6
Continuous
100
AcDbCircle
 10
10.01
 20
6.1712614557
 30
0.0
 40
0.2500000000000001
100
AcDbArc
 50
0.0
 51
60.0
  0
LINE
  5
16E
330
1F
100
AcDbEntity
  8
SK1
  6
Continuous
100
AcDbLine
 10
10.135
 20
6.3877678067
 30
0.0
 11
8.46
 21
7.3548295076
 31
0.0
  0
ARC
  5
16F
330
1F
100
AcDbEntity
  8
SK3
100
AcDbCircle
 10
-8.04
 20
-2.9499999002
 30
0.0
 40
0.8000000000000013
100
AcDbArc
 50
316.1882755174
 51
0.0
  0
LINE
  5
170
330
1F
100
AcDbEntity
  8
SK3
100
AcDbLine
 10
-7.24
 20
-1.4499999002
 30
0.0
 11
-7.04
 21
-1.2499999002
 31
0.0
  0
LINE
  5
171
330
1F
100
AcDbEntity
  8
SK3
100
AcDbLine
 10
-7.04
 20
-1.2499999002
 30
0.0
 11
10.06
 21
-1.2499999002
 31
0.0
  0
LINE
  5
172
330
1F
100
AcDbEntity
  8
SK3
100
AcDbLine
 10
10.06
 20
-1.2499999002
 30
0.0
 11
10.26
 21
-1.4499999002
 31
0.0
  0
ARC
  5
173
330
1F
100
AcDbEntity
  8
SK1
  6
Continuous
100
AcDbCircle
 10
10.01
 20
-6.1712612562
 30
0.0
 40
0.2499999999999999
100
AcDbArc
 50
300.0
 51
0.0
  0
LINE
  5
174
330
1F
100
AcDbEntity
  8
SK1
  6
Continuous
100
AcDbLine
 10
8.46
 20
-7.354829308
 30
0.0
 11
10.135
 21
-6.3877676071
 31
0.0
  0
LINE
  5
175
330
1F
100
AcDbEntity
  8
SK1
  6
Continuous
100
AcDbLine
 10
0.0
 20
7.9965105737
 30
0.0
 11
0.0
 21
-7.9965103742
 31
0.0
  0
LINE
  5
177
330
1F
100
AcDbEntity
  8
SK4
  6
Continuous
100
AcDbLine
 10
10.26
 20
0.0000000998
 30
0.0
 11
-17.24
 21
0.0000000998
 31
0.0
  0
DIMENSION
  5
18C
330
1F
100
AcDbEntity
  8
SK2
  6
Continuous
 62
   136
100
AcDbDimension
  2
DMBLK91
 10
18.4508885717
 20
1.2500000998
 30
0.0
 11
18.4508885717
 21
6.088069535
 31
0.0
 70
   161
  1
\A1;ø <>
 71
     5
 42
-1.0
  3
DIN
100
AcDbAlignedDimension
 13
10.06
 23
1.2500000998
 33
0.0
 14
10.06
 24
-1.2499999002
 34
0.0
  0
DIMENSION
  5
197
330
1F
100
AcDbEntity
  8
SK2
  6
Continuous
 62
   136
100
AcDbDimension
  2
DMBLK92
 10
10.26
 20
-15.8478670146
 30
0.0
 11
5.1299999468
 21
-15.8478670146
 31
0.0
 70
   160
  1
\A1;<>
 71
     5
 42
-1.0
  3
DIN
100
AcDbAlignedDimension
 13
0.0
 23
-7.9965103742
 33
0.0
 14
10.26
 24
-2.5679421082
 34
0.0
100
AcDbRotatedDimension
  0
DIMENSION
  5
1A1
330
1F
100
AcDbEntity
  8
SK2
  6
Continuous
 62
   136
100
AcDbDimension
  2
DMBLK93
 10
-23.2357475907
 20
7.9965105737
 30
0.0
 11
-23.2357475907
 21
-0.0000001406
 31
0.0
 70
   161
  1
\A1;ø <>
 71
     5
 42
-1.0
  3
DIN
100
AcDbAlignedDimension
 13
0.0
 23
7.9965105737
 33
0.0
 14
0.0
 24
-7.9965103742
 34
0.0
1001
ACAD
1000
DSTYLE
1002
{
1070
   271
1070
     1
1070
   272
1070
     1
1070
     0
1002
}
  0
DIMENSION
  5
1AC
330
1F
100
AcDbEntity
  8
SK2
  6
Continuous
 62
   136
100
AcDbDimension
  2
DMBLK94
 10
10.26
 20
13.8809272555
 30
0.0
 11
-3.4900000745
 21
13.8809272555
 31
0.0
 70
   160
  1
\A1;<>
 71
     5
 42
-1.0
  3
DIN
100
AcDbAlignedDimension
 13
-17.24
 23
5.3141518963
 33
0.0
 14
10.26
 24
5.6116076716
 34
0.0
100
AcDbRotatedDimension
1001
ACAD
1000
DSTYLE
1002
{
1070
   271
1070
     1
1070
   272
1070
     1
1070
     0
1002
}
  0
ENDSEC
  0
SECTION
  2
OBJECTS
  0
DICTIONARY
  5
C
330
0
100
AcDbDictionary
281
     1
  3
ACAD_GROUP
350
D
  3
ACAD_LAYOUT
350
1A
  3
ACAD_MATERIAL
350
3B
  3
ACAD_MLEADERSTYLE
350
1B8
  3
ACAD_MLINESTYLE
350
17
  3
ACAD_PLOTSETTINGS
350
19
  3
ACAD_PLOTSTYLENAME
350
E
  3
ACAD_VISUALSTYLE
350
2A
  3
AcDbVariableDictionary
350
1B6
  0
DICTIONARY
  5
D
102
{ACAD_REACTORS
330
C
102
}
330
C
100
AcDbDictionary
281
     1
  0
DICTIONARY
  5
1A
102
{ACAD_REACTORS
330
C
102
}
330
C
100
AcDbDictionary
281
     1
  3
Layout1
350
1E
  3
Model
350
22
  0
DICTIONARY
  5
3B
102
{ACAD_REACTORS
330
C
102
}
330
C
100
AcDbDictionary
281
     1
  3
ByBlock
350
3D
  3
ByLayer
350
3C
  3
Global
350
3E
  0
DICTIONARY
  5
1B8
102
{ACAD_REACTORS
330
C
102
}
330
C
100
AcDbDictionary
281
     1
  0
DICTIONARY
  5
17
102
{ACAD_REACTORS
330
C
102
}
330
C
100
AcDbDictionary
281
     1
  3
Standard
350
18
  0
DICTIONARY
  5
19
102
{ACAD_REACTORS
330
C
102
}
330
C
100
AcDbDictionary
281
     1
  0
ACDBDICTIONARYWDFLT
  5
E
102
{ACAD_REACTORS
330
C
102
}
330
C
100
AcDbDictionary
281
     1
  3
Normal
350
F
100
AcDbDictionaryWithDefault
340
F
  0
DICTIONARY
  5
2A
102
{ACAD_REACTORS
330
C
102
}
330
C
100
AcDbDictionary
281
     1
  3
2dWireframe
350
2F
  3
3D Hidden
350
31
  3
3dWireframe
350
30
  3
Basic
350
32
  3
Brighten
350
36
  3
ColorChange
350
3A
  3
Conceptual
350
34
  3
Dim
350
35
  3
Facepattern
350
39
  3
Flat
350
2B
  3
FlatWithEdges
350
2C
  3
Gouraud
350
2D
  3
GouraudWithEdges
350
2E
  3
Linepattern
350
38
  3
Realistic
350
33
  3
Thicken
350
37
  0
DICTIONARY
  5
1B6
102
{ACAD_REACTORS
330
C
102
}
330
C
100
AcDbDictionary
281
     1
  3
DIMASSOC
350
1BB
  3
HIDETEXT
350
1BC
  3
PSOLHEIGHT
350
1BA
  3
PSOLWIDTH
350
1B9
  0
LAYOUT
  5
1E
102
{ACAD_REACTORS
330
1A
102
}
330
1A
100
AcDbPlotSettings
  1

  2
none_device
  4

  6

 40
0.0
 41
0.0
 42
0.0
 43
0.0
 44
0.0
 45
0.0
 46
0.0
 47
0.0
 48
0.0
 49
0.0
140
0.0
141
0.0
142
1.0
143
1.0
 70
   688
 72
     0
 73
     0
 74
     5
  7

 75
    16
147
1.0
148
0.0
149
0.0
100
AcDbLayout
  1
Layout1
 70
     1
 71
     1
 10
0.0
 20
0.0
 11
210.0
 21
297.0
 12
0.0
 22
0.0
 32
0.0
 14
0.0
 24
0.0
 34
0.0
 15
210.0
 25
297.0
 35
0.0
146
0.0
 13
0.0
 23
0.0
 33
0.0
 16
1.0
 26
0.0
 36
0.0
 17
0.0
 27
1.0
 37
0.0
 76
     0
330
1B
  0
LAYOUT
  5
22
102
{ACAD_REACTORS
330
1A
102
}
330
1A
100
AcDbPlotSettings
  1

  2
none_device
  4

  6

 40
0.0
 41
0.0
 42
0.0
 43
0.0
 44
0.0
 45
0.0
 46
0.0
 47
0.0
 48
0.0
 49
0.0
140
0.0
141
0.0
142
1.0
143
1.0
 70
  1712
 72
     0
 73
     0
 74
     0
  7

 75
     0
147
1.0
148
0.0
149
0.0
100
AcDbLayout
  1
Model
 70
     1
 71
     0
 10
0.0
 20
0.0
 11
210.0
 21
297.0
 12
0.0
 22
0.0
 32
0.0
 14
0.0
 24
0.0
 34
0.0
 15
210.0
 25
297.0
 35
0.0
146
0.0
 13
0.0
 23
0.0
 33
0.0
 16
1.0
 26
0.0
 36
0.0
 17
0.0
 27
1.0
 37
0.0
 76
     0
330
1F
331
29
  0
MATERIAL
  5
3D
102
{ACAD_REACTORS
330
3B
102
}
102
{ACAD_XDICTIONARY
360
1DF
102
}
330
3B
100
AcDbMaterial
  1
ByBlock
  0
MATERIAL
  5
3C
102
{ACAD_REACTORS
330
3B
102
}
102
{ACAD_XDICTIONARY
360
1DD
102
}
330
3B
100
AcDbMaterial
  1
ByLayer
  0
MATERIAL
  5
3E
102
{ACAD_REACTORS
330
3B
102
}
102
{ACAD_XDICTIONARY
360
1E1
102
}
330
3B
100
AcDbMaterial
  1
Global
  0
MLINESTYLE
  5
18
102
{ACAD_REACTORS
330
17
102
}
330
17
100
AcDbMlineStyle
  2
Standard
 70
     0
  3

 62
   256
 51
90.0
 52
90.0
 71
     2
 49
0.5
 62
   256
  6
BYLAYER
 49
-0.5
 62
   256
  6
BYLAYER
  0
ACDBPLACEHOLDER
  5
F
102
{ACAD_REACTORS
330
E
102
}
330
E
  0
VISUALSTYLE
  5
2F
102
{ACAD_REACTORS
330
2A
102
}
102
{ACAD_XDICTIONARY
360
1C5
102
}
330
2A
100
AcDbVisualStyle
  2
2dWireframe
 70
     4
 71
     0
 72
     2
 73
     0
 90
        0
 40
-0.6
 41
-30.0
 62
     5
 63
     7
 74
     1
 91
        4
 64
     7
 65
   257
 75
     1
175
     1
 42
1.0
 92
        0
 66
   257
 43
1.0
 76
     1
 77
     6
 78
     2
 67
     7
 79
     5
170
     0
171
     0
290
     0
174
     0
 93
        1
 44
0.0
173
     0
291
     0
 45
0.0
1001
ACAD
1000
AcDbSavedByObjectVersion
1070
     0
  0
VISUALSTYLE
  5
31
102
{ACAD_REACTORS
330
2A
102
}
102
{ACAD_XDICTIONARY
360
1C9
102
}
330
2A
100
AcDbVisualStyle
  2
3D Hidden
 70
     6
 71
     1
 72
     2
 73
     2
 90
        0
 40
-0.6
 41
-30.0
 62
     5
 63
     7
 74
     2
 91
        2
 64
     7
 65
   257
 75
     2
175
     1
 42
40.0
 92
        0
 66
   257
 43
1.0
 76
     1
 77
     6
 78
     2
 67
     7
 79
     3
170
     0
171
     0
290
     0
174
     0
 93
        1
 44
0.0
173
     0
291
     0
 45
0.0
1001
ACAD
1000
AcDbSavedByObjectVersion
1070
     0
  0
VISUALSTYLE
  5
30
102
{ACAD_REACTORS
330
2A
102
}
102
{ACAD_XDICTIONARY
360
1C7
102
}
330
2A
100
AcDbVisualStyle
  2
3dWireframe
 70
     5
 71
     0
 72
     2
 73
     0
 90
        0
 40
-0.6
 41
-30.0
 62
     5
 63
     7
 74
     1
 91
        4
 64
     7
 65
   257
 75
     1
175
     1
 42
1.0
 92
        0
 66
   257
 43
1.0
 76
     1
 77
     6
 78
     2
 67
     7
 79
     5
170
     0
171
     0
290
     0
174
     0
 93
        1
 44
0.0
173
     0
291
     0
 45
0.0
1001
ACAD
1000
AcDbSavedByObjectVersion
1070
     0
  0
VISUALSTYLE
  5
32
102
{ACAD_REACTORS
330
2A
102
}
102
{ACAD_XDICTIONARY
360
1CB
102
}
330
2A
100
AcDbVisualStyle
  2
Basic
 70
     7
 71
     1
 72
     0
 73
     1
 90
        0
 40
-0.6
 41
-30.0
 62
     5
 63
     7
 74
     0
 91
        4
 64
     7
 65
   257
 75
     1
175
     1
 42
1.0
 92
        8
 66
     7
 43
1.0
 76
     1
 77
     6
 78
     2
 67
     7
 79
     5
170
     0
171
     0
290
     0
174
     0
 93
        1
 44
0.0
173
     0
291
     1
 45
0.0
1001
ACAD
1000
AcDbSavedByObjectVersion
1070
     0
  0
VISUALSTYLE
  5
36
102
{ACAD_REACTORS
330
2A
102
}
102
{ACAD_XDICTIONARY
360
1D3
102
}
330
2A
100
AcDbVisualStyle
  2
Brighten
 70
    12
 71
     2
 72
     2
 73
     0
 90
        0
 40
-0.6
 41
-30.0
 62
     5
 63
     7
 74
     1
 91
        4
 64
     7
 65
   257
 75
     1
175
     1
 42
1.0
 92
        8
 66
     7
 43
1.0
 76
     1
 77
     6
 78
     2
 67
     7
 79
     5
170
     0
171
     0
290
     0
174
     0
 93
        1
 44
50.0
173
     0
291
     1
 45
0.0
1001
ACAD
1000
AcDbSavedByObjectVersion
1070
     0
  0
VISUALSTYLE
  5
3A
102
{ACAD_REACTORS
330
2A
102
}
102
{ACAD_XDICTIONARY
360
1DB
102
}
330
2A
100
AcDbVisualStyle
  2
ColorChange
 70
    16
 71
     2
 72
     2
 73
     3
 90
        0
 40
-0.6
 41
-30.0
 62
     5
 63
     8
 74
     1
 91
        4
 64
     7
 65
   257
 75
     1
175
     1
 42
1.0
 92
        8
 66
     8
 43
1.0
 76
     1
 77
     6
 78
     2
 67
     7
 79
     5
170
     0
171
     0
290
     0
174
     0
 93
        1
 44
0.0
173
     0
291
     1
 45
0.0
1001
ACAD
1000
AcDbSavedByObjectVersion
1070
     0
  0
VISUALSTYLE
  5
34
102
{ACAD_REACTORS
330
2A
102
}
102
{ACAD_XDICTIONARY
360
1CF
102
}
330
2A
100
AcDbVisualStyle
  2
Conceptual
 70
     9
 71
     3
 72
     2
 73
     0
 90
        0
 40
-0.6
 41
-30.0
 62
     5
 63
     7
 74
     2
 91
        2
 64
     7
 65
   257
 75
     1
175
     1
 42
40.0
 92
        8
 66
     7
 43
1.0
 76
     1
 77
     6
 78
     2
 67
     7
 79
     3
170
     0
171
     0
290
     0
174
     0
 93
        1
 44
0.0
173
     0
291
     0
 45
0.0
1001
ACAD
1000
AcDbSavedByObjectVersion
1070
     0
  0
VISUALSTYLE
  5
35
102
{ACAD_REACTORS
330
2A
102
}
102
{ACAD_XDICTIONARY
360
1D1
102
}
330
2A
100
AcDbVisualStyle
  2
Dim
 70
    11
 71
     2
 72
     2
 73
     0
 90
        0
 40
-0.6
 41
-30.0
 62
     5
 63
     7
 74
     1
 91
        4
 64
     7
 65
   257
 75
     1
175
     1
 42
1.0
 92
        8
 66
     7
 43
1.0
 76
     1
 77
     6
 78
     2
 67
     7
 79
     5
170
     0
171
     0
290
     0
174
     0
 93
        1
 44
-50.0
173
     0
291
     1
 45
0.0
1001
ACAD
1000
AcDbSavedByObjectVersion
1070
     0
  0
VISUALSTYLE
  5
39
102
{ACAD_REACTORS
330
2A
102
}
102
{ACAD_XDICTIONARY
360
1D9
102
}
330
2A
100
AcDbVisualStyle
  2
Facepattern
 70
    15
 71
     2
 72
     2
 73
     0
 90
        0
 40
-0.6
 41
-30.0
 62
     5
 63
     7
 74
     1
 91
        4
 64
     7
 65
   257
 75
     1
175
     1
 42
1.0
 92
        8
 66
     7
 43
1.0
 76
     1
 77
     6
 78
     2
 67
     7
 79
     5
170
     0
171
     0
290
     0
174
     0
 93
        1
 44
0.0
173
     0
291
     1
 45
0.0
1001
ACAD
1000
AcDbSavedByObjectVersion
1070
     0
  0
VISUALSTYLE
  5
2B
102
{ACAD_REACTORS
330
2A
102
}
102
{ACAD_XDICTIONARY
360
1BD
102
}
330
2A
100
AcDbVisualStyle
  2
Flat
 70
     0
 71
     2
 72
     1
 73
     1
 90
        2
 40
-0.6
 41
30.0
 62
     5
 63
     7
 74
     0
 91
        4
 64
     7
 65
   257
 75
     1
175
     1
 42
1.0
 92
        8
 66
     7
 43
1.0
 76
     1
 77
     6
 78
     2
 67
     7
 79
     5
170
     0
171
     0
290
     0
174
     0
 93
       13
 44
0.0
173
     0
291
     1
 45
0.0
1001
ACAD
1000
AcDbSavedByObjectVersion
1070
     0
  0
VISUALSTYLE
  5
2C
102
{ACAD_REACTORS
330
2A
102
}
102
{ACAD_XDICTIONARY
360
1BF
102
}
330
2A
100
AcDbVisualStyle
  2
FlatWithEdges
 70
     1
 71
     2
 72
     1
 73
     1
 90
        2
 40
-0.6
 41
30.0
 62
     5
 63
     7
 74
     1
 91
        4
 64
     7
 65
   257
 75
     1
175
     1
 42
1.0
 92
        0
 66
   257
 43
1.0
 76
     1
 77
     6
 78
     2
 67
     7
 79
     5
170
     0
171
     0
290
     0
174
     0
 93
       13
 44
0.0
173
     0
291
     1
 45
0.0
1001
ACAD
1000
AcDbSavedByObjectVersion
1070
     0
  0
VISUALSTYLE
  5
2D
102
{ACAD_REACTORS
330
2A
102
}
102
{ACAD_XDICTIONARY
360
1C1
102
}
330
2A
100
AcDbVisualStyle
  2
Gouraud
 70
     2
 71
     2
 72
     2
 73
     1
 90
        2
 40
-0.6
 41
30.0
 62
     5
 63
     7
 74
     0
 91
        4
 64
     7
 65
   257
 75
     1
175
     1
 42
1.0
 92
        0
 66
     7
 43
1.0
 76
     1
 77
     6
 78
     2
 67
     7
 79
     5
170
     0
171
     0
290
     0
174
     0
 93
       13
 44
0.0
173
     0
291
     1
 45
0.0
1001
ACAD
1000
AcDbSavedByObjectVersion
1070
     0
  0
VISUALSTYLE
  5
2E
102
{ACAD_REACTORS
330
2A
102
}
102
{ACAD_XDICTIONARY
360
1C3
102
}
330
2A
100
AcDbVisualStyle
  2
GouraudWithEdges
 70
     3
 71
     2
 72
     2
 73
     1
 90
        2
 40
-0.6
 41
30.0
 62
     5
 63
     7
 74
     1
 91
        4
 64
     7
 65
   257
 75
     1
175
     1
 42
1.0
 92
        0
 66
   257
 43
1.0
 76
     1
 77
     6
 78
     2
 67
     7
 79
     5
170
     0
171
     0
290
     0
174
     0
 93
       13
 44
0.0
173
     0
291
     1
 45
0.0
1001
ACAD
1000
AcDbSavedByObjectVersion
1070
     0
  0
VISUALSTYLE
  5
38
102
{ACAD_REACTORS
330
2A
102
}
102
{ACAD_XDICTIONARY
360
1D7
102
}
330
2A
100
AcDbVisualStyle
  2
Linepattern
 70
    14
 71
     2
 72
     2
 73
     0
 90
        0
 40
-0.6
 41
-30.0
 62
     5
 63
     7
 74
     1
 91
        4
 64
     7
 65
   257
 75
     7
175
     7
 42
1.0
 92
        8
 66
     7
 43
1.0
 76
     1
 77
     6
 78
     2
 67
     7
 79
     5
170
     0
171
     0
290
     0
174
     0
 93
        1
 44
0.0
173
     0
291
     1
 45
0.0
1001
ACAD
1000
AcDbSavedByObjectVersion
1070
     0
  0
VISUALSTYLE
  5
33
102
{ACAD_REACTORS
330
2A
102
}
102
{ACAD_XDICTIONARY
360
1CD
102
}
330
2A
100
AcDbVisualStyle
  2
Realistic
 70
     8
 71
     2
 72
     2
 73
     0
 90
        0
 40
-0.6
 41
-30.0
 62
     5
 63
     7
 74
     1
 91
        0
 64
     7
 65
   257
 75
     1
175
     1
 42
1.0
 92
        8
 66
     8
 43
1.0
 76
     1
 77
     6
 78
     2
 67
     7
 79
     5
170
     0
171
     0
290
     0
174
     0
 93
       13
 44
0.0
173
     0
291
     0
 45
0.0
1001
ACAD
1000
AcDbSavedByObjectVersion
1070
     0
  0
VISUALSTYLE
  5
37
102
{ACAD_REACTORS
330
2A
102
}
102
{ACAD_XDICTIONARY
360
1D5
102
}
330
2A
100
AcDbVisualStyle
  2
Thicken
 70
    13
 71
     2
 72
     2
 73
     0
 90
        0
 40
-0.6
 41
-30.0
 62
     5
 63
     7
 74
     1
 91
        4
 64
     7
 65
   257
 75
     1
175
     1
 42
1.0
 92
       12
 66
     7
 43
1.0
 76
     1
 77
     6
 78
     2
 67
     7
 79
     5
170
     0
171
     0
290
     0
174
     0
 93
        1
 44
0.0
173
     0
291
     1
 45
0.0
1001
ACAD
1000
AcDbSavedByObjectVersion
1070
     0
  0
DICTIONARYVAR
  5
1BB
102
{ACAD_REACTORS
330
1B6
102
}
330
1B6
100
DictionaryVariables
280
     0
  1
2
  0
DICTIONARYVAR
  5
1BC
102
{ACAD_REACTORS
330
1B6
102
}
330
1B6
100
DictionaryVariables
280
     0
  1
1
  0
DICTIONARYVAR
  5
1BA
102
{ACAD_REACTORS
330
1B6
102
}
330
1B6
100
DictionaryVariables
280
     0
  1
80.000000
  0
DICTIONARYVAR
  5
1B9
102
{ACAD_REACTORS
330
1B6
102
}
330
1B6
100
DictionaryVariables
280
     0
  1
5.000000
  0
DICTIONARY
  5
1DF
330
3D
100
AcDbDictionary
280
     1
281
     1
  3
ACAD_XREC_ROUNDTRIP
360
1E0
  0
DICTIONARY
  5
1DD
330
3C
100
AcDbDictionary
280
     1
281
     1
  3
ACAD_XREC_ROUNDTRIP
360
1DE
  0
DICTIONARY
  5
1E1
330
3E
100
AcDbDictionary
280
     1
281
     1
  3
ACAD_XREC_ROUNDTRIP
360
1E2
  0
DICTIONARY
  5
1C5
330
2F
100
AcDbDictionary
280
     1
281
     1
  3
ACAD_XREC_ROUNDTRIP
360
1C6
  0
DICTIONARY
  5
1C9
330
31
100
AcDbDictionary
280
     1
281
     1
  3
ACAD_XREC_ROUNDTRIP
360
1CA
  0
DICTIONARY
  5
1C7
330
30
100
AcDbDictionary
280
     1
281
     1
  3
ACAD_XREC_ROUNDTRIP
360
1C8
  0
DICTIONARY
  5
1CB
330
32
100
AcDbDictionary
280
     1
281
     1
  3
ACAD_XREC_ROUNDTRIP
360
1CC
  0
DICTIONARY
  5
1D3
330
36
100
AcDbDictionary
280
     1
281
     1
  3
ACAD_XREC_ROUNDTRIP
360
1D4
  0
DICTIONARY
  5
1DB
330
3A
100
AcDbDictionary
280
     1
281
     1
  3
ACAD_XREC_ROUNDTRIP
360
1DC
  0
DICTIONARY
  5
1CF
330
34
100
AcDbDictionary
280
     1
281
     1
  3
ACAD_XREC_ROUNDTRIP
360
1D0
  0
DICTIONARY
  5
1D1
330
35
100
AcDbDictionary
280
     1
281
     1
  3
ACAD_XREC_ROUNDTRIP
360
1D2
  0
DICTIONARY
  5
1D9
330
39
100
AcDbDictionary
280
     1
281
     1
  3
ACAD_XREC_ROUNDTRIP
360
1DA
  0
DICTIONARY
  5
1BD
330
2B
100
AcDbDictionary
280
     1
281
     1
  3
ACAD_XREC_ROUNDTRIP
360
1BE
  0
DICTIONARY
  5
1BF
330
2C
100
AcDbDictionary
280
     1
281
     1
  3
ACAD_XREC_ROUNDTRIP
360
1C0
  0
DICTIONARY
  5
1C1
330
2D
100
AcDbDictionary
280
     1
281
     1
  3
ACAD_XREC_ROUNDTRIP
360
1C2
  0
DICTIONARY
  5
1C3
330
2E
100
AcDbDictionary
280
     1
281
     1
  3
ACAD_XREC_ROUNDTRIP
360
1C4
  0
DICTIONARY
  5
1D7
330
38
100
AcDbDictionary
280
     1
281
     1
  3
ACAD_XREC_ROUNDTRIP
360
1D8
  0
DICTIONARY
  5
1CD
330
33
100
AcDbDictionary
280
     1
281
     1
  3
ACAD_XREC_ROUNDTRIP
360
1CE
  0
DICTIONARY
  5
1D5
330
37
100
AcDbDictionary
280
     1
281
     1
  3
ACAD_XREC_ROUNDTRIP
360
1D6
  0
XRECORD
  5
1E0
102
{ACAD_REACTORS
330
1DF
102
}
330
1DF
100
AcDbXrecord
280
     1
102
MATERIAL
148
0.0
149
0.0
149
0.0
 93
        0
 94
      127
282
     0
 72
     1
 77
     1
171
     1
175
     1
179
     1
273
     0
  0
XRECORD
  5
1DE
102
{ACAD_REACTORS
330
1DD
102
}
330
1DD
100
AcDbXrecord
280
     1
102
MATERIAL
148
0.0
149
0.0
149
0.0
 93
        0
 94
      127
282
     0
 72
     1
 77
     1
171
     1
175
     1
179
     1
273
     0
  0
XRECORD
  5
1E2
102
{ACAD_REACTORS
330
1E1
102
}
330
1E1
100
AcDbXrecord
280
     1
102
MATERIAL
148
0.0
149
0.0
149
0.0
 93
        0
 94
      127
282
     0
 72
     1
 77
     1
171
     1
175
     1
179
     1
273
     0
  0
XRECORD
  5
1C6
102
{ACAD_REACTORS
330
1C5
102
}
330
1C5
100
AcDbXrecord
280
     1
102
RTVSPropertyOp0
 70
     1
102
RTVSPropertyOp1
 70
     1
102
RTVSPropertyOp2
 70
     1
102
RTVSPropertyOp3
 70
     1
102
RTVSPropertyOp4
 70
     1
102
RTVSPropertyOp5
 70
     1
102
RTVSPropertyOp6
 70
     1
102
RTVSPropertyOp7
 70
     1
102
RTVSPropertyOp8
 70
     1
102
RTVSPropertyOp9
 70
     1
102
RTVSPropertyOp10
 70
     1
102
RTVSPropertyOp11
 70
     1
102
RTVSPropertyOp12
 70
     1
102
RTVSPropertyOp13
 70
     1
102
RTVSPropertyOp14
 70
     1
102
RTVSPropertyOp15
 70
     1
102
RTVSPropertyOp16
 70
     1
102
RTVSPropertyOp17
 70
     1
102
RTVSPropertyOp18
 70
     1
102
RTVSPropertyOp19
 70
     1
102
RTVSPropertyOp20
 70
     1
102
RTVSPropertyOp21
 70
     1
102
RTVSPropertyOp22
 70
     1
102
RTVSPropertyOp23
 70
     1
102
RTVSPropertyOp24
 70
     1
102
RTVSPropertyOp25
 70
     1
102
RTVSPropertyOp26
 70
     1
102
RTVSPropertyOp27
 70
     1
102
RTVSPropertyOp28
 70
     1
102
RTVSPropertyOp29
 70
     1
102
RTVSPropertyOp30
 70
     1
102
RTVSPropertyOp31
 70
     1
102
RTVSPropertyOp32
 70
     1
  0
XRECORD
  5
1CA
102
{ACAD_REACTORS
330
1C9
102
}
330
1C9
100
AcDbXrecord
280
     1
102
RTVSPropertyOp0
 70
     1
102
RTVSPropertyOp1
 70
     1
102
RTVSPropertyOp2
 70
     1
102
RTVSPropertyOp3
 70
     1
102
RTVSPropertyOp4
 70
     1
102
RTVSPropertyOp5
 70
     1
102
RTVSPropertyOp6
 70
     1
102
RTVSPropertyOp7
 70
     1
102
RTVSPropertyOp8
 70
     1
102
RTVSPropertyOp9
 70
     1
102
RTVSPropertyOp10
 70
     1
102
RTVSPropertyOp11
 70
     1
102
RTVSPropertyOp12
 70
     1
102
RTVSPropertyOp13
 70
     1
102
RTVSPropertyOp14
 70
     1
102
RTVSPropertyOp15
 70
     1
102
RTVSPropertyOp16
 70
     1
102
RTVSPropertyOp17
 70
     1
102
RTVSPropertyOp18
 70
     1
102
RTVSPropertyOp19
 70
     1
102
RTVSPropertyOp20
 70
     1
102
RTVSPropertyOp21
 70
     1
102
RTVSPropertyOp22
 70
     1
102
RTVSPropertyOp23
 70
     1
102
RTVSPropertyOp24
 70
     1
102
RTVSPropertyOp25
 70
     1
102
RTVSPropertyOp26
 70
     1
102
RTVSPropertyOp27
 70
     1
102
RTVSPropertyOp28
 70
     1
102
RTVSPropertyOp29
 70
     1
102
RTVSPropertyOp30
 70
     1
102
RTVSPropertyOp31
 70
     1
102
RTVSPropertyOp32
 70
     1
  0
XRECORD
  5
1C8
102
{ACAD_REACTORS
330
1C7
102
}
330
1C7
100
AcDbXrecord
280
     1
102
RTVSPropertyOp0
 70
     1
102
RTVSPropertyOp1
 70
     1
102
RTVSPropertyOp2
 70
     1
102
RTVSPropertyOp3
 70
     1
102
RTVSPropertyOp4
 70
     1
102
RTVSPropertyOp5
 70
     1
102
RTVSPropertyOp6
 70
     1
102
RTVSPropertyOp7
 70
     1
102
RTVSPropertyOp8
 70
     1
102
RTVSPropertyOp9
 70
     1
102
RTVSPropertyOp10
 70
     1
102
RTVSPropertyOp11
 70
     1
102
RTVSPropertyOp12
 70
     1
102
RTVSPropertyOp13
 70
     1
102
RTVSPropertyOp14
 70
     1
102
RTVSPropertyOp15
 70
     1
102
RTVSPropertyOp16
 70
     1
102
RTVSPropertyOp17
 70
     1
102
RTVSPropertyOp18
 70
     1
102
RTVSPropertyOp19
 70
     1
102
RTVSPropertyOp20
 70
     1
102
RTVSPropertyOp21
 70
     1
102
RTVSPropertyOp22
 70
     1
102
RTVSPropertyOp23
 70
     1
102
RTVSPropertyOp24
 70
     1
102
RTVSPropertyOp25
 70
     1
102
RTVSPropertyOp26
 70
     1
102
RTVSPropertyOp27
 70
     1
102
RTVSPropertyOp28
 70
     1
102
RTVSPropertyOp29
 70
     1
102
RTVSPropertyOp30
 70
     1
102
RTVSPropertyOp31
 70
     1
102
RTVSPropertyOp32
 70
     1
  0
XRECORD
  5
1CC
102
{ACAD_REACTORS
330
1CB
102
}
330
1CB
100
AcDbXrecord
280
     1
102
RTVSPropertyOp0
 70
     1
102
RTVSPropertyOp1
 70
     1
102
RTVSPropertyOp2
 70
     1
102
RTVSPropertyOp3
 70
     1
102
RTVSPropertyOp4
 70
     1
102
RTVSPropertyOp5
 70
     1
102
RTVSPropertyOp6
 70
     1
102
RTVSPropertyOp7
 70
     1
102
RTVSPropertyOp8
 70
     1
102
RTVSPropertyOp9
 70
     1
102
RTVSPropertyOp10
 70
     1
102
RTVSPropertyOp11
 70
     1
102
RTVSPropertyOp12
 70
     1
102
RTVSPropertyOp13
 70
     1
102
RTVSPropertyOp14
 70
     1
102
RTVSPropertyOp15
 70
     1
102
RTVSPropertyOp16
 70
     1
102
RTVSPropertyOp17
 70
     1
102
RTVSPropertyOp18
 70
     1
102
RTVSPropertyOp19
 70
     1
102
RTVSPropertyOp20
 70
     1
102
RTVSPropertyOp21
 70
     1
102
RTVSPropertyOp22
 70
     1
102
RTVSPropertyOp23
 70
     1
102
RTVSPropertyOp24
 70
     1
102
RTVSPropertyOp25
 70
     1
102
RTVSPropertyOp26
 70
     1
102
RTVSPropertyOp27
 70
     1
102
RTVSPropertyOp28
 70
     1
102
RTVSPropertyOp29
 70
     1
102
RTVSPropertyOp30
 70
     1
102
RTVSPropertyOp31
 70
     1
102
RTVSPropertyOp32
 70
     1
  0
XRECORD
  5
1D4
102
{ACAD_REACTORS
330
1D3
102
}
330
1D3
100
AcDbXrecord
280
     1
102
RTVSPropertyOp0
 70
     1
102
RTVSPropertyOp1
 70
     1
102
RTVSPropertyOp2
 70
     1
102
RTVSPropertyOp3
 70
     1
102
RTVSPropertyOp4
 70
     1
102
RTVSPropertyOp5
 70
     1
102
RTVSPropertyOp6
 70
     1
102
RTVSPropertyOp7
 70
     1
102
RTVSPropertyOp8
 70
     1
102
RTVSPropertyOp9
 70
     1
102
RTVSPropertyOp10
 70
     1
102
RTVSPropertyOp11
 70
     1
102
RTVSPropertyOp12
 70
     1
102
RTVSPropertyOp13
 70
     1
102
RTVSPropertyOp14
 70
     1
102
RTVSPropertyOp15
 70
     1
102
RTVSPropertyOp16
 70
     1
102
RTVSPropertyOp17
 70
     1
102
RTVSPropertyOp18
 70
     1
102
RTVSPropertyOp19
 70
     1
102
RTVSPropertyOp20
 70
     1
102
RTVSPropertyOp21
 70
     1
102
RTVSPropertyOp22
 70
     1
102
RTVSPropertyOp23
 70
     1
102
RTVSPropertyOp24
 70
     1
102
RTVSPropertyOp25
 70
     1
102
RTVSPropertyOp26
 70
     1
102
RTVSPropertyOp27
 70
     1
102
RTVSPropertyOp28
 70
     1
102
RTVSPropertyOp29
 70
     1
102
RTVSPropertyOp30
 70
     1
102
RTVSPropertyOp31
 70
     1
102
RTVSPropertyOp32
 70
     1
  0
XRECORD
  5
1DC
102
{ACAD_REACTORS
330
1DB
102
}
330
1DB
100
AcDbXrecord
280
     1
102
RTVSPropertyOp0
 70
     1
102
RTVSPropertyOp1
 70
     1
102
RTVSPropertyOp2
 70
     1
102
RTVSPropertyOp3
 70
     1
102
RTVSPropertyOp4
 70
     1
102
RTVSPropertyOp5
 70
     1
102
RTVSPropertyOp6
 70
     1
102
RTVSPropertyOp7
 70
     1
102
RTVSPropertyOp8
 70
     1
102
RTVSPropertyOp9
 70
     1
102
RTVSPropertyOp10
 70
     1
102
RTVSPropertyOp11
 70
     1
102
RTVSPropertyOp12
 70
     1
102
RTVSPropertyOp13
 70
     1
102
RTVSPropertyOp14
 70
     1
102
RTVSPropertyOp15
 70
     1
102
RTVSPropertyOp16
 70
     1
102
RTVSPropertyOp17
 70
     1
102
RTVSPropertyOp18
 70
     1
102
RTVSPropertyOp19
 70
     1
102
RTVSPropertyOp20
 70
     1
102
RTVSPropertyOp21
 70
     1
102
RTVSPropertyOp22
 70
     1
102
RTVSPropertyOp23
 70
     1
102
RTVSPropertyOp24
 70
     1
102
RTVSPropertyOp25
 70
     1
102
RTVSPropertyOp26
 70
     1
102
RTVSPropertyOp27
 70
     1
102
RTVSPropertyOp28
 70
     1
102
RTVSPropertyOp29
 70
     1
102
RTVSPropertyOp30
 70
     1
102
RTVSPropertyOp31
 70
     1
102
RTVSPropertyOp32
 70
     1
  0
XRECORD
  5
1D0
102
{ACAD_REACTORS
330
1CF
102
}
330
1CF
100
AcDbXrecord
280
     1
102
RTVSPropertyOp0
 70
     1
102
RTVSPropertyOp1
 70
     1
102
RTVSPropertyOp2
 70
     1
102
RTVSPropertyOp3
 70
     1
102
RTVSPropertyOp4
 70
     1
102
RTVSPropertyOp5
 70
     1
102
RTVSPropertyOp6
 70
     1
102
RTVSPropertyOp7
 70
     1
102
RTVSPropertyOp8
 70
     1
102
RTVSPropertyOp9
 70
     1
102
RTVSPropertyOp10
 70
     1
102
RTVSPropertyOp11
 70
     1
102
RTVSPropertyOp12
 70
     1
102
RTVSPropertyOp13
 70
     1
102
RTVSPropertyOp14
 70
     1
102
RTVSPropertyOp15
 70
     1
102
RTVSPropertyOp16
 70
     1
102
RTVSPropertyOp17
 70
     1
102
RTVSPropertyOp18
 70
     1
102
RTVSPropertyOp19
 70
     1
102
RTVSPropertyOp20
 70
     1
102
RTVSPropertyOp21
 70
     1
102
RTVSPropertyOp22
 70
     1
102
RTVSPropertyOp23
 70
     1
102
RTVSPropertyOp24
 70
     1
102
RTVSPropertyOp25
 70
     1
102
RTVSPropertyOp26
 70
     1
102
RTVSPropertyOp27
 70
     1
102
RTVSPropertyOp28
 70
     1
102
RTVSPropertyOp29
 70
     1
102
RTVSPropertyOp30
 70
     1
102
RTVSPropertyOp31
 70
     1
102
RTVSPropertyOp32
 70
     1
  0
XRECORD
  5
1D2
102
{ACAD_REACTORS
330
1D1
102
}
330
1D1
100
AcDbXrecord
280
     1
102
RTVSPropertyOp0
 70
     1
102
RTVSPropertyOp1
 70
     1
102
RTVSPropertyOp2
 70
     1
102
RTVSPropertyOp3
 70
     1
102
RTVSPropertyOp4
 70
     1
102
RTVSPropertyOp5
 70
     1
102
RTVSPropertyOp6
 70
     1
102
RTVSPropertyOp7
 70
     1
102
RTVSPropertyOp8
 70
     1
102
RTVSPropertyOp9
 70
     1
102
RTVSPropertyOp10
 70
     1
102
RTVSPropertyOp11
 70
     1
102
RTVSPropertyOp12
 70
     1
102
RTVSPropertyOp13
 70
     1
102
RTVSPropertyOp14
 70
     1
102
RTVSPropertyOp15
 70
     1
102
RTVSPropertyOp16
 70
     1
102
RTVSPropertyOp17
 70
     1
102
RTVSPropertyOp18
 70
     1
102
RTVSPropertyOp19
 70
     1
102
RTVSPropertyOp20
 70
     1
102
RTVSPropertyOp21
 70
     1
102
RTVSPropertyOp22
 70
     1
102
RTVSPropertyOp23
 70
     1
102
RTVSPropertyOp24
 70
     1
102
RTVSPropertyOp25
 70
     1
102
RTVSPropertyOp26
 70
     1
102
RTVSPropertyOp27
 70
     1
102
RTVSPropertyOp28
 70
     1
102
RTVSPropertyOp29
 70
     1
102
RTVSPropertyOp30
 70
     1
102
RTVSPropertyOp31
 70
     1
102
RTVSPropertyOp32
 70
     1
  0
XRECORD
  5
1DA
102
{ACAD_REACTORS
330
1D9
102
}
330
1D9
100
AcDbXrecord
280
     1
102
RTVSPropertyOp0
 70
     1
102
RTVSPropertyOp1
 70
     1
102
RTVSPropertyOp2
 70
     1
102
RTVSPropertyOp3
 70
     1
102
RTVSPropertyOp4
 70
     1
102
RTVSPropertyOp5
 70
     1
102
RTVSPropertyOp6
 70
     1
102
RTVSPropertyOp7
 70
     1
102
RTVSPropertyOp8
 70
     1
102
RTVSPropertyOp9
 70
     1
102
RTVSPropertyOp10
 70
     1
102
RTVSPropertyOp11
 70
     1
102
RTVSPropertyOp12
 70
     1
102
RTVSPropertyOp13
 70
     1
102
RTVSPropertyOp14
 70
     1
102
RTVSPropertyOp15
 70
     1
102
RTVSPropertyOp16
 70
     1
102
RTVSPropertyOp17
 70
     1
102
RTVSPropertyOp18
 70
     1
102
RTVSPropertyOp19
 70
     1
102
RTVSPropertyOp20
 70
     1
102
RTVSPropertyOp21
 70
     1
102
RTVSPropertyOp22
 70
     1
102
RTVSPropertyOp23
 70
     1
102
RTVSPropertyOp24
 70
     1
102
RTVSPropertyOp25
 70
     1
102
RTVSPropertyOp26
 70
     1
102
RTVSPropertyOp27
 70
     1
102
RTVSPropertyOp28
 70
     1
102
RTVSPropertyOp29
 70
     1
102
RTVSPropertyOp30
 70
     1
102
RTVSPropertyOp31
 70
     1
102
RTVSPropertyOp32
 70
     1
  0
XRECORD
  5
1BE
102
{ACAD_REACTORS
330
1BD
102
}
330
1BD
100
AcDbXrecord
280
     1
102
RTVSPropertyOp0
 70
     1
102
RTVSPropertyOp1
 70
     1
102
RTVSPropertyOp2
 70
     1
102
RTVSPropertyOp3
 70
     1
102
RTVSPropertyOp4
 70
     1
102
RTVSPropertyOp5
 70
     1
102
RTVSPropertyOp6
 70
     1
102
RTVSPropertyOp7
 70
     1
102
RTVSPropertyOp8
 70
     1
102
RTVSPropertyOp9
 70
     1
102
RTVSPropertyOp10
 70
     1
102
RTVSPropertyOp11
 70
     1
102
RTVSPropertyOp12
 70
     1
102
RTVSPropertyOp13
 70
     1
102
RTVSPropertyOp14
 70
     1
102
RTVSPropertyOp15
 70
     1
102
RTVSPropertyOp16
 70
     1
102
RTVSPropertyOp17
 70
     1
102
RTVSPropertyOp18
 70
     1
102
RTVSPropertyOp19
 70
     1
102
RTVSPropertyOp20
 70
     1
102
RTVSPropertyOp21
 70
     1
102
RTVSPropertyOp22
 70
     1
102
RTVSPropertyOp23
 70
     1
102
RTVSPropertyOp24
 70
     1
102
RTVSPropertyOp25
 70
     1
102
RTVSPropertyOp26
 70
     1
102
RTVSPropertyOp27
 70
     1
102
RTVSPropertyOp28
 70
     1
102
RTVSPropertyOp29
 70
     1
102
RTVSPropertyOp30
 70
     1
102
RTVSPropertyOp31
 70
     1
102
RTVSPropertyOp32
 70
     1
  0
XRECORD
  5
1C0
102
{ACAD_REACTORS
330
1BF
102
}
330
1BF
100
AcDbXrecord
280
     1
102
RTVSPropertyOp0
 70
     1
102
RTVSPropertyOp1
 70
     1
102
RTVSPropertyOp2
 70
     1
102
RTVSPropertyOp3
 70
     1
102
RTVSPropertyOp4
 70
     1
102
RTVSPropertyOp5
 70
     1
102
RTVSPropertyOp6
 70
     1
102
RTVSPropertyOp7
 70
     1
102
RTVSPropertyOp8
 70
     1
102
RTVSPropertyOp9
 70
     1
102
RTVSPropertyOp10
 70
     1
102
RTVSPropertyOp11
 70
     1
102
RTVSPropertyOp12
 70
     1
102
RTVSPropertyOp13
 70
     1
102
RTVSPropertyOp14
 70
     1
102
RTVSPropertyOp15
 70
     1
102
RTVSPropertyOp16
 70
     1
102
RTVSPropertyOp17
 70
     1
102
RTVSPropertyOp18
 70
     1
102
RTVSPropertyOp19
 70
     1
102
RTVSPropertyOp20
 70
     1
102
RTVSPropertyOp21
 70
     1
102
RTVSPropertyOp22
 70
     1
102
RTVSPropertyOp23
 70
     1
102
RTVSPropertyOp24
 70
     1
102
RTVSPropertyOp25
 70
     1
102
RTVSPropertyOp26
 70
     1
102
RTVSPropertyOp27
 70
     1
102
RTVSPropertyOp28
 70
     1
102
RTVSPropertyOp29
 70
     1
102
RTVSPropertyOp30
 70
     1
102
RTVSPropertyOp31
 70
     1
102
RTVSPropertyOp32
 70
     1
  0
XRECORD
  5
1C2
102
{ACAD_REACTORS
330
1C1
102
}
330
1C1
100
AcDbXrecord
280
     1
102
RTVSPropertyOp0
 70
     1
102
RTVSPropertyOp1
 70
     1
102
RTVSPropertyOp2
 70
     1
102
RTVSPropertyOp3
 70
     1
102
RTVSPropertyOp4
 70
     1
102
RTVSPropertyOp5
 70
     1
102
RTVSPropertyOp6
 70
     1
102
RTVSPropertyOp7
 70
     1
102
RTVSPropertyOp8
 70
     1
102
RTVSPropertyOp9
 70
     1
102
RTVSPropertyOp10
 70
     1
102
RTVSPropertyOp11
 70
     1
102
RTVSPropertyOp12
 70
     1
102
RTVSPropertyOp13
 70
     1
102
RTVSPropertyOp14
 70
     1
102
RTVSPropertyOp15
 70
     1
102
RTVSPropertyOp16
 70
     1
102
RTVSPropertyOp17
 70
     1
102
RTVSPropertyOp18
 70
     1
102
RTVSPropertyOp19
 70
     1
102
RTVSPropertyOp20
 70
     1
102
RTVSPropertyOp21
 70
     1
102
RTVSPropertyOp22
 70
     1
102
RTVSPropertyOp23
 70
     1
102
RTVSPropertyOp24
 70
     1
102
RTVSPropertyOp25
 70
     1
102
RTVSPropertyOp26
 70
     1
102
RTVSPropertyOp27
 70
     1
102
RTVSPropertyOp28
 70
     1
102
RTVSPropertyOp29
 70
     1
102
RTVSPropertyOp30
 70
     1
102
RTVSPropertyOp31
 70
     1
102
RTVSPropertyOp32
 70
     1
  0
XRECORD
  5
1C4
102
{ACAD_REACTORS
330
1C3
102
}
330
1C3
100
AcDbXrecord
280
     1
102
RTVSPropertyOp0
 70
     1
102
RTVSPropertyOp1
 70
     1
102
RTVSPropertyOp2
 70
     1
102
RTVSPropertyOp3
 70
     1
102
RTVSPropertyOp4
 70
     1
102
RTVSPropertyOp5
 70
     1
102
RTVSPropertyOp6
 70
     1
102
RTVSPropertyOp7
 70
     1
102
RTVSPropertyOp8
 70
     1
102
RTVSPropertyOp9
 70
     1
102
RTVSPropertyOp10
 70
     1
102
RTVSPropertyOp11
 70
     1
102
RTVSPropertyOp12
 70
     1
102
RTVSPropertyOp13
 70
     1
102
RTVSPropertyOp14
 70
     1
102
RTVSPropertyOp15
 70
     1
102
RTVSPropertyOp16
 70
     1
102
RTVSPropertyOp17
 70
     1
102
RTVSPropertyOp18
 70
     1
102
RTVSPropertyOp19
 70
     1
102
RTVSPropertyOp20
 70
     1
102
RTVSPropertyOp21
 70
     1
102
RTVSPropertyOp22
 70
     1
102
RTVSPropertyOp23
 70
     1
102
RTVSPropertyOp24
 70
     1
102
RTVSPropertyOp25
 70
     1
102
RTVSPropertyOp26
 70
     1
102
RTVSPropertyOp27
 70
     1
102
RTVSPropertyOp28
 70
     1
102
RTVSPropertyOp29
 70
     1
102
RTVSPropertyOp30
 70
     1
102
RTVSPropertyOp31
 70
     1
102
RTVSPropertyOp32
 70
     1
  0
XRECORD
  5
1D8
102
{ACAD_REACTORS
330
1D7
102
}
330
1D7
100
AcDbXrecord
280
     1
102
RTVSPropertyOp0
 70
     1
102
RTVSPropertyOp1
 70
     1
102
RTVSPropertyOp2
 70
     1
102
RTVSPropertyOp3
 70
     1
102
RTVSPropertyOp4
 70
     1
102
RTVSPropertyOp5
 70
     1
102
RTVSPropertyOp6
 70
     1
102
RTVSPropertyOp7
 70
     1
102
RTVSPropertyOp8
 70
     1
102
RTVSPropertyOp9
 70
     1
102
RTVSPropertyOp10
 70
     1
102
RTVSPropertyOp11
 70
     1
102
RTVSPropertyOp12
 70
     1
102
RTVSPropertyOp13
 70
     1
102
RTVSPropertyOp14
 70
     1
102
RTVSPropertyOp15
 70
     1
102
RTVSPropertyOp16
 70
     1
102
RTVSPropertyOp17
 70
     1
102
RTVSPropertyOp18
 70
     1
102
RTVSPropertyOp19
 70
     1
102
RTVSPropertyOp20
 70
     1
102
RTVSPropertyOp21
 70
     1
102
RTVSPropertyOp22
 70
     1
102
RTVSPropertyOp23
 70
     1
102
RTVSPropertyOp24
 70
     1
102
RTVSPropertyOp25
 70
     1
102
RTVSPropertyOp26
 70
     1
102
RTVSPropertyOp27
 70
     1
102
RTVSPropertyOp28
 70
     1
102
RTVSPropertyOp29
 70
     1
102
RTVSPropertyOp30
 70
     1
102
RTVSPropertyOp31
 70
     1
102
RTVSPropertyOp32
 70
     1
  0
XRECORD
  5
1CE
102
{ACAD_REACTORS
330
1CD
102
}
330
1CD
100
AcDbXrecord
280
     1
102
RTVSPropertyOp0
 70
     1
102
RTVSPropertyOp1
 70
     1
102
RTVSPropertyOp2
 70
     1
102
RTVSPropertyOp3
 70
     1
102
RTVSPropertyOp4
 70
     1
102
RTVSPropertyOp5
 70
     1
102
RTVSPropertyOp6
 70
     1
102
RTVSPropertyOp7
 70
     1
102
RTVSPropertyOp8
 70
     1
102
RTVSPropertyOp9
 70
     1
102
RTVSPropertyOp10
 70
     1
102
RTVSPropertyOp11
 70
     1
102
RTVSPropertyOp12
 70
     1
102
RTVSPropertyOp13
 70
     1
102
RTVSPropertyOp14
 70
     1
102
RTVSPropertyOp15
 70
     1
102
RTVSPropertyOp16
 70
     1
102
RTVSPropertyOp17
 70
     1
102
RTVSPropertyOp18
 70
     1
102
RTVSPropertyOp19
 70
     1
102
RTVSPropertyOp20
 70
     1
102
RTVSPropertyOp21
 70
     1
102
RTVSPropertyOp22
 70
     1
102
RTVSPropertyOp23
 70
     1
102
RTVSPropertyOp24
 70
     1
102
RTVSPropertyOp25
 70
     1
102
RTVSPropertyOp26
 70
     1
102
RTVSPropertyOp27
 70
     1
102
RTVSPropertyOp28
 70
     1
102
RTVSPropertyOp29
 70
     1
102
RTVSPropertyOp30
 70
     1
102
RTVSPropertyOp31
 70
     1
102
RTVSPropertyOp32
 70
     1
  0
XRECORD
  5
1D6
102
{ACAD_REACTORS
330
1D5
102
}
330
1D5
100
AcDbXrecord
280
     1
102
RTVSPropertyOp0
 70
     1
102
RTVSPropertyOp1
 70
     1
102
RTVSPropertyOp2
 70
     1
102
RTVSPropertyOp3
 70
     1
102
RTVSPropertyOp4
 70
     1
102
RTVSPropertyOp5
 70
     1
102
RTVSPropertyOp6
 70
     1
102
RTVSPropertyOp7
 70
     1
102
RTVSPropertyOp8
 70
     1
102
RTVSPropertyOp9
 70
     1
102
RTVSPropertyOp10
 70
     1
102
RTVSPropertyOp11
 70
     1
102
RTVSPropertyOp12
 70
     1
102
RTVSPropertyOp13
 70
     1
102
RTVSPropertyOp14
 70
     1
102
RTVSPropertyOp15
 70
     1
102
RTVSPropertyOp16
 70
     1
102
RTVSPropertyOp17
 70
     1
102
RTVSPropertyOp18
 70
     1
102
RTVSPropertyOp19
 70
     1
102
RTVSPropertyOp20
 70
     1
102
RTVSPropertyOp21
 70
     1
102
RTVSPropertyOp22
 70
     1
102
RTVSPropertyOp23
 70
     1
102
RTVSPropertyOp24
 70
     1
102
RTVSPropertyOp25
 70
     1
102
RTVSPropertyOp26
 70
     1
102
RTVSPropertyOp27
 70
     1
102
RTVSPropertyOp28
 70
     1
102
RTVSPropertyOp29
 70
     1
102
RTVSPropertyOp30
 70
     1
102
RTVSPropertyOp31
 70
     1
102
RTVSPropertyOp32
 70
     1
  0
ENDSEC
  0
EOF
