  0
SECTION
  2
HEADER
  9
$ACADVER
  1
AC1015
  9
$ACADMAINTVER
 70
     6
  9
$DWGCODEPAGE
  3
ANSI_1252
  9
$INSBASE
 10
0.0
 20
0.0
 30
0.0
  9
$EXTMIN
 10
0.0
 20
0.0
 30
0.0
  9
$EXTMAX
 10
210.0
 20
297.0
 30
0.0
  9
$LIMMIN
 10
0.0
 20
0.0
  9
$LIMMAX
 10
210.0
 20
297.0
  9
$ORTHOMODE
 70
     0
  9
$REGENMODE
 70
     1
  9
$FILLMODE
 70
     1
  9
$QTEXTMODE
 70
     0
  9
$MIRRTEXT
 70
     1
  9
$LTSCALE
 40
1.0
  9
$ATTMODE
 70
     1
  9
$TEXTSIZE
 40
2.5
  9
$TRACEWID
 40
1.0
  9
$TEXTSTYLE
  7
Standard
  9
$CLAYER
  8
0
  9
$CELTYPE
  6
ByLayer
  9
$CECOLOR
 62
   256
  9
$CELTSCALE
 40
1.0
  9
$DISPSILH
 70
     0
  9
$DIMSCALE
 40
1.0
  9
$DIMASZ
 40
2.5
  9
$DIMEXO
 40
0.625
  9
$DIMDLI
 40
3.75
  9
$DIMRND
 40
0.0
  9
$DIMDLE
 40
0.0
  9
$DIMEXE
 40
1.25
  9
$DIMTP
 40
0.0
  9
$DIMTM
 40
0.0
  9
$DIMTXT
 40
2.5
  9
$DIMCEN
 40
2.5
  9
$DIMTSZ
 40
0.0
  9
$DIMTOL
 70
     0
  9
$DIMLIM
 70
     0
  9
$DIMTIH
 70
     0
  9
$DIMTOH
 70
     0
  9
$DIMSE1
 70
     0
  9
$DIMSE2
 70
     0
  9
$DIMTAD
 70
     1
  9
$DIMZIN
 70
     8
  9
$DIMBLK
  1

  9
$DIMASO
 70
     1
  9
$DIMSHO
 70
     1
  9
$DIMPOST
  1

  9
$DIMAPOST
  1

  9
$DIMALT
 70
     0
  9
$DIMALTD
 70
     3
  9
$DIMALTF
 40
0.0393700787
  9
$DIMLFAC
 40
1.0
  9
$DIMTOFL
 70
     1
  9
$DIMTVP
 40
0.0
  9
$DIMTIX
 70
     0
  9
$DIMSOXD
 70
     0
  9
$DIMSAH
 70
     0
  9
$DIMBLK1
  1

  9
$DIMBLK2
  1

  9
$DIMSTYLE
  2
ISO-25
  9
$DIMCLRD
 70
     0
  9
$DIMCLRE
 70
     0
  9
$DIMCLRT
 70
     0
  9
$DIMTFAC
 40
1.0
  9
$DIMGAP
 40
0.625
  9
$DIMJUST
 70
     0
  9
$DIMSD1
 70
     0
  9
$DIMSD2
 70
     0
  9
$DIMTOLJ
 70
     0
  9
$DIMTZIN
 70
     8
  9
$DIMALTZ
 70
     0
  9
$DIMALTTZ
 70
     0
  9
$DIMUPT
 70
     0
  9
$DIMDEC
 70
     2
  9
$DIMTDEC
 70
     2
  9
$DIMALTU
 70
     2
  9
$DIMALTTD
 70
     3
  9
$DIMTXSTY
  7
Standard
  9
$DIMAUNIT
 70
     0
  9
$DIMADEC
 70
     0
  9
$DIMALTRND
 40
0.0
  9
$DIMAZIN
 70
     0
  9
$DIMDSEP
 70
    44
  9
$DIMATFIT
 70
     3
  9
$DIMFRAC
 70
     0
  9
$DIMLDRBLK
  1

  9
$DIMLUNIT
 70
     2
  9
$DIMLWD
 70
    -2
  9
$DIMLWE
 70
    -2
  9
$DIMTMOVE
 70
     0
  9
$LUNITS
 70
     2
  9
$LUPREC
 70
     4
  9
$SKETCHINC
 40
1.0
  9
$FILLETRAD
 40
10.0
  9
$AUNITS
 70
     0
  9
$AUPREC
 70
     0
  9
$MENU
  1
.
  9
$ELEVATION
 40
0.0
  9
$PELEVATION
 40
0.0
  9
$THICKNESS
 40
0.0
  9
$LIMCHECK
 70
     0
  9
$CHAMFERA
 40
10.0
  9
$CHAMFERB
 40
10.0
  9
$CHAMFERC
 40
20.0
  9
$CHAMFERD
 40
0.0
  9
$SKPOLY
 70
     0
  9
$TDCREATE
 40
2457560.548502188
  9
$TDUCREATE
 40
2457560.465168854
  9
$TDUPDATE
 40
2457560.548504618
  9
$TDUUPDATE
 40
2457560.465171285
  9
$TDINDWG
 40
0.0000000116
  9
$TDUSRTIMER
 40
0.0000000116
  9
$USRTIMER
 70
     1
  9
$ANGBASE
 50
0.0
  9
$ANGDIR
 70
     0
  9
$PDMODE
 70
     0
  9
$PDSIZE
 40
0.0
  9
$PLINEWID
 40
0.0
  9
$SPLFRAME
 70
     0
  9
$SPLINETYPE
 70
     6
  9
$SPLINESEGS
 70
     8
  9
$HANDSEED
  5
1DC
  9
$SURFTAB1
 70
     6
  9
$SURFTAB2
 70
     6
  9
$SURFTYPE
 70
     6
  9
$SURFU
 70
     6
  9
$SURFV
 70
     6
  9
$UCSBASE
  2

  9
$UCSNAME
  2

  9
$UCSORG
 10
0.0
 20
0.0
 30
0.0
  9
$UCSXDIR
 10
1.0
 20
0.0
 30
0.0
  9
$UCSYDIR
 10
0.0
 20
1.0
 30
0.0
  9
$UCSORTHOREF
  2

  9
$UCSORTHOVIEW
 70
     0
  9
$UCSORGTOP
 10
0.0
 20
0.0
 30
0.0
  9
$UCSORGBOTTOM
 10
0.0
 20
0.0
 30
0.0
  9
$UCSORGLEFT
 10
0.0
 20
0.0
 30
0.0
  9
$UCSORGRIGHT
 10
0.0
 20
0.0
 30
0.0
  9
$UCSORGFRONT
 10
0.0
 20
0.0
 30
0.0
  9
$UCSORGBACK
 10
0.0
 20
0.0
 30
0.0
  9
$PUCSBASE
  2

  9
$PUCSNAME
  2

  9
$PUCSORG
 10
0.0
 20
0.0
 30
0.0
  9
$PUCSXDIR
 10
1.0
 20
0.0
 30
0.0
  9
$PUCSYDIR
 10
0.0
 20
1.0
 30
0.0
  9
$PUCSORTHOREF
  2

  9
$PUCSORTHOVIEW
 70
     0
  9
$PUCSORGTOP
 10
0.0
 20
0.0
 30
0.0
  9
$PUCSORGBOTTOM
 10
0.0
 20
0.0
 30
0.0
  9
$PUCSORGLEFT
 10
0.0
 20
0.0
 30
0.0
  9
$PUCSORGRIGHT
 10
0.0
 20
0.0
 30
0.0
  9
$PUCSORGFRONT
 10
0.0
 20
0.0
 30
0.0
  9
$PUCSORGBACK
 10
0.0
 20
0.0
 30
0.0
  9
$USERI1
 70
     0
  9
$USERI2
 70
     0
  9
$USERI3
 70
     0
  9
$USERI4
 70
     0
  9
$USERI5
 70
     0
  9
$USERR1
 40
0.0
  9
$USERR2
 40
0.0
  9
$USERR3
 40
0.0
  9
$USERR4
 40
0.0
  9
$USERR5
 40
0.0
  9
$WORLDVIEW
 70
     1
  9
$SHADEDGE
 70
     3
  9
$SHADEDIF
 70
    70
  9
$TILEMODE
 70
     1
  9
$MAXACTVP
 70
    64
  9
$PINSBASE
 10
0.0
 20
0.0
 30
0.0
  9
$PLIMCHECK
 70
     0
  9
$PEXTMIN
 10
0.0
 20
0.0
 30
0.0
  9
$PEXTMAX
 10
210.0
 20
297.0
 30
0.0
  9
$PLIMMIN
 10
0.0
 20
0.0
  9
$PLIMMAX
 10
210.0
 20
297.0
  9
$UNITMODE
 70
     0
  9
$VISRETAIN
 70
     1
  9
$PLINEGEN
 70
     0
  9
$PSLTSCALE
 70
     1
  9
$TREEDEPTH
 70
  3020
  9
$CMLSTYLE
  2
Standard
  9
$CMLJUST
 70
     0
  9
$CMLSCALE
 40
20.0
  9
$PROXYGRAPHICS
 70
     1
  9
$MEASUREMENT
 70
     1
  9
$CELWEIGHT
370
    -1
  9
$ENDCAPS
280
     0
  9
$JOINSTYLE
280
     0
  9
$LWDISPLAY
290
     0
  9
$INSUNITS
 70
     4
  9
$HYPERLINKBASE
  1

  9
$STYLESHEET
  1

  9
$XEDIT
290
     1
  9
$CEPSNTYPE
380
     0
  9
$PSTYLEMODE
290
     1
  9
$FINGERPRINTGUID
  2
{9000C4D4-7BA6-4D54-A6EC-AD44E709CEA7}
  9
$VERSIONGUID
  2
{FAEB1C32-E019-11D5-929B-00C0DF256EC4}
  9
$EXTNAMES
290
     1
  9
$PSVPSCALE
 40
0.0
  9
$OLESTARTUP
290
     0
  0
ENDSEC
  0
SECTION
  2
CLASSES
  0
CLASS
  1
ACDBDICTIONARYWDFLT
  2
AcDbDictionaryWithDefault
  3
ObjectDBX Classes
 90
        0
280
     0
281
     0
  0
CLASS
  1
VISUALSTYLE
  2
AcDbVisualStyle
  3
ObjectDBX Classes
 90
     4095
280
     0
281
     0
  0
CLASS
  1
MATERIAL
  2
AcDbMaterial
  3
ObjectDBX Classes
 90
     1153
280
     0
281
     0
  0
CLASS
  1
DICTIONARYVAR
  2
AcDbDictionaryVar
  3
ObjectDBX Classes
 90
        0
280
     0
281
     0
  0
CLASS
  1
ACDBPLACEHOLDER
  2
AcDbPlaceHolder
  3
ObjectDBX Classes
 90
        0
280
     0
281
     0
  0
CLASS
  1
LAYOUT
  2
AcDbLayout
  3
ObjectDBX Classes
 90
        0
280
     0
281
     0
  0
ENDSEC
  0
SECTION
  2
TABLES
  0
TABLE
  2
VPORT
  5
8
330
0
100
AcDbSymbolTable
 70
     1
  0
VPORT
  5
29
330
8
100
AcDbSymbolTableRecord
100
AcDbViewportTableRecord
  2
*Active
 70
     0
 10
0.0
 20
0.0
 11
1.0
 21
1.0
 12
344.1869158879
 22
148.5
 13
0.0
 23
0.0
 14
10.0
 24
10.0
 15
10.0
 25
10.0
 16
0.0
 26
0.0
 36
1.0
 17
0.0
 27
0.0
 37
0.0
 40
297.0
 41
1.9729729729
 42
50.0
 43
0.0
 44
0.0
 50
0.0
 51
0.0
 71
     0
 72
   100
 73
     1
 74
     3
 75
     0
 76
     0
 77
     0
 78
     0
281
     0
 65
     1
110
0.0
120
0.0
130
0.0
111
1.0
121
0.0
131
0.0
112
0.0
122
1.0
132
0.0
 79
     0
146
0.0
  0
ENDTAB
  0
TABLE
  2
LTYPE
  5
5
330
0
100
AcDbSymbolTable
 70
     2
  0
LTYPE
  5
14
330
5
100
AcDbSymbolTableRecord
100
AcDbLinetypeTableRecord
  2
ByBlock
 70
     0
  3

 72
    65
 73
     0
 40
0.0
  0
LTYPE
  5
15
330
5
100
AcDbSymbolTableRecord
100
AcDbLinetypeTableRecord
  2
ByLayer
 70
     0
  3

 72
    65
 73
     0
 40
0.0
  0
LTYPE
  5
16
330
5
100
AcDbSymbolTableRecord
100
AcDbLinetypeTableRecord
  2
Continuous
 70
     0
  3
Solid line
 72
    65
 73
     0
 40
0.0
  0
LTYPE
  5
5A
330
5
100
AcDbSymbolTableRecord
100
AcDbLinetypeTableRecord
  2
HIDDEN2
 70
     0
  3
Hidden (.5x) _ _ _ _ _ _ _ _ _ _ _ _ _ _ _ _ _ 
 72
    65
 73
     2
 40
4.7625
 49
3.175
 74
     4
 75
     0
340
0
 46
0.0
 50
0.0
 44
0.0
 45
0.0
 49
-1.5875
 74
     4
 75
     0
340
0
 46
0.0
 50
0.0
 44
0.0
 45
0.0
  0
ENDTAB
  0
TABLE
  2
LAYER
  5
2
330
0
100
AcDbSymbolTable
 70
     5
  0
LAYER
  5
10
330
2
100
AcDbSymbolTableRecord
100
AcDbLayerTableRecord
  2
0
 70
     0
 62
     7
  6
Continuous
370
    -3
390
F
  0
LAYER
  5
3F
330
2
100
AcDbSymbolTableRecord
100
AcDbLayerTableRecord
  2
SK2
 70
     0
 62
     7
  6
Continuous
370
    15
390
F
  0
LAYER
  5
40
330
2
100
AcDbSymbolTableRecord
100
AcDbLayerTableRecord
  2
SK1
 70
     0
 62
     4
  6
Continuous
370
    18
390
F
  0
LAYER
  5
59
330
2
100
AcDbSymbolTableRecord
100
AcDbLayerTableRecord
  2
SK3
 70
     0
 62
     1
  6
HIDDEN2
370
    15
390
F
  0
LAYER
  5
16F
330
2
100
AcDbSymbolTableRecord
100
AcDbLayerTableRecord
  2
SK4
 70
     0
 62
     2
  6
Continuous
370
    13
390
F
  0
ENDTAB
  0
TABLE
  2
STYLE
  5
3
330
0
100
AcDbSymbolTable
 70
     2
  0
STYLE
  5
11
330
3
100
AcDbSymbolTableRecord
100
AcDbTextStyleTableRecord
  2
Standard
 70
     0
 40
0.0
 41
1.0
 50
0.0
 71
     0
 42
2.5
  3
txt
  4

  0
STYLE
  5
183
330
3
100
AcDbSymbolTableRecord
100
AcDbTextStyleTableRecord
  2
SEACAD_Solid_Edge_ISO
 70
     0
 40
0.0
 41
1.0
 50
0.0
 71
     0
 42
0.2
  3
seiso.ttf
  4

1001
ACAD
1000
Solid Edge ISO
1071
        0
  0
ENDTAB
  0
TABLE
  2
VIEW
  5
6
330
0
100
AcDbSymbolTable
 70
     0
  0
ENDTAB
  0
TABLE
  2
UCS
  5
7
330
0
100
AcDbSymbolTable
 70
     0
  0
ENDTAB
  0
TABLE
  2
APPID
  5
9
330
0
100
AcDbSymbolTable
 70
     1
  0
APPID
  5
12
330
9
100
AcDbSymbolTableRecord
100
AcDbRegAppTableRecord
  2
ACAD
 70
     0
  0
ENDTAB
  0
TABLE
  2
DIMSTYLE
  5
A
330
0
100
AcDbSymbolTable
 70
     3
100
AcDbDimStyleTable
  0
DIMSTYLE
105
27
330
A
100
AcDbSymbolTableRecord
100
AcDbDimStyleTableRecord
  2
ISO-25
 70
     0
 41
2.5
 42
0.625
 43
3.75
 44
1.25
 73
     0
 74
     0
 77
     1
 78
     8
140
2.5
141
2.5
143
0.0393700787
147
0.625
171
     3
172
     1
178
     0
271
     2
272
     2
274
     3
278
    44
283
     0
284
     8
340
11
  0
DIMSTYLE
105
171
330
A
100
AcDbSymbolTableRecord
100
AcDbDimStyleTableRecord
  2
Standard
 70
     0
178
     0
340
11
  0
DIMSTYLE
105
184
102
{ACAD_REACTORS
330
185
330
190
330
19A
330
1A5
102
}
330
A
100
AcDbSymbolTableRecord
100
AcDbDimStyleTableRecord
  2
DIN
 70
     0
 41
3.5
 42
0.0
 44
1.75
 73
     0
 74
     0
 77
     1
 78
     8
140
3.5
141
1.75
147
1.75
172
     1
173
     1
178
     0
179
     3
271
     2
272
     2
278
    44
284
     8
340
183
343
17E
344
17E
  0
ENDTAB
  0
TABLE
  2
BLOCK_RECORD
  5
1
330
0
100
AcDbSymbolTable
 70
    10
  0
BLOCK_RECORD
  5
1F
330
1
100
AcDbSymbolTableRecord
100
AcDbBlockTableRecord
  2
*Model_Space
340
22
  0
BLOCK_RECORD
  5
1B
330
1
100
AcDbSymbolTableRecord
100
AcDbBlockTableRecord
  2
*Paper_Space
340
1E
  0
BLOCK_RECORD
  5
41
330
1
100
AcDbSymbolTableRecord
100
AcDbBlockTableRecord
  2
Nullpunkt
340
0
102
{BLKREFS
331
4B
102
}
  0
BLOCK_RECORD
  5
4C
330
1
100
AcDbSymbolTableRecord
100
AcDbBlockTableRecord
  2
Einfügepunkt
340
0
102
{BLKREFS
331
56
102
}
  0
BLOCK_RECORD
  5
172
330
1
100
AcDbSymbolTableRecord
100
AcDbBlockTableRecord
  2
_OBLIQUE
340
0
  0
BLOCK_RECORD
  5
176
330
1
100
AcDbSymbolTableRecord
100
AcDbBlockTableRecord
  2
_DOT
340
0
  0
BLOCK_RECORD
  5
17E
330
1
100
AcDbSymbolTableRecord
100
AcDbBlockTableRecord
  2
_SE_FILLED
340
0
  0
BLOCK_RECORD
  5
186
330
1
100
AcDbSymbolTableRecord
100
AcDbBlockTableRecord
  2
DMBLK79
340
0
  0
BLOCK_RECORD
  5
191
330
1
100
AcDbSymbolTableRecord
100
AcDbBlockTableRecord
  2
DMBLK80
340
0
  0
BLOCK_RECORD
  5
19B
330
1
100
AcDbSymbolTableRecord
100
AcDbBlockTableRecord
  2
DMBLK81
340
0
  0
BLOCK_RECORD
  5
1A6
330
1
100
AcDbSymbolTableRecord
100
AcDbBlockTableRecord
  2
DMBLK82
340
0
  0
ENDTAB
  0
ENDSEC
  0
SECTION
  2
BLOCKS
  0
BLOCK
  5
20
330
1F
100
AcDbEntity
  8
0
100
AcDbBlockBegin
  2
*Model_Space
 70
     0
 10
0.0
 20
0.0
 30
0.0
  3
*Model_Space
  1

  0
ENDBLK
  5
21
330
1F
100
AcDbEntity
  8
0
100
AcDbBlockEnd
  0
BLOCK
  5
1C
330
1B
100
AcDbEntity
 67
     1
  8
0
100
AcDbBlockBegin
  2
*Paper_Space
 70
     0
 10
0.0
 20
0.0
 30
0.0
  3
*Paper_Space
  1

  0
ENDBLK
  5
1D
330
1B
100
AcDbEntity
 67
     1
  8
0
100
AcDbBlockEnd
  0
BLOCK
  5
49
330
41
100
AcDbEntity
  8
0
100
AcDbBlockBegin
  2
Nullpunkt
 70
     0
 10
0.0
 20
0.0
 30
0.0
  3
Nullpunkt
  1

  0
HATCH
  5
42
330
41
100
AcDbEntity
  8
SK2
  6
Continuous
 62
     7
100
AcDbHatch
 10
0.0
 20
0.0
 30
0.0
210
0.0
220
0.0
230
1.0
  2
SOLID
 70
     1
 71
     0
 91
        1
 92
        1
 93
        3
 72
     1
 10
-1.0
 20
0.0
 11
0.0000000000000009
 21
0.0
 72
     1
 10
0.0
 20
0.0
 11
0.0
 21
1.000000000000001
 72
     2
 10
0.0
 20
0.0
 40
1.0
 50
90.0
 51
180.0
 73
     1
 97
        0
 75
     0
 76
     1
 98
        0
  0
HATCH
  5
43
330
41
100
AcDbEntity
  8
SK2
  6
Continuous
 62
     7
100
AcDbHatch
 10
0.0
 20
0.0
 30
0.0
210
0.0
220
0.0
230
1.0
  2
SOLID
 70
     1
 71
     0
 91
        1
 92
        1
 93
        3
 72
     2
 10
0.0
 20
0.0
 40
1.0
 50
270.0
 51
360.0
 73
     1
 72
     1
 10
1.0
 20
0.0
 11
-0.0000000000000009
 21
0.0
 72
     1
 10
0.0
 20
0.0
 11
0.0
 21
-1.000000000000001
 97
        0
 75
     0
 76
     1
 98
        0
  0
CIRCLE
  5
44
330
41
100
AcDbEntity
  8
SK2
  6
Continuous
 62
     7
100
AcDbCircle
 10
0.0
 20
0.0
 30
0.0
 40
1.0
  0
LINE
  5
45
330
41
100
AcDbEntity
  8
SK1
  6
Continuous
100
AcDbLine
 10
-1.0
 20
0.0
 30
0.0
 11
1.0
 21
0.0
 31
0.0
  0
LINE
  5
46
330
41
100
AcDbEntity
  8
SK1
  6
Continuous
100
AcDbLine
 10
0.0
 20
1.0
 30
0.0
 11
0.0
 21
-1.0
 31
0.0
  0
POINT
  5
47
330
41
100
AcDbEntity
  8
SK1
  6
Continuous
100
AcDbPoint
 10
0.0
 20
0.0
 30
0.0
  0
POINT
  5
48
330
41
100
AcDbEntity
  8
SK1
  6
Continuous
100
AcDbPoint
 10
0.0
 20
0.0
 30
0.0
  0
ENDBLK
  5
4A
330
41
100
AcDbEntity
  8
0
100
AcDbBlockEnd
  0
BLOCK
  5
54
330
4C
100
AcDbEntity
  8
0
100
AcDbBlockBegin
  2
Einfügepunkt
 70
     0
 10
0.0
 20
0.0
 30
0.0
  3
Einfügepunkt
  1

  0
HATCH
  5
4D
330
4C
100
AcDbEntity
  8
SK2
  6
Continuous
 62
     7
100
AcDbHatch
 10
0.0
 20
0.0
 30
0.0
210
0.0
220
0.0
230
1.0
  2
SOLID
 70
     1
 71
     0
 91
        1
 92
        1
 93
        3
 72
     1
 10
-0.4502381196756744
 20
-0.0000000000000018
 11
0.0000000000000033
 21
-0.0000000000000018
 72
     1
 10
0.0
 20
-0.0000000000000018
 11
0.0
 21
0.4502381196756812
 72
     2
 10
0.0
 20
-0.0000000000000018
 40
0.4502381196756812
 50
90.0
 51
180.0
 73
     1
 97
        0
 75
     0
 76
     1
 98
        0
  0
HATCH
  5
4E
330
4C
100
AcDbEntity
  8
SK2
  6
Continuous
 62
     7
100
AcDbHatch
 10
0.0
 20
0.0
 30
0.0
210
0.0
220
0.0
230
1.0
  2
SOLID
 70
     1
 71
     0
 91
        1
 92
        1
 93
        3
 72
     2
 10
0.0
 20
-0.0000000000000018
 40
0.4502381196756812
 50
270.0
 51
360.0
 73
     1
 72
     1
 10
0.4502381196756815
 20
-0.0000000000000018
 11
0.0000000000000038
 21
-0.0000000000000018
 72
     1
 10
0.0
 20
-0.0000000000000018
 11
0.0
 21
-0.4502381196756812
 97
        0
 75
     0
 76
     1
 98
        0
  0
CIRCLE
  5
4F
330
4C
100
AcDbEntity
  8
SK2
  6
Continuous
 62
     7
100
AcDbCircle
 10
0.0
 20
0.0
 30
0.0
 40
0.4502381196756812
  0
LINE
  5
50
330
4C
100
AcDbEntity
  8
SK1
  6
Continuous
100
AcDbLine
 10
-0.4502381197
 20
0.0
 30
0.0
 11
0.4502381197
 21
0.0
 31
0.0
  0
LINE
  5
51
330
4C
100
AcDbEntity
  8
SK1
  6
Continuous
100
AcDbLine
 10
0.0
 20
0.4502381197
 30
0.0
 11
0.0
 21
-0.4502381197
 31
0.0
  0
POINT
  5
52
330
4C
100
AcDbEntity
  8
SK2
  6
Continuous
 62
     7
100
AcDbPoint
 10
0.0
 20
0.0
 30
0.0
  0
POINT
  5
53
330
4C
100
AcDbEntity
  8
SK2
  6
Continuous
 62
     7
100
AcDbPoint
 10
0.0
 20
0.0
 30
0.0
  0
ENDBLK
  5
55
330
4C
100
AcDbEntity
  8
0
100
AcDbBlockEnd
  0
BLOCK
  5
173
330
172
100
AcDbEntity
  8
0
100
AcDbBlockBegin
  2
_OBLIQUE
 70
     0
 10
0.0
 20
0.0
 30
0.0
  3
_OBLIQUE
  1

  0
LINE
  5
175
330
172
100
AcDbEntity
  8
0
  6
ByBlock
 62
     0
370
    -2
100
AcDbLine
 10
-0.5
 20
-0.5
 30
0.0
 11
0.5
 21
0.5
 31
0.0
  0
ENDBLK
  5
174
330
172
100
AcDbEntity
  8
0
100
AcDbBlockEnd
  0
BLOCK
  5
177
330
176
100
AcDbEntity
  8
0
100
AcDbBlockBegin
  2
_DOT
 70
     0
 10
0.0
 20
0.0
 30
0.0
  3
_DOT
  1

  0
POLYLINE
  5
179
330
176
100
AcDbEntity
  8
0
  6
ByBlock
 62
     0
100
AcDb2dPolyline
 66
     1
 10
0.0
 20
0.0
 30
0.0
 70
     1
 40
0.5
 41
0.5
  0
VERTEX
  5
17B
330
179
100
AcDbEntity
  8
0
  6
ByBlock
 62
     0
100
AcDbVertex
100
AcDb2dVertex
 10
-0.25
 20
0.0
 30
0.0
 42
1.0
  0
VERTEX
  5
17C
330
179
100
AcDbEntity
  8
0
  6
ByBlock
 62
     0
100
AcDbVertex
100
AcDb2dVertex
 10
0.25
 20
0.0
 30
0.0
 42
1.0
  0
SEQEND
  5
17D
330
179
100
AcDbEntity
  8
0
  6
ByBlock
 62
     0
  0
LINE
  5
17A
330
176
100
AcDbEntity
  8
0
  6
ByBlock
 62
     0
370
    -2
100
AcDbLine
 10
-0.5
 20
0.0
 30
0.0
 11
-1.0
 21
0.0
 31
0.0
  0
ENDBLK
  5
178
330
176
100
AcDbEntity
  8
0
100
AcDbBlockEnd
  0
BLOCK
  5
181
330
17E
100
AcDbEntity
  8
0
100
AcDbBlockBegin
  2
_SE_FILLED
 70
     0
 10
0.0
 20
0.0
 30
0.0
  3
_SE_FILLED
  1

  0
SOLID
  5
17F
330
17E
100
AcDbEntity
  8
0
 62
     0
100
AcDbTrace
 10
0.0
 20
0.0
 30
0.0
 11
-1.0
 21
-0.1665
 31
0.0
 12
-1.0
 22
0.1665
 32
0.0
 13
0.0
 23
0.0
 33
0.0
  0
LINE
  5
180
330
17E
100
AcDbEntity
  8
0
 62
     0
100
AcDbLine
 10
0.0
 20
0.0
 30
0.0
 11
-1.0
 21
0.0
 31
0.0
  0
ENDBLK
  5
182
330
17E
100
AcDbEntity
  8
0
100
AcDbBlockEnd
  0
BLOCK
  5
18E
330
186
100
AcDbEntity
  8
0
100
AcDbBlockBegin
  2
DMBLK79
 70
     0
 10
0.0
 20
0.0
 30
0.0
  3
DMBLK79
  1

  0
HATCH
  5
187
330
186
100
AcDbEntity
  8
SK2
  6
Continuous
 62
   136
100
AcDbHatch
 10
0.0
 20
0.0
 30
0.0
210
0.0
220
0.0
230
1.0
  2
SOLID
 70
     1
 71
     0
 91
        1
 92
        1
 93
        3
 72
     1
 10
20.88570982786516
 20
-4.000000008262711
 11
20.30237647652626
 21
-0.4999999002292932
 72
     1
 10
20.30237647652626
 20
-0.4999999002292936
 11
19.71904312518735
 21
-4.000000008262711
 72
     1
 10
19.71904312518735
 20
-4.000000008262711
 11
20.88570982786516
 21
-4.000000008262711
 97
        0
 75
     0
 76
     1
 98
        0
  0
HATCH
  5
188
330
186
100
AcDbEntity
  8
SK2
  6
Continuous
 62
   136
100
AcDbHatch
 10
0.0
 20
0.0
 30
0.0
210
0.0
220
0.0
230
1.0
  2
SOLID
 70
     1
 71
     0
 91
        1
 92
        1
 93
        3
 72
     1
 10
20.88570982786516
 20
4.000000207804109
 11
19.71904312518735
 21
4.000000207804109
 72
     1
 10
19.71904312518735
 20
4.000000207804109
 11
20.30237647652626
 21
0.5000000997706908
 72
     1
 10
20.30237647652626
 20
0.5000000997706908
 11
20.88570982786516
 21
4.000000207804109
 97
        0
 75
     0
 76
     1
 98
        0
  0
LINE
  5
189
330
186
100
AcDbEntity
  8
SK2
  6
Continuous
 62
   136
100
AcDbLine
 10
10.06
 20
-0.4999999002
 30
0.0
 11
22.0523765305
 21
-0.4999999002
 31
0.0
  0
LINE
  5
18A
330
186
100
AcDbEntity
  8
SK2
  6
Continuous
 62
   136
100
AcDbLine
 10
10.06
 20
0.5000000998
 30
0.0
 11
22.0523765305
 21
0.5000000998
 31
0.0
  0
LINE
  5
18B
330
186
100
AcDbEntity
  8
SK2
  6
Continuous
 62
   136
100
AcDbLine
 10
20.3023764765
 20
-7.5000001163
 30
0.0
 11
20.3023764765
 21
14.6800495639
 31
0.0
  0
TEXT
  5
18C
330
186
100
AcDbEntity
  8
SK2
  6
Continuous
 62
   136
100
AcDbText
 10
19.4273764765
 20
12.0232319832
 30
0.0
 40
3.5
  1
1
 50
90.0
  7
SEACAD_Solid_Edge_ISO
 11
15.9273764765
 21
12.0232319832
 31
0.0
100
AcDbText
 73
     3
  0
TEXT
  5
18D
330
186
100
AcDbEntity
  8
SK2
  6
Continuous
 62
   136
100
AcDbText
 10
19.4273764765
 20
7.9505047105
 30
0.0
 40
3.5
  1
ø
 50
90.0
  7
SEACAD_Solid_Edge_ISO
 11
15.9273764765
 21
7.9505047105
 31
0.0
100
AcDbText
 73
     3
  0
ENDBLK
  5
18F
330
186
100
AcDbEntity
  8
0
100
AcDbBlockEnd
  0
BLOCK
  5
198
330
191
100
AcDbEntity
  8
0
100
AcDbBlockBegin
  2
DMBLK80
 70
     0
 10
0.0
 20
0.0
 30
0.0
  3
DMBLK80
  1

  0
HATCH
  5
192
330
191
100
AcDbEntity
  8
SK2
  6
Continuous
 62
   136
100
AcDbHatch
 10
0.0
 20
0.0
 30
0.0
210
0.0
220
0.0
230
1.0
  2
SOLID
 70
     1
 71
     0
 91
        1
 92
        1
 93
        3
 72
     1
 10
-3.500000108033418
 20
-15.67678421874834
 11
0.0000000000000009
 21
-15.09345086740943
 72
     1
 10
0.0000000000000009
 20
-15.09345086740943
 11
-3.500000108033417
 21
-14.51011751607053
 72
     1
 10
-3.500000108033418
 20
-14.51011751607053
 11
-3.500000108033418
 21
-15.67678421874834
 97
        0
 75
     0
 76
     1
 98
        0
  0
HATCH
  5
193
330
191
100
AcDbEntity
  8
SK2
  6
Continuous
 62
   136
100
AcDbHatch
 10
0.0
 20
0.0
 30
0.0
210
0.0
220
0.0
230
1.0
  2
SOLID
 70
     1
 71
     0
 91
        1
 92
        1
 93
        3
 72
     1
 10
13.76000010803342
 20
-15.67678421874834
 11
13.76000010803342
 21
-14.51011751607053
 72
     1
 10
13.76000010803342
 20
-14.51011751607053
 11
10.26
 21
-15.09345086740943
 72
     1
 10
10.26
 20
-15.09345086740943
 11
13.76000010803342
 21
-15.67678421874834
 97
        0
 75
     0
 76
     1
 98
        0
  0
LINE
  5
194
330
191
100
AcDbEntity
  8
SK2
  6
Continuous
 62
   136
100
AcDbLine
 10
0.0
 20
-7.9965097502
 30
0.0
 11
0.0
 21
-16.8434509214
 31
0.0
  0
LINE
  5
195
330
191
100
AcDbEntity
  8
SK2
  6
Continuous
 62
   136
100
AcDbLine
 10
10.26
 20
-4.201740342
 30
0.0
 11
10.26
 21
-16.8434509214
 31
0.0
  0
LINE
  5
196
330
191
100
AcDbEntity
  8
SK2
  6
Continuous
 62
   136
100
AcDbLine
 10
-7.0000002161
 20
-15.0934508674
 30
0.0
 11
27.0358603448
 21
-15.0934508674
 31
0.0
  0
TEXT
  5
197
330
191
100
AcDbEntity
  8
SK2
  6
Continuous
 62
   136
100
AcDbText
 10
17.3790415138
 20
-14.2184508674
 30
0.0
 40
3.5
  1
10,26
  7
SEACAD_Solid_Edge_ISO
 11
17.3790415138
 21
-10.7184508674
 31
0.0
100
AcDbText
 73
     3
  0
ENDBLK
  5
199
330
191
100
AcDbEntity
  8
0
100
AcDbBlockEnd
  0
BLOCK
  5
1A3
330
19B
100
AcDbEntity
  8
0
100
AcDbBlockBegin
  2
DMBLK81
 70
     0
 10
0.0
 20
0.0
 30
0.0
  3
DMBLK81
  1

  0
HATCH
  5
19C
330
19B
100
AcDbEntity
  8
SK2
  6
Continuous
 62
   136
100
AcDbHatch
 10
0.0
 20
0.0
 30
0.0
210
0.0
220
0.0
230
1.0
  2
SOLID
 70
     1
 71
     0
 91
        1
 92
        1
 93
        3
 72
     1
 10
-23.12233617218832
 20
11.49651005778697
 11
-22.53900282084942
 21
7.996509949753555
 72
     1
 10
-22.53900282084942
 20
7.996509949753556
 11
-21.95566946951051
 21
11.49651005778697
 72
     1
 10
-21.95566946951051
 20
11.49651005778697
 11
-23.12233617218832
 21
11.49651005778697
 97
        0
 75
     0
 76
     1
 98
        0
  0
HATCH
  5
19D
330
19B
100
AcDbEntity
  8
SK2
  6
Continuous
 62
   136
100
AcDbHatch
 10
0.0
 20
0.0
 30
0.0
210
0.0
220
0.0
230
1.0
  2
SOLID
 70
     1
 71
     0
 91
        1
 92
        1
 93
        3
 72
     1
 10
-23.12233617218832
 20
-11.49650985824558
 11
-21.95566946951051
 21
-11.49650985824558
 72
     1
 10
-21.95566946951051
 20
-11.49650985824558
 11
-22.53900282084942
 21
-7.996509750212159
 72
     1
 10
-22.53900282084942
 20
-7.996509750212159
 11
-23.12233617218832
 21
-11.49650985824558
 97
        0
 75
     0
 76
     1
 98
        0
  0
LINE
  5
19E
330
19B
100
AcDbEntity
  8
SK2
  6
Continuous
 62
   136
100
AcDbLine
 10
0.0
 20
7.9965099498
 30
0.0
 11
-24.2890028749
 21
7.9965099498
 31
0.0
  0
LINE
  5
19F
330
19B
100
AcDbEntity
  8
SK2
  6
Continuous
 62
   136
100
AcDbLine
 10
0.0
 20
-7.9965097502
 30
0.0
 11
-24.2890028749
 21
-7.9965097502
 31
0.0
  0
LINE
  5
1A0
330
19B
100
AcDbEntity
  8
SK2
  6
Continuous
 62
   136
100
AcDbLine
 10
-22.5390028208
 20
14.9965101658
 30
0.0
 11
-22.5390028208
 21
-14.9965089009
 31
0.0
  0
TEXT
  5
1A1
330
19B
100
AcDbEntity
  8
SK2
  6
Continuous
 62
   136
100
AcDbText
 10
-23.4140028208
 20
0.2465910759
 30
0.0
 40
3.5
  1
16
 50
90.0
  7
SEACAD_Solid_Edge_ISO
 11
-26.9140028208
 21
0.2465910759
 31
0.0
100
AcDbText
 73
     3
  0
TEXT
  5
1A2
330
19B
100
AcDbEntity
  8
SK2
  6
Continuous
 62
   136
100
AcDbText
 10
-23.4140028208
 20
-3.8261361969
 30
0.0
 40
3.5
  1
ø
 50
90.0
  7
SEACAD_Solid_Edge_ISO
 11
-26.9140028208
 21
-3.8261361969
 31
0.0
100
AcDbText
 73
     3
  0
ENDBLK
  5
1A4
330
19B
100
AcDbEntity
  8
0
100
AcDbBlockEnd
  0
BLOCK
  5
1AD
330
1A6
100
AcDbEntity
  8
0
100
AcDbBlockBegin
  2
DMBLK82
 70
     0
 10
0.0
 20
0.0
 30
0.0
  3
DMBLK82
  1

  0
HATCH
  5
1A7
330
1A6
100
AcDbEntity
  8
SK2
  6
Continuous
 62
   136
100
AcDbHatch
 10
0.0
 20
0.0
 30
0.0
210
0.0
220
0.0
230
1.0
  2
SOLID
 70
     1
 71
     0
 91
        1
 92
        1
 93
        3
 72
     1
 10
-13.73999989196658
 20
14.27774444131421
 11
-17.23999999999999
 21
13.69441108997531
 72
     1
 10
-17.23999999999999
 20
13.69441108997531
 11
-13.73999989196658
 21
13.1110777386364
 72
     1
 10
-13.73999989196658
 20
13.1110777386364
 11
-13.73999989196658
 21
14.27774444131421
 97
        0
 75
     0
 76
     1
 98
        0
  0
HATCH
  5
1A8
330
1A6
100
AcDbEntity
  8
SK2
  6
Continuous
 62
   136
100
AcDbHatch
 10
0.0
 20
0.0
 30
0.0
210
0.0
220
0.0
230
1.0
  2
SOLID
 70
     1
 71
     0
 91
        1
 92
        1
 93
        3
 72
     1
 10
6.759999742954975
 20
14.27774444131421
 11
6.759999742954975
 21
13.1110777386364
 72
     1
 10
6.759999742954975
 20
13.1110777386364
 11
10.25999985098839
 21
13.69441108997531
 72
     1
 10
10.25999985098839
 20
13.69441108997531
 11
6.759999742954975
 21
14.27774444131421
 97
        0
 75
     0
 76
     1
 98
        0
  0
LINE
  5
1A9
330
1A6
100
AcDbEntity
  8
SK2
  6
Continuous
 62
   136
100
AcDbLine
 10
-17.24
 20
4.8235323675
 30
0.0
 11
-17.24
 21
15.444411144
 31
0.0
  0
LINE
  5
1AA
330
1A6
100
AcDbEntity
  8
SK2
  6
Continuous
 62
   136
100
AcDbLine
 10
10.26
 20
5.3435485056
 30
0.0
 11
10.26
 21
15.444411144
 31
0.0
  0
LINE
  5
1AB
330
1A6
100
AcDbEntity
  8
SK2
  6
Continuous
 62
   136
100
AcDbLine
 10
-17.24
 20
13.69441109
 30
0.0
 11
10.259999851
 21
13.69441109
 31
0.0
  0
TEXT
  5
1AC
330
1A6
100
AcDbEntity
  8
SK2
  6
Continuous
 62
   136
100
AcDbText
 10
-6.9900000745
 20
14.56941109
 30
0.0
 40
3.5
  1
27,5
  7
SEACAD_Solid_Edge_ISO
 11
-6.9900000745
 21
18.06941109
 31
0.0
100
AcDbText
 73
     3
  0
ENDBLK
  5
1AE
330
1A6
100
AcDbEntity
  8
0
100
AcDbBlockEnd
  0
ENDSEC
  0
SECTION
  2
ENTITIES
  0
INSERT
  5
4B
330
1F
100
AcDbEntity
  8
SK2
 62
     7
100
AcDbBlockReference
  2
Nullpunkt
 10
0.0
 20
0.0000000998
 30
0.0
  0
INSERT
  5
56
330
1F
100
AcDbEntity
  8
SK2
 62
     7
100
AcDbBlockReference
  2
Einfügepunkt
 10
10.26
 20
0.0000000998
 30
0.0
  0
LINE
  5
57
330
1F
100
AcDbEntity
  8
SK1
  6
Continuous
100
AcDbLine
 10
-16.94
 20
-5.1009311092
 30
0.0
 11
-16.94
 21
-2.3564130328
 31
0.0
  0
LINE
  5
58
330
1F
100
AcDbEntity
  8
SK1
  6
Continuous
100
AcDbLine
 10
-17.24
 20
-4.8235322054
 30
0.0
 11
-17.24
 21
-2.2415106446
 31
0.0
  0
LINE
  5
5B
330
1F
100
AcDbEntity
  8
SK3
100
AcDbLine
 10
10.06
 20
-0.4999999002
 30
0.0
 11
10.06
 21
-0.4748321995
 31
0.0
  0
LINE
  5
5C
330
1F
100
AcDbEntity
  8
SK3
100
AcDbLine
 10
-4.04
 20
-0.4748321995
 30
0.0
 11
-4.04
 21
-0.4999999002
 31
0.0
  0
LINE
  5
5D
330
1F
100
AcDbEntity
  8
SK3
100
AcDbLine
 10
-16.44
 20
-3.3722025653
 30
0.0
 11
-16.44
 21
-1.6403502242
 31
0.0
  0
LINE
  5
5E
330
1F
100
AcDbEntity
  8
SK3
100
AcDbLine
 10
-4.24
 20
2.2389879447
 30
0.0
 11
-4.24
 21
2.941407076
 31
0.0
  0
SPLINE
  5
5F
330
1F
100
AcDbEntity
  8
SK3
100
AcDbSpline
210
0.0
220
0.0
230
1.0
 70
     8
 71
     3
 72
    23
 73
    19
 74
     0
 42
0.0000000092059836
 43
0.0000000001
 12
1.0
 22
0.0
 32
0.0
 13
1.0
 23
0.0
 33
0.0
 40
0.0
 40
0.0
 40
0.0
 40
0.0
 40
0.0091985012008877
 40
0.0091985012008877
 40
0.0091985012008877
 40
0.2250918709003491
 40
0.2250918709003491
 40
0.2250918709003491
 40
0.4406553417450808
 40
0.4406553417450808
 40
0.4406553417450808
 40
0.6557139743349795
 40
0.6557139743349795
 40
0.6557139743349795
 40
0.8702999310793109
 40
0.8702999310793109
 40
0.8702999310793109
 40
1.0
 40
1.0
 40
1.0
 40
1.0
 10
-4.239999999999998
 20
1.920789893147677
 30
0.0
 10
-4.239999999999995
 20
1.923540543604194
 30
0.0
 10
-4.24002820921677
 20
1.926291266385157
 30
0.0
 10
-4.240084625189474
 20
1.929041627552886
 30
0.0
 10
-4.241391472131078
 20
1.992752326988099
 30
0.0
 10
-4.258282534928462
 20
2.057186690063475
 30
0.0
 10
-4.289385590645264
 20
2.116988087284003
 30
0.0
 10
-4.320441081722053
 20
2.176698032656295
 30
0.0
 10
-4.366527165562077
 20
2.233440691520921
 30
0.0
 10
-4.423839452381358
 20
2.282483022513081
 30
0.0
 10
-4.481018969024452
 20
2.331411741585566
 30
0.0
 10
-4.550955859366784
 20
2.374028776841552
 30
0.0
 10
-4.627851234856556
 20
2.406775054889394
 30
0.0
 10
-4.704580230406915
 20
2.439450479212642
 30
0.0
 10
-4.790358668639508
 20
2.463200731530888
 30
0.0
 10
-4.878067560951055
 20
2.476043154920907
 30
0.0
 10
-4.931200418921799
 20
2.483822920917246
 30
0.0
 10
-4.985739976833257
 20
2.487774229256944
 30
0.0
 10
-5.039999999999993
 20
2.487774229256924
 30
0.0
  0
SPLINE
  5
60
330
1F
100
AcDbEntity
  8
SK3
100
AcDbSpline
210
0.0
220
0.0
230
1.0
 70
     8
 71
     3
 72
    23
 73
    19
 74
     0
 42
0.0000000092059836
 43
0.0000000001
 12
1.0
 22
0.0
 32
0.0
 13
1.0
 23
0.0
 33
0.0
 40
0.0
 40
0.0
 40
0.0
 40
0.0
 40
0.0091985012008874
 40
0.0091985012008874
 40
0.0091985012008874
 40
0.2250918709003482
 40
0.2250918709003482
 40
0.2250918709003482
 40
0.4406553417450802
 40
0.4406553417450802
 40
0.4406553417450802
 40
0.655713974334979
 40
0.655713974334979
 40
0.655713974334979
 40
0.8702999310793108
 40
0.8702999310793108
 40
0.8702999310793108
 40
1.0
 40
1.0
 40
1.0
 40
1.0
 10
-4.239999999999995
 20
2.238987944681623
 30
0.0
 10
-4.239999999999995
 20
2.241738595138141
 30
0.0
 10
-4.24002820921677
 20
2.244489317919103
 30
0.0
 10
-4.240084625189474
 20
2.247239679086832
 30
0.0
 10
-4.241391472131078
 20
2.310950378522046
 30
0.0
 10
-4.258282534928462
 20
2.375384741597421
 30
0.0
 10
-4.289385590645264
 20
2.435186138817948
 30
0.0
 10
-4.320441081722053
 20
2.49489608419024
 30
0.0
 10
-4.366527165562077
 20
2.551638743054867
 30
0.0
 10
-4.423839452381358
 20
2.600681074047027
 30
0.0
 10
-4.481018969024452
 20
2.649609793119512
 30
0.0
 10
-4.550955859366784
 20
2.692226828375496
 30
0.0
 10
-4.627851234856556
 20
2.72497310642334
 30
0.0
 10
-4.704580230406915
 20
2.757648530746588
 30
0.0
 10
-4.790358668639508
 20
2.781398783064835
 30
0.0
 10
-4.878067560951055
 20
2.794241206454854
 30
0.0
 10
-4.931200418921799
 20
2.802020972451193
 30
0.0
 10
-4.985739976833257
 20
2.805972280790891
 30
0.0
 10
-5.039999999999993
 20
2.805972280790871
 30
0.0
  0
LINE
  5
61
330
1F
100
AcDbEntity
  8
SK3
100
AcDbLine
 10
-4.04
 20
0.474832399
 30
0.0
 11
-4.04
 21
0.5000000998
 31
0.0
  0
LINE
  5
62
330
1F
100
AcDbEntity
  8
SK3
100
AcDbLine
 10
10.06
 20
0.474832399
 30
0.0
 11
10.06
 21
0.5000000998
 31
0.0
  0
LINE
  5
63
330
1F
100
AcDbEntity
  8
SK1
  6
Continuous
100
AcDbLine
 10
10.135
 20
4.6731301
 30
0.0
 11
10.135
 21
6.3838039249
 31
0.0
  0
LINE
  5
64
330
1F
100
AcDbEntity
  8
SK1
  6
Continuous
100
AcDbLine
 10
10.26
 20
4.5199385931
 30
0.0
 11
10.26
 21
6.1671584181
 31
0.0
  0
LINE
  5
65
330
1F
100
AcDbEntity
  8
SK1
  6
Continuous
100
AcDbLine
 10
6.26
 20
6.2558195554
 30
0.0
 11
6.26
 21
7.8796454484
 31
0.0
  0
LINE
  5
66
330
1F
100
AcDbEntity
  8
SK1
  6
Continuous
100
AcDbLine
 10
6.06
 20
5.0355412199
 30
0.0
 11
6.06
 21
6.2852749684
 31
0.0
  0
LINE
  5
67
330
1F
100
AcDbEntity
  8
SK1
  6
Continuous
100
AcDbLine
 10
3.76
 20
5.0355412199
 30
0.0
 11
3.76
 21
6.2852749684
 31
0.0
  0
LINE
  5
68
330
1F
100
AcDbEntity
  8
SK1
  6
Continuous
100
AcDbLine
 10
3.56
 20
6.1674006742
 30
0.0
 11
3.56
 21
7.7641206128
 31
0.0
  0
LINE
  5
69
330
1F
100
AcDbEntity
  8
SK1
  6
Continuous
100
AcDbLine
 10
-13.74
 20
4.4473277607
 30
0.0
 11
-13.74
 21
4.1291297091
 31
0.0
  0
LINE
  5
6A
330
1F
100
AcDbEntity
  8
SK3
100
AcDbLine
 10
-13.74
 20
4.1291297091
 30
0.0
 11
-13.74
 21
2.4877742293
 31
0.0
  0
SPLINE
  5
6B
330
1F
100
AcDbEntity
  8
SK1
  6
Continuous
100
AcDbSpline
210
0.0
220
0.0
230
1.0
 70
     8
 71
     3
 72
    14
 73
    10
 74
     0
 42
0.0000000005751986
 43
0.0000000001
 12
1.0
 22
0.0
 32
0.0
 13
1.0
 23
0.0
 33
0.0
 40
0.0
 40
0.0
 40
0.0
 40
0.0
 40
0.1250514946192908
 40
0.1250514946192908
 40
0.1250514946192908
 40
0.7654722914695266
 40
0.7654722914695266
 40
0.7654722914695266
 40
1.0
 40
1.0
 40
1.0
 40
1.0
 10
-13.74
 20
4.129129709120133
 30
0.0
 10
-13.01887246649223
 20
4.200842778023399
 30
0.0
 10
-12.29774445179643
 20
4.272553427608072
 30
0.0
 10
-11.57661602176744
 20
4.344261988777498
 30
0.0
 10
-7.883532263454965
 20
4.711499933585911
 30
0.0
 10
-4.190438006192573
 20
5.078685088369809
 30
0.0
 10
-0.4973384253410236
 20
5.445843465667486
 30
0.0
 10
0.8551070079515838
 20
5.580300081255651
 30
0.0
 10
2.207553197311546
 20
5.714752894389373
 30
0.0
 10
3.560000000000003
 20
5.849202622694505
 30
0.0
  0
SPLINE
  5
6C
330
1F
100
AcDbEntity
  8
SK1
  6
Continuous
100
AcDbSpline
210
0.0
220
0.0
230
1.0
 70
     8
 71
     3
 72
    10
 73
     6
 74
     0
 42
0.0000000360978052
 43
0.0000000001
 12
1.0
 22
0.0
 32
0.0
 13
1.0
 23
0.0
 33
0.0
 40
0.0
 40
0.0
 40
0.0
 40
0.0
 40
0.5
 40
0.5
 40
1.0
 40
1.0
 40
1.0
 40
1.0
 10
3.560000000000002
 20
4.858837651920984
 30
0.0
 10
3.560000000000007
 20
4.821497465307274
 30
0.0
 10
3.581642974693986
 20
4.78494744898038
 30
0.0
 10
3.655352213045455
 20
4.732740056120694
 30
0.0
 10
3.707280214739568
 20
4.71734316840001
 30
0.0
 10
3.760000000000002
 20
4.71734316840001
 30
0.0
  0
LINE
  5
6D
330
1F
100
AcDbEntity
  8
SK1
  6
Continuous
100
AcDbLine
 10
3.76
 20
4.7173431684
 30
0.0
 11
6.06
 21
4.7173431684
 31
0.0
  0
SPLINE
  5
6E
330
1F
100
AcDbEntity
  8
SK1
  6
Continuous
100
AcDbSpline
210
0.0
220
0.0
230
1.0
 70
     8
 71
     3
 72
    10
 73
     6
 74
     0
 42
0.0000000361089042
 43
0.0000000001
 12
1.0
 22
0.0
 32
0.0
 13
1.0
 23
0.0
 33
0.0
 40
0.0
 40
0.0
 40
0.0
 40
0.0
 40
0.5
 40
0.5
 40
1.0
 40
1.0
 40
1.0
 40
1.0
 10
6.060000000002452
 20
4.717343168387808
 30
0.0
 10
6.112107458752312
 20
4.717343168400548
 30
0.0
 10
6.164719623105199
 20
4.732759737701791
 30
0.0
 10
6.238454104659722
 20
4.785047479812081
 30
0.0
 10
6.260000000000004
 20
4.821978014465293
 30
0.0
 10
6.259999999999997
 20
4.858837651920989
 30
0.0
  0
SPLINE
  5
6F
330
1F
100
AcDbEntity
  8
SK1
  6
Continuous
100
AcDbSpline
210
0.0
220
0.0
230
1.0
 70
     8
 71
     3
 72
     8
 73
     4
 74
     0
 42
0.0000000023890562
 43
0.0000000001
 12
1.0
 22
0.0
 32
0.0
 13
1.0
 23
0.0
 33
0.0
 40
0.0
 40
0.0
 40
0.0
 40
0.0
 40
1.0
 40
1.0
 40
1.0
 40
1.0
 10
6.260000000000004
 20
5.9376215038742
 30
0.0
 10
7.551705206350353
 20
5.410105536013773
 30
0.0
 10
8.843385391970829
 20
4.882558919088556
 30
0.0
 10
10.13500000000511
 20
4.354932048491744
 30
0.0
  0
SPLINE
  5
70
330
1F
100
AcDbEntity
  8
SK1
  6
Continuous
100
AcDbSpline
210
0.0
220
0.0
230
1.0
 70
     8
 71
     3
 72
    10
 73
     6
 74
     0
 42
0.0000000470017319
 43
0.0000000001
 12
1.0
 22
0.0
 32
0.0
 13
1.0
 23
0.0
 33
0.0
 40
0.0
 40
0.0
 40
0.0
 40
0.0
 40
0.5
 40
0.5
 40
1.0
 40
1.0
 40
1.0
 40
1.0
 10
10.13500000000511
 20
4.354932048491744
 30
0.0
 10
10.1726563011793
 20
4.339549382305951
 30
0.0
 10
10.20476250613812
 20
4.316872156393516
 30
0.0
 10
10.24840383410933
 20
4.263312473309933
 30
0.0
 10
10.26000000000001
 20
4.232555596401881
 30
0.0
 10
10.26
 20
4.201740541547158
 30
0.0
  0
LINE
  5
71
330
1F
100
AcDbEntity
  8
SK3
100
AcDbLine
 10
10.26
 20
0.3096094055
 30
0.0
 11
10.06
 21
0.1566343475
 31
0.0
  0
LINE
  5
72
330
1F
100
AcDbEntity
  8
SK3
100
AcDbLine
 10
10.06
 20
0.1566343475
 30
0.0
 11
-4.04
 21
0.1566343475
 31
0.0
  0
ARC
  5
73
330
1F
100
AcDbEntity
  8
SK3
100
AcDbCircle
 10
-9.4949791817
 20
-6.7679922301
 30
0.0
 40
8.81517164392824
100
AcDbArc
 50
51.7701938928
 51
53.4068443654
  0
LINE
  5
74
330
1F
100
AcDbEntity
  8
SK3
100
AcDbLine
 10
-5.04
 20
2.4877742293
 30
0.0
 11
-13.74
 21
2.4877742293
 31
0.0
  0
SPLINE
  5
75
330
1F
100
AcDbEntity
  8
SK1
  6
Continuous
100
AcDbSpline
210
0.0
220
0.0
230
1.0
 70
     8
 71
     3
 72
    14
 73
    10
 74
     0
 42
0.0000000005751986
 43
0.0000000001
 12
1.0
 22
0.0
 32
0.0
 13
1.0
 23
0.0
 33
0.0
 40
0.0
 40
0.0
 40
0.0
 40
0.0
 40
0.1250514946192908
 40
0.1250514946192908
 40
0.1250514946192908
 40
0.7654722914695266
 40
0.7654722914695266
 40
0.7654722914695266
 40
1.0
 40
1.0
 40
1.0
 40
1.0
 10
-13.74
 20
4.447327760654081
 30
0.0
 10
-13.01887246649223
 20
4.519040829557345
 30
0.0
 10
-12.29774445179643
 20
4.590751479142019
 30
0.0
 10
-11.57661602176744
 20
4.662460040311445
 30
0.0
 10
-7.883532263454965
 20
5.029697985119857
 30
0.0
 10
-4.190438006192573
 20
5.396883139903755
 30
0.0
 10
-0.4973384253410236
 20
5.764041517201433
 30
0.0
 10
0.8551070079515838
 20
5.898498132789597
 30
0.0
 10
2.207553197311546
 20
6.032950945923321
 30
0.0
 10
3.560000000000003
 20
6.167400674228451
 30
0.0
  0
LINE
  5
76
330
1F
100
AcDbEntity
  8
SK1
  6
Continuous
100
AcDbLine
 10
3.56
 20
6.1674006742
 30
0.0
 11
3.56
 21
5.8492026227
 31
0.0
  0
SPLINE
  5
77
330
1F
100
AcDbEntity
  8
SK1
  6
Continuous
100
AcDbSpline
210
0.0
220
0.0
230
1.0
 70
     8
 71
     3
 72
    10
 73
     6
 74
     0
 42
0.0000000360978052
 43
0.0000000001
 12
1.0
 22
0.0
 32
0.0
 13
1.0
 23
0.0
 33
0.0
 40
0.0
 40
0.0
 40
0.0
 40
0.0
 40
0.5
 40
0.5
 40
1.0
 40
1.0
 40
1.0
 40
1.0
 10
3.560000000000002
 20
5.17703570345493
 30
0.0
 10
3.560000000000007
 20
5.139695516841219
 30
0.0
 10
3.581642974693986
 20
5.103145500514326
 30
0.0
 10
3.655352213045455
 20
5.050938107654641
 30
0.0
 10
3.707280214739568
 20
5.035541219933958
 30
0.0
 10
3.760000000000002
 20
5.035541219933956
 30
0.0
  0
LINE
  5
78
330
1F
100
AcDbEntity
  8
SK1
  6
Continuous
100
AcDbLine
 10
3.76
 20
5.0355412199
 30
0.0
 11
6.06
 21
5.0355412199
 31
0.0
  0
SPLINE
  5
79
330
1F
100
AcDbEntity
  8
SK1
  6
Continuous
100
AcDbSpline
210
0.0
220
0.0
230
1.0
 70
     8
 71
     3
 72
    10
 73
     6
 74
     0
 42
0.0000000361089042
 43
0.0000000001
 12
1.0
 22
0.0
 32
0.0
 13
1.0
 23
0.0
 33
0.0
 40
0.0
 40
0.0
 40
0.0
 40
0.0
 40
0.5
 40
0.5
 40
1.0
 40
1.0
 40
1.0
 40
1.0
 10
6.060000000002452
 20
5.035541219921756
 30
0.0
 10
6.112107458752312
 20
5.035541219934495
 30
0.0
 10
6.164719623105199
 20
5.050957789235738
 30
0.0
 10
6.238454104659722
 20
5.103245531346027
 30
0.0
 10
6.260000000000004
 20
5.140176065999239
 30
0.0
 10
6.259999999999997
 20
5.177035703454935
 30
0.0
  0
LINE
  5
7A
330
1F
100
AcDbEntity
  8
SK1
  6
Continuous
100
AcDbLine
 10
6.26
 20
5.9376215039
 30
0.0
 11
6.26
 21
6.2558195554
 31
0.0
  0
SPLINE
  5
7B
330
1F
100
AcDbEntity
  8
SK1
  6
Continuous
100
AcDbSpline
210
0.0
220
0.0
230
1.0
 70
     8
 71
     3
 72
     8
 73
     4
 74
     0
 42
0.0000000023890562
 43
0.0000000001
 12
1.0
 22
0.0
 32
0.0
 13
1.0
 23
0.0
 33
0.0
 40
0.0
 40
0.0
 40
0.0
 40
0.0
 40
1.0
 40
1.0
 40
1.0
 40
1.0
 10
6.260000000000004
 20
6.255819555408147
 30
0.0
 10
7.551705206350353
 20
5.728303587547719
 30
0.0
 10
8.843385391970829
 20
5.200756970622502
 30
0.0
 10
10.13500000000511
 20
4.67313010002569
 30
0.0
  0
SPLINE
  5
7C
330
1F
100
AcDbEntity
  8
SK1
  6
Continuous
100
AcDbSpline
210
0.0
220
0.0
230
1.0
 70
     8
 71
     3
 72
    10
 73
     6
 74
     0
 42
0.0000000470017319
 43
0.0000000001
 12
1.0
 22
0.0
 32
0.0
 13
1.0
 23
0.0
 33
0.0
 40
0.0
 40
0.0
 40
0.0
 40
0.0
 40
0.5
 40
0.5
 40
1.0
 40
1.0
 40
1.0
 40
1.0
 10
10.13500000000511
 20
4.67313010002569
 30
0.0
 10
10.1726563011793
 20
4.657747433839898
 30
0.0
 10
10.20476250613812
 20
4.635070207927462
 30
0.0
 10
10.24840383410933
 20
4.581510524843879
 30
0.0
 10
10.26000000000001
 20
4.550753647935828
 30
0.0
 10
10.26
 20
4.519938593081105
 30
0.0
  0
LINE
  5
7D
330
1F
100
AcDbEntity
  8
SK1
  6
Continuous
100
AcDbLine
 10
10.26
 20
4.5199385931
 30
0.0
 11
10.26
 21
4.2017405415
 31
0.0
  0
LINE
  5
7E
330
1F
100
AcDbEntity
  8
SK3
100
AcDbLine
 10
10.26
 20
0.627807457
 30
0.0
 11
10.06
 21
0.474832399
 31
0.0
  0
LINE
  5
7F
330
1F
100
AcDbEntity
  8
SK3
100
AcDbLine
 10
10.06
 20
0.474832399
 30
0.0
 11
-4.04
 21
0.474832399
 31
0.0
  0
ARC
  5
80
330
1F
100
AcDbEntity
  8
SK3
100
AcDbCircle
 10
-9.4949791817
 20
-6.4497941786
 30
0.0
 40
8.815171643927624
100
AcDbArc
 50
51.7701938928
 51
53.4068443654
  0
LINE
  5
81
330
1F
100
AcDbEntity
  8
SK3
100
AcDbLine
 10
-4.24
 20
1.9207898931
 30
0.0
 11
-4.24
 21
2.2389879447
 31
0.0
  0
LINE
  5
82
330
1F
100
AcDbEntity
  8
SK3
100
AcDbLine
 10
-5.04
 20
2.8059722808
 30
0.0
 11
-13.74
 21
2.8059722808
 31
0.0
  0
LINE
  5
83
330
1F
100
AcDbEntity
  8
SK3
100
AcDbLine
 10
-4.24
 20
-1.9207896936
 30
0.0
 11
-4.24
 21
-0.2249999002
 31
0.0
  0
SPLINE
  5
84
330
1F
100
AcDbEntity
  8
SK3
100
AcDbSpline
210
0.0
220
0.0
230
1.0
 70
     8
 71
     3
 72
    23
 73
    19
 74
     0
 42
0.0000000092065942
 43
0.0000000001
 12
1.0
 22
0.0
 32
0.0
 13
1.0
 23
0.0
 33
0.0
 40
0.0
 40
0.0
 40
0.0
 40
0.0
 40
0.0101951743540806
 40
0.0101951743540806
 40
0.0101951743540806
 40
0.2262715088414934
 40
0.2262715088414934
 40
0.2262715088414934
 40
0.4420162381999481
 40
0.4420162381999481
 40
0.4420162381999481
 40
0.6572554516805306
 40
0.6572554516805306
 40
0.6572554516805306
 40
0.7907568882728953
 40
0.7907568882728953
 40
0.7907568882728953
 40
1.0
 40
1.0
 40
1.0
 40
1.0
 10
-4.239999999999998
 20
-2.238987745140224
 30
0.0
 10
-4.239999999999995
 20
-2.242033457231496
 30
0.0
 10
-4.240034586216413
 20
-2.245079267508465
 30
0.0
 10
-4.240103754665545
 20
-2.248124586868687
 30
0.0
 10
-4.241550778861665
 20
-2.311833559015453
 30
0.0
 10
-4.258583622693111
 20
-2.376249059740607
 30
0.0
 10
-4.289818305847086
 20
-2.436015918079028
 30
0.0
 10
-4.321005022128618
 20
-2.495690992894117
 30
0.0
 10
-4.367215651330267
 20
-2.552382249201789
 30
0.0
 10
-4.424635394118212
 20
-2.601360884947203
 30
0.0
 10
-4.481922054819513
 20
-2.650226002611038
 30
0.0
 10
-4.551952008068307
 20
-2.692765455277238
 30
0.0
 10
-4.628918588153765
 20
-2.725426643963933
 30
0.0
 10
-4.677077972311201
 20
-2.745863341700205
 30
0.0
 10
-4.728582441175962
 20
-2.762784242424337
 30
0.0
 10
-4.781730985703518
 20
-2.775627056091002
 30
0.0
 10
-4.864312218471312
 20
-2.795581984193509
 30
0.0
 10
-4.95272996896642
 20
-2.805972081249472
 30
0.0
 10
-5.039999999999993
 20
-2.805972081249472
 30
0.0
  0
SPLINE
  5
85
330
1F
100
AcDbEntity
  8
SK3
100
AcDbSpline
210
0.0
220
0.0
230
1.0
 70
     8
 71
     3
 72
    23
 73
    19
 74
     0
 42
0.0000000092065942
 43
0.0000000001
 12
1.0
 22
0.0
 32
0.0
 13
1.0
 23
0.0
 33
0.0
 40
0.0
 40
0.0
 40
0.0
 40
0.0
 40
0.0101951743540806
 40
0.0101951743540806
 40
0.0101951743540806
 40
0.2262715088414934
 40
0.2262715088414934
 40
0.2262715088414934
 40
0.4420162381999487
 40
0.4420162381999487
 40
0.4420162381999487
 40
0.6572554516805306
 40
0.6572554516805306
 40
0.6572554516805306
 40
0.7907568882728953
 40
0.7907568882728953
 40
0.7907568882728953
 40
1.0
 40
1.0
 40
1.0
 40
1.0
 10
-4.239999999999995
 20
-1.920789693606278
 30
0.0
 10
-4.239999999999995
 20
-1.92383540569755
 30
0.0
 10
-4.240034586216413
 20
-1.926881215974518
 30
0.0
 10
-4.240103754665545
 20
-1.929926535334741
 30
0.0
 10
-4.241550778861665
 20
-1.993635507481507
 30
0.0
 10
-4.258583622693111
 20
-2.058051008206661
 30
0.0
 10
-4.289818305847086
 20
-2.117817866545082
 30
0.0
 10
-4.321005022128618
 20
-2.177492941360171
 30
0.0
 10
-4.367215651330266
 20
-2.234184197667843
 30
0.0
 10
-4.424635394118212
 20
-2.283162833413257
 30
0.0
 10
-4.481922054819513
 20
-2.332027951077092
 30
0.0
 10
-4.551952008068309
 20
-2.374567403743292
 30
0.0
 10
-4.628918588153765
 20
-2.407228592429987
 30
0.0
 10
-4.677077972311201
 20
-2.427665290166258
 30
0.0
 10
-4.728582441175962
 20
-2.44458619089039
 30
0.0
 10
-4.781730985703518
 20
-2.457429004557055
 30
0.0
 10
-4.864312218471312
 20
-2.477383932659563
 30
0.0
 10
-4.95272996896642
 20
-2.487774029715526
 30
0.0
 10
-5.039999999999993
 20
-2.487774029715526
 30
0.0
  0
LINE
  5
86
330
1F
100
AcDbEntity
  8
SK3
100
AcDbLine
 10
-4.04
 20
-0.156634148
 30
0.0
 11
-4.04
 21
0.1566343475
 31
0.0
  0
LINE
  5
87
330
1F
100
AcDbEntity
  8
SK3
100
AcDbLine
 10
10.06
 20
-0.156634148
 30
0.0
 11
10.06
 21
0.1566343475
 31
0.0
  0
LINE
  5
88
330
1F
100
AcDbEntity
  8
SK1
  6
Continuous
100
AcDbLine
 10
10.135
 20
-4.3549318489
 30
0.0
 11
10.135
 21
-0.2249999002
 31
0.0
  0
LINE
  5
89
330
1F
100
AcDbEntity
  8
SK1
  6
Continuous
100
AcDbLine
 10
10.26
 20
-4.201740342
 30
0.0
 11
10.26
 21
-0.2249999002
 31
0.0
  0
LINE
  5
8A
330
1F
100
AcDbEntity
  8
SK1
  6
Continuous
100
AcDbLine
 10
6.26
 20
-5.9376213043
 30
0.0
 11
6.26
 21
-3.5073941154
 31
0.0
  0
LINE
  5
8B
330
1F
100
AcDbEntity
  8
SK1
  6
Continuous
100
AcDbLine
 10
6.06
 20
-4.7173429689
 30
0.0
 11
6.06
 21
-2.8469842391
 31
0.0
  0
LINE
  5
8C
330
1F
100
AcDbEntity
  8
SK1
  6
Continuous
100
AcDbLine
 10
3.76
 20
-4.7173429689
 30
0.0
 11
3.76
 21
-2.8469842391
 31
0.0
  0
LINE
  5
8D
330
1F
100
AcDbEntity
  8
SK1
  6
Continuous
100
AcDbLine
 10
3.56
 20
-5.8492024232
 30
0.0
 11
3.56
 21
-3.4595421617
 31
0.0
  0
LINE
  5
8E
330
1F
100
AcDbEntity
  8
SK3
100
AcDbLine
 10
-13.74
 20
-4.1291295096
 30
0.0
 11
-13.74
 21
-2.4877740297
 31
0.0
  0
LINE
  5
8F
330
1F
100
AcDbEntity
  8
SK1
  6
Continuous
100
AcDbLine
 10
-13.74
 20
-4.1291295096
 30
0.0
 11
-13.74
 21
-4.4473275611
 31
0.0
  0
SPLINE
  5
90
330
1F
100
AcDbEntity
  8
SK1
  6
Continuous
100
AcDbSpline
210
0.0
220
0.0
230
1.0
 70
     8
 71
     3
 72
    14
 73
    10
 74
     0
 42
0.0000000005751986
 43
0.0000000001
 12
1.0
 22
0.0
 32
0.0
 13
1.0
 23
0.0
 33
0.0
 40
0.0
 40
0.0
 40
0.0
 40
0.0
 40
0.1250514946192908
 40
0.1250514946192908
 40
0.1250514946192908
 40
0.7654722914695266
 40
0.7654722914695266
 40
0.7654722914695266
 40
1.0
 40
1.0
 40
1.0
 40
1.0
 10
-13.74
 20
-4.44732756111268
 30
0.0
 10
-13.01887246649223
 20
-4.519040630015946
 30
0.0
 10
-12.29774445179643
 20
-4.590751279600619
 30
0.0
 10
-11.57661602176744
 20
-4.662459840770045
 30
0.0
 10
-7.883532263454965
 20
-5.029697785578458
 30
0.0
 10
-4.190438006192573
 20
-5.396882940362356
 30
0.0
 10
-0.4973384253410236
 20
-5.764041317660032
 30
0.0
 10
0.8551070079515838
 20
-5.898497933248197
 30
0.0
 10
2.207553197311546
 20
-6.032950746381919
 30
0.0
 10
3.560000000000003
 20
-6.16740047468705
 30
0.0
  0
LINE
  5
91
330
1F
100
AcDbEntity
  8
SK1
  6
Continuous
100
AcDbLine
 10
3.56
 20
-6.1674004747
 30
0.0
 11
3.56
 21
-5.8492024232
 31
0.0
  0
SPLINE
  5
92
330
1F
100
AcDbEntity
  8
SK1
  6
Continuous
100
AcDbSpline
210
0.0
220
0.0
230
1.0
 70
     8
 71
     3
 72
    10
 73
     6
 74
     0
 42
0.0000000360985874
 43
0.0000000001
 12
1.0
 22
0.0
 32
0.0
 13
1.0
 23
0.0
 33
0.0
 40
0.0
 40
0.0
 40
0.0
 40
0.0
 40
0.5
 40
0.5
 40
1.0
 40
1.0
 40
1.0
 40
1.0
 10
3.559999999999896
 20
-5.177035503913541
 30
0.0
 10
3.559999999999996
 20
-5.140073062761265
 30
0.0
 10
3.581333288544872
 20
-5.103331318517035
 30
0.0
 10
3.6558408170448
 20
-5.050625245302089
 30
0.0
 10
3.707769703604189
 20
-5.035541020392554
 30
0.0
 10
3.760000000000002
 20
-5.035541020392555
 30
0.0
  0
LINE
  5
93
330
1F
100
AcDbEntity
  8
SK1
  6
Continuous
100
AcDbLine
 10
3.76
 20
-5.0355410204
 30
0.0
 11
6.06
 21
-5.0355410204
 31
0.0
  0
SPLINE
  5
94
330
1F
100
AcDbEntity
  8
SK1
  6
Continuous
100
AcDbSpline
210
0.0
220
0.0
230
1.0
 70
     8
 71
     3
 72
    10
 73
     6
 74
     0
 42
0.0000000361093013
 43
0.0000000001
 12
1.0
 22
0.0
 32
0.0
 13
1.0
 23
0.0
 33
0.0
 40
0.0
 40
0.0
 40
0.0
 40
0.0
 40
0.5
 40
0.5
 40
1.0
 40
1.0
 40
1.0
 40
1.0
 10
6.059999999999699
 20
-5.035541020390736
 30
0.0
 10
6.112159471372554
 20
-5.035541020392472
 30
0.0
 10
6.164374468634965
 20
-5.050823015245733
 30
0.0
 10
6.238205204331752
 20
-5.102959524831155
 30
0.0
 10
6.260000000000006
 20
-5.140173241635837
 30
0.0
 10
6.259999999999997
 20
-5.177035503913536
 30
0.0
  0
LINE
  5
95
330
1F
100
AcDbEntity
  8
SK1
  6
Continuous
100
AcDbLine
 10
6.26
 20
-5.9376213043
 30
0.0
 11
6.26
 21
-6.2558193559
 31
0.0
  0
SPLINE
  5
96
330
1F
100
AcDbEntity
  8
SK1
  6
Continuous
100
AcDbSpline
210
0.0
220
0.0
230
1.0
 70
     8
 71
     3
 72
     8
 73
     4
 74
     0
 42
0.0000000023890562
 43
0.0000000001
 12
1.0
 22
0.0
 32
0.0
 13
1.0
 23
0.0
 33
0.0
 40
0.0
 40
0.0
 40
0.0
 40
0.0
 40
1.0
 40
1.0
 40
1.0
 40
1.0
 10
6.260000000000004
 20
-6.255819355866747
 30
0.0
 10
7.551705218583288
 20
-5.728303383010544
 30
0.0
 10
8.84338541241661
 20
-5.200756762728965
 30
0.0
 10
10.13500000000006
 20
-4.673129900479675
 30
0.0
  0
SPLINE
  5
97
330
1F
100
AcDbEntity
  8
SK1
  6
Continuous
100
AcDbSpline
210
0.0
220
0.0
230
1.0
 70
     8
 71
     3
 72
    10
 73
     6
 74
     0
 42
0.0000000470021924
 43
0.0000000001
 12
1.0
 22
0.0
 32
0.0
 13
1.0
 23
0.0
 33
0.0
 40
0.0
 40
0.0
 40
0.0
 40
0.0
 40
0.5
 40
0.5
 40
1.0
 40
1.0
 40
1.0
 40
1.0
 10
10.13500000000006
 20
-4.673129900479675
 30
0.0
 10
10.17272876269383
 20
-4.657717633640804
 30
0.0
 10
10.20484534691155
 20
-4.634991640785345
 30
0.0
 10
10.24841517597565
 20
-4.581473054990209
 30
0.0
 10
10.26000000000001
 20
-4.550736448819162
 30
0.0
 10
10.26
 20
-4.519938393539706
 30
0.0
  0
LINE
  5
98
330
1F
100
AcDbEntity
  8
SK1
  6
Continuous
100
AcDbLine
 10
10.26
 20
-4.5199383935
 30
0.0
 11
10.26
 21
-4.201740342
 31
0.0
  0
ARC
  5
99
330
1F
100
AcDbEntity
  8
SK3
100
AcDbCircle
 10
15.513635834
 20
6.4480380817
 30
0.0
 40
8.812960725005105
100
AcDbArc
 50
231.7699885845
 51
233.4070496737
  0
LINE
  5
9A
330
1F
100
AcDbEntity
  8
SK3
100
AcDbLine
 10
10.06
 20
-0.4748321995
 30
0.0
 11
-4.04
 21
-0.4748321995
 31
0.0
  0
LINE
  5
9B
330
1F
100
AcDbEntity
  8
SK3
100
AcDbLine
 10
-4.04
 20
-0.4748321995
 30
0.0
 11
-4.24
 21
-0.6278072575
 31
0.0
  0
LINE
  5
9C
330
1F
100
AcDbEntity
  8
SK3
100
AcDbLine
 10
-4.24
 20
-1.9207896936
 30
0.0
 11
-4.24
 21
-2.2389877451
 31
0.0
  0
LINE
  5
9D
330
1F
100
AcDbEntity
  8
SK3
100
AcDbLine
 10
-5.04
 20
-2.8059720812
 30
0.0
 11
-13.74
 21
-2.8059720812
 31
0.0
  0
SPLINE
  5
9E
330
1F
100
AcDbEntity
  8
SK1
  6
Continuous
100
AcDbSpline
210
0.0
220
0.0
230
1.0
 70
     8
 71
     3
 72
    14
 73
    10
 74
     0
 42
0.0000000005751986
 43
0.0000000001
 12
1.0
 22
0.0
 32
0.0
 13
1.0
 23
0.0
 33
0.0
 40
0.0
 40
0.0
 40
0.0
 40
0.0
 40
0.1250514946192908
 40
0.1250514946192908
 40
0.1250514946192908
 40
0.7654722914695266
 40
0.7654722914695266
 40
0.7654722914695266
 40
1.0
 40
1.0
 40
1.0
 40
1.0
 10
-13.74
 20
-4.129129509578734
 30
0.0
 10
-13.01887246649223
 20
-4.200842578482
 30
0.0
 10
-12.29774445179643
 20
-4.272553228066672
 30
0.0
 10
-11.57661602176744
 20
-4.344261789236099
 30
0.0
 10
-7.883532263454965
 20
-4.711499734044511
 30
0.0
 10
-4.190438006192573
 20
-5.078684888828408
 30
0.0
 10
-0.4973384253410236
 20
-5.445843266126086
 30
0.0
 10
0.8551070079515838
 20
-5.58029988171425
 30
0.0
 10
2.207553197311546
 20
-5.714752694847973
 30
0.0
 10
3.560000000000003
 20
-5.849202423153103
 30
0.0
  0
SPLINE
  5
9F
330
1F
100
AcDbEntity
  8
SK1
  6
Continuous
100
AcDbSpline
210
0.0
220
0.0
230
1.0
 70
     8
 71
     3
 72
    10
 73
     6
 74
     0
 42
0.0000000360985874
 43
0.0000000001
 12
1.0
 22
0.0
 32
0.0
 13
1.0
 23
0.0
 33
0.0
 40
0.0
 40
0.0
 40
0.0
 40
0.0
 40
0.5
 40
0.5
 40
1.0
 40
1.0
 40
1.0
 40
1.0
 10
3.559999999999896
 20
-4.858837452379595
 30
0.0
 10
3.559999999999996
 20
-4.821875011227319
 30
0.0
 10
3.581333288544872
 20
-4.785133266983089
 30
0.0
 10
3.6558408170448
 20
-4.732427193768142
 30
0.0
 10
3.707769703604189
 20
-4.717342968858605
 30
0.0
 10
3.760000000000002
 20
-4.717342968858609
 30
0.0
  0
LINE
  5
A0
330
1F
100
AcDbEntity
  8
SK1
  6
Continuous
100
AcDbLine
 10
3.76
 20
-4.7173429689
 30
0.0
 11
6.06
 21
-4.7173429689
 31
0.0
  0
SPLINE
  5
A1
330
1F
100
AcDbEntity
  8
SK1
  6
Continuous
100
AcDbSpline
210
0.0
220
0.0
230
1.0
 70
     8
 71
     3
 72
    10
 73
     6
 74
     0
 42
0.0000000361093013
 43
0.0000000001
 12
1.0
 22
0.0
 32
0.0
 13
1.0
 23
0.0
 33
0.0
 40
0.0
 40
0.0
 40
0.0
 40
0.0
 40
0.5
 40
0.5
 40
1.0
 40
1.0
 40
1.0
 40
1.0
 10
6.059999999999699
 20
-4.717342968856789
 30
0.0
 10
6.112159471372554
 20
-4.717342968858524
 30
0.0
 10
6.164374468634965
 20
-4.732624963711787
 30
0.0
 10
6.238205204331752
 20
-4.784761473297209
 30
0.0
 10
6.260000000000006
 20
-4.821975190101892
 30
0.0
 10
6.259999999999997
 20
-4.858837452379588
 30
0.0
  0
SPLINE
  5
A2
330
1F
100
AcDbEntity
  8
SK1
  6
Continuous
100
AcDbSpline
210
0.0
220
0.0
230
1.0
 70
     8
 71
     3
 72
     8
 73
     4
 74
     0
 42
0.0000000023890562
 43
0.0000000001
 12
1.0
 22
0.0
 32
0.0
 13
1.0
 23
0.0
 33
0.0
 40
0.0
 40
0.0
 40
0.0
 40
0.0
 40
1.0
 40
1.0
 40
1.0
 40
1.0
 10
6.260000000000004
 20
-5.937621304332799
 30
0.0
 10
7.551705218583288
 20
-5.410105331476598
 30
0.0
 10
8.84338541241661
 20
-4.882558711195016
 30
0.0
 10
10.13500000000006
 20
-4.354931848945729
 30
0.0
  0
SPLINE
  5
A3
330
1F
100
AcDbEntity
  8
SK1
  6
Continuous
100
AcDbSpline
210
0.0
220
0.0
230
1.0
 70
     8
 71
     3
 72
    10
 73
     6
 74
     0
 42
0.0000000470021924
 43
0.0000000001
 12
1.0
 22
0.0
 32
0.0
 13
1.0
 23
0.0
 33
0.0
 40
0.0
 40
0.0
 40
0.0
 40
0.0
 40
0.5000000000000001
 40
0.5000000000000001
 40
1.0
 40
1.0
 40
1.0
 40
1.0
 10
10.13500000000006
 20
-4.354931848945729
 30
0.0
 10
10.17272876269383
 20
-4.339519582106858
 30
0.0
 10
10.20484534691155
 20
-4.316793589251398
 30
0.0
 10
10.24841517597565
 20
-4.263275003456264
 30
0.0
 10
10.26000000000001
 20
-4.232538397285216
 30
0.0
 10
10.26
 20
-4.20174034200576
 30
0.0
  0
ARC
  5
A4
330
1F
100
AcDbEntity
  8
SK3
100
AcDbCircle
 10
15.513635834
 20
6.7662361333
 30
0.0
 40
8.81296072500539
100
AcDbArc
 50
231.7699885845
 51
233.4070496737
  0
LINE
  5
A5
330
1F
100
AcDbEntity
  8
SK3
100
AcDbLine
 10
10.06
 20
-0.156634148
 30
0.0
 11
-4.04
 21
-0.156634148
 31
0.0
  0
LINE
  5
A6
330
1F
100
AcDbEntity
  8
SK3
100
AcDbLine
 10
-4.04
 20
-0.156634148
 30
0.0
 11
-4.24
 21
-0.3096092059
 31
0.0
  0
LINE
  5
A7
330
1F
100
AcDbEntity
  8
SK3
100
AcDbLine
 10
-5.04
 20
-2.4877740297
 30
0.0
 11
-13.74
 21
-2.4877740297
 31
0.0
  0
SPLINE
  5
A8
330
1F
100
AcDbEntity
  8
SK3
100
AcDbSpline
210
0.0
220
0.0
230
1.0
 70
     8
 71
     3
 72
    23
 73
    19
 74
     0
 42
0.0000000079157312
 43
0.0000000001
 12
1.0
 22
0.0
 32
0.0
 13
1.0
 23
0.0
 33
0.0
 40
0.0
 40
0.0
 40
0.0
 40
0.0
 40
0.0719738156482783
 40
0.0719738156482783
 40
0.0719738156482783
 40
0.2879682196012524
 40
0.2879682196012524
 40
0.2879682196012524
 40
0.5035544358820031
 40
0.5035544358820031
 40
0.5035544358820031
 40
0.7186279922125421
 40
0.7186279922125421
 40
0.7186279922125421
 40
0.9332624917760253
 40
0.9332624917760253
 40
0.9332624917760253
 40
1.0
 40
1.0
 40
1.0
 40
1.0
 10
-4.239999999999998
 20
2.941407076032235
 30
0.0
 10
-4.239999999999975
 20
2.97161644270769
 30
0.0
 10
-4.241706566532691
 20
3.00187365179585
 30
0.0
 10
-4.245104523432362
 20
3.031891308663768
 30
0.0
 10
-4.255237168257659
 20
3.121403407996074
 30
0.0
 10
-4.280979444154097
 20
3.210406532569668
 30
0.0
 10
-4.320223915055405
 20
3.291492646804527
 30
0.0
 10
-4.359394560700566
 20
3.372426224821776
 30
0.0
 10
-4.413102830046982
 20
3.447711126379079
 30
0.0
 10
-4.476907019670215
 20
3.511064176167195
 30
0.0
 10
-4.540561362576347
 20
3.574268438758339
 30
0.0
 10
-4.616025792123795
 20
3.627344274440798
 30
0.0
 10
-4.697039768438163
 20
3.665859074482297
 30
0.0
 10
-4.777891149615581
 20
3.704296575278998
 30
0.0
 10
-4.866503860212434
 20
3.729293350899642
 30
0.0
 10
-4.955524677257674
 20
3.738763379325714
 30
0.0
 10
-4.983564487156902
 20
3.741746252384186
 30
0.0
 10
-5.011801977536203
 20
3.743244013811236
 30
0.0
 10
-5.039999999999993
 20
3.743244013811039
 30
0.0
  0
LINE
  5
A9
330
1F
100
AcDbEntity
  8
SK1
  6
Continuous
100
AcDbLine
 10
-13.74
 20
6.0644711941
 30
0.0
 11
-13.74
 21
6.0686436594
 31
0.0
  0
LINE
  5
AA
330
1F
100
AcDbEntity
  8
SK3
100
AcDbLine
 10
-13.74
 20
6.0644711941
 30
0.0
 11
-13.74
 21
4.4473277607
 31
0.0
  0
SPLINE
  5
AB
330
1F
100
AcDbEntity
  8
SK1
  6
Continuous
100
AcDbSpline
210
0.0
220
0.0
230
1.0
 70
     8
 71
     3
 72
    11
 73
     7
 74
     0
 42
0.0000000005724038
 43
0.0000000001
 12
1.0
 22
0.0
 32
0.0
 13
1.0
 23
0.0
 33
0.0
 40
0.0
 40
0.0
 40
0.0
 40
0.0
 40
0.6098516461209736
 40
0.6098516461209736
 40
0.6098516461209736
 40
1.0
 40
1.0
 40
1.0
 40
1.0
 10
-13.73999999999999
 20
6.064471194108989
 30
0.0
 10
-10.22320226282577
 20
6.559064939008866
 30
0.0
 10
-6.706393498505816
 20
7.053580276753614
 30
0.0
 10
-3.189579143300733
 20
7.548055845120007
 30
0.0
 10
-0.9397215911725191
 20
7.864393154817764
 30
0.0
 10
1.310138364836697
 20
8.180713367823362
 30
0.0
 10
3.560000000000003
 20
8.497021636756468
 30
0.0
  0
SPLINE
  5
AC
330
1F
100
AcDbEntity
  8
SK1
  6
Continuous
100
AcDbSpline
210
0.0
220
0.0
230
1.0
 70
     8
 71
     3
 72
    10
 73
     6
 74
     0
 42
0.0000000310311981
 43
0.0000000001
 12
1.0
 22
0.0
 32
0.0
 13
1.0
 23
0.0
 33
0.0
 40
0.0
 40
0.0
 40
0.0
 40
0.0
 40
0.5
 40
0.5
 40
1.0
 40
1.0
 40
1.0
 40
1.0
 10
3.559999999997641
 20
7.096434063389054
 30
0.0
 10
3.560000000000103
 20
7.044270031429952
 30
0.0
 10
3.581203805870713
 20
6.992372805755631
 30
0.0
 10
3.655808911612906
 20
6.91765230578775
 30
0.0
 10
3.707164589448902
 20
6.896330645792183
 30
0.0
 10
3.760000000000002
 20
6.896330645792982
 30
0.0
  0
LINE
  5
AD
330
1F
100
AcDbEntity
  8
SK1
  6
Continuous
100
AcDbLine
 10
3.76
 20
6.8963306458
 30
0.0
 11
6.06
 21
6.8963306458
 31
0.0
  0
SPLINE
  5
AE
330
1F
100
AcDbEntity
  8
SK1
  6
Continuous
100
AcDbSpline
210
0.0
220
0.0
230
1.0
 70
     8
 71
     3
 72
    10
 73
     6
 74
     0
 42
0.0000000310390549
 43
0.0000000001
 12
1.0
 22
0.0
 32
0.0
 13
1.0
 23
0.0
 33
0.0
 40
0.0
 40
0.0
 40
0.0
 40
0.0
 40
0.5
 40
0.5
 40
1.0
 40
1.0
 40
1.0
 40
1.0
 10
6.059999999999999
 20
6.896330645792982
 30
0.0
 10
6.112875053093047
 20
6.896330645792982
 30
0.0
 10
6.164593677513495
 20
6.91805807922078
 30
0.0
 10
6.238383806397465
 20
6.99195721890147
 30
0.0
 10
6.260000000000004
 20
7.04422481579777
 30
0.0
 10
6.259999999999997
 20
7.096434063389327
 30
0.0
  0
LINE
  5
AF
330
1F
100
AcDbEntity
  8
SK1
  6
Continuous
100
AcDbLine
 10
6.26
 20
8.6220648177
 30
0.0
 11
10.135
 21
6.3838039249
 31
0.0
  0
ARC
  5
B0
330
1F
100
AcDbEntity
  8
SK1
  6
Continuous
100
AcDbCircle
 10
10.0068132497
 20
6.1654588398
 30
0.0
 40
0.2531924546894717
100
AcDbArc
 50
0.3846062186
 51
59.5835169864
  0
LINE
  5
B1
330
1F
100
AcDbEntity
  8
SK3
100
AcDbLine
 10
-5.04
 20
3.7432440138
 30
0.0
 11
-13.74
 21
3.7432440138
 31
0.0
  0
LINE
  5
B2
330
1F
100
AcDbEntity
  8
SK3
100
AcDbLine
 10
-4.24
 20
2.0000000998
 30
0.0
 11
10.26
 21
2.0000000998
 31
0.0
  0
LINE
  5
B3
330
1F
100
AcDbEntity
  8
SK3
100
AcDbLine
 10
-4.24
 20
0.2250000998
 30
0.0
 11
-4.24
 21
1.9207898931
 31
0.0
  0
LINE
  5
B4
330
1F
100
AcDbEntity
  8
SK1
  6
Continuous
100
AcDbLine
 10
-4.24
 20
0.2250000998
 30
0.0
 11
-4.24
 21
-0.2249999002
 31
0.0
  0
LINE
  5
B5
330
1F
100
AcDbEntity
  8
SK1
  6
Continuous
100
AcDbLine
 10
10.135
 20
0.2250000998
 30
0.0
 11
10.135
 21
4.3549320485
 31
0.0
  0
LINE
  5
B6
330
1F
100
AcDbEntity
  8
SK1
  6
Continuous
100
AcDbLine
 10
10.26
 20
0.2250000998
 30
0.0
 11
10.26
 21
4.2017405415
 31
0.0
  0
LINE
  5
B7
330
1F
100
AcDbEntity
  8
SK1
  6
Continuous
100
AcDbLine
 10
6.26
 20
0.2250000998
 30
0.0
 11
6.26
 21
3.0916485253
 31
0.0
  0
LINE
  5
B8
330
1F
100
AcDbEntity
  8
SK1
  6
Continuous
100
AcDbLine
 10
6.06
 20
0.2250000998
 30
0.0
 11
6.06
 21
2.431238649
 31
0.0
  0
LINE
  5
B9
330
1F
100
AcDbEntity
  8
SK1
  6
Continuous
100
AcDbLine
 10
3.76
 20
0.2250000998
 30
0.0
 11
3.76
 21
2.431238649
 31
0.0
  0
LINE
  5
BA
330
1F
100
AcDbEntity
  8
SK1
  6
Continuous
100
AcDbLine
 10
3.56
 20
0.2250000998
 30
0.0
 11
3.56
 21
3.0437965716
 31
0.0
  0
LINE
  5
BB
330
1F
100
AcDbEntity
  8
SK1
  6
Continuous
100
AcDbLine
 10
-13.74
 20
0.2250000998
 30
0.0
 11
-13.74
 21
-0.2249999002
 31
0.0
  0
LINE
  5
BC
330
1F
100
AcDbEntity
  8
SK1
  6
Continuous
100
AcDbLine
 10
10.26
 20
-0.2249999002
 30
0.0
 11
10.26
 21
0.2250000998
 31
0.0
  0
LINE
  5
BD
330
1F
100
AcDbEntity
  8
SK1
  6
Continuous
100
AcDbLine
 10
-13.74
 20
-0.2249999002
 30
0.0
 11
3.56
 21
-0.2249999002
 31
0.0
  0
LINE
  5
BE
330
1F
100
AcDbEntity
  8
SK1
  6
Continuous
100
AcDbLine
 10
3.56
 20
-0.2249999002
 30
0.0
 11
3.76
 21
-0.2249999002
 31
0.0
  0
LINE
  5
BF
330
1F
100
AcDbEntity
  8
SK1
  6
Continuous
100
AcDbLine
 10
3.76
 20
-0.2249999002
 30
0.0
 11
6.06
 21
-0.2249999002
 31
0.0
  0
LINE
  5
C0
330
1F
100
AcDbEntity
  8
SK1
  6
Continuous
100
AcDbLine
 10
6.06
 20
-0.2249999002
 30
0.0
 11
6.26
 21
-0.2249999002
 31
0.0
  0
LINE
  5
C1
330
1F
100
AcDbEntity
  8
SK1
  6
Continuous
100
AcDbLine
 10
6.26
 20
-0.2249999002
 30
0.0
 11
10.135
 21
-0.2249999002
 31
0.0
  0
LINE
  5
C2
330
1F
100
AcDbEntity
  8
SK1
  6
Continuous
100
AcDbLine
 10
10.135
 20
-0.2249999002
 30
0.0
 11
10.26
 21
-0.2249999002
 31
0.0
  0
LINE
  5
C3
330
1F
100
AcDbEntity
  8
SK1
  6
Continuous
100
AcDbLine
 10
-13.74
 20
0.2250000998
 30
0.0
 11
3.56
 21
0.2250000998
 31
0.0
  0
LINE
  5
C4
330
1F
100
AcDbEntity
  8
SK1
  6
Continuous
100
AcDbLine
 10
3.56
 20
0.2250000998
 30
0.0
 11
3.76
 21
0.2250000998
 31
0.0
  0
LINE
  5
C5
330
1F
100
AcDbEntity
  8
SK1
  6
Continuous
100
AcDbLine
 10
3.76
 20
0.2250000998
 30
0.0
 11
6.06
 21
0.2250000998
 31
0.0
  0
LINE
  5
C6
330
1F
100
AcDbEntity
  8
SK1
  6
Continuous
100
AcDbLine
 10
6.06
 20
0.2250000998
 30
0.0
 11
6.26
 21
0.2250000998
 31
0.0
  0
LINE
  5
C7
330
1F
100
AcDbEntity
  8
SK1
  6
Continuous
100
AcDbLine
 10
6.26
 20
0.2250000998
 30
0.0
 11
10.135
 21
0.2250000998
 31
0.0
  0
LINE
  5
C8
330
1F
100
AcDbEntity
  8
SK1
  6
Continuous
100
AcDbLine
 10
10.135
 20
0.2250000998
 30
0.0
 11
10.26
 21
0.2250000998
 31
0.0
  0
LINE
  5
C9
330
1F
100
AcDbEntity
  8
SK3
100
AcDbLine
 10
-4.24
 20
-2.9414068765
 30
0.0
 11
-4.24
 21
-2.2389877451
 31
0.0
  0
SPLINE
  5
CA
330
1F
100
AcDbEntity
  8
SK3
100
AcDbSpline
210
0.0
220
0.0
230
1.0
 70
     8
 71
     3
 72
    23
 73
    19
 74
     0
 42
0.0000000079157312
 43
0.0000000001
 12
1.0
 22
0.0
 32
0.0
 13
1.0
 23
0.0
 33
0.0
 40
0.0
 40
0.0
 40
0.0
 40
0.0
 40
0.071973815647265
 40
0.071973815647265
 40
0.071973815647265
 40
0.287968219600476
 40
0.287968219600476
 40
0.287968219600476
 40
0.5035544358814612
 40
0.5035544358814612
 40
0.5035544358814612
 40
0.718627992212235
 40
0.718627992212235
 40
0.718627992212235
 40
0.9332624917759524
 40
0.9332624917759524
 40
0.9332624917759524
 40
1.0
 40
1.0
 40
1.0
 40
1.0
 10
-4.239999999991952
 20
-2.941406876491754
 30
0.0
 10
-4.240000000000028
 20
-2.971616243167205
 30
0.0
 10
-4.241706566532741
 20
-3.001873452254904
 30
0.0
 10
-4.245104523432362
 20
-3.031891109122371
 30
0.0
 10
-4.255237168257659
 20
-3.121403208454675
 30
0.0
 10
-4.280979444154099
 20
-3.210406333028271
 30
0.0
 10
-4.320223915055407
 20
-3.29149244726313
 30
0.0
 10
-4.359394560700568
 20
-3.372426025280378
 30
0.0
 10
-4.413102830046982
 20
-3.447710926837682
 30
0.0
 10
-4.476907019670215
 20
-3.511063976625797
 30
0.0
 10
-4.540561362576347
 20
-3.574268239216942
 30
0.0
 10
-4.616025792123795
 20
-3.6273440748994
 30
0.0
 10
-4.697039768438163
 20
-3.6658588749409
 30
0.0
 10
-4.777891149615581
 20
-3.7042963757376
 30
0.0
 10
-4.866503860212434
 20
-3.729293151358244
 30
0.0
 10
-4.955524677257674
 20
-3.738763179784316
 30
0.0
 10
-4.983564487156902
 20
-3.741746052842787
 30
0.0
 10
-5.011801977536203
 20
-3.743243814269838
 30
0.0
 10
-5.039999999999993
 20
-3.743243814269641
 30
0.0
  0
LINE
  5
CB
330
1F
100
AcDbEntity
  8
SK1
  6
Continuous
100
AcDbLine
 10
10.135
 20
-6.3838037253
 30
0.0
 11
10.135
 21
-4.6731299005
 31
0.0
  0
LINE
  5
CC
330
1F
100
AcDbEntity
  8
SK1
  6
Continuous
100
AcDbLine
 10
10.26
 20
-6.1671582186
 30
0.0
 11
10.26
 21
-4.5199383935
 31
0.0
  0
LINE
  5
CD
330
1F
100
AcDbEntity
  8
SK1
  6
Continuous
100
AcDbLine
 10
6.26
 20
-8.6220646181
 30
0.0
 11
6.26
 21
-8.0518527934
 31
0.0
  0
LINE
  5
CE
330
1F
100
AcDbEntity
  8
SK1
  6
Continuous
100
AcDbLine
 10
6.06
 20
-6.8963304463
 30
0.0
 11
6.06
 21
-6.4574823134
 31
0.0
  0
LINE
  5
CF
330
1F
100
AcDbEntity
  8
SK1
  6
Continuous
100
AcDbLine
 10
3.76
 20
-6.8963304463
 30
0.0
 11
3.76
 21
-6.4574823134
 31
0.0
  0
LINE
  5
D0
330
1F
100
AcDbEntity
  8
SK1
  6
Continuous
100
AcDbLine
 10
3.56
 20
-8.4970214372
 30
0.0
 11
3.56
 21
-7.9363279578
 31
0.0
  0
LINE
  5
D1
330
1F
100
AcDbEntity
  8
SK3
100
AcDbLine
 10
-13.74
 20
-6.0644709946
 30
0.0
 11
-13.74
 21
-4.4473275611
 31
0.0
  0
LINE
  5
D2
330
1F
100
AcDbEntity
  8
SK1
  6
Continuous
100
AcDbLine
 10
-13.74
 20
-6.0644709946
 30
0.0
 11
-13.74
 21
-6.0686434599
 31
0.0
  0
LINE
  5
D3
330
1F
100
AcDbEntity
  8
SK3
100
AcDbLine
 10
-4.24
 20
-1.9999999002
 30
0.0
 11
10.26
 21
-1.9999999002
 31
0.0
  0
SPLINE
  5
D4
330
1F
100
AcDbEntity
  8
SK1
  6
Continuous
100
AcDbSpline
210
0.0
220
0.0
230
1.0
 70
     8
 71
     3
 72
    11
 73
     7
 74
     0
 42
0.0000000005724038
 43
0.0000000001
 12
1.0
 22
0.0
 32
0.0
 13
1.0
 23
0.0
 33
0.0
 40
0.0
 40
0.0
 40
0.0
 40
0.0
 40
0.6098516461209736
 40
0.6098516461209736
 40
0.6098516461209736
 40
1.0
 40
1.0
 40
1.0
 40
1.0
 10
-13.73999999999999
 20
-6.064470994567592
 30
0.0
 10
-10.22320226282577
 20
-6.559064739467468
 30
0.0
 10
-6.706393498505816
 20
-7.053580077212218
 30
0.0
 10
-3.189579143300733
 20
-7.548055645578609
 30
0.0
 10
-0.9397215911725191
 20
-7.864392955276366
 30
0.0
 10
1.310138364836697
 20
-8.180713168281963
 30
0.0
 10
3.560000000000003
 20
-8.49702143721507
 30
0.0
  0
SPLINE
  5
D5
330
1F
100
AcDbEntity
  8
SK1
  6
Continuous
100
AcDbSpline
210
0.0
220
0.0
230
1.0
 70
     8
 71
     3
 72
    10
 73
     6
 74
     0
 42
0.0000000310311981
 43
0.0000000001
 12
1.0
 22
0.0
 32
0.0
 13
1.0
 23
0.0
 33
0.0
 40
0.0
 40
0.0
 40
0.0
 40
0.0
 40
0.5
 40
0.5
 40
1.0
 40
1.0
 40
1.0
 40
1.0
 10
3.559999999997641
 20
-7.096433863847657
 30
0.0
 10
3.560000000000101
 20
-7.044269831888554
 30
0.0
 10
3.581203805870715
 20
-6.992372606214235
 30
0.0
 10
3.655808911612906
 20
-6.917652106246352
 30
0.0
 10
3.707164589448902
 20
-6.896330446250786
 30
0.0
 10
3.760000000000002
 20
-6.896330446251585
 30
0.0
  0
LINE
  5
D6
330
1F
100
AcDbEntity
  8
SK1
  6
Continuous
100
AcDbLine
 10
3.76
 20
-6.8963304463
 30
0.0
 11
6.06
 21
-6.8963304463
 31
0.0
  0
SPLINE
  5
D7
330
1F
100
AcDbEntity
  8
SK1
  6
Continuous
100
AcDbSpline
210
0.0
220
0.0
230
1.0
 70
     8
 71
     3
 72
    10
 73
     6
 74
     0
 42
0.0000000310390549
 43
0.0000000001
 12
1.0
 22
0.0
 32
0.0
 13
1.0
 23
0.0
 33
0.0
 40
0.0
 40
0.0
 40
0.0
 40
0.0
 40
0.5
 40
0.5
 40
1.0
 40
1.0
 40
1.0
 40
1.0
 10
6.059999999999999
 20
-6.896330446251583
 30
0.0
 10
6.112875053093045
 20
-6.896330446251587
 30
0.0
 10
6.164593677513492
 20
-6.918057879679384
 30
0.0
 10
6.238383806397465
 20
-6.991957019360071
 30
0.0
 10
6.260000000000004
 20
-7.044224616256372
 30
0.0
 10
6.259999999999997
 20
-7.09643386384793
 30
0.0
  0
LINE
  5
D8
330
1F
100
AcDbEntity
  8
SK1
  6
Continuous
100
AcDbLine
 10
6.26
 20
-8.6220646181
 30
0.0
 11
10.135
 21
-6.3838037253
 31
0.0
  0
ARC
  5
D9
330
1F
100
AcDbEntity
  8
SK1
  6
Continuous
100
AcDbCircle
 10
10.0068132497
 20
-6.1654586403
 30
0.0
 40
0.2531924546898294
100
AcDbArc
 50
300.4164830137
 51
359.6153937814
  0
LINE
  5
DA
330
1F
100
AcDbEntity
  8
SK3
100
AcDbLine
 10
-5.04
 20
-3.7432438143
 30
0.0
 11
-13.74
 21
-3.7432438143
 31
0.0
  0
LINE
  5
DB
330
1F
100
AcDbEntity
  8
SK3
100
AcDbLine
 10
-17.24
 20
-3.9718173114
 30
0.0
 11
-16.44
 21
-3.5444101099
 31
0.0
  0
LINE
  5
DC
330
1F
100
AcDbEntity
  8
SK3
100
AcDbLine
 10
-17.24
 20
-3.7996097669
 30
0.0
 11
-16.44
 21
-3.3722025653
 31
0.0
  0
LINE
  5
DD
330
1F
100
AcDbEntity
  8
SK3
100
AcDbLine
 10
-4.4659785291
 20
-3.3196820363
 30
0.0
 11
-4.4659785291
 21
-3.1474744917
 31
0.0
  0
LINE
  5
DE
330
1F
100
AcDbEntity
  8
SK1
  6
Continuous
100
AcDbLine
 10
6.26
 20
-7.8796452488
 30
0.0
 11
6.26
 21
-6.2558193559
 31
0.0
  0
LINE
  5
DF
330
1F
100
AcDbEntity
  8
SK1
  6
Continuous
100
AcDbLine
 10
8.46
 20
-6.7056920999
 30
0.0
 11
8.46
 21
-6.8778996444
 31
0.0
  0
LINE
  5
E0
330
1F
100
AcDbEntity
  8
SK1
  6
Continuous
100
AcDbLine
 10
6.06
 20
-6.2852747688
 30
0.0
 11
6.06
 21
-5.0355410204
 31
0.0
  0
LINE
  5
E1
330
1F
100
AcDbEntity
  8
SK1
  6
Continuous
100
AcDbLine
 10
3.76
 20
-6.2852747688
 30
0.0
 11
3.76
 21
-5.0355410204
 31
0.0
  0
LINE
  5
E2
330
1F
100
AcDbEntity
  8
SK1
  6
Continuous
100
AcDbLine
 10
3.56
 20
-7.7641204133
 30
0.0
 11
3.56
 21
-6.1674004747
 31
0.0
  0
LINE
  5
E3
330
1F
100
AcDbEntity
  8
SK3
100
AcDbLine
 10
8.46
 20
-6.7056920999
 30
0.0
 11
8.46
 21
-3.1474744917
 31
0.0
  0
LINE
  5
E4
330
1F
100
AcDbEntity
  8
SK1
  6
Continuous
100
AcDbLine
 10
8.46
 20
-6.7056920999
 30
0.0
 11
6.26
 21
-7.8796452488
 31
0.0
  0
ARC
  5
E5
330
1F
100
AcDbEntity
  8
SK1
  6
Continuous
100
AcDbCircle
 10
6.0672824928
 20
-6.478015335
 30
0.0
 40
0.1928780976445672
100
AcDbArc
 50
2.3382240612
 51
92.1638294264
  0
LINE
  5
E6
330
1F
100
AcDbEntity
  8
SK1
  6
Continuous
100
AcDbLine
 10
6.06
 20
-6.2852747688
 30
0.0
 11
3.76
 21
-6.2852747688
 31
0.0
  0
ARC
  5
E7
330
1F
100
AcDbEntity
  8
SK1
  6
Continuous
100
AcDbCircle
 10
3.752717864
 20
-6.478015721
 30
0.0
 40
0.1928784698335296
100
AcDbArc
 50
87.8362807996
 51
177.6616657138
  0
SPLINE
  5
E8
330
1F
100
AcDbEntity
  8
SK1
  6
Continuous
100
AcDbSpline
210
0.0
220
0.0
230
1.0
 70
     8
 71
     3
 72
    11
 73
     7
 74
     0
 42
0.0000000004837399
 43
0.0000000001
 12
1.0
 22
0.0
 32
0.0
 13
1.0
 23
0.0
 33
0.0
 40
0.0
 40
0.0
 40
0.0
 40
0.0
 40
0.7208571485875953
 40
0.7208571485875953
 40
0.7208571485875953
 40
1.0
 40
1.0
 40
1.0
 40
1.0
 10
3.560000000000003
 20
-7.764120413275904
 30
0.0
 10
-1.365874353970662
 20
-7.124306896039736
 30
0.0
 10
-6.291741387727178
 20
-6.484445264770697
 30
0.0
 10
-11.21759058285812
 20
-5.844466439482023
 30
0.0
 10
-13.12506364162397
 20
-5.596642700049353
 30
0.0
 10
-15.03253391397663
 20
-5.34880065319244
 30
0.0
 10
-16.94
 20
-5.100931109180543
 30
0.0
  0
LINE
  5
E9
330
1F
100
AcDbEntity
  8
SK1
  6
Continuous
100
AcDbLine
 10
-16.94
 20
-5.1009311092
 30
0.0
 11
-17.24
 21
-4.8235322054
 31
0.0
  0
LINE
  5
EA
330
1F
100
AcDbEntity
  8
SK3
100
AcDbLine
 10
-16.44
 20
-3.3722025653
 30
0.0
 11
-5.04
 21
-3.3722025653
 31
0.0
  0
ARC
  5
EB
330
1F
100
AcDbEntity
  8
SK3
100
AcDbCircle
 10
-5.0361266624
 20
-2.5366224969
 30
0.0
 40
0.8355890458592673
100
AcDbArc
 50
269.7344068952
 51
313.0260487359
  0
LINE
  5
EC
330
1F
100
AcDbEntity
  8
SK3
100
AcDbLine
 10
8.46
 20
-3.3196820363
 30
0.0
 11
-4.4659785291
 21
-3.3196820363
 31
0.0
  0
LINE
  5
ED
330
1F
100
AcDbEntity
  8
SK3
100
AcDbLine
 10
8.46
 20
-3.1474744917
 30
0.0
 11
-4.4659785291
 21
-3.1474744917
 31
0.0
  0
LINE
  5
EE
330
1F
100
AcDbEntity
  8
SK1
  6
Continuous
100
AcDbLine
 10
8.46
 20
-6.8778996444
 30
0.0
 11
6.26
 21
-8.0518527934
 31
0.0
  0
LINE
  5
EF
330
1F
100
AcDbEntity
  8
SK1
  6
Continuous
100
AcDbLine
 10
6.26
 20
-8.0518527934
 30
0.0
 11
6.26
 21
-7.8796452488
 31
0.0
  0
ARC
  5
F0
330
1F
100
AcDbEntity
  8
SK1
  6
Continuous
100
AcDbCircle
 10
6.0672824928
 20
-6.6502228796
 30
0.0
 40
0.192878097644567
100
AcDbArc
 50
2.3382240612
 51
92.1638294264
  0
LINE
  5
F1
330
1F
100
AcDbEntity
  8
SK1
  6
Continuous
100
AcDbLine
 10
6.06
 20
-6.4574823134
 30
0.0
 11
3.76
 21
-6.4574823134
 31
0.0
  0
ARC
  5
F2
330
1F
100
AcDbEntity
  8
SK1
  6
Continuous
100
AcDbCircle
 10
3.752717864
 20
-6.6502232655
 30
0.0
 40
0.1928784698335284
100
AcDbArc
 50
87.8362807996
 51
177.6616657138
  0
LINE
  5
F3
330
1F
100
AcDbEntity
  8
SK1
  6
Continuous
100
AcDbLine
 10
3.56
 20
-7.7641204133
 30
0.0
 11
3.56
 21
-7.9363279578
 31
0.0
  0
SPLINE
  5
F4
330
1F
100
AcDbEntity
  8
SK1
  6
Continuous
100
AcDbSpline
210
0.0
220
0.0
230
1.0
 70
     8
 71
     3
 72
    11
 73
     7
 74
     0
 42
0.0000000004837399
 43
0.0000000001
 12
1.0
 22
0.0
 32
0.0
 13
1.0
 23
0.0
 33
0.0
 40
0.0
 40
0.0
 40
0.0
 40
0.0
 40
0.7208571485875953
 40
0.7208571485875953
 40
0.7208571485875953
 40
1.0
 40
1.0
 40
1.0
 40
1.0
 10
3.560000000000003
 20
-7.936327957840194
 30
0.0
 10
-1.365874353970662
 20
-7.296514440604025
 30
0.0
 10
-6.291741387727178
 20
-6.656652809334987
 30
0.0
 10
-11.21759058285812
 20
-6.016673984046314
 30
0.0
 10
-13.12506364162397
 20
-5.768850244613643
 30
0.0
 10
-15.03253391397663
 20
-5.521008197756731
 30
0.0
 10
-16.94
 20
-5.273138653744833
 30
0.0
  0
LINE
  5
F5
330
1F
100
AcDbEntity
  8
SK1
  6
Continuous
100
AcDbLine
 10
-16.94
 20
-5.2731386537
 30
0.0
 11
-17.24
 21
-4.99573975
 31
0.0
  0
LINE
  5
F6
330
1F
100
AcDbEntity
  8
SK1
  6
Continuous
100
AcDbLine
 10
-17.24
 20
-4.99573975
 30
0.0
 11
-17.24
 21
-4.8235322054
 31
0.0
  0
LINE
  5
F7
330
1F
100
AcDbEntity
  8
SK3
100
AcDbLine
 10
-16.44
 20
-3.5444101099
 30
0.0
 11
-5.04
 21
-3.5444101099
 31
0.0
  0
ARC
  5
F8
330
1F
100
AcDbEntity
  8
SK3
100
AcDbCircle
 10
-5.0361266624
 20
-2.7088300414
 30
0.0
 40
0.8355890458592631
100
AcDbArc
 50
269.7344068952
 51
313.0260487359
  0
LINE
  5
F9
330
1F
100
AcDbEntity
  8
SK3
100
AcDbLine
 10
-16.44
 20
-1.2246044346
 30
0.0
 11
-16.44
 21
1.2246046342
 31
0.0
  0
LINE
  5
FA
330
1F
100
AcDbEntity
  8
SK3
100
AcDbLine
 10
-17.24
 20
-1.8173880838
 30
0.0
 11
-16.44
 21
-1.6403502242
 31
0.0
  0
LINE
  5
FB
330
1F
100
AcDbEntity
  8
SK3
100
AcDbLine
 10
-17.24
 20
-1.4016422942
 30
0.0
 11
-16.44
 21
-1.2246044346
 31
0.0
  0
LINE
  5
FC
330
1F
100
AcDbEntity
  8
SK1
  6
Continuous
100
AcDbLine
 10
-16.94
 20
-1.9406672431
 30
0.0
 11
-16.94
 21
1.9406674427
 31
0.0
  0
LINE
  5
FD
330
1F
100
AcDbEntity
  8
SK1
  6
Continuous
100
AcDbLine
 10
-17.24
 20
-1.825764855
 30
0.0
 11
-17.24
 21
1.8257650546
 31
0.0
  0
LINE
  5
FE
330
1F
100
AcDbEntity
  8
SK3
100
AcDbLine
 10
-4.4659785291
 20
-1.5472648083
 30
0.0
 11
-4.4659785291
 21
-1.1315190187
 31
0.0
  0
LINE
  5
FF
330
1F
100
AcDbEntity
  8
SK1
  6
Continuous
100
AcDbLine
 10
6.26
 20
-3.0916483257
 30
0.0
 11
6.26
 21
-0.2249999002
 31
0.0
  0
LINE
  5
100
330
1F
100
AcDbEntity
  8
SK1
  6
Continuous
100
AcDbLine
 10
8.46
 20
-2.6053810099
 30
0.0
 11
8.46
 21
-3.0211267995
 31
0.0
  0
LINE
  5
101
330
1F
100
AcDbEntity
  8
SK1
  6
Continuous
100
AcDbLine
 10
6.06
 20
-2.4312384495
 30
0.0
 11
6.06
 21
-0.2249999002
 31
0.0
  0
LINE
  5
102
330
1F
100
AcDbEntity
  8
SK1
  6
Continuous
100
AcDbLine
 10
3.76
 20
-2.4312384495
 30
0.0
 11
3.76
 21
-0.2249999002
 31
0.0
  0
LINE
  5
103
330
1F
100
AcDbEntity
  8
SK1
  6
Continuous
100
AcDbLine
 10
3.56
 20
-3.0437963721
 30
0.0
 11
3.56
 21
-0.2249999002
 31
0.0
  0
LINE
  5
104
330
1F
100
AcDbEntity
  8
SK3
100
AcDbLine
 10
8.46
 20
-2.6053810099
 30
0.0
 11
8.46
 21
-1.1315190187
 31
0.0
  0
LINE
  5
105
330
1F
100
AcDbEntity
  8
SK1
  6
Continuous
100
AcDbLine
 10
8.46
 20
-2.6053810099
 30
0.0
 11
6.26
 21
-3.0916483257
 31
0.0
  0
SPLINE
  5
106
330
1F
100
AcDbEntity
  8
SK1
  6
Continuous
100
AcDbSpline
210
0.0
220
0.0
230
1.0
 70
     8
 71
     3
 72
    10
 73
     6
 74
     0
 42
0.0000000427813181
 43
0.0000000001
 12
1.0
 22
0.0
 32
0.0
 13
1.0
 23
0.0
 33
0.0
 40
0.0
 40
0.0
 40
0.0
 40
0.0
 40
0.5
 40
0.5
 40
1.0
 40
1.0
 40
1.0
 40
1.0
 10
6.26000000000236
 20
-2.507814712163932
 30
0.0
 10
6.2599999999999
 20
-2.487852401367753
 30
0.0
 10
6.238796194129154
 20
-2.467992192916419
 30
0.0
 10
6.164191088386489
 20
-2.439397895520643
 30
0.0
 10
6.112835410550241
 20
-2.43123844948987
 30
0.0
 10
6.059999999998951
 20
-2.431238449490281
 30
0.0
  0
LINE
  5
107
330
1F
100
AcDbEntity
  8
SK1
  6
Continuous
100
AcDbLine
 10
6.06
 20
-2.4312384495
 30
0.0
 11
3.76
 21
-2.4312384495
 31
0.0
  0
SPLINE
  5
108
330
1F
100
AcDbEntity
  8
SK1
  6
Continuous
100
AcDbSpline
210
0.0
220
0.0
230
1.0
 70
     8
 71
     3
 72
    10
 73
     6
 74
     0
 42
0.0000000427877658
 43
0.0000000001
 12
1.0
 22
0.0
 32
0.0
 13
1.0
 23
0.0
 33
0.0
 40
0.0
 40
0.0
 40
0.0
 40
0.0
 40
0.5
 40
0.5
 40
1.0
 40
1.0
 40
1.0
 40
1.0
 10
3.760000000000002
 20
-2.431238449490281
 30
0.0
 10
3.707124946906955
 20
-2.431238449490281
 30
0.0
 10
3.655406322486505
 20
-2.439553178290916
 30
0.0
 10
3.581616193602538
 20
-2.467833154712749
 30
0.0
 10
3.559999999999996
 20
-2.487835098094499
 30
0.0
 10
3.560000000000003
 20
-2.507814712164036
 30
0.0
  0
LINE
  5
109
330
1F
100
AcDbEntity
  8
SK1
  6
Continuous
100
AcDbLine
 10
3.56
 20
-3.0437963721
 30
0.0
 11
-16.94
 21
-1.9406672431
 31
0.0
  0
LINE
  5
10A
330
1F
100
AcDbEntity
  8
SK1
  6
Continuous
100
AcDbLine
 10
-16.94
 20
-1.9406672431
 30
0.0
 11
-17.24
 21
-1.825764855
 31
0.0
  0
LINE
  5
10B
330
1F
100
AcDbEntity
  8
SK3
100
AcDbLine
 10
-16.44
 20
-1.2246044346
 30
0.0
 11
-5.04
 21
-1.2246044346
 31
0.0
  0
ARC
  5
10C
330
1F
100
AcDbEntity
  8
SK3
100
AcDbCircle
 10
-5.0101508622
 20
0.407753592
 30
0.0
 40
1.632630912998696
100
AcDbArc
 50
268.9524117813
 51
289.4698072375
  0
LINE
  5
10D
330
1F
100
AcDbEntity
  8
SK3
100
AcDbLine
 10
8.46
 20
-1.5472648083
 30
0.0
 11
-4.4659785291
 21
-1.5472648083
 31
0.0
  0
LINE
  5
10E
330
1F
100
AcDbEntity
  8
SK3
100
AcDbLine
 10
8.46
 20
-1.1315190187
 30
0.0
 11
-4.4659785291
 21
-1.1315190187
 31
0.0
  0
LINE
  5
10F
330
1F
100
AcDbEntity
  8
SK1
  6
Continuous
100
AcDbLine
 10
8.46
 20
-3.0211267995
 30
0.0
 11
6.26
 21
-3.5073941154
 31
0.0
  0
LINE
  5
110
330
1F
100
AcDbEntity
  8
SK1
  6
Continuous
100
AcDbLine
 10
6.26
 20
-3.5073941154
 30
0.0
 11
6.26
 21
-3.0916483257
 31
0.0
  0
SPLINE
  5
111
330
1F
100
AcDbEntity
  8
SK1
  6
Continuous
100
AcDbSpline
210
0.0
220
0.0
230
1.0
 70
     8
 71
     3
 72
    10
 73
     6
 74
     0
 42
0.0000000427813181
 43
0.0000000001
 12
1.0
 22
0.0
 32
0.0
 13
1.0
 23
0.0
 33
0.0
 40
0.0
 40
0.0
 40
0.0
 40
0.0
 40
0.5
 40
0.5
 40
1.0
 40
1.0
 40
1.0
 40
1.0
 10
6.26000000000236
 20
-2.92356050179401
 30
0.0
 10
6.2599999999999
 20
-2.903598190997831
 30
0.0
 10
6.238796194129154
 20
-2.883737982546498
 30
0.0
 10
6.164191088386491
 20
-2.855143685150721
 30
0.0
 10
6.112835410550241
 20
-2.846984239119947
 30
0.0
 10
6.059999999998951
 20
-2.846984239120359
 30
0.0
  0
LINE
  5
112
330
1F
100
AcDbEntity
  8
SK1
  6
Continuous
100
AcDbLine
 10
6.06
 20
-2.8469842391
 30
0.0
 11
3.76
 21
-2.8469842391
 31
0.0
  0
SPLINE
  5
113
330
1F
100
AcDbEntity
  8
SK1
  6
Continuous
100
AcDbSpline
210
0.0
220
0.0
230
1.0
 70
     8
 71
     3
 72
    10
 73
     6
 74
     0
 42
0.0000000427877658
 43
0.0000000001
 12
1.0
 22
0.0
 32
0.0
 13
1.0
 23
0.0
 33
0.0
 40
0.0
 40
0.0
 40
0.0
 40
0.0
 40
0.5
 40
0.5
 40
1.0
 40
1.0
 40
1.0
 40
1.0
 10
3.760000000000002
 20
-2.846984239120359
 30
0.0
 10
3.707124946906955
 20
-2.84698423912036
 30
0.0
 10
3.655406322486507
 20
-2.855298967920995
 30
0.0
 10
3.58161619360254
 20
-2.883578944342827
 30
0.0
 10
3.559999999999997
 20
-2.903580887724579
 30
0.0
 10
3.560000000000003
 20
-2.923560501794113
 30
0.0
  0
LINE
  5
114
330
1F
100
AcDbEntity
  8
SK1
  6
Continuous
100
AcDbLine
 10
3.56
 20
-3.0437963721
 30
0.0
 11
3.56
 21
-3.4595421617
 31
0.0
  0
LINE
  5
115
330
1F
100
AcDbEntity
  8
SK1
  6
Continuous
100
AcDbLine
 10
3.56
 20
-3.4595421617
 30
0.0
 11
-16.94
 21
-2.3564130328
 31
0.0
  0
LINE
  5
116
330
1F
100
AcDbEntity
  8
SK1
  6
Continuous
100
AcDbLine
 10
-16.94
 20
-2.3564130328
 30
0.0
 11
-17.24
 21
-2.2415106446
 31
0.0
  0
LINE
  5
117
330
1F
100
AcDbEntity
  8
SK1
  6
Continuous
100
AcDbLine
 10
-17.24
 20
-2.2415106446
 30
0.0
 11
-17.24
 21
-1.825764855
 31
0.0
  0
LINE
  5
118
330
1F
100
AcDbEntity
  8
SK3
100
AcDbLine
 10
-16.44
 20
-1.6403502242
 30
0.0
 11
-5.04
 21
-1.6403502242
 31
0.0
  0
ARC
  5
119
330
1F
100
AcDbEntity
  8
SK3
100
AcDbCircle
 10
-5.0101508622
 20
-0.0079921976
 30
0.0
 40
1.632630912998715
100
AcDbArc
 50
268.9524117813
 51
289.4698072375
  0
LINE
  5
11A
330
1F
100
AcDbEntity
  8
SK3
100
AcDbLine
 10
-16.44
 20
1.6403504238
 30
0.0
 11
-16.44
 21
3.3722027649
 31
0.0
  0
LINE
  5
11B
330
1F
100
AcDbEntity
  8
SK3
100
AcDbLine
 10
-17.24
 20
1.4016424937
 30
0.0
 11
-16.44
 21
1.2246046342
 31
0.0
  0
LINE
  5
11C
330
1F
100
AcDbEntity
  8
SK3
100
AcDbLine
 10
-17.24
 20
1.8173882833
 30
0.0
 11
-16.44
 21
1.6403504238
 31
0.0
  0
LINE
  5
11D
330
1F
100
AcDbEntity
  8
SK1
  6
Continuous
100
AcDbLine
 10
-16.94
 20
2.3564132323
 30
0.0
 11
-16.94
 21
5.1009313087
 31
0.0
  0
LINE
  5
11E
330
1F
100
AcDbEntity
  8
SK1
  6
Continuous
100
AcDbLine
 10
-17.24
 20
2.2415108442
 30
0.0
 11
-17.24
 21
4.823532405
 31
0.0
  0
LINE
  5
11F
330
1F
100
AcDbEntity
  8
SK3
100
AcDbLine
 10
-4.4659785291
 20
1.1315192182
 30
0.0
 11
-4.4659785291
 21
1.5472650079
 31
0.0
  0
LINE
  5
120
330
1F
100
AcDbEntity
  8
SK1
  6
Continuous
100
AcDbLine
 10
6.26
 20
3.5073943149
 30
0.0
 11
6.26
 21
5.9376215039
 31
0.0
  0
LINE
  5
121
330
1F
100
AcDbEntity
  8
SK1
  6
Continuous
100
AcDbLine
 10
8.46
 20
3.021126999
 30
0.0
 11
8.46
 21
2.6053812094
 31
0.0
  0
LINE
  5
122
330
1F
100
AcDbEntity
  8
SK1
  6
Continuous
100
AcDbLine
 10
6.06
 20
2.8469844387
 30
0.0
 11
6.06
 21
4.7173431684
 31
0.0
  0
LINE
  5
123
330
1F
100
AcDbEntity
  8
SK1
  6
Continuous
100
AcDbLine
 10
3.76
 20
2.8469844387
 30
0.0
 11
3.76
 21
4.7173431684
 31
0.0
  0
LINE
  5
124
330
1F
100
AcDbEntity
  8
SK1
  6
Continuous
100
AcDbLine
 10
3.56
 20
3.4595423612
 30
0.0
 11
3.56
 21
5.8492026227
 31
0.0
  0
LINE
  5
125
330
1F
100
AcDbEntity
  8
SK3
100
AcDbLine
 10
8.46
 20
2.6053812094
 30
0.0
 11
8.46
 21
1.1315192182
 31
0.0
  0
LINE
  5
126
330
1F
100
AcDbEntity
  8
SK1
  6
Continuous
100
AcDbLine
 10
8.46
 20
3.021126999
 30
0.0
 11
6.26
 21
3.5073943149
 31
0.0
  0
LINE
  5
127
330
1F
100
AcDbEntity
  8
SK1
  6
Continuous
100
AcDbLine
 10
6.26
 20
3.5073943149
 30
0.0
 11
6.26
 21
3.0916485253
 31
0.0
  0
SPLINE
  5
128
330
1F
100
AcDbEntity
  8
SK1
  6
Continuous
100
AcDbSpline
210
0.0
220
0.0
230
1.0
 70
     8
 71
     3
 72
    10
 73
     6
 74
     0
 42
0.0000000427813181
 43
0.0000000001
 12
1.0
 22
0.0
 32
0.0
 13
1.0
 23
0.0
 33
0.0
 40
0.0
 40
0.0
 40
0.0
 40
0.0
 40
0.5
 40
0.5
 40
1.0
 40
1.0
 40
1.0
 40
1.0
 10
6.26000000000236
 20
2.923560701335409
 30
0.0
 10
6.2599999999999
 20
2.903598390539231
 30
0.0
 10
6.238796194129154
 20
2.883738182087898
 30
0.0
 10
6.164191088386489
 20
2.85514388469212
 30
0.0
 10
6.112835410550241
 20
2.846984438661347
 30
0.0
 10
6.059999999998951
 20
2.846984438661759
 30
0.0
  0
LINE
  5
129
330
1F
100
AcDbEntity
  8
SK1
  6
Continuous
100
AcDbLine
 10
6.06
 20
2.8469844387
 30
0.0
 11
3.76
 21
2.8469844387
 31
0.0
  0
SPLINE
  5
12A
330
1F
100
AcDbEntity
  8
SK1
  6
Continuous
100
AcDbSpline
210
0.0
220
0.0
230
1.0
 70
     8
 71
     3
 72
    10
 73
     6
 74
     0
 42
0.0000000427877658
 43
0.0000000001
 12
1.0
 22
0.0
 32
0.0
 13
1.0
 23
0.0
 33
0.0
 40
0.0
 40
0.0
 40
0.0
 40
0.0
 40
0.5
 40
0.5
 40
1.0
 40
1.0
 40
1.0
 40
1.0
 10
3.760000000000002
 20
2.846984438661759
 30
0.0
 10
3.707124946906955
 20
2.84698443866176
 30
0.0
 10
3.655406322486507
 20
2.855299167462394
 30
0.0
 10
3.58161619360254
 20
2.883579143884228
 30
0.0
 10
3.559999999999997
 20
2.903581087265978
 30
0.0
 10
3.560000000000003
 20
2.923560701335514
 30
0.0
  0
LINE
  5
12B
330
1F
100
AcDbEntity
  8
SK1
  6
Continuous
100
AcDbLine
 10
3.56
 20
3.0437965716
 30
0.0
 11
3.56
 21
3.4595423612
 31
0.0
  0
LINE
  5
12C
330
1F
100
AcDbEntity
  8
SK1
  6
Continuous
100
AcDbLine
 10
3.56
 20
3.4595423612
 30
0.0
 11
-16.94
 21
2.3564132323
 31
0.0
  0
LINE
  5
12D
330
1F
100
AcDbEntity
  8
SK1
  6
Continuous
100
AcDbLine
 10
-16.94
 20
2.3564132323
 30
0.0
 11
-17.24
 21
2.2415108442
 31
0.0
  0
LINE
  5
12E
330
1F
100
AcDbEntity
  8
SK1
  6
Continuous
100
AcDbLine
 10
-17.24
 20
2.2415108442
 30
0.0
 11
-17.24
 21
1.8257650546
 31
0.0
  0
LINE
  5
12F
330
1F
100
AcDbEntity
  8
SK3
100
AcDbLine
 10
-16.44
 20
1.6403504238
 30
0.0
 11
-5.04
 21
1.6403504238
 31
0.0
  0
ARC
  5
130
330
1F
100
AcDbEntity
  8
SK3
100
AcDbCircle
 10
-5.0101508622
 20
0.0079923972
 30
0.0
 40
1.6326309129987
100
AcDbArc
 50
70.5301927625
 51
91.0475882187
  0
LINE
  5
131
330
1F
100
AcDbEntity
  8
SK3
100
AcDbLine
 10
8.46
 20
1.1315192182
 30
0.0
 11
-4.4659785291
 21
1.1315192182
 31
0.0
  0
LINE
  5
132
330
1F
100
AcDbEntity
  8
SK3
100
AcDbLine
 10
8.46
 20
1.5472650079
 30
0.0
 11
-4.4659785291
 21
1.5472650079
 31
0.0
  0
LINE
  5
133
330
1F
100
AcDbEntity
  8
SK1
  6
Continuous
100
AcDbLine
 10
8.46
 20
2.6053812094
 30
0.0
 11
6.26
 21
3.0916485253
 31
0.0
  0
SPLINE
  5
134
330
1F
100
AcDbEntity
  8
SK1
  6
Continuous
100
AcDbSpline
210
0.0
220
0.0
230
1.0
 70
     8
 71
     3
 72
    10
 73
     6
 74
     0
 42
0.0000000427813181
 43
0.0000000001
 12
1.0
 22
0.0
 32
0.0
 13
1.0
 23
0.0
 33
0.0
 40
0.0
 40
0.0
 40
0.0
 40
0.0
 40
0.5
 40
0.5
 40
1.0
 40
1.0
 40
1.0
 40
1.0
 10
6.26000000000236
 20
2.50781491170533
 30
0.0
 10
6.2599999999999
 20
2.487852600909153
 30
0.0
 10
6.238796194129154
 20
2.467992392457818
 30
0.0
 10
6.164191088386489
 20
2.439398095062042
 30
0.0
 10
6.112835410550241
 20
2.431238649031268
 30
0.0
 10
6.059999999998951
 20
2.43123864903168
 30
0.0
  0
LINE
  5
135
330
1F
100
AcDbEntity
  8
SK1
  6
Continuous
100
AcDbLine
 10
6.06
 20
2.431238649
 30
0.0
 11
3.76
 21
2.431238649
 31
0.0
  0
SPLINE
  5
136
330
1F
100
AcDbEntity
  8
SK1
  6
Continuous
100
AcDbSpline
210
0.0
220
0.0
230
1.0
 70
     8
 71
     3
 72
    10
 73
     6
 74
     0
 42
0.0000000427877658
 43
0.0000000001
 12
1.0
 22
0.0
 32
0.0
 13
1.0
 23
0.0
 33
0.0
 40
0.0
 40
0.0
 40
0.0
 40
0.0
 40
0.5
 40
0.5
 40
1.0
 40
1.0
 40
1.0
 40
1.0
 10
3.760000000000002
 20
2.43123864903168
 30
0.0
 10
3.707124946906955
 20
2.431238649031678
 30
0.0
 10
3.655406322486505
 20
2.439553377832315
 30
0.0
 10
3.581616193602538
 20
2.467833354254148
 30
0.0
 10
3.559999999999996
 20
2.487835297635898
 30
0.0
 10
3.560000000000003
 20
2.507814911705434
 30
0.0
  0
LINE
  5
137
330
1F
100
AcDbEntity
  8
SK1
  6
Continuous
100
AcDbLine
 10
3.56
 20
3.0437965716
 30
0.0
 11
-16.94
 21
1.9406674427
 31
0.0
  0
LINE
  5
138
330
1F
100
AcDbEntity
  8
SK1
  6
Continuous
100
AcDbLine
 10
-16.94
 20
1.9406674427
 30
0.0
 11
-17.24
 21
1.8257650546
 31
0.0
  0
LINE
  5
139
330
1F
100
AcDbEntity
  8
SK3
100
AcDbLine
 10
-16.44
 20
1.2246046342
 30
0.0
 11
-5.04
 21
1.2246046342
 31
0.0
  0
ARC
  5
13A
330
1F
100
AcDbEntity
  8
SK3
100
AcDbCircle
 10
-5.0101508622
 20
-0.4077533925
 30
0.0
 40
1.632630912998715
100
AcDbArc
 50
70.5301927625
 51
91.0475882187
  0
LINE
  5
13B
330
1F
100
AcDbEntity
  8
SK3
100
AcDbLine
 10
-16.44
 20
3.5444103094
 30
0.0
 11
-16.44
 21
3.7500000998
 31
0.0
  0
LINE
  5
13C
330
1F
100
AcDbEntity
  8
SK3
100
AcDbLine
 10
-17.24
 20
3.7996099664
 30
0.0
 11
-16.44
 21
3.3722027649
 31
0.0
  0
LINE
  5
13D
330
1F
100
AcDbEntity
  8
SK3
100
AcDbLine
 10
-17.24
 20
3.971817511
 30
0.0
 11
-16.44
 21
3.5444103094
 31
0.0
  0
LINE
  5
13E
330
1F
100
AcDbEntity
  8
SK1
  6
Continuous
100
AcDbLine
 10
-16.94
 20
5.2731388533
 30
0.0
 11
-16.94
 21
5.6189129884
 31
0.0
  0
LINE
  5
13F
330
1F
100
AcDbEntity
  8
SK1
  6
Continuous
100
AcDbLine
 10
-17.24
 20
4.9957399495
 30
0.0
 11
-17.24
 21
5.3189129884
 31
0.0
  0
LINE
  5
140
330
1F
100
AcDbEntity
  8
SK3
100
AcDbLine
 10
-4.4659785291
 20
3.1474746913
 30
0.0
 11
-4.4659785291
 21
3.3196822358
 31
0.0
  0
LINE
  5
141
330
1F
100
AcDbEntity
  8
SK1
  6
Continuous
100
AcDbLine
 10
6.26
 20
8.0518529929
 30
0.0
 11
6.26
 21
8.6220648177
 31
0.0
  0
LINE
  5
142
330
1F
100
AcDbEntity
  8
SK1
  6
Continuous
100
AcDbLine
 10
8.46
 20
6.877899844
 30
0.0
 11
8.46
 21
6.7056922994
 31
0.0
  0
LINE
  5
143
330
1F
100
AcDbEntity
  8
SK1
  6
Continuous
100
AcDbLine
 10
6.06
 20
6.457482513
 30
0.0
 11
6.06
 21
6.8963306458
 31
0.0
  0
LINE
  5
144
330
1F
100
AcDbEntity
  8
SK1
  6
Continuous
100
AcDbLine
 10
3.76
 20
6.457482513
 30
0.0
 11
3.76
 21
6.8963306458
 31
0.0
  0
LINE
  5
145
330
1F
100
AcDbEntity
  8
SK1
  6
Continuous
100
AcDbLine
 10
3.56
 20
7.9363281574
 30
0.0
 11
3.56
 21
8.4970216368
 31
0.0
  0
LINE
  5
146
330
1F
100
AcDbEntity
  8
SK3
100
AcDbLine
 10
8.46
 20
6.7056922994
 30
0.0
 11
8.46
 21
3.1474746913
 31
0.0
  0
LINE
  5
147
330
1F
100
AcDbEntity
  8
SK1
  6
Continuous
100
AcDbLine
 10
8.46
 20
6.877899844
 30
0.0
 11
6.26
 21
8.0518529929
 31
0.0
  0
LINE
  5
148
330
1F
100
AcDbEntity
  8
SK1
  6
Continuous
100
AcDbLine
 10
6.26
 20
8.0518529929
 30
0.0
 11
6.26
 21
7.8796454484
 31
0.0
  0
ARC
  5
149
330
1F
100
AcDbEntity
  8
SK1
  6
Continuous
100
AcDbCircle
 10
6.0672824928
 20
6.6502230791
 30
0.0
 40
0.1928780976445666
100
AcDbArc
 50
267.8361705736
 51
357.6617759388
  0
LINE
  5
14A
330
1F
100
AcDbEntity
  8
SK1
  6
Continuous
100
AcDbLine
 10
6.06
 20
6.457482513
 30
0.0
 11
3.76
 21
6.457482513
 31
0.0
  0
ARC
  5
14B
330
1F
100
AcDbEntity
  8
SK1
  6
Continuous
100
AcDbCircle
 10
3.752717864
 20
6.6502234651
 30
0.0
 40
0.1928784698335283
100
AcDbArc
 50
182.3383342862
 51
272.1637192004
  0
LINE
  5
14C
330
1F
100
AcDbEntity
  8
SK1
  6
Continuous
100
AcDbLine
 10
3.56
 20
7.7641206128
 30
0.0
 11
3.56
 21
7.9363281574
 31
0.0
  0
SPLINE
  5
14D
330
1F
100
AcDbEntity
  8
SK1
  6
Continuous
100
AcDbSpline
210
0.0
220
0.0
230
1.0
 70
     8
 71
     3
 72
    11
 73
     7
 74
     0
 42
0.0000000004837399
 43
0.0000000001
 12
1.0
 22
0.0
 32
0.0
 13
1.0
 23
0.0
 33
0.0
 40
0.0
 40
0.0
 40
0.0
 40
0.0
 40
0.7208571485875953
 40
0.7208571485875953
 40
0.7208571485875953
 40
1.0
 40
1.0
 40
1.0
 40
1.0
 10
3.560000000000003
 20
7.93632815738159
 30
0.0
 10
-1.365874353970662
 20
7.296514640145421
 30
0.0
 10
-6.291741387727178
 20
6.656653008876383
 30
0.0
 10
-11.21759058285812
 20
6.01667418358771
 30
0.0
 10
-13.12506364162397
 20
5.768850444155039
 30
0.0
 10
-15.03253391397663
 20
5.521008397298128
 30
0.0
 10
-16.94
 20
5.273138853286229
 30
0.0
  0
LINE
  5
14E
330
1F
100
AcDbEntity
  8
SK1
  6
Continuous
100
AcDbLine
 10
-16.94
 20
5.2731388533
 30
0.0
 11
-17.24
 21
4.9957399495
 31
0.0
  0
LINE
  5
14F
330
1F
100
AcDbEntity
  8
SK1
  6
Continuous
100
AcDbLine
 10
-17.24
 20
4.9957399495
 30
0.0
 11
-17.24
 21
4.823532405
 31
0.0
  0
LINE
  5
150
330
1F
100
AcDbEntity
  8
SK3
100
AcDbLine
 10
-16.44
 20
3.5444103094
 30
0.0
 11
-5.04
 21
3.5444103094
 31
0.0
  0
ARC
  5
151
330
1F
100
AcDbEntity
  8
SK3
100
AcDbCircle
 10
-5.0361266624
 20
2.708830241
 30
0.0
 40
0.8355890458592685
100
AcDbArc
 50
46.9739512641
 51
90.2655931048
  0
LINE
  5
152
330
1F
100
AcDbEntity
  8
SK3
100
AcDbLine
 10
8.46
 20
3.1474746913
 30
0.0
 11
-4.4659785291
 21
3.1474746913
 31
0.0
  0
LINE
  5
153
330
1F
100
AcDbEntity
  8
SK3
100
AcDbLine
 10
8.46
 20
3.3196822358
 30
0.0
 11
-4.4659785291
 21
3.3196822358
 31
0.0
  0
LINE
  5
154
330
1F
100
AcDbEntity
  8
SK1
  6
Continuous
100
AcDbLine
 10
8.46
 20
6.7056922994
 30
0.0
 11
6.26
 21
7.8796454484
 31
0.0
  0
ARC
  5
155
330
1F
100
AcDbEntity
  8
SK1
  6
Continuous
100
AcDbCircle
 10
6.0672824928
 20
6.4780155346
 30
0.0
 40
0.1928780976445612
100
AcDbArc
 50
267.8361705736
 51
357.6617759388
  0
LINE
  5
156
330
1F
100
AcDbEntity
  8
SK1
  6
Continuous
100
AcDbLine
 10
6.06
 20
6.2852749684
 30
0.0
 11
3.76
 21
6.2852749684
 31
0.0
  0
ARC
  5
157
330
1F
100
AcDbEntity
  8
SK1
  6
Continuous
100
AcDbCircle
 10
3.752717864
 20
6.4780159205
 30
0.0
 40
0.1928784698335293
100
AcDbArc
 50
182.3383342862
 51
272.1637192004
  0
SPLINE
  5
158
330
1F
100
AcDbEntity
  8
SK1
  6
Continuous
100
AcDbSpline
210
0.0
220
0.0
230
1.0
 70
     8
 71
     3
 72
    11
 73
     7
 74
     0
 42
0.0000000004837399
 43
0.0000000001
 12
1.0
 22
0.0
 32
0.0
 13
1.0
 23
0.0
 33
0.0
 40
0.0
 40
0.0
 40
0.0
 40
0.0
 40
0.7208571485875953
 40
0.7208571485875953
 40
0.7208571485875953
 40
1.0
 40
1.0
 40
1.0
 40
1.0
 10
3.560000000000003
 20
7.764120612817299
 30
0.0
 10
-1.365874353970662
 20
7.12430709558113
 30
0.0
 10
-6.291741387727178
 20
6.484445464312092
 30
0.0
 10
-11.21759058285812
 20
5.844466639023418
 30
0.0
 10
-13.12506364162397
 20
5.596642899590748
 30
0.0
 10
-15.03253391397663
 20
5.348800852733837
 30
0.0
 10
-16.94
 20
5.100931308721938
 30
0.0
  0
LINE
  5
159
330
1F
100
AcDbEntity
  8
SK1
  6
Continuous
100
AcDbLine
 10
-16.94
 20
5.1009313087
 30
0.0
 11
-17.24
 21
4.823532405
 31
0.0
  0
LINE
  5
15A
330
1F
100
AcDbEntity
  8
SK3
100
AcDbLine
 10
-16.44
 20
3.3722027649
 30
0.0
 11
-5.04
 21
3.3722027649
 31
0.0
  0
ARC
  5
15B
330
1F
100
AcDbEntity
  8
SK3
100
AcDbCircle
 10
-5.0361266624
 20
2.5366226964
 30
0.0
 40
0.8355890458592631
100
AcDbArc
 50
46.9739512641
 51
90.2655931048
  0
LINE
  5
15C
330
1F
100
AcDbEntity
  8
SK3
100
AcDbLine
 10
-16.44
 20
-3.5444101099
 30
0.0
 11
-16.44
 21
-3.7499999002
 31
0.0
  0
LINE
  5
15D
330
1F
100
AcDbEntity
  8
SK1
  6
Continuous
100
AcDbLine
 10
-16.94
 20
-5.2731386537
 30
0.0
 11
-16.94
 21
-5.6189127888
 31
0.0
  0
LINE
  5
15E
330
1F
100
AcDbEntity
  8
SK1
  6
Continuous
100
AcDbLine
 10
-17.24
 20
-5.3189127888
 30
0.0
 11
-17.24
 21
-4.99573975
 31
0.0
  0
LINE
  5
15F
330
1F
100
AcDbEntity
  8
SK3
100
AcDbLine
 10
-4.4659785291
 20
-3.1474744917
 30
0.0
 11
-4.4659785291
 21
-3.3196820363
 31
0.0
  0
LINE
  5
160
330
1F
100
AcDbEntity
  8
SK1
  6
Continuous
100
AcDbLine
 10
-16.94
 20
-5.6189127888
 30
0.0
 11
-13.74
 21
-6.0686434599
 31
0.0
  0
LINE
  5
161
330
1F
100
AcDbEntity
  8
SK1
  6
Continuous
100
AcDbLine
 10
-17.24
 20
-5.3189127888
 30
0.0
 11
-16.94
 21
-5.6189127888
 31
0.0
  0
LINE
  5
162
330
1F
100
AcDbEntity
  8
SK3
100
AcDbLine
 10
10.06
 20
-0.4999999002
 30
0.0
 11
10.26
 21
-0.6999999002
 31
0.0
  0
LINE
  5
163
330
1F
100
AcDbEntity
  8
SK3
100
AcDbLine
 10
-4.04
 20
-0.4999999002
 30
0.0
 11
10.06
 21
-0.4999999002
 31
0.0
  0
LINE
  5
164
330
1F
100
AcDbEntity
  8
SK3
100
AcDbLine
 10
-4.24
 20
-0.6999999002
 30
0.0
 11
-4.04
 21
-0.4999999002
 31
0.0
  0
LINE
  5
165
330
1F
100
AcDbEntity
  8
SK3
100
AcDbLine
 10
-16.44
 20
-3.7499999002
 30
0.0
 11
-13.74
 21
-3.7499999002
 31
0.0
  0
LINE
  5
166
330
1F
100
AcDbEntity
  8
SK3
100
AcDbLine
 10
-17.24
 20
-4.2118801156
 30
0.0
 11
-16.44
 21
-3.7499999002
 31
0.0
  0
LINE
  5
167
330
1F
100
AcDbEntity
  8
SK3
100
AcDbLine
 10
-4.04
 20
0.5000000998
 30
0.0
 11
-4.24
 21
0.7000000998
 31
0.0
  0
LINE
  5
168
330
1F
100
AcDbEntity
  8
SK3
100
AcDbLine
 10
10.06
 20
0.5000000998
 30
0.0
 11
-4.04
 21
0.5000000998
 31
0.0
  0
LINE
  5
169
330
1F
100
AcDbEntity
  8
SK3
100
AcDbLine
 10
10.26
 20
0.7000000998
 30
0.0
 11
10.06
 21
0.5000000998
 31
0.0
  0
LINE
  5
16A
330
1F
100
AcDbEntity
  8
SK3
100
AcDbLine
 10
-16.44
 20
3.7500000998
 30
0.0
 11
-17.24
 21
4.2118803151
 31
0.0
  0
LINE
  5
16B
330
1F
100
AcDbEntity
  8
SK1
  6
Continuous
100
AcDbLine
 10
-16.94
 20
5.6189129884
 30
0.0
 11
-17.24
 21
5.3189129884
 31
0.0
  0
LINE
  5
16C
330
1F
100
AcDbEntity
  8
SK3
100
AcDbLine
 10
-13.74
 20
3.7500000998
 30
0.0
 11
-16.44
 21
3.7500000998
 31
0.0
  0
LINE
  5
16D
330
1F
100
AcDbEntity
  8
SK1
  6
Continuous
100
AcDbLine
 10
-13.74
 20
6.0686436594
 30
0.0
 11
-16.94
 21
5.6189129884
 31
0.0
  0
LINE
  5
16E
330
1F
100
AcDbEntity
  8
SK1
  6
Continuous
100
AcDbLine
 10
0.0
 20
7.9965099498
 30
0.0
 11
0.0
 21
-7.9965097502
 31
0.0
  0
LINE
  5
170
330
1F
100
AcDbEntity
  8
SK4
  6
Continuous
100
AcDbLine
 10
10.26
 20
0.0000000998
 30
0.0
 11
-17.24
 21
0.0000000998
 31
0.0
  0
DIMENSION
  5
185
330
1F
100
AcDbEntity
  8
SK2
  6
Continuous
 62
   136
100
AcDbDimension
  2
DMBLK79
 10
20.3023764765
 20
-0.4999999002
 30
0.0
 11
20.3023764765
 21
6.7255047105
 31
0.0
 70
   161
  1
\A1;ø <>
 71
     5
 42
-1.0
  3
DIN
100
AcDbAlignedDimension
 13
10.06
 23
-0.4999999002
 33
0.0
 14
10.06
 24
0.5000000998
 34
0.0
  0
DIMENSION
  5
190
330
1F
100
AcDbEntity
  8
SK2
  6
Continuous
 62
   136
100
AcDbDimension
  2
DMBLK80
 10
10.26
 20
-15.0934508674
 30
0.0
 11
16.1540415138
 21
-15.0934508674
 31
0.0
 70
   160
  1
\A1;<>
 71
     5
 42
-1.0
  3
DIN
100
AcDbAlignedDimension
 13
0.0
 23
-7.9965097502
 33
0.0
 14
10.26
 24
-4.201740342
 34
0.0
100
AcDbRotatedDimension
  0
DIMENSION
  5
19A
330
1F
100
AcDbEntity
  8
SK2
  6
Continuous
 62
   136
100
AcDbDimension
  2
DMBLK81
 10
-22.5390028208
 20
7.9965099498
 30
0.0
 11
-22.5390028208
 21
0.0000001668
 31
0.0
 70
   161
  1
\A1;ø <>
 71
     5
 42
-1.0
  3
DIN
100
AcDbAlignedDimension
 13
0.0
 23
7.9965099498
 33
0.0
 14
0.0
 24
-7.9965097502
 34
0.0
1001
ACAD
1000
DSTYLE
1002
{
1070
   271
1070
     1
1070
   272
1070
     1
1070
     0
1002
}
  0
DIMENSION
  5
1A5
330
1F
100
AcDbEntity
  8
SK2
  6
Continuous
 62
   136
100
AcDbDimension
  2
DMBLK82
 10
10.26
 20
13.69441109
 30
0.0
 11
-3.4900000745
 21
13.69441109
 31
0.0
 70
   160
  1
\A1;<>
 71
     5
 42
-1.0
  3
DIN
100
AcDbAlignedDimension
 13
-17.24
 23
2.2415108442
 33
0.0
 14
10.26
 24
5.3435485056
 34
0.0
100
AcDbRotatedDimension
1001
ACAD
1000
DSTYLE
1002
{
1070
   271
1070
     1
1070
   272
1070
     1
1070
     0
1002
}
  0
ENDSEC
  0
SECTION
  2
OBJECTS
  0
DICTIONARY
  5
C
330
0
100
AcDbDictionary
281
     1
  3
ACAD_GROUP
350
D
  3
ACAD_LAYOUT
350
1A
  3
ACAD_MATERIAL
350
3B
  3
ACAD_MLEADERSTYLE
350
1B1
  3
ACAD_MLINESTYLE
350
17
  3
ACAD_PLOTSETTINGS
350
19
  3
ACAD_PLOTSTYLENAME
350
E
  3
ACAD_VISUALSTYLE
350
2A
  3
AcDbVariableDictionary
350
1AF
  0
DICTIONARY
  5
D
102
{ACAD_REACTORS
330
C
102
}
330
C
100
AcDbDictionary
281
     1
  0
DICTIONARY
  5
1A
102
{ACAD_REACTORS
330
C
102
}
330
C
100
AcDbDictionary
281
     1
  3
Layout1
350
1E
  3
Model
350
22
  0
DICTIONARY
  5
3B
102
{ACAD_REACTORS
330
C
102
}
330
C
100
AcDbDictionary
281
     1
  3
ByBlock
350
3D
  3
ByLayer
350
3C
  3
Global
350
3E
  0
DICTIONARY
  5
1B1
102
{ACAD_REACTORS
330
C
102
}
330
C
100
AcDbDictionary
281
     1
  0
DICTIONARY
  5
17
102
{ACAD_REACTORS
330
C
102
}
330
C
100
AcDbDictionary
281
     1
  3
Standard
350
18
  0
DICTIONARY
  5
19
102
{ACAD_REACTORS
330
C
102
}
330
C
100
AcDbDictionary
281
     1
  0
ACDBDICTIONARYWDFLT
  5
E
102
{ACAD_REACTORS
330
C
102
}
330
C
100
AcDbDictionary
281
     1
  3
Normal
350
F
100
AcDbDictionaryWithDefault
340
F
  0
DICTIONARY
  5
2A
102
{ACAD_REACTORS
330
C
102
}
330
C
100
AcDbDictionary
281
     1
  3
2dWireframe
350
2F
  3
3D Hidden
350
31
  3
3dWireframe
350
30
  3
Basic
350
32
  3
Brighten
350
36
  3
ColorChange
350
3A
  3
Conceptual
350
34
  3
Dim
350
35
  3
Facepattern
350
39
  3
Flat
350
2B
  3
FlatWithEdges
350
2C
  3
Gouraud
350
2D
  3
GouraudWithEdges
350
2E
  3
Linepattern
350
38
  3
Realistic
350
33
  3
Thicken
350
37
  0
DICTIONARY
  5
1AF
102
{ACAD_REACTORS
330
C
102
}
330
C
100
AcDbDictionary
281
     1
  3
DIMASSOC
350
1B4
  3
HIDETEXT
350
1B5
  3
PSOLHEIGHT
350
1B3
  3
PSOLWIDTH
350
1B2
  0
LAYOUT
  5
1E
102
{ACAD_REACTORS
330
1A
102
}
330
1A
100
AcDbPlotSettings
  1

  2
none_device
  4

  6

 40
0.0
 41
0.0
 42
0.0
 43
0.0
 44
0.0
 45
0.0
 46
0.0
 47
0.0
 48
0.0
 49
0.0
140
0.0
141
0.0
142
1.0
143
1.0
 70
   688
 72
     0
 73
     0
 74
     5
  7

 75
    16
147
1.0
148
0.0
149
0.0
100
AcDbLayout
  1
Layout1
 70
     1
 71
     1
 10
0.0
 20
0.0
 11
210.0
 21
297.0
 12
0.0
 22
0.0
 32
0.0
 14
0.0
 24
0.0
 34
0.0
 15
210.0
 25
297.0
 35
0.0
146
0.0
 13
0.0
 23
0.0
 33
0.0
 16
1.0
 26
0.0
 36
0.0
 17
0.0
 27
1.0
 37
0.0
 76
     0
330
1B
  0
LAYOUT
  5
22
102
{ACAD_REACTORS
330
1A
102
}
330
1A
100
AcDbPlotSettings
  1

  2
none_device
  4

  6

 40
0.0
 41
0.0
 42
0.0
 43
0.0
 44
0.0
 45
0.0
 46
0.0
 47
0.0
 48
0.0
 49
0.0
140
0.0
141
0.0
142
1.0
143
1.0
 70
  1712
 72
     0
 73
     0
 74
     0
  7

 75
     0
147
1.0
148
0.0
149
0.0
100
AcDbLayout
  1
Model
 70
     1
 71
     0
 10
0.0
 20
0.0
 11
210.0
 21
297.0
 12
0.0
 22
0.0
 32
0.0
 14
0.0
 24
0.0
 34
0.0
 15
210.0
 25
297.0
 35
0.0
146
0.0
 13
0.0
 23
0.0
 33
0.0
 16
1.0
 26
0.0
 36
0.0
 17
0.0
 27
1.0
 37
0.0
 76
     0
330
1F
331
29
  0
MATERIAL
  5
3D
102
{ACAD_REACTORS
330
3B
102
}
102
{ACAD_XDICTIONARY
360
1D8
102
}
330
3B
100
AcDbMaterial
  1
ByBlock
  0
MATERIAL
  5
3C
102
{ACAD_REACTORS
330
3B
102
}
102
{ACAD_XDICTIONARY
360
1D6
102
}
330
3B
100
AcDbMaterial
  1
ByLayer
  0
MATERIAL
  5
3E
102
{ACAD_REACTORS
330
3B
102
}
102
{ACAD_XDICTIONARY
360
1DA
102
}
330
3B
100
AcDbMaterial
  1
Global
  0
MLINESTYLE
  5
18
102
{ACAD_REACTORS
330
17
102
}
330
17
100
AcDbMlineStyle
  2
Standard
 70
     0
  3

 62
   256
 51
90.0
 52
90.0
 71
     2
 49
0.5
 62
   256
  6
BYLAYER
 49
-0.5
 62
   256
  6
BYLAYER
  0
ACDBPLACEHOLDER
  5
F
102
{ACAD_REACTORS
330
E
102
}
330
E
  0
VISUALSTYLE
  5
2F
102
{ACAD_REACTORS
330
2A
102
}
102
{ACAD_XDICTIONARY
360
1BE
102
}
330
2A
100
AcDbVisualStyle
  2
2dWireframe
 70
     4
 71
     0
 72
     2
 73
     0
 90
        0
 40
-0.6
 41
-30.0
 62
     5
 63
     7
 74
     1
 91
        4
 64
     7
 65
   257
 75
     1
175
     1
 42
1.0
 92
        0
 66
   257
 43
1.0
 76
     1
 77
     6
 78
     2
 67
     7
 79
     5
170
     0
171
     0
290
     0
174
     0
 93
        1
 44
0.0
173
     0
291
     0
 45
0.0
1001
ACAD
1000
AcDbSavedByObjectVersion
1070
     0
  0
VISUALSTYLE
  5
31
102
{ACAD_REACTORS
330
2A
102
}
102
{ACAD_XDICTIONARY
360
1C2
102
}
330
2A
100
AcDbVisualStyle
  2
3D Hidden
 70
     6
 71
     1
 72
     2
 73
     2
 90
        0
 40
-0.6
 41
-30.0
 62
     5
 63
     7
 74
     2
 91
        2
 64
     7
 65
   257
 75
     2
175
     1
 42
40.0
 92
        0
 66
   257
 43
1.0
 76
     1
 77
     6
 78
     2
 67
     7
 79
     3
170
     0
171
     0
290
     0
174
     0
 93
        1
 44
0.0
173
     0
291
     0
 45
0.0
1001
ACAD
1000
AcDbSavedByObjectVersion
1070
     0
  0
VISUALSTYLE
  5
30
102
{ACAD_REACTORS
330
2A
102
}
102
{ACAD_XDICTIONARY
360
1C0
102
}
330
2A
100
AcDbVisualStyle
  2
3dWireframe
 70
     5
 71
     0
 72
     2
 73
     0
 90
        0
 40
-0.6
 41
-30.0
 62
     5
 63
     7
 74
     1
 91
        4
 64
     7
 65
   257
 75
     1
175
     1
 42
1.0
 92
        0
 66
   257
 43
1.0
 76
     1
 77
     6
 78
     2
 67
     7
 79
     5
170
     0
171
     0
290
     0
174
     0
 93
        1
 44
0.0
173
     0
291
     0
 45
0.0
1001
ACAD
1000
AcDbSavedByObjectVersion
1070
     0
  0
VISUALSTYLE
  5
32
102
{ACAD_REACTORS
330
2A
102
}
102
{ACAD_XDICTIONARY
360
1C4
102
}
330
2A
100
AcDbVisualStyle
  2
Basic
 70
     7
 71
     1
 72
     0
 73
     1
 90
        0
 40
-0.6
 41
-30.0
 62
     5
 63
     7
 74
     0
 91
        4
 64
     7
 65
   257
 75
     1
175
     1
 42
1.0
 92
        8
 66
     7
 43
1.0
 76
     1
 77
     6
 78
     2
 67
     7
 79
     5
170
     0
171
     0
290
     0
174
     0
 93
        1
 44
0.0
173
     0
291
     1
 45
0.0
1001
ACAD
1000
AcDbSavedByObjectVersion
1070
     0
  0
VISUALSTYLE
  5
36
102
{ACAD_REACTORS
330
2A
102
}
102
{ACAD_XDICTIONARY
360
1CC
102
}
330
2A
100
AcDbVisualStyle
  2
Brighten
 70
    12
 71
     2
 72
     2
 73
     0
 90
        0
 40
-0.6
 41
-30.0
 62
     5
 63
     7
 74
     1
 91
        4
 64
     7
 65
   257
 75
     1
175
     1
 42
1.0
 92
        8
 66
     7
 43
1.0
 76
     1
 77
     6
 78
     2
 67
     7
 79
     5
170
     0
171
     0
290
     0
174
     0
 93
        1
 44
50.0
173
     0
291
     1
 45
0.0
1001
ACAD
1000
AcDbSavedByObjectVersion
1070
     0
  0
VISUALSTYLE
  5
3A
102
{ACAD_REACTORS
330
2A
102
}
102
{ACAD_XDICTIONARY
360
1D4
102
}
330
2A
100
AcDbVisualStyle
  2
ColorChange
 70
    16
 71
     2
 72
     2
 73
     3
 90
        0
 40
-0.6
 41
-30.0
 62
     5
 63
     8
 74
     1
 91
        4
 64
     7
 65
   257
 75
     1
175
     1
 42
1.0
 92
        8
 66
     8
 43
1.0
 76
     1
 77
     6
 78
     2
 67
     7
 79
     5
170
     0
171
     0
290
     0
174
     0
 93
        1
 44
0.0
173
     0
291
     1
 45
0.0
1001
ACAD
1000
AcDbSavedByObjectVersion
1070
     0
  0
VISUALSTYLE
  5
34
102
{ACAD_REACTORS
330
2A
102
}
102
{ACAD_XDICTIONARY
360
1C8
102
}
330
2A
100
AcDbVisualStyle
  2
Conceptual
 70
     9
 71
     3
 72
     2
 73
     0
 90
        0
 40
-0.6
 41
-30.0
 62
     5
 63
     7
 74
     2
 91
        2
 64
     7
 65
   257
 75
     1
175
     1
 42
40.0
 92
        8
 66
     7
 43
1.0
 76
     1
 77
     6
 78
     2
 67
     7
 79
     3
170
     0
171
     0
290
     0
174
     0
 93
        1
 44
0.0
173
     0
291
     0
 45
0.0
1001
ACAD
1000
AcDbSavedByObjectVersion
1070
     0
  0
VISUALSTYLE
  5
35
102
{ACAD_REACTORS
330
2A
102
}
102
{ACAD_XDICTIONARY
360
1CA
102
}
330
2A
100
AcDbVisualStyle
  2
Dim
 70
    11
 71
     2
 72
     2
 73
     0
 90
        0
 40
-0.6
 41
-30.0
 62
     5
 63
     7
 74
     1
 91
        4
 64
     7
 65
   257
 75
     1
175
     1
 42
1.0
 92
        8
 66
     7
 43
1.0
 76
     1
 77
     6
 78
     2
 67
     7
 79
     5
170
     0
171
     0
290
     0
174
     0
 93
        1
 44
-50.0
173
     0
291
     1
 45
0.0
1001
ACAD
1000
AcDbSavedByObjectVersion
1070
     0
  0
VISUALSTYLE
  5
39
102
{ACAD_REACTORS
330
2A
102
}
102
{ACAD_XDICTIONARY
360
1D2
102
}
330
2A
100
AcDbVisualStyle
  2
Facepattern
 70
    15
 71
     2
 72
     2
 73
     0
 90
        0
 40
-0.6
 41
-30.0
 62
     5
 63
     7
 74
     1
 91
        4
 64
     7
 65
   257
 75
     1
175
     1
 42
1.0
 92
        8
 66
     7
 43
1.0
 76
     1
 77
     6
 78
     2
 67
     7
 79
     5
170
     0
171
     0
290
     0
174
     0
 93
        1
 44
0.0
173
     0
291
     1
 45
0.0
1001
ACAD
1000
AcDbSavedByObjectVersion
1070
     0
  0
VISUALSTYLE
  5
2B
102
{ACAD_REACTORS
330
2A
102
}
102
{ACAD_XDICTIONARY
360
1B6
102
}
330
2A
100
AcDbVisualStyle
  2
Flat
 70
     0
 71
     2
 72
     1
 73
     1
 90
        2
 40
-0.6
 41
30.0
 62
     5
 63
     7
 74
     0
 91
        4
 64
     7
 65
   257
 75
     1
175
     1
 42
1.0
 92
        8
 66
     7
 43
1.0
 76
     1
 77
     6
 78
     2
 67
     7
 79
     5
170
     0
171
     0
290
     0
174
     0
 93
       13
 44
0.0
173
     0
291
     1
 45
0.0
1001
ACAD
1000
AcDbSavedByObjectVersion
1070
     0
  0
VISUALSTYLE
  5
2C
102
{ACAD_REACTORS
330
2A
102
}
102
{ACAD_XDICTIONARY
360
1B8
102
}
330
2A
100
AcDbVisualStyle
  2
FlatWithEdges
 70
     1
 71
     2
 72
     1
 73
     1
 90
        2
 40
-0.6
 41
30.0
 62
     5
 63
     7
 74
     1
 91
        4
 64
     7
 65
   257
 75
     1
175
     1
 42
1.0
 92
        0
 66
   257
 43
1.0
 76
     1
 77
     6
 78
     2
 67
     7
 79
     5
170
     0
171
     0
290
     0
174
     0
 93
       13
 44
0.0
173
     0
291
     1
 45
0.0
1001
ACAD
1000
AcDbSavedByObjectVersion
1070
     0
  0
VISUALSTYLE
  5
2D
102
{ACAD_REACTORS
330
2A
102
}
102
{ACAD_XDICTIONARY
360
1BA
102
}
330
2A
100
AcDbVisualStyle
  2
Gouraud
 70
     2
 71
     2
 72
     2
 73
     1
 90
        2
 40
-0.6
 41
30.0
 62
     5
 63
     7
 74
     0
 91
        4
 64
     7
 65
   257
 75
     1
175
     1
 42
1.0
 92
        0
 66
     7
 43
1.0
 76
     1
 77
     6
 78
     2
 67
     7
 79
     5
170
     0
171
     0
290
     0
174
     0
 93
       13
 44
0.0
173
     0
291
     1
 45
0.0
1001
ACAD
1000
AcDbSavedByObjectVersion
1070
     0
  0
VISUALSTYLE
  5
2E
102
{ACAD_REACTORS
330
2A
102
}
102
{ACAD_XDICTIONARY
360
1BC
102
}
330
2A
100
AcDbVisualStyle
  2
GouraudWithEdges
 70
     3
 71
     2
 72
     2
 73
     1
 90
        2
 40
-0.6
 41
30.0
 62
     5
 63
     7
 74
     1
 91
        4
 64
     7
 65
   257
 75
     1
175
     1
 42
1.0
 92
        0
 66
   257
 43
1.0
 76
     1
 77
     6
 78
     2
 67
     7
 79
     5
170
     0
171
     0
290
     0
174
     0
 93
       13
 44
0.0
173
     0
291
     1
 45
0.0
1001
ACAD
1000
AcDbSavedByObjectVersion
1070
     0
  0
VISUALSTYLE
  5
38
102
{ACAD_REACTORS
330
2A
102
}
102
{ACAD_XDICTIONARY
360
1D0
102
}
330
2A
100
AcDbVisualStyle
  2
Linepattern
 70
    14
 71
     2
 72
     2
 73
     0
 90
        0
 40
-0.6
 41
-30.0
 62
     5
 63
     7
 74
     1
 91
        4
 64
     7
 65
   257
 75
     7
175
     7
 42
1.0
 92
        8
 66
     7
 43
1.0
 76
     1
 77
     6
 78
     2
 67
     7
 79
     5
170
     0
171
     0
290
     0
174
     0
 93
        1
 44
0.0
173
     0
291
     1
 45
0.0
1001
ACAD
1000
AcDbSavedByObjectVersion
1070
     0
  0
VISUALSTYLE
  5
33
102
{ACAD_REACTORS
330
2A
102
}
102
{ACAD_XDICTIONARY
360
1C6
102
}
330
2A
100
AcDbVisualStyle
  2
Realistic
 70
     8
 71
     2
 72
     2
 73
     0
 90
        0
 40
-0.6
 41
-30.0
 62
     5
 63
     7
 74
     1
 91
        0
 64
     7
 65
   257
 75
     1
175
     1
 42
1.0
 92
        8
 66
     8
 43
1.0
 76
     1
 77
     6
 78
     2
 67
     7
 79
     5
170
     0
171
     0
290
     0
174
     0
 93
       13
 44
0.0
173
     0
291
     0
 45
0.0
1001
ACAD
1000
AcDbSavedByObjectVersion
1070
     0
  0
VISUALSTYLE
  5
37
102
{ACAD_REACTORS
330
2A
102
}
102
{ACAD_XDICTIONARY
360
1CE
102
}
330
2A
100
AcDbVisualStyle
  2
Thicken
 70
    13
 71
     2
 72
     2
 73
     0
 90
        0
 40
-0.6
 41
-30.0
 62
     5
 63
     7
 74
     1
 91
        4
 64
     7
 65
   257
 75
     1
175
     1
 42
1.0
 92
       12
 66
     7
 43
1.0
 76
     1
 77
     6
 78
     2
 67
     7
 79
     5
170
     0
171
     0
290
     0
174
     0
 93
        1
 44
0.0
173
     0
291
     1
 45
0.0
1001
ACAD
1000
AcDbSavedByObjectVersion
1070
     0
  0
DICTIONARYVAR
  5
1B4
102
{ACAD_REACTORS
330
1AF
102
}
330
1AF
100
DictionaryVariables
280
     0
  1
2
  0
DICTIONARYVAR
  5
1B5
102
{ACAD_REACTORS
330
1AF
102
}
330
1AF
100
DictionaryVariables
280
     0
  1
1
  0
DICTIONARYVAR
  5
1B3
102
{ACAD_REACTORS
330
1AF
102
}
330
1AF
100
DictionaryVariables
280
     0
  1
80.000000
  0
DICTIONARYVAR
  5
1B2
102
{ACAD_REACTORS
330
1AF
102
}
330
1AF
100
DictionaryVariables
280
     0
  1
5.000000
  0
DICTIONARY
  5
1D8
330
3D
100
AcDbDictionary
280
     1
281
     1
  3
ACAD_XREC_ROUNDTRIP
360
1D9
  0
DICTIONARY
  5
1D6
330
3C
100
AcDbDictionary
280
     1
281
     1
  3
ACAD_XREC_ROUNDTRIP
360
1D7
  0
DICTIONARY
  5
1DA
330
3E
100
AcDbDictionary
280
     1
281
     1
  3
ACAD_XREC_ROUNDTRIP
360
1DB
  0
DICTIONARY
  5
1BE
330
2F
100
AcDbDictionary
280
     1
281
     1
  3
ACAD_XREC_ROUNDTRIP
360
1BF
  0
DICTIONARY
  5
1C2
330
31
100
AcDbDictionary
280
     1
281
     1
  3
ACAD_XREC_ROUNDTRIP
360
1C3
  0
DICTIONARY
  5
1C0
330
30
100
AcDbDictionary
280
     1
281
     1
  3
ACAD_XREC_ROUNDTRIP
360
1C1
  0
DICTIONARY
  5
1C4
330
32
100
AcDbDictionary
280
     1
281
     1
  3
ACAD_XREC_ROUNDTRIP
360
1C5
  0
DICTIONARY
  5
1CC
330
36
100
AcDbDictionary
280
     1
281
     1
  3
ACAD_XREC_ROUNDTRIP
360
1CD
  0
DICTIONARY
  5
1D4
330
3A
100
AcDbDictionary
280
     1
281
     1
  3
ACAD_XREC_ROUNDTRIP
360
1D5
  0
DICTIONARY
  5
1C8
330
34
100
AcDbDictionary
280
     1
281
     1
  3
ACAD_XREC_ROUNDTRIP
360
1C9
  0
DICTIONARY
  5
1CA
330
35
100
AcDbDictionary
280
     1
281
     1
  3
ACAD_XREC_ROUNDTRIP
360
1CB
  0
DICTIONARY
  5
1D2
330
39
100
AcDbDictionary
280
     1
281
     1
  3
ACAD_XREC_ROUNDTRIP
360
1D3
  0
DICTIONARY
  5
1B6
330
2B
100
AcDbDictionary
280
     1
281
     1
  3
ACAD_XREC_ROUNDTRIP
360
1B7
  0
DICTIONARY
  5
1B8
330
2C
100
AcDbDictionary
280
     1
281
     1
  3
ACAD_XREC_ROUNDTRIP
360
1B9
  0
DICTIONARY
  5
1BA
330
2D
100
AcDbDictionary
280
     1
281
     1
  3
ACAD_XREC_ROUNDTRIP
360
1BB
  0
DICTIONARY
  5
1BC
330
2E
100
AcDbDictionary
280
     1
281
     1
  3
ACAD_XREC_ROUNDTRIP
360
1BD
  0
DICTIONARY
  5
1D0
330
38
100
AcDbDictionary
280
     1
281
     1
  3
ACAD_XREC_ROUNDTRIP
360
1D1
  0
DICTIONARY
  5
1C6
330
33
100
AcDbDictionary
280
     1
281
     1
  3
ACAD_XREC_ROUNDTRIP
360
1C7
  0
DICTIONARY
  5
1CE
330
37
100
AcDbDictionary
280
     1
281
     1
  3
ACAD_XREC_ROUNDTRIP
360
1CF
  0
XRECORD
  5
1D9
102
{ACAD_REACTORS
330
1D8
102
}
330
1D8
100
AcDbXrecord
280
     1
102
MATERIAL
148
0.0
149
0.0
149
0.0
 93
        0
 94
      127
282
     0
 72
     1
 77
     1
171
     1
175
     1
179
     1
273
     0
  0
XRECORD
  5
1D7
102
{ACAD_REACTORS
330
1D6
102
}
330
1D6
100
AcDbXrecord
280
     1
102
MATERIAL
148
0.0
149
0.0
149
0.0
 93
        0
 94
      127
282
     0
 72
     1
 77
     1
171
     1
175
     1
179
     1
273
     0
  0
XRECORD
  5
1DB
102
{ACAD_REACTORS
330
1DA
102
}
330
1DA
100
AcDbXrecord
280
     1
102
MATERIAL
148
0.0
149
0.0
149
0.0
 93
        0
 94
      127
282
     0
 72
     1
 77
     1
171
     1
175
     1
179
     1
273
     0
  0
XRECORD
  5
1BF
102
{ACAD_REACTORS
330
1BE
102
}
330
1BE
100
AcDbXrecord
280
     1
102
RTVSPropertyOp0
 70
     1
102
RTVSPropertyOp1
 70
     1
102
RTVSPropertyOp2
 70
     1
102
RTVSPropertyOp3
 70
     1
102
RTVSPropertyOp4
 70
     1
102
RTVSPropertyOp5
 70
     1
102
RTVSPropertyOp6
 70
     1
102
RTVSPropertyOp7
 70
     1
102
RTVSPropertyOp8
 70
     1
102
RTVSPropertyOp9
 70
     1
102
RTVSPropertyOp10
 70
     1
102
RTVSPropertyOp11
 70
     1
102
RTVSPropertyOp12
 70
     1
102
RTVSPropertyOp13
 70
     1
102
RTVSPropertyOp14
 70
     1
102
RTVSPropertyOp15
 70
     1
102
RTVSPropertyOp16
 70
     1
102
RTVSPropertyOp17
 70
     1
102
RTVSPropertyOp18
 70
     1
102
RTVSPropertyOp19
 70
     1
102
RTVSPropertyOp20
 70
     1
102
RTVSPropertyOp21
 70
     1
102
RTVSPropertyOp22
 70
     1
102
RTVSPropertyOp23
 70
     1
102
RTVSPropertyOp24
 70
     1
102
RTVSPropertyOp25
 70
     1
102
RTVSPropertyOp26
 70
     1
102
RTVSPropertyOp27
 70
     1
102
RTVSPropertyOp28
 70
     1
102
RTVSPropertyOp29
 70
     1
102
RTVSPropertyOp30
 70
     1
102
RTVSPropertyOp31
 70
     1
102
RTVSPropertyOp32
 70
     1
  0
XRECORD
  5
1C3
102
{ACAD_REACTORS
330
1C2
102
}
330
1C2
100
AcDbXrecord
280
     1
102
RTVSPropertyOp0
 70
     1
102
RTVSPropertyOp1
 70
     1
102
RTVSPropertyOp2
 70
     1
102
RTVSPropertyOp3
 70
     1
102
RTVSPropertyOp4
 70
     1
102
RTVSPropertyOp5
 70
     1
102
RTVSPropertyOp6
 70
     1
102
RTVSPropertyOp7
 70
     1
102
RTVSPropertyOp8
 70
     1
102
RTVSPropertyOp9
 70
     1
102
RTVSPropertyOp10
 70
     1
102
RTVSPropertyOp11
 70
     1
102
RTVSPropertyOp12
 70
     1
102
RTVSPropertyOp13
 70
     1
102
RTVSPropertyOp14
 70
     1
102
RTVSPropertyOp15
 70
     1
102
RTVSPropertyOp16
 70
     1
102
RTVSPropertyOp17
 70
     1
102
RTVSPropertyOp18
 70
     1
102
RTVSPropertyOp19
 70
     1
102
RTVSPropertyOp20
 70
     1
102
RTVSPropertyOp21
 70
     1
102
RTVSPropertyOp22
 70
     1
102
RTVSPropertyOp23
 70
     1
102
RTVSPropertyOp24
 70
     1
102
RTVSPropertyOp25
 70
     1
102
RTVSPropertyOp26
 70
     1
102
RTVSPropertyOp27
 70
     1
102
RTVSPropertyOp28
 70
     1
102
RTVSPropertyOp29
 70
     1
102
RTVSPropertyOp30
 70
     1
102
RTVSPropertyOp31
 70
     1
102
RTVSPropertyOp32
 70
     1
  0
XRECORD
  5
1C1
102
{ACAD_REACTORS
330
1C0
102
}
330
1C0
100
AcDbXrecord
280
     1
102
RTVSPropertyOp0
 70
     1
102
RTVSPropertyOp1
 70
     1
102
RTVSPropertyOp2
 70
     1
102
RTVSPropertyOp3
 70
     1
102
RTVSPropertyOp4
 70
     1
102
RTVSPropertyOp5
 70
     1
102
RTVSPropertyOp6
 70
     1
102
RTVSPropertyOp7
 70
     1
102
RTVSPropertyOp8
 70
     1
102
RTVSPropertyOp9
 70
     1
102
RTVSPropertyOp10
 70
     1
102
RTVSPropertyOp11
 70
     1
102
RTVSPropertyOp12
 70
     1
102
RTVSPropertyOp13
 70
     1
102
RTVSPropertyOp14
 70
     1
102
RTVSPropertyOp15
 70
     1
102
RTVSPropertyOp16
 70
     1
102
RTVSPropertyOp17
 70
     1
102
RTVSPropertyOp18
 70
     1
102
RTVSPropertyOp19
 70
     1
102
RTVSPropertyOp20
 70
     1
102
RTVSPropertyOp21
 70
     1
102
RTVSPropertyOp22
 70
     1
102
RTVSPropertyOp23
 70
     1
102
RTVSPropertyOp24
 70
     1
102
RTVSPropertyOp25
 70
     1
102
RTVSPropertyOp26
 70
     1
102
RTVSPropertyOp27
 70
     1
102
RTVSPropertyOp28
 70
     1
102
RTVSPropertyOp29
 70
     1
102
RTVSPropertyOp30
 70
     1
102
RTVSPropertyOp31
 70
     1
102
RTVSPropertyOp32
 70
     1
  0
XRECORD
  5
1C5
102
{ACAD_REACTORS
330
1C4
102
}
330
1C4
100
AcDbXrecord
280
     1
102
RTVSPropertyOp0
 70
     1
102
RTVSPropertyOp1
 70
     1
102
RTVSPropertyOp2
 70
     1
102
RTVSPropertyOp3
 70
     1
102
RTVSPropertyOp4
 70
     1
102
RTVSPropertyOp5
 70
     1
102
RTVSPropertyOp6
 70
     1
102
RTVSPropertyOp7
 70
     1
102
RTVSPropertyOp8
 70
     1
102
RTVSPropertyOp9
 70
     1
102
RTVSPropertyOp10
 70
     1
102
RTVSPropertyOp11
 70
     1
102
RTVSPropertyOp12
 70
     1
102
RTVSPropertyOp13
 70
     1
102
RTVSPropertyOp14
 70
     1
102
RTVSPropertyOp15
 70
     1
102
RTVSPropertyOp16
 70
     1
102
RTVSPropertyOp17
 70
     1
102
RTVSPropertyOp18
 70
     1
102
RTVSPropertyOp19
 70
     1
102
RTVSPropertyOp20
 70
     1
102
RTVSPropertyOp21
 70
     1
102
RTVSPropertyOp22
 70
     1
102
RTVSPropertyOp23
 70
     1
102
RTVSPropertyOp24
 70
     1
102
RTVSPropertyOp25
 70
     1
102
RTVSPropertyOp26
 70
     1
102
RTVSPropertyOp27
 70
     1
102
RTVSPropertyOp28
 70
     1
102
RTVSPropertyOp29
 70
     1
102
RTVSPropertyOp30
 70
     1
102
RTVSPropertyOp31
 70
     1
102
RTVSPropertyOp32
 70
     1
  0
XRECORD
  5
1CD
102
{ACAD_REACTORS
330
1CC
102
}
330
1CC
100
AcDbXrecord
280
     1
102
RTVSPropertyOp0
 70
     1
102
RTVSPropertyOp1
 70
     1
102
RTVSPropertyOp2
 70
     1
102
RTVSPropertyOp3
 70
     1
102
RTVSPropertyOp4
 70
     1
102
RTVSPropertyOp5
 70
     1
102
RTVSPropertyOp6
 70
     1
102
RTVSPropertyOp7
 70
     1
102
RTVSPropertyOp8
 70
     1
102
RTVSPropertyOp9
 70
     1
102
RTVSPropertyOp10
 70
     1
102
RTVSPropertyOp11
 70
     1
102
RTVSPropertyOp12
 70
     1
102
RTVSPropertyOp13
 70
     1
102
RTVSPropertyOp14
 70
     1
102
RTVSPropertyOp15
 70
     1
102
RTVSPropertyOp16
 70
     1
102
RTVSPropertyOp17
 70
     1
102
RTVSPropertyOp18
 70
     1
102
RTVSPropertyOp19
 70
     1
102
RTVSPropertyOp20
 70
     1
102
RTVSPropertyOp21
 70
     1
102
RTVSPropertyOp22
 70
     1
102
RTVSPropertyOp23
 70
     1
102
RTVSPropertyOp24
 70
     1
102
RTVSPropertyOp25
 70
     1
102
RTVSPropertyOp26
 70
     1
102
RTVSPropertyOp27
 70
     1
102
RTVSPropertyOp28
 70
     1
102
RTVSPropertyOp29
 70
     1
102
RTVSPropertyOp30
 70
     1
102
RTVSPropertyOp31
 70
     1
102
RTVSPropertyOp32
 70
     1
  0
XRECORD
  5
1D5
102
{ACAD_REACTORS
330
1D4
102
}
330
1D4
100
AcDbXrecord
280
     1
102
RTVSPropertyOp0
 70
     1
102
RTVSPropertyOp1
 70
     1
102
RTVSPropertyOp2
 70
     1
102
RTVSPropertyOp3
 70
     1
102
RTVSPropertyOp4
 70
     1
102
RTVSPropertyOp5
 70
     1
102
RTVSPropertyOp6
 70
     1
102
RTVSPropertyOp7
 70
     1
102
RTVSPropertyOp8
 70
     1
102
RTVSPropertyOp9
 70
     1
102
RTVSPropertyOp10
 70
     1
102
RTVSPropertyOp11
 70
     1
102
RTVSPropertyOp12
 70
     1
102
RTVSPropertyOp13
 70
     1
102
RTVSPropertyOp14
 70
     1
102
RTVSPropertyOp15
 70
     1
102
RTVSPropertyOp16
 70
     1
102
RTVSPropertyOp17
 70
     1
102
RTVSPropertyOp18
 70
     1
102
RTVSPropertyOp19
 70
     1
102
RTVSPropertyOp20
 70
     1
102
RTVSPropertyOp21
 70
     1
102
RTVSPropertyOp22
 70
     1
102
RTVSPropertyOp23
 70
     1
102
RTVSPropertyOp24
 70
     1
102
RTVSPropertyOp25
 70
     1
102
RTVSPropertyOp26
 70
     1
102
RTVSPropertyOp27
 70
     1
102
RTVSPropertyOp28
 70
     1
102
RTVSPropertyOp29
 70
     1
102
RTVSPropertyOp30
 70
     1
102
RTVSPropertyOp31
 70
     1
102
RTVSPropertyOp32
 70
     1
  0
XRECORD
  5
1C9
102
{ACAD_REACTORS
330
1C8
102
}
330
1C8
100
AcDbXrecord
280
     1
102
RTVSPropertyOp0
 70
     1
102
RTVSPropertyOp1
 70
     1
102
RTVSPropertyOp2
 70
     1
102
RTVSPropertyOp3
 70
     1
102
RTVSPropertyOp4
 70
     1
102
RTVSPropertyOp5
 70
     1
102
RTVSPropertyOp6
 70
     1
102
RTVSPropertyOp7
 70
     1
102
RTVSPropertyOp8
 70
     1
102
RTVSPropertyOp9
 70
     1
102
RTVSPropertyOp10
 70
     1
102
RTVSPropertyOp11
 70
     1
102
RTVSPropertyOp12
 70
     1
102
RTVSPropertyOp13
 70
     1
102
RTVSPropertyOp14
 70
     1
102
RTVSPropertyOp15
 70
     1
102
RTVSPropertyOp16
 70
     1
102
RTVSPropertyOp17
 70
     1
102
RTVSPropertyOp18
 70
     1
102
RTVSPropertyOp19
 70
     1
102
RTVSPropertyOp20
 70
     1
102
RTVSPropertyOp21
 70
     1
102
RTVSPropertyOp22
 70
     1
102
RTVSPropertyOp23
 70
     1
102
RTVSPropertyOp24
 70
     1
102
RTVSPropertyOp25
 70
     1
102
RTVSPropertyOp26
 70
     1
102
RTVSPropertyOp27
 70
     1
102
RTVSPropertyOp28
 70
     1
102
RTVSPropertyOp29
 70
     1
102
RTVSPropertyOp30
 70
     1
102
RTVSPropertyOp31
 70
     1
102
RTVSPropertyOp32
 70
     1
  0
XRECORD
  5
1CB
102
{ACAD_REACTORS
330
1CA
102
}
330
1CA
100
AcDbXrecord
280
     1
102
RTVSPropertyOp0
 70
     1
102
RTVSPropertyOp1
 70
     1
102
RTVSPropertyOp2
 70
     1
102
RTVSPropertyOp3
 70
     1
102
RTVSPropertyOp4
 70
     1
102
RTVSPropertyOp5
 70
     1
102
RTVSPropertyOp6
 70
     1
102
RTVSPropertyOp7
 70
     1
102
RTVSPropertyOp8
 70
     1
102
RTVSPropertyOp9
 70
     1
102
RTVSPropertyOp10
 70
     1
102
RTVSPropertyOp11
 70
     1
102
RTVSPropertyOp12
 70
     1
102
RTVSPropertyOp13
 70
     1
102
RTVSPropertyOp14
 70
     1
102
RTVSPropertyOp15
 70
     1
102
RTVSPropertyOp16
 70
     1
102
RTVSPropertyOp17
 70
     1
102
RTVSPropertyOp18
 70
     1
102
RTVSPropertyOp19
 70
     1
102
RTVSPropertyOp20
 70
     1
102
RTVSPropertyOp21
 70
     1
102
RTVSPropertyOp22
 70
     1
102
RTVSPropertyOp23
 70
     1
102
RTVSPropertyOp24
 70
     1
102
RTVSPropertyOp25
 70
     1
102
RTVSPropertyOp26
 70
     1
102
RTVSPropertyOp27
 70
     1
102
RTVSPropertyOp28
 70
     1
102
RTVSPropertyOp29
 70
     1
102
RTVSPropertyOp30
 70
     1
102
RTVSPropertyOp31
 70
     1
102
RTVSPropertyOp32
 70
     1
  0
XRECORD
  5
1D3
102
{ACAD_REACTORS
330
1D2
102
}
330
1D2
100
AcDbXrecord
280
     1
102
RTVSPropertyOp0
 70
     1
102
RTVSPropertyOp1
 70
     1
102
RTVSPropertyOp2
 70
     1
102
RTVSPropertyOp3
 70
     1
102
RTVSPropertyOp4
 70
     1
102
RTVSPropertyOp5
 70
     1
102
RTVSPropertyOp6
 70
     1
102
RTVSPropertyOp7
 70
     1
102
RTVSPropertyOp8
 70
     1
102
RTVSPropertyOp9
 70
     1
102
RTVSPropertyOp10
 70
     1
102
RTVSPropertyOp11
 70
     1
102
RTVSPropertyOp12
 70
     1
102
RTVSPropertyOp13
 70
     1
102
RTVSPropertyOp14
 70
     1
102
RTVSPropertyOp15
 70
     1
102
RTVSPropertyOp16
 70
     1
102
RTVSPropertyOp17
 70
     1
102
RTVSPropertyOp18
 70
     1
102
RTVSPropertyOp19
 70
     1
102
RTVSPropertyOp20
 70
     1
102
RTVSPropertyOp21
 70
     1
102
RTVSPropertyOp22
 70
     1
102
RTVSPropertyOp23
 70
     1
102
RTVSPropertyOp24
 70
     1
102
RTVSPropertyOp25
 70
     1
102
RTVSPropertyOp26
 70
     1
102
RTVSPropertyOp27
 70
     1
102
RTVSPropertyOp28
 70
     1
102
RTVSPropertyOp29
 70
     1
102
RTVSPropertyOp30
 70
     1
102
RTVSPropertyOp31
 70
     1
102
RTVSPropertyOp32
 70
     1
  0
XRECORD
  5
1B7
102
{ACAD_REACTORS
330
1B6
102
}
330
1B6
100
AcDbXrecord
280
     1
102
RTVSPropertyOp0
 70
     1
102
RTVSPropertyOp1
 70
     1
102
RTVSPropertyOp2
 70
     1
102
RTVSPropertyOp3
 70
     1
102
RTVSPropertyOp4
 70
     1
102
RTVSPropertyOp5
 70
     1
102
RTVSPropertyOp6
 70
     1
102
RTVSPropertyOp7
 70
     1
102
RTVSPropertyOp8
 70
     1
102
RTVSPropertyOp9
 70
     1
102
RTVSPropertyOp10
 70
     1
102
RTVSPropertyOp11
 70
     1
102
RTVSPropertyOp12
 70
     1
102
RTVSPropertyOp13
 70
     1
102
RTVSPropertyOp14
 70
     1
102
RTVSPropertyOp15
 70
     1
102
RTVSPropertyOp16
 70
     1
102
RTVSPropertyOp17
 70
     1
102
RTVSPropertyOp18
 70
     1
102
RTVSPropertyOp19
 70
     1
102
RTVSPropertyOp20
 70
     1
102
RTVSPropertyOp21
 70
     1
102
RTVSPropertyOp22
 70
     1
102
RTVSPropertyOp23
 70
     1
102
RTVSPropertyOp24
 70
     1
102
RTVSPropertyOp25
 70
     1
102
RTVSPropertyOp26
 70
     1
102
RTVSPropertyOp27
 70
     1
102
RTVSPropertyOp28
 70
     1
102
RTVSPropertyOp29
 70
     1
102
RTVSPropertyOp30
 70
     1
102
RTVSPropertyOp31
 70
     1
102
RTVSPropertyOp32
 70
     1
  0
XRECORD
  5
1B9
102
{ACAD_REACTORS
330
1B8
102
}
330
1B8
100
AcDbXrecord
280
     1
102
RTVSPropertyOp0
 70
     1
102
RTVSPropertyOp1
 70
     1
102
RTVSPropertyOp2
 70
     1
102
RTVSPropertyOp3
 70
     1
102
RTVSPropertyOp4
 70
     1
102
RTVSPropertyOp5
 70
     1
102
RTVSPropertyOp6
 70
     1
102
RTVSPropertyOp7
 70
     1
102
RTVSPropertyOp8
 70
     1
102
RTVSPropertyOp9
 70
     1
102
RTVSPropertyOp10
 70
     1
102
RTVSPropertyOp11
 70
     1
102
RTVSPropertyOp12
 70
     1
102
RTVSPropertyOp13
 70
     1
102
RTVSPropertyOp14
 70
     1
102
RTVSPropertyOp15
 70
     1
102
RTVSPropertyOp16
 70
     1
102
RTVSPropertyOp17
 70
     1
102
RTVSPropertyOp18
 70
     1
102
RTVSPropertyOp19
 70
     1
102
RTVSPropertyOp20
 70
     1
102
RTVSPropertyOp21
 70
     1
102
RTVSPropertyOp22
 70
     1
102
RTVSPropertyOp23
 70
     1
102
RTVSPropertyOp24
 70
     1
102
RTVSPropertyOp25
 70
     1
102
RTVSPropertyOp26
 70
     1
102
RTVSPropertyOp27
 70
     1
102
RTVSPropertyOp28
 70
     1
102
RTVSPropertyOp29
 70
     1
102
RTVSPropertyOp30
 70
     1
102
RTVSPropertyOp31
 70
     1
102
RTVSPropertyOp32
 70
     1
  0
XRECORD
  5
1BB
102
{ACAD_REACTORS
330
1BA
102
}
330
1BA
100
AcDbXrecord
280
     1
102
RTVSPropertyOp0
 70
     1
102
RTVSPropertyOp1
 70
     1
102
RTVSPropertyOp2
 70
     1
102
RTVSPropertyOp3
 70
     1
102
RTVSPropertyOp4
 70
     1
102
RTVSPropertyOp5
 70
     1
102
RTVSPropertyOp6
 70
     1
102
RTVSPropertyOp7
 70
     1
102
RTVSPropertyOp8
 70
     1
102
RTVSPropertyOp9
 70
     1
102
RTVSPropertyOp10
 70
     1
102
RTVSPropertyOp11
 70
     1
102
RTVSPropertyOp12
 70
     1
102
RTVSPropertyOp13
 70
     1
102
RTVSPropertyOp14
 70
     1
102
RTVSPropertyOp15
 70
     1
102
RTVSPropertyOp16
 70
     1
102
RTVSPropertyOp17
 70
     1
102
RTVSPropertyOp18
 70
     1
102
RTVSPropertyOp19
 70
     1
102
RTVSPropertyOp20
 70
     1
102
RTVSPropertyOp21
 70
     1
102
RTVSPropertyOp22
 70
     1
102
RTVSPropertyOp23
 70
     1
102
RTVSPropertyOp24
 70
     1
102
RTVSPropertyOp25
 70
     1
102
RTVSPropertyOp26
 70
     1
102
RTVSPropertyOp27
 70
     1
102
RTVSPropertyOp28
 70
     1
102
RTVSPropertyOp29
 70
     1
102
RTVSPropertyOp30
 70
     1
102
RTVSPropertyOp31
 70
     1
102
RTVSPropertyOp32
 70
     1
  0
XRECORD
  5
1BD
102
{ACAD_REACTORS
330
1BC
102
}
330
1BC
100
AcDbXrecord
280
     1
102
RTVSPropertyOp0
 70
     1
102
RTVSPropertyOp1
 70
     1
102
RTVSPropertyOp2
 70
     1
102
RTVSPropertyOp3
 70
     1
102
RTVSPropertyOp4
 70
     1
102
RTVSPropertyOp5
 70
     1
102
RTVSPropertyOp6
 70
     1
102
RTVSPropertyOp7
 70
     1
102
RTVSPropertyOp8
 70
     1
102
RTVSPropertyOp9
 70
     1
102
RTVSPropertyOp10
 70
     1
102
RTVSPropertyOp11
 70
     1
102
RTVSPropertyOp12
 70
     1
102
RTVSPropertyOp13
 70
     1
102
RTVSPropertyOp14
 70
     1
102
RTVSPropertyOp15
 70
     1
102
RTVSPropertyOp16
 70
     1
102
RTVSPropertyOp17
 70
     1
102
RTVSPropertyOp18
 70
     1
102
RTVSPropertyOp19
 70
     1
102
RTVSPropertyOp20
 70
     1
102
RTVSPropertyOp21
 70
     1
102
RTVSPropertyOp22
 70
     1
102
RTVSPropertyOp23
 70
     1
102
RTVSPropertyOp24
 70
     1
102
RTVSPropertyOp25
 70
     1
102
RTVSPropertyOp26
 70
     1
102
RTVSPropertyOp27
 70
     1
102
RTVSPropertyOp28
 70
     1
102
RTVSPropertyOp29
 70
     1
102
RTVSPropertyOp30
 70
     1
102
RTVSPropertyOp31
 70
     1
102
RTVSPropertyOp32
 70
     1
  0
XRECORD
  5
1D1
102
{ACAD_REACTORS
330
1D0
102
}
330
1D0
100
AcDbXrecord
280
     1
102
RTVSPropertyOp0
 70
     1
102
RTVSPropertyOp1
 70
     1
102
RTVSPropertyOp2
 70
     1
102
RTVSPropertyOp3
 70
     1
102
RTVSPropertyOp4
 70
     1
102
RTVSPropertyOp5
 70
     1
102
RTVSPropertyOp6
 70
     1
102
RTVSPropertyOp7
 70
     1
102
RTVSPropertyOp8
 70
     1
102
RTVSPropertyOp9
 70
     1
102
RTVSPropertyOp10
 70
     1
102
RTVSPropertyOp11
 70
     1
102
RTVSPropertyOp12
 70
     1
102
RTVSPropertyOp13
 70
     1
102
RTVSPropertyOp14
 70
     1
102
RTVSPropertyOp15
 70
     1
102
RTVSPropertyOp16
 70
     1
102
RTVSPropertyOp17
 70
     1
102
RTVSPropertyOp18
 70
     1
102
RTVSPropertyOp19
 70
     1
102
RTVSPropertyOp20
 70
     1
102
RTVSPropertyOp21
 70
     1
102
RTVSPropertyOp22
 70
     1
102
RTVSPropertyOp23
 70
     1
102
RTVSPropertyOp24
 70
     1
102
RTVSPropertyOp25
 70
     1
102
RTVSPropertyOp26
 70
     1
102
RTVSPropertyOp27
 70
     1
102
RTVSPropertyOp28
 70
     1
102
RTVSPropertyOp29
 70
     1
102
RTVSPropertyOp30
 70
     1
102
RTVSPropertyOp31
 70
     1
102
RTVSPropertyOp32
 70
     1
  0
XRECORD
  5
1C7
102
{ACAD_REACTORS
330
1C6
102
}
330
1C6
100
AcDbXrecord
280
     1
102
RTVSPropertyOp0
 70
     1
102
RTVSPropertyOp1
 70
     1
102
RTVSPropertyOp2
 70
     1
102
RTVSPropertyOp3
 70
     1
102
RTVSPropertyOp4
 70
     1
102
RTVSPropertyOp5
 70
     1
102
RTVSPropertyOp6
 70
     1
102
RTVSPropertyOp7
 70
     1
102
RTVSPropertyOp8
 70
     1
102
RTVSPropertyOp9
 70
     1
102
RTVSPropertyOp10
 70
     1
102
RTVSPropertyOp11
 70
     1
102
RTVSPropertyOp12
 70
     1
102
RTVSPropertyOp13
 70
     1
102
RTVSPropertyOp14
 70
     1
102
RTVSPropertyOp15
 70
     1
102
RTVSPropertyOp16
 70
     1
102
RTVSPropertyOp17
 70
     1
102
RTVSPropertyOp18
 70
     1
102
RTVSPropertyOp19
 70
     1
102
RTVSPropertyOp20
 70
     1
102
RTVSPropertyOp21
 70
     1
102
RTVSPropertyOp22
 70
     1
102
RTVSPropertyOp23
 70
     1
102
RTVSPropertyOp24
 70
     1
102
RTVSPropertyOp25
 70
     1
102
RTVSPropertyOp26
 70
     1
102
RTVSPropertyOp27
 70
     1
102
RTVSPropertyOp28
 70
     1
102
RTVSPropertyOp29
 70
     1
102
RTVSPropertyOp30
 70
     1
102
RTVSPropertyOp31
 70
     1
102
RTVSPropertyOp32
 70
     1
  0
XRECORD
  5
1CF
102
{ACAD_REACTORS
330
1CE
102
}
330
1CE
100
AcDbXrecord
280
     1
102
RTVSPropertyOp0
 70
     1
102
RTVSPropertyOp1
 70
     1
102
RTVSPropertyOp2
 70
     1
102
RTVSPropertyOp3
 70
     1
102
RTVSPropertyOp4
 70
     1
102
RTVSPropertyOp5
 70
     1
102
RTVSPropertyOp6
 70
     1
102
RTVSPropertyOp7
 70
     1
102
RTVSPropertyOp8
 70
     1
102
RTVSPropertyOp9
 70
     1
102
RTVSPropertyOp10
 70
     1
102
RTVSPropertyOp11
 70
     1
102
RTVSPropertyOp12
 70
     1
102
RTVSPropertyOp13
 70
     1
102
RTVSPropertyOp14
 70
     1
102
RTVSPropertyOp15
 70
     1
102
RTVSPropertyOp16
 70
     1
102
RTVSPropertyOp17
 70
     1
102
RTVSPropertyOp18
 70
     1
102
RTVSPropertyOp19
 70
     1
102
RTVSPropertyOp20
 70
     1
102
RTVSPropertyOp21
 70
     1
102
RTVSPropertyOp22
 70
     1
102
RTVSPropertyOp23
 70
     1
102
RTVSPropertyOp24
 70
     1
102
RTVSPropertyOp25
 70
     1
102
RTVSPropertyOp26
 70
     1
102
RTVSPropertyOp27
 70
     1
102
RTVSPropertyOp28
 70
     1
102
RTVSPropertyOp29
 70
     1
102
RTVSPropertyOp30
 70
     1
102
RTVSPropertyOp31
 70
     1
102
RTVSPropertyOp32
 70
     1
  0
ENDSEC
  0
EOF
