  0
SECTION
  2
HEADER
  9
$ACADVER
  1
AC1015
  9
$ACADMAINTVER
 70
     6
  9
$DWGCODEPAGE
  3
ANSI_1252
  9
$INSBASE
 10
0.0
 20
0.0
 30
0.0
  9
$EXTMIN
 10
0.0
 20
0.0
 30
0.0
  9
$EXTMAX
 10
210.0
 20
297.0
 30
0.0
  9
$LIMMIN
 10
0.0
 20
0.0
  9
$LIMMAX
 10
210.0
 20
297.0
  9
$ORTHOMODE
 70
     0
  9
$REGENMODE
 70
     1
  9
$FILLMODE
 70
     1
  9
$QTEXTMODE
 70
     0
  9
$MIRRTEXT
 70
     1
  9
$LTSCALE
 40
1.0
  9
$ATTMODE
 70
     1
  9
$TEXTSIZE
 40
2.5
  9
$TRACEWID
 40
1.0
  9
$TEXTSTYLE
  7
Standard
  9
$CLAYER
  8
0
  9
$CELTYPE
  6
ByLayer
  9
$CECOLOR
 62
   256
  9
$CELTSCALE
 40
1.0
  9
$DISPSILH
 70
     0
  9
$DIMSCALE
 40
1.0
  9
$DIMASZ
 40
2.5
  9
$DIMEXO
 40
0.625
  9
$DIMDLI
 40
3.75
  9
$DIMRND
 40
0.0
  9
$DIMDLE
 40
0.0
  9
$DIMEXE
 40
1.25
  9
$DIMTP
 40
0.0
  9
$DIMTM
 40
0.0
  9
$DIMTXT
 40
2.5
  9
$DIMCEN
 40
2.5
  9
$DIMTSZ
 40
0.0
  9
$DIMTOL
 70
     0
  9
$DIMLIM
 70
     0
  9
$DIMTIH
 70
     0
  9
$DIMTOH
 70
     0
  9
$DIMSE1
 70
     0
  9
$DIMSE2
 70
     0
  9
$DIMTAD
 70
     1
  9
$DIMZIN
 70
     8
  9
$DIMBLK
  1

  9
$DIMASO
 70
     1
  9
$DIMSHO
 70
     1
  9
$DIMPOST
  1

  9
$DIMAPOST
  1

  9
$DIMALT
 70
     0
  9
$DIMALTD
 70
     3
  9
$DIMALTF
 40
0.0393700787
  9
$DIMLFAC
 40
1.0
  9
$DIMTOFL
 70
     1
  9
$DIMTVP
 40
0.0
  9
$DIMTIX
 70
     0
  9
$DIMSOXD
 70
     0
  9
$DIMSAH
 70
     0
  9
$DIMBLK1
  1

  9
$DIMBLK2
  1

  9
$DIMSTYLE
  2
ISO-25
  9
$DIMCLRD
 70
     0
  9
$DIMCLRE
 70
     0
  9
$DIMCLRT
 70
     0
  9
$DIMTFAC
 40
1.0
  9
$DIMGAP
 40
0.625
  9
$DIMJUST
 70
     0
  9
$DIMSD1
 70
     0
  9
$DIMSD2
 70
     0
  9
$DIMTOLJ
 70
     0
  9
$DIMTZIN
 70
     8
  9
$DIMALTZ
 70
     0
  9
$DIMALTTZ
 70
     0
  9
$DIMUPT
 70
     0
  9
$DIMDEC
 70
     2
  9
$DIMTDEC
 70
     2
  9
$DIMALTU
 70
     2
  9
$DIMALTTD
 70
     3
  9
$DIMTXSTY
  7
Standard
  9
$DIMAUNIT
 70
     0
  9
$DIMADEC
 70
     0
  9
$DIMALTRND
 40
0.0
  9
$DIMAZIN
 70
     0
  9
$DIMDSEP
 70
    44
  9
$DIMATFIT
 70
     3
  9
$DIMFRAC
 70
     0
  9
$DIMLDRBLK
  1

  9
$DIMLUNIT
 70
     2
  9
$DIMLWD
 70
    -2
  9
$DIMLWE
 70
    -2
  9
$DIMTMOVE
 70
     0
  9
$LUNITS
 70
     2
  9
$LUPREC
 70
     4
  9
$SKETCHINC
 40
1.0
  9
$FILLETRAD
 40
10.0
  9
$AUNITS
 70
     0
  9
$AUPREC
 70
     0
  9
$MENU
  1
.
  9
$ELEVATION
 40
0.0
  9
$PELEVATION
 40
0.0
  9
$THICKNESS
 40
0.0
  9
$LIMCHECK
 70
     0
  9
$CHAMFERA
 40
10.0
  9
$CHAMFERB
 40
10.0
  9
$CHAMFERC
 40
20.0
  9
$CHAMFERD
 40
0.0
  9
$SKPOLY
 70
     0
  9
$TDCREATE
 40
2457567.609635613
  9
$TDUCREATE
 40
2457567.52630228
  9
$TDUPDATE
 40
2457567.609660706
  9
$TDUUPDATE
 40
2457567.526327373
  9
$TDINDWG
 40
0.0000000116
  9
$TDUSRTIMER
 40
0.0000000116
  9
$USRTIMER
 70
     1
  9
$ANGBASE
 50
0.0
  9
$ANGDIR
 70
     0
  9
$PDMODE
 70
     0
  9
$PDSIZE
 40
0.0
  9
$PLINEWID
 40
0.0
  9
$SPLFRAME
 70
     0
  9
$SPLINETYPE
 70
     6
  9
$SPLINESEGS
 70
     8
  9
$HANDSEED
  5
149
  9
$SURFTAB1
 70
     6
  9
$SURFTAB2
 70
     6
  9
$SURFTYPE
 70
     6
  9
$SURFU
 70
     6
  9
$SURFV
 70
     6
  9
$UCSBASE
  2

  9
$UCSNAME
  2

  9
$UCSORG
 10
0.0
 20
0.0
 30
0.0
  9
$UCSXDIR
 10
1.0
 20
0.0
 30
0.0
  9
$UCSYDIR
 10
0.0
 20
1.0
 30
0.0
  9
$UCSORTHOREF
  2

  9
$UCSORTHOVIEW
 70
     0
  9
$UCSORGTOP
 10
0.0
 20
0.0
 30
0.0
  9
$UCSORGBOTTOM
 10
0.0
 20
0.0
 30
0.0
  9
$UCSORGLEFT
 10
0.0
 20
0.0
 30
0.0
  9
$UCSORGRIGHT
 10
0.0
 20
0.0
 30
0.0
  9
$UCSORGFRONT
 10
0.0
 20
0.0
 30
0.0
  9
$UCSORGBACK
 10
0.0
 20
0.0
 30
0.0
  9
$PUCSBASE
  2

  9
$PUCSNAME
  2

  9
$PUCSORG
 10
0.0
 20
0.0
 30
0.0
  9
$PUCSXDIR
 10
1.0
 20
0.0
 30
0.0
  9
$PUCSYDIR
 10
0.0
 20
1.0
 30
0.0
  9
$PUCSORTHOREF
  2

  9
$PUCSORTHOVIEW
 70
     0
  9
$PUCSORGTOP
 10
0.0
 20
0.0
 30
0.0
  9
$PUCSORGBOTTOM
 10
0.0
 20
0.0
 30
0.0
  9
$PUCSORGLEFT
 10
0.0
 20
0.0
 30
0.0
  9
$PUCSORGRIGHT
 10
0.0
 20
0.0
 30
0.0
  9
$PUCSORGFRONT
 10
0.0
 20
0.0
 30
0.0
  9
$PUCSORGBACK
 10
0.0
 20
0.0
 30
0.0
  9
$USERI1
 70
     0
  9
$USERI2
 70
     0
  9
$USERI3
 70
     0
  9
$USERI4
 70
     0
  9
$USERI5
 70
     0
  9
$USERR1
 40
0.0
  9
$USERR2
 40
0.0
  9
$USERR3
 40
0.0
  9
$USERR4
 40
0.0
  9
$USERR5
 40
0.0
  9
$WORLDVIEW
 70
     1
  9
$SHADEDGE
 70
     3
  9
$SHADEDIF
 70
    70
  9
$TILEMODE
 70
     1
  9
$MAXACTVP
 70
    64
  9
$PINSBASE
 10
0.0
 20
0.0
 30
0.0
  9
$PLIMCHECK
 70
     0
  9
$PEXTMIN
 10
0.0
 20
0.0
 30
0.0
  9
$PEXTMAX
 10
210.0
 20
297.0
 30
0.0
  9
$PLIMMIN
 10
0.0
 20
0.0
  9
$PLIMMAX
 10
210.0
 20
297.0
  9
$UNITMODE
 70
     0
  9
$VISRETAIN
 70
     1
  9
$PLINEGEN
 70
     0
  9
$PSLTSCALE
 70
     1
  9
$TREEDEPTH
 70
  3020
  9
$CMLSTYLE
  2
Standard
  9
$CMLJUST
 70
     0
  9
$CMLSCALE
 40
20.0
  9
$PROXYGRAPHICS
 70
     1
  9
$MEASUREMENT
 70
     1
  9
$CELWEIGHT
370
    -1
  9
$ENDCAPS
280
     0
  9
$JOINSTYLE
280
     0
  9
$LWDISPLAY
290
     0
  9
$INSUNITS
 70
     4
  9
$HYPERLINKBASE
  1

  9
$STYLESHEET
  1

  9
$XEDIT
290
     1
  9
$CEPSNTYPE
380
     0
  9
$PSTYLEMODE
290
     1
  9
$FINGERPRINTGUID
  2
{54222C29-675D-4DC2-8220-00E7AE28FA4F}
  9
$VERSIONGUID
  2
{FAEB1C32-E019-11D5-929B-00C0DF256EC4}
  9
$EXTNAMES
290
     1
  9
$PSVPSCALE
 40
0.0
  9
$OLESTARTUP
290
     0
  0
ENDSEC
  0
SECTION
  2
CLASSES
  0
CLASS
  1
ACDBDICTIONARYWDFLT
  2
AcDbDictionaryWithDefault
  3
ObjectDBX Classes
 90
        0
280
     0
281
     0
  0
CLASS
  1
VISUALSTYLE
  2
AcDbVisualStyle
  3
ObjectDBX Classes
 90
     4095
280
     0
281
     0
  0
CLASS
  1
MATERIAL
  2
AcDbMaterial
  3
ObjectDBX Classes
 90
     1153
280
     0
281
     0
  0
CLASS
  1
DICTIONARYVAR
  2
AcDbDictionaryVar
  3
ObjectDBX Classes
 90
        0
280
     0
281
     0
  0
CLASS
  1
ACDBPLACEHOLDER
  2
AcDbPlaceHolder
  3
ObjectDBX Classes
 90
        0
280
     0
281
     0
  0
CLASS
  1
LAYOUT
  2
AcDbLayout
  3
ObjectDBX Classes
 90
        0
280
     0
281
     0
  0
ENDSEC
  0
SECTION
  2
TABLES
  0
TABLE
  2
VPORT
  5
8
330
0
100
AcDbSymbolTable
 70
     1
  0
VPORT
  5
29
330
8
100
AcDbSymbolTableRecord
100
AcDbViewportTableRecord
  2
*Active
 70
     0
 10
0.0
 20
0.0
 11
1.0
 21
1.0
 12
344.1869158879
 22
148.5
 13
0.0
 23
0.0
 14
10.0
 24
10.0
 15
10.0
 25
10.0
 16
0.0
 26
0.0
 36
1.0
 17
0.0
 27
0.0
 37
0.0
 40
297.0
 41
1.9729729729
 42
50.0
 43
0.0
 44
0.0
 50
0.0
 51
0.0
 71
     0
 72
   100
 73
     1
 74
     3
 75
     0
 76
     0
 77
     0
 78
     0
281
     0
 65
     1
110
0.0
120
0.0
130
0.0
111
1.0
121
0.0
131
0.0
112
0.0
122
1.0
132
0.0
 79
     0
146
0.0
  0
ENDTAB
  0
TABLE
  2
LTYPE
  5
5
330
0
100
AcDbSymbolTable
 70
     2
  0
LTYPE
  5
14
330
5
100
AcDbSymbolTableRecord
100
AcDbLinetypeTableRecord
  2
ByBlock
 70
     0
  3

 72
    65
 73
     0
 40
0.0
  0
LTYPE
  5
15
330
5
100
AcDbSymbolTableRecord
100
AcDbLinetypeTableRecord
  2
ByLayer
 70
     0
  3

 72
    65
 73
     0
 40
0.0
  0
LTYPE
  5
16
330
5
100
AcDbSymbolTableRecord
100
AcDbLinetypeTableRecord
  2
Continuous
 70
     0
  3
Solid line
 72
    65
 73
     0
 40
0.0
  0
LTYPE
  5
47
330
5
100
AcDbSymbolTableRecord
100
AcDbLinetypeTableRecord
  2
HIDDEN2
 70
     0
  3
Hidden (.5x) _ _ _ _ _ _ _ _ _ _ _ _ _ _ _ _ _ 
 72
    65
 73
     2
 40
4.7625
 49
3.175
 74
     4
 75
     0
340
0
 46
0.0
 50
0.0
 44
0.0
 45
0.0
 49
-1.5875
 74
     4
 75
     0
340
0
 46
0.0
 50
0.0
 44
0.0
 45
0.0
  0
ENDTAB
  0
TABLE
  2
LAYER
  5
2
330
0
100
AcDbSymbolTable
 70
     5
  0
LAYER
  5
10
330
2
100
AcDbSymbolTableRecord
100
AcDbLayerTableRecord
  2
0
 70
     0
 62
     7
  6
Continuous
370
    -3
390
F
  0
LAYER
  5
3F
330
2
100
AcDbSymbolTableRecord
100
AcDbLayerTableRecord
  2
SK1
 70
     0
 62
     4
  6
Continuous
370
    18
390
F
  0
LAYER
  5
46
330
2
100
AcDbSymbolTableRecord
100
AcDbLayerTableRecord
  2
SK3
 70
     0
 62
     1
  6
HIDDEN2
370
    15
390
F
  0
LAYER
  5
C5
330
2
100
AcDbSymbolTableRecord
100
AcDbLayerTableRecord
  2
SK4
 70
     0
 62
     2
  6
Continuous
370
    13
390
F
  0
LAYER
  5
C7
330
2
100
AcDbSymbolTableRecord
100
AcDbLayerTableRecord
  2
SK2
 70
     0
 62
     7
  6
Continuous
370
    15
390
F
  0
ENDTAB
  0
TABLE
  2
STYLE
  5
3
330
0
100
AcDbSymbolTable
 70
     2
  0
STYLE
  5
11
330
3
100
AcDbSymbolTableRecord
100
AcDbTextStyleTableRecord
  2
Standard
 70
     0
 40
0.0
 41
1.0
 50
0.0
 71
     0
 42
2.5
  3
txt
  4

  0
STYLE
  5
DA
330
3
100
AcDbSymbolTableRecord
100
AcDbTextStyleTableRecord
  2
SEACAD_Solid_Edge_ISO
 70
     0
 40
0.0
 41
1.0
 50
0.0
 71
     0
 42
0.2
  3
seiso.ttf
  4

1001
ACAD
1000
Solid Edge ISO
1071
        0
  0
ENDTAB
  0
TABLE
  2
VIEW
  5
6
330
0
100
AcDbSymbolTable
 70
     0
  0
ENDTAB
  0
TABLE
  2
UCS
  5
7
330
0
100
AcDbSymbolTable
 70
     0
  0
ENDTAB
  0
TABLE
  2
APPID
  5
9
330
0
100
AcDbSymbolTable
 70
     1
  0
APPID
  5
12
330
9
100
AcDbSymbolTableRecord
100
AcDbRegAppTableRecord
  2
ACAD
 70
     0
  0
ENDTAB
  0
TABLE
  2
DIMSTYLE
  5
A
330
0
100
AcDbSymbolTable
 70
     3
100
AcDbDimStyleTable
  0
DIMSTYLE
105
27
330
A
100
AcDbSymbolTableRecord
100
AcDbDimStyleTableRecord
  2
ISO-25
 70
     0
 41
2.5
 42
0.625
 43
3.75
 44
1.25
 73
     0
 74
     0
 77
     1
 78
     8
140
2.5
141
2.5
143
0.0393700787
147
0.625
171
     3
172
     1
178
     0
271
     2
272
     2
274
     3
278
    44
283
     0
284
     8
340
11
  0
DIMSTYLE
105
C8
330
A
100
AcDbSymbolTableRecord
100
AcDbDimStyleTableRecord
  2
Standard
 70
     0
178
     0
340
11
  0
DIMSTYLE
105
DB
102
{ACAD_REACTORS
330
DC
330
E6
330
106
330
111
102
}
330
A
100
AcDbSymbolTableRecord
100
AcDbDimStyleTableRecord
  2
DIN
 70
     0
 41
3.5
 42
0.0
 44
1.75
 73
     0
 74
     0
 77
     1
 78
     8
140
3.5
141
1.75
144
1.0
147
1.75
172
     1
173
     1
178
     0
179
     3
271
     2
272
     2
278
    44
284
     8
340
DA
343
D5
344
D5
  0
ENDTAB
  0
TABLE
  2
BLOCK_RECORD
  5
1
330
0
100
AcDbSymbolTable
 70
    10
  0
BLOCK_RECORD
  5
1F
330
1
100
AcDbSymbolTableRecord
100
AcDbBlockTableRecord
  2
*Model_Space
340
22
  0
BLOCK_RECORD
  5
1B
330
1
100
AcDbSymbolTableRecord
100
AcDbBlockTableRecord
  2
*Paper_Space
340
1E
  0
BLOCK_RECORD
  5
C9
330
1
100
AcDbSymbolTableRecord
100
AcDbBlockTableRecord
  2
_OBLIQUE
340
0
  0
BLOCK_RECORD
  5
CD
330
1
100
AcDbSymbolTableRecord
100
AcDbBlockTableRecord
  2
_DOT
340
0
  0
BLOCK_RECORD
  5
D5
330
1
100
AcDbSymbolTableRecord
100
AcDbBlockTableRecord
  2
_SE_FILLED
340
0
  0
BLOCK_RECORD
  5
DD
330
1
100
AcDbSymbolTableRecord
100
AcDbBlockTableRecord
  2
DMBLK181
340
0
  0
BLOCK_RECORD
  5
E7
330
1
100
AcDbSymbolTableRecord
100
AcDbBlockTableRecord
  2
DMBLK182
340
0
  0
BLOCK_RECORD
  5
F0
330
1
100
AcDbSymbolTableRecord
100
AcDbBlockTableRecord
  2
Nullpunkt
340
0
102
{BLKREFS
331
FA
102
}
  0
BLOCK_RECORD
  5
FB
330
1
100
AcDbSymbolTableRecord
100
AcDbBlockTableRecord
  2
Einfügepunkt
340
0
102
{BLKREFS
331
105
102
}
  0
BLOCK_RECORD
  5
107
330
1
100
AcDbSymbolTableRecord
100
AcDbBlockTableRecord
  2
DMBLK183
340
0
  0
BLOCK_RECORD
  5
112
330
1
100
AcDbSymbolTableRecord
100
AcDbBlockTableRecord
  2
DMBLK184
340
0
  0
ENDTAB
  0
ENDSEC
  0
SECTION
  2
BLOCKS
  0
BLOCK
  5
20
330
1F
100
AcDbEntity
  8
0
100
AcDbBlockBegin
  2
*Model_Space
 70
     0
 10
0.0
 20
0.0
 30
0.0
  3
*Model_Space
  1

  0
ENDBLK
  5
21
330
1F
100
AcDbEntity
  8
0
100
AcDbBlockEnd
  0
BLOCK
  5
1C
330
1B
100
AcDbEntity
 67
     1
  8
0
100
AcDbBlockBegin
  2
*Paper_Space
 70
     0
 10
0.0
 20
0.0
 30
0.0
  3
*Paper_Space
  1

  0
ENDBLK
  5
1D
330
1B
100
AcDbEntity
 67
     1
  8
0
100
AcDbBlockEnd
  0
BLOCK
  5
CA
330
C9
100
AcDbEntity
  8
0
100
AcDbBlockBegin
  2
_OBLIQUE
 70
     0
 10
0.0
 20
0.0
 30
0.0
  3
_OBLIQUE
  1

  0
LINE
  5
CC
330
C9
100
AcDbEntity
  8
0
  6
ByBlock
 62
     0
370
    -2
100
AcDbLine
 10
-0.5
 20
-0.5
 30
0.0
 11
0.5
 21
0.5
 31
0.0
  0
ENDBLK
  5
CB
330
C9
100
AcDbEntity
  8
0
100
AcDbBlockEnd
  0
BLOCK
  5
CE
330
CD
100
AcDbEntity
  8
0
100
AcDbBlockBegin
  2
_DOT
 70
     0
 10
0.0
 20
0.0
 30
0.0
  3
_DOT
  1

  0
POLYLINE
  5
D0
330
CD
100
AcDbEntity
  8
0
  6
ByBlock
 62
     0
100
AcDb2dPolyline
 66
     1
 10
0.0
 20
0.0
 30
0.0
 70
     1
 40
0.5
 41
0.5
  0
VERTEX
  5
D2
330
D0
100
AcDbEntity
  8
0
  6
ByBlock
 62
     0
100
AcDbVertex
100
AcDb2dVertex
 10
-0.25
 20
0.0
 30
0.0
 42
1.0
  0
VERTEX
  5
D3
330
D0
100
AcDbEntity
  8
0
  6
ByBlock
 62
     0
100
AcDbVertex
100
AcDb2dVertex
 10
0.25
 20
0.0
 30
0.0
 42
1.0
  0
SEQEND
  5
D4
330
D0
100
AcDbEntity
  8
0
  6
ByBlock
 62
     0
  0
LINE
  5
D1
330
CD
100
AcDbEntity
  8
0
  6
ByBlock
 62
     0
370
    -2
100
AcDbLine
 10
-0.5
 20
0.0
 30
0.0
 11
-1.0
 21
0.0
 31
0.0
  0
ENDBLK
  5
CF
330
CD
100
AcDbEntity
  8
0
100
AcDbBlockEnd
  0
BLOCK
  5
D8
330
D5
100
AcDbEntity
  8
0
100
AcDbBlockBegin
  2
_SE_FILLED
 70
     0
 10
0.0
 20
0.0
 30
0.0
  3
_SE_FILLED
  1

  0
SOLID
  5
D6
330
D5
100
AcDbEntity
  8
0
 62
     0
100
AcDbTrace
 10
0.0
 20
0.0
 30
0.0
 11
-1.0
 21
-0.1665
 31
0.0
 12
-1.0
 22
0.1665
 32
0.0
 13
0.0
 23
0.0
 33
0.0
  0
LINE
  5
D7
330
D5
100
AcDbEntity
  8
0
 62
     0
100
AcDbLine
 10
0.0
 20
0.0
 30
0.0
 11
-1.0
 21
0.0
 31
0.0
  0
ENDBLK
  5
D9
330
D5
100
AcDbEntity
  8
0
100
AcDbBlockEnd
  0
BLOCK
  5
E4
330
DD
100
AcDbEntity
  8
0
100
AcDbBlockBegin
  2
DMBLK181
 70
     0
 10
0.0
 20
0.0
 30
0.0
  3
DMBLK181
  1

  0
HATCH
  5
DE
330
DD
100
AcDbEntity
  8
SK2
  6
Continuous
 62
   136
100
AcDbHatch
 10
0.0
 20
0.0
 30
0.0
210
0.0
220
0.0
230
1.0
  2
SOLID
 70
     1
 71
     0
 91
        1
 92
        1
 93
        3
 72
     1
 10
0.9999998919665785
 20
13.38584822006208
 11
0.9999998919665785
 21
12.21918151738427
 72
     1
 10
0.9999998919665785
 20
12.21918151738427
 11
4.499999999999996
 21
12.80251486872318
 72
     1
 10
4.499999999999997
 20
12.80251486872318
 11
0.9999998919665791
 21
13.38584822006208
 97
        0
 75
     0
 76
     1
 98
        0
  0
HATCH
  5
DF
330
DD
100
AcDbEntity
  8
SK2
  6
Continuous
 62
   136
100
AcDbHatch
 10
0.0
 20
0.0
 30
0.0
210
0.0
220
0.0
230
1.0
  2
SOLID
 70
     1
 71
     0
 91
        1
 92
        1
 93
        3
 72
     1
 10
-9.999999117106203
 20
13.38584822006208
 11
-13.49999922513962
 21
12.80251486872318
 72
     1
 10
-13.49999922513962
 20
12.80251486872318
 11
-9.999999117106203
 21
12.21918151738427
 72
     1
 10
-9.999999117106203
 20
12.21918151738427
 11
-9.999999117106203
 21
13.38584822006208
 97
        0
 75
     0
 76
     1
 98
        0
  0
LINE
  5
E0
330
DD
100
AcDbEntity
  8
SK2
  6
Continuous
 62
   136
100
AcDbLine
 10
4.5
 20
4.2622868595
 30
0.0
 11
4.5
 21
14.5525149227
 31
0.0
  0
LINE
  5
E1
330
DD
100
AcDbEntity
  8
SK2
  6
Continuous
 62
   136
100
AcDbLine
 10
-13.5
 20
3.4698469804
 30
0.0
 11
-13.5
 21
14.5525149227
 31
0.0
  0
LINE
  5
E2
330
DD
100
AcDbEntity
  8
SK2
  6
Continuous
 62
   136
100
AcDbLine
 10
4.5
 20
12.8025148687
 30
0.0
 11
-13.4999992251
 21
12.8025148687
 31
0.0
  0
TEXT
  5
E3
330
DD
100
AcDbEntity
  8
SK2
  6
Continuous
 62
   136
100
AcDbText
 10
-6.3295450671
 20
13.6775148687
 30
0.0
 40
3.5
  1
18
  7
SEACAD_Solid_Edge_ISO
 11
-6.3295450671
 21
17.1775148687
 31
0.0
100
AcDbText
 73
     3
  0
ENDBLK
  5
E5
330
DD
100
AcDbEntity
  8
0
100
AcDbBlockEnd
  0
BLOCK
  5
EE
330
E7
100
AcDbEntity
  8
0
100
AcDbBlockBegin
  2
DMBLK182
 70
     0
 10
0.0
 20
0.0
 30
0.0
  3
DMBLK182
  1

  0
HATCH
  5
E8
330
E7
100
AcDbEntity
  8
SK2
  6
Continuous
 62
   136
100
AcDbHatch
 10
0.0
 20
0.0
 30
0.0
210
0.0
220
0.0
230
1.0
  2
SOLID
 70
     1
 71
     0
 91
        1
 92
        1
 93
        3
 72
     1
 10
-3.500000108033418
 20
-17.15871926320792
 11
0.0000000000000009
 21
-16.57538591186902
 72
     1
 10
0.0000000000000009
 20
-16.57538591186902
 11
-3.500000108033418
 21
-15.99205256053012
 72
     1
 10
-3.500000108033418
 20
-15.99205256053012
 11
-3.500000108033418
 21
-17.15871926320792
 97
        0
 75
     0
 76
     1
 98
        0
  0
HATCH
  5
E9
330
E7
100
AcDbEntity
  8
SK2
  6
Continuous
 62
   136
100
AcDbHatch
 10
0.0
 20
0.0
 30
0.0
210
0.0
220
0.0
230
1.0
  2
SOLID
 70
     1
 71
     0
 91
        1
 92
        1
 93
        3
 72
     1
 10
8.000000108033415
 20
-17.15871926320792
 11
8.000000108033415
 21
-15.99205256053012
 72
     1
 10
8.000000108033415
 20
-15.99205256053012
 11
4.499999999999996
 21
-16.57538591186902
 72
     1
 10
4.499999999999997
 20
-16.57538591186902
 11
8.000000108033415
 21
-17.15871926320792
 97
        0
 75
     0
 76
     1
 98
        0
  0
LINE
  5
EA
330
E7
100
AcDbEntity
  8
SK2
  6
Continuous
 62
   136
100
AcDbLine
 10
0.0
 20
-5.5443664105
 30
0.0
 11
0.0
 21
-18.3253859659
 31
0.0
  0
LINE
  5
EB
330
E7
100
AcDbEntity
  8
SK2
  6
Continuous
 62
   136
100
AcDbLine
 10
4.5
 20
-3.7238831667
 30
0.0
 11
4.5
 21
-18.3253859659
 31
0.0
  0
LINE
  5
EC
330
E7
100
AcDbEntity
  8
SK2
  6
Continuous
 62
   136
100
AcDbLine
 10
-7.0000002161
 20
-16.5753859119
 30
0.0
 11
17.0773752034
 21
-16.5753859119
 31
0.0
  0
TEXT
  5
ED
330
E7
100
AcDbEntity
  8
SK2
  6
Continuous
 62
   136
100
AcDbText
 10
11.1591934547
 20
-15.7003859119
 30
0.0
 40
3.5
  1
4,5
  7
SEACAD_Solid_Edge_ISO
 11
11.1591934547
 21
-12.2003859119
 31
0.0
100
AcDbText
 73
     3
  0
ENDBLK
  5
EF
330
E7
100
AcDbEntity
  8
0
100
AcDbBlockEnd
  0
BLOCK
  5
F8
330
F0
100
AcDbEntity
  8
0
100
AcDbBlockBegin
  2
Nullpunkt
 70
     0
 10
0.0
 20
0.0
 30
0.0
  3
Nullpunkt
  1

  0
HATCH
  5
F1
330
F0
100
AcDbEntity
  8
SK2
  6
Continuous
 62
     7
100
AcDbHatch
 10
0.0
 20
0.0
 30
0.0
210
0.0
220
0.0
230
1.0
  2
SOLID
 70
     1
 71
     0
 91
        1
 92
        1
 93
        3
 72
     1
 10
-1.0
 20
0.0
 11
0.0000000000000009
 21
0.0
 72
     1
 10
0.0
 20
0.0
 11
0.0
 21
1.000000000000001
 72
     2
 10
0.0
 20
0.0
 40
1.0
 50
90.0
 51
180.0
 73
     1
 97
        0
 75
     0
 76
     1
 98
        0
  0
HATCH
  5
F2
330
F0
100
AcDbEntity
  8
SK2
  6
Continuous
 62
     7
100
AcDbHatch
 10
0.0
 20
0.0
 30
0.0
210
0.0
220
0.0
230
1.0
  2
SOLID
 70
     1
 71
     0
 91
        1
 92
        1
 93
        3
 72
     2
 10
0.0
 20
0.0
 40
1.0
 50
270.0
 51
360.0
 73
     1
 72
     1
 10
1.0
 20
0.0
 11
-0.0000000000000009
 21
0.0
 72
     1
 10
0.0
 20
0.0
 11
0.0
 21
-1.000000000000001
 97
        0
 75
     0
 76
     1
 98
        0
  0
CIRCLE
  5
F3
330
F0
100
AcDbEntity
  8
SK2
  6
Continuous
 62
     7
100
AcDbCircle
 10
0.0
 20
0.0
 30
0.0
 40
1.0
  0
LINE
  5
F4
330
F0
100
AcDbEntity
  8
SK1
  6
Continuous
100
AcDbLine
 10
-1.0
 20
0.0
 30
0.0
 11
1.0
 21
0.0
 31
0.0
  0
LINE
  5
F5
330
F0
100
AcDbEntity
  8
SK1
  6
Continuous
100
AcDbLine
 10
0.0
 20
1.0
 30
0.0
 11
0.0
 21
-1.0
 31
0.0
  0
POINT
  5
F6
330
F0
100
AcDbEntity
  8
SK1
  6
Continuous
100
AcDbPoint
 10
0.0
 20
0.0
 30
0.0
  0
POINT
  5
F7
330
F0
100
AcDbEntity
  8
SK1
  6
Continuous
100
AcDbPoint
 10
0.0
 20
0.0
 30
0.0
  0
ENDBLK
  5
F9
330
F0
100
AcDbEntity
  8
0
100
AcDbBlockEnd
  0
BLOCK
  5
103
330
FB
100
AcDbEntity
  8
0
100
AcDbBlockBegin
  2
Einfügepunkt
 70
     0
 10
0.0
 20
0.0
 30
0.0
  3
Einfügepunkt
  1

  0
HATCH
  5
FC
330
FB
100
AcDbEntity
  8
SK2
  6
Continuous
 62
     7
100
AcDbHatch
 10
0.0
 20
0.0
 30
0.0
210
0.0
220
0.0
230
1.0
  2
SOLID
 70
     1
 71
     0
 91
        1
 92
        1
 93
        3
 72
     1
 10
-0.4502381196756744
 20
-0.0000000000000018
 11
0.0000000000000033
 21
-0.0000000000000018
 72
     1
 10
0.0
 20
-0.0000000000000018
 11
0.0
 21
0.4502381196756812
 72
     2
 10
0.0
 20
-0.0000000000000018
 40
0.4502381196756812
 50
90.0
 51
180.0
 73
     1
 97
        0
 75
     0
 76
     1
 98
        0
  0
HATCH
  5
FD
330
FB
100
AcDbEntity
  8
SK2
  6
Continuous
 62
     7
100
AcDbHatch
 10
0.0
 20
0.0
 30
0.0
210
0.0
220
0.0
230
1.0
  2
SOLID
 70
     1
 71
     0
 91
        1
 92
        1
 93
        3
 72
     2
 10
0.0
 20
-0.0000000000000018
 40
0.4502381196756812
 50
270.0
 51
360.0
 73
     1
 72
     1
 10
0.4502381196756815
 20
-0.0000000000000018
 11
0.0000000000000038
 21
-0.0000000000000018
 72
     1
 10
0.0
 20
-0.0000000000000018
 11
0.0
 21
-0.4502381196756812
 97
        0
 75
     0
 76
     1
 98
        0
  0
CIRCLE
  5
FE
330
FB
100
AcDbEntity
  8
SK2
  6
Continuous
 62
     7
100
AcDbCircle
 10
0.0
 20
0.0
 30
0.0
 40
0.4502381196756812
  0
LINE
  5
FF
330
FB
100
AcDbEntity
  8
SK1
  6
Continuous
100
AcDbLine
 10
-0.4502381197
 20
0.0
 30
0.0
 11
0.4502381197
 21
0.0
 31
0.0
  0
LINE
  5
100
330
FB
100
AcDbEntity
  8
SK1
  6
Continuous
100
AcDbLine
 10
0.0
 20
0.4502381197
 30
0.0
 11
0.0
 21
-0.4502381197
 31
0.0
  0
POINT
  5
101
330
FB
100
AcDbEntity
  8
SK2
  6
Continuous
 62
     7
100
AcDbPoint
 10
0.0
 20
0.0
 30
0.0
  0
POINT
  5
102
330
FB
100
AcDbEntity
  8
SK2
  6
Continuous
 62
     7
100
AcDbPoint
 10
0.0
 20
0.0
 30
0.0
  0
ENDBLK
  5
104
330
FB
100
AcDbEntity
  8
0
100
AcDbBlockEnd
  0
BLOCK
  5
10F
330
107
100
AcDbEntity
  8
0
100
AcDbBlockBegin
  2
DMBLK183
 70
     0
 10
0.0
 20
0.0
 30
0.0
  3
DMBLK183
  1

  0
HATCH
  5
108
330
107
100
AcDbEntity
  8
SK2
  6
Continuous
 62
   136
100
AcDbHatch
 10
0.0
 20
0.0
 30
0.0
210
0.0
220
0.0
230
1.0
  2
SOLID
 70
     1
 71
     0
 91
        1
 92
        1
 93
        3
 72
     1
 10
-20.22167427154879
 20
-9.044366518514366
 11
-19.05500756887098
 21
-9.044366518514366
 72
     1
 10
-19.05500756887098
 20
-9.044366518514366
 11
-19.63834092020988
 21
-5.544366410480946
 72
     1
 10
-19.63834092020988
 20
-5.544366410480945
 11
-20.22167427154879
 21
-9.044366518514366
 97
        0
 75
     0
 76
     1
 98
        0
  0
HATCH
  5
109
330
107
100
AcDbEntity
  8
SK2
  6
Continuous
 62
   136
100
AcDbHatch
 10
0.0
 20
0.0
 30
0.0
210
0.0
220
0.0
230
1.0
  2
SOLID
 70
     1
 71
     0
 91
        1
 92
        1
 93
        3
 72
     1
 10
-20.22167427154879
 20
9.044366718055763
 11
-19.63834092020988
 21
5.544366610022343
 72
     1
 10
-19.63834092020988
 20
5.544366610022343
 11
-19.05500756887098
 21
9.044366718055763
 72
     1
 10
-19.05500756887098
 20
9.044366718055763
 11
-20.22167427154879
 21
9.044366718055763
 97
        0
 75
     0
 76
     1
 98
        0
  0
LINE
  5
10A
330
107
100
AcDbEntity
  8
SK2
  6
Continuous
 62
   136
100
AcDbLine
 10
0.0
 20
-5.5443664105
 30
0.0
 11
-21.3883409742
 21
-5.5443664105
 31
0.0
  0
LINE
  5
10B
330
107
100
AcDbEntity
  8
SK2
  6
Continuous
 62
   136
100
AcDbLine
 10
0.0
 20
5.54436661
 30
0.0
 11
-21.3883409742
 21
5.54436661
 31
0.0
  0
LINE
  5
10C
330
107
100
AcDbEntity
  8
SK2
  6
Continuous
 62
   136
100
AcDbLine
 10
-19.6383409202
 20
-12.5443666265
 30
0.0
 11
-19.6383409202
 21
12.5443673669
 31
0.0
  0
TEXT
  5
10D
330
107
100
AcDbEntity
  8
SK2
  6
Continuous
 62
   136
100
AcDbText
 10
-20.5133409202
 20
0.6045453591
 30
0.0
 40
3.5
  1
11
 50
90.0
  7
SEACAD_Solid_Edge_ISO
 11
-24.0133409202
 21
0.6045453591
 31
0.0
100
AcDbText
 73
     3
  0
TEXT
  5
10E
330
107
100
AcDbEntity
  8
SK2
  6
Continuous
 62
   136
100
AcDbText
 10
-20.5133409202
 20
-3.4681819137
 30
0.0
 40
3.5
  1
ø
 50
90.0
  7
SEACAD_Solid_Edge_ISO
 11
-24.0133409202
 21
-3.4681819137
 31
0.0
100
AcDbText
 73
     3
  0
ENDBLK
  5
110
330
107
100
AcDbEntity
  8
0
100
AcDbBlockEnd
  0
BLOCK
  5
11A
330
112
100
AcDbEntity
  8
0
100
AcDbBlockBegin
  2
DMBLK184
 70
     0
 10
0.0
 20
0.0
 30
0.0
  3
DMBLK184
  1

  0
HATCH
  5
113
330
112
100
AcDbEntity
  8
SK2
  6
Continuous
 62
   136
100
AcDbHatch
 10
0.0
 20
0.0
 30
0.0
210
0.0
220
0.0
230
1.0
  2
SOLID
 70
     1
 71
     0
 91
        1
 92
        1
 93
        3
 72
     1
 10
13.44035393806795
 20
-5.500000008262717
 11
12.85702058672905
 21
-1.999999900229299
 72
     1
 10
12.85702058672905
 20
-1.999999900229298
 11
12.27368723539015
 21
-5.500000008262716
 72
     1
 10
12.27368723539015
 20
-5.500000008262717
 11
13.44035393806795
 21
-5.500000008262717
 97
        0
 75
     0
 76
     1
 98
        0
  0
HATCH
  5
114
330
112
100
AcDbEntity
  8
SK2
  6
Continuous
 62
   136
100
AcDbHatch
 10
0.0
 20
0.0
 30
0.0
210
0.0
220
0.0
230
1.0
  2
SOLID
 70
     1
 71
     0
 91
        1
 92
        1
 93
        3
 72
     1
 10
13.44035393806795
 20
5.500000207804117
 11
12.27368723539015
 21
5.500000207804117
 72
     1
 10
12.27368723539015
 20
5.500000207804117
 11
12.85702058672905
 21
2.000000099770698
 72
     1
 10
12.85702058672905
 20
2.000000099770698
 11
13.44035393806795
 21
5.500000207804117
 97
        0
 75
     0
 76
     1
 98
        0
  0
LINE
  5
115
330
112
100
AcDbEntity
  8
SK2
  6
Continuous
 62
   136
100
AcDbLine
 10
4.5000000261
 20
-1.9999999002
 30
0.0
 11
14.6070206407
 21
-1.9999999002
 31
0.0
  0
LINE
  5
116
330
112
100
AcDbEntity
  8
SK2
  6
Continuous
 62
   136
100
AcDbLine
 10
4.5
 20
2.0000000998
 30
0.0
 11
14.6070206407
 21
2.0000000998
 31
0.0
  0
LINE
  5
117
330
112
100
AcDbEntity
  8
SK2
  6
Continuous
 62
   136
100
AcDbLine
 10
12.8570205867
 20
-9.0000001163
 30
0.0
 11
12.8570205867
 21
14.9840530559
 31
0.0
  0
TEXT
  5
118
330
112
100
AcDbEntity
  8
SK2
  6
Continuous
 62
   136
100
AcDbText
 10
11.9820205867
 20
11.6908725388
 30
0.0
 40
3.5
  1
4
 50
90.0
  7
SEACAD_Solid_Edge_ISO
 11
8.4820205867
 21
11.6908725388
 31
0.0
100
AcDbText
 73
     3
  0
TEXT
  5
119
330
112
100
AcDbEntity
  8
SK2
  6
Continuous
 62
   136
100
AcDbText
 10
11.9820205867
 20
7.6181452661
 30
0.0
 40
3.5
  1
ø
 50
90.0
  7
SEACAD_Solid_Edge_ISO
 11
8.4820205867
 21
7.6181452661
 31
0.0
100
AcDbText
 73
     3
  0
ENDBLK
  5
11B
330
112
100
AcDbEntity
  8
0
100
AcDbBlockEnd
  0
ENDSEC
  0
SECTION
  2
ENTITIES
  0
LINE
  5
40
330
1F
100
AcDbEntity
  8
SK1
  6
Continuous
100
AcDbLine
 10
0.0
 20
4.0972359518
 30
0.0
 11
0.0
 21
5.54436661
 31
0.0
  0
LINE
  5
41
330
1F
100
AcDbEntity
  8
SK1
  6
Continuous
100
AcDbLine
 10
2.0
 20
4.309572459
 30
0.0
 11
2.0
 21
5.8500000998
 31
0.0
  0
LINE
  5
42
330
1F
100
AcDbEntity
  8
SK1
  6
Continuous
100
AcDbLine
 10
4.375
 20
-4.4787930109
 30
0.0
 11
4.375
 21
-3.338824012
 31
0.0
  0
LINE
  5
43
330
1F
100
AcDbEntity
  8
SK1
  6
Continuous
100
AcDbLine
 10
4.5
 20
2.8319264824
 30
0.0
 11
4.5
 21
-2.8319262829
 31
0.0
  0
LINE
  5
44
330
1F
100
AcDbEntity
  8
SK1
  6
Continuous
100
AcDbLine
 10
1.9
 20
-3.5308785618
 30
0.0
 11
1.9
 21
-4.7499999002
 31
0.0
  0
LINE
  5
45
330
1F
100
AcDbEntity
  8
SK1
  6
Continuous
100
AcDbLine
 10
-13.5
 20
-3.4698467808
 30
0.0
 11
-13.5
 21
-0.2499999002
 31
0.0
  0
LINE
  5
48
330
1F
100
AcDbEntity
  8
SK3
100
AcDbLine
 10
-6.5
 20
1.7579156252
 30
0.0
 11
-6.5
 21
2.2360680773
 31
0.0
  0
LINE
  5
49
330
1F
100
AcDbEntity
  8
SK3
100
AcDbLine
 10
-9.5
 20
1.7579156252
 30
0.0
 11
-9.5
 21
2.2360680773
 31
0.0
  0
LINE
  5
4A
330
1F
100
AcDbEntity
  8
SK3
100
AcDbLine
 10
-13.0
 20
-1.6530793059
 30
0.0
 11
-13.0
 21
-0.5743068553
 31
0.0
  0
LINE
  5
4B
330
1F
100
AcDbEntity
  8
SK3
100
AcDbLine
 10
-13.0
 20
0.5743070549
 30
0.0
 11
-13.0
 21
1.6530795054
 31
0.0
  0
ARC
  5
4C
330
1F
100
AcDbEntity
  8
SK3
100
AcDbCircle
 10
-15.1234546678
 20
0.3144494435
 30
0.0
 40
2.510177318187829
100
AcDbArc
 50
32.2274131717
 51
41.4891270147
  0
ARC
  5
4D
330
1F
100
AcDbEntity
  8
SK3
100
AcDbCircle
 10
-15.1236715092
 20
1.9130996791
 30
0.0
 40
2.510447444136447
100
AcDbArc
 50
318.5113723565
 51
327.7720874571
  0
ARC
  5
4E
330
1F
100
AcDbEntity
  8
SK3
100
AcDbCircle
 10
-15.1234546678
 20
-1.9129369172
 30
0.0
 40
2.51017731818796
100
AcDbArc
 50
32.2274131717
 51
41.4891270147
  0
ARC
  5
4F
330
1F
100
AcDbEntity
  8
SK3
100
AcDbCircle
 10
-15.1236715092
 20
-0.3142866816
 30
0.0
 40
2.510447444136897
100
AcDbArc
 50
318.5113723565
 51
327.7720874571
  0
LINE
  5
50
330
1F
100
AcDbEntity
  8
SK3
100
AcDbLine
 10
-9.7886751346
 20
-1.6530793059
 30
0.0
 11
-9.7886751346
 21
-1.4015214669
 31
0.0
  0
LINE
  5
51
330
1F
100
AcDbEntity
  8
SK3
100
AcDbLine
 10
-9.7886751346
 20
0.5743070549
 30
0.0
 11
-9.7886751346
 21
1.0479682759
 31
0.0
  0
ARC
  5
52
330
1F
100
AcDbEntity
  8
SK3
100
AcDbCircle
 10
-7.0657029361
 20
-1.5603584213
 30
0.0
 40
2.896010235560421
100
AcDbArc
 50
153.0977155597
 51
160.0935002768
  0
LINE
  5
53
330
1F
100
AcDbEntity
  8
SK3
100
AcDbLine
 10
-9.7886751346
 20
-0.5743068553
 30
0.0
 11
-13.0
 21
-0.5743068553
 31
0.0
  0
LINE
  5
54
330
1F
100
AcDbEntity
  8
SK3
100
AcDbLine
 10
-13.0
 20
-1.6530793059
 30
0.0
 11
-9.7886751346
 21
-1.6530793059
 31
0.0
  0
ARC
  5
55
330
1F
100
AcDbEntity
  8
SK3
100
AcDbCircle
 10
-7.0599448556
 20
-0.6645354719
 30
0.0
 40
2.902272876061875
100
AcDbArc
 50
199.914056976
 51
206.8947271875
  0
ARC
  5
56
330
1F
100
AcDbEntity
  8
SK3
100
AcDbCircle
 10
-7.0657029361
 20
0.6670279394
 30
0.0
 40
2.896010235560309
100
AcDbArc
 50
153.0977155597
 51
160.0935002768
  0
LINE
  5
57
330
1F
100
AcDbEntity
  8
SK3
100
AcDbLine
 10
-9.7886751346
 20
1.6530795054
 30
0.0
 11
-13.0
 21
1.6530795054
 31
0.0
  0
LINE
  5
58
330
1F
100
AcDbEntity
  8
SK3
100
AcDbLine
 10
-13.0
 20
0.5743070549
 30
0.0
 11
-9.7886751346
 21
0.5743070549
 31
0.0
  0
ARC
  5
59
330
1F
100
AcDbEntity
  8
SK3
100
AcDbCircle
 10
-7.0599448556
 20
1.5628508889
 30
0.0
 40
2.902272876061362
100
AcDbArc
 50
199.914056976
 51
206.8947271875
  0
LINE
  5
5A
330
1F
100
AcDbEntity
  8
SK3
100
AcDbLine
 10
-9.7886751346
 20
1.4015216665
 30
0.0
 11
-9.7886751346
 21
1.6530795054
 31
0.0
  0
LINE
  5
5B
330
1F
100
AcDbEntity
  8
SK3
100
AcDbLine
 10
-9.5
 20
1.7579156252
 30
0.0
 11
-9.7886751346
 21
1.4015216665
 31
0.0
  0
LINE
  5
5C
330
1F
100
AcDbEntity
  8
SK3
100
AcDbLine
 10
-9.5
 20
1.4043622346
 30
0.0
 11
-9.7886751346
 21
1.0479682759
 31
0.0
  0
LINE
  5
5D
330
1F
100
AcDbEntity
  8
SK1
  6
Continuous
100
AcDbLine
 10
1.9
 20
4.7500000998
 30
0.0
 11
1.9
 21
3.5308787613
 31
0.0
  0
LINE
  5
5E
330
1F
100
AcDbEntity
  8
SK1
  6
Continuous
100
AcDbLine
 10
4.375
 20
3.3388242116
 30
0.0
 11
4.375
 21
4.4787932104
 31
0.0
  0
LINE
  5
5F
330
1F
100
AcDbEntity
  8
SK1
  6
Continuous
100
AcDbLine
 10
-12.0
 20
2.902965471
 30
0.0
 11
-12.0
 21
2.5494120804
 31
0.0
  0
LINE
  5
60
330
1F
100
AcDbEntity
  8
SK1
  6
Continuous
100
AcDbLine
 10
2.0
 20
-5.8499999002
 30
0.0
 11
2.0
 21
-4.3095722595
 31
0.0
  0
SPLINE
  5
61
330
1F
100
AcDbEntity
  8
SK1
  6
Continuous
100
AcDbSpline
210
0.0
220
0.0
230
1.0
 70
     8
 71
     3
 72
    14
 73
    10
 74
     0
 42
0.0000000008292368
 43
0.0000000001
 12
1.0
 22
0.0
 32
0.0
 13
1.0
 23
0.0
 33
0.0
 40
0.0
 40
0.0
 40
0.0
 40
0.0
 40
0.2833509296263196
 40
0.2833509296263196
 40
0.2833509296263196
 40
0.8738959045783138
 40
0.8738959045783138
 40
0.8738959045783138
 40
1.0
 40
1.0
 40
1.0
 40
1.0
 10
0.0000000000000009
 20
3.743682561256594
 30
0.0
 10
-1.133413492048805
 20
3.630932454846542
 30
0.0
 10
-2.266825075975461
 20
3.518172757092899
 30
0.0
 10
-3.400234154105798
 20
3.405400467586654
 30
0.0
 10
-5.762425224505341
 20
3.170366444655057
 30
0.0
 10
-8.124605992657864
 20
2.935280629918092
 30
0.0
 10
-10.48676639900566
 20
2.700092565139109
 30
0.0
 10
-10.99117861867981
 20
2.649870855606921
 30
0.0
 10
-11.49558987546003
 20
2.599644310236033
 30
0.0
 10
-12.0
 20
2.549412080368954
 30
0.0
  0
LINE
  5
62
330
1F
100
AcDbEntity
  8
SK1
  6
Continuous
100
AcDbLine
 10
4.375
 20
2.985270821
 30
0.0
 11
2.0
 21
3.9560190684
 31
0.0
  0
SPLINE
  5
63
330
1F
100
AcDbEntity
  8
SK1
  6
Continuous
100
AcDbSpline
210
0.0
220
0.0
230
1.0
 70
     8
 71
     3
 72
    23
 73
    19
 74
     0
 42
0.0000000737263346
 43
0.0000000001
 12
1.0
 22
0.0
 32
0.0
 13
1.0
 23
0.0
 33
0.0
 40
0.0
 40
0.0
 40
0.0
 40
0.0
 40
0.0746663384731825
 40
0.0746663384731825
 40
0.0746663384731825
 40
0.2900236465124253
 40
0.2900236465124253
 40
0.2900236465124253
 40
0.5053344965694929
 40
0.5053344965694929
 40
0.5053344965694929
 40
0.7204294384317406
 40
0.7204294384317406
 40
0.7204294384317406
 40
0.8538488746106226
 40
0.8538488746106226
 40
0.8538488746106226
 40
1.0
 40
1.0
 40
1.0
 40
1.0
 10
2.0
 20
3.248132162382803
 30
0.0
 10
2.000000000000003
 20
3.245364283593122
 30
0.0
 10
1.999769991428858
 20
3.242591670942996
 30
0.0
 10
1.999312326398393
 20
3.239842775827806
 30
0.0
 10
1.998000305676055
 20
3.231962323718555
 30
0.0
 10
1.994746145835742
 20
3.224133230067316
 30
0.0
 10
1.989818265756837
 20
3.217004399616388
 30
0.0
 10
1.984891514417393
 20
3.209877202036413
 30
0.0
 10
1.978155535682756
 20
3.203253148123931
 30
0.0
 10
1.970167386815053
 20
3.197682858763579
 30
0.0
 10
1.962187226680663
 20
3.192118140100134
 30
0.0
 10
1.952736738568889
 20
3.187451413613845
 30
0.0
 10
1.942599273854081
 20
3.184071550263565
 30
0.0
 10
1.936255814729088
 20
3.181956620583045
 30
0.0
 10
1.929559117060611
 20
3.180307480466996
 30
0.0
 10
1.922729953186104
 20
3.179178797705395
 30
0.0
 10
1.915303257853526
 20
3.177951358570595
 30
0.0
 10
1.907626861557717
 20
3.177325370723739
 30
0.0
 10
1.89999999999993
 20
3.177325370723294
 30
0.0
  0
LINE
  5
64
330
1F
100
AcDbEntity
  8
SK1
  6
Continuous
100
AcDbLine
 10
1.9
 20
3.1773253707
 30
0.0
 11
0.0
 21
3.1773253707
 31
0.0
  0
SPLINE
  5
65
330
1F
100
AcDbEntity
  8
SK1
  6
Continuous
100
AcDbSpline
210
0.0
220
0.0
230
1.0
 70
     8
 71
     3
 72
    10
 73
     6
 74
     0
 42
0.0000000469755383
 43
0.0000000001
 12
1.0
 22
0.0
 32
0.0
 13
1.0
 23
0.0
 33
0.0
 40
0.0
 40
0.0
 40
0.0
 40
0.0
 40
0.5
 40
0.5
 40
1.0
 40
1.0
 40
1.0
 40
1.0
 10
4.375000000000713
 20
3.338824211555224
 30
0.0
 10
4.412717464828716
 20
3.323402076769834
 30
0.0
 10
4.444840771742953
 20
3.300642478692346
 30
0.0
 10
4.488367339603561
 20
3.24715019006966
 30
0.0
 10
4.499999999999999
 20
3.21637777633037
 30
0.0
 10
4.499999999999997
 20
3.185479872986227
 30
0.0
  0
LINE
  5
66
330
1F
100
AcDbEntity
  8
SK3
100
AcDbLine
 10
4.5
 20
1.5798983151
 30
0.0
 11
-6.5
 21
1.5798983151
 31
0.0
  0
LINE
  5
67
330
1F
100
AcDbEntity
  8
SK3
100
AcDbLine
 10
-6.5
 20
1.5798983151
 30
0.0
 11
-6.5
 21
1.7579156252
 31
0.0
  0
LINE
  5
68
330
1F
100
AcDbEntity
  8
SK3
100
AcDbLine
 10
-6.5
 20
1.7579156252
 30
0.0
 11
-9.5
 21
1.7579156252
 31
0.0
  0
LINE
  5
69
330
1F
100
AcDbEntity
  8
SK3
100
AcDbLine
 10
-9.7886751346
 20
1.4015216665
 30
0.0
 11
-12.0
 21
1.4015216665
 31
0.0
  0
SPLINE
  5
6A
330
1F
100
AcDbEntity
  8
SK1
  6
Continuous
100
AcDbSpline
210
0.0
220
0.0
230
1.0
 70
     8
 71
     3
 72
    10
 73
     6
 74
     0
 42
0.0000000469755383
 43
0.0000000001
 12
1.0
 22
0.0
 32
0.0
 13
1.0
 23
0.0
 33
0.0
 40
0.0
 40
0.0
 40
0.0
 40
0.0
 40
0.5
 40
0.5
 40
1.0
 40
1.0
 40
1.0
 40
1.0
 10
4.375000000000713
 20
2.985270820961949
 30
0.0
 10
4.412717464828716
 20
2.96984868617656
 30
0.0
 10
4.444840771742953
 20
2.947089088099072
 30
0.0
 10
4.488367339603561
 20
2.893596799476387
 30
0.0
 10
4.499999999999999
 20
2.862824385737096
 30
0.0
 10
4.499999999999997
 20
2.831926482392953
 30
0.0
  0
LINE
  5
6B
330
1F
100
AcDbEntity
  8
SK3
100
AcDbLine
 10
4.5
 20
1.2263449245
 30
0.0
 11
-6.5
 21
1.2263449245
 31
0.0
  0
LINE
  5
6C
330
1F
100
AcDbEntity
  8
SK3
100
AcDbLine
 10
-6.5
 20
1.4043622346
 30
0.0
 11
-9.5
 21
1.4043622346
 31
0.0
  0
LINE
  5
6D
330
1F
100
AcDbEntity
  8
SK3
100
AcDbLine
 10
-9.7886751346
 20
1.0479682759
 30
0.0
 11
-12.0
 21
1.0479682759
 31
0.0
  0
LINE
  5
6E
330
1F
100
AcDbEntity
  8
SK3
100
AcDbLine
 10
-12.0
 20
2.5494120804
 30
0.0
 11
-12.0
 21
1.0479682759
 31
0.0
  0
LINE
  5
6F
330
1F
100
AcDbEntity
  8
SK1
  6
Continuous
100
AcDbLine
 10
0.0
 20
3.7436825613
 30
0.0
 11
0.0
 21
4.0972359518
 31
0.0
  0
SPLINE
  5
70
330
1F
100
AcDbEntity
  8
SK1
  6
Continuous
100
AcDbSpline
210
0.0
220
0.0
230
1.0
 70
     8
 71
     3
 72
    14
 73
    10
 74
     0
 42
0.0000000008292368
 43
0.0000000001
 12
1.0
 22
0.0
 32
0.0
 13
1.0
 23
0.0
 33
0.0
 40
0.0
 40
0.0
 40
0.0
 40
0.0
 40
0.2833509296263196
 40
0.2833509296263196
 40
0.2833509296263196
 40
0.8738959045783138
 40
0.8738959045783138
 40
0.8738959045783138
 40
1.0
 40
1.0
 40
1.0
 40
1.0
 10
0.0000000000000009
 20
4.097235951849868
 30
0.0
 10
-1.133413492048805
 20
3.984485845439816
 30
0.0
 10
-2.266825075975461
 20
3.871726147686172
 30
0.0
 10
-3.400234154105798
 20
3.758953858179928
 30
0.0
 10
-5.762425224505341
 20
3.523919835248331
 30
0.0
 10
-8.124605992657864
 20
3.288834020511366
 30
0.0
 10
-10.48676639900566
 20
3.053645955732383
 30
0.0
 10
-10.99117861867981
 20
3.003424246200194
 30
0.0
 10
-11.49558987546003
 20
2.953197700829306
 30
0.0
 10
-12.0
 20
2.902965470962227
 30
0.0
  0
LINE
  5
71
330
1F
100
AcDbEntity
  8
SK1
  6
Continuous
100
AcDbLine
 10
4.5
 20
2.8319264824
 30
0.0
 11
4.5
 21
3.185479873
 31
0.0
  0
LINE
  5
72
330
1F
100
AcDbEntity
  8
SK1
  6
Continuous
100
AcDbLine
 10
4.375
 20
3.3388242116
 30
0.0
 11
2.0
 21
4.309572459
 31
0.0
  0
LINE
  5
73
330
1F
100
AcDbEntity
  8
SK1
  6
Continuous
100
AcDbLine
 10
2.0
 20
4.309572459
 30
0.0
 11
2.0
 21
3.9560190684
 31
0.0
  0
SPLINE
  5
74
330
1F
100
AcDbEntity
  8
SK1
  6
Continuous
100
AcDbSpline
210
0.0
220
0.0
230
1.0
 70
     8
 71
     3
 72
    23
 73
    19
 74
     0
 42
0.0000000737263346
 43
0.0000000001
 12
1.0
 22
0.0
 32
0.0
 13
1.0
 23
0.0
 33
0.0
 40
0.0
 40
0.0
 40
0.0
 40
0.0
 40
0.0746663384731825
 40
0.0746663384731825
 40
0.0746663384731825
 40
0.2900236465124253
 40
0.2900236465124253
 40
0.2900236465124253
 40
0.5053344965694929
 40
0.5053344965694929
 40
0.5053344965694929
 40
0.7204294384317406
 40
0.7204294384317406
 40
0.7204294384317406
 40
0.8538488746106226
 40
0.8538488746106226
 40
0.8538488746106226
 40
1.0
 40
1.0
 40
1.0
 40
1.0
 10
2.0
 20
3.601685552976077
 30
0.0
 10
2.000000000000003
 20
3.598917674186395
 30
0.0
 10
1.999769991428858
 20
3.59614506153627
 30
0.0
 10
1.999312326398393
 20
3.593396166421079
 30
0.0
 10
1.998000305676055
 20
3.585515714311828
 30
0.0
 10
1.994746145835742
 20
3.57768662066059
 30
0.0
 10
1.989818265756837
 20
3.570557790209662
 30
0.0
 10
1.984891514417393
 20
3.563430592629687
 30
0.0
 10
1.978155535682756
 20
3.556806538717205
 30
0.0
 10
1.970167386815053
 20
3.551236249356853
 30
0.0
 10
1.962187226680663
 20
3.545671530693407
 30
0.0
 10
1.952736738568889
 20
3.541004804207118
 30
0.0
 10
1.942599273854081
 20
3.537624940856839
 30
0.0
 10
1.936255814729088
 20
3.535510011176319
 30
0.0
 10
1.929559117060611
 20
3.533860871060269
 30
0.0
 10
1.922729953186104
 20
3.532732188298669
 30
0.0
 10
1.915303257853526
 20
3.531504749163869
 30
0.0
 10
1.907626861557717
 20
3.530878761317013
 30
0.0
 10
1.89999999999993
 20
3.530878761316568
 30
0.0
  0
LINE
  5
75
330
1F
100
AcDbEntity
  8
SK1
  6
Continuous
100
AcDbLine
 10
1.9
 20
3.5308787613
 30
0.0
 11
0.0
 21
3.5308787613
 31
0.0
  0
LINE
  5
76
330
1F
100
AcDbEntity
  8
SK3
100
AcDbLine
 10
-9.6483054666
 20
1.9773864605
 30
0.0
 11
-13.2431273967
 21
1.9773864605
 31
0.0
  0
LINE
  5
77
330
1F
100
AcDbEntity
  8
SK3
100
AcDbLine
 10
-9.5
 20
-2.2360678777
 30
0.0
 11
-9.5
 21
-1.7579154256
 31
0.0
  0
LINE
  5
78
330
1F
100
AcDbEntity
  8
SK3
100
AcDbLine
 10
-6.5
 20
-2.2360678777
 30
0.0
 11
-6.5
 21
-1.7579154256
 31
0.0
  0
LINE
  5
79
330
1F
100
AcDbEntity
  8
SK1
  6
Continuous
100
AcDbLine
 10
-13.3278346202
 20
3.6683862332
 30
0.0
 11
-13.3278346202
 21
0.2500000998
 31
0.0
  0
LINE
  5
7A
330
1F
100
AcDbEntity
  8
SK1
  6
Continuous
100
AcDbLine
 10
0.0
 20
-5.5443664105
 30
0.0
 11
0.0
 21
-4.0972357523
 31
0.0
  0
LINE
  5
7B
330
1F
100
AcDbEntity
  8
SK1
  6
Continuous
100
AcDbLine
 10
1.5
 20
4.7500000998
 30
0.0
 11
1.5
 21
4.74341659
 31
0.0
  0
LINE
  5
7C
330
1F
100
AcDbEntity
  8
SK3
100
AcDbLine
 10
1.5
 20
-1.9843133835
 30
0.0
 11
1.5
 21
-4.7434163905
 31
0.0
  0
LINE
  5
7D
330
1F
100
AcDbEntity
  8
SK1
  6
Continuous
100
AcDbLine
 10
1.5
 20
-4.7434163905
 30
0.0
 11
1.5
 21
-4.7499999002
 31
0.0
  0
LINE
  5
7E
330
1F
100
AcDbEntity
  8
SK3
100
AcDbLine
 10
1.5
 20
4.74341659
 30
0.0
 11
1.5
 21
1.9843135831
 31
0.0
  0
LINE
  5
7F
330
1F
100
AcDbEntity
  8
SK3
100
AcDbLine
 10
1.5
 20
-1.9843133835
 30
0.0
 11
-6.5
 21
-1.9843133835
 31
0.0
  0
LINE
  5
80
330
1F
100
AcDbEntity
  8
SK3
100
AcDbLine
 10
-6.5
 20
-2.2360678777
 30
0.0
 11
-9.5
 21
-2.2360678777
 31
0.0
  0
LINE
  5
81
330
1F
100
AcDbEntity
  8
SK3
100
AcDbLine
 10
-9.5
 20
-2.2360678777
 30
0.0
 11
-9.6483054666
 21
-1.977386261
 31
0.0
  0
LINE
  5
82
330
1F
100
AcDbEntity
  8
SK3
100
AcDbLine
 10
-13.2431273967
 20
-1.977386261
 30
0.0
 11
-13.5
 21
-2.2360678777
 31
0.0
  0
ARC
  5
83
330
1F
100
AcDbEntity
  8
SK1
  6
Continuous
100
AcDbCircle
 10
-13.2996804315
 20
-3.4700547088
 30
0.0
 40
0.2003196764059851
100
AcDbArc
 50
179.940528057
 51
261.9205406908
  0
ARC
  5
84
330
1F
100
AcDbEntity
  8
SK1
  6
Continuous
100
AcDbCircle
 10
-13.2996805891
 20
3.470055045
 30
0.0
 40
0.200319519003955
100
AcDbArc
 50
98.0794201873
 51
180.0595110649
  0
LINE
  5
85
330
1F
100
AcDbEntity
  8
SK3
100
AcDbLine
 10
-13.5
 20
2.2360680773
 30
0.0
 11
-13.2431273967
 21
1.9773864605
 31
0.0
  0
LINE
  5
86
330
1F
100
AcDbEntity
  8
SK3
100
AcDbLine
 10
-9.6483054666
 20
1.9773864605
 30
0.0
 11
-9.5
 21
2.2360680773
 31
0.0
  0
LINE
  5
87
330
1F
100
AcDbEntity
  8
SK3
100
AcDbLine
 10
-9.5
 20
2.2360680773
 30
0.0
 11
-6.5
 21
2.2360680773
 31
0.0
  0
LINE
  5
88
330
1F
100
AcDbEntity
  8
SK3
100
AcDbLine
 10
-6.5
 20
1.9843135831
 30
0.0
 11
1.5
 21
1.9843135831
 31
0.0
  0
LINE
  5
89
330
1F
100
AcDbEntity
  8
SK1
  6
Continuous
100
AcDbLine
 10
1.5
 20
-4.7434163905
 30
0.0
 11
0.0
 21
-4.7434163905
 31
0.0
  0
SPLINE
  5
8A
330
1F
100
AcDbEntity
  8
SK1
  6
Continuous
100
AcDbSpline
210
0.0
220
0.0
230
1.0
 70
     8
 71
     3
 72
    11
 73
     7
 74
     0
 42
0.0000000007429854
 43
0.0000000001
 12
1.0
 22
0.0
 32
0.0
 13
1.0
 23
0.0
 33
0.0
 40
0.0
 40
0.0
 40
0.0
 40
0.0
 40
0.7239468999700432
 40
0.7239468999700432
 40
0.7239468999700432
 40
1.0
 40
1.0
 40
1.0
 40
1.0
 10
0.0000000000000009
 20
-5.544366410480945
 30
0.0
 10
-3.21624722572752
 20
-5.091893060772094
 30
0.0
 10
-6.43248058665776
 20
-4.639321100377661
 30
0.0
 10
-9.648680072469274
 20
-4.18650853798294
 30
0.0
 10
-10.87507090234969
 20
-4.013843510012692
 30
0.0
 10
-12.10145659802154
 20
-3.841142006768531
 30
0.0
 10
-13.32783462019202
 20
-3.668386033685227
 30
0.0
  0
LINE
  5
8B
330
1F
100
AcDbEntity
  8
SK3
100
AcDbLine
 10
-13.2431273967
 20
-1.977386261
 30
0.0
 11
-9.6483054666
 21
-1.977386261
 31
0.0
  0
SPLINE
  5
8C
330
1F
100
AcDbEntity
  8
SK1
  6
Continuous
100
AcDbSpline
210
0.0
220
0.0
230
1.0
 70
     8
 71
     3
 72
    11
 73
     7
 74
     0
 42
0.0000000007429854
 43
0.0000000001
 12
1.0
 22
0.0
 32
0.0
 13
1.0
 23
0.0
 33
0.0
 40
0.0
 40
0.0
 40
0.0
 40
0.0
 40
0.4796062697261186
 40
0.4796062697261186
 40
0.4796062697261186
 40
1.0
 40
1.0
 40
1.0
 40
1.0
 10
-13.32783462019202
 20
3.668386233226625
 30
0.0
 10
-11.19716270328049
 20
3.9685272123318
 30
0.0
 10
-9.066468177887348
 20
4.268507703662616
 30
0.0
 10
-6.93576222175799
 20
4.568406942355423
 30
0.0
 10
-4.623853284566418
 20
4.893810702642632
 30
0.0
 10
-2.31193046406531
 20
5.219115829236067
 30
0.0
 10
0.0000000000000009
 20
5.544366610022343
 30
0.0
  0
LINE
  5
8D
330
1F
100
AcDbEntity
  8
SK1
  6
Continuous
100
AcDbLine
 10
0.0
 20
4.74341659
 30
0.0
 11
1.5
 21
4.74341659
 31
0.0
  0
LINE
  5
8E
330
1F
100
AcDbEntity
  8
SK1
  6
Continuous
100
AcDbLine
 10
1.9
 20
-3.1773251712
 30
0.0
 11
1.9
 21
3.1773253707
 31
0.0
  0
LINE
  5
8F
330
1F
100
AcDbEntity
  8
SK1
  6
Continuous
100
AcDbLine
 10
4.5
 20
-3.1854796734
 30
0.0
 11
4.5
 21
-4.26228666
 31
0.0
  0
LINE
  5
90
330
1F
100
AcDbEntity
  8
SK1
  6
Continuous
100
AcDbLine
 10
4.375
 20
-2.9852706214
 30
0.0
 11
4.375
 21
2.985270821
 31
0.0
  0
LINE
  5
91
330
1F
100
AcDbEntity
  8
SK1
  6
Continuous
100
AcDbLine
 10
2.0
 20
-3.9560188689
 30
0.0
 11
2.0
 21
3.9560190684
 31
0.0
  0
LINE
  5
92
330
1F
100
AcDbEntity
  8
SK3
100
AcDbLine
 10
-9.7886751346
 20
-1.0479680763
 30
0.0
 11
-9.7886751346
 21
-0.5743068553
 31
0.0
  0
LINE
  5
93
330
1F
100
AcDbEntity
  8
SK1
  6
Continuous
100
AcDbLine
 10
4.5
 20
4.2622868595
 30
0.0
 11
4.5
 21
3.185479873
 31
0.0
  0
LINE
  5
94
330
1F
100
AcDbEntity
  8
SK3
100
AcDbLine
 10
-9.5
 20
-1.404362035
 30
0.0
 11
-9.5
 21
-0.2499999002
 31
0.0
  0
LINE
  5
95
330
1F
100
AcDbEntity
  8
SK3
100
AcDbLine
 10
-6.5
 20
-1.404362035
 30
0.0
 11
-6.5
 21
-0.2499999002
 31
0.0
  0
LINE
  5
96
330
1F
100
AcDbEntity
  8
SK1
  6
Continuous
100
AcDbLine
 10
0.0
 20
-3.7436823617
 30
0.0
 11
0.0
 21
-0.2499999002
 31
0.0
  0
LINE
  5
97
330
1F
100
AcDbEntity
  8
SK3
100
AcDbLine
 10
-12.0
 20
-2.5494118808
 30
0.0
 11
-12.0
 21
-1.0479680763
 31
0.0
  0
LINE
  5
98
330
1F
100
AcDbEntity
  8
SK1
  6
Continuous
100
AcDbLine
 10
-12.0
 20
-2.5494118808
 30
0.0
 11
-12.0
 21
-2.9029652714
 31
0.0
  0
LINE
  5
99
330
1F
100
AcDbEntity
  8
SK3
100
AcDbLine
 10
-9.5
 20
-1.7579154256
 30
0.0
 11
-9.7886751346
 21
-1.4015214669
 31
0.0
  0
LINE
  5
9A
330
1F
100
AcDbEntity
  8
SK3
100
AcDbLine
 10
-9.7886751346
 20
-1.4015214669
 30
0.0
 11
-12.0
 21
-1.4015214669
 31
0.0
  0
SPLINE
  5
9B
330
1F
100
AcDbEntity
  8
SK1
  6
Continuous
100
AcDbSpline
210
0.0
220
0.0
230
1.0
 70
     8
 71
     3
 72
    10
 73
     6
 74
     0
 42
0.0000000469778791
 43
0.0000000001
 12
1.0
 22
0.0
 32
0.0
 13
1.0
 23
0.0
 33
0.0
 40
0.0
 40
0.0
 40
0.0
 40
0.0
 40
0.5
 40
0.5
 40
1.0
 40
1.0
 40
1.0
 40
1.0
 10
4.374999999999994
 20
-3.338824012013134
 30
0.0
 10
4.412599960885959
 20
-3.323449922918998
 30
0.0
 10
4.444948689246123
 20
-3.300507953007179
 30
0.0
 10
4.488252521610891
 20
-3.247292796807316
 30
0.0
 10
4.499999999999997
 20
-3.216504091037603
 30
0.0
 10
4.499999999999997
 20
-3.185479673444828
 30
0.0
  0
LINE
  5
9C
330
1F
100
AcDbEntity
  8
SK3
100
AcDbLine
 10
4.5
 20
-1.5798981156
 30
0.0
 11
-6.5
 21
-1.5798981156
 31
0.0
  0
LINE
  5
9D
330
1F
100
AcDbEntity
  8
SK3
100
AcDbLine
 10
-6.5
 20
-1.5798981156
 30
0.0
 11
-6.5
 21
-1.7579154256
 31
0.0
  0
LINE
  5
9E
330
1F
100
AcDbEntity
  8
SK3
100
AcDbLine
 10
-6.5
 20
-1.7579154256
 30
0.0
 11
-9.5
 21
-1.7579154256
 31
0.0
  0
SPLINE
  5
9F
330
1F
100
AcDbEntity
  8
SK1
  6
Continuous
100
AcDbSpline
210
0.0
220
0.0
230
1.0
 70
     8
 71
     3
 72
    11
 73
     7
 74
     0
 42
0.0000000038975242
 43
0.0000000001
 12
1.0
 22
0.0
 32
0.0
 13
1.0
 23
0.0
 33
0.0
 40
0.0
 40
0.0
 40
0.0
 40
0.0
 40
0.6858869049544063
 40
0.6858869049544063
 40
0.6858869049544063
 40
1.0
 40
1.0
 40
1.0
 40
1.0
 10
4.374999999999996
 20
-2.98527062141986
 30
0.0
 10
3.83205600277859
 20
-3.207272697744534
 30
0.0
 10
3.289068711508056
 20
-3.429221834619874
 30
0.0
 10
2.746057376371721
 20
-3.651141547373318
 30
0.0
 10
2.497376472520606
 20
-3.75277330195916
 30
0.0
 10
2.248690319702443
 20
-3.854398634910481
 30
0.0
 10
1.999999999999999
 20
-3.956018868887028
 30
0.0
  0
SPLINE
  5
A0
330
1F
100
AcDbEntity
  8
SK1
  6
Continuous
100
AcDbSpline
210
0.0
220
0.0
230
1.0
 70
     8
 71
     3
 72
    23
 73
    19
 74
     0
 42
0.0000000737587663
 43
0.0000000001
 12
1.0
 22
0.0
 32
0.0
 13
1.0
 23
0.0
 33
0.0
 40
0.0
 40
0.0
 40
0.0
 40
0.0
 40
0.1036609427070006
 40
0.1036609427070006
 40
0.1036609427070006
 40
0.2376184552616638
 40
0.2376184552616638
 40
0.2376184552616638
 40
0.4526847010613584
 40
0.4526847010613584
 40
0.4526847010613584
 40
0.6677649708083657
 40
0.6677649708083657
 40
0.6677649708083657
 40
0.8826374165597256
 40
0.8826374165597256
 40
0.8826374165597256
 40
1.0
 40
1.0
 40
1.0
 40
1.0
 10
2.0
 20
-3.248131962841404
 30
0.0
 10
2.0
 20
-3.244297835388446
 30
0.0
 10
1.999557264293008
 20
-3.240451154324055
 30
0.0
 10
1.998680455945381
 20
-3.236667487202559
 30
0.0
 10
1.99754184801857
 20
-3.231754083505378
 30
0.0
 10
1.995656826526468
 20
-3.226899381885894
 30
0.0
 10
1.993087369757705
 20
-3.222263791755857
 30
0.0
 10
1.988997867395206
 20
-3.214885867745295
 30
0.0
 10
1.983052187894083
 20
-3.207904934615796
 30
0.0
 10
1.975740525492297
 20
-3.201899472605826
 30
0.0
 10
1.968428583366252
 20
-3.195893780843261
 30
0.0
 10
1.95954849423327
 20
-3.190698010067966
 30
0.0
 10
1.949835490674906
 20
-3.186744611111136
 30
0.0
 10
1.94013182627624
 20
-3.182795013390864
 30
0.0
 10
1.92932873302458
 20
-3.179976413370472
 30
0.0
 10
1.918322370514195
 20
-3.178523875702135
 30
0.0
 10
1.912292942580573
 20
-3.177728156754677
 30
0.0
 10
1.906133542080231
 20
-3.177325171182193
 30
0.0
 10
1.899999999996784
 20
-3.177325171167733
 30
0.0
  0
LINE
  5
A1
330
1F
100
AcDbEntity
  8
SK1
  6
Continuous
100
AcDbLine
 10
1.9
 20
-3.1773251712
 30
0.0
 11
0.0
 21
-3.1773251712
 31
0.0
  0
SPLINE
  5
A2
330
1F
100
AcDbEntity
  8
SK1
  6
Continuous
100
AcDbSpline
210
0.0
220
0.0
230
1.0
 70
     8
 71
     3
 72
    14
 73
    10
 74
     0
 42
0.0000000008292368
 43
0.0000000001
 12
1.0
 22
0.0
 32
0.0
 13
1.0
 23
0.0
 33
0.0
 40
0.0
 40
0.0
 40
0.0
 40
0.0
 40
0.2801193815738574
 40
0.2801193815738574
 40
0.2801193815738574
 40
0.8712988894928395
 40
0.8712988894928395
 40
0.8712988894928395
 40
1.0
 40
1.0
 40
1.0
 40
1.0
 10
0.0000000000000009
 20
-3.743682361715194
 30
0.0
 10
-1.120487188400715
 20
-3.632218142690493
 30
0.0
 10
-2.240972511536076
 20
-3.520744547757511
 30
0.0
 10
-3.361455393192488
 20
-3.40925868423514
 30
0.0
 10
-5.726184727380691
 20
-3.173972723035161
 30
0.0
 10
-8.090903770466578
 20
-2.938635025966621
 30
0.0
 10
-10.45560247391665
 20
-2.703195189758619
 30
0.0
 10
-10.97040270874816
 20
-2.651939407027511
 30
0.0
 10
-11.48520194398832
 20
-2.60067860412794
 30
0.0
 10
-12.0
 20
-2.549411880827554
 30
0.0
  0
LINE
  5
A3
330
1F
100
AcDbEntity
  8
SK1
  6
Continuous
100
AcDbLine
 10
4.5
 20
-2.8319262829
 30
0.0
 11
4.5
 21
-3.1854796734
 31
0.0
  0
SPLINE
  5
A4
330
1F
100
AcDbEntity
  8
SK1
  6
Continuous
100
AcDbSpline
210
0.0
220
0.0
230
1.0
 70
     8
 71
     3
 72
    11
 73
     7
 74
     0
 42
0.0000000038975242
 43
0.0000000001
 12
1.0
 22
0.0
 32
0.0
 13
1.0
 23
0.0
 33
0.0
 40
0.0
 40
0.0
 40
0.0
 40
0.0
 40
0.6858869049544062
 40
0.6858869049544062
 40
0.6858869049544062
 40
1.0
 40
1.0
 40
1.0
 40
1.0
 10
4.374999999999994
 20
-3.338824012013134
 30
0.0
 10
3.83205600277859
 20
-3.560826088337809
 30
0.0
 10
3.289068711508057
 20
-3.782775225213148
 30
0.0
 10
2.746057376371721
 20
-4.004694937966592
 30
0.0
 10
2.497376472520607
 20
-4.106326692552433
 30
0.0
 10
2.248690319702444
 20
-4.207952025503754
 30
0.0
 10
1.999999999999999
 20
-4.309572259480302
 30
0.0
  0
LINE
  5
A5
330
1F
100
AcDbEntity
  8
SK1
  6
Continuous
100
AcDbLine
 10
2.0
 20
-4.3095722595
 30
0.0
 11
2.0
 21
-3.9560188689
 31
0.0
  0
SPLINE
  5
A6
330
1F
100
AcDbEntity
  8
SK1
  6
Continuous
100
AcDbSpline
210
0.0
220
0.0
230
1.0
 70
     8
 71
     3
 72
    23
 73
    19
 74
     0
 42
0.0000000737587663
 43
0.0000000001
 12
1.0
 22
0.0
 32
0.0
 13
1.0
 23
0.0
 33
0.0
 40
0.0
 40
0.0
 40
0.0
 40
0.0
 40
0.103660942670148
 40
0.103660942670148
 40
0.103660942670148
 40
0.2376184552303298
 40
0.2376184552303298
 40
0.2376184552303298
 40
0.4526847010388529
 40
0.4526847010388529
 40
0.4526847010388529
 40
0.6677649707947012
 40
0.6677649707947012
 40
0.6677649707947012
 40
0.8826374165548858
 40
0.8826374165548858
 40
0.8826374165548858
 40
1.0
 40
1.0
 40
1.0
 40
1.0
 10
2.000000000037331
 20
-3.601685353430297
 30
0.0
 10
1.999999999999652
 20
-3.597851225978687
 30
0.0
 10
1.999557264292662
 20
-3.59400454491584
 30
0.0
 10
1.998680455945381
 20
-3.590220877795834
 30
0.0
 10
1.99754184801857
 20
-3.585307474098653
 30
0.0
 10
1.995656826526468
 20
-3.580452772479168
 30
0.0
 10
1.993087369757704
 20
-3.57581718234913
 30
0.0
 10
1.988997867395206
 20
-3.56843925833857
 30
0.0
 10
1.983052187894083
 20
-3.561458325209071
 30
0.0
 10
1.975740525492297
 20
-3.555452863199101
 30
0.0
 10
1.968428583366252
 20
-3.549447171436536
 30
0.0
 10
1.959548494233272
 20
-3.544251400661241
 30
0.0
 10
1.949835490674907
 20
-3.540298001704411
 30
0.0
 10
1.940131826276242
 20
-3.536348403984138
 30
0.0
 10
1.929328733024582
 20
-3.533529803963746
 30
0.0
 10
1.918322370514197
 20
-3.532077266295409
 30
0.0
 10
1.912292942580575
 20
-3.531281547347951
 30
0.0
 10
1.906133542080231
 20
-3.530878561775467
 30
0.0
 10
1.899999999996784
 20
-3.530878561761007
 30
0.0
  0
LINE
  5
A7
330
1F
100
AcDbEntity
  8
SK1
  6
Continuous
100
AcDbLine
 10
1.9
 20
-3.5308785618
 30
0.0
 11
0.0
 21
-3.5308785618
 31
0.0
  0
LINE
  5
A8
330
1F
100
AcDbEntity
  8
SK1
  6
Continuous
100
AcDbLine
 10
0.0
 20
-3.7436823617
 30
0.0
 11
0.0
 21
-4.0972357523
 31
0.0
  0
SPLINE
  5
A9
330
1F
100
AcDbEntity
  8
SK1
  6
Continuous
100
AcDbSpline
210
0.0
220
0.0
230
1.0
 70
     8
 71
     3
 72
    14
 73
    10
 74
     0
 42
0.0000000008292368
 43
0.0000000001
 12
1.0
 22
0.0
 32
0.0
 13
1.0
 23
0.0
 33
0.0
 40
0.0
 40
0.0
 40
0.0
 40
0.0
 40
0.2801193815738574
 40
0.2801193815738574
 40
0.2801193815738574
 40
0.8712988894928395
 40
0.8712988894928395
 40
0.8712988894928395
 40
1.0
 40
1.0
 40
1.0
 40
1.0
 10
0.0000000000000009
 20
-4.097235752308468
 30
0.0
 10
-1.120487188400715
 20
-3.985771533283767
 30
0.0
 10
-2.240972511536076
 20
-3.874297938350785
 30
0.0
 10
-3.361455393192488
 20
-3.762812074828414
 30
0.0
 10
-5.726184727380691
 20
-3.527526113628434
 30
0.0
 10
-8.090903770466578
 20
-3.292188416559895
 30
0.0
 10
-10.45560247391665
 20
-3.056748580351893
 30
0.0
 10
-10.97040270874816
 20
-3.005492797620785
 30
0.0
 10
-11.48520194398832
 20
-2.954231994721214
 30
0.0
 10
-12.0
 20
-2.902965271420828
 30
0.0
  0
LINE
  5
AA
330
1F
100
AcDbEntity
  8
SK3
100
AcDbLine
 10
-9.5
 20
-1.404362035
 30
0.0
 11
-9.7886751346
 21
-1.0479680763
 31
0.0
  0
LINE
  5
AB
330
1F
100
AcDbEntity
  8
SK3
100
AcDbLine
 10
-9.7886751346
 20
-1.0479680763
 30
0.0
 11
-12.0
 21
-1.0479680763
 31
0.0
  0
SPLINE
  5
AC
330
1F
100
AcDbEntity
  8
SK1
  6
Continuous
100
AcDbSpline
210
0.0
220
0.0
230
1.0
 70
     8
 71
     3
 72
    10
 73
     6
 74
     0
 42
0.0000000469778791
 43
0.0000000001
 12
1.0
 22
0.0
 32
0.0
 13
1.0
 23
0.0
 33
0.0
 40
0.0
 40
0.0
 40
0.0
 40
0.0
 40
0.5
 40
0.5
 40
1.0
 40
1.0
 40
1.0
 40
1.0
 10
4.374999999999996
 20
-2.98527062141986
 30
0.0
 10
4.412599960885959
 20
-2.969896532325723
 30
0.0
 10
4.444948689246121
 20
-2.946954562413904
 30
0.0
 10
4.488252521610891
 20
-2.893739406214042
 30
0.0
 10
4.499999999999997
 20
-2.862950700444329
 30
0.0
 10
4.499999999999997
 20
-2.831926282851554
 30
0.0
  0
LINE
  5
AD
330
1F
100
AcDbEntity
  8
SK3
100
AcDbLine
 10
4.5
 20
-1.226344725
 30
0.0
 11
-6.5
 21
-1.226344725
 31
0.0
  0
LINE
  5
AE
330
1F
100
AcDbEntity
  8
SK3
100
AcDbLine
 10
-6.5
 20
-1.404362035
 30
0.0
 11
-9.5
 21
-1.404362035
 31
0.0
  0
LINE
  5
AF
330
1F
100
AcDbEntity
  8
SK1
  6
Continuous
100
AcDbLine
 10
-13.3278346202
 20
-0.2499999002
 30
0.0
 11
-13.3278346202
 21
-3.6683860337
 31
0.0
  0
LINE
  5
B0
330
1F
100
AcDbEntity
  8
SK1
  6
Continuous
100
AcDbLine
 10
-13.5
 20
0.2500000998
 30
0.0
 11
-13.5
 21
3.4698469804
 31
0.0
  0
LINE
  5
B1
330
1F
100
AcDbEntity
  8
SK1
  6
Continuous
100
AcDbLine
 10
0.0
 20
0.2500000998
 30
0.0
 11
0.0
 21
3.7436825613
 31
0.0
  0
LINE
  5
B2
330
1F
100
AcDbEntity
  8
SK3
100
AcDbLine
 10
-9.5
 20
0.2500000998
 30
0.0
 11
-9.5
 21
1.4043622346
 31
0.0
  0
LINE
  5
B3
330
1F
100
AcDbEntity
  8
SK3
100
AcDbLine
 10
-6.5
 20
0.2500000998
 30
0.0
 11
-6.5
 21
1.4043622346
 31
0.0
  0
LINE
  5
B4
330
1F
100
AcDbEntity
  8
SK1
  6
Continuous
100
AcDbLine
 10
1.5
 20
0.2500000998
 30
0.0
 11
1.5
 21
-0.2499999002
 31
0.0
  0
LINE
  5
B5
330
1F
100
AcDbEntity
  8
SK1
  6
Continuous
100
AcDbLine
 10
-13.3278346202
 20
-0.2499999002
 30
0.0
 11
-13.5
 21
-0.2499999002
 31
0.0
  0
LINE
  5
B6
330
1F
100
AcDbEntity
  8
SK1
  6
Continuous
100
AcDbLine
 10
0.0
 20
0.2500000998
 30
0.0
 11
1.5
 21
0.2500000998
 31
0.0
  0
LINE
  5
B7
330
1F
100
AcDbEntity
  8
SK1
  6
Continuous
100
AcDbLine
 10
-13.3278346202
 20
0.2500000998
 30
0.0
 11
0.0
 21
0.2500000998
 31
0.0
  0
LINE
  5
B8
330
1F
100
AcDbEntity
  8
SK1
  6
Continuous
100
AcDbLine
 10
-13.3278346202
 20
-0.2499999002
 30
0.0
 11
0.0
 21
-0.2499999002
 31
0.0
  0
LINE
  5
B9
330
1F
100
AcDbEntity
  8
SK1
  6
Continuous
100
AcDbLine
 10
0.0
 20
-0.2499999002
 30
0.0
 11
1.5
 21
-0.2499999002
 31
0.0
  0
LINE
  5
BA
330
1F
100
AcDbEntity
  8
SK1
  6
Continuous
100
AcDbLine
 10
-13.3278346202
 20
0.2500000998
 30
0.0
 11
-13.5
 21
0.2500000998
 31
0.0
  0
LINE
  5
BB
330
1F
100
AcDbEntity
  8
SK1
  6
Continuous
100
AcDbLine
 10
1.5
 20
-4.7499999002
 30
0.0
 11
1.9
 21
-4.7499999002
 31
0.0
  0
LINE
  5
BC
330
1F
100
AcDbEntity
  8
SK1
  6
Continuous
100
AcDbLine
 10
2.0
 20
-5.8499999002
 30
0.0
 11
4.375
 21
-4.4787930109
 31
0.0
  0
ARC
  5
BD
330
1F
100
AcDbEntity
  8
SK1
  6
Continuous
100
AcDbCircle
 10
4.25
 20
-4.26228666
 30
0.0
 40
0.25
100
AcDbArc
 50
300.0
 51
0.0
  0
ARC
  5
BE
330
1F
100
AcDbEntity
  8
SK1
  6
Continuous
100
AcDbCircle
 10
1.9
 20
-4.8499999002
 30
0.0
 40
0.1000000000000001
100
AcDbArc
 50
0.0
 51
90.0
  0
LINE
  5
BF
330
1F
100
AcDbEntity
  8
SK3
100
AcDbLine
 10
1.5
 20
-1.9999999002
 30
0.0
 11
4.5
 21
-1.9999999002
 31
0.0
  0
ARC
  5
C0
330
1F
100
AcDbEntity
  8
SK1
  6
Continuous
100
AcDbCircle
 10
1.9
 20
4.8500000998
 30
0.0
 40
0.1000000000000003
100
AcDbArc
 50
270.0
 51
0.0
  0
ARC
  5
C1
330
1F
100
AcDbEntity
  8
SK1
  6
Continuous
100
AcDbCircle
 10
4.25
 20
4.2622868595
 30
0.0
 40
0.2500000000000001
100
AcDbArc
 50
0.0
 51
60.0
  0
LINE
  5
C2
330
1F
100
AcDbEntity
  8
SK1
  6
Continuous
100
AcDbLine
 10
4.375
 20
4.4787932104
 30
0.0
 11
2.0
 21
5.8500000998
 31
0.0
  0
LINE
  5
C3
330
1F
100
AcDbEntity
  8
SK3
100
AcDbLine
 10
4.5
 20
2.0000000998
 30
0.0
 11
1.5
 21
2.0000000998
 31
0.0
  0
LINE
  5
C4
330
1F
100
AcDbEntity
  8
SK1
  6
Continuous
100
AcDbLine
 10
1.9
 20
4.7500000998
 30
0.0
 11
1.5
 21
4.7500000998
 31
0.0
  0
LINE
  5
C6
330
1F
100
AcDbEntity
  8
SK4
  6
Continuous
100
AcDbLine
 10
4.5
 20
0.0000000998
 30
0.0
 11
-13.5
 21
0.0000000998
 31
0.0
  0
DIMENSION
  5
DC
330
1F
100
AcDbEntity
  8
SK2
  6
Continuous
 62
   136
100
AcDbDimension
  2
DMBLK181
 10
-13.5
 20
12.8025148687
 30
0.0
 11
-4.4999996126
 21
12.8025148687
 31
0.0
 70
   160
  1
\A1;<>
 71
     5
 42
-1.0
  3
DIN
100
AcDbAlignedDimension
 13
4.5
 23
4.2622868595
 33
0.0
 14
-13.5
 24
3.4698469804
 34
0.0
100
AcDbRotatedDimension
  0
DIMENSION
  5
E6
330
1F
100
AcDbEntity
  8
SK2
  6
Continuous
 62
   136
100
AcDbDimension
  2
DMBLK182
 10
4.5
 20
-16.5753859119
 30
0.0
 11
9.9341934547
 21
-16.5753859119
 31
0.0
 70
   160
  1
\A1;<>
 71
     5
 42
-1.0
  3
DIN
100
AcDbAlignedDimension
 13
0.0
 23
-5.5443664105
 33
0.0
 14
4.5
 24
-3.7238831667
 34
0.0
100
AcDbRotatedDimension
  0
INSERT
  5
FA
330
1F
100
AcDbEntity
  8
SK2
 62
     7
100
AcDbBlockReference
  2
Nullpunkt
 10
0.0
 20
0.0000000998
 30
0.0
  0
INSERT
  5
105
330
1F
100
AcDbEntity
  8
SK2
 62
     7
100
AcDbBlockReference
  2
Einfügepunkt
 10
4.5
 20
0.0
 30
0.0
  0
DIMENSION
  5
106
330
1F
100
AcDbEntity
  8
SK2
  6
Continuous
 62
   136
100
AcDbDimension
  2
DMBLK183
 10
-19.6383409202
 20
-5.5443664105
 30
0.0
 11
-19.6383409202
 21
-0.0000000955
 31
0.0
 70
   161
  1
\A1;ø <>
 71
     5
 42
-1.0
  3
DIN
100
AcDbAlignedDimension
 13
0.0
 23
-5.5443664105
 33
0.0
 14
0.0
 24
5.54436661
 34
0.0
1001
ACAD
1000
DSTYLE
1002
{
1070
   271
1070
     0
1070
   272
1070
     0
1070
     0
1002
}
  0
DIMENSION
  5
111
330
1F
100
AcDbEntity
  8
SK2
  6
Continuous
 62
   136
100
AcDbDimension
  2
DMBLK184
 10
12.8570205867
 20
2.0000000998
 30
0.0
 11
12.8570205867
 21
6.3931452661
 31
0.0
 70
   160
  1
\A1;ø <>
 71
     5
 42
-1.0
  3
DIN
100
AcDbAlignedDimension
 13
1.5
 23
-1.9999999002
 33
0.0
 14
4.5
 24
2.0000000998
 34
0.0
 50
90.0
100
AcDbRotatedDimension
  0
ENDSEC
  0
SECTION
  2
OBJECTS
  0
DICTIONARY
  5
C
330
0
100
AcDbDictionary
281
     1
  3
ACAD_GROUP
350
D
  3
ACAD_LAYOUT
350
1A
  3
ACAD_MATERIAL
350
3B
  3
ACAD_MLEADERSTYLE
350
11E
  3
ACAD_MLINESTYLE
350
17
  3
ACAD_PLOTSETTINGS
350
19
  3
ACAD_PLOTSTYLENAME
350
E
  3
ACAD_VISUALSTYLE
350
2A
  3
AcDbVariableDictionary
350
11C
  0
DICTIONARY
  5
D
102
{ACAD_REACTORS
330
C
102
}
330
C
100
AcDbDictionary
281
     1
  0
DICTIONARY
  5
1A
102
{ACAD_REACTORS
330
C
102
}
330
C
100
AcDbDictionary
281
     1
  3
Layout1
350
1E
  3
Model
350
22
  0
DICTIONARY
  5
3B
102
{ACAD_REACTORS
330
C
102
}
330
C
100
AcDbDictionary
281
     1
  3
ByBlock
350
3D
  3
ByLayer
350
3C
  3
Global
350
3E
  0
DICTIONARY
  5
11E
102
{ACAD_REACTORS
330
C
102
}
330
C
100
AcDbDictionary
281
     1
  0
DICTIONARY
  5
17
102
{ACAD_REACTORS
330
C
102
}
330
C
100
AcDbDictionary
281
     1
  3
Standard
350
18
  0
DICTIONARY
  5
19
102
{ACAD_REACTORS
330
C
102
}
330
C
100
AcDbDictionary
281
     1
  0
ACDBDICTIONARYWDFLT
  5
E
102
{ACAD_REACTORS
330
C
102
}
330
C
100
AcDbDictionary
281
     1
  3
Normal
350
F
100
AcDbDictionaryWithDefault
340
F
  0
DICTIONARY
  5
2A
102
{ACAD_REACTORS
330
C
102
}
330
C
100
AcDbDictionary
281
     1
  3
2dWireframe
350
2F
  3
3D Hidden
350
31
  3
3dWireframe
350
30
  3
Basic
350
32
  3
Brighten
350
36
  3
ColorChange
350
3A
  3
Conceptual
350
34
  3
Dim
350
35
  3
Facepattern
350
39
  3
Flat
350
2B
  3
FlatWithEdges
350
2C
  3
Gouraud
350
2D
  3
GouraudWithEdges
350
2E
  3
Linepattern
350
38
  3
Realistic
350
33
  3
Thicken
350
37
  0
DICTIONARY
  5
11C
102
{ACAD_REACTORS
330
C
102
}
330
C
100
AcDbDictionary
281
     1
  3
DIMASSOC
350
121
  3
HIDETEXT
350
122
  3
PSOLHEIGHT
350
120
  3
PSOLWIDTH
350
11F
  0
LAYOUT
  5
1E
102
{ACAD_REACTORS
330
1A
102
}
330
1A
100
AcDbPlotSettings
  1

  2
none_device
  4

  6

 40
0.0
 41
0.0
 42
0.0
 43
0.0
 44
0.0
 45
0.0
 46
0.0
 47
0.0
 48
0.0
 49
0.0
140
0.0
141
0.0
142
1.0
143
1.0
 70
   688
 72
     0
 73
     0
 74
     5
  7

 75
    16
147
1.0
148
0.0
149
0.0
100
AcDbLayout
  1
Layout1
 70
     1
 71
     1
 10
0.0
 20
0.0
 11
210.0
 21
297.0
 12
0.0
 22
0.0
 32
0.0
 14
0.0
 24
0.0
 34
0.0
 15
210.0
 25
297.0
 35
0.0
146
0.0
 13
0.0
 23
0.0
 33
0.0
 16
1.0
 26
0.0
 36
0.0
 17
0.0
 27
1.0
 37
0.0
 76
     0
330
1B
  0
LAYOUT
  5
22
102
{ACAD_REACTORS
330
1A
102
}
330
1A
100
AcDbPlotSettings
  1

  2
none_device
  4

  6

 40
0.0
 41
0.0
 42
0.0
 43
0.0
 44
0.0
 45
0.0
 46
0.0
 47
0.0
 48
0.0
 49
0.0
140
0.0
141
0.0
142
1.0
143
1.0
 70
  1712
 72
     0
 73
     0
 74
     0
  7

 75
     0
147
1.0
148
0.0
149
0.0
100
AcDbLayout
  1
Model
 70
     1
 71
     0
 10
0.0
 20
0.0
 11
210.0
 21
297.0
 12
0.0
 22
0.0
 32
0.0
 14
0.0
 24
0.0
 34
0.0
 15
210.0
 25
297.0
 35
0.0
146
0.0
 13
0.0
 23
0.0
 33
0.0
 16
1.0
 26
0.0
 36
0.0
 17
0.0
 27
1.0
 37
0.0
 76
     0
330
1F
331
29
  0
MATERIAL
  5
3D
102
{ACAD_REACTORS
330
3B
102
}
102
{ACAD_XDICTIONARY
360
145
102
}
330
3B
100
AcDbMaterial
  1
ByBlock
  0
MATERIAL
  5
3C
102
{ACAD_REACTORS
330
3B
102
}
102
{ACAD_XDICTIONARY
360
143
102
}
330
3B
100
AcDbMaterial
  1
ByLayer
  0
MATERIAL
  5
3E
102
{ACAD_REACTORS
330
3B
102
}
102
{ACAD_XDICTIONARY
360
147
102
}
330
3B
100
AcDbMaterial
  1
Global
  0
MLINESTYLE
  5
18
102
{ACAD_REACTORS
330
17
102
}
330
17
100
AcDbMlineStyle
  2
Standard
 70
     0
  3

 62
   256
 51
90.0
 52
90.0
 71
     2
 49
0.5
 62
   256
  6
BYLAYER
 49
-0.5
 62
   256
  6
BYLAYER
  0
ACDBPLACEHOLDER
  5
F
102
{ACAD_REACTORS
330
E
102
}
330
E
  0
VISUALSTYLE
  5
2F
102
{ACAD_REACTORS
330
2A
102
}
102
{ACAD_XDICTIONARY
360
12B
102
}
330
2A
100
AcDbVisualStyle
  2
2dWireframe
 70
     4
 71
     0
 72
     2
 73
     0
 90
        0
 40
-0.6
 41
-30.0
 62
     5
 63
     7
 74
     1
 91
        4
 64
     7
 65
   257
 75
     1
175
     1
 42
1.0
 92
        0
 66
   257
 43
1.0
 76
     1
 77
     6
 78
     2
 67
     7
 79
     5
170
     0
171
     0
290
     0
174
     0
 93
        1
 44
0.0
173
     0
291
     0
 45
0.0
1001
ACAD
1000
AcDbSavedByObjectVersion
1070
     0
  0
VISUALSTYLE
  5
31
102
{ACAD_REACTORS
330
2A
102
}
102
{ACAD_XDICTIONARY
360
12F
102
}
330
2A
100
AcDbVisualStyle
  2
3D Hidden
 70
     6
 71
     1
 72
     2
 73
     2
 90
        0
 40
-0.6
 41
-30.0
 62
     5
 63
     7
 74
     2
 91
        2
 64
     7
 65
   257
 75
     2
175
     1
 42
40.0
 92
        0
 66
   257
 43
1.0
 76
     1
 77
     6
 78
     2
 67
     7
 79
     3
170
     0
171
     0
290
     0
174
     0
 93
        1
 44
0.0
173
     0
291
     0
 45
0.0
1001
ACAD
1000
AcDbSavedByObjectVersion
1070
     0
  0
VISUALSTYLE
  5
30
102
{ACAD_REACTORS
330
2A
102
}
102
{ACAD_XDICTIONARY
360
12D
102
}
330
2A
100
AcDbVisualStyle
  2
3dWireframe
 70
     5
 71
     0
 72
     2
 73
     0
 90
        0
 40
-0.6
 41
-30.0
 62
     5
 63
     7
 74
     1
 91
        4
 64
     7
 65
   257
 75
     1
175
     1
 42
1.0
 92
        0
 66
   257
 43
1.0
 76
     1
 77
     6
 78
     2
 67
     7
 79
     5
170
     0
171
     0
290
     0
174
     0
 93
        1
 44
0.0
173
     0
291
     0
 45
0.0
1001
ACAD
1000
AcDbSavedByObjectVersion
1070
     0
  0
VISUALSTYLE
  5
32
102
{ACAD_REACTORS
330
2A
102
}
102
{ACAD_XDICTIONARY
360
131
102
}
330
2A
100
AcDbVisualStyle
  2
Basic
 70
     7
 71
     1
 72
     0
 73
     1
 90
        0
 40
-0.6
 41
-30.0
 62
     5
 63
     7
 74
     0
 91
        4
 64
     7
 65
   257
 75
     1
175
     1
 42
1.0
 92
        8
 66
     7
 43
1.0
 76
     1
 77
     6
 78
     2
 67
     7
 79
     5
170
     0
171
     0
290
     0
174
     0
 93
        1
 44
0.0
173
     0
291
     1
 45
0.0
1001
ACAD
1000
AcDbSavedByObjectVersion
1070
     0
  0
VISUALSTYLE
  5
36
102
{ACAD_REACTORS
330
2A
102
}
102
{ACAD_XDICTIONARY
360
139
102
}
330
2A
100
AcDbVisualStyle
  2
Brighten
 70
    12
 71
     2
 72
     2
 73
     0
 90
        0
 40
-0.6
 41
-30.0
 62
     5
 63
     7
 74
     1
 91
        4
 64
     7
 65
   257
 75
     1
175
     1
 42
1.0
 92
        8
 66
     7
 43
1.0
 76
     1
 77
     6
 78
     2
 67
     7
 79
     5
170
     0
171
     0
290
     0
174
     0
 93
        1
 44
50.0
173
     0
291
     1
 45
0.0
1001
ACAD
1000
AcDbSavedByObjectVersion
1070
     0
  0
VISUALSTYLE
  5
3A
102
{ACAD_REACTORS
330
2A
102
}
102
{ACAD_XDICTIONARY
360
141
102
}
330
2A
100
AcDbVisualStyle
  2
ColorChange
 70
    16
 71
     2
 72
     2
 73
     3
 90
        0
 40
-0.6
 41
-30.0
 62
     5
 63
     8
 74
     1
 91
        4
 64
     7
 65
   257
 75
     1
175
     1
 42
1.0
 92
        8
 66
     8
 43
1.0
 76
     1
 77
     6
 78
     2
 67
     7
 79
     5
170
     0
171
     0
290
     0
174
     0
 93
        1
 44
0.0
173
     0
291
     1
 45
0.0
1001
ACAD
1000
AcDbSavedByObjectVersion
1070
     0
  0
VISUALSTYLE
  5
34
102
{ACAD_REACTORS
330
2A
102
}
102
{ACAD_XDICTIONARY
360
135
102
}
330
2A
100
AcDbVisualStyle
  2
Conceptual
 70
     9
 71
     3
 72
     2
 73
     0
 90
        0
 40
-0.6
 41
-30.0
 62
     5
 63
     7
 74
     2
 91
        2
 64
     7
 65
   257
 75
     1
175
     1
 42
40.0
 92
        8
 66
     7
 43
1.0
 76
     1
 77
     6
 78
     2
 67
     7
 79
     3
170
     0
171
     0
290
     0
174
     0
 93
        1
 44
0.0
173
     0
291
     0
 45
0.0
1001
ACAD
1000
AcDbSavedByObjectVersion
1070
     0
  0
VISUALSTYLE
  5
35
102
{ACAD_REACTORS
330
2A
102
}
102
{ACAD_XDICTIONARY
360
137
102
}
330
2A
100
AcDbVisualStyle
  2
Dim
 70
    11
 71
     2
 72
     2
 73
     0
 90
        0
 40
-0.6
 41
-30.0
 62
     5
 63
     7
 74
     1
 91
        4
 64
     7
 65
   257
 75
     1
175
     1
 42
1.0
 92
        8
 66
     7
 43
1.0
 76
     1
 77
     6
 78
     2
 67
     7
 79
     5
170
     0
171
     0
290
     0
174
     0
 93
        1
 44
-50.0
173
     0
291
     1
 45
0.0
1001
ACAD
1000
AcDbSavedByObjectVersion
1070
     0
  0
VISUALSTYLE
  5
39
102
{ACAD_REACTORS
330
2A
102
}
102
{ACAD_XDICTIONARY
360
13F
102
}
330
2A
100
AcDbVisualStyle
  2
Facepattern
 70
    15
 71
     2
 72
     2
 73
     0
 90
        0
 40
-0.6
 41
-30.0
 62
     5
 63
     7
 74
     1
 91
        4
 64
     7
 65
   257
 75
     1
175
     1
 42
1.0
 92
        8
 66
     7
 43
1.0
 76
     1
 77
     6
 78
     2
 67
     7
 79
     5
170
     0
171
     0
290
     0
174
     0
 93
        1
 44
0.0
173
     0
291
     1
 45
0.0
1001
ACAD
1000
AcDbSavedByObjectVersion
1070
     0
  0
VISUALSTYLE
  5
2B
102
{ACAD_REACTORS
330
2A
102
}
102
{ACAD_XDICTIONARY
360
123
102
}
330
2A
100
AcDbVisualStyle
  2
Flat
 70
     0
 71
     2
 72
     1
 73
     1
 90
        2
 40
-0.6
 41
30.0
 62
     5
 63
     7
 74
     0
 91
        4
 64
     7
 65
   257
 75
     1
175
     1
 42
1.0
 92
        8
 66
     7
 43
1.0
 76
     1
 77
     6
 78
     2
 67
     7
 79
     5
170
     0
171
     0
290
     0
174
     0
 93
       13
 44
0.0
173
     0
291
     1
 45
0.0
1001
ACAD
1000
AcDbSavedByObjectVersion
1070
     0
  0
VISUALSTYLE
  5
2C
102
{ACAD_REACTORS
330
2A
102
}
102
{ACAD_XDICTIONARY
360
125
102
}
330
2A
100
AcDbVisualStyle
  2
FlatWithEdges
 70
     1
 71
     2
 72
     1
 73
     1
 90
        2
 40
-0.6
 41
30.0
 62
     5
 63
     7
 74
     1
 91
        4
 64
     7
 65
   257
 75
     1
175
     1
 42
1.0
 92
        0
 66
   257
 43
1.0
 76
     1
 77
     6
 78
     2
 67
     7
 79
     5
170
     0
171
     0
290
     0
174
     0
 93
       13
 44
0.0
173
     0
291
     1
 45
0.0
1001
ACAD
1000
AcDbSavedByObjectVersion
1070
     0
  0
VISUALSTYLE
  5
2D
102
{ACAD_REACTORS
330
2A
102
}
102
{ACAD_XDICTIONARY
360
127
102
}
330
2A
100
AcDbVisualStyle
  2
Gouraud
 70
     2
 71
     2
 72
     2
 73
     1
 90
        2
 40
-0.6
 41
30.0
 62
     5
 63
     7
 74
     0
 91
        4
 64
     7
 65
   257
 75
     1
175
     1
 42
1.0
 92
        0
 66
     7
 43
1.0
 76
     1
 77
     6
 78
     2
 67
     7
 79
     5
170
     0
171
     0
290
     0
174
     0
 93
       13
 44
0.0
173
     0
291
     1
 45
0.0
1001
ACAD
1000
AcDbSavedByObjectVersion
1070
     0
  0
VISUALSTYLE
  5
2E
102
{ACAD_REACTORS
330
2A
102
}
102
{ACAD_XDICTIONARY
360
129
102
}
330
2A
100
AcDbVisualStyle
  2
GouraudWithEdges
 70
     3
 71
     2
 72
     2
 73
     1
 90
        2
 40
-0.6
 41
30.0
 62
     5
 63
     7
 74
     1
 91
        4
 64
     7
 65
   257
 75
     1
175
     1
 42
1.0
 92
        0
 66
   257
 43
1.0
 76
     1
 77
     6
 78
     2
 67
     7
 79
     5
170
     0
171
     0
290
     0
174
     0
 93
       13
 44
0.0
173
     0
291
     1
 45
0.0
1001
ACAD
1000
AcDbSavedByObjectVersion
1070
     0
  0
VISUALSTYLE
  5
38
102
{ACAD_REACTORS
330
2A
102
}
102
{ACAD_XDICTIONARY
360
13D
102
}
330
2A
100
AcDbVisualStyle
  2
Linepattern
 70
    14
 71
     2
 72
     2
 73
     0
 90
        0
 40
-0.6
 41
-30.0
 62
     5
 63
     7
 74
     1
 91
        4
 64
     7
 65
   257
 75
     7
175
     7
 42
1.0
 92
        8
 66
     7
 43
1.0
 76
     1
 77
     6
 78
     2
 67
     7
 79
     5
170
     0
171
     0
290
     0
174
     0
 93
        1
 44
0.0
173
     0
291
     1
 45
0.0
1001
ACAD
1000
AcDbSavedByObjectVersion
1070
     0
  0
VISUALSTYLE
  5
33
102
{ACAD_REACTORS
330
2A
102
}
102
{ACAD_XDICTIONARY
360
133
102
}
330
2A
100
AcDbVisualStyle
  2
Realistic
 70
     8
 71
     2
 72
     2
 73
     0
 90
        0
 40
-0.6
 41
-30.0
 62
     5
 63
     7
 74
     1
 91
        0
 64
     7
 65
   257
 75
     1
175
     1
 42
1.0
 92
        8
 66
     8
 43
1.0
 76
     1
 77
     6
 78
     2
 67
     7
 79
     5
170
     0
171
     0
290
     0
174
     0
 93
       13
 44
0.0
173
     0
291
     0
 45
0.0
1001
ACAD
1000
AcDbSavedByObjectVersion
1070
     0
  0
VISUALSTYLE
  5
37
102
{ACAD_REACTORS
330
2A
102
}
102
{ACAD_XDICTIONARY
360
13B
102
}
330
2A
100
AcDbVisualStyle
  2
Thicken
 70
    13
 71
     2
 72
     2
 73
     0
 90
        0
 40
-0.6
 41
-30.0
 62
     5
 63
     7
 74
     1
 91
        4
 64
     7
 65
   257
 75
     1
175
     1
 42
1.0
 92
       12
 66
     7
 43
1.0
 76
     1
 77
     6
 78
     2
 67
     7
 79
     5
170
     0
171
     0
290
     0
174
     0
 93
        1
 44
0.0
173
     0
291
     1
 45
0.0
1001
ACAD
1000
AcDbSavedByObjectVersion
1070
     0
  0
DICTIONARYVAR
  5
121
102
{ACAD_REACTORS
330
11C
102
}
330
11C
100
DictionaryVariables
280
     0
  1
2
  0
DICTIONARYVAR
  5
122
102
{ACAD_REACTORS
330
11C
102
}
330
11C
100
DictionaryVariables
280
     0
  1
1
  0
DICTIONARYVAR
  5
120
102
{ACAD_REACTORS
330
11C
102
}
330
11C
100
DictionaryVariables
280
     0
  1
80.000000
  0
DICTIONARYVAR
  5
11F
102
{ACAD_REACTORS
330
11C
102
}
330
11C
100
DictionaryVariables
280
     0
  1
5.000000
  0
DICTIONARY
  5
145
330
3D
100
AcDbDictionary
280
     1
281
     1
  3
ACAD_XREC_ROUNDTRIP
360
146
  0
DICTIONARY
  5
143
330
3C
100
AcDbDictionary
280
     1
281
     1
  3
ACAD_XREC_ROUNDTRIP
360
144
  0
DICTIONARY
  5
147
330
3E
100
AcDbDictionary
280
     1
281
     1
  3
ACAD_XREC_ROUNDTRIP
360
148
  0
DICTIONARY
  5
12B
330
2F
100
AcDbDictionary
280
     1
281
     1
  3
ACAD_XREC_ROUNDTRIP
360
12C
  0
DICTIONARY
  5
12F
330
31
100
AcDbDictionary
280
     1
281
     1
  3
ACAD_XREC_ROUNDTRIP
360
130
  0
DICTIONARY
  5
12D
330
30
100
AcDbDictionary
280
     1
281
     1
  3
ACAD_XREC_ROUNDTRIP
360
12E
  0
DICTIONARY
  5
131
330
32
100
AcDbDictionary
280
     1
281
     1
  3
ACAD_XREC_ROUNDTRIP
360
132
  0
DICTIONARY
  5
139
330
36
100
AcDbDictionary
280
     1
281
     1
  3
ACAD_XREC_ROUNDTRIP
360
13A
  0
DICTIONARY
  5
141
330
3A
100
AcDbDictionary
280
     1
281
     1
  3
ACAD_XREC_ROUNDTRIP
360
142
  0
DICTIONARY
  5
135
330
34
100
AcDbDictionary
280
     1
281
     1
  3
ACAD_XREC_ROUNDTRIP
360
136
  0
DICTIONARY
  5
137
330
35
100
AcDbDictionary
280
     1
281
     1
  3
ACAD_XREC_ROUNDTRIP
360
138
  0
DICTIONARY
  5
13F
330
39
100
AcDbDictionary
280
     1
281
     1
  3
ACAD_XREC_ROUNDTRIP
360
140
  0
DICTIONARY
  5
123
330
2B
100
AcDbDictionary
280
     1
281
     1
  3
ACAD_XREC_ROUNDTRIP
360
124
  0
DICTIONARY
  5
125
330
2C
100
AcDbDictionary
280
     1
281
     1
  3
ACAD_XREC_ROUNDTRIP
360
126
  0
DICTIONARY
  5
127
330
2D
100
AcDbDictionary
280
     1
281
     1
  3
ACAD_XREC_ROUNDTRIP
360
128
  0
DICTIONARY
  5
129
330
2E
100
AcDbDictionary
280
     1
281
     1
  3
ACAD_XREC_ROUNDTRIP
360
12A
  0
DICTIONARY
  5
13D
330
38
100
AcDbDictionary
280
     1
281
     1
  3
ACAD_XREC_ROUNDTRIP
360
13E
  0
DICTIONARY
  5
133
330
33
100
AcDbDictionary
280
     1
281
     1
  3
ACAD_XREC_ROUNDTRIP
360
134
  0
DICTIONARY
  5
13B
330
37
100
AcDbDictionary
280
     1
281
     1
  3
ACAD_XREC_ROUNDTRIP
360
13C
  0
XRECORD
  5
146
102
{ACAD_REACTORS
330
145
102
}
330
145
100
AcDbXrecord
280
     1
102
MATERIAL
148
0.0
149
0.0
149
0.0
 93
        0
 94
      127
282
     0
 72
     1
 77
     1
171
     1
175
     1
179
     1
273
     0
  0
XRECORD
  5
144
102
{ACAD_REACTORS
330
143
102
}
330
143
100
AcDbXrecord
280
     1
102
MATERIAL
148
0.0
149
0.0
149
0.0
 93
        0
 94
      127
282
     0
 72
     1
 77
     1
171
     1
175
     1
179
     1
273
     0
  0
XRECORD
  5
148
102
{ACAD_REACTORS
330
147
102
}
330
147
100
AcDbXrecord
280
     1
102
MATERIAL
148
0.0
149
0.0
149
0.0
 93
        0
 94
      127
282
     0
 72
     1
 77
     1
171
     1
175
     1
179
     1
273
     0
  0
XRECORD
  5
12C
102
{ACAD_REACTORS
330
12B
102
}
330
12B
100
AcDbXrecord
280
     1
102
RTVSPropertyOp0
 70
     1
102
RTVSPropertyOp1
 70
     1
102
RTVSPropertyOp2
 70
     1
102
RTVSPropertyOp3
 70
     1
102
RTVSPropertyOp4
 70
     1
102
RTVSPropertyOp5
 70
     1
102
RTVSPropertyOp6
 70
     1
102
RTVSPropertyOp7
 70
     1
102
RTVSPropertyOp8
 70
     1
102
RTVSPropertyOp9
 70
     1
102
RTVSPropertyOp10
 70
     1
102
RTVSPropertyOp11
 70
     1
102
RTVSPropertyOp12
 70
     1
102
RTVSPropertyOp13
 70
     1
102
RTVSPropertyOp14
 70
     1
102
RTVSPropertyOp15
 70
     1
102
RTVSPropertyOp16
 70
     1
102
RTVSPropertyOp17
 70
     1
102
RTVSPropertyOp18
 70
     1
102
RTVSPropertyOp19
 70
     1
102
RTVSPropertyOp20
 70
     1
102
RTVSPropertyOp21
 70
     1
102
RTVSPropertyOp22
 70
     1
102
RTVSPropertyOp23
 70
     1
102
RTVSPropertyOp24
 70
     1
102
RTVSPropertyOp25
 70
     1
102
RTVSPropertyOp26
 70
     1
102
RTVSPropertyOp27
 70
     1
102
RTVSPropertyOp28
 70
     1
102
RTVSPropertyOp29
 70
     1
102
RTVSPropertyOp30
 70
     1
102
RTVSPropertyOp31
 70
     1
102
RTVSPropertyOp32
 70
     1
  0
XRECORD
  5
130
102
{ACAD_REACTORS
330
12F
102
}
330
12F
100
AcDbXrecord
280
     1
102
RTVSPropertyOp0
 70
     1
102
RTVSPropertyOp1
 70
     1
102
RTVSPropertyOp2
 70
     1
102
RTVSPropertyOp3
 70
     1
102
RTVSPropertyOp4
 70
     1
102
RTVSPropertyOp5
 70
     1
102
RTVSPropertyOp6
 70
     1
102
RTVSPropertyOp7
 70
     1
102
RTVSPropertyOp8
 70
     1
102
RTVSPropertyOp9
 70
     1
102
RTVSPropertyOp10
 70
     1
102
RTVSPropertyOp11
 70
     1
102
RTVSPropertyOp12
 70
     1
102
RTVSPropertyOp13
 70
     1
102
RTVSPropertyOp14
 70
     1
102
RTVSPropertyOp15
 70
     1
102
RTVSPropertyOp16
 70
     1
102
RTVSPropertyOp17
 70
     1
102
RTVSPropertyOp18
 70
     1
102
RTVSPropertyOp19
 70
     1
102
RTVSPropertyOp20
 70
     1
102
RTVSPropertyOp21
 70
     1
102
RTVSPropertyOp22
 70
     1
102
RTVSPropertyOp23
 70
     1
102
RTVSPropertyOp24
 70
     1
102
RTVSPropertyOp25
 70
     1
102
RTVSPropertyOp26
 70
     1
102
RTVSPropertyOp27
 70
     1
102
RTVSPropertyOp28
 70
     1
102
RTVSPropertyOp29
 70
     1
102
RTVSPropertyOp30
 70
     1
102
RTVSPropertyOp31
 70
     1
102
RTVSPropertyOp32
 70
     1
  0
XRECORD
  5
12E
102
{ACAD_REACTORS
330
12D
102
}
330
12D
100
AcDbXrecord
280
     1
102
RTVSPropertyOp0
 70
     1
102
RTVSPropertyOp1
 70
     1
102
RTVSPropertyOp2
 70
     1
102
RTVSPropertyOp3
 70
     1
102
RTVSPropertyOp4
 70
     1
102
RTVSPropertyOp5
 70
     1
102
RTVSPropertyOp6
 70
     1
102
RTVSPropertyOp7
 70
     1
102
RTVSPropertyOp8
 70
     1
102
RTVSPropertyOp9
 70
     1
102
RTVSPropertyOp10
 70
     1
102
RTVSPropertyOp11
 70
     1
102
RTVSPropertyOp12
 70
     1
102
RTVSPropertyOp13
 70
     1
102
RTVSPropertyOp14
 70
     1
102
RTVSPropertyOp15
 70
     1
102
RTVSPropertyOp16
 70
     1
102
RTVSPropertyOp17
 70
     1
102
RTVSPropertyOp18
 70
     1
102
RTVSPropertyOp19
 70
     1
102
RTVSPropertyOp20
 70
     1
102
RTVSPropertyOp21
 70
     1
102
RTVSPropertyOp22
 70
     1
102
RTVSPropertyOp23
 70
     1
102
RTVSPropertyOp24
 70
     1
102
RTVSPropertyOp25
 70
     1
102
RTVSPropertyOp26
 70
     1
102
RTVSPropertyOp27
 70
     1
102
RTVSPropertyOp28
 70
     1
102
RTVSPropertyOp29
 70
     1
102
RTVSPropertyOp30
 70
     1
102
RTVSPropertyOp31
 70
     1
102
RTVSPropertyOp32
 70
     1
  0
XRECORD
  5
132
102
{ACAD_REACTORS
330
131
102
}
330
131
100
AcDbXrecord
280
     1
102
RTVSPropertyOp0
 70
     1
102
RTVSPropertyOp1
 70
     1
102
RTVSPropertyOp2
 70
     1
102
RTVSPropertyOp3
 70
     1
102
RTVSPropertyOp4
 70
     1
102
RTVSPropertyOp5
 70
     1
102
RTVSPropertyOp6
 70
     1
102
RTVSPropertyOp7
 70
     1
102
RTVSPropertyOp8
 70
     1
102
RTVSPropertyOp9
 70
     1
102
RTVSPropertyOp10
 70
     1
102
RTVSPropertyOp11
 70
     1
102
RTVSPropertyOp12
 70
     1
102
RTVSPropertyOp13
 70
     1
102
RTVSPropertyOp14
 70
     1
102
RTVSPropertyOp15
 70
     1
102
RTVSPropertyOp16
 70
     1
102
RTVSPropertyOp17
 70
     1
102
RTVSPropertyOp18
 70
     1
102
RTVSPropertyOp19
 70
     1
102
RTVSPropertyOp20
 70
     1
102
RTVSPropertyOp21
 70
     1
102
RTVSPropertyOp22
 70
     1
102
RTVSPropertyOp23
 70
     1
102
RTVSPropertyOp24
 70
     1
102
RTVSPropertyOp25
 70
     1
102
RTVSPropertyOp26
 70
     1
102
RTVSPropertyOp27
 70
     1
102
RTVSPropertyOp28
 70
     1
102
RTVSPropertyOp29
 70
     1
102
RTVSPropertyOp30
 70
     1
102
RTVSPropertyOp31
 70
     1
102
RTVSPropertyOp32
 70
     1
  0
XRECORD
  5
13A
102
{ACAD_REACTORS
330
139
102
}
330
139
100
AcDbXrecord
280
     1
102
RTVSPropertyOp0
 70
     1
102
RTVSPropertyOp1
 70
     1
102
RTVSPropertyOp2
 70
     1
102
RTVSPropertyOp3
 70
     1
102
RTVSPropertyOp4
 70
     1
102
RTVSPropertyOp5
 70
     1
102
RTVSPropertyOp6
 70
     1
102
RTVSPropertyOp7
 70
     1
102
RTVSPropertyOp8
 70
     1
102
RTVSPropertyOp9
 70
     1
102
RTVSPropertyOp10
 70
     1
102
RTVSPropertyOp11
 70
     1
102
RTVSPropertyOp12
 70
     1
102
RTVSPropertyOp13
 70
     1
102
RTVSPropertyOp14
 70
     1
102
RTVSPropertyOp15
 70
     1
102
RTVSPropertyOp16
 70
     1
102
RTVSPropertyOp17
 70
     1
102
RTVSPropertyOp18
 70
     1
102
RTVSPropertyOp19
 70
     1
102
RTVSPropertyOp20
 70
     1
102
RTVSPropertyOp21
 70
     1
102
RTVSPropertyOp22
 70
     1
102
RTVSPropertyOp23
 70
     1
102
RTVSPropertyOp24
 70
     1
102
RTVSPropertyOp25
 70
     1
102
RTVSPropertyOp26
 70
     1
102
RTVSPropertyOp27
 70
     1
102
RTVSPropertyOp28
 70
     1
102
RTVSPropertyOp29
 70
     1
102
RTVSPropertyOp30
 70
     1
102
RTVSPropertyOp31
 70
     1
102
RTVSPropertyOp32
 70
     1
  0
XRECORD
  5
142
102
{ACAD_REACTORS
330
141
102
}
330
141
100
AcDbXrecord
280
     1
102
RTVSPropertyOp0
 70
     1
102
RTVSPropertyOp1
 70
     1
102
RTVSPropertyOp2
 70
     1
102
RTVSPropertyOp3
 70
     1
102
RTVSPropertyOp4
 70
     1
102
RTVSPropertyOp5
 70
     1
102
RTVSPropertyOp6
 70
     1
102
RTVSPropertyOp7
 70
     1
102
RTVSPropertyOp8
 70
     1
102
RTVSPropertyOp9
 70
     1
102
RTVSPropertyOp10
 70
     1
102
RTVSPropertyOp11
 70
     1
102
RTVSPropertyOp12
 70
     1
102
RTVSPropertyOp13
 70
     1
102
RTVSPropertyOp14
 70
     1
102
RTVSPropertyOp15
 70
     1
102
RTVSPropertyOp16
 70
     1
102
RTVSPropertyOp17
 70
     1
102
RTVSPropertyOp18
 70
     1
102
RTVSPropertyOp19
 70
     1
102
RTVSPropertyOp20
 70
     1
102
RTVSPropertyOp21
 70
     1
102
RTVSPropertyOp22
 70
     1
102
RTVSPropertyOp23
 70
     1
102
RTVSPropertyOp24
 70
     1
102
RTVSPropertyOp25
 70
     1
102
RTVSPropertyOp26
 70
     1
102
RTVSPropertyOp27
 70
     1
102
RTVSPropertyOp28
 70
     1
102
RTVSPropertyOp29
 70
     1
102
RTVSPropertyOp30
 70
     1
102
RTVSPropertyOp31
 70
     1
102
RTVSPropertyOp32
 70
     1
  0
XRECORD
  5
136
102
{ACAD_REACTORS
330
135
102
}
330
135
100
AcDbXrecord
280
     1
102
RTVSPropertyOp0
 70
     1
102
RTVSPropertyOp1
 70
     1
102
RTVSPropertyOp2
 70
     1
102
RTVSPropertyOp3
 70
     1
102
RTVSPropertyOp4
 70
     1
102
RTVSPropertyOp5
 70
     1
102
RTVSPropertyOp6
 70
     1
102
RTVSPropertyOp7
 70
     1
102
RTVSPropertyOp8
 70
     1
102
RTVSPropertyOp9
 70
     1
102
RTVSPropertyOp10
 70
     1
102
RTVSPropertyOp11
 70
     1
102
RTVSPropertyOp12
 70
     1
102
RTVSPropertyOp13
 70
     1
102
RTVSPropertyOp14
 70
     1
102
RTVSPropertyOp15
 70
     1
102
RTVSPropertyOp16
 70
     1
102
RTVSPropertyOp17
 70
     1
102
RTVSPropertyOp18
 70
     1
102
RTVSPropertyOp19
 70
     1
102
RTVSPropertyOp20
 70
     1
102
RTVSPropertyOp21
 70
     1
102
RTVSPropertyOp22
 70
     1
102
RTVSPropertyOp23
 70
     1
102
RTVSPropertyOp24
 70
     1
102
RTVSPropertyOp25
 70
     1
102
RTVSPropertyOp26
 70
     1
102
RTVSPropertyOp27
 70
     1
102
RTVSPropertyOp28
 70
     1
102
RTVSPropertyOp29
 70
     1
102
RTVSPropertyOp30
 70
     1
102
RTVSPropertyOp31
 70
     1
102
RTVSPropertyOp32
 70
     1
  0
XRECORD
  5
138
102
{ACAD_REACTORS
330
137
102
}
330
137
100
AcDbXrecord
280
     1
102
RTVSPropertyOp0
 70
     1
102
RTVSPropertyOp1
 70
     1
102
RTVSPropertyOp2
 70
     1
102
RTVSPropertyOp3
 70
     1
102
RTVSPropertyOp4
 70
     1
102
RTVSPropertyOp5
 70
     1
102
RTVSPropertyOp6
 70
     1
102
RTVSPropertyOp7
 70
     1
102
RTVSPropertyOp8
 70
     1
102
RTVSPropertyOp9
 70
     1
102
RTVSPropertyOp10
 70
     1
102
RTVSPropertyOp11
 70
     1
102
RTVSPropertyOp12
 70
     1
102
RTVSPropertyOp13
 70
     1
102
RTVSPropertyOp14
 70
     1
102
RTVSPropertyOp15
 70
     1
102
RTVSPropertyOp16
 70
     1
102
RTVSPropertyOp17
 70
     1
102
RTVSPropertyOp18
 70
     1
102
RTVSPropertyOp19
 70
     1
102
RTVSPropertyOp20
 70
     1
102
RTVSPropertyOp21
 70
     1
102
RTVSPropertyOp22
 70
     1
102
RTVSPropertyOp23
 70
     1
102
RTVSPropertyOp24
 70
     1
102
RTVSPropertyOp25
 70
     1
102
RTVSPropertyOp26
 70
     1
102
RTVSPropertyOp27
 70
     1
102
RTVSPropertyOp28
 70
     1
102
RTVSPropertyOp29
 70
     1
102
RTVSPropertyOp30
 70
     1
102
RTVSPropertyOp31
 70
     1
102
RTVSPropertyOp32
 70
     1
  0
XRECORD
  5
140
102
{ACAD_REACTORS
330
13F
102
}
330
13F
100
AcDbXrecord
280
     1
102
RTVSPropertyOp0
 70
     1
102
RTVSPropertyOp1
 70
     1
102
RTVSPropertyOp2
 70
     1
102
RTVSPropertyOp3
 70
     1
102
RTVSPropertyOp4
 70
     1
102
RTVSPropertyOp5
 70
     1
102
RTVSPropertyOp6
 70
     1
102
RTVSPropertyOp7
 70
     1
102
RTVSPropertyOp8
 70
     1
102
RTVSPropertyOp9
 70
     1
102
RTVSPropertyOp10
 70
     1
102
RTVSPropertyOp11
 70
     1
102
RTVSPropertyOp12
 70
     1
102
RTVSPropertyOp13
 70
     1
102
RTVSPropertyOp14
 70
     1
102
RTVSPropertyOp15
 70
     1
102
RTVSPropertyOp16
 70
     1
102
RTVSPropertyOp17
 70
     1
102
RTVSPropertyOp18
 70
     1
102
RTVSPropertyOp19
 70
     1
102
RTVSPropertyOp20
 70
     1
102
RTVSPropertyOp21
 70
     1
102
RTVSPropertyOp22
 70
     1
102
RTVSPropertyOp23
 70
     1
102
RTVSPropertyOp24
 70
     1
102
RTVSPropertyOp25
 70
     1
102
RTVSPropertyOp26
 70
     1
102
RTVSPropertyOp27
 70
     1
102
RTVSPropertyOp28
 70
     1
102
RTVSPropertyOp29
 70
     1
102
RTVSPropertyOp30
 70
     1
102
RTVSPropertyOp31
 70
     1
102
RTVSPropertyOp32
 70
     1
  0
XRECORD
  5
124
102
{ACAD_REACTORS
330
123
102
}
330
123
100
AcDbXrecord
280
     1
102
RTVSPropertyOp0
 70
     1
102
RTVSPropertyOp1
 70
     1
102
RTVSPropertyOp2
 70
     1
102
RTVSPropertyOp3
 70
     1
102
RTVSPropertyOp4
 70
     1
102
RTVSPropertyOp5
 70
     1
102
RTVSPropertyOp6
 70
     1
102
RTVSPropertyOp7
 70
     1
102
RTVSPropertyOp8
 70
     1
102
RTVSPropertyOp9
 70
     1
102
RTVSPropertyOp10
 70
     1
102
RTVSPropertyOp11
 70
     1
102
RTVSPropertyOp12
 70
     1
102
RTVSPropertyOp13
 70
     1
102
RTVSPropertyOp14
 70
     1
102
RTVSPropertyOp15
 70
     1
102
RTVSPropertyOp16
 70
     1
102
RTVSPropertyOp17
 70
     1
102
RTVSPropertyOp18
 70
     1
102
RTVSPropertyOp19
 70
     1
102
RTVSPropertyOp20
 70
     1
102
RTVSPropertyOp21
 70
     1
102
RTVSPropertyOp22
 70
     1
102
RTVSPropertyOp23
 70
     1
102
RTVSPropertyOp24
 70
     1
102
RTVSPropertyOp25
 70
     1
102
RTVSPropertyOp26
 70
     1
102
RTVSPropertyOp27
 70
     1
102
RTVSPropertyOp28
 70
     1
102
RTVSPropertyOp29
 70
     1
102
RTVSPropertyOp30
 70
     1
102
RTVSPropertyOp31
 70
     1
102
RTVSPropertyOp32
 70
     1
  0
XRECORD
  5
126
102
{ACAD_REACTORS
330
125
102
}
330
125
100
AcDbXrecord
280
     1
102
RTVSPropertyOp0
 70
     1
102
RTVSPropertyOp1
 70
     1
102
RTVSPropertyOp2
 70
     1
102
RTVSPropertyOp3
 70
     1
102
RTVSPropertyOp4
 70
     1
102
RTVSPropertyOp5
 70
     1
102
RTVSPropertyOp6
 70
     1
102
RTVSPropertyOp7
 70
     1
102
RTVSPropertyOp8
 70
     1
102
RTVSPropertyOp9
 70
     1
102
RTVSPropertyOp10
 70
     1
102
RTVSPropertyOp11
 70
     1
102
RTVSPropertyOp12
 70
     1
102
RTVSPropertyOp13
 70
     1
102
RTVSPropertyOp14
 70
     1
102
RTVSPropertyOp15
 70
     1
102
RTVSPropertyOp16
 70
     1
102
RTVSPropertyOp17
 70
     1
102
RTVSPropertyOp18
 70
     1
102
RTVSPropertyOp19
 70
     1
102
RTVSPropertyOp20
 70
     1
102
RTVSPropertyOp21
 70
     1
102
RTVSPropertyOp22
 70
     1
102
RTVSPropertyOp23
 70
     1
102
RTVSPropertyOp24
 70
     1
102
RTVSPropertyOp25
 70
     1
102
RTVSPropertyOp26
 70
     1
102
RTVSPropertyOp27
 70
     1
102
RTVSPropertyOp28
 70
     1
102
RTVSPropertyOp29
 70
     1
102
RTVSPropertyOp30
 70
     1
102
RTVSPropertyOp31
 70
     1
102
RTVSPropertyOp32
 70
     1
  0
XRECORD
  5
128
102
{ACAD_REACTORS
330
127
102
}
330
127
100
AcDbXrecord
280
     1
102
RTVSPropertyOp0
 70
     1
102
RTVSPropertyOp1
 70
     1
102
RTVSPropertyOp2
 70
     1
102
RTVSPropertyOp3
 70
     1
102
RTVSPropertyOp4
 70
     1
102
RTVSPropertyOp5
 70
     1
102
RTVSPropertyOp6
 70
     1
102
RTVSPropertyOp7
 70
     1
102
RTVSPropertyOp8
 70
     1
102
RTVSPropertyOp9
 70
     1
102
RTVSPropertyOp10
 70
     1
102
RTVSPropertyOp11
 70
     1
102
RTVSPropertyOp12
 70
     1
102
RTVSPropertyOp13
 70
     1
102
RTVSPropertyOp14
 70
     1
102
RTVSPropertyOp15
 70
     1
102
RTVSPropertyOp16
 70
     1
102
RTVSPropertyOp17
 70
     1
102
RTVSPropertyOp18
 70
     1
102
RTVSPropertyOp19
 70
     1
102
RTVSPropertyOp20
 70
     1
102
RTVSPropertyOp21
 70
     1
102
RTVSPropertyOp22
 70
     1
102
RTVSPropertyOp23
 70
     1
102
RTVSPropertyOp24
 70
     1
102
RTVSPropertyOp25
 70
     1
102
RTVSPropertyOp26
 70
     1
102
RTVSPropertyOp27
 70
     1
102
RTVSPropertyOp28
 70
     1
102
RTVSPropertyOp29
 70
     1
102
RTVSPropertyOp30
 70
     1
102
RTVSPropertyOp31
 70
     1
102
RTVSPropertyOp32
 70
     1
  0
XRECORD
  5
12A
102
{ACAD_REACTORS
330
129
102
}
330
129
100
AcDbXrecord
280
     1
102
RTVSPropertyOp0
 70
     1
102
RTVSPropertyOp1
 70
     1
102
RTVSPropertyOp2
 70
     1
102
RTVSPropertyOp3
 70
     1
102
RTVSPropertyOp4
 70
     1
102
RTVSPropertyOp5
 70
     1
102
RTVSPropertyOp6
 70
     1
102
RTVSPropertyOp7
 70
     1
102
RTVSPropertyOp8
 70
     1
102
RTVSPropertyOp9
 70
     1
102
RTVSPropertyOp10
 70
     1
102
RTVSPropertyOp11
 70
     1
102
RTVSPropertyOp12
 70
     1
102
RTVSPropertyOp13
 70
     1
102
RTVSPropertyOp14
 70
     1
102
RTVSPropertyOp15
 70
     1
102
RTVSPropertyOp16
 70
     1
102
RTVSPropertyOp17
 70
     1
102
RTVSPropertyOp18
 70
     1
102
RTVSPropertyOp19
 70
     1
102
RTVSPropertyOp20
 70
     1
102
RTVSPropertyOp21
 70
     1
102
RTVSPropertyOp22
 70
     1
102
RTVSPropertyOp23
 70
     1
102
RTVSPropertyOp24
 70
     1
102
RTVSPropertyOp25
 70
     1
102
RTVSPropertyOp26
 70
     1
102
RTVSPropertyOp27
 70
     1
102
RTVSPropertyOp28
 70
     1
102
RTVSPropertyOp29
 70
     1
102
RTVSPropertyOp30
 70
     1
102
RTVSPropertyOp31
 70
     1
102
RTVSPropertyOp32
 70
     1
  0
XRECORD
  5
13E
102
{ACAD_REACTORS
330
13D
102
}
330
13D
100
AcDbXrecord
280
     1
102
RTVSPropertyOp0
 70
     1
102
RTVSPropertyOp1
 70
     1
102
RTVSPropertyOp2
 70
     1
102
RTVSPropertyOp3
 70
     1
102
RTVSPropertyOp4
 70
     1
102
RTVSPropertyOp5
 70
     1
102
RTVSPropertyOp6
 70
     1
102
RTVSPropertyOp7
 70
     1
102
RTVSPropertyOp8
 70
     1
102
RTVSPropertyOp9
 70
     1
102
RTVSPropertyOp10
 70
     1
102
RTVSPropertyOp11
 70
     1
102
RTVSPropertyOp12
 70
     1
102
RTVSPropertyOp13
 70
     1
102
RTVSPropertyOp14
 70
     1
102
RTVSPropertyOp15
 70
     1
102
RTVSPropertyOp16
 70
     1
102
RTVSPropertyOp17
 70
     1
102
RTVSPropertyOp18
 70
     1
102
RTVSPropertyOp19
 70
     1
102
RTVSPropertyOp20
 70
     1
102
RTVSPropertyOp21
 70
     1
102
RTVSPropertyOp22
 70
     1
102
RTVSPropertyOp23
 70
     1
102
RTVSPropertyOp24
 70
     1
102
RTVSPropertyOp25
 70
     1
102
RTVSPropertyOp26
 70
     1
102
RTVSPropertyOp27
 70
     1
102
RTVSPropertyOp28
 70
     1
102
RTVSPropertyOp29
 70
     1
102
RTVSPropertyOp30
 70
     1
102
RTVSPropertyOp31
 70
     1
102
RTVSPropertyOp32
 70
     1
  0
XRECORD
  5
134
102
{ACAD_REACTORS
330
133
102
}
330
133
100
AcDbXrecord
280
     1
102
RTVSPropertyOp0
 70
     1
102
RTVSPropertyOp1
 70
     1
102
RTVSPropertyOp2
 70
     1
102
RTVSPropertyOp3
 70
     1
102
RTVSPropertyOp4
 70
     1
102
RTVSPropertyOp5
 70
     1
102
RTVSPropertyOp6
 70
     1
102
RTVSPropertyOp7
 70
     1
102
RTVSPropertyOp8
 70
     1
102
RTVSPropertyOp9
 70
     1
102
RTVSPropertyOp10
 70
     1
102
RTVSPropertyOp11
 70
     1
102
RTVSPropertyOp12
 70
     1
102
RTVSPropertyOp13
 70
     1
102
RTVSPropertyOp14
 70
     1
102
RTVSPropertyOp15
 70
     1
102
RTVSPropertyOp16
 70
     1
102
RTVSPropertyOp17
 70
     1
102
RTVSPropertyOp18
 70
     1
102
RTVSPropertyOp19
 70
     1
102
RTVSPropertyOp20
 70
     1
102
RTVSPropertyOp21
 70
     1
102
RTVSPropertyOp22
 70
     1
102
RTVSPropertyOp23
 70
     1
102
RTVSPropertyOp24
 70
     1
102
RTVSPropertyOp25
 70
     1
102
RTVSPropertyOp26
 70
     1
102
RTVSPropertyOp27
 70
     1
102
RTVSPropertyOp28
 70
     1
102
RTVSPropertyOp29
 70
     1
102
RTVSPropertyOp30
 70
     1
102
RTVSPropertyOp31
 70
     1
102
RTVSPropertyOp32
 70
     1
  0
XRECORD
  5
13C
102
{ACAD_REACTORS
330
13B
102
}
330
13B
100
AcDbXrecord
280
     1
102
RTVSPropertyOp0
 70
     1
102
RTVSPropertyOp1
 70
     1
102
RTVSPropertyOp2
 70
     1
102
RTVSPropertyOp3
 70
     1
102
RTVSPropertyOp4
 70
     1
102
RTVSPropertyOp5
 70
     1
102
RTVSPropertyOp6
 70
     1
102
RTVSPropertyOp7
 70
     1
102
RTVSPropertyOp8
 70
     1
102
RTVSPropertyOp9
 70
     1
102
RTVSPropertyOp10
 70
     1
102
RTVSPropertyOp11
 70
     1
102
RTVSPropertyOp12
 70
     1
102
RTVSPropertyOp13
 70
     1
102
RTVSPropertyOp14
 70
     1
102
RTVSPropertyOp15
 70
     1
102
RTVSPropertyOp16
 70
     1
102
RTVSPropertyOp17
 70
     1
102
RTVSPropertyOp18
 70
     1
102
RTVSPropertyOp19
 70
     1
102
RTVSPropertyOp20
 70
     1
102
RTVSPropertyOp21
 70
     1
102
RTVSPropertyOp22
 70
     1
102
RTVSPropertyOp23
 70
     1
102
RTVSPropertyOp24
 70
     1
102
RTVSPropertyOp25
 70
     1
102
RTVSPropertyOp26
 70
     1
102
RTVSPropertyOp27
 70
     1
102
RTVSPropertyOp28
 70
     1
102
RTVSPropertyOp29
 70
     1
102
RTVSPropertyOp30
 70
     1
102
RTVSPropertyOp31
 70
     1
102
RTVSPropertyOp32
 70
     1
  0
ENDSEC
  0
EOF
