  0
SECTION
  2
HEADER
  9
$ACADVER
  1
AC1015
  9
$ACADMAINTVER
 70
     6
  9
$DWGCODEPAGE
  3
ANSI_1252
  9
$INSBASE
 10
0.0
 20
0.0
 30
0.0
  9
$EXTMIN
 10
0.0
 20
0.0
 30
0.0
  9
$EXTMAX
 10
210.0
 20
297.0
 30
0.0
  9
$LIMMIN
 10
0.0
 20
0.0
  9
$LIMMAX
 10
210.0
 20
297.0
  9
$ORTHOMODE
 70
     0
  9
$REGENMODE
 70
     1
  9
$FILLMODE
 70
     1
  9
$QTEXTMODE
 70
     0
  9
$MIRRTEXT
 70
     1
  9
$LTSCALE
 40
1.0
  9
$ATTMODE
 70
     1
  9
$TEXTSIZE
 40
2.5
  9
$TRACEWID
 40
1.0
  9
$TEXTSTYLE
  7
Standard
  9
$CLAYER
  8
0
  9
$CELTYPE
  6
ByLayer
  9
$CECOLOR
 62
   256
  9
$CELTSCALE
 40
1.0
  9
$DISPSILH
 70
     0
  9
$DIMSCALE
 40
1.0
  9
$DIMASZ
 40
2.5
  9
$DIMEXO
 40
0.625
  9
$DIMDLI
 40
3.75
  9
$DIMRND
 40
0.0
  9
$DIMDLE
 40
0.0
  9
$DIMEXE
 40
1.25
  9
$DIMTP
 40
0.0
  9
$DIMTM
 40
0.0
  9
$DIMTXT
 40
2.5
  9
$DIMCEN
 40
2.5
  9
$DIMTSZ
 40
0.0
  9
$DIMTOL
 70
     0
  9
$DIMLIM
 70
     0
  9
$DIMTIH
 70
     0
  9
$DIMTOH
 70
     0
  9
$DIMSE1
 70
     0
  9
$DIMSE2
 70
     0
  9
$DIMTAD
 70
     1
  9
$DIMZIN
 70
     8
  9
$DIMBLK
  1

  9
$DIMASO
 70
     1
  9
$DIMSHO
 70
     1
  9
$DIMPOST
  1

  9
$DIMAPOST
  1

  9
$DIMALT
 70
     0
  9
$DIMALTD
 70
     3
  9
$DIMALTF
 40
0.0393700787
  9
$DIMLFAC
 40
1.0
  9
$DIMTOFL
 70
     1
  9
$DIMTVP
 40
0.0
  9
$DIMTIX
 70
     0
  9
$DIMSOXD
 70
     0
  9
$DIMSAH
 70
     0
  9
$DIMBLK1
  1

  9
$DIMBLK2
  1

  9
$DIMSTYLE
  2
ISO-25
  9
$DIMCLRD
 70
     0
  9
$DIMCLRE
 70
     0
  9
$DIMCLRT
 70
     0
  9
$DIMTFAC
 40
1.0
  9
$DIMGAP
 40
0.625
  9
$DIMJUST
 70
     0
  9
$DIMSD1
 70
     0
  9
$DIMSD2
 70
     0
  9
$DIMTOLJ
 70
     0
  9
$DIMTZIN
 70
     8
  9
$DIMALTZ
 70
     0
  9
$DIMALTTZ
 70
     0
  9
$DIMUPT
 70
     0
  9
$DIMDEC
 70
     2
  9
$DIMTDEC
 70
     2
  9
$DIMALTU
 70
     2
  9
$DIMALTTD
 70
     3
  9
$DIMTXSTY
  7
Standard
  9
$DIMAUNIT
 70
     0
  9
$DIMADEC
 70
     0
  9
$DIMALTRND
 40
0.0
  9
$DIMAZIN
 70
     0
  9
$DIMDSEP
 70
    44
  9
$DIMATFIT
 70
     3
  9
$DIMFRAC
 70
     0
  9
$DIMLDRBLK
  1

  9
$DIMLUNIT
 70
     2
  9
$DIMLWD
 70
    -2
  9
$DIMLWE
 70
    -2
  9
$DIMTMOVE
 70
     0
  9
$LUNITS
 70
     2
  9
$LUPREC
 70
     4
  9
$SKETCHINC
 40
1.0
  9
$FILLETRAD
 40
10.0
  9
$AUNITS
 70
     0
  9
$AUPREC
 70
     0
  9
$MENU
  1
.
  9
$ELEVATION
 40
0.0
  9
$PELEVATION
 40
0.0
  9
$THICKNESS
 40
0.0
  9
$LIMCHECK
 70
     0
  9
$CHAMFERA
 40
10.0
  9
$CHAMFERB
 40
10.0
  9
$CHAMFERC
 40
20.0
  9
$CHAMFERD
 40
0.0
  9
$SKPOLY
 70
     0
  9
$TDCREATE
 40
2457560.533117095
  9
$TDUCREATE
 40
2457560.449783762
  9
$TDUPDATE
 40
2457560.53311875
  9
$TDUUPDATE
 40
2457560.449785416
  9
$TDINDWG
 40
0.0000000116
  9
$TDUSRTIMER
 40
0.0000000116
  9
$USRTIMER
 70
     1
  9
$ANGBASE
 50
0.0
  9
$ANGDIR
 70
     0
  9
$PDMODE
 70
     0
  9
$PDSIZE
 40
0.0
  9
$PLINEWID
 40
0.0
  9
$SPLFRAME
 70
     0
  9
$SPLINETYPE
 70
     6
  9
$SPLINESEGS
 70
     8
  9
$HANDSEED
  5
16C
  9
$SURFTAB1
 70
     6
  9
$SURFTAB2
 70
     6
  9
$SURFTYPE
 70
     6
  9
$SURFU
 70
     6
  9
$SURFV
 70
     6
  9
$UCSBASE
  2

  9
$UCSNAME
  2

  9
$UCSORG
 10
0.0
 20
0.0
 30
0.0
  9
$UCSXDIR
 10
1.0
 20
0.0
 30
0.0
  9
$UCSYDIR
 10
0.0
 20
1.0
 30
0.0
  9
$UCSORTHOREF
  2

  9
$UCSORTHOVIEW
 70
     0
  9
$UCSORGTOP
 10
0.0
 20
0.0
 30
0.0
  9
$UCSORGBOTTOM
 10
0.0
 20
0.0
 30
0.0
  9
$UCSORGLEFT
 10
0.0
 20
0.0
 30
0.0
  9
$UCSORGRIGHT
 10
0.0
 20
0.0
 30
0.0
  9
$UCSORGFRONT
 10
0.0
 20
0.0
 30
0.0
  9
$UCSORGBACK
 10
0.0
 20
0.0
 30
0.0
  9
$PUCSBASE
  2

  9
$PUCSNAME
  2

  9
$PUCSORG
 10
0.0
 20
0.0
 30
0.0
  9
$PUCSXDIR
 10
1.0
 20
0.0
 30
0.0
  9
$PUCSYDIR
 10
0.0
 20
1.0
 30
0.0
  9
$PUCSORTHOREF
  2

  9
$PUCSORTHOVIEW
 70
     0
  9
$PUCSORGTOP
 10
0.0
 20
0.0
 30
0.0
  9
$PUCSORGBOTTOM
 10
0.0
 20
0.0
 30
0.0
  9
$PUCSORGLEFT
 10
0.0
 20
0.0
 30
0.0
  9
$PUCSORGRIGHT
 10
0.0
 20
0.0
 30
0.0
  9
$PUCSORGFRONT
 10
0.0
 20
0.0
 30
0.0
  9
$PUCSORGBACK
 10
0.0
 20
0.0
 30
0.0
  9
$USERI1
 70
     0
  9
$USERI2
 70
     0
  9
$USERI3
 70
     0
  9
$USERI4
 70
     0
  9
$USERI5
 70
     0
  9
$USERR1
 40
0.0
  9
$USERR2
 40
0.0
  9
$USERR3
 40
0.0
  9
$USERR4
 40
0.0
  9
$USERR5
 40
0.0
  9
$WORLDVIEW
 70
     1
  9
$SHADEDGE
 70
     3
  9
$SHADEDIF
 70
    70
  9
$TILEMODE
 70
     1
  9
$MAXACTVP
 70
    64
  9
$PINSBASE
 10
0.0
 20
0.0
 30
0.0
  9
$PLIMCHECK
 70
     0
  9
$PEXTMIN
 10
0.0
 20
0.0
 30
0.0
  9
$PEXTMAX
 10
210.0
 20
297.0
 30
0.0
  9
$PLIMMIN
 10
0.0
 20
0.0
  9
$PLIMMAX
 10
210.0
 20
297.0
  9
$UNITMODE
 70
     0
  9
$VISRETAIN
 70
     1
  9
$PLINEGEN
 70
     0
  9
$PSLTSCALE
 70
     1
  9
$TREEDEPTH
 70
  3020
  9
$CMLSTYLE
  2
Standard
  9
$CMLJUST
 70
     0
  9
$CMLSCALE
 40
20.0
  9
$PROXYGRAPHICS
 70
     1
  9
$MEASUREMENT
 70
     1
  9
$CELWEIGHT
370
    -1
  9
$ENDCAPS
280
     0
  9
$JOINSTYLE
280
     0
  9
$LWDISPLAY
290
     0
  9
$INSUNITS
 70
     4
  9
$HYPERLINKBASE
  1

  9
$STYLESHEET
  1

  9
$XEDIT
290
     1
  9
$CEPSNTYPE
380
     0
  9
$PSTYLEMODE
290
     1
  9
$FINGERPRINTGUID
  2
{01F6A5B0-D90D-46B2-92F9-770890C00973}
  9
$VERSIONGUID
  2
{FAEB1C32-E019-11D5-929B-00C0DF256EC4}
  9
$EXTNAMES
290
     1
  9
$PSVPSCALE
 40
0.0
  9
$OLESTARTUP
290
     0
  0
ENDSEC
  0
SECTION
  2
CLASSES
  0
CLASS
  1
ACDBDICTIONARYWDFLT
  2
AcDbDictionaryWithDefault
  3
ObjectDBX Classes
 90
        0
280
     0
281
     0
  0
CLASS
  1
VISUALSTYLE
  2
AcDbVisualStyle
  3
ObjectDBX Classes
 90
     4095
280
     0
281
     0
  0
CLASS
  1
MATERIAL
  2
AcDbMaterial
  3
ObjectDBX Classes
 90
     1153
280
     0
281
     0
  0
CLASS
  1
DICTIONARYVAR
  2
AcDbDictionaryVar
  3
ObjectDBX Classes
 90
        0
280
     0
281
     0
  0
CLASS
  1
ACDBPLACEHOLDER
  2
AcDbPlaceHolder
  3
ObjectDBX Classes
 90
        0
280
     0
281
     0
  0
CLASS
  1
LAYOUT
  2
AcDbLayout
  3
ObjectDBX Classes
 90
        0
280
     0
281
     0
  0
ENDSEC
  0
SECTION
  2
TABLES
  0
TABLE
  2
VPORT
  5
8
330
0
100
AcDbSymbolTable
 70
     1
  0
VPORT
  5
29
330
8
100
AcDbSymbolTableRecord
100
AcDbViewportTableRecord
  2
*Active
 70
     0
 10
0.0
 20
0.0
 11
1.0
 21
1.0
 12
344.1869158879
 22
148.5
 13
0.0
 23
0.0
 14
10.0
 24
10.0
 15
10.0
 25
10.0
 16
0.0
 26
0.0
 36
1.0
 17
0.0
 27
0.0
 37
0.0
 40
297.0
 41
1.9729729729
 42
50.0
 43
0.0
 44
0.0
 50
0.0
 51
0.0
 71
     0
 72
   100
 73
     1
 74
     3
 75
     0
 76
     0
 77
     0
 78
     0
281
     0
 65
     1
110
0.0
120
0.0
130
0.0
111
1.0
121
0.0
131
0.0
112
0.0
122
1.0
132
0.0
 79
     0
146
0.0
  0
ENDTAB
  0
TABLE
  2
LTYPE
  5
5
330
0
100
AcDbSymbolTable
 70
     2
  0
LTYPE
  5
14
330
5
100
AcDbSymbolTableRecord
100
AcDbLinetypeTableRecord
  2
ByBlock
 70
     0
  3

 72
    65
 73
     0
 40
0.0
  0
LTYPE
  5
15
330
5
100
AcDbSymbolTableRecord
100
AcDbLinetypeTableRecord
  2
ByLayer
 70
     0
  3

 72
    65
 73
     0
 40
0.0
  0
LTYPE
  5
16
330
5
100
AcDbSymbolTableRecord
100
AcDbLinetypeTableRecord
  2
Continuous
 70
     0
  3
Solid line
 72
    65
 73
     0
 40
0.0
  0
LTYPE
  5
5D
330
5
100
AcDbSymbolTableRecord
100
AcDbLinetypeTableRecord
  2
HIDDEN2
 70
     0
  3
Hidden (.5x) _ _ _ _ _ _ _ _ _ _ _ _ _ _ _ _ _ 
 72
    65
 73
     2
 40
4.7625
 49
3.175
 74
     4
 75
     0
340
0
 46
0.0
 50
0.0
 44
0.0
 45
0.0
 49
-1.5875
 74
     4
 75
     0
340
0
 46
0.0
 50
0.0
 44
0.0
 45
0.0
  0
ENDTAB
  0
TABLE
  2
LAYER
  5
2
330
0
100
AcDbSymbolTable
 70
     5
  0
LAYER
  5
10
330
2
100
AcDbSymbolTableRecord
100
AcDbLayerTableRecord
  2
0
 70
     0
 62
     7
  6
Continuous
370
    -3
390
F
  0
LAYER
  5
3F
330
2
100
AcDbSymbolTableRecord
100
AcDbLayerTableRecord
  2
SK2
 70
     0
 62
     7
  6
Continuous
370
    15
390
F
  0
LAYER
  5
40
330
2
100
AcDbSymbolTableRecord
100
AcDbLayerTableRecord
  2
SK1
 70
     0
 62
     4
  6
Continuous
370
    18
390
F
  0
LAYER
  5
5C
330
2
100
AcDbSymbolTableRecord
100
AcDbLayerTableRecord
  2
SK3
 70
     0
 62
     1
  6
HIDDEN2
370
    15
390
F
  0
LAYER
  5
FF
330
2
100
AcDbSymbolTableRecord
100
AcDbLayerTableRecord
  2
SK4
 70
     0
 62
     2
  6
Continuous
370
    13
390
F
  0
ENDTAB
  0
TABLE
  2
STYLE
  5
3
330
0
100
AcDbSymbolTable
 70
     2
  0
STYLE
  5
11
330
3
100
AcDbSymbolTableRecord
100
AcDbTextStyleTableRecord
  2
Standard
 70
     0
 40
0.0
 41
1.0
 50
0.0
 71
     0
 42
2.5
  3
txt
  4

  0
STYLE
  5
113
330
3
100
AcDbSymbolTableRecord
100
AcDbTextStyleTableRecord
  2
SEACAD_Solid_Edge_ISO
 70
     0
 40
0.0
 41
1.0
 50
0.0
 71
     0
 42
0.2
  3
seiso.ttf
  4

1001
ACAD
1000
Solid Edge ISO
1071
        0
  0
ENDTAB
  0
TABLE
  2
VIEW
  5
6
330
0
100
AcDbSymbolTable
 70
     0
  0
ENDTAB
  0
TABLE
  2
UCS
  5
7
330
0
100
AcDbSymbolTable
 70
     0
  0
ENDTAB
  0
TABLE
  2
APPID
  5
9
330
0
100
AcDbSymbolTable
 70
     1
  0
APPID
  5
12
330
9
100
AcDbSymbolTableRecord
100
AcDbRegAppTableRecord
  2
ACAD
 70
     0
  0
ENDTAB
  0
TABLE
  2
DIMSTYLE
  5
A
330
0
100
AcDbSymbolTable
 70
     3
100
AcDbDimStyleTable
  0
DIMSTYLE
105
27
330
A
100
AcDbSymbolTableRecord
100
AcDbDimStyleTableRecord
  2
ISO-25
 70
     0
 41
2.5
 42
0.625
 43
3.75
 44
1.25
 73
     0
 74
     0
 77
     1
 78
     8
140
2.5
141
2.5
143
0.0393700787
147
0.625
171
     3
172
     1
178
     0
271
     2
272
     2
274
     3
278
    44
283
     0
284
     8
340
11
  0
DIMSTYLE
105
101
330
A
100
AcDbSymbolTableRecord
100
AcDbDimStyleTableRecord
  2
Standard
 70
     0
178
     0
340
11
  0
DIMSTYLE
105
114
102
{ACAD_REACTORS
330
115
330
120
330
12A
330
135
102
}
330
A
100
AcDbSymbolTableRecord
100
AcDbDimStyleTableRecord
  2
DIN
 70
     0
 41
3.5
 42
0.0
 44
1.75
 73
     0
 74
     0
 77
     1
 78
     8
140
3.5
141
1.75
147
1.75
172
     1
173
     1
178
     0
179
     3
271
     1
272
     1
278
    44
284
     8
340
113
343
10E
344
10E
  0
ENDTAB
  0
TABLE
  2
BLOCK_RECORD
  5
1
330
0
100
AcDbSymbolTable
 70
    10
  0
BLOCK_RECORD
  5
1F
330
1
100
AcDbSymbolTableRecord
100
AcDbBlockTableRecord
  2
*Model_Space
340
22
  0
BLOCK_RECORD
  5
1B
330
1
100
AcDbSymbolTableRecord
100
AcDbBlockTableRecord
  2
*Paper_Space
340
1E
  0
BLOCK_RECORD
  5
41
330
1
100
AcDbSymbolTableRecord
100
AcDbBlockTableRecord
  2
Nullpunkt
340
0
102
{BLKREFS
331
4B
102
}
  0
BLOCK_RECORD
  5
4C
330
1
100
AcDbSymbolTableRecord
100
AcDbBlockTableRecord
  2
Einfügepunkt
340
0
102
{BLKREFS
331
56
102
}
  0
BLOCK_RECORD
  5
102
330
1
100
AcDbSymbolTableRecord
100
AcDbBlockTableRecord
  2
_OBLIQUE
340
0
  0
BLOCK_RECORD
  5
106
330
1
100
AcDbSymbolTableRecord
100
AcDbBlockTableRecord
  2
_DOT
340
0
  0
BLOCK_RECORD
  5
10E
330
1
100
AcDbSymbolTableRecord
100
AcDbBlockTableRecord
  2
_SE_FILLED
340
0
  0
BLOCK_RECORD
  5
116
330
1
100
AcDbSymbolTableRecord
100
AcDbBlockTableRecord
  2
DMBLK75
340
0
  0
BLOCK_RECORD
  5
121
330
1
100
AcDbSymbolTableRecord
100
AcDbBlockTableRecord
  2
DMBLK76
340
0
  0
BLOCK_RECORD
  5
12B
330
1
100
AcDbSymbolTableRecord
100
AcDbBlockTableRecord
  2
DMBLK77
340
0
  0
BLOCK_RECORD
  5
136
330
1
100
AcDbSymbolTableRecord
100
AcDbBlockTableRecord
  2
DMBLK78
340
0
  0
ENDTAB
  0
ENDSEC
  0
SECTION
  2
BLOCKS
  0
BLOCK
  5
20
330
1F
100
AcDbEntity
  8
0
100
AcDbBlockBegin
  2
*Model_Space
 70
     0
 10
0.0
 20
0.0
 30
0.0
  3
*Model_Space
  1

  0
ENDBLK
  5
21
330
1F
100
AcDbEntity
  8
0
100
AcDbBlockEnd
  0
BLOCK
  5
1C
330
1B
100
AcDbEntity
 67
     1
  8
0
100
AcDbBlockBegin
  2
*Paper_Space
 70
     0
 10
0.0
 20
0.0
 30
0.0
  3
*Paper_Space
  1

  0
ENDBLK
  5
1D
330
1B
100
AcDbEntity
 67
     1
  8
0
100
AcDbBlockEnd
  0
BLOCK
  5
49
330
41
100
AcDbEntity
  8
0
100
AcDbBlockBegin
  2
Nullpunkt
 70
     0
 10
0.0
 20
0.0
 30
0.0
  3
Nullpunkt
  1

  0
HATCH
  5
42
330
41
100
AcDbEntity
  8
SK2
  6
Continuous
 62
     7
100
AcDbHatch
 10
0.0
 20
0.0
 30
0.0
210
0.0
220
0.0
230
1.0
  2
SOLID
 70
     1
 71
     0
 91
        1
 92
        1
 93
        3
 72
     1
 10
-1.0
 20
0.0
 11
0.0000000000000009
 21
0.0
 72
     1
 10
0.0
 20
0.0
 11
0.0
 21
1.000000000000001
 72
     2
 10
0.0
 20
0.0
 40
1.0
 50
90.0
 51
180.0
 73
     1
 97
        0
 75
     0
 76
     1
 98
        0
  0
HATCH
  5
43
330
41
100
AcDbEntity
  8
SK2
  6
Continuous
 62
     7
100
AcDbHatch
 10
0.0
 20
0.0
 30
0.0
210
0.0
220
0.0
230
1.0
  2
SOLID
 70
     1
 71
     0
 91
        1
 92
        1
 93
        3
 72
     2
 10
0.0
 20
0.0
 40
1.0
 50
270.0
 51
360.0
 73
     1
 72
     1
 10
1.0
 20
0.0
 11
-0.0000000000000009
 21
0.0
 72
     1
 10
0.0
 20
0.0
 11
0.0
 21
-1.000000000000001
 97
        0
 75
     0
 76
     1
 98
        0
  0
CIRCLE
  5
44
330
41
100
AcDbEntity
  8
SK2
  6
Continuous
 62
     7
100
AcDbCircle
 10
0.0
 20
0.0
 30
0.0
 40
1.0
  0
LINE
  5
45
330
41
100
AcDbEntity
  8
SK1
  6
Continuous
100
AcDbLine
 10
-1.0
 20
0.0
 30
0.0
 11
1.0
 21
0.0
 31
0.0
  0
LINE
  5
46
330
41
100
AcDbEntity
  8
SK1
  6
Continuous
100
AcDbLine
 10
0.0
 20
1.0
 30
0.0
 11
0.0
 21
-1.0
 31
0.0
  0
POINT
  5
47
330
41
100
AcDbEntity
  8
SK1
  6
Continuous
100
AcDbPoint
 10
0.0
 20
0.0
 30
0.0
  0
POINT
  5
48
330
41
100
AcDbEntity
  8
SK1
  6
Continuous
100
AcDbPoint
 10
0.0
 20
0.0
 30
0.0
  0
ENDBLK
  5
4A
330
41
100
AcDbEntity
  8
0
100
AcDbBlockEnd
  0
BLOCK
  5
54
330
4C
100
AcDbEntity
  8
0
100
AcDbBlockBegin
  2
Einfügepunkt
 70
     0
 10
0.0
 20
0.0
 30
0.0
  3
Einfügepunkt
  1

  0
HATCH
  5
4D
330
4C
100
AcDbEntity
  8
SK2
  6
Continuous
 62
     7
100
AcDbHatch
 10
0.0
 20
0.0
 30
0.0
210
0.0
220
0.0
230
1.0
  2
SOLID
 70
     1
 71
     0
 91
        1
 92
        1
 93
        3
 72
     1
 10
-0.4502381196756744
 20
-0.0000000000000018
 11
0.0000000000000033
 21
-0.0000000000000018
 72
     1
 10
0.0
 20
-0.0000000000000018
 11
0.0
 21
0.4502381196756812
 72
     2
 10
0.0
 20
-0.0000000000000018
 40
0.4502381196756812
 50
90.0
 51
180.0
 73
     1
 97
        0
 75
     0
 76
     1
 98
        0
  0
HATCH
  5
4E
330
4C
100
AcDbEntity
  8
SK2
  6
Continuous
 62
     7
100
AcDbHatch
 10
0.0
 20
0.0
 30
0.0
210
0.0
220
0.0
230
1.0
  2
SOLID
 70
     1
 71
     0
 91
        1
 92
        1
 93
        3
 72
     2
 10
0.0
 20
-0.0000000000000018
 40
0.4502381196756812
 50
270.0
 51
360.0
 73
     1
 72
     1
 10
0.4502381196756815
 20
-0.0000000000000018
 11
0.0000000000000038
 21
-0.0000000000000018
 72
     1
 10
0.0
 20
-0.0000000000000018
 11
0.0
 21
-0.4502381196756812
 97
        0
 75
     0
 76
     1
 98
        0
  0
CIRCLE
  5
4F
330
4C
100
AcDbEntity
  8
SK2
  6
Continuous
 62
     7
100
AcDbCircle
 10
0.0
 20
0.0
 30
0.0
 40
0.4502381196756812
  0
LINE
  5
50
330
4C
100
AcDbEntity
  8
SK1
  6
Continuous
100
AcDbLine
 10
-0.4502381197
 20
0.0
 30
0.0
 11
0.4502381197
 21
0.0
 31
0.0
  0
LINE
  5
51
330
4C
100
AcDbEntity
  8
SK1
  6
Continuous
100
AcDbLine
 10
0.0
 20
0.4502381197
 30
0.0
 11
0.0
 21
-0.4502381197
 31
0.0
  0
POINT
  5
52
330
4C
100
AcDbEntity
  8
SK2
  6
Continuous
 62
     7
100
AcDbPoint
 10
0.0
 20
0.0
 30
0.0
  0
POINT
  5
53
330
4C
100
AcDbEntity
  8
SK2
  6
Continuous
 62
     7
100
AcDbPoint
 10
0.0
 20
0.0
 30
0.0
  0
ENDBLK
  5
55
330
4C
100
AcDbEntity
  8
0
100
AcDbBlockEnd
  0
BLOCK
  5
103
330
102
100
AcDbEntity
  8
0
100
AcDbBlockBegin
  2
_OBLIQUE
 70
     0
 10
0.0
 20
0.0
 30
0.0
  3
_OBLIQUE
  1

  0
LINE
  5
105
330
102
100
AcDbEntity
  8
0
  6
ByBlock
 62
     0
370
    -2
100
AcDbLine
 10
-0.5
 20
-0.5
 30
0.0
 11
0.5
 21
0.5
 31
0.0
  0
ENDBLK
  5
104
330
102
100
AcDbEntity
  8
0
100
AcDbBlockEnd
  0
BLOCK
  5
107
330
106
100
AcDbEntity
  8
0
100
AcDbBlockBegin
  2
_DOT
 70
     0
 10
0.0
 20
0.0
 30
0.0
  3
_DOT
  1

  0
POLYLINE
  5
109
330
106
100
AcDbEntity
  8
0
  6
ByBlock
 62
     0
100
AcDb2dPolyline
 66
     1
 10
0.0
 20
0.0
 30
0.0
 70
     1
 40
0.5
 41
0.5
  0
VERTEX
  5
10B
330
109
100
AcDbEntity
  8
0
  6
ByBlock
 62
     0
100
AcDbVertex
100
AcDb2dVertex
 10
-0.25
 20
0.0
 30
0.0
 42
1.0
  0
VERTEX
  5
10C
330
109
100
AcDbEntity
  8
0
  6
ByBlock
 62
     0
100
AcDbVertex
100
AcDb2dVertex
 10
0.25
 20
0.0
 30
0.0
 42
1.0
  0
SEQEND
  5
10D
330
109
100
AcDbEntity
  8
0
  6
ByBlock
 62
     0
  0
LINE
  5
10A
330
106
100
AcDbEntity
  8
0
  6
ByBlock
 62
     0
370
    -2
100
AcDbLine
 10
-0.5
 20
0.0
 30
0.0
 11
-1.0
 21
0.0
 31
0.0
  0
ENDBLK
  5
108
330
106
100
AcDbEntity
  8
0
100
AcDbBlockEnd
  0
BLOCK
  5
111
330
10E
100
AcDbEntity
  8
0
100
AcDbBlockBegin
  2
_SE_FILLED
 70
     0
 10
0.0
 20
0.0
 30
0.0
  3
_SE_FILLED
  1

  0
SOLID
  5
10F
330
10E
100
AcDbEntity
  8
0
 62
     0
100
AcDbTrace
 10
0.0
 20
0.0
 30
0.0
 11
-1.0
 21
-0.1665
 31
0.0
 12
-1.0
 22
0.1665
 32
0.0
 13
0.0
 23
0.0
 33
0.0
  0
LINE
  5
110
330
10E
100
AcDbEntity
  8
0
 62
     0
100
AcDbLine
 10
0.0
 20
0.0
 30
0.0
 11
-1.0
 21
0.0
 31
0.0
  0
ENDBLK
  5
112
330
10E
100
AcDbEntity
  8
0
100
AcDbBlockEnd
  0
BLOCK
  5
11E
330
116
100
AcDbEntity
  8
0
100
AcDbBlockBegin
  2
DMBLK75
 70
     0
 10
0.0
 20
0.0
 30
0.0
  3
DMBLK75
  1

  0
HATCH
  5
117
330
116
100
AcDbEntity
  8
SK2
  6
Continuous
 62
   136
100
AcDbHatch
 10
0.0
 20
0.0
 30
0.0
210
0.0
220
0.0
230
1.0
  2
SOLID
 70
     1
 71
     0
 91
        1
 92
        1
 93
        3
 72
     1
 10
14.85462901356319
 20
6.992760577483091
 11
13.68796231088538
 21
6.992760577483091
 72
     1
 10
13.68796231088538
 20
6.992760577483091
 11
14.27129566222429
 21
3.492760469449673
 72
     1
 10
14.27129566222429
 20
3.492760469449673
 11
14.85462901356319
 21
6.992760577483091
 97
        0
 75
     0
 76
     1
 98
        0
  0
HATCH
  5
118
330
116
100
AcDbEntity
  8
SK2
  6
Continuous
 62
   136
100
AcDbHatch
 10
0.0
 20
0.0
 30
0.0
210
0.0
220
0.0
230
1.0
  2
SOLID
 70
     1
 71
     0
 91
        1
 92
        1
 93
        3
 72
     1
 10
14.85462901356319
 20
-6.992760377941693
 11
14.27129566222429
 21
-3.492760269908275
 72
     1
 10
14.27129566222429
 20
-3.492760269908274
 11
13.68796231088538
 21
-6.992760377941692
 72
     1
 10
13.68796231088538
 20
-6.992760377941693
 11
14.85462901356319
 21
-6.992760377941693
 97
        0
 75
     0
 76
     1
 98
        0
  0
LINE
  5
119
330
116
100
AcDbEntity
  8
SK2
  6
Continuous
 62
   136
100
AcDbLine
 10
6.05
 20
3.4927604694
 30
0.0
 11
16.0212957162
 21
3.4927604694
 31
0.0
  0
LINE
  5
11A
330
116
100
AcDbEntity
  8
SK2
  6
Continuous
 62
   136
100
AcDbLine
 10
6.05
 20
-3.4927602699
 30
0.0
 11
16.0212957162
 21
-3.4927602699
 31
0.0
  0
LINE
  5
11B
330
116
100
AcDbEntity
  8
SK2
  6
Continuous
 62
   136
100
AcDbLine
 10
14.2712956622
 20
19.5059394438
 30
0.0
 11
14.2712956622
 21
-10.4927606906
 31
0.0
  0
TEXT
  5
11C
330
116
100
AcDbEntity
  8
SK2
  6
Continuous
 62
   136
100
AcDbText
 10
13.3962956622
 20
16.0536666793
 30
0.0
 40
3.5
  1
7
 50
90.0
  7
SEACAD_Solid_Edge_ISO
 11
9.8962956622
 21
16.0536666793
 31
0.0
100
AcDbText
 73
     3
  0
TEXT
  5
11D
330
116
100
AcDbEntity
  8
SK2
  6
Continuous
 62
   136
100
AcDbText
 10
13.3962956622
 20
11.9809394066
 30
0.0
 40
3.5
  1
ø
 50
90.0
  7
SEACAD_Solid_Edge_ISO
 11
9.8962956622
 21
11.9809394066
 31
0.0
100
AcDbText
 73
     3
  0
ENDBLK
  5
11F
330
116
100
AcDbEntity
  8
0
100
AcDbBlockEnd
  0
BLOCK
  5
128
330
121
100
AcDbEntity
  8
0
100
AcDbBlockBegin
  2
DMBLK76
 70
     0
 10
0.0
 20
0.0
 30
0.0
  3
DMBLK76
  1

  0
HATCH
  5
122
330
121
100
AcDbEntity
  8
SK2
  6
Continuous
 62
   136
100
AcDbHatch
 10
0.0
 20
0.0
 30
0.0
210
0.0
220
0.0
230
1.0
  2
SOLID
 70
     1
 71
     0
 91
        1
 92
        1
 93
        3
 72
     1
 10
9.750000108033417
 20
-18.42601995391867
 11
9.750000108033417
 21
-17.25935325124086
 72
     1
 10
9.750000108033417
 20
-17.25935325124086
 11
6.249999999999998
 21
-17.84268660257976
 72
     1
 10
6.249999999999998
 20
-17.84268660257976
 11
9.750000108033417
 21
-18.42601995391867
 97
        0
 75
     0
 76
     1
 98
        0
  0
HATCH
  5
123
330
121
100
AcDbEntity
  8
SK2
  6
Continuous
 62
   136
100
AcDbHatch
 10
0.0
 20
0.0
 30
0.0
210
0.0
220
0.0
230
1.0
  2
SOLID
 70
     1
 71
     0
 91
        1
 92
        1
 93
        3
 72
     1
 10
-3.500000108033418
 20
-18.42601995391867
 11
0.0000000000000009
 21
-17.84268660257976
 72
     1
 10
0.0000000000000009
 20
-17.84268660257976
 11
-3.500000108033418
 21
-17.25935325124086
 72
     1
 10
-3.500000108033418
 20
-17.25935325124086
 11
-3.500000108033418
 21
-18.42601995391867
 97
        0
 75
     0
 76
     1
 98
        0
  0
LINE
  5
124
330
121
100
AcDbEntity
  8
SK2
  6
Continuous
 62
   136
100
AcDbLine
 10
6.25
 20
-4.2563438022
 30
0.0
 11
6.25
 21
-19.5926866566
 31
0.0
  0
LINE
  5
125
330
121
100
AcDbEntity
  8
SK2
  6
Continuous
 62
   136
100
AcDbLine
 10
0.0
 20
-5.4994526333
 30
0.0
 11
0.0
 21
-19.5926866566
 31
0.0
  0
LINE
  5
126
330
121
100
AcDbEntity
  8
SK2
  6
Continuous
 62
   136
100
AcDbLine
 10
17.702820152
 20
-17.8426866026
 30
0.0
 11
-6.9999998435
 21
-17.8426866026
 31
0.0
  0
TEXT
  5
127
330
121
100
AcDbEntity
  8
SK2
  6
Continuous
 62
   136
100
AcDbText
 10
11.8641835958
 20
-16.9676866026
 30
0.0
 40
3.5
  1
6,3
  7
SEACAD_Solid_Edge_ISO
 11
11.8641835958
 21
-13.4676866026
 31
0.0
100
AcDbText
 73
     3
  0
ENDBLK
  5
129
330
121
100
AcDbEntity
  8
0
100
AcDbBlockEnd
  0
BLOCK
  5
133
330
12B
100
AcDbEntity
  8
0
100
AcDbBlockBegin
  2
DMBLK77
 70
     0
 10
0.0
 20
0.0
 30
0.0
  3
DMBLK77
  1

  0
HATCH
  5
12C
330
12B
100
AcDbEntity
  8
SK2
  6
Continuous
 62
   136
100
AcDbHatch
 10
0.0
 20
0.0
 30
0.0
210
0.0
220
0.0
230
1.0
  2
SOLID
 70
     1
 71
     0
 91
        1
 92
        1
 93
        3
 72
     1
 10
-17.31892062040667
 20
8.999452940895013
 11
-16.73558726906776
 21
5.499452832861594
 72
     1
 10
-16.73558726906776
 20
5.499452832861593
 11
-16.15225391772886
 21
8.999452940895011
 72
     1
 10
-16.15225391772886
 20
8.999452940895013
 11
-17.31892062040667
 21
8.999452940895013
 97
        0
 75
     0
 76
     1
 98
        0
  0
HATCH
  5
12D
330
12B
100
AcDbEntity
  8
SK2
  6
Continuous
 62
   136
100
AcDbHatch
 10
0.0
 20
0.0
 30
0.0
210
0.0
220
0.0
230
1.0
  2
SOLID
 70
     1
 71
     0
 91
        1
 92
        1
 93
        3
 72
     1
 10
-17.31892062040667
 20
-8.999452741353615
 11
-16.15225391772886
 21
-8.999452741353615
 72
     1
 10
-16.15225391772886
 20
-8.999452741353615
 11
-16.73558726906776
 21
-5.499452633320195
 72
     1
 10
-16.73558726906776
 20
-5.499452633320196
 11
-17.31892062040667
 21
-8.999452741353615
 97
        0
 75
     0
 76
     1
 98
        0
  0
LINE
  5
12E
330
12B
100
AcDbEntity
  8
SK2
  6
Continuous
 62
   136
100
AcDbLine
 10
0.0
 20
5.4994528329
 30
0.0
 11
-18.4855873231
 21
5.4994528329
 31
0.0
  0
LINE
  5
12F
330
12B
100
AcDbEntity
  8
SK2
  6
Continuous
 62
   136
100
AcDbLine
 10
0.0
 20
-5.4994526333
 30
0.0
 11
-18.4855873231
 21
-5.4994526333
 31
0.0
  0
LINE
  5
130
330
12B
100
AcDbEntity
  8
SK2
  6
Continuous
 62
   136
100
AcDbLine
 10
-16.7355872691
 20
12.4994530489
 30
0.0
 11
-16.7355872691
 21
-12.4994530196
 31
0.0
  0
TEXT
  5
131
330
12B
100
AcDbEntity
  8
SK2
  6
Continuous
 62
   136
100
AcDbText
 10
-17.6105872691
 20
0.6045454692
 30
0.0
 40
3.5
  1
11
 50
90.0
  7
SEACAD_Solid_Edge_ISO
 11
-21.1105872691
 21
0.6045454692
 31
0.0
100
AcDbText
 73
     3
  0
TEXT
  5
132
330
12B
100
AcDbEntity
  8
SK2
  6
Continuous
 62
   136
100
AcDbText
 10
-17.6105872691
 20
-3.4681818035
 30
0.0
 40
3.5
  1
ø
 50
90.0
  7
SEACAD_Solid_Edge_ISO
 11
-21.1105872691
 21
-3.4681818035
 31
0.0
100
AcDbText
 73
     3
  0
ENDBLK
  5
134
330
12B
100
AcDbEntity
  8
0
100
AcDbBlockEnd
  0
BLOCK
  5
13D
330
136
100
AcDbEntity
  8
0
100
AcDbBlockBegin
  2
DMBLK78
 70
     0
 10
0.0
 20
0.0
 30
0.0
  3
DMBLK78
  1

  0
HATCH
  5
137
330
136
100
AcDbEntity
  8
SK2
  6
Continuous
 62
   136
100
AcDbHatch
 10
0.0
 20
0.0
 30
0.0
210
0.0
220
0.0
230
1.0
  2
SOLID
 70
     1
 71
     0
 91
        1
 92
        1
 93
        3
 72
     1
 10
-8.249999891966585
 20
11.56666933893549
 11
-11.75
 21
10.98333598759659
 72
     1
 10
-11.75
 20
10.98333598759659
 11
-8.249999891966585
 21
10.40000263625769
 72
     1
 10
-8.249999891966585
 20
10.40000263625769
 11
-8.249999891966585
 21
11.56666933893549
 97
        0
 75
     0
 76
     1
 98
        0
  0
HATCH
  5
138
330
136
100
AcDbEntity
  8
SK2
  6
Continuous
 62
   136
100
AcDbHatch
 10
0.0
 20
0.0
 30
0.0
210
0.0
220
0.0
230
1.0
  2
SOLID
 70
     1
 71
     0
 91
        1
 92
        1
 93
        3
 72
     1
 10
2.749999117106196
 20
11.56666933893549
 11
2.749999117106196
 21
10.40000263625769
 72
     1
 10
2.749999117106196
 20
10.40000263625769
 11
6.249999225139614
 21
10.98333598759659
 72
     1
 10
6.249999225139614
 20
10.98333598759659
 11
2.749999117106196
 21
11.56666933893549
 97
        0
 75
     0
 76
     1
 98
        0
  0
LINE
  5
139
330
136
100
AcDbEntity
  8
SK2
  6
Continuous
 62
   136
100
AcDbLine
 10
-11.75
 20
3.1052168616
 30
0.0
 11
-11.75
 21
12.7333360416
 31
0.0
  0
LINE
  5
13A
330
136
100
AcDbEntity
  8
SK2
  6
Continuous
 62
   136
100
AcDbLine
 10
6.25
 20
4.256344003
 30
0.0
 11
6.25
 21
12.7333360416
 31
0.0
  0
LINE
  5
13B
330
136
100
AcDbEntity
  8
SK2
  6
Continuous
 62
   136
100
AcDbLine
 10
-11.75
 20
10.9833359876
 30
0.0
 11
6.2499992251
 21
10.9833359876
 31
0.0
  0
TEXT
  5
13C
330
136
100
AcDbEntity
  8
SK2
  6
Continuous
 62
   136
100
AcDbText
 10
-4.579545842
 20
11.8583359876
 30
0.0
 40
3.5
  1
18
  7
SEACAD_Solid_Edge_ISO
 11
-4.579545842
 21
15.3583359876
 31
0.0
100
AcDbText
 73
     3
  0
ENDBLK
  5
13E
330
136
100
AcDbEntity
  8
0
100
AcDbBlockEnd
  0
ENDSEC
  0
SECTION
  2
ENTITIES
  0
INSERT
  5
4B
330
1F
100
AcDbEntity
  8
SK2
 62
     7
100
AcDbBlockReference
  2
Nullpunkt
 10
0.0
 20
0.0000000998
 30
0.0
  0
INSERT
  5
56
330
1F
100
AcDbEntity
  8
SK2
 62
     7
100
AcDbBlockReference
  2
Einfügepunkt
 10
6.25
 20
0.0000000998
 30
0.0
  0
LINE
  5
57
330
1F
100
AcDbEntity
  8
SK1
  6
Continuous
100
AcDbLine
 10
-11.75
 20
3.3302168616
 30
0.0
 11
-11.75
 21
3.7223058206
 31
0.0
  0
LINE
  5
58
330
1F
100
AcDbEntity
  8
SK1
  6
Continuous
100
AcDbLine
 10
-11.6208759651
 20
3.4590830462
 30
0.0
 11
-11.6208759651
 21
3.8708460309
 31
0.0
  0
LINE
  5
59
330
1F
100
AcDbEntity
  8
SK1
  6
Continuous
100
AcDbLine
 10
1.75
 20
5.0883323166
 30
0.0
 11
1.75
 21
5.7455962394
 31
0.0
  0
LINE
  5
5A
330
1F
100
AcDbEntity
  8
SK1
  6
Continuous
100
AcDbLine
 10
1.85
 20
4.2215031723
 30
0.0
 11
1.85
 21
4.7446681598
 31
0.0
  0
SPLINE
  5
5B
330
1F
100
AcDbEntity
  8
SK1
  6
Continuous
100
AcDbSpline
210
0.0
220
0.0
230
1.0
 70
     8
 71
     3
 72
     8
 73
     4
 74
     0
 42
0.0000000777805691
 43
0.0000000001
 12
1.0
 22
0.0
 32
0.0
 13
1.0
 23
0.0
 33
0.0
 40
0.0
 40
0.0
 40
0.0
 40
0.0
 40
1.0
 40
1.0
 40
1.0
 40
1.0
 10
-11.75000000000001
 20
3.310863939298653
 30
0.0
 10
-11.75
 20
3.269961781263108
 30
0.0
 10
-11.73272834933401
 20
3.229508974763035
 30
0.0
 10
-11.70218236182171
 20
3.198287248196195
 30
0.0
  0
SPLINE
  5
5E
330
1F
100
AcDbEntity
  8
SK3
100
AcDbSpline
210
0.0
220
0.0
230
1.0
 70
     8
 71
     3
 72
    10
 73
     6
 74
     0
 42
0.0000000583126887
 43
0.0000000001
 12
1.0
 22
0.0
 32
0.0
 13
1.0
 23
0.0
 33
0.0
 40
0.0
 40
0.0
 40
0.0
 40
0.0
 40
0.0910157743754957
 40
0.0910157743754957
 40
1.0
 40
1.0
 40
1.0
 40
1.0
 10
-11.70218236182171
 20
3.198287248196195
 30
0.0
 10
-11.69878349392742
 20
3.194813190466362
 30
0.0
 10
-11.69522027476322
 20
3.191453423923141
 30
0.0
 10
-11.65432556676456
 20
3.155927964844078
 30
0.0
 10
-11.60243347408562
 20
3.137319309244217
 30
0.0
 10
-11.55
 20
3.137319309244214
 30
0.0
  0
SPLINE
  5
5F
330
1F
100
AcDbEntity
  8
SK3
100
AcDbSpline
210
0.0
220
0.0
230
1.0
 70
     8
 71
     3
 72
    10
 73
     6
 74
     0
 42
0.0000000332003203
 43
0.0000000001
 12
1.0
 22
0.0
 32
0.0
 13
1.0
 23
0.0
 33
0.0
 40
0.0
 40
0.0
 40
0.0
 40
0.0
 40
0.5
 40
0.5
 40
1.0
 40
1.0
 40
1.0
 40
1.0
 10
-11.75
 20
3.085863939298654
 30
0.0
 10
-11.75
 20
3.040410576896302
 30
0.0
 10
-11.72867085572916
 20
2.995512128665952
 30
0.0
 10
-11.65432556676456
 20
2.930927964844078
 30
0.0
 10
-11.60243347408562
 20
2.912319309244217
 30
0.0
 10
-11.55
 20
2.912319309244214
 30
0.0
  0
LINE
  5
60
330
1F
100
AcDbEntity
  8
SK3
100
AcDbLine
 10
2.25
 20
3.031089013
 30
0.0
 11
2.237791134
 21
3.1373193092
 31
0.0
  0
LINE
  5
61
330
1F
100
AcDbEntity
  8
SK3
100
AcDbLine
 10
2.237791134
 20
2.9123193092
 30
0.0
 11
2.25
 21
3.031089013
 31
0.0
  0
LINE
  5
62
330
1F
100
AcDbEntity
  8
SK1
  6
Continuous
100
AcDbLine
 10
2.25
 20
4.2215031723
 30
0.0
 11
2.25
 21
3.9965031723
 31
0.0
  0
LINE
  5
63
330
1F
100
AcDbEntity
  8
SK3
100
AcDbLine
 10
2.25
 20
2.918589013
 30
0.0
 11
2.237791134
 21
2.9123193092
 31
0.0
  0
SPLINE
  5
64
330
1F
100
AcDbEntity
  8
SK1
  6
Continuous
100
AcDbSpline
210
0.0
220
0.0
230
1.0
 70
     8
 71
     3
 72
    23
 73
    19
 74
     0
 42
0.0000000678582138
 43
0.0000000001
 12
1.0
 22
0.0
 32
0.0
 13
1.0
 23
0.0
 33
0.0
 40
0.0
 40
0.0
 40
0.0
 40
0.0
 40
0.1608235623792043
 40
0.1608235623792043
 40
0.1608235623792043
 40
0.3761075724262296
 40
0.3761075724262296
 40
0.3761075724262296
 40
0.5912939433087809
 40
0.5912939433087809
 40
0.5912939433087809
 40
0.7249247848718562
 40
0.7249247848718562
 40
0.7249247848718562
 40
0.9395394096340067
 40
0.9395394096340067
 40
0.9395394096340067
 40
1.0
 40
1.0
 40
1.0
 40
1.0
 10
1.749999999999996
 20
4.308201024526894
 30
0.0
 10
1.749999999999994
 20
4.300937993116632
 30
0.0
 10
1.751069383816066
 20
4.293618404439471
 30
0.0
 10
1.753158358306657
 20
4.286584290106473
 30
0.0
 10
1.755952128261341
 20
4.277176948193083
 30
0.0
 10
1.760660198361018
 20
4.268057425607767
 30
0.0
 10
1.766893630402232
 20
4.259982143040831
 30
0.0
 10
1.773124198159315
 20
4.251910571094874
 30
0.0
 10
1.781050962048524
 20
4.244659431550017
 30
0.0
 10
1.790017668272894
 20
4.238831576951209
 30
0.0
 10
1.79563492429672
 20
4.235180676550105
 30
0.0
 10
1.801732145437994
 20
4.232027811982825
 30
0.0
 10
1.808108146210794
 20
4.229477477048817
 30
0.0
 10
1.81825944229864
 20
4.225417062698062
 30
0.0
 10
1.829359976559193
 20
4.222817893810306
 30
0.0
 10
1.840490940174894
 20
4.221896042067008
 30
0.0
 10
1.843649820248667
 20
4.221634427780643
 30
0.0
 10
1.846826708433324
 20
4.221503172293276
 30
0.0
 10
1.84999999999998
 20
4.221503172293113
 30
0.0
  0
LINE
  5
65
330
1F
100
AcDbEntity
  8
SK1
  6
Continuous
100
AcDbLine
 10
1.85
 20
4.2215031723
 30
0.0
 11
2.25
 21
4.2215031723
 31
0.0
  0
LINE
  5
66
330
1F
100
AcDbEntity
  8
SK3
100
AcDbLine
 10
2.25
 20
3.143589013
 30
0.0
 11
2.237791134
 21
3.1373193092
 31
0.0
  0
LINE
  5
67
330
1F
100
AcDbEntity
  8
SK3
100
AcDbLine
 10
2.237791134
 20
3.1373193092
 30
0.0
 11
-11.55
 21
3.1373193092
 31
0.0
  0
LINE
  5
68
330
1F
100
AcDbEntity
  8
SK1
  6
Continuous
100
AcDbLine
 10
-11.75
 20
3.3108639393
 30
0.0
 11
-11.75
 21
3.3302168616
 31
0.0
  0
SPLINE
  5
69
330
1F
100
AcDbEntity
  8
SK1
  6
Continuous
100
AcDbSpline
210
0.0
220
0.0
230
1.0
 70
     8
 71
     3
 72
    20
 73
    16
 74
     0
 42
0.0000000499425596
 43
0.0000000001
 12
1.0
 22
0.0
 32
0.0
 13
1.0
 23
0.0
 33
0.0
 40
0.0
 40
0.0
 40
0.0
 40
0.0
 40
0.2143221416805585
 40
0.2143221416805585
 40
0.2143221416805585
 40
0.4506526473156046
 40
0.4506526473156046
 40
0.4506526473156046
 40
0.6867271841400681
 40
0.6867271841400681
 40
0.6867271841400681
 40
0.9224042465114811
 40
0.9224042465114811
 40
0.9224042465114811
 40
1.0
 40
1.0
 40
1.0
 40
1.0
 10
-11.75
 20
3.330216861634331
 30
0.0
 10
-11.75
 20
3.343450132898414
 30
0.0
 10
-11.74761950614012
 20
3.356834236760198
 30
0.0
 10
-11.74301992161239
 20
3.369453758739179
 30
0.0
 10
-11.73794875997171
 20
3.383367110129436
 30
0.0
 10
-11.73003232363277
 20
3.396714461275435
 30
0.0
 10
-11.71992396643066
 20
3.408386423115851
 30
0.0
 10
-11.70982657109563
 20
3.420045727459935
 30
0.0
 10
-11.69726252886276
 20
3.430355401314909
 30
0.0
 10
-11.68327253624339
 20
3.438455864393302
 30
0.0
 10
-11.66930584049073
 20
3.446542838157318
 30
0.0
 10
-11.65353176122984
 20
3.452651296360892
 30
0.0
 10
-11.63725920497349
 20
3.45627117508928
 30
0.0
 10
-11.63186696245734
 20
3.457470695538004
 30
0.0
 10
-11.62638889607518
 20
3.458410920253005
 30
0.0
 10
-11.62087596514436
 20
3.459083046161087
 30
0.0
  0
SPLINE
  5
6A
330
1F
100
AcDbEntity
  8
SK1
  6
Continuous
100
AcDbSpline
210
0.0
220
0.0
230
1.0
 70
     8
 71
     3
 72
    14
 73
    10
 74
     0
 42
0.000000000742403
 43
0.0000000001
 12
1.0
 22
0.0
 32
0.0
 13
1.0
 23
0.0
 33
0.0
 40
0.0
 40
0.0
 40
0.0
 40
0.0
 40
0.1271987308326591
 40
0.1271987308326591
 40
0.1271987308326591
 40
0.6615805421185789
 40
0.6615805421185789
 40
0.6615805421185789
 40
1.0
 40
1.0
 40
1.0
 40
1.0
 10
-11.62087596514436
 20
3.459083046161087
 30
0.0
 10
-11.05396257553293
 20
3.528200033276039
 30
0.0
 10
-10.48704803663063
 20
3.59730995058394
 30
0.0
 10
-9.92013253875542
 20
3.666413967110282
 30
0.0
 10
-7.53843164918941
 20
3.95673077490657
 30
0.0
 10
-5.156714425642317
 20
4.246947085289468
 30
0.0
 10
-2.774988932298619
 20
4.537112469469276
 30
0.0
 10
-1.266662426659697
 20
4.72087174030064
 30
0.0
 10
0.2416675653829489
 20
4.904609548987565
 30
0.0
 10
1.749999999999996
 20
5.088332316596342
 30
0.0
  0
LINE
  5
6B
330
1F
100
AcDbEntity
  8
SK1
  6
Continuous
100
AcDbLine
 10
1.75
 20
5.0883323166
 30
0.0
 11
1.75
 21
4.8633323166
 31
0.0
  0
LINE
  5
6C
330
1F
100
AcDbEntity
  8
SK3
100
AcDbLine
 10
2.25
 20
3.9965031723
 30
0.0
 11
2.25
 21
2.918589013
 31
0.0
  0
SPLINE
  5
6D
330
1F
100
AcDbEntity
  8
SK1
  6
Continuous
100
AcDbSpline
210
0.0
220
0.0
230
1.0
 70
     8
 71
     3
 72
    23
 73
    19
 74
     0
 42
0.0000000678582138
 43
0.0000000001
 12
1.0
 22
0.0
 32
0.0
 13
1.0
 23
0.0
 33
0.0
 40
0.0
 40
0.0
 40
0.0
 40
0.0
 40
0.1608235623792043
 40
0.1608235623792043
 40
0.1608235623792043
 40
0.3761075724262296
 40
0.3761075724262296
 40
0.3761075724262296
 40
0.5912939433087809
 40
0.5912939433087809
 40
0.5912939433087809
 40
0.7249247848718562
 40
0.7249247848718562
 40
0.7249247848718562
 40
0.9395394096340067
 40
0.9395394096340067
 40
0.9395394096340067
 40
1.0
 40
1.0
 40
1.0
 40
1.0
 10
1.749999999999996
 20
4.083201024526894
 30
0.0
 10
1.749999999999994
 20
4.075937993116632
 30
0.0
 10
1.751069383816066
 20
4.06861840443947
 30
0.0
 10
1.753158358306657
 20
4.061584290106472
 30
0.0
 10
1.755952128261341
 20
4.052176948193082
 30
0.0
 10
1.760660198361018
 20
4.043057425607767
 30
0.0
 10
1.766893630402232
 20
4.034982143040831
 30
0.0
 10
1.773124198159315
 20
4.026910571094874
 30
0.0
 10
1.781050962048524
 20
4.019659431550018
 30
0.0
 10
1.790017668272894
 20
4.01383157695121
 30
0.0
 10
1.79563492429672
 20
4.010180676550105
 30
0.0
 10
1.801732145437994
 20
4.007027811982826
 30
0.0
 10
1.808108146210794
 20
4.004477477048817
 30
0.0
 10
1.81825944229864
 20
4.000417062698062
 30
0.0
 10
1.829359976559193
 20
3.997817893810306
 30
0.0
 10
1.840490940174894
 20
3.996896042067008
 30
0.0
 10
1.843649820248667
 20
3.996634427780642
 30
0.0
 10
1.846826708433324
 20
3.996503172293276
 30
0.0
 10
1.84999999999998
 20
3.996503172293113
 30
0.0
  0
LINE
  5
6E
330
1F
100
AcDbEntity
  8
SK1
  6
Continuous
100
AcDbLine
 10
1.85
 20
3.9965031723
 30
0.0
 11
2.25
 21
3.9965031723
 31
0.0
  0
LINE
  5
6F
330
1F
100
AcDbEntity
  8
SK3
100
AcDbLine
 10
2.237791134
 20
2.9123193092
 30
0.0
 11
-11.55
 21
2.9123193092
 31
0.0
  0
SPLINE
  5
70
330
1F
100
AcDbEntity
  8
SK1
  6
Continuous
100
AcDbSpline
210
0.0
220
0.0
230
1.0
 70
     8
 71
     3
 72
    20
 73
    16
 74
     0
 42
0.0000000499425596
 43
0.0000000001
 12
1.0
 22
0.0
 32
0.0
 13
1.0
 23
0.0
 33
0.0
 40
0.0
 40
0.0
 40
0.0
 40
0.0
 40
0.2143221416805585
 40
0.2143221416805585
 40
0.2143221416805585
 40
0.4506526473156046
 40
0.4506526473156046
 40
0.4506526473156046
 40
0.6867271841400681
 40
0.6867271841400681
 40
0.6867271841400681
 40
0.9224042465114811
 40
0.9224042465114811
 40
0.9224042465114811
 40
1.0
 40
1.0
 40
1.0
 40
1.0
 10
-11.75
 20
3.105216861634331
 30
0.0
 10
-11.75
 20
3.118450132898415
 30
0.0
 10
-11.74761950614012
 20
3.131834236760198
 30
0.0
 10
-11.74301992161239
 20
3.144453758739179
 30
0.0
 10
-11.73794875997171
 20
3.158367110129436
 30
0.0
 10
-11.73003232363277
 20
3.171714461275435
 30
0.0
 10
-11.71992396643066
 20
3.183386423115851
 30
0.0
 10
-11.70982657109563
 20
3.195045727459935
 30
0.0
 10
-11.69726252886276
 20
3.205355401314909
 30
0.0
 10
-11.68327253624339
 20
3.213455864393302
 30
0.0
 10
-11.66930584049073
 20
3.221542838157318
 30
0.0
 10
-11.65353176122984
 20
3.227651296360892
 30
0.0
 10
-11.63725920497349
 20
3.23127117508928
 30
0.0
 10
-11.63186696245734
 20
3.232470695538004
 30
0.0
 10
-11.62638889607518
 20
3.233410920253005
 30
0.0
 10
-11.62087596514436
 20
3.234083046161087
 30
0.0
  0
SPLINE
  5
71
330
1F
100
AcDbEntity
  8
SK1
  6
Continuous
100
AcDbSpline
210
0.0
220
0.0
230
1.0
 70
     8
 71
     3
 72
    14
 73
    10
 74
     0
 42
0.000000000742403
 43
0.0000000001
 12
1.0
 22
0.0
 32
0.0
 13
1.0
 23
0.0
 33
0.0
 40
0.0
 40
0.0
 40
0.0
 40
0.0
 40
0.1271987308326591
 40
0.1271987308326591
 40
0.1271987308326591
 40
0.6615805421185789
 40
0.6615805421185789
 40
0.6615805421185789
 40
1.0
 40
1.0
 40
1.0
 40
1.0
 10
-11.62087596514436
 20
3.234083046161087
 30
0.0
 10
-11.05396257553293
 20
3.303200033276039
 30
0.0
 10
-10.48704803663063
 20
3.37230995058394
 30
0.0
 10
-9.92013253875542
 20
3.441413967110282
 30
0.0
 10
-7.53843164918941
 20
3.73173077490657
 30
0.0
 10
-5.156714425642317
 20
4.021947085289467
 30
0.0
 10
-2.774988932298619
 20
4.312112469469276
 30
0.0
 10
-1.266662426659697
 20
4.49587174030064
 30
0.0
 10
0.2416675653829489
 20
4.679609548987565
 30
0.0
 10
1.749999999999996
 20
4.863332316596343
 30
0.0
  0
LINE
  5
72
330
1F
100
AcDbEntity
  8
SK1
  6
Continuous
100
AcDbLine
 10
1.75
 20
-5.7455960399
 30
0.0
 11
1.75
 21
-5.0883321171
 31
0.0
  0
LINE
  5
73
330
1F
100
AcDbEntity
  8
SK1
  6
Continuous
100
AcDbLine
 10
1.85
 20
-4.7446679603
 30
0.0
 11
1.85
 21
-4.2215029728
 31
0.0
  0
LINE
  5
74
330
1F
100
AcDbEntity
  8
SK1
  6
Continuous
100
AcDbLine
 10
3.65
 20
-4.7446679603
 30
0.0
 11
3.65
 21
-2.5671896461
 31
0.0
  0
LINE
  5
75
330
1F
100
AcDbEntity
  8
SK1
  6
Continuous
100
AcDbLine
 10
3.75
 20
-5.8456713758
 30
0.0
 11
3.75
 21
-3.1176913539
 31
0.0
  0
LINE
  5
76
330
1F
100
AcDbEntity
  8
SK1
  6
Continuous
100
AcDbLine
 10
6.125
 20
-4.4731378065
 30
0.0
 11
6.125
 21
-2.4314245692
 31
0.0
  0
LINE
  5
77
330
1F
100
AcDbEntity
  8
SK1
  6
Continuous
100
AcDbLine
 10
6.25
 20
-4.2563438034
 30
0.0
 11
6.25
 21
-2.3230275677
 31
0.0
  0
LINE
  5
78
330
1F
100
AcDbEntity
  8
SK1
  6
Continuous
100
AcDbLine
 10
-7.75
 20
-4.4148619706
 30
0.0
 11
-7.75
 21
-4.409124768
 31
0.0
  0
LINE
  5
79
330
1F
100
AcDbEntity
  8
SK3
100
AcDbLine
 10
6.05
 20
-3.4927602699
 30
0.0
 11
-7.7424857258
 21
-3.4927602699
 31
0.0
  0
LINE
  5
7A
330
1F
100
AcDbEntity
  8
SK3
100
AcDbLine
 10
-7.75
 20
-3.4999999002
 30
0.0
 11
-7.75
 21
-4.409124768
 31
0.0
  0
SPLINE
  5
7B
330
1F
100
AcDbEntity
  8
SK1
  6
Continuous
100
AcDbSpline
210
0.0
220
0.0
230
1.0
 70
     8
 71
     3
 72
    11
 73
     7
 74
     0
 42
0.0000000010423673
 43
0.0000000001
 12
1.0
 22
0.0
 32
0.0
 13
1.0
 23
0.0
 33
0.0
 40
0.0
 40
0.0
 40
0.0
 40
0.0
 40
0.8079120727779497
 40
0.8079120727779497
 40
0.8079120727779497
 40
1.0
 40
1.0
 40
1.0
 40
1.0
 10
-7.749999999999985
 20
-4.409124768047692
 30
0.0
 10
-5.191626778843251
 20
-4.769148534191459
 30
0.0
 10
-2.633238364670755
 20
-5.129064339796893
 30
0.0
 10
-0.0748422555455516
 20
-5.488925423735188
 30
0.0
 10
0.533438054111963
 20
-5.574485439555616
 30
0.0
 10
1.141718825728868
 20
-5.660042171170809
 30
0.0
 10
1.749999999999996
 20
-5.745596039882696
 30
0.0
  0
ARC
  5
7C
330
1F
100
AcDbEntity
  8
SK1
  6
Continuous
100
AcDbCircle
 10
1.8500558282
 20
-4.8447237876
 30
0.0
 40
0.1000558429346848
100
AcDbArc
 50
90.0319693736
 51
180.0310537552
  0
LINE
  5
7D
330
1F
100
AcDbEntity
  8
SK1
  6
Continuous
100
AcDbLine
 10
1.85
 20
-4.7446679603
 30
0.0
 11
3.65
 21
-4.7446679603
 31
0.0
  0
ARC
  5
7E
330
1F
100
AcDbEntity
  8
SK1
  6
Continuous
100
AcDbCircle
 10
3.6499459361
 20
-4.8447220252
 30
0.0
 40
0.1000540795545771
100
AcDbArc
 50
359.9679364557
 51
89.969040416
  0
LINE
  5
7F
330
1F
100
AcDbEntity
  8
SK1
  6
Continuous
100
AcDbLine
 10
3.75
 20
-5.8456713758
 30
0.0
 11
6.125
 21
-4.4731378065
 31
0.0
  0
ARC
  5
80
330
1F
100
AcDbEntity
  8
SK1
  6
Continuous
100
AcDbCircle
 10
5.9966226128
 20
-4.2546839165
 30
0.0
 40
0.2533828241668532
100
AcDbArc
 50
300.4412012849
 51
359.6246580894
  0
SPLINE
  5
81
330
1F
100
AcDbEntity
  8
SK3
100
AcDbSpline
210
0.0
220
0.0
230
1.0
 70
     8
 71
     3
 72
    10
 73
     6
 74
     0
 42
0.0000000310168799
 43
0.0000000001
 12
1.0
 22
0.0
 32
0.0
 13
1.0
 23
0.0
 33
0.0
 40
0.0
 40
0.0
 40
0.0
 40
0.0
 40
0.5
 40
0.5
 40
1.0
 40
1.0
 40
1.0
 40
1.0
 10
6.049999999999993
 20
-3.492760269908274
 30
0.0
 10
6.102913322921555
 20
-3.492760269908274
 30
0.0
 10
6.154658641807838
 20
-3.514561062420907
 30
0.0
 10
6.228417031941557
 20
-3.58858921422023
 30
0.0
 10
6.249999999999998
 20
-3.640903314300379
 30
0.0
 10
6.249999999999998
 20
-3.69315234766496
 30
0.0
  0
ARC
  5
82
330
1F
100
AcDbEntity
  8
SK3
100
AcDbCircle
 10
9.5993515729
 20
-21.4999999002
 30
0.0
 40
25.0
100
AcDbArc
 50
133.9216056943
 51
133.9455195623
  0
LINE
  5
83
330
1F
100
AcDbEntity
  8
SK1
  6
Continuous
100
AcDbLine
 10
-11.75
 20
-3.7223056211
 30
0.0
 11
-11.75
 21
-3.3302166621
 31
0.0
  0
LINE
  5
84
330
1F
100
AcDbEntity
  8
SK1
  6
Continuous
100
AcDbLine
 10
-11.6208759651
 20
-3.4590828466
 30
0.0
 11
-11.6208759651
 21
-3.8708458314
 31
0.0
  0
LINE
  5
85
330
1F
100
AcDbEntity
  8
SK1
  6
Continuous
100
AcDbLine
 10
1.75
 20
-2.6779422542
 30
0.0
 11
1.75
 21
-0.2249999002
 31
0.0
  0
LINE
  5
86
330
1F
100
AcDbEntity
  8
SK1
  6
Continuous
100
AcDbLine
 10
1.75
 20
-3.0676536859
 30
0.0
 11
1.75
 21
-2.6779422542
 31
0.0
  0
LINE
  5
87
330
1F
100
AcDbEntity
  8
SK1
  6
Continuous
100
AcDbLine
 10
1.85
 20
-2.1774782144
 30
0.0
 11
1.85
 21
-0.2249999002
 31
0.0
  0
LINE
  5
88
330
1F
100
AcDbEntity
  8
SK1
  6
Continuous
100
AcDbLine
 10
3.65
 20
-2.1774782144
 30
0.0
 11
3.65
 21
2.1774784139
 31
0.0
  0
LINE
  5
89
330
1F
100
AcDbEntity
  8
SK1
  6
Continuous
100
AcDbLine
 10
3.75
 20
-2.7279799222
 30
0.0
 11
3.75
 21
2.7279801217
 31
0.0
  0
LINE
  5
8A
330
1F
100
AcDbEntity
  8
SK1
  6
Continuous
100
AcDbLine
 10
6.125
 20
-2.0417131375
 30
0.0
 11
6.125
 21
2.041713337
 31
0.0
  0
LINE
  5
8B
330
1F
100
AcDbEntity
  8
SK1
  6
Continuous
100
AcDbLine
 10
6.25
 20
-1.933316136
 30
0.0
 11
6.25
 21
1.9333163355
 31
0.0
  0
LINE
  5
8C
330
1F
100
AcDbEntity
  8
SK1
  6
Continuous
100
AcDbLine
 10
-7.75
 20
-2.39941805
 30
0.0
 11
-7.75
 21
-2.0097066183
 31
0.0
  0
LINE
  5
8D
330
1F
100
AcDbEntity
  8
SK3
100
AcDbLine
 10
-7.7424857258
 20
-1.5515243692
 30
0.0
 11
-7.75
 21
-1.7499999002
 31
0.0
  0
LINE
  5
8E
330
1F
100
AcDbEntity
  8
SK3
100
AcDbLine
 10
-7.75
 20
-1.7499999002
 30
0.0
 11
-7.7424857258
 21
-1.9412358009
 31
0.0
  0
SPLINE
  5
8F
330
1F
100
AcDbEntity
  8
SK3
100
AcDbSpline
210
0.0
220
0.0
230
1.0
 70
     8
 71
     3
 72
    10
 73
     6
 74
     0
 42
0.0000000550421793
 43
0.0000000001
 12
1.0
 22
0.0
 32
0.0
 13
1.0
 23
0.0
 33
0.0
 40
0.0
 40
0.0
 40
0.0
 40
0.0
 40
0.7678732677081874
 40
0.7678732677081874
 40
1.0
 40
1.0
 40
1.0
 40
1.0
 10
6.049999999999993
 20
-1.94123580092028
 30
0.0
 10
6.102670265873415
 20
-1.94123580092028
 30
0.0
 10
6.15453991277622
 20
-1.952095870059546
 30
0.0
 10
6.202626647725525
 20
-1.976202122789527
 30
0.0
 10
6.21238945504788
 20
-1.982475857945934
 30
0.0
 10
6.220578880494146
 20
-1.989235216372447
 30
0.0
  0
SPLINE
  5
90
330
1F
100
AcDbEntity
  8
SK1
  6
Continuous
100
AcDbSpline
210
0.0
220
0.0
230
1.0
 70
     8
 71
     3
 72
     8
 73
     4
 74
     0
 42
0.0000001564279811
 43
0.0000000001
 12
1.0
 22
0.0
 32
0.0
 13
1.0
 23
0.0
 33
0.0
 40
0.0
 40
0.0
 40
0.0
 40
0.0
 40
1.0
 40
1.0
 40
1.0
 40
1.0
 10
6.220578880494146
 20
-1.989235216372447
 30
0.0
 10
6.239480005179653
 20
-2.004835758468088
 30
0.0
 10
6.249999999999996
 20
-2.023023130725022
 30
0.0
 10
6.249999999999998
 20
-2.041431839798622
 30
0.0
  0
LINE
  5
91
330
1F
100
AcDbEntity
  8
SK3
100
AcDbLine
 10
6.05
 20
-1.5515243692
 30
0.0
 11
-7.7424857258
 21
-1.5515243692
 31
0.0
  0
LINE
  5
92
330
1F
100
AcDbEntity
  8
SK3
100
AcDbLine
 10
-7.75
 20
-1.5551441844
 30
0.0
 11
-7.75
 21
-2.0097066183
 31
0.0
  0
LINE
  5
93
330
1F
100
AcDbEntity
  8
SK1
  6
Continuous
100
AcDbLine
 10
-7.75
 20
-2.0097066183
 30
0.0
 11
1.75
 21
-2.6779422542
 31
0.0
  0
SPLINE
  5
94
330
1F
100
AcDbEntity
  8
SK1
  6
Continuous
100
AcDbSpline
210
0.0
220
0.0
230
1.0
 70
     8
 71
     3
 72
    26
 73
    22
 74
     0
 42
0.0000000822083624
 43
0.0000000001
 12
1.0
 22
0.0
 32
0.0
 13
1.0
 23
0.0
 33
0.0
 40
0.0
 40
0.0
 40
0.0
 40
0.0
 40
0.0024189331459461
 40
0.0024189331459461
 40
0.0024189331459461
 40
0.2176916854184127
 40
0.2176916854184127
 40
0.2176916854184127
 40
0.3516093639441813
 40
0.3516093639441813
 40
0.3516093639441813
 40
0.5665484648128237
 40
0.5665484648128237
 40
0.5665484648128237
 40
0.781499253577765
 40
0.781499253577765
 40
0.781499253577765
 40
0.9962810916362098
 40
0.9962810916362098
 40
0.9962810916362098
 40
1.0
 40
1.0
 40
1.0
 40
1.0
 10
1.749999999999996
 20
-2.227533242724946
 30
0.0
 10
1.749999999999996
 20
-2.227469347466675
 30
0.0
 10
1.750000244429936
 20
-2.227405452091523
 30
0.0
 10
1.750000733287021
 20
-2.227341557300779
 30
0.0
 10
1.7500436355767
 20
-2.221734125383924
 30
0.0
 10
1.75202301066509
 20
-2.216053046108342
 30
0.0
 10
1.755775541582545
 20
-2.210768788281346
 30
0.0
 10
1.758130354299578
 20
-2.20745277628709
 30
0.0
 10
1.761204748798124
 20
-2.204243936726446
 30
0.0
 10
1.76489745835397
 20
-2.201248407505563
 30
0.0
 10
1.770772997755262
 20
-2.196482164805226
 30
0.0
 10
1.778374024813002
 20
-2.192156941247227
 30
0.0
 10
1.787072949243515
 20
-2.188631357787626
 30
0.0
 10
1.795772155791237
 20
-2.185105659988859
 30
0.0
 10
1.805809533366219
 20
-2.182282466420898
 30
0.0
 10
1.816353436858123
 20
-2.18039669909788
 30
0.0
 10
1.826889144637916
 20
-2.178512397570344
 30
0.0
 10
1.838221442296233
 20
-2.177512091187331
 30
0.0
 10
1.849410684871502
 20
-2.17747908361375
 30
0.0
 10
1.849607120683636
 20
-2.177478504140252
 30
0.0
 10
1.849803560769253
 20
-2.177478214399704
 30
0.0
 10
1.850000000000177
 20
-2.177478214399705
 30
0.0
  0
LINE
  5
95
330
1F
100
AcDbEntity
  8
SK1
  6
Continuous
100
AcDbLine
 10
1.85
 20
-2.1774782144
 30
0.0
 11
3.65
 21
-2.1774782144
 31
0.0
  0
SPLINE
  5
96
330
1F
100
AcDbEntity
  8
SK1
  6
Continuous
100
AcDbSpline
210
0.0
220
0.0
230
1.0
 70
     8
 71
     3
 72
    23
 73
    19
 74
     0
 42
0.0000000822511753
 43
0.0000000001
 12
1.0
 22
0.0
 32
0.0
 13
1.0
 23
0.0
 33
0.0
 40
0.0
 40
0.0
 40
0.0
 40
0.0
 40
0.1762408865270298
 40
0.1762408865270298
 40
0.1762408865270298
 40
0.3908346224316117
 40
0.3908346224316117
 40
0.3908346224316117
 40
0.6055493281791205
 40
0.6055493281791205
 40
0.6055493281791205
 40
0.7386809412644554
 40
0.7386809412644554
 40
0.7386809412644554
 40
0.9539493899899645
 40
0.9539493899899645
 40
0.9539493899899645
 40
1.0
 40
1.0
 40
1.0
 40
1.0
 10
3.649999999999995
 20
-2.177478214399704
 30
0.0
 10
3.659186326927574
 20
-2.177478214399704
 30
0.0
 10
3.668458765568134
 20
-2.17812397943124
 30
0.0
 10
3.677295518728275
 20
-2.179379008913672
 30
0.0
 10
3.688050515681577
 20
-2.180906474716466
 30
0.0
 10
3.698426193054507
 20
-2.183383204233845
 30
0.0
 10
3.707565027737675
 20
-2.186603618307148
 30
0.0
 10
3.716709049018713
 20
-2.189825860074392
 30
0.0
 10
3.724866765503118
 20
-2.193881301366287
 30
0.0
 10
3.731365446568494
 20
-2.198434092752484
 30
0.0
 10
3.735430238718149
 20
-2.201281770688892
 30
0.0
 10
3.738913486970233
 20
-2.204360371865994
 30
0.0
 10
3.741701702968601
 20
-2.207569167016997
 30
0.0
 10
3.746170720375381
 20
-2.212712298464851
 30
0.0
 10
3.748924895401169
 20
-2.218312233539582
 30
0.0
 10
3.749736950710434
 20
-2.223905083598283
 30
0.0
 10
3.749912202002756
 20
-2.225112087837241
 30
0.0
 10
3.749999999999996
 20
-2.226323061958807
 30
0.0
 10
3.750000000000007
 20
-2.227533242724946
 30
0.0
  0
SPLINE
  5
97
330
1F
100
AcDbEntity
  8
SK1
  6
Continuous
100
AcDbSpline
210
0.0
220
0.0
230
1.0
 70
     8
 71
     3
 72
     8
 73
     4
 74
     0
 42
0.0000000040450416
 43
0.0000000001
 12
1.0
 22
0.0
 32
0.0
 13
1.0
 23
0.0
 33
0.0
 40
0.0
 40
0.0
 40
0.0
 40
0.0
 40
1.0
 40
1.0
 40
1.0
 40
1.0
 10
3.749999999999997
 20
-2.727979922150276
 30
0.0
 10
4.541711652869766
 20
-2.499263222432343
 30
0.0
 10
5.333392151072022
 20
-2.270519545120108
 30
0.0
 10
6.124999999999998
 20
-2.041713137496983
 30
0.0
  0
SPLINE
  5
98
330
1F
100
AcDbEntity
  8
SK1
  6
Continuous
100
AcDbSpline
210
0.0
220
0.0
230
1.0
 70
     8
 71
     3
 72
    10
 73
     6
 74
     0
 42
0.0000000557548262
 43
0.0000000001
 12
1.0
 22
0.0
 32
0.0
 13
1.0
 23
0.0
 33
0.0
 40
0.0
 40
0.0
 40
0.0
 40
0.0
 40
0.5
 40
0.5
 40
1.0
 40
1.0
 40
1.0
 40
1.0
 10
6.124999999999998
 20
-2.041713137496983
 30
0.0
 10
6.162588024093597
 20
-2.030848691453207
 30
0.0
 10
6.19495427788324
 20
-2.014625590352286
 30
0.0
 10
6.23826279691328
 20
-1.976998835471863
 30
0.0
 10
6.249999999999998
 20
-1.955309136127554
 30
0.0
 10
6.249999999999998
 20
-1.933316135968945
 30
0.0
  0
LINE
  5
99
330
1F
100
AcDbEntity
  8
SK3
100
AcDbLine
 10
-7.7424857258
 20
-1.9412358009
 30
0.0
 11
-7.75
 21
-1.9448556161
 31
0.0
  0
LINE
  5
9A
330
1F
100
AcDbEntity
  8
SK3
100
AcDbLine
 10
6.05
 20
-1.9412358009
 30
0.0
 11
-7.7424857258
 21
-1.9412358009
 31
0.0
  0
LINE
  5
9B
330
1F
100
AcDbEntity
  8
SK1
  6
Continuous
100
AcDbLine
 10
-7.75
 20
-2.39941805
 30
0.0
 11
1.75
 21
-3.0676536859
 31
0.0
  0
SPLINE
  5
9C
330
1F
100
AcDbEntity
  8
SK1
  6
Continuous
100
AcDbSpline
210
0.0
220
0.0
230
1.0
 70
     8
 71
     3
 72
    26
 73
    22
 74
     0
 42
0.0000000822083624
 43
0.0000000001
 12
1.0
 22
0.0
 32
0.0
 13
1.0
 23
0.0
 33
0.0
 40
0.0
 40
0.0
 40
0.0
 40
0.0
 40
0.0024189331459405
 40
0.0024189331459405
 40
0.0024189331459405
 40
0.2176916854184049
 40
0.2176916854184049
 40
0.2176916854184049
 40
0.3516093639441873
 40
0.3516093639441873
 40
0.3516093639441873
 40
0.5665484648128221
 40
0.5665484648128221
 40
0.5665484648128221
 40
0.7814992535777637
 40
0.7814992535777637
 40
0.7814992535777637
 40
0.9962810916362015
 40
0.9962810916362015
 40
0.9962810916362015
 40
1.0
 40
1.0
 40
1.0
 40
1.0
 10
1.749999999999996
 20
-2.617244674427944
 30
0.0
 10
1.749999999999996
 20
-2.617180779169673
 30
0.0
 10
1.750000244429936
 20
-2.617116883794521
 30
0.0
 10
1.750000733287021
 20
-2.617052989003777
 30
0.0
 10
1.7500436355767
 20
-2.611445557086923
 30
0.0
 10
1.75202301066509
 20
-2.60576447781134
 30
0.0
 10
1.755775541582544
 20
-2.600480219984344
 30
0.0
 10
1.758130354299577
 20
-2.597164207990088
 30
0.0
 10
1.761204748798123
 20
-2.593955368429443
 30
0.0
 10
1.76489745835397
 20
-2.59095983920856
 30
0.0
 10
1.770772997755261
 20
-2.586193596508223
 30
0.0
 10
1.778374024813002
 20
-2.581868372950225
 30
0.0
 10
1.787072949243514
 20
-2.578342789490624
 30
0.0
 10
1.795772155791237
 20
-2.574817091691857
 30
0.0
 10
1.805809533366218
 20
-2.571993898123896
 30
0.0
 10
1.816353436858123
 20
-2.570108130800878
 30
0.0
 10
1.826889144637915
 20
-2.568223829273342
 30
0.0
 10
1.838221442296232
 20
-2.567223522890328
 30
0.0
 10
1.849410684871502
 20
-2.567190515316746
 30
0.0
 10
1.849607120683635
 20
-2.56718993584325
 30
0.0
 10
1.849803560769252
 20
-2.567189646102703
 30
0.0
 10
1.850000000000177
 20
-2.567189646102703
 30
0.0
  0
LINE
  5
9D
330
1F
100
AcDbEntity
  8
SK1
  6
Continuous
100
AcDbLine
 10
1.85
 20
-2.5671896461
 30
0.0
 11
3.65
 21
-2.5671896461
 31
0.0
  0
SPLINE
  5
9E
330
1F
100
AcDbEntity
  8
SK1
  6
Continuous
100
AcDbSpline
210
0.0
220
0.0
230
1.0
 70
     8
 71
     3
 72
    23
 73
    19
 74
     0
 42
0.0000000822511753
 43
0.0000000001
 12
1.0
 22
0.0
 32
0.0
 13
1.0
 23
0.0
 33
0.0
 40
0.0
 40
0.0
 40
0.0
 40
0.0
 40
0.1762408865270105
 40
0.1762408865270105
 40
0.1762408865270105
 40
0.390834622431593
 40
0.390834622431593
 40
0.390834622431593
 40
0.6055493281790894
 40
0.6055493281790894
 40
0.6055493281790894
 40
0.7386809412644543
 40
0.7386809412644543
 40
0.7386809412644543
 40
0.9539493899899536
 40
0.9539493899899536
 40
0.9539493899899536
 40
1.0
 40
1.0
 40
1.0
 40
1.0
 10
3.649999999999995
 20
-2.567189646102703
 30
0.0
 10
3.659186326927572
 20
-2.567189646102702
 30
0.0
 10
3.668458765568132
 20
-2.567835411134237
 30
0.0
 10
3.677295518728272
 20
-2.569090440616669
 30
0.0
 10
3.688050515681575
 20
-2.570617906419463
 30
0.0
 10
3.698426193054506
 20
-2.573094635936841
 30
0.0
 10
3.707565027737673
 20
-2.576315050010145
 30
0.0
 10
3.71670904901871
 20
-2.579537291777389
 30
0.0
 10
3.724866765503115
 20
-2.583592733069283
 30
0.0
 10
3.731365446568491
 20
-2.588145524455479
 30
0.0
 10
3.735430238718147
 20
-2.590993202391889
 30
0.0
 10
3.738913486970231
 20
-2.594071803568991
 30
0.0
 10
3.741701702968601
 20
-2.597280598719994
 30
0.0
 10
3.746170720375381
 20
-2.602423730167848
 30
0.0
 10
3.748924895401169
 20
-2.608023665242579
 30
0.0
 10
3.749736950710434
 20
-2.613616515301279
 30
0.0
 10
3.749912202002756
 20
-2.614823519540239
 30
0.0
 10
3.749999999999996
 20
-2.616034493661805
 30
0.0
 10
3.750000000000007
 20
-2.617244674427944
 30
0.0
  0
LINE
  5
9F
330
1F
100
AcDbEntity
  8
SK1
  6
Continuous
100
AcDbLine
 10
3.75
 20
-2.7279799222
 30
0.0
 11
3.75
 21
-3.1176913539
 31
0.0
  0
SPLINE
  5
A0
330
1F
100
AcDbEntity
  8
SK1
  6
Continuous
100
AcDbSpline
210
0.0
220
0.0
230
1.0
 70
     8
 71
     3
 72
     8
 73
     4
 74
     0
 42
0.0000000040450416
 43
0.0000000001
 12
1.0
 22
0.0
 32
0.0
 13
1.0
 23
0.0
 33
0.0
 40
0.0
 40
0.0
 40
0.0
 40
0.0
 40
1.0
 40
1.0
 40
1.0
 40
1.0
 10
3.749999999999997
 20
-3.117691353853273
 30
0.0
 10
4.541711652869765
 20
-2.888974654135341
 30
0.0
 10
5.333392151072022
 20
-2.660230976823105
 30
0.0
 10
6.124999999999998
 20
-2.43142456919998
 30
0.0
  0
SPLINE
  5
A1
330
1F
100
AcDbEntity
  8
SK1
  6
Continuous
100
AcDbSpline
210
0.0
220
0.0
230
1.0
 70
     8
 71
     3
 72
    10
 73
     6
 74
     0
 42
0.0000000557548262
 43
0.0000000001
 12
1.0
 22
0.0
 32
0.0
 13
1.0
 23
0.0
 33
0.0
 40
0.0
 40
0.0
 40
0.0
 40
0.0
 40
0.5
 40
0.5
 40
1.0
 40
1.0
 40
1.0
 40
1.0
 10
6.124999999999998
 20
-2.43142456919998
 30
0.0
 10
6.162588024093597
 20
-2.420560123156204
 30
0.0
 10
6.19495427788324
 20
-2.404337022055283
 30
0.0
 10
6.23826279691328
 20
-2.366710267174861
 30
0.0
 10
6.249999999999998
 20
-2.345020567830551
 30
0.0
 10
6.249999999999998
 20
-2.323027567671943
 30
0.0
  0
LINE
  5
A2
330
1F
100
AcDbEntity
  8
SK1
  6
Continuous
100
AcDbLine
 10
6.25
 20
-2.3230275677
 30
0.0
 11
6.25
 21
-2.0414318398
 31
0.0
  0
SPLINE
  5
A3
330
1F
100
AcDbEntity
  8
SK3
100
AcDbSpline
210
0.0
220
0.0
230
1.0
 70
     8
 71
     3
 72
    10
 73
     6
 74
     0
 42
0.0000000402554651
 43
0.0000000001
 12
1.0
 22
0.0
 32
0.0
 13
1.0
 23
0.0
 33
0.0
 40
0.0
 40
0.0
 40
0.0
 40
0.0
 40
0.5
 40
0.5
 40
1.0
 40
1.0
 40
1.0
 40
1.0
 10
6.049999999999993
 20
-1.551524369217282
 30
0.0
 10
6.102670265873415
 20
-1.551524369217281
 30
0.0
 10
6.15453991277622
 20
-1.562384438356548
 30
0.0
 10
6.228388949374102
 20
-1.599405532468487
 30
0.0
 10
6.249999999999996
 20
-1.625335626008982
 30
0.0
 10
6.249999999999998
 20
-1.651720408095625
 30
0.0
  0
LINE
  5
A4
330
1F
100
AcDbEntity
  8
SK3
100
AcDbLine
 10
-7.7424857258
 20
-1.5515243692
 30
0.0
 11
-7.75
 21
-1.5551441844
 31
0.0
  0
SPLINE
  5
A5
330
1F
100
AcDbEntity
  8
SK3
100
AcDbSpline
210
0.0
220
0.0
230
1.0
 70
     8
 71
     3
 72
    10
 73
     6
 74
     0
 42
0.0000000331972047
 43
0.0000000001
 12
1.0
 22
0.0
 32
0.0
 13
1.0
 23
0.0
 33
0.0
 40
0.0
 40
0.0
 40
0.0
 40
0.0
 40
0.5
 40
0.5
 40
1.0
 40
1.0
 40
1.0
 40
1.0
 10
-11.75000000000001
 20
-3.085863739757257
 30
0.0
 10
-11.75000000000001
 20
-3.040652690121955
 30
0.0
 10
-11.72883011715382
 20
-2.995670848446703
 30
0.0
 10
-11.65425596711887
 20
-2.930846760374487
 30
0.0
 10
-11.60287507476884
 20
-2.912319109702131
 30
0.0
 10
-11.55
 20
-2.912319109702821
 30
0.0
  0
SPLINE
  5
A6
330
1F
100
AcDbEntity
  8
SK1
  6
Continuous
100
AcDbSpline
210
0.0
220
0.0
230
1.0
 70
     8
 71
     3
 72
     8
 73
     4
 74
     0
 42
0.0000000788878658
 43
0.0000000001
 12
1.0
 22
0.0
 32
0.0
 13
1.0
 23
0.0
 33
0.0
 40
0.0
 40
0.0
 40
0.0
 40
0.0
 40
0.9999999999999999
 40
0.9999999999999999
 40
0.9999999999999999
 40
0.9999999999999999
 10
-11.75000000000214
 20
-3.310863739757044
 30
0.0
 10
-11.75000000000016
 20
-3.270668936590857
 30
0.0
 10
-11.73326718199687
 20
-3.230655300940364
 30
0.0
 10
-11.70335212074479
 20
-3.199494684890547
 30
0.0
  0
SPLINE
  5
A7
330
1F
100
AcDbEntity
  8
SK3
100
AcDbSpline
210
0.0
220
0.0
230
1.0
 70
     8
 71
     3
 72
    10
 73
     6
 74
     0
 42
0.0000000577330981
 43
0.0000000001
 12
1.0
 22
0.0
 32
0.0
 13
1.0
 23
0.0
 33
0.0
 40
0.0
 40
0.0
 40
0.0
 40
0.0
 40
0.099870923944003
 40
0.099870923944003
 40
1.0
 40
1.0
 40
1.0
 40
1.0
 10
-11.70335212074479
 20
-3.199494684890547
 30
0.0
 10
-11.69961876945158
 20
-3.195605890371745
 30
0.0
 10
-11.69568010951047
 20
-3.191854978415856
 30
0.0
 10
-11.65425596711875
 20
-3.155846760374437
 30
0.0
 10
-11.60287507476878
 20
-3.13731910970213
 30
0.0
 10
-11.55
 20
-3.13731910970282
 30
0.0
  0
LINE
  5
A8
330
1F
100
AcDbEntity
  8
SK1
  6
Continuous
100
AcDbLine
 10
-11.75
 20
-3.1052166621
 30
0.0
 11
-11.75
 21
-0.2249999002
 31
0.0
  0
LINE
  5
A9
330
1F
100
AcDbEntity
  8
SK1
  6
Continuous
100
AcDbLine
 10
-11.6208759651
 20
-3.2340828466
 30
0.0
 11
-11.6208759651
 21
-0.2249999002
 31
0.0
  0
LINE
  5
AA
330
1F
100
AcDbEntity
  8
SK1
  6
Continuous
100
AcDbLine
 10
1.75
 20
-4.8633321171
 30
0.0
 11
1.75
 21
-3.0676536859
 31
0.0
  0
LINE
  5
AB
330
1F
100
AcDbEntity
  8
SK1
  6
Continuous
100
AcDbLine
 10
1.85
 20
-3.9965029728
 30
0.0
 11
1.85
 21
-2.5671896461
 31
0.0
  0
LINE
  5
AC
330
1F
100
AcDbEntity
  8
SK1
  6
Continuous
100
AcDbLine
 10
2.25
 20
-3.9965029728
 30
0.0
 11
2.25
 21
-4.2215029728
 31
0.0
  0
LINE
  5
AD
330
1F
100
AcDbEntity
  8
SK3
100
AcDbLine
 10
2.25
 20
-3.0310888135
 30
0.0
 11
2.237791134
 21
-2.9123191097
 31
0.0
  0
LINE
  5
AE
330
1F
100
AcDbEntity
  8
SK3
100
AcDbLine
 10
2.237791134
 20
-3.1373191097
 30
0.0
 11
2.25
 21
-3.0310888135
 31
0.0
  0
LINE
  5
AF
330
1F
100
AcDbEntity
  8
SK3
100
AcDbLine
 10
2.25
 20
-3.1435888135
 30
0.0
 11
2.237791134
 21
-3.1373191097
 31
0.0
  0
SPLINE
  5
B0
330
1F
100
AcDbEntity
  8
SK1
  6
Continuous
100
AcDbSpline
210
0.0
220
0.0
230
1.0
 70
     8
 71
     3
 72
    23
 73
    19
 74
     0
 42
0.0000000678341421
 43
0.0000000001
 12
1.0
 22
0.0
 32
0.0
 13
1.0
 23
0.0
 33
0.0
 40
0.0
 40
0.0
 40
0.0
 40
0.0
 40
0.0720086882387763
 40
0.0720086882387763
 40
0.0720086882387763
 40
0.2872784282794151
 40
0.2872784282794151
 40
0.2872784282794151
 40
0.5025124564906194
 40
0.5025124564906194
 40
0.5025124564906194
 40
0.7175730678404205
 40
0.7175730678404205
 40
0.7175730678404205
 40
0.9323973733037862
 40
0.9323973733037862
 40
0.9323973733037862
 40
1.0
 40
1.0
 40
1.0
 40
1.0
 10
1.749999999999996
 20
-4.083200824985497
 30
0.0
 10
1.749999999999993
 20
-4.079931098689905
 30
0.0
 10
1.750214042480758
 20
-4.076656163712418
 30
0.0
 10
1.750640087238003
 20
-4.073407321696144
 30
0.0
 10
1.751905735756632
 20
-4.063756006863048
 30
0.0
 10
1.755112844441752
 20
-4.054160698088926
 30
0.0
 10
1.759996682042964
 20
-4.045416535730483
 30
0.0
 10
1.76487965611023
 20
-4.036673919467888
 30
0.0
 10
1.771573755956265
 20
-4.028540797321661
 30
0.0
 10
1.779525260096764
 20
-4.021692724428584
 30
0.0
 10
1.787470373640711
 20
-4.014850155308159
 30
0.0
 10
1.796890458547652
 20
-4.009101660560279
 30
0.0
 10
1.807004840077395
 20
-4.004925676988644
 30
0.0
 10
1.817108255387802
 20
-4.000754221103816
 30
0.0
 10
1.828183491965883
 20
-3.998036746839587
 30
0.0
 10
1.839312109219671
 20
-3.996999585611021
 30
0.0
 10
1.842859382110723
 20
-3.996668988033097
 30
0.0
 10
1.846432245620987
 20
-3.996502972750397
 30
0.0
 10
1.849999999999997
 20
-3.99650297275188
 30
0.0
  0
LINE
  5
B1
330
1F
100
AcDbEntity
  8
SK1
  6
Continuous
100
AcDbLine
 10
1.85
 20
-3.9965029728
 30
0.0
 11
2.25
 21
-3.9965029728
 31
0.0
  0
LINE
  5
B2
330
1F
100
AcDbEntity
  8
SK3
100
AcDbLine
 10
2.25
 20
-2.9185888135
 30
0.0
 11
2.237791134
 21
-2.9123191097
 31
0.0
  0
LINE
  5
B3
330
1F
100
AcDbEntity
  8
SK3
100
AcDbLine
 10
2.237791134
 20
-2.9123191097
 30
0.0
 11
-11.55
 21
-2.9123191097
 31
0.0
  0
SPLINE
  5
B4
330
1F
100
AcDbEntity
  8
SK1
  6
Continuous
100
AcDbSpline
210
0.0
220
0.0
230
1.0
 70
     8
 71
     3
 72
    20
 73
    16
 74
     0
 42
0.0000000499573342
 43
0.0000000001
 12
1.0
 22
0.0
 32
0.0
 13
1.0
 23
0.0
 33
0.0
 40
0.0
 40
0.0
 40
0.0
 40
0.0
 40
0.1776519946309897
 40
0.1776519946309897
 40
0.1776519946309897
 40
0.4141434230270409
 40
0.4141434230270409
 40
0.4141434230270409
 40
0.6504139301390691
 40
0.6504139301390691
 40
0.6504139301390691
 40
0.8862980167276281
 40
0.8862980167276281
 40
0.8862980167276281
 40
1.0
 40
1.0
 40
1.0
 40
1.0
 10
-11.75
 20
-3.105216662092932
 30
0.0
 10
-11.75000000000001
 20
-3.116187510210278
 30
0.0
 10
-11.74837556872581
 20
-3.127244761462612
 30
0.0
 10
-11.74520275675311
 20
-3.137865941084165
 30
0.0
 10
-11.74098293364231
 20
-3.151992053698699
 30
0.0
 10
-11.73388751193633
 20
-3.165682455597212
 30
0.0
 10
-11.72450168754164
 20
-3.177799879549414
 30
0.0
 10
-11.71512467555996
 20
-3.1899059263716
 30
0.0
 10
-11.70320199158509
 20
-3.200776416578261
 30
0.0
 10
-11.68972075048599
 20
-3.209505376353642
 30
0.0
 10
-11.67626134541787
 20
-3.218220197531936
 30
0.0
 10
-11.66087620454714
 20
-3.225041125938292
 30
0.0
 10
-11.64484179640474
 20
-3.229398661182285
 30
0.0
 10
-11.6370279526307
 20
-3.231522163299357
 30
0.0
 10
-11.62898553506949
 20
-3.233094143498739
 30
0.0
 10
-11.62087596514402
 20
-3.234082846618538
 30
0.0
  0
SPLINE
  5
B5
330
1F
100
AcDbEntity
  8
SK1
  6
Continuous
100
AcDbSpline
210
0.0
220
0.0
230
1.0
 70
     8
 71
     3
 72
    11
 73
     7
 74
     0
 42
0.000000000742403
 43
0.0000000001
 12
1.0
 22
0.0
 32
0.0
 13
1.0
 23
0.0
 33
0.0
 40
0.0
 40
0.0
 40
0.0
 40
0.0
 40
0.5032843494600334
 40
0.5032843494600334
 40
0.5032843494600334
 40
1.0
 40
1.0
 40
1.0
 40
1.0
 10
-11.62087596514402
 20
-3.234082846618538
 30
0.0
 10
-9.377782544733183
 20
-3.507556470420415
 30
0.0
 10
-7.134671770311108
 20
-3.780923341765325
 30
0.0
 10
-4.891552212342368
 20
-4.054236127647554
 30
0.0
 10
-2.677709099409052
 20
-4.32398172660703
 30
0.0
 10
-0.4638571211959398
 20
-4.593672758108795
 30
0.0
 10
1.749999999999996
 20
-4.863332117054946
 30
0.0
  0
SPLINE
  5
B6
330
1F
100
AcDbEntity
  8
SK1
  6
Continuous
100
AcDbSpline
210
0.0
220
0.0
230
1.0
 70
     8
 71
     3
 72
    23
 73
    19
 74
     0
 42
0.0000000678341421
 43
0.0000000001
 12
1.0
 22
0.0
 32
0.0
 13
1.0
 23
0.0
 33
0.0
 40
0.0
 40
0.0
 40
0.0
 40
0.0
 40
0.0720086882387717
 40
0.0720086882387717
 40
0.0720086882387717
 40
0.2872784282794126
 40
0.2872784282794126
 40
0.2872784282794126
 40
0.5025124564906129
 40
0.5025124564906129
 40
0.5025124564906129
 40
0.7175730678404166
 40
0.7175730678404166
 40
0.7175730678404166
 40
0.9323973733037776
 40
0.9323973733037776
 40
0.9323973733037776
 40
1.0
 40
1.0
 40
1.0
 40
1.0
 10
1.749999999999996
 20
-4.308200824985497
 30
0.0
 10
1.749999999999993
 20
-4.304931098689905
 30
0.0
 10
1.750214042480758
 20
-4.301656163712418
 30
0.0
 10
1.750640087238003
 20
-4.298407321696144
 30
0.0
 10
1.751905735756632
 20
-4.288756006863048
 30
0.0
 10
1.755112844441751
 20
-4.279160698088925
 30
0.0
 10
1.759996682042964
 20
-4.270416535730482
 30
0.0
 10
1.764879656110229
 20
-4.261673919467887
 30
0.0
 10
1.771573755956265
 20
-4.253540797321662
 30
0.0
 10
1.779525260096764
 20
-4.246692724428586
 30
0.0
 10
1.787470373640711
 20
-4.239850155308161
 30
0.0
 10
1.796890458547652
 20
-4.234101660560279
 30
0.0
 10
1.807004840077394
 20
-4.229925676988644
 30
0.0
 10
1.817108255387801
 20
-4.225754221103815
 30
0.0
 10
1.828183491965883
 20
-4.223036746839585
 30
0.0
 10
1.839312109219669
 20
-4.22199958561102
 30
0.0
 10
1.842859382110722
 20
-4.221668988033095
 30
0.0
 10
1.846432245620987
 20
-4.221502972750398
 30
0.0
 10
1.849999999999997
 20
-4.22150297275188
 30
0.0
  0
LINE
  5
B7
330
1F
100
AcDbEntity
  8
SK1
  6
Continuous
100
AcDbLine
 10
1.85
 20
-4.2215029728
 30
0.0
 11
2.25
 21
-4.2215029728
 31
0.0
  0
LINE
  5
B8
330
1F
100
AcDbEntity
  8
SK3
100
AcDbLine
 10
2.237791134
 20
-3.1373191097
 30
0.0
 11
-11.55
 21
-3.1373191097
 31
0.0
  0
LINE
  5
B9
330
1F
100
AcDbEntity
  8
SK1
  6
Continuous
100
AcDbLine
 10
-11.75
 20
-3.3108637398
 30
0.0
 11
-11.75
 21
-3.3302166621
 31
0.0
  0
SPLINE
  5
BA
330
1F
100
AcDbEntity
  8
SK1
  6
Continuous
100
AcDbSpline
210
0.0
220
0.0
230
1.0
 70
     8
 71
     3
 72
    20
 73
    16
 74
     0
 42
0.0000000499573342
 43
0.0000000001
 12
1.0
 22
0.0
 32
0.0
 13
1.0
 23
0.0
 33
0.0
 40
0.0
 40
0.0
 40
0.0
 40
0.0
 40
0.1776519946309892
 40
0.1776519946309892
 40
0.1776519946309892
 40
0.4141434230270347
 40
0.4141434230270347
 40
0.4141434230270347
 40
0.6504139301390683
 40
0.6504139301390683
 40
0.6504139301390683
 40
0.8862980167276281
 40
0.8862980167276281
 40
0.8862980167276281
 40
1.0
 40
1.0
 40
1.0
 40
1.0
 10
-11.75
 20
-3.330216662092933
 30
0.0
 10
-11.75000000000001
 20
-3.341187510210277
 30
0.0
 10
-11.74837556872581
 20
-3.35224476146261
 30
0.0
 10
-11.74520275675311
 20
-3.362865941084163
 30
0.0
 10
-11.74098293364231
 20
-3.376992053698698
 30
0.0
 10
-11.73388751193633
 20
-3.390682455597211
 30
0.0
 10
-11.72450168754164
 20
-3.402799879549415
 30
0.0
 10
-11.71512467555996
 20
-3.4149059263716
 30
0.0
 10
-11.70320199158509
 20
-3.42577641657826
 30
0.0
 10
-11.68972075048599
 20
-3.434505376353641
 30
0.0
 10
-11.67626134541787
 20
-3.443220197531935
 30
0.0
 10
-11.66087620454714
 20
-3.450041125938293
 30
0.0
 10
-11.64484179640474
 20
-3.454398661182285
 30
0.0
 10
-11.6370279526307
 20
-3.456522163299357
 30
0.0
 10
-11.62898553506949
 20
-3.458094143498739
 30
0.0
 10
-11.62087596514402
 20
-3.459082846618538
 30
0.0
  0
SPLINE
  5
BB
330
1F
100
AcDbEntity
  8
SK1
  6
Continuous
100
AcDbSpline
210
0.0
220
0.0
230
1.0
 70
     8
 71
     3
 72
    11
 73
     7
 74
     0
 42
0.000000000742403
 43
0.0000000001
 12
1.0
 22
0.0
 32
0.0
 13
1.0
 23
0.0
 33
0.0
 40
0.0
 40
0.0
 40
0.0
 40
0.0
 40
0.5032843494600335
 40
0.5032843494600335
 40
0.5032843494600335
 40
1.0
 40
1.0
 40
1.0
 40
1.0
 10
-11.62087596514402
 20
-3.459082846618538
 30
0.0
 10
-9.37778254473318
 20
-3.732556470420414
 30
0.0
 10
-7.134671770311106
 20
-4.005923341765324
 30
0.0
 10
-4.891552212342366
 20
-4.279236127647554
 30
0.0
 10
-2.67770909940905
 20
-4.548981726607028
 30
0.0
 10
-0.4638571211959381
 20
-4.818672758108795
 30
0.0
 10
1.749999999999996
 20
-5.088332117054946
 30
0.0
  0
LINE
  5
BC
330
1F
100
AcDbEntity
  8
SK1
  6
Continuous
100
AcDbLine
 10
1.75
 20
-5.0883321171
 30
0.0
 11
1.75
 21
-4.8633321171
 31
0.0
  0
LINE
  5
BD
330
1F
100
AcDbEntity
  8
SK3
100
AcDbLine
 10
2.25
 20
-3.9965029728
 30
0.0
 11
2.25
 21
-2.9185888135
 31
0.0
  0
LINE
  5
BE
330
1F
100
AcDbEntity
  8
SK1
  6
Continuous
100
AcDbLine
 10
1.75
 20
3.0676538854
 30
0.0
 11
1.75
 21
4.8633323166
 31
0.0
  0
LINE
  5
BF
330
1F
100
AcDbEntity
  8
SK1
  6
Continuous
100
AcDbLine
 10
1.75
 20
3.0676538854
 30
0.0
 11
1.75
 21
2.6779424537
 31
0.0
  0
LINE
  5
C0
330
1F
100
AcDbEntity
  8
SK1
  6
Continuous
100
AcDbLine
 10
1.85
 20
2.5671898456
 30
0.0
 11
1.85
 21
3.9965031723
 31
0.0
  0
LINE
  5
C1
330
1F
100
AcDbEntity
  8
SK1
  6
Continuous
100
AcDbLine
 10
3.65
 20
2.5671898456
 30
0.0
 11
3.65
 21
4.7446681598
 31
0.0
  0
LINE
  5
C2
330
1F
100
AcDbEntity
  8
SK1
  6
Continuous
100
AcDbLine
 10
3.75
 20
3.1176915534
 30
0.0
 11
3.75
 21
5.8456715753
 31
0.0
  0
LINE
  5
C3
330
1F
100
AcDbEntity
  8
SK1
  6
Continuous
100
AcDbLine
 10
6.125
 20
2.4314247687
 30
0.0
 11
6.125
 21
4.473138006
 31
0.0
  0
LINE
  5
C4
330
1F
100
AcDbEntity
  8
SK1
  6
Continuous
100
AcDbLine
 10
6.25
 20
2.3230277672
 30
0.0
 11
6.25
 21
4.256344003
 31
0.0
  0
LINE
  5
C5
330
1F
100
AcDbEntity
  8
SK1
  6
Continuous
100
AcDbLine
 10
-7.75
 20
2.0097068178
 30
0.0
 11
-7.75
 21
2.3994182495
 31
0.0
  0
LINE
  5
C6
330
1F
100
AcDbEntity
  8
SK3
100
AcDbLine
 10
-7.7424857258
 20
1.9412360005
 30
0.0
 11
-7.75
 21
1.7500000998
 31
0.0
  0
LINE
  5
C7
330
1F
100
AcDbEntity
  8
SK3
100
AcDbLine
 10
-7.75
 20
1.7500000998
 30
0.0
 11
-7.7424857258
 21
1.5515245688
 31
0.0
  0
LINE
  5
C8
330
1F
100
AcDbEntity
  8
SK3
100
AcDbLine
 10
-7.75
 20
1.5551443839
 30
0.0
 11
-7.75
 21
2.0097068178
 31
0.0
  0
SPLINE
  5
C9
330
1F
100
AcDbEntity
  8
SK3
100
AcDbSpline
210
0.0
220
0.0
230
1.0
 70
     8
 71
     3
 72
    10
 73
     6
 74
     0
 42
0.0000000402648647
 43
0.0000000001
 12
1.0
 22
0.0
 32
0.0
 13
1.0
 23
0.0
 33
0.0
 40
0.0
 40
0.0
 40
0.0
 40
0.0
 40
0.5
 40
0.5
 40
1.0
 40
1.0
 40
1.0
 40
1.0
 10
6.049999999999993
 20
1.551524568758691
 30
0.0
 10
6.102913322921555
 20
1.551524568758691
 30
0.0
 10
6.154658641807838
 20
1.562424965015007
 30
0.0
 10
6.228417031941557
 20
1.599439040914669
 30
0.0
 10
6.249999999999998
 20
1.625596090954743
 30
0.0
 10
6.249999999999998
 20
1.651720607637033
 30
0.0
  0
LINE
  5
CA
330
1F
100
AcDbEntity
  8
SK3
100
AcDbLine
 10
6.05
 20
1.9412360005
 30
0.0
 11
-7.7424857258
 21
1.9412360005
 31
0.0
  0
LINE
  5
CB
330
1F
100
AcDbEntity
  8
SK1
  6
Continuous
100
AcDbLine
 10
-7.75
 20
2.3994182495
 30
0.0
 11
1.75
 21
3.0676538854
 31
0.0
  0
SPLINE
  5
CC
330
1F
100
AcDbEntity
  8
SK1
  6
Continuous
100
AcDbSpline
210
0.0
220
0.0
230
1.0
 70
     8
 71
     3
 72
    23
 73
    19
 74
     0
 42
0.0000000822345408
 43
0.0000000001
 12
1.0
 22
0.0
 32
0.0
 13
1.0
 23
0.0
 33
0.0
 40
0.0
 40
0.0
 40
0.0
 40
0.0
 40
0.0720086882388885
 40
0.0720086882388885
 40
0.0720086882388885
 40
0.2872784282795341
 40
0.2872784282795341
 40
0.2872784282795341
 40
0.5025124564907391
 40
0.5025124564907391
 40
0.5025124564907391
 40
0.7175730678405356
 40
0.7175730678405356
 40
0.7175730678405356
 40
0.9323973733039018
 40
0.9323973733039018
 40
0.9323973733039018
 40
1.0
 40
1.0
 40
1.0
 40
1.0
 10
1.749999999999996
 20
2.617244873969351
 30
0.0
 10
1.749999999999993
 20
2.615357096612411
 30
0.0
 10
1.750214042480759
 20
2.613466312021578
 30
0.0
 10
1.750640087238005
 20
2.611590592208925
 30
0.0
 10
1.751905735756636
 20
2.606018402992003
 30
0.0
 10
1.755112844441758
 20
2.600478548888305
 30
0.0
 10
1.759996682042973
 20
2.59543010439682
 30
0.0
 10
1.76487965611024
 20
2.59038255254419
 30
0.0
 10
1.771573755956277
 20
2.585686892283714
 30
0.0
 10
1.779525260096778
 20
2.581733155555467
 30
0.0
 10
1.787470373640727
 20
2.577782596431842
 30
0.0
 10
1.796890458547668
 20
2.57446370144172
 30
0.0
 10
1.807004840077412
 20
2.572052696202507
 30
0.0
 10
1.81710825538782
 20
2.569644305024489
 30
0.0
 10
1.828183491965902
 20
2.568075370526522
 30
0.0
 10
1.839312109219689
 20
2.567476565212018
 30
0.0
 10
1.842859382110735
 20
2.567285694611411
 30
0.0
 10
1.846432245620993
 20
2.567189845643254
 30
0.0
 10
1.849999999999997
 20
2.567189845644111
 30
0.0
  0
LINE
  5
CD
330
1F
100
AcDbEntity
  8
SK1
  6
Continuous
100
AcDbLine
 10
1.85
 20
2.5671898456
 30
0.0
 11
3.65
 21
2.5671898456
 31
0.0
  0
SPLINE
  5
CE
330
1F
100
AcDbEntity
  8
SK1
  6
Continuous
100
AcDbSpline
210
0.0
220
0.0
230
1.0
 70
     8
 71
     3
 72
    20
 73
    16
 74
     0
 42
0.0000000822393899
 43
0.0000000001
 12
1.0
 22
0.0
 32
0.0
 13
1.0
 23
0.0
 33
0.0
 40
0.0
 40
0.0
 40
0.0
 40
0.0
 40
0.2131842890743414
 40
0.2131842890743414
 40
0.2131842890743414
 40
0.4276222227334094
 40
0.4276222227334094
 40
0.4276222227334094
 40
0.6421683401747386
 40
0.6421683401747386
 40
0.6421683401747386
 40
0.8569448030456058
 40
0.8569448030456058
 40
0.8569448030456058
 40
1.0
 40
1.0
 40
1.0
 40
1.0
 10
3.649999999999995
 20
2.56718984564411
 30
0.0
 10
3.661117322743993
 20
2.567189845644109
 30
0.0
 10
3.672386192947881
 20
2.568143942201852
 30
0.0
 10
3.682883961170151
 20
2.569973677657166
 30
0.0
 10
3.693443605607298
 20
2.57181419798616
 30
0.0
 10
3.703513109976204
 20
2.574591516880163
 30
0.0
 10
3.712260334062162
 20
2.5780751292924
 30
0.0
 10
3.721012024415105
 20
2.581560520410996
 30
0.0
 10
3.728681246776143
 20
2.585848846232417
 30
0.0
 10
3.73463574461762
 20
2.590585085365103
 30
0.0
 10
3.740596563719035
 20
2.595326352461438
 30
0.0
 10
3.745003297218982
 20
2.600647054319814
 30
0.0
 10
3.74749296813212
 20
2.606107167821822
 30
0.0
 10
3.749153872840734
 20
2.609749708760543
 30
0.0
 10
3.75000000000001
 20
2.613508865992595
 30
0.0
 10
3.750000000001029
 20
2.61724487396941
 30
0.0
  0
LINE
  5
CF
330
1F
100
AcDbEntity
  8
SK1
  6
Continuous
100
AcDbLine
 10
3.75
 20
2.7279801217
 30
0.0
 11
3.75
 21
3.1176915534
 31
0.0
  0
LINE
  5
D0
330
1F
100
AcDbEntity
  8
SK1
  6
Continuous
100
AcDbLine
 10
3.75
 20
3.1176915534
 30
0.0
 11
6.125
 21
2.4314247687
 31
0.0
  0
SPLINE
  5
D1
330
1F
100
AcDbEntity
  8
SK1
  6
Continuous
100
AcDbSpline
210
0.0
220
0.0
230
1.0
 70
     8
 71
     3
 72
     8
 73
     4
 74
     0
 42
0.0000000532183615
 43
0.0000000001
 12
1.0
 22
0.0
 32
0.0
 13
1.0
 23
0.0
 33
0.0
 40
0.0
 40
0.0
 40
0.0
 40
0.0
 40
1.0
 40
1.0
 40
1.0
 40
1.0
 10
6.124999999999998
 20
2.431424768741388
 30
0.0
 10
6.20131949433881
 20
2.409365374869882
 30
0.0
 10
6.249999999999998
 20
2.366870006979171
 30
0.0
 10
6.249999999999998
 20
2.32302776721335
 30
0.0
  0
LINE
  5
D2
330
1F
100
AcDbEntity
  8
SK1
  6
Continuous
100
AcDbLine
 10
6.25
 20
2.3230277672
 30
0.0
 11
6.25
 21
2.0414320393
 31
0.0
  0
LINE
  5
D3
330
1F
100
AcDbEntity
  8
SK3
100
AcDbLine
 10
-7.7424857258
 20
1.5515245688
 30
0.0
 11
-7.75
 21
1.5551443839
 31
0.0
  0
LINE
  5
D4
330
1F
100
AcDbEntity
  8
SK3
100
AcDbLine
 10
6.05
 20
1.5515245688
 30
0.0
 11
-7.7424857258
 21
1.5515245688
 31
0.0
  0
LINE
  5
D5
330
1F
100
AcDbEntity
  8
SK1
  6
Continuous
100
AcDbLine
 10
-7.75
 20
2.0097068178
 30
0.0
 11
1.75
 21
2.6779424537
 31
0.0
  0
SPLINE
  5
D6
330
1F
100
AcDbEntity
  8
SK1
  6
Continuous
100
AcDbSpline
210
0.0
220
0.0
230
1.0
 70
     8
 71
     3
 72
    23
 73
    19
 74
     0
 42
0.0000000822345408
 43
0.0000000001
 12
1.0
 22
0.0
 32
0.0
 13
1.0
 23
0.0
 33
0.0
 40
0.0
 40
0.0
 40
0.0
 40
0.0
 40
0.0720086882387841
 40
0.0720086882387841
 40
0.0720086882387841
 40
0.2872784282794179
 40
0.2872784282794179
 40
0.2872784282794179
 40
0.5025124564906163
 40
0.5025124564906163
 40
0.5025124564906163
 40
0.7175730678404231
 40
0.7175730678404231
 40
0.7175730678404231
 40
0.9323973733037835
 40
0.9323973733037835
 40
0.9323973733037835
 40
1.0
 40
1.0
 40
1.0
 40
1.0
 10
1.749999999999996
 20
2.227533442266354
 30
0.0
 10
1.749999999999993
 20
2.225645664909418
 30
0.0
 10
1.750214042480758
 20
2.223754880318587
 30
0.0
 10
1.750640087238003
 20
2.221879160505936
 30
0.0
 10
1.751905735756632
 20
2.216306971289015
 30
0.0
 10
1.755112844441752
 20
2.210767117185318
 30
0.0
 10
1.759996682042964
 20
2.205718672693834
 30
0.0
 10
1.76487965611023
 20
2.200671120841203
 30
0.0
 10
1.771573755956265
 20
2.195975460580726
 30
0.0
 10
1.779525260096764
 20
2.192021723852478
 30
0.0
 10
1.787470373640711
 20
2.188071164728851
 30
0.0
 10
1.796890458547653
 20
2.184752269738729
 30
0.0
 10
1.807004840077396
 20
2.182341264499514
 30
0.0
 10
1.817108255387802
 20
2.179932873321496
 30
0.0
 10
1.828183491965883
 20
2.178363938823527
 30
0.0
 10
1.83931210921967
 20
2.177765133509022
 30
0.0
 10
1.842859382110723
 20
2.177574262908414
 30
0.0
 10
1.846432245620987
 20
2.177478413940256
 30
0.0
 10
1.849999999999997
 20
2.177478413941112
 30
0.0
  0
LINE
  5
D7
330
1F
100
AcDbEntity
  8
SK1
  6
Continuous
100
AcDbLine
 10
1.85
 20
2.1774784139
 30
0.0
 11
3.65
 21
2.1774784139
 31
0.0
  0
SPLINE
  5
D8
330
1F
100
AcDbEntity
  8
SK1
  6
Continuous
100
AcDbSpline
210
0.0
220
0.0
230
1.0
 70
     8
 71
     3
 72
    20
 73
    16
 74
     0
 42
0.0000000822393899
 43
0.0000000001
 12
1.0
 22
0.0
 32
0.0
 13
1.0
 23
0.0
 33
0.0
 40
0.0
 40
0.0
 40
0.0
 40
0.0
 40
0.2131842890743422
 40
0.2131842890743422
 40
0.2131842890743422
 40
0.4276222227334111
 40
0.4276222227334111
 40
0.4276222227334111
 40
0.6421683401747305
 40
0.6421683401747305
 40
0.6421683401747305
 40
0.8569448030456116
 40
0.8569448030456116
 40
0.8569448030456116
 40
1.0
 40
1.0
 40
1.0
 40
1.0
 10
3.649999999999995
 20
2.177478413941113
 30
0.0
 10
3.661117322743993
 20
2.177478413941114
 30
0.0
 10
3.672386192947881
 20
2.178432510498856
 30
0.0
 10
3.682883961170151
 20
2.180262245954169
 30
0.0
 10
3.693443605607299
 20
2.182102766283164
 30
0.0
 10
3.703513109976204
 20
2.184880085177166
 30
0.0
 10
3.712260334062162
 20
2.188363697589403
 30
0.0
 10
3.721012024415105
 20
2.191849088707999
 30
0.0
 10
3.728681246776142
 20
2.19613741452942
 30
0.0
 10
3.734635744617619
 20
2.200873653662107
 30
0.0
 10
3.740596563719035
 20
2.205614920758441
 30
0.0
 10
3.745003297218982
 20
2.210935622616818
 30
0.0
 10
3.747492968132121
 20
2.216395736118826
 30
0.0
 10
3.749153872840734
 20
2.220038277057547
 30
0.0
 10
3.75000000000001
 20
2.2237974342896
 30
0.0
 10
3.750000000001029
 20
2.227533442266413
 30
0.0
  0
LINE
  5
D9
330
1F
100
AcDbEntity
  8
SK1
  6
Continuous
100
AcDbLine
 10
3.75
 20
2.7279801217
 30
0.0
 11
6.125
 21
2.041713337
 31
0.0
  0
SPLINE
  5
DA
330
1F
100
AcDbEntity
  8
SK1
  6
Continuous
100
AcDbSpline
210
0.0
220
0.0
230
1.0
 70
     8
 71
     3
 72
     8
 73
     4
 74
     0
 42
0.0000000532183615
 43
0.0000000001
 12
1.0
 22
0.0
 32
0.0
 13
1.0
 23
0.0
 33
0.0
 40
0.0
 40
0.0
 40
0.0
 40
0.0
 40
1.0
 40
1.0
 40
1.0
 40
1.0
 10
6.124999999999998
 20
2.041713337038391
 30
0.0
 10
6.201319494339904
 20
2.019653943166568
 30
0.0
 10
6.249999999999998
 20
1.977158575276666
 30
0.0
 10
6.249999999999998
 20
1.933316335510353
 30
0.0
  0
SPLINE
  5
DB
330
1F
100
AcDbEntity
  8
SK3
100
AcDbSpline
210
0.0
220
0.0
230
1.0
 70
     8
 71
     3
 72
    10
 73
     6
 74
     0
 42
0.0000000550424488
 43
0.0000000001
 12
1.0
 22
0.0
 32
0.0
 13
1.0
 23
0.0
 33
0.0
 40
0.0
 40
0.0
 40
0.0
 40
0.0
 40
0.7683287706824894
 40
0.7683287706824894
 40
1.0
 40
1.0
 40
1.0
 40
1.0
 10
6.049999999999993
 20
1.941236000461687
 30
0.0
 10
6.102913322921555
 20
1.941236000461687
 30
0.0
 10
6.154658641807837
 20
1.952136396718004
 30
0.0
 10
6.202657879209946
 20
1.976223790885726
 30
0.0
 10
6.21238721872738
 20
1.982499671128227
 30
0.0
 10
6.220553509670877
 20
1.989260464827215
 30
0.0
  0
SPLINE
  5
DC
330
1F
100
AcDbEntity
  8
SK1
  6
Continuous
100
AcDbSpline
210
0.0
220
0.0
230
1.0
 70
     8
 71
     3
 72
     8
 73
     4
 74
     0
 42
0.000000156526487
 43
0.0000000001
 12
1.0
 22
0.0
 32
0.0
 13
1.0
 23
0.0
 33
0.0
 40
0.0
 40
0.0
 40
0.0
 40
0.0
 40
1.0
 40
1.0
 40
1.0
 40
1.0
 10
6.220553509670877
 20
1.989260464827215
 30
0.0
 10
6.239470410283517
 20
2.004921584832764
 30
0.0
 10
6.249999999999998
 20
2.023184748041003
 30
0.0
 10
6.249999999999998
 20
2.041432039340031
 30
0.0
  0
LINE
  5
DD
330
1F
100
AcDbEntity
  8
SK3
100
AcDbLine
 10
-7.7424857258
 20
1.9412360005
 30
0.0
 11
-7.75
 21
1.9448558156
 31
0.0
  0
LINE
  5
DE
330
1F
100
AcDbEntity
  8
SK1
  6
Continuous
100
AcDbLine
 10
-11.75
 20
0.2250000998
 30
0.0
 11
-11.75
 21
3.1052168616
 31
0.0
  0
LINE
  5
DF
330
1F
100
AcDbEntity
  8
SK1
  6
Continuous
100
AcDbLine
 10
-11.6208759651
 20
0.2250000998
 30
0.0
 11
-11.6208759651
 21
3.2340830462
 31
0.0
  0
LINE
  5
E0
330
1F
100
AcDbEntity
  8
SK1
  6
Continuous
100
AcDbLine
 10
1.75
 20
0.2250000998
 30
0.0
 11
1.75
 21
2.6779424537
 31
0.0
  0
LINE
  5
E1
330
1F
100
AcDbEntity
  8
SK1
  6
Continuous
100
AcDbLine
 10
1.85
 20
0.2250000998
 30
0.0
 11
1.85
 21
2.1774784139
 31
0.0
  0
LINE
  5
E2
330
1F
100
AcDbEntity
  8
SK1
  6
Continuous
100
AcDbLine
 10
2.25
 20
0.2250000998
 30
0.0
 11
2.25
 21
-0.2249999002
 31
0.0
  0
LINE
  5
E3
330
1F
100
AcDbEntity
  8
SK1
  6
Continuous
100
AcDbLine
 10
1.75
 20
0.2250000998
 30
0.0
 11
1.85
 21
0.2250000998
 31
0.0
  0
LINE
  5
E4
330
1F
100
AcDbEntity
  8
SK1
  6
Continuous
100
AcDbLine
 10
1.85
 20
0.2250000998
 30
0.0
 11
2.25
 21
0.2250000998
 31
0.0
  0
LINE
  5
E5
330
1F
100
AcDbEntity
  8
SK1
  6
Continuous
100
AcDbLine
 10
-11.75
 20
0.2250000998
 30
0.0
 11
-11.6208759651
 21
0.2250000998
 31
0.0
  0
LINE
  5
E6
330
1F
100
AcDbEntity
  8
SK1
  6
Continuous
100
AcDbLine
 10
-11.6208759651
 20
0.2250000998
 30
0.0
 11
1.75
 21
0.2250000998
 31
0.0
  0
LINE
  5
E7
330
1F
100
AcDbEntity
  8
SK1
  6
Continuous
100
AcDbLine
 10
1.75
 20
-0.2249999002
 30
0.0
 11
1.85
 21
-0.2249999002
 31
0.0
  0
LINE
  5
E8
330
1F
100
AcDbEntity
  8
SK1
  6
Continuous
100
AcDbLine
 10
1.85
 20
-0.2249999002
 30
0.0
 11
2.25
 21
-0.2249999002
 31
0.0
  0
LINE
  5
E9
330
1F
100
AcDbEntity
  8
SK1
  6
Continuous
100
AcDbLine
 10
-11.75
 20
-0.2249999002
 30
0.0
 11
-11.6208759651
 21
-0.2249999002
 31
0.0
  0
LINE
  5
EA
330
1F
100
AcDbEntity
  8
SK1
  6
Continuous
100
AcDbLine
 10
-11.6208759651
 20
-0.2249999002
 30
0.0
 11
1.75
 21
-0.2249999002
 31
0.0
  0
SPLINE
  5
EB
330
1F
100
AcDbEntity
  8
SK3
100
AcDbSpline
210
0.0
220
0.0
230
1.0
 70
     8
 71
     3
 72
    10
 73
     6
 74
     0
 42
0.0000000310168799
 43
0.0000000001
 12
1.0
 22
0.0
 32
0.0
 13
1.0
 23
0.0
 33
0.0
 40
0.0
 40
0.0
 40
0.0
 40
0.0
 40
0.5
 40
0.5
 40
1.0
 40
1.0
 40
1.0
 40
1.0
 10
6.049999999999993
 20
3.492760469449673
 30
0.0
 10
6.102913322921617
 20
3.492760469449673
 30
0.0
 10
6.154658641807957
 20
3.514561261962359
 30
0.0
 10
6.228417031941692
 20
3.588589413761829
 30
0.0
 10
6.250000000000092
 20
3.640903513842071
 30
0.0
 10
6.250000000002111
 20
3.693152547206601
 30
0.0
  0
LINE
  5
EC
330
1F
100
AcDbEntity
  8
SK1
  6
Continuous
100
AcDbLine
 10
-7.75
 20
4.4091249676
 30
0.0
 11
-7.75
 21
4.4148621701
 31
0.0
  0
LINE
  5
ED
330
1F
100
AcDbEntity
  8
SK3
100
AcDbLine
 10
-7.75
 20
3.5000000998
 30
0.0
 11
-7.75
 21
4.4091249676
 31
0.0
  0
ARC
  5
EE
330
1F
100
AcDbEntity
  8
SK3
100
AcDbCircle
 10
9.5993515729
 20
21.5000000998
 30
0.0
 40
25.0
100
AcDbArc
 50
226.0544804377
 51
226.0783943057
  0
SPLINE
  5
EF
330
1F
100
AcDbEntity
  8
SK1
  6
Continuous
100
AcDbSpline
210
0.0
220
0.0
230
1.0
 70
     8
 71
     3
 72
    11
 73
     7
 74
     0
 42
0.0000000010423673
 43
0.0000000001
 12
1.0
 22
0.0
 32
0.0
 13
1.0
 23
0.0
 33
0.0
 40
0.0
 40
0.0
 40
0.0
 40
0.0
 40
0.80791207277795
 40
0.80791207277795
 40
0.80791207277795
 40
1.0
 40
1.0
 40
1.0
 40
1.0
 10
-7.749999999999985
 20
4.409124967589089
 30
0.0
 10
-5.191626778843252
 20
4.769148733732855
 30
0.0
 10
-2.633238364670754
 20
5.129064539338291
 30
0.0
 10
-0.0748422555455516
 20
5.488925623276585
 30
0.0
 10
0.5334380541119621
 20
5.574485639097014
 30
0.0
 10
1.141718825728867
 20
5.660042370712207
 30
0.0
 10
1.749999999999996
 20
5.745596239424094
 30
0.0
  0
ARC
  5
F0
330
1F
100
AcDbEntity
  8
SK1
  6
Continuous
100
AcDbCircle
 10
1.8500558282
 20
4.8447239872
 30
0.0
 40
0.1000558429362809
100
AcDbArc
 50
179.9689462458
 51
269.968030626
  0
LINE
  5
F1
330
1F
100
AcDbEntity
  8
SK1
  6
Continuous
100
AcDbLine
 10
1.85
 20
4.7446681598
 30
0.0
 11
3.65
 21
4.7446681598
 31
0.0
  0
ARC
  5
F2
330
1F
100
AcDbEntity
  8
SK1
  6
Continuous
100
AcDbCircle
 10
3.6499459361
 20
4.8447222248
 30
0.0
 40
0.1000540795527918
100
AcDbArc
 50
270.0309595836
 51
0.0320635453
  0
LINE
  5
F3
330
1F
100
AcDbEntity
  8
SK1
  6
Continuous
100
AcDbLine
 10
3.75
 20
5.8456715753
 30
0.0
 11
6.125
 21
4.473138006
 31
0.0
  0
ARC
  5
F4
330
1F
100
AcDbEntity
  8
SK1
  6
Continuous
100
AcDbCircle
 10
5.9966226128
 20
4.2546841161
 30
0.0
 40
0.2533828241692141
100
AcDbArc
 50
0.375341911
 51
59.5587987148
  0
LINE
  5
F5
330
1F
100
AcDbEntity
  8
SK3
100
AcDbLine
 10
6.05
 20
3.4927604694
 30
0.0
 11
-7.7424857258
 21
3.4927604694
 31
0.0
  0
LINE
  5
F6
330
1F
100
AcDbEntity
  8
SK3
100
AcDbLine
 10
-11.55
 20
-3.4999999002
 30
0.0
 11
-7.75
 21
-3.4999999002
 31
0.0
  0
LINE
  5
F7
330
1F
100
AcDbEntity
  8
SK3
100
AcDbLine
 10
-7.75
 20
3.5000000998
 30
0.0
 11
-11.55
 21
3.5000000998
 31
0.0
  0
ARC
  5
F8
330
1F
100
AcDbEntity
  8
SK3
100
AcDbCircle
 10
-11.55
 20
3.7000000998
 30
0.0
 40
0.1999999999999996
100
AcDbArc
 50
180.0
 51
270.0
  0
ARC
  5
F9
330
1F
100
AcDbEntity
  8
SK1
  6
Continuous
100
AcDbCircle
 10
-11.6
 20
3.7223058206
 30
0.0
 40
0.1500000000000002
100
AcDbArc
 50
98.0
 51
180.0
  0
LINE
  5
FA
330
1F
100
AcDbEntity
  8
SK1
  6
Continuous
100
AcDbLine
 10
-7.75
 20
4.4148621701
 30
0.0
 11
-11.6208759651
 21
3.8708460309
 31
0.0
  0
ARC
  5
FB
330
1F
100
AcDbEntity
  8
SK3
100
AcDbCircle
 10
-11.55
 20
-3.6999999002
 30
0.0
 40
0.2000000000000023
100
AcDbArc
 50
90.0
 51
180.0
  0
ARC
  5
FC
330
1F
100
AcDbEntity
  8
SK1
  6
Continuous
100
AcDbCircle
 10
-11.6
 20
-3.7223056211
 30
0.0
 40
0.1499999999999991
100
AcDbArc
 50
180.0
 51
262.0
  0
LINE
  5
FD
330
1F
100
AcDbEntity
  8
SK1
  6
Continuous
100
AcDbLine
 10
-11.6208759651
 20
-3.8708458314
 30
0.0
 11
-7.75
 21
-4.4148619706
 31
0.0
  0
LINE
  5
FE
330
1F
100
AcDbEntity
  8
SK1
  6
Continuous
100
AcDbLine
 10
0.0
 20
5.4994528329
 30
0.0
 11
0.0
 21
-5.4994526333
 31
0.0
  0
LINE
  5
100
330
1F
100
AcDbEntity
  8
SK4
  6
Continuous
100
AcDbLine
 10
6.25
 20
0.0000000998
 30
0.0
 11
-11.75
 21
0.0000000998
 31
0.0
  0
DIMENSION
  5
115
330
1F
100
AcDbEntity
  8
SK2
  6
Continuous
 62
   136
100
AcDbDimension
  2
DMBLK75
 10
14.2712956622
 20
3.4927604694
 30
0.0
 11
14.2712956622
 21
10.7559394066
 31
0.0
 70
   161
  1
\A1;ø <>
 71
     5
 42
-1.0
  3
DIN
100
AcDbAlignedDimension
 13
6.05
 23
3.4927604694
 33
0.0
 14
6.05
 24
-3.4927602699
 34
0.0
  0
DIMENSION
  5
120
330
1F
100
AcDbEntity
  8
SK2
  6
Continuous
 62
   136
100
AcDbDimension
  2
DMBLK76
 10
0.0
 20
-17.8426866026
 30
0.0
 11
10.6391835958
 21
-17.8426866026
 31
0.0
 70
   160
  1
\A1;<>
 71
     5
 42
-1.0
  3
DIN
100
AcDbAlignedDimension
 13
6.25
 23
-2.3230275677
 33
0.0
 14
0.0
 24
-5.4994526333
 34
0.0
100
AcDbRotatedDimension
  0
DIMENSION
  5
12A
330
1F
100
AcDbEntity
  8
SK2
  6
Continuous
 62
   136
100
AcDbDimension
  2
DMBLK77
 10
-16.7355872691
 20
5.4994528329
 30
0.0
 11
-16.7355872691
 21
0.0000000147
 31
0.0
 70
   161
  1
\A1;ø <>
 71
     5
 42
-1.0
  3
DIN
100
AcDbAlignedDimension
 13
0.0
 23
5.4994528329
 33
0.0
 14
0.0
 24
-5.4994526333
 34
0.0
  0
DIMENSION
  5
135
330
1F
100
AcDbEntity
  8
SK2
  6
Continuous
 62
   136
100
AcDbDimension
  2
DMBLK78
 10
6.25
 20
10.9833359876
 30
0.0
 11
-2.7500003874
 21
10.9833359876
 31
0.0
 70
   160
  1
\A1;<>
 71
     5
 42
-1.0
  3
DIN
100
AcDbAlignedDimension
 13
-11.75
 23
3.1052168616
 33
0.0
 14
6.25
 24
4.256344003
 34
0.0
100
AcDbRotatedDimension
  0
ENDSEC
  0
SECTION
  2
OBJECTS
  0
DICTIONARY
  5
C
330
0
100
AcDbDictionary
281
     1
  3
ACAD_GROUP
350
D
  3
ACAD_LAYOUT
350
1A
  3
ACAD_MATERIAL
350
3B
  3
ACAD_MLEADERSTYLE
350
141
  3
ACAD_MLINESTYLE
350
17
  3
ACAD_PLOTSETTINGS
350
19
  3
ACAD_PLOTSTYLENAME
350
E
  3
ACAD_VISUALSTYLE
350
2A
  3
AcDbVariableDictionary
350
13F
  0
DICTIONARY
  5
D
102
{ACAD_REACTORS
330
C
102
}
330
C
100
AcDbDictionary
281
     1
  0
DICTIONARY
  5
1A
102
{ACAD_REACTORS
330
C
102
}
330
C
100
AcDbDictionary
281
     1
  3
Layout1
350
1E
  3
Model
350
22
  0
DICTIONARY
  5
3B
102
{ACAD_REACTORS
330
C
102
}
330
C
100
AcDbDictionary
281
     1
  3
ByBlock
350
3D
  3
ByLayer
350
3C
  3
Global
350
3E
  0
DICTIONARY
  5
141
102
{ACAD_REACTORS
330
C
102
}
330
C
100
AcDbDictionary
281
     1
  0
DICTIONARY
  5
17
102
{ACAD_REACTORS
330
C
102
}
330
C
100
AcDbDictionary
281
     1
  3
Standard
350
18
  0
DICTIONARY
  5
19
102
{ACAD_REACTORS
330
C
102
}
330
C
100
AcDbDictionary
281
     1
  0
ACDBDICTIONARYWDFLT
  5
E
102
{ACAD_REACTORS
330
C
102
}
330
C
100
AcDbDictionary
281
     1
  3
Normal
350
F
100
AcDbDictionaryWithDefault
340
F
  0
DICTIONARY
  5
2A
102
{ACAD_REACTORS
330
C
102
}
330
C
100
AcDbDictionary
281
     1
  3
2dWireframe
350
2F
  3
3D Hidden
350
31
  3
3dWireframe
350
30
  3
Basic
350
32
  3
Brighten
350
36
  3
ColorChange
350
3A
  3
Conceptual
350
34
  3
Dim
350
35
  3
Facepattern
350
39
  3
Flat
350
2B
  3
FlatWithEdges
350
2C
  3
Gouraud
350
2D
  3
GouraudWithEdges
350
2E
  3
Linepattern
350
38
  3
Realistic
350
33
  3
Thicken
350
37
  0
DICTIONARY
  5
13F
102
{ACAD_REACTORS
330
C
102
}
330
C
100
AcDbDictionary
281
     1
  3
DIMASSOC
350
144
  3
HIDETEXT
350
145
  3
PSOLHEIGHT
350
143
  3
PSOLWIDTH
350
142
  0
LAYOUT
  5
1E
102
{ACAD_REACTORS
330
1A
102
}
330
1A
100
AcDbPlotSettings
  1

  2
none_device
  4

  6

 40
0.0
 41
0.0
 42
0.0
 43
0.0
 44
0.0
 45
0.0
 46
0.0
 47
0.0
 48
0.0
 49
0.0
140
0.0
141
0.0
142
1.0
143
1.0
 70
   688
 72
     0
 73
     0
 74
     5
  7

 75
    16
147
1.0
148
0.0
149
0.0
100
AcDbLayout
  1
Layout1
 70
     1
 71
     1
 10
0.0
 20
0.0
 11
210.0
 21
297.0
 12
0.0
 22
0.0
 32
0.0
 14
0.0
 24
0.0
 34
0.0
 15
210.0
 25
297.0
 35
0.0
146
0.0
 13
0.0
 23
0.0
 33
0.0
 16
1.0
 26
0.0
 36
0.0
 17
0.0
 27
1.0
 37
0.0
 76
     0
330
1B
  0
LAYOUT
  5
22
102
{ACAD_REACTORS
330
1A
102
}
330
1A
100
AcDbPlotSettings
  1

  2
none_device
  4

  6

 40
0.0
 41
0.0
 42
0.0
 43
0.0
 44
0.0
 45
0.0
 46
0.0
 47
0.0
 48
0.0
 49
0.0
140
0.0
141
0.0
142
1.0
143
1.0
 70
  1712
 72
     0
 73
     0
 74
     0
  7

 75
     0
147
1.0
148
0.0
149
0.0
100
AcDbLayout
  1
Model
 70
     1
 71
     0
 10
0.0
 20
0.0
 11
210.0
 21
297.0
 12
0.0
 22
0.0
 32
0.0
 14
0.0
 24
0.0
 34
0.0
 15
210.0
 25
297.0
 35
0.0
146
0.0
 13
0.0
 23
0.0
 33
0.0
 16
1.0
 26
0.0
 36
0.0
 17
0.0
 27
1.0
 37
0.0
 76
     0
330
1F
331
29
  0
MATERIAL
  5
3D
102
{ACAD_REACTORS
330
3B
102
}
102
{ACAD_XDICTIONARY
360
168
102
}
330
3B
100
AcDbMaterial
  1
ByBlock
  0
MATERIAL
  5
3C
102
{ACAD_REACTORS
330
3B
102
}
102
{ACAD_XDICTIONARY
360
166
102
}
330
3B
100
AcDbMaterial
  1
ByLayer
  0
MATERIAL
  5
3E
102
{ACAD_REACTORS
330
3B
102
}
102
{ACAD_XDICTIONARY
360
16A
102
}
330
3B
100
AcDbMaterial
  1
Global
  0
MLINESTYLE
  5
18
102
{ACAD_REACTORS
330
17
102
}
330
17
100
AcDbMlineStyle
  2
Standard
 70
     0
  3

 62
   256
 51
90.0
 52
90.0
 71
     2
 49
0.5
 62
   256
  6
BYLAYER
 49
-0.5
 62
   256
  6
BYLAYER
  0
ACDBPLACEHOLDER
  5
F
102
{ACAD_REACTORS
330
E
102
}
330
E
  0
VISUALSTYLE
  5
2F
102
{ACAD_REACTORS
330
2A
102
}
102
{ACAD_XDICTIONARY
360
14E
102
}
330
2A
100
AcDbVisualStyle
  2
2dWireframe
 70
     4
 71
     0
 72
     2
 73
     0
 90
        0
 40
-0.6
 41
-30.0
 62
     5
 63
     7
 74
     1
 91
        4
 64
     7
 65
   257
 75
     1
175
     1
 42
1.0
 92
        0
 66
   257
 43
1.0
 76
     1
 77
     6
 78
     2
 67
     7
 79
     5
170
     0
171
     0
290
     0
174
     0
 93
        1
 44
0.0
173
     0
291
     0
 45
0.0
1001
ACAD
1000
AcDbSavedByObjectVersion
1070
     0
  0
VISUALSTYLE
  5
31
102
{ACAD_REACTORS
330
2A
102
}
102
{ACAD_XDICTIONARY
360
152
102
}
330
2A
100
AcDbVisualStyle
  2
3D Hidden
 70
     6
 71
     1
 72
     2
 73
     2
 90
        0
 40
-0.6
 41
-30.0
 62
     5
 63
     7
 74
     2
 91
        2
 64
     7
 65
   257
 75
     2
175
     1
 42
40.0
 92
        0
 66
   257
 43
1.0
 76
     1
 77
     6
 78
     2
 67
     7
 79
     3
170
     0
171
     0
290
     0
174
     0
 93
        1
 44
0.0
173
     0
291
     0
 45
0.0
1001
ACAD
1000
AcDbSavedByObjectVersion
1070
     0
  0
VISUALSTYLE
  5
30
102
{ACAD_REACTORS
330
2A
102
}
102
{ACAD_XDICTIONARY
360
150
102
}
330
2A
100
AcDbVisualStyle
  2
3dWireframe
 70
     5
 71
     0
 72
     2
 73
     0
 90
        0
 40
-0.6
 41
-30.0
 62
     5
 63
     7
 74
     1
 91
        4
 64
     7
 65
   257
 75
     1
175
     1
 42
1.0
 92
        0
 66
   257
 43
1.0
 76
     1
 77
     6
 78
     2
 67
     7
 79
     5
170
     0
171
     0
290
     0
174
     0
 93
        1
 44
0.0
173
     0
291
     0
 45
0.0
1001
ACAD
1000
AcDbSavedByObjectVersion
1070
     0
  0
VISUALSTYLE
  5
32
102
{ACAD_REACTORS
330
2A
102
}
102
{ACAD_XDICTIONARY
360
154
102
}
330
2A
100
AcDbVisualStyle
  2
Basic
 70
     7
 71
     1
 72
     0
 73
     1
 90
        0
 40
-0.6
 41
-30.0
 62
     5
 63
     7
 74
     0
 91
        4
 64
     7
 65
   257
 75
     1
175
     1
 42
1.0
 92
        8
 66
     7
 43
1.0
 76
     1
 77
     6
 78
     2
 67
     7
 79
     5
170
     0
171
     0
290
     0
174
     0
 93
        1
 44
0.0
173
     0
291
     1
 45
0.0
1001
ACAD
1000
AcDbSavedByObjectVersion
1070
     0
  0
VISUALSTYLE
  5
36
102
{ACAD_REACTORS
330
2A
102
}
102
{ACAD_XDICTIONARY
360
15C
102
}
330
2A
100
AcDbVisualStyle
  2
Brighten
 70
    12
 71
     2
 72
     2
 73
     0
 90
        0
 40
-0.6
 41
-30.0
 62
     5
 63
     7
 74
     1
 91
        4
 64
     7
 65
   257
 75
     1
175
     1
 42
1.0
 92
        8
 66
     7
 43
1.0
 76
     1
 77
     6
 78
     2
 67
     7
 79
     5
170
     0
171
     0
290
     0
174
     0
 93
        1
 44
50.0
173
     0
291
     1
 45
0.0
1001
ACAD
1000
AcDbSavedByObjectVersion
1070
     0
  0
VISUALSTYLE
  5
3A
102
{ACAD_REACTORS
330
2A
102
}
102
{ACAD_XDICTIONARY
360
164
102
}
330
2A
100
AcDbVisualStyle
  2
ColorChange
 70
    16
 71
     2
 72
     2
 73
     3
 90
        0
 40
-0.6
 41
-30.0
 62
     5
 63
     8
 74
     1
 91
        4
 64
     7
 65
   257
 75
     1
175
     1
 42
1.0
 92
        8
 66
     8
 43
1.0
 76
     1
 77
     6
 78
     2
 67
     7
 79
     5
170
     0
171
     0
290
     0
174
     0
 93
        1
 44
0.0
173
     0
291
     1
 45
0.0
1001
ACAD
1000
AcDbSavedByObjectVersion
1070
     0
  0
VISUALSTYLE
  5
34
102
{ACAD_REACTORS
330
2A
102
}
102
{ACAD_XDICTIONARY
360
158
102
}
330
2A
100
AcDbVisualStyle
  2
Conceptual
 70
     9
 71
     3
 72
     2
 73
     0
 90
        0
 40
-0.6
 41
-30.0
 62
     5
 63
     7
 74
     2
 91
        2
 64
     7
 65
   257
 75
     1
175
     1
 42
40.0
 92
        8
 66
     7
 43
1.0
 76
     1
 77
     6
 78
     2
 67
     7
 79
     3
170
     0
171
     0
290
     0
174
     0
 93
        1
 44
0.0
173
     0
291
     0
 45
0.0
1001
ACAD
1000
AcDbSavedByObjectVersion
1070
     0
  0
VISUALSTYLE
  5
35
102
{ACAD_REACTORS
330
2A
102
}
102
{ACAD_XDICTIONARY
360
15A
102
}
330
2A
100
AcDbVisualStyle
  2
Dim
 70
    11
 71
     2
 72
     2
 73
     0
 90
        0
 40
-0.6
 41
-30.0
 62
     5
 63
     7
 74
     1
 91
        4
 64
     7
 65
   257
 75
     1
175
     1
 42
1.0
 92
        8
 66
     7
 43
1.0
 76
     1
 77
     6
 78
     2
 67
     7
 79
     5
170
     0
171
     0
290
     0
174
     0
 93
        1
 44
-50.0
173
     0
291
     1
 45
0.0
1001
ACAD
1000
AcDbSavedByObjectVersion
1070
     0
  0
VISUALSTYLE
  5
39
102
{ACAD_REACTORS
330
2A
102
}
102
{ACAD_XDICTIONARY
360
162
102
}
330
2A
100
AcDbVisualStyle
  2
Facepattern
 70
    15
 71
     2
 72
     2
 73
     0
 90
        0
 40
-0.6
 41
-30.0
 62
     5
 63
     7
 74
     1
 91
        4
 64
     7
 65
   257
 75
     1
175
     1
 42
1.0
 92
        8
 66
     7
 43
1.0
 76
     1
 77
     6
 78
     2
 67
     7
 79
     5
170
     0
171
     0
290
     0
174
     0
 93
        1
 44
0.0
173
     0
291
     1
 45
0.0
1001
ACAD
1000
AcDbSavedByObjectVersion
1070
     0
  0
VISUALSTYLE
  5
2B
102
{ACAD_REACTORS
330
2A
102
}
102
{ACAD_XDICTIONARY
360
146
102
}
330
2A
100
AcDbVisualStyle
  2
Flat
 70
     0
 71
     2
 72
     1
 73
     1
 90
        2
 40
-0.6
 41
30.0
 62
     5
 63
     7
 74
     0
 91
        4
 64
     7
 65
   257
 75
     1
175
     1
 42
1.0
 92
        8
 66
     7
 43
1.0
 76
     1
 77
     6
 78
     2
 67
     7
 79
     5
170
     0
171
     0
290
     0
174
     0
 93
       13
 44
0.0
173
     0
291
     1
 45
0.0
1001
ACAD
1000
AcDbSavedByObjectVersion
1070
     0
  0
VISUALSTYLE
  5
2C
102
{ACAD_REACTORS
330
2A
102
}
102
{ACAD_XDICTIONARY
360
148
102
}
330
2A
100
AcDbVisualStyle
  2
FlatWithEdges
 70
     1
 71
     2
 72
     1
 73
     1
 90
        2
 40
-0.6
 41
30.0
 62
     5
 63
     7
 74
     1
 91
        4
 64
     7
 65
   257
 75
     1
175
     1
 42
1.0
 92
        0
 66
   257
 43
1.0
 76
     1
 77
     6
 78
     2
 67
     7
 79
     5
170
     0
171
     0
290
     0
174
     0
 93
       13
 44
0.0
173
     0
291
     1
 45
0.0
1001
ACAD
1000
AcDbSavedByObjectVersion
1070
     0
  0
VISUALSTYLE
  5
2D
102
{ACAD_REACTORS
330
2A
102
}
102
{ACAD_XDICTIONARY
360
14A
102
}
330
2A
100
AcDbVisualStyle
  2
Gouraud
 70
     2
 71
     2
 72
     2
 73
     1
 90
        2
 40
-0.6
 41
30.0
 62
     5
 63
     7
 74
     0
 91
        4
 64
     7
 65
   257
 75
     1
175
     1
 42
1.0
 92
        0
 66
     7
 43
1.0
 76
     1
 77
     6
 78
     2
 67
     7
 79
     5
170
     0
171
     0
290
     0
174
     0
 93
       13
 44
0.0
173
     0
291
     1
 45
0.0
1001
ACAD
1000
AcDbSavedByObjectVersion
1070
     0
  0
VISUALSTYLE
  5
2E
102
{ACAD_REACTORS
330
2A
102
}
102
{ACAD_XDICTIONARY
360
14C
102
}
330
2A
100
AcDbVisualStyle
  2
GouraudWithEdges
 70
     3
 71
     2
 72
     2
 73
     1
 90
        2
 40
-0.6
 41
30.0
 62
     5
 63
     7
 74
     1
 91
        4
 64
     7
 65
   257
 75
     1
175
     1
 42
1.0
 92
        0
 66
   257
 43
1.0
 76
     1
 77
     6
 78
     2
 67
     7
 79
     5
170
     0
171
     0
290
     0
174
     0
 93
       13
 44
0.0
173
     0
291
     1
 45
0.0
1001
ACAD
1000
AcDbSavedByObjectVersion
1070
     0
  0
VISUALSTYLE
  5
38
102
{ACAD_REACTORS
330
2A
102
}
102
{ACAD_XDICTIONARY
360
160
102
}
330
2A
100
AcDbVisualStyle
  2
Linepattern
 70
    14
 71
     2
 72
     2
 73
     0
 90
        0
 40
-0.6
 41
-30.0
 62
     5
 63
     7
 74
     1
 91
        4
 64
     7
 65
   257
 75
     7
175
     7
 42
1.0
 92
        8
 66
     7
 43
1.0
 76
     1
 77
     6
 78
     2
 67
     7
 79
     5
170
     0
171
     0
290
     0
174
     0
 93
        1
 44
0.0
173
     0
291
     1
 45
0.0
1001
ACAD
1000
AcDbSavedByObjectVersion
1070
     0
  0
VISUALSTYLE
  5
33
102
{ACAD_REACTORS
330
2A
102
}
102
{ACAD_XDICTIONARY
360
156
102
}
330
2A
100
AcDbVisualStyle
  2
Realistic
 70
     8
 71
     2
 72
     2
 73
     0
 90
        0
 40
-0.6
 41
-30.0
 62
     5
 63
     7
 74
     1
 91
        0
 64
     7
 65
   257
 75
     1
175
     1
 42
1.0
 92
        8
 66
     8
 43
1.0
 76
     1
 77
     6
 78
     2
 67
     7
 79
     5
170
     0
171
     0
290
     0
174
     0
 93
       13
 44
0.0
173
     0
291
     0
 45
0.0
1001
ACAD
1000
AcDbSavedByObjectVersion
1070
     0
  0
VISUALSTYLE
  5
37
102
{ACAD_REACTORS
330
2A
102
}
102
{ACAD_XDICTIONARY
360
15E
102
}
330
2A
100
AcDbVisualStyle
  2
Thicken
 70
    13
 71
     2
 72
     2
 73
     0
 90
        0
 40
-0.6
 41
-30.0
 62
     5
 63
     7
 74
     1
 91
        4
 64
     7
 65
   257
 75
     1
175
     1
 42
1.0
 92
       12
 66
     7
 43
1.0
 76
     1
 77
     6
 78
     2
 67
     7
 79
     5
170
     0
171
     0
290
     0
174
     0
 93
        1
 44
0.0
173
     0
291
     1
 45
0.0
1001
ACAD
1000
AcDbSavedByObjectVersion
1070
     0
  0
DICTIONARYVAR
  5
144
102
{ACAD_REACTORS
330
13F
102
}
330
13F
100
DictionaryVariables
280
     0
  1
2
  0
DICTIONARYVAR
  5
145
102
{ACAD_REACTORS
330
13F
102
}
330
13F
100
DictionaryVariables
280
     0
  1
1
  0
DICTIONARYVAR
  5
143
102
{ACAD_REACTORS
330
13F
102
}
330
13F
100
DictionaryVariables
280
     0
  1
80.000000
  0
DICTIONARYVAR
  5
142
102
{ACAD_REACTORS
330
13F
102
}
330
13F
100
DictionaryVariables
280
     0
  1
5.000000
  0
DICTIONARY
  5
168
330
3D
100
AcDbDictionary
280
     1
281
     1
  3
ACAD_XREC_ROUNDTRIP
360
169
  0
DICTIONARY
  5
166
330
3C
100
AcDbDictionary
280
     1
281
     1
  3
ACAD_XREC_ROUNDTRIP
360
167
  0
DICTIONARY
  5
16A
330
3E
100
AcDbDictionary
280
     1
281
     1
  3
ACAD_XREC_ROUNDTRIP
360
16B
  0
DICTIONARY
  5
14E
330
2F
100
AcDbDictionary
280
     1
281
     1
  3
ACAD_XREC_ROUNDTRIP
360
14F
  0
DICTIONARY
  5
152
330
31
100
AcDbDictionary
280
     1
281
     1
  3
ACAD_XREC_ROUNDTRIP
360
153
  0
DICTIONARY
  5
150
330
30
100
AcDbDictionary
280
     1
281
     1
  3
ACAD_XREC_ROUNDTRIP
360
151
  0
DICTIONARY
  5
154
330
32
100
AcDbDictionary
280
     1
281
     1
  3
ACAD_XREC_ROUNDTRIP
360
155
  0
DICTIONARY
  5
15C
330
36
100
AcDbDictionary
280
     1
281
     1
  3
ACAD_XREC_ROUNDTRIP
360
15D
  0
DICTIONARY
  5
164
330
3A
100
AcDbDictionary
280
     1
281
     1
  3
ACAD_XREC_ROUNDTRIP
360
165
  0
DICTIONARY
  5
158
330
34
100
AcDbDictionary
280
     1
281
     1
  3
ACAD_XREC_ROUNDTRIP
360
159
  0
DICTIONARY
  5
15A
330
35
100
AcDbDictionary
280
     1
281
     1
  3
ACAD_XREC_ROUNDTRIP
360
15B
  0
DICTIONARY
  5
162
330
39
100
AcDbDictionary
280
     1
281
     1
  3
ACAD_XREC_ROUNDTRIP
360
163
  0
DICTIONARY
  5
146
330
2B
100
AcDbDictionary
280
     1
281
     1
  3
ACAD_XREC_ROUNDTRIP
360
147
  0
DICTIONARY
  5
148
330
2C
100
AcDbDictionary
280
     1
281
     1
  3
ACAD_XREC_ROUNDTRIP
360
149
  0
DICTIONARY
  5
14A
330
2D
100
AcDbDictionary
280
     1
281
     1
  3
ACAD_XREC_ROUNDTRIP
360
14B
  0
DICTIONARY
  5
14C
330
2E
100
AcDbDictionary
280
     1
281
     1
  3
ACAD_XREC_ROUNDTRIP
360
14D
  0
DICTIONARY
  5
160
330
38
100
AcDbDictionary
280
     1
281
     1
  3
ACAD_XREC_ROUNDTRIP
360
161
  0
DICTIONARY
  5
156
330
33
100
AcDbDictionary
280
     1
281
     1
  3
ACAD_XREC_ROUNDTRIP
360
157
  0
DICTIONARY
  5
15E
330
37
100
AcDbDictionary
280
     1
281
     1
  3
ACAD_XREC_ROUNDTRIP
360
15F
  0
XRECORD
  5
169
102
{ACAD_REACTORS
330
168
102
}
330
168
100
AcDbXrecord
280
     1
102
MATERIAL
148
0.0
149
0.0
149
0.0
 93
        0
 94
      127
282
     0
 72
     1
 77
     1
171
     1
175
     1
179
     1
273
     0
  0
XRECORD
  5
167
102
{ACAD_REACTORS
330
166
102
}
330
166
100
AcDbXrecord
280
     1
102
MATERIAL
148
0.0
149
0.0
149
0.0
 93
        0
 94
      127
282
     0
 72
     1
 77
     1
171
     1
175
     1
179
     1
273
     0
  0
XRECORD
  5
16B
102
{ACAD_REACTORS
330
16A
102
}
330
16A
100
AcDbXrecord
280
     1
102
MATERIAL
148
0.0
149
0.0
149
0.0
 93
        0
 94
      127
282
     0
 72
     1
 77
     1
171
     1
175
     1
179
     1
273
     0
  0
XRECORD
  5
14F
102
{ACAD_REACTORS
330
14E
102
}
330
14E
100
AcDbXrecord
280
     1
102
RTVSPropertyOp0
 70
     1
102
RTVSPropertyOp1
 70
     1
102
RTVSPropertyOp2
 70
     1
102
RTVSPropertyOp3
 70
     1
102
RTVSPropertyOp4
 70
     1
102
RTVSPropertyOp5
 70
     1
102
RTVSPropertyOp6
 70
     1
102
RTVSPropertyOp7
 70
     1
102
RTVSPropertyOp8
 70
     1
102
RTVSPropertyOp9
 70
     1
102
RTVSPropertyOp10
 70
     1
102
RTVSPropertyOp11
 70
     1
102
RTVSPropertyOp12
 70
     1
102
RTVSPropertyOp13
 70
     1
102
RTVSPropertyOp14
 70
     1
102
RTVSPropertyOp15
 70
     1
102
RTVSPropertyOp16
 70
     1
102
RTVSPropertyOp17
 70
     1
102
RTVSPropertyOp18
 70
     1
102
RTVSPropertyOp19
 70
     1
102
RTVSPropertyOp20
 70
     1
102
RTVSPropertyOp21
 70
     1
102
RTVSPropertyOp22
 70
     1
102
RTVSPropertyOp23
 70
     1
102
RTVSPropertyOp24
 70
     1
102
RTVSPropertyOp25
 70
     1
102
RTVSPropertyOp26
 70
     1
102
RTVSPropertyOp27
 70
     1
102
RTVSPropertyOp28
 70
     1
102
RTVSPropertyOp29
 70
     1
102
RTVSPropertyOp30
 70
     1
102
RTVSPropertyOp31
 70
     1
102
RTVSPropertyOp32
 70
     1
  0
XRECORD
  5
153
102
{ACAD_REACTORS
330
152
102
}
330
152
100
AcDbXrecord
280
     1
102
RTVSPropertyOp0
 70
     1
102
RTVSPropertyOp1
 70
     1
102
RTVSPropertyOp2
 70
     1
102
RTVSPropertyOp3
 70
     1
102
RTVSPropertyOp4
 70
     1
102
RTVSPropertyOp5
 70
     1
102
RTVSPropertyOp6
 70
     1
102
RTVSPropertyOp7
 70
     1
102
RTVSPropertyOp8
 70
     1
102
RTVSPropertyOp9
 70
     1
102
RTVSPropertyOp10
 70
     1
102
RTVSPropertyOp11
 70
     1
102
RTVSPropertyOp12
 70
     1
102
RTVSPropertyOp13
 70
     1
102
RTVSPropertyOp14
 70
     1
102
RTVSPropertyOp15
 70
     1
102
RTVSPropertyOp16
 70
     1
102
RTVSPropertyOp17
 70
     1
102
RTVSPropertyOp18
 70
     1
102
RTVSPropertyOp19
 70
     1
102
RTVSPropertyOp20
 70
     1
102
RTVSPropertyOp21
 70
     1
102
RTVSPropertyOp22
 70
     1
102
RTVSPropertyOp23
 70
     1
102
RTVSPropertyOp24
 70
     1
102
RTVSPropertyOp25
 70
     1
102
RTVSPropertyOp26
 70
     1
102
RTVSPropertyOp27
 70
     1
102
RTVSPropertyOp28
 70
     1
102
RTVSPropertyOp29
 70
     1
102
RTVSPropertyOp30
 70
     1
102
RTVSPropertyOp31
 70
     1
102
RTVSPropertyOp32
 70
     1
  0
XRECORD
  5
151
102
{ACAD_REACTORS
330
150
102
}
330
150
100
AcDbXrecord
280
     1
102
RTVSPropertyOp0
 70
     1
102
RTVSPropertyOp1
 70
     1
102
RTVSPropertyOp2
 70
     1
102
RTVSPropertyOp3
 70
     1
102
RTVSPropertyOp4
 70
     1
102
RTVSPropertyOp5
 70
     1
102
RTVSPropertyOp6
 70
     1
102
RTVSPropertyOp7
 70
     1
102
RTVSPropertyOp8
 70
     1
102
RTVSPropertyOp9
 70
     1
102
RTVSPropertyOp10
 70
     1
102
RTVSPropertyOp11
 70
     1
102
RTVSPropertyOp12
 70
     1
102
RTVSPropertyOp13
 70
     1
102
RTVSPropertyOp14
 70
     1
102
RTVSPropertyOp15
 70
     1
102
RTVSPropertyOp16
 70
     1
102
RTVSPropertyOp17
 70
     1
102
RTVSPropertyOp18
 70
     1
102
RTVSPropertyOp19
 70
     1
102
RTVSPropertyOp20
 70
     1
102
RTVSPropertyOp21
 70
     1
102
RTVSPropertyOp22
 70
     1
102
RTVSPropertyOp23
 70
     1
102
RTVSPropertyOp24
 70
     1
102
RTVSPropertyOp25
 70
     1
102
RTVSPropertyOp26
 70
     1
102
RTVSPropertyOp27
 70
     1
102
RTVSPropertyOp28
 70
     1
102
RTVSPropertyOp29
 70
     1
102
RTVSPropertyOp30
 70
     1
102
RTVSPropertyOp31
 70
     1
102
RTVSPropertyOp32
 70
     1
  0
XRECORD
  5
155
102
{ACAD_REACTORS
330
154
102
}
330
154
100
AcDbXrecord
280
     1
102
RTVSPropertyOp0
 70
     1
102
RTVSPropertyOp1
 70
     1
102
RTVSPropertyOp2
 70
     1
102
RTVSPropertyOp3
 70
     1
102
RTVSPropertyOp4
 70
     1
102
RTVSPropertyOp5
 70
     1
102
RTVSPropertyOp6
 70
     1
102
RTVSPropertyOp7
 70
     1
102
RTVSPropertyOp8
 70
     1
102
RTVSPropertyOp9
 70
     1
102
RTVSPropertyOp10
 70
     1
102
RTVSPropertyOp11
 70
     1
102
RTVSPropertyOp12
 70
     1
102
RTVSPropertyOp13
 70
     1
102
RTVSPropertyOp14
 70
     1
102
RTVSPropertyOp15
 70
     1
102
RTVSPropertyOp16
 70
     1
102
RTVSPropertyOp17
 70
     1
102
RTVSPropertyOp18
 70
     1
102
RTVSPropertyOp19
 70
     1
102
RTVSPropertyOp20
 70
     1
102
RTVSPropertyOp21
 70
     1
102
RTVSPropertyOp22
 70
     1
102
RTVSPropertyOp23
 70
     1
102
RTVSPropertyOp24
 70
     1
102
RTVSPropertyOp25
 70
     1
102
RTVSPropertyOp26
 70
     1
102
RTVSPropertyOp27
 70
     1
102
RTVSPropertyOp28
 70
     1
102
RTVSPropertyOp29
 70
     1
102
RTVSPropertyOp30
 70
     1
102
RTVSPropertyOp31
 70
     1
102
RTVSPropertyOp32
 70
     1
  0
XRECORD
  5
15D
102
{ACAD_REACTORS
330
15C
102
}
330
15C
100
AcDbXrecord
280
     1
102
RTVSPropertyOp0
 70
     1
102
RTVSPropertyOp1
 70
     1
102
RTVSPropertyOp2
 70
     1
102
RTVSPropertyOp3
 70
     1
102
RTVSPropertyOp4
 70
     1
102
RTVSPropertyOp5
 70
     1
102
RTVSPropertyOp6
 70
     1
102
RTVSPropertyOp7
 70
     1
102
RTVSPropertyOp8
 70
     1
102
RTVSPropertyOp9
 70
     1
102
RTVSPropertyOp10
 70
     1
102
RTVSPropertyOp11
 70
     1
102
RTVSPropertyOp12
 70
     1
102
RTVSPropertyOp13
 70
     1
102
RTVSPropertyOp14
 70
     1
102
RTVSPropertyOp15
 70
     1
102
RTVSPropertyOp16
 70
     1
102
RTVSPropertyOp17
 70
     1
102
RTVSPropertyOp18
 70
     1
102
RTVSPropertyOp19
 70
     1
102
RTVSPropertyOp20
 70
     1
102
RTVSPropertyOp21
 70
     1
102
RTVSPropertyOp22
 70
     1
102
RTVSPropertyOp23
 70
     1
102
RTVSPropertyOp24
 70
     1
102
RTVSPropertyOp25
 70
     1
102
RTVSPropertyOp26
 70
     1
102
RTVSPropertyOp27
 70
     1
102
RTVSPropertyOp28
 70
     1
102
RTVSPropertyOp29
 70
     1
102
RTVSPropertyOp30
 70
     1
102
RTVSPropertyOp31
 70
     1
102
RTVSPropertyOp32
 70
     1
  0
XRECORD
  5
165
102
{ACAD_REACTORS
330
164
102
}
330
164
100
AcDbXrecord
280
     1
102
RTVSPropertyOp0
 70
     1
102
RTVSPropertyOp1
 70
     1
102
RTVSPropertyOp2
 70
     1
102
RTVSPropertyOp3
 70
     1
102
RTVSPropertyOp4
 70
     1
102
RTVSPropertyOp5
 70
     1
102
RTVSPropertyOp6
 70
     1
102
RTVSPropertyOp7
 70
     1
102
RTVSPropertyOp8
 70
     1
102
RTVSPropertyOp9
 70
     1
102
RTVSPropertyOp10
 70
     1
102
RTVSPropertyOp11
 70
     1
102
RTVSPropertyOp12
 70
     1
102
RTVSPropertyOp13
 70
     1
102
RTVSPropertyOp14
 70
     1
102
RTVSPropertyOp15
 70
     1
102
RTVSPropertyOp16
 70
     1
102
RTVSPropertyOp17
 70
     1
102
RTVSPropertyOp18
 70
     1
102
RTVSPropertyOp19
 70
     1
102
RTVSPropertyOp20
 70
     1
102
RTVSPropertyOp21
 70
     1
102
RTVSPropertyOp22
 70
     1
102
RTVSPropertyOp23
 70
     1
102
RTVSPropertyOp24
 70
     1
102
RTVSPropertyOp25
 70
     1
102
RTVSPropertyOp26
 70
     1
102
RTVSPropertyOp27
 70
     1
102
RTVSPropertyOp28
 70
     1
102
RTVSPropertyOp29
 70
     1
102
RTVSPropertyOp30
 70
     1
102
RTVSPropertyOp31
 70
     1
102
RTVSPropertyOp32
 70
     1
  0
XRECORD
  5
159
102
{ACAD_REACTORS
330
158
102
}
330
158
100
AcDbXrecord
280
     1
102
RTVSPropertyOp0
 70
     1
102
RTVSPropertyOp1
 70
     1
102
RTVSPropertyOp2
 70
     1
102
RTVSPropertyOp3
 70
     1
102
RTVSPropertyOp4
 70
     1
102
RTVSPropertyOp5
 70
     1
102
RTVSPropertyOp6
 70
     1
102
RTVSPropertyOp7
 70
     1
102
RTVSPropertyOp8
 70
     1
102
RTVSPropertyOp9
 70
     1
102
RTVSPropertyOp10
 70
     1
102
RTVSPropertyOp11
 70
     1
102
RTVSPropertyOp12
 70
     1
102
RTVSPropertyOp13
 70
     1
102
RTVSPropertyOp14
 70
     1
102
RTVSPropertyOp15
 70
     1
102
RTVSPropertyOp16
 70
     1
102
RTVSPropertyOp17
 70
     1
102
RTVSPropertyOp18
 70
     1
102
RTVSPropertyOp19
 70
     1
102
RTVSPropertyOp20
 70
     1
102
RTVSPropertyOp21
 70
     1
102
RTVSPropertyOp22
 70
     1
102
RTVSPropertyOp23
 70
     1
102
RTVSPropertyOp24
 70
     1
102
RTVSPropertyOp25
 70
     1
102
RTVSPropertyOp26
 70
     1
102
RTVSPropertyOp27
 70
     1
102
RTVSPropertyOp28
 70
     1
102
RTVSPropertyOp29
 70
     1
102
RTVSPropertyOp30
 70
     1
102
RTVSPropertyOp31
 70
     1
102
RTVSPropertyOp32
 70
     1
  0
XRECORD
  5
15B
102
{ACAD_REACTORS
330
15A
102
}
330
15A
100
AcDbXrecord
280
     1
102
RTVSPropertyOp0
 70
     1
102
RTVSPropertyOp1
 70
     1
102
RTVSPropertyOp2
 70
     1
102
RTVSPropertyOp3
 70
     1
102
RTVSPropertyOp4
 70
     1
102
RTVSPropertyOp5
 70
     1
102
RTVSPropertyOp6
 70
     1
102
RTVSPropertyOp7
 70
     1
102
RTVSPropertyOp8
 70
     1
102
RTVSPropertyOp9
 70
     1
102
RTVSPropertyOp10
 70
     1
102
RTVSPropertyOp11
 70
     1
102
RTVSPropertyOp12
 70
     1
102
RTVSPropertyOp13
 70
     1
102
RTVSPropertyOp14
 70
     1
102
RTVSPropertyOp15
 70
     1
102
RTVSPropertyOp16
 70
     1
102
RTVSPropertyOp17
 70
     1
102
RTVSPropertyOp18
 70
     1
102
RTVSPropertyOp19
 70
     1
102
RTVSPropertyOp20
 70
     1
102
RTVSPropertyOp21
 70
     1
102
RTVSPropertyOp22
 70
     1
102
RTVSPropertyOp23
 70
     1
102
RTVSPropertyOp24
 70
     1
102
RTVSPropertyOp25
 70
     1
102
RTVSPropertyOp26
 70
     1
102
RTVSPropertyOp27
 70
     1
102
RTVSPropertyOp28
 70
     1
102
RTVSPropertyOp29
 70
     1
102
RTVSPropertyOp30
 70
     1
102
RTVSPropertyOp31
 70
     1
102
RTVSPropertyOp32
 70
     1
  0
XRECORD
  5
163
102
{ACAD_REACTORS
330
162
102
}
330
162
100
AcDbXrecord
280
     1
102
RTVSPropertyOp0
 70
     1
102
RTVSPropertyOp1
 70
     1
102
RTVSPropertyOp2
 70
     1
102
RTVSPropertyOp3
 70
     1
102
RTVSPropertyOp4
 70
     1
102
RTVSPropertyOp5
 70
     1
102
RTVSPropertyOp6
 70
     1
102
RTVSPropertyOp7
 70
     1
102
RTVSPropertyOp8
 70
     1
102
RTVSPropertyOp9
 70
     1
102
RTVSPropertyOp10
 70
     1
102
RTVSPropertyOp11
 70
     1
102
RTVSPropertyOp12
 70
     1
102
RTVSPropertyOp13
 70
     1
102
RTVSPropertyOp14
 70
     1
102
RTVSPropertyOp15
 70
     1
102
RTVSPropertyOp16
 70
     1
102
RTVSPropertyOp17
 70
     1
102
RTVSPropertyOp18
 70
     1
102
RTVSPropertyOp19
 70
     1
102
RTVSPropertyOp20
 70
     1
102
RTVSPropertyOp21
 70
     1
102
RTVSPropertyOp22
 70
     1
102
RTVSPropertyOp23
 70
     1
102
RTVSPropertyOp24
 70
     1
102
RTVSPropertyOp25
 70
     1
102
RTVSPropertyOp26
 70
     1
102
RTVSPropertyOp27
 70
     1
102
RTVSPropertyOp28
 70
     1
102
RTVSPropertyOp29
 70
     1
102
RTVSPropertyOp30
 70
     1
102
RTVSPropertyOp31
 70
     1
102
RTVSPropertyOp32
 70
     1
  0
XRECORD
  5
147
102
{ACAD_REACTORS
330
146
102
}
330
146
100
AcDbXrecord
280
     1
102
RTVSPropertyOp0
 70
     1
102
RTVSPropertyOp1
 70
     1
102
RTVSPropertyOp2
 70
     1
102
RTVSPropertyOp3
 70
     1
102
RTVSPropertyOp4
 70
     1
102
RTVSPropertyOp5
 70
     1
102
RTVSPropertyOp6
 70
     1
102
RTVSPropertyOp7
 70
     1
102
RTVSPropertyOp8
 70
     1
102
RTVSPropertyOp9
 70
     1
102
RTVSPropertyOp10
 70
     1
102
RTVSPropertyOp11
 70
     1
102
RTVSPropertyOp12
 70
     1
102
RTVSPropertyOp13
 70
     1
102
RTVSPropertyOp14
 70
     1
102
RTVSPropertyOp15
 70
     1
102
RTVSPropertyOp16
 70
     1
102
RTVSPropertyOp17
 70
     1
102
RTVSPropertyOp18
 70
     1
102
RTVSPropertyOp19
 70
     1
102
RTVSPropertyOp20
 70
     1
102
RTVSPropertyOp21
 70
     1
102
RTVSPropertyOp22
 70
     1
102
RTVSPropertyOp23
 70
     1
102
RTVSPropertyOp24
 70
     1
102
RTVSPropertyOp25
 70
     1
102
RTVSPropertyOp26
 70
     1
102
RTVSPropertyOp27
 70
     1
102
RTVSPropertyOp28
 70
     1
102
RTVSPropertyOp29
 70
     1
102
RTVSPropertyOp30
 70
     1
102
RTVSPropertyOp31
 70
     1
102
RTVSPropertyOp32
 70
     1
  0
XRECORD
  5
149
102
{ACAD_REACTORS
330
148
102
}
330
148
100
AcDbXrecord
280
     1
102
RTVSPropertyOp0
 70
     1
102
RTVSPropertyOp1
 70
     1
102
RTVSPropertyOp2
 70
     1
102
RTVSPropertyOp3
 70
     1
102
RTVSPropertyOp4
 70
     1
102
RTVSPropertyOp5
 70
     1
102
RTVSPropertyOp6
 70
     1
102
RTVSPropertyOp7
 70
     1
102
RTVSPropertyOp8
 70
     1
102
RTVSPropertyOp9
 70
     1
102
RTVSPropertyOp10
 70
     1
102
RTVSPropertyOp11
 70
     1
102
RTVSPropertyOp12
 70
     1
102
RTVSPropertyOp13
 70
     1
102
RTVSPropertyOp14
 70
     1
102
RTVSPropertyOp15
 70
     1
102
RTVSPropertyOp16
 70
     1
102
RTVSPropertyOp17
 70
     1
102
RTVSPropertyOp18
 70
     1
102
RTVSPropertyOp19
 70
     1
102
RTVSPropertyOp20
 70
     1
102
RTVSPropertyOp21
 70
     1
102
RTVSPropertyOp22
 70
     1
102
RTVSPropertyOp23
 70
     1
102
RTVSPropertyOp24
 70
     1
102
RTVSPropertyOp25
 70
     1
102
RTVSPropertyOp26
 70
     1
102
RTVSPropertyOp27
 70
     1
102
RTVSPropertyOp28
 70
     1
102
RTVSPropertyOp29
 70
     1
102
RTVSPropertyOp30
 70
     1
102
RTVSPropertyOp31
 70
     1
102
RTVSPropertyOp32
 70
     1
  0
XRECORD
  5
14B
102
{ACAD_REACTORS
330
14A
102
}
330
14A
100
AcDbXrecord
280
     1
102
RTVSPropertyOp0
 70
     1
102
RTVSPropertyOp1
 70
     1
102
RTVSPropertyOp2
 70
     1
102
RTVSPropertyOp3
 70
     1
102
RTVSPropertyOp4
 70
     1
102
RTVSPropertyOp5
 70
     1
102
RTVSPropertyOp6
 70
     1
102
RTVSPropertyOp7
 70
     1
102
RTVSPropertyOp8
 70
     1
102
RTVSPropertyOp9
 70
     1
102
RTVSPropertyOp10
 70
     1
102
RTVSPropertyOp11
 70
     1
102
RTVSPropertyOp12
 70
     1
102
RTVSPropertyOp13
 70
     1
102
RTVSPropertyOp14
 70
     1
102
RTVSPropertyOp15
 70
     1
102
RTVSPropertyOp16
 70
     1
102
RTVSPropertyOp17
 70
     1
102
RTVSPropertyOp18
 70
     1
102
RTVSPropertyOp19
 70
     1
102
RTVSPropertyOp20
 70
     1
102
RTVSPropertyOp21
 70
     1
102
RTVSPropertyOp22
 70
     1
102
RTVSPropertyOp23
 70
     1
102
RTVSPropertyOp24
 70
     1
102
RTVSPropertyOp25
 70
     1
102
RTVSPropertyOp26
 70
     1
102
RTVSPropertyOp27
 70
     1
102
RTVSPropertyOp28
 70
     1
102
RTVSPropertyOp29
 70
     1
102
RTVSPropertyOp30
 70
     1
102
RTVSPropertyOp31
 70
     1
102
RTVSPropertyOp32
 70
     1
  0
XRECORD
  5
14D
102
{ACAD_REACTORS
330
14C
102
}
330
14C
100
AcDbXrecord
280
     1
102
RTVSPropertyOp0
 70
     1
102
RTVSPropertyOp1
 70
     1
102
RTVSPropertyOp2
 70
     1
102
RTVSPropertyOp3
 70
     1
102
RTVSPropertyOp4
 70
     1
102
RTVSPropertyOp5
 70
     1
102
RTVSPropertyOp6
 70
     1
102
RTVSPropertyOp7
 70
     1
102
RTVSPropertyOp8
 70
     1
102
RTVSPropertyOp9
 70
     1
102
RTVSPropertyOp10
 70
     1
102
RTVSPropertyOp11
 70
     1
102
RTVSPropertyOp12
 70
     1
102
RTVSPropertyOp13
 70
     1
102
RTVSPropertyOp14
 70
     1
102
RTVSPropertyOp15
 70
     1
102
RTVSPropertyOp16
 70
     1
102
RTVSPropertyOp17
 70
     1
102
RTVSPropertyOp18
 70
     1
102
RTVSPropertyOp19
 70
     1
102
RTVSPropertyOp20
 70
     1
102
RTVSPropertyOp21
 70
     1
102
RTVSPropertyOp22
 70
     1
102
RTVSPropertyOp23
 70
     1
102
RTVSPropertyOp24
 70
     1
102
RTVSPropertyOp25
 70
     1
102
RTVSPropertyOp26
 70
     1
102
RTVSPropertyOp27
 70
     1
102
RTVSPropertyOp28
 70
     1
102
RTVSPropertyOp29
 70
     1
102
RTVSPropertyOp30
 70
     1
102
RTVSPropertyOp31
 70
     1
102
RTVSPropertyOp32
 70
     1
  0
XRECORD
  5
161
102
{ACAD_REACTORS
330
160
102
}
330
160
100
AcDbXrecord
280
     1
102
RTVSPropertyOp0
 70
     1
102
RTVSPropertyOp1
 70
     1
102
RTVSPropertyOp2
 70
     1
102
RTVSPropertyOp3
 70
     1
102
RTVSPropertyOp4
 70
     1
102
RTVSPropertyOp5
 70
     1
102
RTVSPropertyOp6
 70
     1
102
RTVSPropertyOp7
 70
     1
102
RTVSPropertyOp8
 70
     1
102
RTVSPropertyOp9
 70
     1
102
RTVSPropertyOp10
 70
     1
102
RTVSPropertyOp11
 70
     1
102
RTVSPropertyOp12
 70
     1
102
RTVSPropertyOp13
 70
     1
102
RTVSPropertyOp14
 70
     1
102
RTVSPropertyOp15
 70
     1
102
RTVSPropertyOp16
 70
     1
102
RTVSPropertyOp17
 70
     1
102
RTVSPropertyOp18
 70
     1
102
RTVSPropertyOp19
 70
     1
102
RTVSPropertyOp20
 70
     1
102
RTVSPropertyOp21
 70
     1
102
RTVSPropertyOp22
 70
     1
102
RTVSPropertyOp23
 70
     1
102
RTVSPropertyOp24
 70
     1
102
RTVSPropertyOp25
 70
     1
102
RTVSPropertyOp26
 70
     1
102
RTVSPropertyOp27
 70
     1
102
RTVSPropertyOp28
 70
     1
102
RTVSPropertyOp29
 70
     1
102
RTVSPropertyOp30
 70
     1
102
RTVSPropertyOp31
 70
     1
102
RTVSPropertyOp32
 70
     1
  0
XRECORD
  5
157
102
{ACAD_REACTORS
330
156
102
}
330
156
100
AcDbXrecord
280
     1
102
RTVSPropertyOp0
 70
     1
102
RTVSPropertyOp1
 70
     1
102
RTVSPropertyOp2
 70
     1
102
RTVSPropertyOp3
 70
     1
102
RTVSPropertyOp4
 70
     1
102
RTVSPropertyOp5
 70
     1
102
RTVSPropertyOp6
 70
     1
102
RTVSPropertyOp7
 70
     1
102
RTVSPropertyOp8
 70
     1
102
RTVSPropertyOp9
 70
     1
102
RTVSPropertyOp10
 70
     1
102
RTVSPropertyOp11
 70
     1
102
RTVSPropertyOp12
 70
     1
102
RTVSPropertyOp13
 70
     1
102
RTVSPropertyOp14
 70
     1
102
RTVSPropertyOp15
 70
     1
102
RTVSPropertyOp16
 70
     1
102
RTVSPropertyOp17
 70
     1
102
RTVSPropertyOp18
 70
     1
102
RTVSPropertyOp19
 70
     1
102
RTVSPropertyOp20
 70
     1
102
RTVSPropertyOp21
 70
     1
102
RTVSPropertyOp22
 70
     1
102
RTVSPropertyOp23
 70
     1
102
RTVSPropertyOp24
 70
     1
102
RTVSPropertyOp25
 70
     1
102
RTVSPropertyOp26
 70
     1
102
RTVSPropertyOp27
 70
     1
102
RTVSPropertyOp28
 70
     1
102
RTVSPropertyOp29
 70
     1
102
RTVSPropertyOp30
 70
     1
102
RTVSPropertyOp31
 70
     1
102
RTVSPropertyOp32
 70
     1
  0
XRECORD
  5
15F
102
{ACAD_REACTORS
330
15E
102
}
330
15E
100
AcDbXrecord
280
     1
102
RTVSPropertyOp0
 70
     1
102
RTVSPropertyOp1
 70
     1
102
RTVSPropertyOp2
 70
     1
102
RTVSPropertyOp3
 70
     1
102
RTVSPropertyOp4
 70
     1
102
RTVSPropertyOp5
 70
     1
102
RTVSPropertyOp6
 70
     1
102
RTVSPropertyOp7
 70
     1
102
RTVSPropertyOp8
 70
     1
102
RTVSPropertyOp9
 70
     1
102
RTVSPropertyOp10
 70
     1
102
RTVSPropertyOp11
 70
     1
102
RTVSPropertyOp12
 70
     1
102
RTVSPropertyOp13
 70
     1
102
RTVSPropertyOp14
 70
     1
102
RTVSPropertyOp15
 70
     1
102
RTVSPropertyOp16
 70
     1
102
RTVSPropertyOp17
 70
     1
102
RTVSPropertyOp18
 70
     1
102
RTVSPropertyOp19
 70
     1
102
RTVSPropertyOp20
 70
     1
102
RTVSPropertyOp21
 70
     1
102
RTVSPropertyOp22
 70
     1
102
RTVSPropertyOp23
 70
     1
102
RTVSPropertyOp24
 70
     1
102
RTVSPropertyOp25
 70
     1
102
RTVSPropertyOp26
 70
     1
102
RTVSPropertyOp27
 70
     1
102
RTVSPropertyOp28
 70
     1
102
RTVSPropertyOp29
 70
     1
102
RTVSPropertyOp30
 70
     1
102
RTVSPropertyOp31
 70
     1
102
RTVSPropertyOp32
 70
     1
  0
ENDSEC
  0
EOF
