  0
SECTION
  2
HEADER
  9
$ACADVER
  1
AC1015
  9
$ACADMAINTVER
 70
     6
  9
$DWGCODEPAGE
  3
ANSI_1252
  9
$INSBASE
 10
0.0
 20
0.0
 30
0.0
  9
$EXTMIN
 10
0.0
 20
0.0
 30
0.0
  9
$EXTMAX
 10
210.0
 20
297.0
 30
0.0
  9
$LIMMIN
 10
0.0
 20
0.0
  9
$LIMMAX
 10
210.0
 20
297.0
  9
$ORTHOMODE
 70
     0
  9
$REGENMODE
 70
     1
  9
$FILLMODE
 70
     1
  9
$QTEXTMODE
 70
     0
  9
$MIRRTEXT
 70
     1
  9
$LTSCALE
 40
1.0
  9
$ATTMODE
 70
     1
  9
$TEXTSIZE
 40
2.5
  9
$TRACEWID
 40
1.0
  9
$TEXTSTYLE
  7
Standard
  9
$CLAYER
  8
0
  9
$CELTYPE
  6
ByLayer
  9
$CECOLOR
 62
   256
  9
$CELTSCALE
 40
1.0
  9
$DISPSILH
 70
     0
  9
$DIMSCALE
 40
1.0
  9
$DIMASZ
 40
2.5
  9
$DIMEXO
 40
0.625
  9
$DIMDLI
 40
3.75
  9
$DIMRND
 40
0.0
  9
$DIMDLE
 40
0.0
  9
$DIMEXE
 40
1.25
  9
$DIMTP
 40
0.0
  9
$DIMTM
 40
0.0
  9
$DIMTXT
 40
2.5
  9
$DIMCEN
 40
2.5
  9
$DIMTSZ
 40
0.0
  9
$DIMTOL
 70
     0
  9
$DIMLIM
 70
     0
  9
$DIMTIH
 70
     0
  9
$DIMTOH
 70
     0
  9
$DIMSE1
 70
     0
  9
$DIMSE2
 70
     0
  9
$DIMTAD
 70
     1
  9
$DIMZIN
 70
     8
  9
$DIMBLK
  1

  9
$DIMASO
 70
     1
  9
$DIMSHO
 70
     1
  9
$DIMPOST
  1

  9
$DIMAPOST
  1

  9
$DIMALT
 70
     0
  9
$DIMALTD
 70
     3
  9
$DIMALTF
 40
0.0393700787
  9
$DIMLFAC
 40
1.0
  9
$DIMTOFL
 70
     1
  9
$DIMTVP
 40
0.0
  9
$DIMTIX
 70
     0
  9
$DIMSOXD
 70
     0
  9
$DIMSAH
 70
     0
  9
$DIMBLK1
  1

  9
$DIMBLK2
  1

  9
$DIMSTYLE
  2
ISO-25
  9
$DIMCLRD
 70
     0
  9
$DIMCLRE
 70
     0
  9
$DIMCLRT
 70
     0
  9
$DIMTFAC
 40
1.0
  9
$DIMGAP
 40
0.625
  9
$DIMJUST
 70
     0
  9
$DIMSD1
 70
     0
  9
$DIMSD2
 70
     0
  9
$DIMTOLJ
 70
     0
  9
$DIMTZIN
 70
     8
  9
$DIMALTZ
 70
     0
  9
$DIMALTTZ
 70
     0
  9
$DIMUPT
 70
     0
  9
$DIMDEC
 70
     2
  9
$DIMTDEC
 70
     2
  9
$DIMALTU
 70
     2
  9
$DIMALTTD
 70
     3
  9
$DIMTXSTY
  7
Standard
  9
$DIMAUNIT
 70
     0
  9
$DIMADEC
 70
     0
  9
$DIMALTRND
 40
0.0
  9
$DIMAZIN
 70
     0
  9
$DIMDSEP
 70
    44
  9
$DIMATFIT
 70
     3
  9
$DIMFRAC
 70
     0
  9
$DIMLDRBLK
  1

  9
$DIMLUNIT
 70
     2
  9
$DIMLWD
 70
    -2
  9
$DIMLWE
 70
    -2
  9
$DIMTMOVE
 70
     0
  9
$LUNITS
 70
     2
  9
$LUPREC
 70
     4
  9
$SKETCHINC
 40
1.0
  9
$FILLETRAD
 40
10.0
  9
$AUNITS
 70
     0
  9
$AUPREC
 70
     0
  9
$MENU
  1
.
  9
$ELEVATION
 40
0.0
  9
$PELEVATION
 40
0.0
  9
$THICKNESS
 40
0.0
  9
$LIMCHECK
 70
     0
  9
$CHAMFERA
 40
10.0
  9
$CHAMFERB
 40
10.0
  9
$CHAMFERC
 40
20.0
  9
$CHAMFERD
 40
0.0
  9
$SKPOLY
 70
     0
  9
$TDCREATE
 40
2457560.528056794
  9
$TDUCREATE
 40
2457560.444723461
  9
$TDUPDATE
 40
2457560.528058472
  9
$TDUUPDATE
 40
2457560.444725139
  9
$TDINDWG
 40
0.0000000116
  9
$TDUSRTIMER
 40
0.0000000116
  9
$USRTIMER
 70
     1
  9
$ANGBASE
 50
0.0
  9
$ANGDIR
 70
     0
  9
$PDMODE
 70
     0
  9
$PDSIZE
 40
0.0
  9
$PLINEWID
 40
0.0
  9
$SPLFRAME
 70
     0
  9
$SPLINETYPE
 70
     6
  9
$SPLINESEGS
 70
     8
  9
$HANDSEED
  5
16A
  9
$SURFTAB1
 70
     6
  9
$SURFTAB2
 70
     6
  9
$SURFTYPE
 70
     6
  9
$SURFU
 70
     6
  9
$SURFV
 70
     6
  9
$UCSBASE
  2

  9
$UCSNAME
  2

  9
$UCSORG
 10
0.0
 20
0.0
 30
0.0
  9
$UCSXDIR
 10
1.0
 20
0.0
 30
0.0
  9
$UCSYDIR
 10
0.0
 20
1.0
 30
0.0
  9
$UCSORTHOREF
  2

  9
$UCSORTHOVIEW
 70
     0
  9
$UCSORGTOP
 10
0.0
 20
0.0
 30
0.0
  9
$UCSORGBOTTOM
 10
0.0
 20
0.0
 30
0.0
  9
$UCSORGLEFT
 10
0.0
 20
0.0
 30
0.0
  9
$UCSORGRIGHT
 10
0.0
 20
0.0
 30
0.0
  9
$UCSORGFRONT
 10
0.0
 20
0.0
 30
0.0
  9
$UCSORGBACK
 10
0.0
 20
0.0
 30
0.0
  9
$PUCSBASE
  2

  9
$PUCSNAME
  2

  9
$PUCSORG
 10
0.0
 20
0.0
 30
0.0
  9
$PUCSXDIR
 10
1.0
 20
0.0
 30
0.0
  9
$PUCSYDIR
 10
0.0
 20
1.0
 30
0.0
  9
$PUCSORTHOREF
  2

  9
$PUCSORTHOVIEW
 70
     0
  9
$PUCSORGTOP
 10
0.0
 20
0.0
 30
0.0
  9
$PUCSORGBOTTOM
 10
0.0
 20
0.0
 30
0.0
  9
$PUCSORGLEFT
 10
0.0
 20
0.0
 30
0.0
  9
$PUCSORGRIGHT
 10
0.0
 20
0.0
 30
0.0
  9
$PUCSORGFRONT
 10
0.0
 20
0.0
 30
0.0
  9
$PUCSORGBACK
 10
0.0
 20
0.0
 30
0.0
  9
$USERI1
 70
     0
  9
$USERI2
 70
     0
  9
$USERI3
 70
     0
  9
$USERI4
 70
     0
  9
$USERI5
 70
     0
  9
$USERR1
 40
0.0
  9
$USERR2
 40
0.0
  9
$USERR3
 40
0.0
  9
$USERR4
 40
0.0
  9
$USERR5
 40
0.0
  9
$WORLDVIEW
 70
     1
  9
$SHADEDGE
 70
     3
  9
$SHADEDIF
 70
    70
  9
$TILEMODE
 70
     1
  9
$MAXACTVP
 70
    64
  9
$PINSBASE
 10
0.0
 20
0.0
 30
0.0
  9
$PLIMCHECK
 70
     0
  9
$PEXTMIN
 10
0.0
 20
0.0
 30
0.0
  9
$PEXTMAX
 10
210.0
 20
297.0
 30
0.0
  9
$PLIMMIN
 10
0.0
 20
0.0
  9
$PLIMMAX
 10
210.0
 20
297.0
  9
$UNITMODE
 70
     0
  9
$VISRETAIN
 70
     1
  9
$PLINEGEN
 70
     0
  9
$PSLTSCALE
 70
     1
  9
$TREEDEPTH
 70
  3020
  9
$CMLSTYLE
  2
Standard
  9
$CMLJUST
 70
     0
  9
$CMLSCALE
 40
20.0
  9
$PROXYGRAPHICS
 70
     1
  9
$MEASUREMENT
 70
     1
  9
$CELWEIGHT
370
    -1
  9
$ENDCAPS
280
     0
  9
$JOINSTYLE
280
     0
  9
$LWDISPLAY
290
     0
  9
$INSUNITS
 70
     4
  9
$HYPERLINKBASE
  1

  9
$STYLESHEET
  1

  9
$XEDIT
290
     1
  9
$CEPSNTYPE
380
     0
  9
$PSTYLEMODE
290
     1
  9
$FINGERPRINTGUID
  2
{46957485-54D8-4510-8524-2826971664B8}
  9
$VERSIONGUID
  2
{FAEB1C32-E019-11D5-929B-00C0DF256EC4}
  9
$EXTNAMES
290
     1
  9
$PSVPSCALE
 40
0.0
  9
$OLESTARTUP
290
     0
  0
ENDSEC
  0
SECTION
  2
CLASSES
  0
CLASS
  1
ACDBDICTIONARYWDFLT
  2
AcDbDictionaryWithDefault
  3
ObjectDBX Classes
 90
        0
280
     0
281
     0
  0
CLASS
  1
VISUALSTYLE
  2
AcDbVisualStyle
  3
ObjectDBX Classes
 90
     4095
280
     0
281
     0
  0
CLASS
  1
MATERIAL
  2
AcDbMaterial
  3
ObjectDBX Classes
 90
     1153
280
     0
281
     0
  0
CLASS
  1
DICTIONARYVAR
  2
AcDbDictionaryVar
  3
ObjectDBX Classes
 90
        0
280
     0
281
     0
  0
CLASS
  1
ACDBPLACEHOLDER
  2
AcDbPlaceHolder
  3
ObjectDBX Classes
 90
        0
280
     0
281
     0
  0
CLASS
  1
LAYOUT
  2
AcDbLayout
  3
ObjectDBX Classes
 90
        0
280
     0
281
     0
  0
ENDSEC
  0
SECTION
  2
TABLES
  0
TABLE
  2
VPORT
  5
8
330
0
100
AcDbSymbolTable
 70
     1
  0
VPORT
  5
29
330
8
100
AcDbSymbolTableRecord
100
AcDbViewportTableRecord
  2
*Active
 70
     0
 10
0.0
 20
0.0
 11
1.0
 21
1.0
 12
344.1869158879
 22
148.5
 13
0.0
 23
0.0
 14
10.0
 24
10.0
 15
10.0
 25
10.0
 16
0.0
 26
0.0
 36
1.0
 17
0.0
 27
0.0
 37
0.0
 40
297.0
 41
1.9729729729
 42
50.0
 43
0.0
 44
0.0
 50
0.0
 51
0.0
 71
     0
 72
   100
 73
     1
 74
     3
 75
     0
 76
     0
 77
     0
 78
     0
281
     0
 65
     1
110
0.0
120
0.0
130
0.0
111
1.0
121
0.0
131
0.0
112
0.0
122
1.0
132
0.0
 79
     0
146
0.0
  0
ENDTAB
  0
TABLE
  2
LTYPE
  5
5
330
0
100
AcDbSymbolTable
 70
     2
  0
LTYPE
  5
14
330
5
100
AcDbSymbolTableRecord
100
AcDbLinetypeTableRecord
  2
ByBlock
 70
     0
  3

 72
    65
 73
     0
 40
0.0
  0
LTYPE
  5
15
330
5
100
AcDbSymbolTableRecord
100
AcDbLinetypeTableRecord
  2
ByLayer
 70
     0
  3

 72
    65
 73
     0
 40
0.0
  0
LTYPE
  5
16
330
5
100
AcDbSymbolTableRecord
100
AcDbLinetypeTableRecord
  2
Continuous
 70
     0
  3
Solid line
 72
    65
 73
     0
 40
0.0
  0
LTYPE
  5
5C
330
5
100
AcDbSymbolTableRecord
100
AcDbLinetypeTableRecord
  2
HIDDEN2
 70
     0
  3
Hidden (.5x) _ _ _ _ _ _ _ _ _ _ _ _ _ _ _ _ _ 
 72
    65
 73
     2
 40
4.7625
 49
3.175
 74
     4
 75
     0
340
0
 46
0.0
 50
0.0
 44
0.0
 45
0.0
 49
-1.5875
 74
     4
 75
     0
340
0
 46
0.0
 50
0.0
 44
0.0
 45
0.0
  0
ENDTAB
  0
TABLE
  2
LAYER
  5
2
330
0
100
AcDbSymbolTable
 70
     5
  0
LAYER
  5
10
330
2
100
AcDbSymbolTableRecord
100
AcDbLayerTableRecord
  2
0
 70
     0
 62
     7
  6
Continuous
370
    -3
390
F
  0
LAYER
  5
3F
330
2
100
AcDbSymbolTableRecord
100
AcDbLayerTableRecord
  2
SK2
 70
     0
 62
     7
  6
Continuous
370
    15
390
F
  0
LAYER
  5
40
330
2
100
AcDbSymbolTableRecord
100
AcDbLayerTableRecord
  2
SK1
 70
     0
 62
     4
  6
Continuous
370
    18
390
F
  0
LAYER
  5
5B
330
2
100
AcDbSymbolTableRecord
100
AcDbLayerTableRecord
  2
SK3
 70
     0
 62
     1
  6
HIDDEN2
370
    15
390
F
  0
LAYER
  5
FD
330
2
100
AcDbSymbolTableRecord
100
AcDbLayerTableRecord
  2
SK4
 70
     0
 62
     2
  6
Continuous
370
    13
390
F
  0
ENDTAB
  0
TABLE
  2
STYLE
  5
3
330
0
100
AcDbSymbolTable
 70
     2
  0
STYLE
  5
11
330
3
100
AcDbSymbolTableRecord
100
AcDbTextStyleTableRecord
  2
Standard
 70
     0
 40
0.0
 41
1.0
 50
0.0
 71
     0
 42
2.5
  3
txt
  4

  0
STYLE
  5
111
330
3
100
AcDbSymbolTableRecord
100
AcDbTextStyleTableRecord
  2
SEACAD_Solid_Edge_ISO
 70
     0
 40
0.0
 41
1.0
 50
0.0
 71
     0
 42
0.2
  3
seiso.ttf
  4

1001
ACAD
1000
Solid Edge ISO
1071
        0
  0
ENDTAB
  0
TABLE
  2
VIEW
  5
6
330
0
100
AcDbSymbolTable
 70
     0
  0
ENDTAB
  0
TABLE
  2
UCS
  5
7
330
0
100
AcDbSymbolTable
 70
     0
  0
ENDTAB
  0
TABLE
  2
APPID
  5
9
330
0
100
AcDbSymbolTable
 70
     1
  0
APPID
  5
12
330
9
100
AcDbSymbolTableRecord
100
AcDbRegAppTableRecord
  2
ACAD
 70
     0
  0
ENDTAB
  0
TABLE
  2
DIMSTYLE
  5
A
330
0
100
AcDbSymbolTable
 70
     3
100
AcDbDimStyleTable
  0
DIMSTYLE
105
27
330
A
100
AcDbSymbolTableRecord
100
AcDbDimStyleTableRecord
  2
ISO-25
 70
     0
 41
2.5
 42
0.625
 43
3.75
 44
1.25
 73
     0
 74
     0
 77
     1
 78
     8
140
2.5
141
2.5
143
0.0393700787
147
0.625
171
     3
172
     1
178
     0
271
     2
272
     2
274
     3
278
    44
283
     0
284
     8
340
11
  0
DIMSTYLE
105
FF
330
A
100
AcDbSymbolTableRecord
100
AcDbDimStyleTableRecord
  2
Standard
 70
     0
178
     0
340
11
  0
DIMSTYLE
105
112
102
{ACAD_REACTORS
330
113
330
11E
330
128
330
133
102
}
330
A
100
AcDbSymbolTableRecord
100
AcDbDimStyleTableRecord
  2
DIN
 70
     0
 41
3.5
 42
0.0
 44
1.75
 73
     0
 74
     0
 77
     1
 78
     8
140
3.5
141
1.75
147
1.75
172
     1
173
     1
178
     0
179
     3
271
     1
272
     1
278
    44
284
     8
340
111
343
10C
344
10C
  0
ENDTAB
  0
TABLE
  2
BLOCK_RECORD
  5
1
330
0
100
AcDbSymbolTable
 70
    10
  0
BLOCK_RECORD
  5
1F
330
1
100
AcDbSymbolTableRecord
100
AcDbBlockTableRecord
  2
*Model_Space
340
22
  0
BLOCK_RECORD
  5
1B
330
1
100
AcDbSymbolTableRecord
100
AcDbBlockTableRecord
  2
*Paper_Space
340
1E
  0
BLOCK_RECORD
  5
41
330
1
100
AcDbSymbolTableRecord
100
AcDbBlockTableRecord
  2
Nullpunkt
340
0
102
{BLKREFS
331
4B
102
}
  0
BLOCK_RECORD
  5
4C
330
1
100
AcDbSymbolTableRecord
100
AcDbBlockTableRecord
  2
Einfügepunkt
340
0
102
{BLKREFS
331
56
102
}
  0
BLOCK_RECORD
  5
100
330
1
100
AcDbSymbolTableRecord
100
AcDbBlockTableRecord
  2
_OBLIQUE
340
0
  0
BLOCK_RECORD
  5
104
330
1
100
AcDbSymbolTableRecord
100
AcDbBlockTableRecord
  2
_DOT
340
0
  0
BLOCK_RECORD
  5
10C
330
1
100
AcDbSymbolTableRecord
100
AcDbBlockTableRecord
  2
_SE_FILLED
340
0
  0
BLOCK_RECORD
  5
114
330
1
100
AcDbSymbolTableRecord
100
AcDbBlockTableRecord
  2
DMBLK67
340
0
  0
BLOCK_RECORD
  5
11F
330
1
100
AcDbSymbolTableRecord
100
AcDbBlockTableRecord
  2
DMBLK68
340
0
  0
BLOCK_RECORD
  5
129
330
1
100
AcDbSymbolTableRecord
100
AcDbBlockTableRecord
  2
DMBLK69
340
0
  0
BLOCK_RECORD
  5
134
330
1
100
AcDbSymbolTableRecord
100
AcDbBlockTableRecord
  2
DMBLK70
340
0
  0
ENDTAB
  0
ENDSEC
  0
SECTION
  2
BLOCKS
  0
BLOCK
  5
20
330
1F
100
AcDbEntity
  8
0
100
AcDbBlockBegin
  2
*Model_Space
 70
     0
 10
0.0
 20
0.0
 30
0.0
  3
*Model_Space
  1

  0
ENDBLK
  5
21
330
1F
100
AcDbEntity
  8
0
100
AcDbBlockEnd
  0
BLOCK
  5
1C
330
1B
100
AcDbEntity
 67
     1
  8
0
100
AcDbBlockBegin
  2
*Paper_Space
 70
     0
 10
0.0
 20
0.0
 30
0.0
  3
*Paper_Space
  1

  0
ENDBLK
  5
1D
330
1B
100
AcDbEntity
 67
     1
  8
0
100
AcDbBlockEnd
  0
BLOCK
  5
49
330
41
100
AcDbEntity
  8
0
100
AcDbBlockBegin
  2
Nullpunkt
 70
     0
 10
0.0
 20
0.0
 30
0.0
  3
Nullpunkt
  1

  0
HATCH
  5
42
330
41
100
AcDbEntity
  8
SK2
  6
Continuous
 62
     7
100
AcDbHatch
 10
0.0
 20
0.0
 30
0.0
210
0.0
220
0.0
230
1.0
  2
SOLID
 70
     1
 71
     0
 91
        1
 92
        1
 93
        3
 72
     1
 10
-1.0
 20
0.0
 11
0.0000000000000009
 21
0.0
 72
     1
 10
0.0
 20
0.0
 11
0.0
 21
1.000000000000001
 72
     2
 10
0.0
 20
0.0
 40
1.0
 50
90.0
 51
180.0
 73
     1
 97
        0
 75
     0
 76
     1
 98
        0
  0
HATCH
  5
43
330
41
100
AcDbEntity
  8
SK2
  6
Continuous
 62
     7
100
AcDbHatch
 10
0.0
 20
0.0
 30
0.0
210
0.0
220
0.0
230
1.0
  2
SOLID
 70
     1
 71
     0
 91
        1
 92
        1
 93
        3
 72
     2
 10
0.0
 20
0.0
 40
1.0
 50
270.0
 51
360.0
 73
     1
 72
     1
 10
1.0
 20
0.0
 11
-0.0000000000000009
 21
0.0
 72
     1
 10
0.0
 20
0.0
 11
0.0
 21
-1.000000000000001
 97
        0
 75
     0
 76
     1
 98
        0
  0
CIRCLE
  5
44
330
41
100
AcDbEntity
  8
SK2
  6
Continuous
 62
     7
100
AcDbCircle
 10
0.0
 20
0.0
 30
0.0
 40
1.0
  0
LINE
  5
45
330
41
100
AcDbEntity
  8
SK1
  6
Continuous
100
AcDbLine
 10
-1.0
 20
0.0
 30
0.0
 11
1.0
 21
0.0
 31
0.0
  0
LINE
  5
46
330
41
100
AcDbEntity
  8
SK1
  6
Continuous
100
AcDbLine
 10
0.0
 20
1.0
 30
0.0
 11
0.0
 21
-1.0
 31
0.0
  0
POINT
  5
47
330
41
100
AcDbEntity
  8
SK1
  6
Continuous
100
AcDbPoint
 10
0.0
 20
0.0
 30
0.0
  0
POINT
  5
48
330
41
100
AcDbEntity
  8
SK1
  6
Continuous
100
AcDbPoint
 10
0.0
 20
0.0
 30
0.0
  0
ENDBLK
  5
4A
330
41
100
AcDbEntity
  8
0
100
AcDbBlockEnd
  0
BLOCK
  5
54
330
4C
100
AcDbEntity
  8
0
100
AcDbBlockBegin
  2
Einfügepunkt
 70
     0
 10
0.0
 20
0.0
 30
0.0
  3
Einfügepunkt
  1

  0
HATCH
  5
4D
330
4C
100
AcDbEntity
  8
SK2
  6
Continuous
 62
     7
100
AcDbHatch
 10
0.0
 20
0.0
 30
0.0
210
0.0
220
0.0
230
1.0
  2
SOLID
 70
     1
 71
     0
 91
        1
 92
        1
 93
        3
 72
     1
 10
-0.4502381196756744
 20
-0.0000000000000018
 11
0.0000000000000033
 21
-0.0000000000000018
 72
     1
 10
0.0
 20
-0.0000000000000018
 11
0.0
 21
0.4502381196756812
 72
     2
 10
0.0
 20
-0.0000000000000018
 40
0.4502381196756812
 50
90.0
 51
180.0
 73
     1
 97
        0
 75
     0
 76
     1
 98
        0
  0
HATCH
  5
4E
330
4C
100
AcDbEntity
  8
SK2
  6
Continuous
 62
     7
100
AcDbHatch
 10
0.0
 20
0.0
 30
0.0
210
0.0
220
0.0
230
1.0
  2
SOLID
 70
     1
 71
     0
 91
        1
 92
        1
 93
        3
 72
     2
 10
0.0
 20
-0.0000000000000018
 40
0.4502381196756812
 50
270.0
 51
360.0
 73
     1
 72
     1
 10
0.4502381196756815
 20
-0.0000000000000018
 11
0.0000000000000038
 21
-0.0000000000000018
 72
     1
 10
0.0
 20
-0.0000000000000018
 11
0.0
 21
-0.4502381196756812
 97
        0
 75
     0
 76
     1
 98
        0
  0
CIRCLE
  5
4F
330
4C
100
AcDbEntity
  8
SK2
  6
Continuous
 62
     7
100
AcDbCircle
 10
0.0
 20
0.0
 30
0.0
 40
0.4502381196756812
  0
LINE
  5
50
330
4C
100
AcDbEntity
  8
SK1
  6
Continuous
100
AcDbLine
 10
-0.4502381197
 20
0.0
 30
0.0
 11
0.4502381197
 21
0.0
 31
0.0
  0
LINE
  5
51
330
4C
100
AcDbEntity
  8
SK1
  6
Continuous
100
AcDbLine
 10
0.0
 20
0.4502381197
 30
0.0
 11
0.0
 21
-0.4502381197
 31
0.0
  0
POINT
  5
52
330
4C
100
AcDbEntity
  8
SK2
  6
Continuous
 62
     7
100
AcDbPoint
 10
0.0
 20
0.0
 30
0.0
  0
POINT
  5
53
330
4C
100
AcDbEntity
  8
SK2
  6
Continuous
 62
     7
100
AcDbPoint
 10
0.0
 20
0.0
 30
0.0
  0
ENDBLK
  5
55
330
4C
100
AcDbEntity
  8
0
100
AcDbBlockEnd
  0
BLOCK
  5
101
330
100
100
AcDbEntity
  8
0
100
AcDbBlockBegin
  2
_OBLIQUE
 70
     0
 10
0.0
 20
0.0
 30
0.0
  3
_OBLIQUE
  1

  0
LINE
  5
103
330
100
100
AcDbEntity
  8
0
  6
ByBlock
 62
     0
370
    -2
100
AcDbLine
 10
-0.5
 20
-0.5
 30
0.0
 11
0.5
 21
0.5
 31
0.0
  0
ENDBLK
  5
102
330
100
100
AcDbEntity
  8
0
100
AcDbBlockEnd
  0
BLOCK
  5
105
330
104
100
AcDbEntity
  8
0
100
AcDbBlockBegin
  2
_DOT
 70
     0
 10
0.0
 20
0.0
 30
0.0
  3
_DOT
  1

  0
POLYLINE
  5
107
330
104
100
AcDbEntity
  8
0
  6
ByBlock
 62
     0
100
AcDb2dPolyline
 66
     1
 10
0.0
 20
0.0
 30
0.0
 70
     1
 40
0.5
 41
0.5
  0
VERTEX
  5
109
330
107
100
AcDbEntity
  8
0
  6
ByBlock
 62
     0
100
AcDbVertex
100
AcDb2dVertex
 10
-0.25
 20
0.0
 30
0.0
 42
1.0
  0
VERTEX
  5
10A
330
107
100
AcDbEntity
  8
0
  6
ByBlock
 62
     0
100
AcDbVertex
100
AcDb2dVertex
 10
0.25
 20
0.0
 30
0.0
 42
1.0
  0
SEQEND
  5
10B
330
107
100
AcDbEntity
  8
0
  6
ByBlock
 62
     0
  0
LINE
  5
108
330
104
100
AcDbEntity
  8
0
  6
ByBlock
 62
     0
370
    -2
100
AcDbLine
 10
-0.5
 20
0.0
 30
0.0
 11
-1.0
 21
0.0
 31
0.0
  0
ENDBLK
  5
106
330
104
100
AcDbEntity
  8
0
100
AcDbBlockEnd
  0
BLOCK
  5
10F
330
10C
100
AcDbEntity
  8
0
100
AcDbBlockBegin
  2
_SE_FILLED
 70
     0
 10
0.0
 20
0.0
 30
0.0
  3
_SE_FILLED
  1

  0
SOLID
  5
10D
330
10C
100
AcDbEntity
  8
0
 62
     0
100
AcDbTrace
 10
0.0
 20
0.0
 30
0.0
 11
-1.0
 21
-0.1665
 31
0.0
 12
-1.0
 22
0.1665
 32
0.0
 13
0.0
 23
0.0
 33
0.0
  0
LINE
  5
10E
330
10C
100
AcDbEntity
  8
0
 62
     0
100
AcDbLine
 10
0.0
 20
0.0
 30
0.0
 11
-1.0
 21
0.0
 31
0.0
  0
ENDBLK
  5
110
330
10C
100
AcDbEntity
  8
0
100
AcDbBlockEnd
  0
BLOCK
  5
11C
330
114
100
AcDbEntity
  8
0
100
AcDbBlockBegin
  2
DMBLK67
 70
     0
 10
0.0
 20
0.0
 30
0.0
  3
DMBLK67
  1

  0
HATCH
  5
115
330
114
100
AcDbEntity
  8
SK2
  6
Continuous
 62
   136
100
AcDbHatch
 10
0.0
 20
0.0
 30
0.0
210
0.0
220
0.0
230
1.0
  2
SOLID
 70
     1
 71
     0
 91
        1
 92
        1
 93
        3
 72
     1
 10
14.55604420217374
 20
6.491550809080986
 11
13.38937749949594
 21
6.491550809080986
 72
     1
 10
13.38937749949594
 20
6.491550809080986
 11
13.97271085083484
 21
2.991550701047568
 72
     1
 10
13.97271085083484
 20
2.991550701047568
 11
14.55604420217374
 21
6.491550809080986
 97
        0
 75
     0
 76
     1
 98
        0
  0
HATCH
  5
116
330
114
100
AcDbEntity
  8
SK2
  6
Continuous
 62
   136
100
AcDbHatch
 10
0.0
 20
0.0
 30
0.0
210
0.0
220
0.0
230
1.0
  2
SOLID
 70
     1
 71
     0
 91
        1
 92
        1
 93
        3
 72
     1
 10
14.55604420217374
 20
-6.49155060953959
 11
13.97271085083484
 21
-2.991550501506171
 72
     1
 10
13.97271085083484
 20
-2.991550501506171
 11
13.38937749949594
 21
-6.491550609539589
 72
     1
 10
13.38937749949594
 20
-6.49155060953959
 11
14.55604420217374
 21
-6.49155060953959
 97
        0
 75
     0
 76
     1
 98
        0
  0
LINE
  5
117
330
114
100
AcDbEntity
  8
SK2
  6
Continuous
 62
   136
100
AcDbLine
 10
6.05
 20
2.991550701
 30
0.0
 11
15.7227109049
 21
2.991550701
 31
0.0
  0
LINE
  5
118
330
114
100
AcDbEntity
  8
SK2
  6
Continuous
 62
   136
100
AcDbLine
 10
6.05
 20
-2.9915505015
 30
0.0
 11
15.7227109049
 21
-2.9915505015
 31
0.0
  0
LINE
  5
119
330
114
100
AcDbEntity
  8
SK2
  6
Continuous
 62
   136
100
AcDbLine
 10
13.9727108508
 20
15.9996786214
 30
0.0
 11
13.9727108508
 21
-9.9915507191
 31
0.0
  0
TEXT
  5
11A
330
114
100
AcDbEntity
  8
SK2
  6
Continuous
 62
   136
100
AcDbText
 10
13.0977108508
 20
12.6269510493
 30
0.0
 40
3.5
  1
6
 50
90.0
  7
SEACAD_Solid_Edge_ISO
 11
9.5977108508
 21
12.6269510493
 31
0.0
100
AcDbText
 73
     3
  0
TEXT
  5
11B
330
114
100
AcDbEntity
  8
SK2
  6
Continuous
 62
   136
100
AcDbText
 10
13.0977108508
 20
8.5542237765
 30
0.0
 40
3.5
  1
ø
 50
90.0
  7
SEACAD_Solid_Edge_ISO
 11
9.5977108508
 21
8.5542237765
 31
0.0
100
AcDbText
 73
     3
  0
ENDBLK
  5
11D
330
114
100
AcDbEntity
  8
0
100
AcDbBlockEnd
  0
BLOCK
  5
126
330
11F
100
AcDbEntity
  8
0
100
AcDbBlockBegin
  2
DMBLK68
 70
     0
 10
0.0
 20
0.0
 30
0.0
  3
DMBLK68
  1

  0
HATCH
  5
120
330
11F
100
AcDbEntity
  8
SK2
  6
Continuous
 62
   136
100
AcDbHatch
 10
0.0
 20
0.0
 30
0.0
210
0.0
220
0.0
230
1.0
  2
SOLID
 70
     1
 71
     0
 91
        1
 92
        1
 93
        3
 72
     1
 10
-3.500000108033418
 20
-17.37965803422918
 11
0.0000000000000004
 21
-16.79632468289028
 72
     1
 10
0.0000000000000004
 20
-16.79632468289028
 11
-3.500000108033418
 21
-16.21299133155137
 72
     1
 10
-3.500000108033418
 20
-16.21299133155137
 11
-3.500000108033418
 21
-17.37965803422918
 97
        0
 75
     0
 76
     1
 98
        0
  0
HATCH
  5
121
330
11F
100
AcDbEntity
  8
SK2
  6
Continuous
 62
   136
100
AcDbHatch
 10
0.0
 20
0.0
 30
0.0
210
0.0
220
0.0
230
1.0
  2
SOLID
 70
     1
 71
     0
 91
        1
 92
        1
 93
        3
 72
     1
 10
9.750000108033417
 20
-17.37965803422918
 11
9.750000108033417
 21
-16.21299133155137
 72
     1
 10
9.750000108033417
 20
-16.21299133155137
 11
6.249999999999998
 21
-16.79632468289028
 72
     1
 10
6.249999999999998
 20
-16.79632468289028
 11
9.750000108033417
 21
-17.37965803422918
 97
        0
 75
     0
 76
     1
 98
        0
  0
LINE
  5
122
330
11F
100
AcDbEntity
  8
SK2
  6
Continuous
 62
   136
100
AcDbLine
 10
0.0
 20
-5.4994526333
 30
0.0
 11
0.0
 21
-18.5463247369
 31
0.0
  0
LINE
  5
123
330
11F
100
AcDbEntity
  8
SK2
  6
Continuous
 62
   136
100
AcDbLine
 10
6.25
 20
-4.2563438034
 30
0.0
 11
6.25
 21
-18.5463247369
 31
0.0
  0
LINE
  5
124
330
11F
100
AcDbEntity
  8
SK2
  6
Continuous
 62
   136
100
AcDbLine
 10
-7.0000002161
 20
-16.7963246829
 30
0.0
 11
17.7267044783
 21
-16.7963246829
 31
0.0
  0
TEXT
  5
125
330
11F
100
AcDbEntity
  8
SK2
  6
Continuous
 62
   136
100
AcDbText
 10
11.8880688533
 20
-15.9213246829
 30
0.0
 40
3.5
  1
6,3
  7
SEACAD_Solid_Edge_ISO
 11
11.8880688533
 21
-12.4213246829
 31
0.0
100
AcDbText
 73
     3
  0
ENDBLK
  5
127
330
11F
100
AcDbEntity
  8
0
100
AcDbBlockEnd
  0
BLOCK
  5
131
330
129
100
AcDbEntity
  8
0
100
AcDbBlockBegin
  2
DMBLK69
 70
     0
 10
0.0
 20
0.0
 30
0.0
  3
DMBLK69
  1

  0
HATCH
  5
12A
330
129
100
AcDbEntity
  8
SK2
  6
Continuous
 62
   136
100
AcDbHatch
 10
0.0
 20
0.0
 30
0.0
210
0.0
220
0.0
230
1.0
  2
SOLID
 70
     1
 71
     0
 91
        1
 92
        1
 93
        3
 72
     1
 10
-16.11615383687119
 20
8.99945294089501
 11
-15.53282048553228
 21
5.499452832861593
 72
     1
 10
-15.53282048553228
 20
5.499452832861592
 11
-14.94948713419338
 21
8.99945294089501
 72
     1
 10
-14.94948713419338
 20
8.99945294089501
 11
-16.11615383687119
 21
8.99945294089501
 97
        0
 75
     0
 76
     1
 98
        0
  0
HATCH
  5
12B
330
129
100
AcDbEntity
  8
SK2
  6
Continuous
 62
   136
100
AcDbHatch
 10
0.0
 20
0.0
 30
0.0
210
0.0
220
0.0
230
1.0
  2
SOLID
 70
     1
 71
     0
 91
        1
 92
        1
 93
        3
 72
     1
 10
-16.11615383687119
 20
-8.999452741353611
 11
-14.94948713419338
 21
-8.999452741353611
 72
     1
 10
-14.94948713419338
 20
-8.999452741353611
 11
-15.53282048553228
 21
-5.499452633320193
 72
     1
 10
-15.53282048553228
 20
-5.499452633320194
 11
-16.11615383687119
 21
-8.999452741353611
 97
        0
 75
     0
 76
     1
 98
        0
  0
LINE
  5
12C
330
129
100
AcDbEntity
  8
SK2
  6
Continuous
 62
   136
100
AcDbLine
 10
0.0
 20
5.4994528329
 30
0.0
 11
-17.2828205395
 21
5.4994528329
 31
0.0
  0
LINE
  5
12D
330
129
100
AcDbEntity
  8
SK2
  6
Continuous
 62
   136
100
AcDbLine
 10
0.0
 20
-5.4994526333
 30
0.0
 11
-17.2828205395
 21
-5.4994526333
 31
0.0
  0
LINE
  5
12E
330
129
100
AcDbEntity
  8
SK2
  6
Continuous
 62
   136
100
AcDbLine
 10
-15.5328204855
 20
12.4994530489
 30
0.0
 11
-15.5328204855
 21
-12.4994530196
 31
0.0
  0
TEXT
  5
12F
330
129
100
AcDbEntity
  8
SK2
  6
Continuous
 62
   136
100
AcDbText
 10
-16.4078204855
 20
0.6045454692
 30
0.0
 40
3.5
  1
11
 50
90.0
  7
SEACAD_Solid_Edge_ISO
 11
-19.9078204855
 21
0.6045454692
 31
0.0
100
AcDbText
 73
     3
  0
TEXT
  5
130
330
129
100
AcDbEntity
  8
SK2
  6
Continuous
 62
   136
100
AcDbText
 10
-16.4078204855
 20
-3.4681818035
 30
0.0
 40
3.5
  1
ø
 50
90.0
  7
SEACAD_Solid_Edge_ISO
 11
-19.9078204855
 21
-3.4681818035
 31
0.0
100
AcDbText
 73
     3
  0
ENDBLK
  5
132
330
129
100
AcDbEntity
  8
0
100
AcDbBlockEnd
  0
BLOCK
  5
13B
330
134
100
AcDbEntity
  8
0
100
AcDbBlockBegin
  2
DMBLK70
 70
     0
 10
0.0
 20
0.0
 30
0.0
  3
DMBLK70
  1

  0
HATCH
  5
135
330
134
100
AcDbEntity
  8
SK2
  6
Continuous
 62
   136
100
AcDbHatch
 10
0.0
 20
0.0
 30
0.0
210
0.0
220
0.0
230
1.0
  2
SOLID
 70
     1
 71
     0
 91
        1
 92
        1
 93
        3
 72
     1
 10
-8.249999891966583
 20
11.5288490747983
 11
-11.75
 21
10.9455157234594
 72
     1
 10
-11.75
 20
10.9455157234594
 11
-8.249999891966583
 21
10.36218237212049
 72
     1
 10
-8.249999891966583
 20
10.36218237212049
 11
-8.249999891966583
 21
11.5288490747983
 97
        0
 75
     0
 76
     1
 98
        0
  0
HATCH
  5
136
330
134
100
AcDbEntity
  8
SK2
  6
Continuous
 62
   136
100
AcDbHatch
 10
0.0
 20
0.0
 30
0.0
210
0.0
220
0.0
230
1.0
  2
SOLID
 70
     1
 71
     0
 91
        1
 92
        1
 93
        3
 72
     1
 10
2.749999117106197
 20
11.5288490747983
 11
2.749999117106197
 21
10.36218237212049
 72
     1
 10
2.749999117106197
 20
10.36218237212049
 11
6.249999225139616
 21
10.9455157234594
 72
     1
 10
6.249999225139616
 20
10.9455157234594
 11
2.749999117106198
 21
11.5288490747983
 97
        0
 75
     0
 76
     1
 98
        0
  0
LINE
  5
137
330
134
100
AcDbEntity
  8
SK2
  6
Continuous
 62
   136
100
AcDbLine
 10
-11.75
 20
3.0675057951
 30
0.0
 11
-11.75
 21
12.6955157775
 31
0.0
  0
LINE
  5
138
330
134
100
AcDbEntity
  8
SK2
  6
Continuous
 62
   136
100
AcDbLine
 10
6.25
 20
3.2896858851
 30
0.0
 11
6.25
 21
12.6955157775
 31
0.0
  0
LINE
  5
139
330
134
100
AcDbEntity
  8
SK2
  6
Continuous
 62
   136
100
AcDbLine
 10
-11.75
 20
10.9455157235
 30
0.0
 11
6.2499992251
 21
10.9455157235
 31
0.0
  0
TEXT
  5
13A
330
134
100
AcDbEntity
  8
SK2
  6
Continuous
 62
   136
100
AcDbText
 10
-4.579545842
 20
11.8205157235
 30
0.0
 40
3.5
  1
18
  7
SEACAD_Solid_Edge_ISO
 11
-4.579545842
 21
15.3205157235
 31
0.0
100
AcDbText
 73
     3
  0
ENDBLK
  5
13C
330
134
100
AcDbEntity
  8
0
100
AcDbBlockEnd
  0
ENDSEC
  0
SECTION
  2
ENTITIES
  0
INSERT
  5
4B
330
1F
100
AcDbEntity
  8
SK2
 62
     7
100
AcDbBlockReference
  2
Nullpunkt
 10
0.0
 20
0.0000000998
 30
0.0
  0
INSERT
  5
56
330
1F
100
AcDbEntity
  8
SK2
 62
     7
100
AcDbBlockReference
  2
Einfügepunkt
 10
6.25
 20
0.0000000998
 30
0.0
  0
LINE
  5
57
330
1F
100
AcDbEntity
  8
SK1
  6
Continuous
100
AcDbLine
 10
-11.75
 20
3.2925058696
 30
0.0
 11
-11.75
 21
3.6788414837
 31
0.0
  0
LINE
  5
58
330
1F
100
AcDbEntity
  8
SK1
  6
Continuous
100
AcDbLine
 10
-11.5778346202
 20
3.4643305501
 30
0.0
 11
-11.5778346202
 21
3.8768950975
 31
0.0
  0
LINE
  5
59
330
1F
100
AcDbEntity
  8
SK1
  6
Continuous
100
AcDbLine
 10
1.75
 20
5.0883323166
 30
0.0
 11
1.75
 21
5.7455962394
 31
0.0
  0
LINE
  5
5A
330
1F
100
AcDbEntity
  8
SK1
  6
Continuous
100
AcDbLine
 10
1.85
 20
4.2215031723
 30
0.0
 11
1.85
 21
4.7446681598
 31
0.0
  0
SPLINE
  5
5D
330
1F
100
AcDbEntity
  8
SK3
100
AcDbSpline
210
0.0
220
0.0
230
1.0
 70
     8
 71
     3
 72
    10
 73
     6
 74
     0
 42
0.0000000331998323
 43
0.0000000001
 12
1.0
 22
0.0
 32
0.0
 13
1.0
 23
0.0
 33
0.0
 40
0.0
 40
0.0
 40
0.0
 40
0.0
 40
0.5
 40
0.5
 40
1.0
 40
1.0
 40
1.0
 40
1.0
 10
-11.75000000000001
 20
2.876922507797374
 30
0.0
 10
-11.75
 20
2.83176514080527
 30
0.0
 10
-11.72858974757237
 20
2.786508272261507
 30
0.0
 10
-11.65470027281863
 20
2.722140854995961
 30
0.0
 10
-11.60214375908168
 20
2.703258917183084
 30
0.0
 10
-11.55
 20
2.703258917183081
 30
0.0
  0
SPLINE
  5
5E
330
1F
100
AcDbEntity
  8
SK3
100
AcDbSpline
210
0.0
220
0.0
230
1.0
 70
     8
 71
     3
 72
    10
 73
     6
 74
     0
 42
0.0000000331998323
 43
0.0000000001
 12
1.0
 22
0.0
 32
0.0
 13
1.0
 23
0.0
 33
0.0
 40
0.0
 40
0.0
 40
0.0
 40
0.0
 40
0.5
 40
0.5
 40
1.0
 40
1.0
 40
1.0
 40
1.0
 10
-11.75
 20
2.651922507797374
 30
0.0
 10
-11.75
 20
2.606765140805271
 30
0.0
 10
-11.72858974757237
 20
2.561508272261507
 30
0.0
 10
-11.65470027281863
 20
2.497140854995962
 30
0.0
 10
-11.60214375908168
 20
2.478258917183084
 30
0.0
 10
-11.55
 20
2.47825891718308
 30
0.0
  0
LINE
  5
5F
330
1F
100
AcDbEntity
  8
SK3
100
AcDbLine
 10
2.25
 20
2.5980763111
 30
0.0
 11
2.234332167
 21
2.7032589172
 31
0.0
  0
LINE
  5
60
330
1F
100
AcDbEntity
  8
SK3
100
AcDbLine
 10
2.234332167
 20
2.4782589172
 30
0.0
 11
2.25
 21
2.5980763111
 31
0.0
  0
LINE
  5
61
330
1F
100
AcDbEntity
  8
SK1
  6
Continuous
100
AcDbLine
 10
2.25
 20
4.2215031723
 30
0.0
 11
2.25
 21
3.9965031723
 31
0.0
  0
LINE
  5
62
330
1F
100
AcDbEntity
  8
SK3
100
AcDbLine
 10
2.25
 20
2.4855763111
 30
0.0
 11
2.234332167
 21
2.4782589172
 31
0.0
  0
SPLINE
  5
63
330
1F
100
AcDbEntity
  8
SK1
  6
Continuous
100
AcDbSpline
210
0.0
220
0.0
230
1.0
 70
     8
 71
     3
 72
    23
 73
    19
 74
     0
 42
0.0000000678527979
 43
0.0000000001
 12
1.0
 22
0.0
 32
0.0
 13
1.0
 23
0.0
 33
0.0
 40
0.0
 40
0.0
 40
0.0
 40
0.0
 40
0.0500505699786904
 40
0.0500505699786904
 40
0.0500505699786904
 40
0.2653275319588241
 40
0.2653275319588241
 40
0.2653275319588241
 40
0.4805846028048436
 40
0.4805846028048436
 40
0.4805846028048436
 40
0.6143689325292349
 40
0.6143689325292349
 40
0.6143689325292349
 40
0.8290458378960183
 40
0.8290458378960183
 40
0.8290458378960183
 40
1.0
 40
1.0
 40
1.0
 40
1.0
 10
1.749999999999996
 20
4.308201024526894
 30
0.0
 10
1.749999999999995
 20
4.305923752537605
 30
0.0
 10
1.750103656172393
 20
4.303644718715369
 30
0.0
 10
1.750310488340132
 20
4.301374502193978
 30
0.0
 10
1.751192679743016
 20
4.291691455694193
 30
0.0
 10
1.754017272855375
 20
4.282006668170196
 30
0.0
 10
1.758551149457026
 20
4.273122521728854
 30
0.0
 10
1.763084552655602
 20
4.264239302922427
 30
0.0
 10
1.76945220898983
 20
4.255911334954454
 30
0.0
 10
1.777127518041893
 20
4.248830190414197
 30
0.0
 10
1.781939646680004
 20
4.24439058046473
 30
0.0
 10
1.787324644786033
 20
4.240370612612324
 30
0.0
 10
1.793104748575551
 20
4.23690357163153
 30
0.0
 10
1.802299523324327
 20
4.23138833141716
 30
0.0
 10
1.812720017777614
 20
4.227170958472626
 30
0.0
 10
1.823504280989132
 20
4.224601807470592
 30
0.0
 10
1.832097159466159
 20
4.222554713300448
 30
0.0
 10
1.841087928416496
 20
4.221503172293276
 30
0.0
 10
1.85
 20
4.22150317229327
 30
0.0
  0
LINE
  5
64
330
1F
100
AcDbEntity
  8
SK1
  6
Continuous
100
AcDbLine
 10
1.85
 20
4.2215031723
 30
0.0
 11
2.25
 21
4.2215031723
 31
0.0
  0
LINE
  5
65
330
1F
100
AcDbEntity
  8
SK3
100
AcDbLine
 10
2.25
 20
2.7105763111
 30
0.0
 11
2.234332167
 21
2.7032589172
 31
0.0
  0
LINE
  5
66
330
1F
100
AcDbEntity
  8
SK3
100
AcDbLine
 10
2.234332167
 20
2.7032589172
 30
0.0
 11
-11.55
 21
2.7032589172
 31
0.0
  0
LINE
  5
67
330
1F
100
AcDbEntity
  8
SK1
  6
Continuous
100
AcDbLine
 10
-11.75
 20
3.0675058696
 30
0.0
 11
-11.75
 21
3.2925058696
 31
0.0
  0
SPLINE
  5
68
330
1F
100
AcDbEntity
  8
SK1
  6
Continuous
100
AcDbSpline
210
0.0
220
0.0
230
1.0
 70
     8
 71
     3
 72
    10
 73
     6
 74
     0
 42
0.0000000368289463
 43
0.0000000001
 12
1.0
 22
0.0
 32
0.0
 13
1.0
 23
0.0
 33
0.0
 40
0.0
 40
0.0
 40
0.0
 40
0.0
 40
0.5
 40
0.5
 40
1.0
 40
1.0
 40
1.0
 40
1.0
 10
-11.75
 20
3.292505869611702
 30
0.0
 10
-11.75
 20
3.333839557598933
 30
0.0
 10
-11.7321701711851
 20
3.37515651726215
 30
0.0
 10
-11.66980701690384
 20
3.437439067967379
 30
0.0
 10
-11.62490885453871
 20
3.458591380516336
 30
0.0
 10
-11.57783462021001
 20
3.464330550098401
 30
0.0
  0
SPLINE
  5
69
330
1F
100
AcDbEntity
  8
SK1
  6
Continuous
100
AcDbSpline
210
0.0
220
0.0
230
1.0
 70
     8
 71
     3
 72
    14
 73
    10
 74
     0
 42
0.0000000007448006
 43
0.0000000001
 12
1.0
 22
0.0
 32
0.0
 13
1.0
 23
0.0
 33
0.0
 40
0.0
 40
0.0
 40
0.0
 40
0.0
 40
0.1271509348008371
 40
0.1271509348008371
 40
0.1271509348008371
 40
0.6639355351686679
 40
0.6639355351686679
 40
0.6639355351686679
 40
1.0
 40
1.0
 40
1.0
 40
1.0
 10
-11.57783462021001
 20
3.464330550098401
 30
0.0
 10
-11.01295844420906
 20
3.533198800003851
 30
0.0
 10
-10.44808113248966
 20
3.602060063553771
 30
0.0
 10
-9.88320287225122
 20
3.670915490628398
 30
0.0
 10
-7.498494089499132
 20
3.961597843345777
 30
0.0
 10
-5.113768993602753
 20
4.252179826463309
 30
0.0
 10
-2.72903563840539
 20
4.542710947927715
 30
0.0
 10
-1.236026826204544
 20
4.724603621009843
 30
0.0
 10
0.2569853898603657
 20
4.906475340004285
 30
0.0
 10
1.749999999999996
 20
5.088332316596342
 30
0.0
  0
LINE
  5
6A
330
1F
100
AcDbEntity
  8
SK1
  6
Continuous
100
AcDbLine
 10
1.75
 20
5.0883323166
 30
0.0
 11
1.75
 21
4.8633323166
 31
0.0
  0
LINE
  5
6B
330
1F
100
AcDbEntity
  8
SK3
100
AcDbLine
 10
2.25
 20
3.9965031723
 30
0.0
 11
2.25
 21
2.4855763111
 31
0.0
  0
SPLINE
  5
6C
330
1F
100
AcDbEntity
  8
SK1
  6
Continuous
100
AcDbSpline
210
0.0
220
0.0
230
1.0
 70
     8
 71
     3
 72
    23
 73
    19
 74
     0
 42
0.0000000678527979
 43
0.0000000001
 12
1.0
 22
0.0
 32
0.0
 13
1.0
 23
0.0
 33
0.0
 40
0.0
 40
0.0
 40
0.0
 40
0.0
 40
0.0500505699786904
 40
0.0500505699786904
 40
0.0500505699786904
 40
0.2653275319588241
 40
0.2653275319588241
 40
0.2653275319588241
 40
0.4805846028048436
 40
0.4805846028048436
 40
0.4805846028048436
 40
0.6143689325292349
 40
0.6143689325292349
 40
0.6143689325292349
 40
0.8290458378960183
 40
0.8290458378960183
 40
0.8290458378960183
 40
1.0
 40
1.0
 40
1.0
 40
1.0
 10
1.749999999999996
 20
4.083201024526894
 30
0.0
 10
1.749999999999995
 20
4.080923752537605
 30
0.0
 10
1.750103656172393
 20
4.078644718715369
 30
0.0
 10
1.750310488340132
 20
4.076374502193977
 30
0.0
 10
1.751192679743016
 20
4.066691455694193
 30
0.0
 10
1.754017272855375
 20
4.057006668170197
 30
0.0
 10
1.758551149457026
 20
4.048122521728853
 30
0.0
 10
1.763084552655602
 20
4.039239302922426
 30
0.0
 10
1.76945220898983
 20
4.030911334954453
 30
0.0
 10
1.777127518041893
 20
4.023830190414197
 30
0.0
 10
1.781939646680004
 20
4.01939058046473
 30
0.0
 10
1.787324644786033
 20
4.015370612612323
 30
0.0
 10
1.793104748575551
 20
4.011903571631529
 30
0.0
 10
1.802299523324327
 20
4.006388331417161
 30
0.0
 10
1.812720017777614
 20
4.002170958472626
 30
0.0
 10
1.823504280989132
 20
3.999601807470591
 30
0.0
 10
1.832097159466159
 20
3.997554713300448
 30
0.0
 10
1.841087928416496
 20
3.996503172293276
 30
0.0
 10
1.85
 20
3.99650317229327
 30
0.0
  0
LINE
  5
6D
330
1F
100
AcDbEntity
  8
SK1
  6
Continuous
100
AcDbLine
 10
1.85
 20
3.9965031723
 30
0.0
 11
2.25
 21
3.9965031723
 31
0.0
  0
LINE
  5
6E
330
1F
100
AcDbEntity
  8
SK3
100
AcDbLine
 10
2.234332167
 20
2.4782589172
 30
0.0
 11
-11.55
 21
2.4782589172
 31
0.0
  0
SPLINE
  5
6F
330
1F
100
AcDbEntity
  8
SK1
  6
Continuous
100
AcDbSpline
210
0.0
220
0.0
230
1.0
 70
     8
 71
     3
 72
    10
 73
     6
 74
     0
 42
0.0000000368289463
 43
0.0000000001
 12
1.0
 22
0.0
 32
0.0
 13
1.0
 23
0.0
 33
0.0
 40
0.0
 40
0.0
 40
0.0
 40
0.0
 40
0.5
 40
0.5
 40
1.0
 40
1.0
 40
1.0
 40
1.0
 10
-11.75
 20
3.067505869611702
 30
0.0
 10
-11.75
 20
3.108839557598933
 30
0.0
 10
-11.7321701711851
 20
3.150156517262149
 30
0.0
 10
-11.66980701690384
 20
3.212439067967379
 30
0.0
 10
-11.62490885453871
 20
3.233591380516336
 30
0.0
 10
-11.57783462021001
 20
3.239330550098401
 30
0.0
  0
SPLINE
  5
70
330
1F
100
AcDbEntity
  8
SK1
  6
Continuous
100
AcDbSpline
210
0.0
220
0.0
230
1.0
 70
     8
 71
     3
 72
    14
 73
    10
 74
     0
 42
0.0000000007448006
 43
0.0000000001
 12
1.0
 22
0.0
 32
0.0
 13
1.0
 23
0.0
 33
0.0
 40
0.0
 40
0.0
 40
0.0
 40
0.0
 40
0.1271509348008371
 40
0.1271509348008371
 40
0.1271509348008371
 40
0.6639355351686679
 40
0.6639355351686679
 40
0.6639355351686679
 40
1.0
 40
1.0
 40
1.0
 40
1.0
 10
-11.57783462021001
 20
3.239330550098401
 30
0.0
 10
-11.01295844420906
 20
3.308198800003852
 30
0.0
 10
-10.44808113248966
 20
3.377060063553771
 30
0.0
 10
-9.88320287225122
 20
3.445915490628398
 30
0.0
 10
-7.498494089499132
 20
3.736597843345777
 30
0.0
 10
-5.113768993602753
 20
4.027179826463309
 30
0.0
 10
-2.72903563840539
 20
4.317710947927716
 30
0.0
 10
-1.236026826204544
 20
4.499603621009842
 30
0.0
 10
0.2569853898603657
 20
4.681475340004284
 30
0.0
 10
1.749999999999996
 20
4.863332316596343
 30
0.0
  0
LINE
  5
71
330
1F
100
AcDbEntity
  8
SK1
  6
Continuous
100
AcDbLine
 10
1.75
 20
-5.7455960399
 30
0.0
 11
1.75
 21
-5.0883321171
 31
0.0
  0
LINE
  5
72
330
1F
100
AcDbEntity
  8
SK1
  6
Continuous
100
AcDbLine
 10
1.85
 20
-4.7446679603
 30
0.0
 11
1.85
 21
-4.2215029728
 31
0.0
  0
LINE
  5
73
330
1F
100
AcDbEntity
  8
SK1
  6
Continuous
100
AcDbLine
 10
3.65
 20
-4.7446679603
 30
0.0
 11
3.65
 21
-2.5671896461
 31
0.0
  0
LINE
  5
74
330
1F
100
AcDbEntity
  8
SK1
  6
Continuous
100
AcDbLine
 10
3.75
 20
-5.8456713758
 30
0.0
 11
3.75
 21
-3.1176913539
 31
0.0
  0
LINE
  5
75
330
1F
100
AcDbEntity
  8
SK1
  6
Continuous
100
AcDbLine
 10
6.125
 20
-4.4731378065
 30
0.0
 11
6.125
 21
-2.4314245692
 31
0.0
  0
LINE
  5
76
330
1F
100
AcDbEntity
  8
SK1
  6
Continuous
100
AcDbLine
 10
6.25
 20
-4.2563438034
 30
0.0
 11
6.25
 21
-2.3230275677
 31
0.0
  0
LINE
  5
77
330
1F
100
AcDbEntity
  8
SK1
  6
Continuous
100
AcDbLine
 10
-7.75
 20
-4.4148619706
 30
0.0
 11
-7.75
 21
-4.409124768
 31
0.0
  0
LINE
  5
78
330
1F
100
AcDbEntity
  8
SK3
100
AcDbLine
 10
6.05
 20
-2.9915505015
 30
0.0
 11
-7.7401143294
 21
-2.9915505015
 31
0.0
  0
LINE
  5
79
330
1F
100
AcDbEntity
  8
SK3
100
AcDbLine
 10
-7.75
 20
-2.9999999002
 30
0.0
 11
-7.75
 21
-4.409124768
 31
0.0
  0
SPLINE
  5
7A
330
1F
100
AcDbEntity
  8
SK1
  6
Continuous
100
AcDbSpline
210
0.0
220
0.0
230
1.0
 70
     8
 71
     3
 72
    11
 73
     7
 74
     0
 42
0.0000000010423673
 43
0.0000000001
 12
1.0
 22
0.0
 32
0.0
 13
1.0
 23
0.0
 33
0.0
 40
0.0
 40
0.0
 40
0.0
 40
0.0
 40
0.8079120727779506
 40
0.8079120727779506
 40
0.8079120727779506
 40
1.0
 40
1.0
 40
1.0
 40
1.0
 10
-7.749999999999986
 20
-4.409124768047692
 30
0.0
 10
-5.19162677884325
 20
-4.769148534191459
 30
0.0
 10
-2.63323836467075
 20
-5.129064339796892
 30
0.0
 10
-0.0748422555455438
 20
-5.488925423735188
 30
0.0
 10
0.5334380541119687
 20
-5.574485439555616
 30
0.0
 10
1.141718825728871
 20
-5.660042171170809
 30
0.0
 10
1.749999999999996
 20
-5.745596039882696
 30
0.0
  0
ARC
  5
7B
330
1F
100
AcDbEntity
  8
SK1
  6
Continuous
100
AcDbCircle
 10
1.8500558282
 20
-4.8447237876
 30
0.0
 40
0.1000558429346862
100
AcDbArc
 50
90.0319693736
 51
180.0310537552
  0
LINE
  5
7C
330
1F
100
AcDbEntity
  8
SK1
  6
Continuous
100
AcDbLine
 10
1.85
 20
-4.7446679603
 30
0.0
 11
3.65
 21
-4.7446679603
 31
0.0
  0
ARC
  5
7D
330
1F
100
AcDbEntity
  8
SK1
  6
Continuous
100
AcDbCircle
 10
3.6499459361
 20
-4.8447220252
 30
0.0
 40
0.1000540795545782
100
AcDbArc
 50
359.9679364557
 51
89.969040416
  0
LINE
  5
7E
330
1F
100
AcDbEntity
  8
SK1
  6
Continuous
100
AcDbLine
 10
3.75
 20
-5.8456713758
 30
0.0
 11
6.125
 21
-4.4731378065
 31
0.0
  0
ARC
  5
7F
330
1F
100
AcDbEntity
  8
SK1
  6
Continuous
100
AcDbCircle
 10
5.9966226128
 20
-4.2546839165
 30
0.0
 40
0.2533828241668564
100
AcDbArc
 50
300.4412012849
 51
359.6246580894
  0
SPLINE
  5
80
330
1F
100
AcDbEntity
  8
SK3
100
AcDbSpline
210
0.0
220
0.0
230
1.0
 70
     8
 71
     3
 72
    10
 73
     6
 74
     0
 42
0.0000000310063742
 43
0.0000000001
 12
1.0
 22
0.0
 32
0.0
 13
1.0
 23
0.0
 33
0.0
 40
0.0
 40
0.0
 40
0.0
 40
0.0
 40
0.5
 40
0.5
 40
1.0
 40
1.0
 40
1.0
 40
1.0
 10
6.049999999999994
 20
-2.99155050150617
 30
0.0
 10
6.102931479258319
 20
-2.991550501506171
 30
0.0
 10
6.154689214481539
 20
-3.013386608492351
 30
0.0
 10
6.228432379767733
 20
-3.087476135278651
 30
0.0
 10
6.25
 20
-3.139812050236556
 30
0.0
 10
6.249999999999998
 20
-3.192079943085369
 30
0.0
  0
ARC
  5
81
330
1F
100
AcDbEntity
  8
SK3
100
AcDbCircle
 10
8.4980768093
 20
-21.9999999002
 30
0.0
 40
25.0
100
AcDbArc
 50
130.5059978336
 51
130.5358021113
  0
LINE
  5
82
330
1F
100
AcDbEntity
  8
SK1
  6
Continuous
100
AcDbLine
 10
-11.75
 20
-3.2925056701
 30
0.0
 11
-11.75
 21
-3.6788412842
 31
0.0
  0
LINE
  5
83
330
1F
100
AcDbEntity
  8
SK1
  6
Continuous
100
AcDbLine
 10
-11.5778346202
 20
-3.4643303505
 30
0.0
 11
-11.5778346202
 21
-3.876894898
 31
0.0
  0
LINE
  5
84
330
1F
100
AcDbEntity
  8
SK1
  6
Continuous
100
AcDbLine
 10
1.75
 20
-2.6779422542
 30
0.0
 11
1.75
 21
-0.2249999002
 31
0.0
  0
LINE
  5
85
330
1F
100
AcDbEntity
  8
SK1
  6
Continuous
100
AcDbLine
 10
1.75
 20
-3.0676536859
 30
0.0
 11
1.75
 21
-2.6779422542
 31
0.0
  0
LINE
  5
86
330
1F
100
AcDbEntity
  8
SK1
  6
Continuous
100
AcDbLine
 10
1.85
 20
-2.1774782144
 30
0.0
 11
1.85
 21
-0.2249999002
 31
0.0
  0
LINE
  5
87
330
1F
100
AcDbEntity
  8
SK1
  6
Continuous
100
AcDbLine
 10
3.65
 20
-2.1774782144
 30
0.0
 11
3.65
 21
2.1774784139
 31
0.0
  0
LINE
  5
88
330
1F
100
AcDbEntity
  8
SK1
  6
Continuous
100
AcDbLine
 10
3.75
 20
-2.7279799222
 30
0.0
 11
3.75
 21
2.7279801217
 31
0.0
  0
LINE
  5
89
330
1F
100
AcDbEntity
  8
SK1
  6
Continuous
100
AcDbLine
 10
6.125
 20
-2.0417131375
 30
0.0
 11
6.125
 21
2.041713337
 31
0.0
  0
LINE
  5
8A
330
1F
100
AcDbEntity
  8
SK1
  6
Continuous
100
AcDbLine
 10
6.25
 20
-1.933316136
 30
0.0
 11
6.25
 21
1.9333163355
 31
0.0
  0
LINE
  5
8B
330
1F
100
AcDbEntity
  8
SK1
  6
Continuous
100
AcDbLine
 10
-7.75
 20
-2.39941805
 30
0.0
 11
-7.75
 21
-2.0097066183
 31
0.0
  0
LINE
  5
8C
330
1F
100
AcDbEntity
  8
SK3
100
AcDbLine
 10
-7.7401143294
 20
-1.300919485
 30
0.0
 11
-7.75
 21
-1.4999999002
 31
0.0
  0
LINE
  5
8D
330
1F
100
AcDbEntity
  8
SK3
100
AcDbLine
 10
-7.75
 20
-1.4999999002
 30
0.0
 11
-7.7401143294
 21
-1.6906309167
 31
0.0
  0
SPLINE
  5
8E
330
1F
100
AcDbEntity
  8
SK3
100
AcDbSpline
210
0.0
220
0.0
230
1.0
 70
     8
 71
     3
 72
    10
 73
     6
 74
     0
 42
0.0000000402622425
 43
0.0000000001
 12
1.0
 22
0.0
 32
0.0
 13
1.0
 23
0.0
 33
0.0
 40
0.0
 40
0.0
 40
0.0
 40
0.0
 40
0.5
 40
0.5
 40
1.0
 40
1.0
 40
1.0
 40
1.0
 10
6.050000000001162
 20
-1.690630916714742
 30
0.0
 10
6.102177758965502
 20
-1.690630916719423
 30
0.0
 10
6.154839439892814
 20
-1.701598508841942
 30
0.0
 10
6.228480271800365
 20
-1.738643788783939
 30
0.0
 10
6.25
 20
-1.764791924960929
 30
0.0
 10
6.249999999999998
 20
-1.790895637508828
 30
0.0
  0
LINE
  5
8F
330
1F
100
AcDbEntity
  8
SK3
100
AcDbLine
 10
6.05
 20
-1.300919485
 30
0.0
 11
-7.7401143294
 21
-1.300919485
 31
0.0
  0
LINE
  5
90
330
1F
100
AcDbEntity
  8
SK3
100
AcDbLine
 10
-7.75
 20
-1.3051441844
 30
0.0
 11
-7.75
 21
-2.0097066183
 31
0.0
  0
LINE
  5
91
330
1F
100
AcDbEntity
  8
SK1
  6
Continuous
100
AcDbLine
 10
-7.75
 20
-2.0097066183
 30
0.0
 11
1.75
 21
-2.6779422542
 31
0.0
  0
SPLINE
  5
92
330
1F
100
AcDbEntity
  8
SK1
  6
Continuous
100
AcDbSpline
210
0.0
220
0.0
230
1.0
 70
     8
 71
     3
 72
    23
 73
    19
 74
     0
 42
0.0000000823116813
 43
0.0000000001
 12
1.0
 22
0.0
 32
0.0
 13
1.0
 23
0.0
 33
0.0
 40
0.0
 40
0.0
 40
0.0
 40
0.0
 40
0.1142476887945436
 40
0.1142476887945436
 40
0.1142476887945436
 40
0.2480992684414569
 40
0.2480992684414569
 40
0.2480992684414569
 40
0.4631300813742764
 40
0.4631300813742764
 40
0.4631300813742764
 40
0.6781723422819843
 40
0.6781723422819843
 40
0.6781723422819843
 40
0.893045368577229
 40
0.893045368577229
 40
0.893045368577229
 40
1.0
 40
1.0
 40
1.0
 40
1.0
 10
1.749999999999996
 20
-2.227533242724946
 30
0.0
 10
1.749999999999996
 20
-2.22454766804637
 30
0.0
 10
1.750537930837855
 20
-2.221550239523507
 30
0.0
 10
1.751601019951665
 20
-2.218612363327106
 30
0.0
 10
1.752853487851836
 20
-2.215151133611858
 30
0.0
 10
1.754849903528493
 20
-2.21173753848224
 30
0.0
 10
1.757524623575
 20
-2.208484271159968
 30
0.0
 10
1.761784294336884
 20
-2.203303225124376
 30
0.0
 10
1.767890386010705
 20
-2.198418133412387
 30
0.0
 10
1.775339030847293
 20
-2.194233774525122
 30
0.0
 10
1.782787908719139
 20
-2.190049284727715
 30
0.0
 10
1.791785184711501
 20
-2.186450173983102
 30
0.0
 10
1.801585843238028
 20
-2.183735736036927
 30
0.0
 10
1.811378831121638
 20
-2.181023422589239
 30
0.0
 10
1.822244423836428
 20
-2.17911956252498
 30
0.0
 10
1.833281566120059
 20
-2.178182722243301
 30
0.0
 10
1.838795249259977
 20
-2.177714716999448
 30
0.0
 10
1.844407431949405
 20
-2.177478214399704
 30
0.0
 10
1.849999999999999
 20
-2.177478214399704
 30
0.0
  0
LINE
  5
93
330
1F
100
AcDbEntity
  8
SK1
  6
Continuous
100
AcDbLine
 10
1.85
 20
-2.1774782144
 30
0.0
 11
3.65
 21
-2.1774782144
 31
0.0
  0
SPLINE
  5
94
330
1F
100
AcDbEntity
  8
SK1
  6
Continuous
100
AcDbSpline
210
0.0
220
0.0
230
1.0
 70
     8
 71
     3
 72
    23
 73
    19
 74
     0
 42
0.0000000822511753
 43
0.0000000001
 12
1.0
 22
0.0
 32
0.0
 13
1.0
 23
0.0
 33
0.0
 40
0.0
 40
0.0
 40
0.0
 40
0.0
 40
0.1762408865270262
 40
0.1762408865270262
 40
0.1762408865270262
 40
0.3908346224316096
 40
0.3908346224316096
 40
0.3908346224316096
 40
0.6055493281791033
 40
0.6055493281791033
 40
0.6055493281791033
 40
0.7386809412644633
 40
0.7386809412644633
 40
0.7386809412644633
 40
0.9539493899899641
 40
0.9539493899899641
 40
0.9539493899899641
 40
1.0
 40
1.0
 40
1.0
 40
1.0
 10
3.649999999999995
 20
-2.177478214399704
 30
0.0
 10
3.659186326927574
 20
-2.177478214399704
 30
0.0
 10
3.668458765568134
 20
-2.17812397943124
 30
0.0
 10
3.677295518728275
 20
-2.179379008913672
 30
0.0
 10
3.688050515681577
 20
-2.180906474716466
 30
0.0
 10
3.698426193054508
 20
-2.183383204233845
 30
0.0
 10
3.707565027737675
 20
-2.186603618307148
 30
0.0
 10
3.716709049018713
 20
-2.189825860074391
 30
0.0
 10
3.724866765503117
 20
-2.193881301366286
 30
0.0
 10
3.731365446568493
 20
-2.198434092752483
 30
0.0
 10
3.735430238718149
 20
-2.201281770688892
 30
0.0
 10
3.738913486970233
 20
-2.204360371865994
 30
0.0
 10
3.741701702968602
 20
-2.207569167016997
 30
0.0
 10
3.746170720375382
 20
-2.212712298464851
 30
0.0
 10
3.748924895401171
 20
-2.218312233539582
 30
0.0
 10
3.749736950710435
 20
-2.223905083598283
 30
0.0
 10
3.749912202002758
 20
-2.225112087837241
 30
0.0
 10
3.749999999999997
 20
-2.226323061958807
 30
0.0
 10
3.750000000000008
 20
-2.227533242724946
 30
0.0
  0
SPLINE
  5
95
330
1F
100
AcDbEntity
  8
SK1
  6
Continuous
100
AcDbSpline
210
0.0
220
0.0
230
1.0
 70
     8
 71
     3
 72
     8
 73
     4
 74
     0
 42
0.0000000040450416
 43
0.0000000001
 12
1.0
 22
0.0
 32
0.0
 13
1.0
 23
0.0
 33
0.0
 40
0.0
 40
0.0
 40
0.0
 40
0.0
 40
1.0
 40
1.0
 40
1.0
 40
1.0
 10
3.749999999999998
 20
-2.727979922150276
 30
0.0
 10
4.541711652869766
 20
-2.499263222432343
 30
0.0
 10
5.333392151072022
 20
-2.270519545120108
 30
0.0
 10
6.125
 20
-2.041713137496983
 30
0.0
  0
SPLINE
  5
96
330
1F
100
AcDbEntity
  8
SK1
  6
Continuous
100
AcDbSpline
210
0.0
220
0.0
230
1.0
 70
     8
 71
     3
 72
    10
 73
     6
 74
     0
 42
0.0000000557548262
 43
0.0000000001
 12
1.0
 22
0.0
 32
0.0
 13
1.0
 23
0.0
 33
0.0
 40
0.0
 40
0.0
 40
0.0
 40
0.0
 40
0.5
 40
0.5
 40
1.0
 40
1.0
 40
1.0
 40
1.0
 10
6.125
 20
-2.041713137496983
 30
0.0
 10
6.162588024093595
 20
-2.030848691453207
 30
0.0
 10
6.19495427788324
 20
-2.014625590352286
 30
0.0
 10
6.238262796913282
 20
-1.976998835471864
 30
0.0
 10
6.249999999999998
 20
-1.955309136127554
 30
0.0
 10
6.249999999999998
 20
-1.933316135968945
 30
0.0
  0
LINE
  5
97
330
1F
100
AcDbEntity
  8
SK3
100
AcDbLine
 10
-7.7401143294
 20
-1.6906309167
 30
0.0
 11
-7.75
 21
-1.6948556161
 31
0.0
  0
LINE
  5
98
330
1F
100
AcDbEntity
  8
SK3
100
AcDbLine
 10
6.05
 20
-1.6906309167
 30
0.0
 11
-7.7401143294
 21
-1.6906309167
 31
0.0
  0
LINE
  5
99
330
1F
100
AcDbEntity
  8
SK1
  6
Continuous
100
AcDbLine
 10
-7.75
 20
-2.39941805
 30
0.0
 11
1.75
 21
-3.0676536859
 31
0.0
  0
SPLINE
  5
9A
330
1F
100
AcDbEntity
  8
SK1
  6
Continuous
100
AcDbSpline
210
0.0
220
0.0
230
1.0
 70
     8
 71
     3
 72
    23
 73
    19
 74
     0
 42
0.0000000823116813
 43
0.0000000001
 12
1.0
 22
0.0
 32
0.0
 13
1.0
 23
0.0
 33
0.0
 40
0.0
 40
0.0
 40
0.0
 40
0.0
 40
0.1142476887945494
 40
0.1142476887945494
 40
0.1142476887945494
 40
0.2480992684414711
 40
0.2480992684414711
 40
0.2480992684414711
 40
0.4631300813742856
 40
0.4631300813742856
 40
0.4631300813742856
 40
0.6781723422819905
 40
0.6781723422819905
 40
0.6781723422819905
 40
0.8930453685772288
 40
0.8930453685772288
 40
0.8930453685772288
 40
1.0
 40
1.0
 40
1.0
 40
1.0
 10
1.749999999999996
 20
-2.617244674427944
 30
0.0
 10
1.749999999999996
 20
-2.614259099749367
 30
0.0
 10
1.750537930837855
 20
-2.611261671226505
 30
0.0
 10
1.751601019951665
 20
-2.608323795030103
 30
0.0
 10
1.752853487851837
 20
-2.604862565314854
 30
0.0
 10
1.754849903528493
 20
-2.601448970185237
 30
0.0
 10
1.757524623575001
 20
-2.598195702862966
 30
0.0
 10
1.761784294336884
 20
-2.593014656827373
 30
0.0
 10
1.767890386010706
 20
-2.588129565115384
 30
0.0
 10
1.775339030847294
 20
-2.58394520622812
 30
0.0
 10
1.78278790871914
 20
-2.579760716430712
 30
0.0
 10
1.791785184711502
 20
-2.576161605686099
 30
0.0
 10
1.801585843238028
 20
-2.573447167739925
 30
0.0
 10
1.811378831121639
 20
-2.570734854292237
 30
0.0
 10
1.822244423836428
 20
-2.568830994227977
 30
0.0
 10
1.833281566120058
 20
-2.567894153946298
 30
0.0
 10
1.838795249259977
 20
-2.567426148702445
 30
0.0
 10
1.844407431949405
 20
-2.567189646102703
 30
0.0
 10
1.849999999999999
 20
-2.567189646102703
 30
0.0
  0
LINE
  5
9B
330
1F
100
AcDbEntity
  8
SK1
  6
Continuous
100
AcDbLine
 10
1.85
 20
-2.5671896461
 30
0.0
 11
3.65
 21
-2.5671896461
 31
0.0
  0
SPLINE
  5
9C
330
1F
100
AcDbEntity
  8
SK1
  6
Continuous
100
AcDbSpline
210
0.0
220
0.0
230
1.0
 70
     8
 71
     3
 72
    23
 73
    19
 74
     0
 42
0.0000000822511753
 43
0.0000000001
 12
1.0
 22
0.0
 32
0.0
 13
1.0
 23
0.0
 33
0.0
 40
0.0
 40
0.0
 40
0.0
 40
0.0
 40
0.1762408865270262
 40
0.1762408865270262
 40
0.1762408865270262
 40
0.3908346224316124
 40
0.3908346224316124
 40
0.3908346224316124
 40
0.6055493281791123
 40
0.6055493281791123
 40
0.6055493281791123
 40
0.7386809412644577
 40
0.7386809412644577
 40
0.7386809412644577
 40
0.9539493899899648
 40
0.9539493899899648
 40
0.9539493899899648
 40
1.0
 40
1.0
 40
1.0
 40
1.0
 10
3.649999999999995
 20
-2.567189646102703
 30
0.0
 10
3.659186326927574
 20
-2.567189646102702
 30
0.0
 10
3.668458765568134
 20
-2.567835411134237
 30
0.0
 10
3.677295518728275
 20
-2.569090440616669
 30
0.0
 10
3.688050515681577
 20
-2.570617906419464
 30
0.0
 10
3.698426193054508
 20
-2.573094635936842
 30
0.0
 10
3.707565027737675
 20
-2.576315050010145
 30
0.0
 10
3.716709049018713
 20
-2.57953729177739
 30
0.0
 10
3.724866765503118
 20
-2.583592733069285
 30
0.0
 10
3.731365446568494
 20
-2.588145524455481
 30
0.0
 10
3.735430238718149
 20
-2.59099320239189
 30
0.0
 10
3.738913486970233
 20
-2.594071803568992
 30
0.0
 10
3.741701702968602
 20
-2.597280598719995
 30
0.0
 10
3.746170720375381
 20
-2.602423730167848
 30
0.0
 10
3.748924895401171
 20
-2.60802366524258
 30
0.0
 10
3.749736950710435
 20
-2.613616515301281
 30
0.0
 10
3.749912202002758
 20
-2.61482351954024
 30
0.0
 10
3.749999999999997
 20
-2.616034493661805
 30
0.0
 10
3.750000000000008
 20
-2.617244674427944
 30
0.0
  0
LINE
  5
9D
330
1F
100
AcDbEntity
  8
SK1
  6
Continuous
100
AcDbLine
 10
3.75
 20
-2.7279799222
 30
0.0
 11
3.75
 21
-3.1176913539
 31
0.0
  0
SPLINE
  5
9E
330
1F
100
AcDbEntity
  8
SK1
  6
Continuous
100
AcDbSpline
210
0.0
220
0.0
230
1.0
 70
     8
 71
     3
 72
     8
 73
     4
 74
     0
 42
0.0000000040450416
 43
0.0000000001
 12
1.0
 22
0.0
 32
0.0
 13
1.0
 23
0.0
 33
0.0
 40
0.0
 40
0.0
 40
0.0
 40
0.0
 40
1.0
 40
1.0
 40
1.0
 40
1.0
 10
3.749999999999998
 20
-3.117691353853273
 30
0.0
 10
4.541711652869766
 20
-2.888974654135341
 30
0.0
 10
5.333392151072022
 20
-2.660230976823105
 30
0.0
 10
6.125
 20
-2.43142456919998
 30
0.0
  0
SPLINE
  5
9F
330
1F
100
AcDbEntity
  8
SK1
  6
Continuous
100
AcDbSpline
210
0.0
220
0.0
230
1.0
 70
     8
 71
     3
 72
    10
 73
     6
 74
     0
 42
0.0000000557548262
 43
0.0000000001
 12
1.0
 22
0.0
 32
0.0
 13
1.0
 23
0.0
 33
0.0
 40
0.0
 40
0.0
 40
0.0
 40
0.0
 40
0.5
 40
0.5
 40
1.0
 40
1.0
 40
1.0
 40
1.0
 10
6.125
 20
-2.43142456919998
 30
0.0
 10
6.162588024093599
 20
-2.420560123156204
 30
0.0
 10
6.19495427788324
 20
-2.404337022055283
 30
0.0
 10
6.238262796913282
 20
-2.366710267174861
 30
0.0
 10
6.249999999999998
 20
-2.345020567830551
 30
0.0
 10
6.249999999999998
 20
-2.323027567671943
 30
0.0
  0
LINE
  5
A0
330
1F
100
AcDbEntity
  8
SK1
  6
Continuous
100
AcDbLine
 10
6.25
 20
-2.3230275677
 30
0.0
 11
6.25
 21
-1.933316136
 31
0.0
  0
SPLINE
  5
A1
330
1F
100
AcDbEntity
  8
SK3
100
AcDbSpline
210
0.0
220
0.0
230
1.0
 70
     8
 71
     3
 72
    10
 73
     6
 74
     0
 42
0.0000000402622425
 43
0.0000000001
 12
1.0
 22
0.0
 32
0.0
 13
1.0
 23
0.0
 33
0.0
 40
0.0
 40
0.0
 40
0.0
 40
0.0
 40
0.5
 40
0.5
 40
1.0
 40
1.0
 40
1.0
 40
1.0
 10
6.050000000001162
 20
-1.300919485011744
 30
0.0
 10
6.102177758965502
 20
-1.300919485016425
 30
0.0
 10
6.154839439892814
 20
-1.311887077138943
 30
0.0
 10
6.228480271800365
 20
-1.348932357080941
 30
0.0
 10
6.25
 20
-1.375080493257932
 30
0.0
 10
6.249999999999998
 20
-1.40118420580583
 30
0.0
  0
LINE
  5
A2
330
1F
100
AcDbEntity
  8
SK3
100
AcDbLine
 10
-7.7401143294
 20
-1.300919485
 30
0.0
 11
-7.75
 21
-1.3051441844
 31
0.0
  0
SPLINE
  5
A3
330
1F
100
AcDbEntity
  8
SK3
100
AcDbSpline
210
0.0
220
0.0
230
1.0
 70
     8
 71
     3
 72
    10
 73
     6
 74
     0
 42
0.0000000331872168
 43
0.0000000001
 12
1.0
 22
0.0
 32
0.0
 13
1.0
 23
0.0
 33
0.0
 40
0.0
 40
0.0
 40
0.0
 40
0.0
 40
0.5
 40
0.5
 40
1.0
 40
1.0
 40
1.0
 40
1.0
 10
-11.75000000000001
 20
-2.651922308255977
 30
0.0
 10
-11.75000000000001
 20
-2.606694350058828
 30
0.0
 10
-11.72884571483846
 20
-2.56169483088315
 30
0.0
 10
-11.65428649646265
 20
-2.496816501660719
 30
0.0
 10
-11.60289389657065
 20
-2.478258717640994
 30
0.0
 10
-11.55
 20
-2.478258717641683
 30
0.0
  0
SPLINE
  5
A4
330
1F
100
AcDbEntity
  8
SK3
100
AcDbSpline
210
0.0
220
0.0
230
1.0
 70
     8
 71
     3
 72
    10
 73
     6
 74
     0
 42
0.0000000331872168
 43
0.0000000001
 12
1.0
 22
0.0
 32
0.0
 13
1.0
 23
0.0
 33
0.0
 40
0.0
 40
0.0
 40
0.0
 40
0.0
 40
0.5
 40
0.5
 40
1.0
 40
1.0
 40
1.0
 40
1.0
 10
-11.75000000000204
 20
-2.876922308255775
 30
0.0
 10
-11.74999999999991
 20
-2.831694350058574
 30
0.0
 10
-11.72884571483833
 20
-2.786694830882981
 30
0.0
 10
-11.65428649646254
 20
-2.721816501660673
 30
0.0
 10
-11.60289389657059
 20
-2.703258717640995
 30
0.0
 10
-11.55
 20
-2.703258717641682
 30
0.0
  0
LINE
  5
A5
330
1F
100
AcDbEntity
  8
SK1
  6
Continuous
100
AcDbLine
 10
-11.75
 20
-3.0675056701
 30
0.0
 11
-11.75
 21
-0.2249999002
 31
0.0
  0
LINE
  5
A6
330
1F
100
AcDbEntity
  8
SK1
  6
Continuous
100
AcDbLine
 10
-11.5778346202
 20
-3.2393303505
 30
0.0
 11
-11.5778346202
 21
-0.2249999002
 31
0.0
  0
LINE
  5
A7
330
1F
100
AcDbEntity
  8
SK1
  6
Continuous
100
AcDbLine
 10
1.75
 20
-4.8633321171
 30
0.0
 11
1.75
 21
-3.0676536859
 31
0.0
  0
LINE
  5
A8
330
1F
100
AcDbEntity
  8
SK1
  6
Continuous
100
AcDbLine
 10
1.85
 20
-3.9965029728
 30
0.0
 11
1.85
 21
-2.5671896461
 31
0.0
  0
LINE
  5
A9
330
1F
100
AcDbEntity
  8
SK1
  6
Continuous
100
AcDbLine
 10
2.25
 20
-3.9965029728
 30
0.0
 11
2.25
 21
-4.2215029728
 31
0.0
  0
LINE
  5
AA
330
1F
100
AcDbEntity
  8
SK3
100
AcDbLine
 10
2.25
 20
-2.5980761116
 30
0.0
 11
2.234332167
 21
-2.4782587176
 31
0.0
  0
LINE
  5
AB
330
1F
100
AcDbEntity
  8
SK3
100
AcDbLine
 10
2.234332167
 20
-2.7032587176
 30
0.0
 11
2.25
 21
-2.5980761116
 31
0.0
  0
LINE
  5
AC
330
1F
100
AcDbEntity
  8
SK3
100
AcDbLine
 10
2.25
 20
-2.7105761116
 30
0.0
 11
2.234332167
 21
-2.7032587176
 31
0.0
  0
SPLINE
  5
AD
330
1F
100
AcDbEntity
  8
SK1
  6
Continuous
100
AcDbSpline
210
0.0
220
0.0
230
1.0
 70
     8
 71
     3
 72
    23
 73
    19
 74
     0
 42
0.0000000678341421
 43
0.0000000001
 12
1.0
 22
0.0
 32
0.0
 13
1.0
 23
0.0
 33
0.0
 40
0.0
 40
0.0
 40
0.0
 40
0.0
 40
0.0720086882387637
 40
0.0720086882387637
 40
0.0720086882387637
 40
0.287278428279407
 40
0.287278428279407
 40
0.287278428279407
 40
0.5025124564906023
 40
0.5025124564906023
 40
0.5025124564906023
 40
0.717573067840404
 40
0.717573067840404
 40
0.717573067840404
 40
0.9323973733037646
 40
0.9323973733037646
 40
0.9323973733037646
 40
1.0
 40
1.0
 40
1.0
 40
1.0
 10
1.749999999999996
 20
-4.083200824985497
 30
0.0
 10
1.749999999999994
 20
-4.079931098689906
 30
0.0
 10
1.750214042480759
 20
-4.076656163712419
 30
0.0
 10
1.750640087238004
 20
-4.073407321696147
 30
0.0
 10
1.751905735756633
 20
-4.063756006863049
 30
0.0
 10
1.755112844441752
 20
-4.054160698088928
 30
0.0
 10
1.759996682042964
 20
-4.045416535730483
 30
0.0
 10
1.76487965611023
 20
-4.036673919467889
 30
0.0
 10
1.771573755956265
 20
-4.028540797321663
 30
0.0
 10
1.779525260096763
 20
-4.021692724428587
 30
0.0
 10
1.78747037364071
 20
-4.014850155308161
 30
0.0
 10
1.796890458547651
 20
-4.00910166056028
 30
0.0
 10
1.807004840077394
 20
-4.004925676988645
 30
0.0
 10
1.8171082553878
 20
-4.000754221103816
 30
0.0
 10
1.828183491965882
 20
-3.998036746839587
 30
0.0
 10
1.839312109219668
 20
-3.996999585611021
 30
0.0
 10
1.842859382110722
 20
-3.996668988033097
 30
0.0
 10
1.846432245620987
 20
-3.996502972750397
 30
0.0
 10
1.849999999999998
 20
-3.996502972751879
 30
0.0
  0
LINE
  5
AE
330
1F
100
AcDbEntity
  8
SK1
  6
Continuous
100
AcDbLine
 10
1.85
 20
-3.9965029728
 30
0.0
 11
2.25
 21
-3.9965029728
 31
0.0
  0
LINE
  5
AF
330
1F
100
AcDbEntity
  8
SK3
100
AcDbLine
 10
2.25
 20
-2.4855761116
 30
0.0
 11
2.234332167
 21
-2.4782587176
 31
0.0
  0
LINE
  5
B0
330
1F
100
AcDbEntity
  8
SK3
100
AcDbLine
 10
2.234332167
 20
-2.4782587176
 30
0.0
 11
-11.55
 21
-2.4782587176
 31
0.0
  0
SPLINE
  5
B1
330
1F
100
AcDbEntity
  8
SK1
  6
Continuous
100
AcDbSpline
210
0.0
220
0.0
230
1.0
 70
     8
 71
     3
 72
    10
 73
     6
 74
     0
 42
0.0000000368258662
 43
0.0000000001
 12
1.0
 22
0.0
 32
0.0
 13
1.0
 23
0.0
 33
0.0
 40
0.0
 40
0.0
 40
0.0
 40
0.0
 40
0.5
 40
0.5
 40
1.0
 40
1.0
 40
1.0
 40
1.0
 10
-11.75
 20
-3.067505670070306
 30
0.0
 10
-11.75000000000001
 20
-3.108787766471088
 30
0.0
 10
-11.73219383834308
 20
-3.150095997100134
 30
0.0
 10
-11.66993624038131
 20
-3.212346406073217
 30
0.0
 10
-11.62554330431898
 20
-3.2335138304963
 30
0.0
 10
-11.57783462019202
 20
-3.239330350507134
 30
0.0
  0
SPLINE
  5
B2
330
1F
100
AcDbEntity
  8
SK1
  6
Continuous
100
AcDbSpline
210
0.0
220
0.0
230
1.0
 70
     8
 71
     3
 72
    11
 73
     7
 74
     0
 42
0.0000000007448006
 43
0.0000000001
 12
1.0
 22
0.0
 32
0.0
 13
1.0
 23
0.0
 33
0.0
 40
0.0
 40
0.0
 40
0.0
 40
0.0
 40
0.5056987538646306
 40
0.5056987538646306
 40
0.5056987538646306
 40
1.0
 40
1.0
 40
1.0
 40
1.0
 10
-11.57783462019202
 20
-3.239330350507134
 30
0.0
 10
-9.331235501899707
 20
-3.513229934533181
 30
0.0
 10
-7.084619057020397
 20
-3.787022934226386
 30
0.0
 10
-4.837993842395348
 20
-4.060761933314366
 30
0.0
 10
-2.642003373510992
 20
-4.32833136547685
 30
0.0
 10
-0.446004218845227
 20
-4.595847334849602
 30
0.0
 10
1.749999999999996
 20
-4.863332117054945
 30
0.0
  0
SPLINE
  5
B3
330
1F
100
AcDbEntity
  8
SK1
  6
Continuous
100
AcDbSpline
210
0.0
220
0.0
230
1.0
 70
     8
 71
     3
 72
    23
 73
    19
 74
     0
 42
0.0000000678341421
 43
0.0000000001
 12
1.0
 22
0.0
 32
0.0
 13
1.0
 23
0.0
 33
0.0
 40
0.0
 40
0.0
 40
0.0
 40
0.0
 40
0.0720086882387549
 40
0.0720086882387549
 40
0.0720086882387549
 40
0.2872784282794056
 40
0.2872784282794056
 40
0.2872784282794056
 40
0.5025124564905995
 40
0.5025124564905995
 40
0.5025124564905995
 40
0.7175730678404046
 40
0.7175730678404046
 40
0.7175730678404046
 40
0.932397373303764
 40
0.932397373303764
 40
0.932397373303764
 40
1.0
 40
1.0
 40
1.0
 40
1.0
 10
1.749999999999996
 20
-4.308200824985497
 30
0.0
 10
1.749999999999994
 20
-4.304931098689906
 30
0.0
 10
1.750214042480759
 20
-4.301656163712419
 30
0.0
 10
1.750640087238004
 20
-4.298407321696147
 30
0.0
 10
1.751905735756632
 20
-4.288756006863051
 30
0.0
 10
1.755112844441752
 20
-4.279160698088926
 30
0.0
 10
1.759996682042964
 20
-4.270416535730483
 30
0.0
 10
1.764879656110229
 20
-4.261673919467889
 30
0.0
 10
1.771573755956265
 20
-4.253540797321663
 30
0.0
 10
1.779525260096764
 20
-4.246692724428587
 30
0.0
 10
1.78747037364071
 20
-4.239850155308162
 30
0.0
 10
1.796890458547651
 20
-4.23410166056028
 30
0.0
 10
1.807004840077394
 20
-4.229925676988645
 30
0.0
 10
1.817108255387801
 20
-4.225754221103815
 30
0.0
 10
1.828183491965882
 20
-4.223036746839586
 30
0.0
 10
1.839312109219668
 20
-4.22199958561102
 30
0.0
 10
1.842859382110721
 20
-4.221668988033096
 30
0.0
 10
1.846432245620987
 20
-4.221502972750397
 30
0.0
 10
1.849999999999998
 20
-4.22150297275188
 30
0.0
  0
LINE
  5
B4
330
1F
100
AcDbEntity
  8
SK1
  6
Continuous
100
AcDbLine
 10
1.85
 20
-4.2215029728
 30
0.0
 11
2.25
 21
-4.2215029728
 31
0.0
  0
LINE
  5
B5
330
1F
100
AcDbEntity
  8
SK3
100
AcDbLine
 10
2.234332167
 20
-2.7032587176
 30
0.0
 11
-11.55
 21
-2.7032587176
 31
0.0
  0
LINE
  5
B6
330
1F
100
AcDbEntity
  8
SK1
  6
Continuous
100
AcDbLine
 10
-11.75
 20
-3.0675056701
 30
0.0
 11
-11.75
 21
-3.2925056701
 31
0.0
  0
SPLINE
  5
B7
330
1F
100
AcDbEntity
  8
SK1
  6
Continuous
100
AcDbSpline
210
0.0
220
0.0
230
1.0
 70
     8
 71
     3
 72
    10
 73
     6
 74
     0
 42
0.0000000368258662
 43
0.0000000001
 12
1.0
 22
0.0
 32
0.0
 13
1.0
 23
0.0
 33
0.0
 40
0.0
 40
0.0
 40
0.0
 40
0.0
 40
0.5
 40
0.5
 40
1.0
 40
1.0
 40
1.0
 40
1.0
 10
-11.75
 20
-3.292505670070304
 30
0.0
 10
-11.75000000000001
 20
-3.333787766471088
 30
0.0
 10
-11.73219383834308
 20
-3.375095997100133
 30
0.0
 10
-11.66993624038131
 20
-3.437346406073218
 30
0.0
 10
-11.62554330431898
 20
-3.4585138304963
 30
0.0
 10
-11.57783462019202
 20
-3.464330350507134
 30
0.0
  0
SPLINE
  5
B8
330
1F
100
AcDbEntity
  8
SK1
  6
Continuous
100
AcDbSpline
210
0.0
220
0.0
230
1.0
 70
     8
 71
     3
 72
    11
 73
     7
 74
     0
 42
0.0000000007448006
 43
0.0000000001
 12
1.0
 22
0.0
 32
0.0
 13
1.0
 23
0.0
 33
0.0
 40
0.0
 40
0.0
 40
0.0
 40
0.0
 40
0.5056987538646308
 40
0.5056987538646308
 40
0.5056987538646308
 40
1.0
 40
1.0
 40
1.0
 40
1.0
 10
-11.57783462019202
 20
-3.464330350507134
 30
0.0
 10
-9.331235501899705
 20
-3.73822993453318
 30
0.0
 10
-7.084619057020397
 20
-4.012022934226387
 30
0.0
 10
-4.837993842395345
 20
-4.285761933314366
 30
0.0
 10
-2.64200337351099
 20
-4.55333136547685
 30
0.0
 10
-0.4460042188452265
 20
-4.820847334849602
 30
0.0
 10
1.749999999999996
 20
-5.088332117054946
 30
0.0
  0
LINE
  5
B9
330
1F
100
AcDbEntity
  8
SK1
  6
Continuous
100
AcDbLine
 10
1.75
 20
-5.0883321171
 30
0.0
 11
1.75
 21
-4.8633321171
 31
0.0
  0
LINE
  5
BA
330
1F
100
AcDbEntity
  8
SK3
100
AcDbLine
 10
2.25
 20
-3.9965029728
 30
0.0
 11
2.25
 21
-2.4855761116
 31
0.0
  0
LINE
  5
BB
330
1F
100
AcDbEntity
  8
SK1
  6
Continuous
100
AcDbLine
 10
1.75
 20
3.0676538854
 30
0.0
 11
1.75
 21
4.8633323166
 31
0.0
  0
LINE
  5
BC
330
1F
100
AcDbEntity
  8
SK1
  6
Continuous
100
AcDbLine
 10
1.75
 20
3.0676538854
 30
0.0
 11
1.75
 21
2.6779424537
 31
0.0
  0
LINE
  5
BD
330
1F
100
AcDbEntity
  8
SK1
  6
Continuous
100
AcDbLine
 10
1.85
 20
2.5671898456
 30
0.0
 11
1.85
 21
3.9965031723
 31
0.0
  0
LINE
  5
BE
330
1F
100
AcDbEntity
  8
SK1
  6
Continuous
100
AcDbLine
 10
3.65
 20
2.5671898456
 30
0.0
 11
3.65
 21
4.7446681598
 31
0.0
  0
LINE
  5
BF
330
1F
100
AcDbEntity
  8
SK1
  6
Continuous
100
AcDbLine
 10
3.75
 20
3.1176915534
 30
0.0
 11
3.75
 21
5.8456715753
 31
0.0
  0
LINE
  5
C0
330
1F
100
AcDbEntity
  8
SK1
  6
Continuous
100
AcDbLine
 10
6.125
 20
2.4314247687
 30
0.0
 11
6.125
 21
4.473138006
 31
0.0
  0
LINE
  5
C1
330
1F
100
AcDbEntity
  8
SK1
  6
Continuous
100
AcDbLine
 10
6.25
 20
2.3230277672
 30
0.0
 11
6.25
 21
4.256344003
 31
0.0
  0
LINE
  5
C2
330
1F
100
AcDbEntity
  8
SK1
  6
Continuous
100
AcDbLine
 10
-7.75
 20
2.0097068178
 30
0.0
 11
-7.75
 21
2.3994182495
 31
0.0
  0
LINE
  5
C3
330
1F
100
AcDbEntity
  8
SK3
100
AcDbLine
 10
-7.7401143294
 20
1.6906311163
 30
0.0
 11
-7.75
 21
1.5000000998
 31
0.0
  0
LINE
  5
C4
330
1F
100
AcDbEntity
  8
SK3
100
AcDbLine
 10
-7.75
 20
1.5000000998
 30
0.0
 11
-7.7401143294
 21
1.3009196846
 31
0.0
  0
LINE
  5
C5
330
1F
100
AcDbEntity
  8
SK3
100
AcDbLine
 10
-7.75
 20
1.3051443839
 30
0.0
 11
-7.75
 21
2.0097068178
 31
0.0
  0
SPLINE
  5
C6
330
1F
100
AcDbEntity
  8
SK3
100
AcDbSpline
210
0.0
220
0.0
230
1.0
 70
     8
 71
     3
 72
    10
 73
     6
 74
     0
 42
0.0000000402580255
 43
0.0000000001
 12
1.0
 22
0.0
 32
0.0
 13
1.0
 23
0.0
 33
0.0
 40
0.0
 40
0.0
 40
0.0
 40
0.0
 40
0.5
 40
0.5
 40
1.0
 40
1.0
 40
1.0
 40
1.0
 10
6.049999999999994
 20
1.300919684557637
 30
0.0
 10
6.102931479258319
 20
1.300919684557637
 30
0.0
 10
6.154689214481538
 20
1.311837738050728
 30
0.0
 10
6.228432379767735
 20
1.348882501443878
 30
0.0
 10
6.249999999999998
 20
1.375050458922832
 30
0.0
 10
6.249999999999998
 20
1.401184405347238
 30
0.0
  0
LINE
  5
C7
330
1F
100
AcDbEntity
  8
SK3
100
AcDbLine
 10
6.05
 20
1.6906311163
 30
0.0
 11
-7.7401143294
 21
1.6906311163
 31
0.0
  0
LINE
  5
C8
330
1F
100
AcDbEntity
  8
SK1
  6
Continuous
100
AcDbLine
 10
-7.75
 20
2.3994182495
 30
0.0
 11
1.75
 21
3.0676538854
 31
0.0
  0
SPLINE
  5
C9
330
1F
100
AcDbEntity
  8
SK1
  6
Continuous
100
AcDbSpline
210
0.0
220
0.0
230
1.0
 70
     8
 71
     3
 72
    23
 73
    19
 74
     0
 42
0.0000000822345408
 43
0.0000000001
 12
1.0
 22
0.0
 32
0.0
 13
1.0
 23
0.0
 33
0.0
 40
0.0
 40
0.0
 40
0.0
 40
0.0
 40
0.0720086882388807
 40
0.0720086882388807
 40
0.0720086882388807
 40
0.2872784282795192
 40
0.2872784282795192
 40
0.2872784282795192
 40
0.5025124564907143
 40
0.5025124564907143
 40
0.5025124564907143
 40
0.7175730678405181
 40
0.7175730678405181
 40
0.7175730678405181
 40
0.9323973733038848
 40
0.9323973733038848
 40
0.9323973733038848
 40
1.0
 40
1.0
 40
1.0
 40
1.0
 10
1.749999999999996
 20
2.617244873969351
 30
0.0
 10
1.749999999999994
 20
2.615357096612411
 30
0.0
 10
1.75021404248076
 20
2.613466312021576
 30
0.0
 10
1.750640087238005
 20
2.611590592208924
 30
0.0
 10
1.751905735756637
 20
2.606018402992003
 30
0.0
 10
1.755112844441758
 20
2.600478548888306
 30
0.0
 10
1.759996682042973
 20
2.595430104396822
 30
0.0
 10
1.76487965611024
 20
2.590382552544192
 30
0.0
 10
1.771573755956276
 20
2.585686892283715
 30
0.0
 10
1.779525260096776
 20
2.581733155555469
 30
0.0
 10
1.787470373640724
 20
2.577782596431843
 30
0.0
 10
1.796890458547667
 20
2.57446370144172
 30
0.0
 10
1.807004840077411
 20
2.572052696202507
 30
0.0
 10
1.817108255387818
 20
2.569644305024489
 30
0.0
 10
1.8281834919659
 20
2.56807537052652
 30
0.0
 10
1.839312109219686
 20
2.567476565212016
 30
0.0
 10
1.842859382110734
 20
2.567285694611409
 30
0.0
 10
1.846432245620993
 20
2.567189845643253
 30
0.0
 10
1.849999999999998
 20
2.567189845644109
 30
0.0
  0
LINE
  5
CA
330
1F
100
AcDbEntity
  8
SK1
  6
Continuous
100
AcDbLine
 10
1.85
 20
2.5671898456
 30
0.0
 11
3.65
 21
2.5671898456
 31
0.0
  0
SPLINE
  5
CB
330
1F
100
AcDbEntity
  8
SK1
  6
Continuous
100
AcDbSpline
210
0.0
220
0.0
230
1.0
 70
     8
 71
     3
 72
    20
 73
    16
 74
     0
 42
0.0000000822393899
 43
0.0000000001
 12
1.0
 22
0.0
 32
0.0
 13
1.0
 23
0.0
 33
0.0
 40
0.0
 40
0.0
 40
0.0
 40
0.0
 40
0.2131842890743362
 40
0.2131842890743362
 40
0.2131842890743362
 40
0.4276222227334071
 40
0.4276222227334071
 40
0.4276222227334071
 40
0.6421683401747277
 40
0.6421683401747277
 40
0.6421683401747277
 40
0.8569448030456008
 40
0.8569448030456008
 40
0.8569448030456008
 40
1.0
 40
1.0
 40
1.0
 40
1.0
 10
3.649999999999995
 20
2.567189845644108
 30
0.0
 10
3.661117322743993
 20
2.56718984564411
 30
0.0
 10
3.672386192947881
 20
2.568143942201849
 30
0.0
 10
3.682883961170151
 20
2.569973677657163
 30
0.0
 10
3.693443605607299
 20
2.571814197986158
 30
0.0
 10
3.703513109976204
 20
2.574591516880163
 30
0.0
 10
3.712260334062163
 20
2.5780751292924
 30
0.0
 10
3.721012024415105
 20
2.581560520410996
 30
0.0
 10
3.728681246776143
 20
2.585848846232416
 30
0.0
 10
3.73463574461762
 20
2.590585085365102
 30
0.0
 10
3.740596563719035
 20
2.595326352461437
 30
0.0
 10
3.745003297218982
 20
2.600647054319813
 30
0.0
 10
3.747492968132121
 20
2.606107167821821
 30
0.0
 10
3.749153872840735
 20
2.609749708760542
 30
0.0
 10
3.750000000000011
 20
2.613508865992594
 30
0.0
 10
3.750000000001029
 20
2.617244873969409
 30
0.0
  0
LINE
  5
CC
330
1F
100
AcDbEntity
  8
SK1
  6
Continuous
100
AcDbLine
 10
3.75
 20
2.7279801217
 30
0.0
 11
3.75
 21
3.1176915534
 31
0.0
  0
LINE
  5
CD
330
1F
100
AcDbEntity
  8
SK1
  6
Continuous
100
AcDbLine
 10
3.75
 20
3.1176915534
 30
0.0
 11
6.125
 21
2.4314247687
 31
0.0
  0
SPLINE
  5
CE
330
1F
100
AcDbEntity
  8
SK1
  6
Continuous
100
AcDbSpline
210
0.0
220
0.0
230
1.0
 70
     8
 71
     3
 72
     8
 73
     4
 74
     0
 42
0.0000000532183615
 43
0.0000000001
 12
1.0
 22
0.0
 32
0.0
 13
1.0
 23
0.0
 33
0.0
 40
0.0
 40
0.0
 40
0.0
 40
0.0
 40
1.0
 40
1.0
 40
1.0
 40
1.0
 10
6.125
 20
2.431424768741388
 30
0.0
 10
6.20131949433881
 20
2.409365374869882
 30
0.0
 10
6.249999999999998
 20
2.366870006979171
 30
0.0
 10
6.249999999999998
 20
2.32302776721335
 30
0.0
  0
LINE
  5
CF
330
1F
100
AcDbEntity
  8
SK1
  6
Continuous
100
AcDbLine
 10
6.25
 20
2.3230277672
 30
0.0
 11
6.25
 21
1.9333163355
 31
0.0
  0
LINE
  5
D0
330
1F
100
AcDbEntity
  8
SK3
100
AcDbLine
 10
-7.7401143294
 20
1.3009196846
 30
0.0
 11
-7.75
 21
1.3051443839
 31
0.0
  0
LINE
  5
D1
330
1F
100
AcDbEntity
  8
SK3
100
AcDbLine
 10
6.05
 20
1.3009196846
 30
0.0
 11
-7.7401143294
 21
1.3009196846
 31
0.0
  0
LINE
  5
D2
330
1F
100
AcDbEntity
  8
SK1
  6
Continuous
100
AcDbLine
 10
-7.75
 20
2.0097068178
 30
0.0
 11
1.75
 21
2.6779424537
 31
0.0
  0
SPLINE
  5
D3
330
1F
100
AcDbEntity
  8
SK1
  6
Continuous
100
AcDbSpline
210
0.0
220
0.0
230
1.0
 70
     8
 71
     3
 72
    23
 73
    19
 74
     0
 42
0.0000000822345408
 43
0.0000000001
 12
1.0
 22
0.0
 32
0.0
 13
1.0
 23
0.0
 33
0.0
 40
0.0
 40
0.0
 40
0.0
 40
0.0
 40
0.0720086882387594
 40
0.0720086882387594
 40
0.0720086882387594
 40
0.2872784282794002
 40
0.2872784282794002
 40
0.2872784282794002
 40
0.5025124564905938
 40
0.5025124564905938
 40
0.5025124564905938
 40
0.7175730678404018
 40
0.7175730678404018
 40
0.7175730678404018
 40
0.932397373303763
 40
0.932397373303763
 40
0.932397373303763
 40
1.0
 40
1.0
 40
1.0
 40
1.0
 10
1.749999999999996
 20
2.227533442266354
 30
0.0
 10
1.749999999999994
 20
2.225645664909417
 30
0.0
 10
1.750214042480759
 20
2.223754880318586
 30
0.0
 10
1.750640087238004
 20
2.221879160505937
 30
0.0
 10
1.751905735756633
 20
2.216306971289015
 30
0.0
 10
1.755112844441751
 20
2.210767117185318
 30
0.0
 10
1.759996682042964
 20
2.205718672693834
 30
0.0
 10
1.764879656110229
 20
2.200671120841204
 30
0.0
 10
1.771573755956264
 20
2.195975460580726
 30
0.0
 10
1.779525260096762
 20
2.192021723852478
 30
0.0
 10
1.78747037364071
 20
2.188071164728852
 30
0.0
 10
1.796890458547651
 20
2.184752269738729
 30
0.0
 10
1.807004840077393
 20
2.182341264499514
 30
0.0
 10
1.8171082553878
 20
2.179932873321495
 30
0.0
 10
1.828183491965881
 20
2.178363938823526
 30
0.0
 10
1.839312109219667
 20
2.17776513350902
 30
0.0
 10
1.842859382110721
 20
2.177574262908412
 30
0.0
 10
1.846432245620987
 20
2.177478413940256
 30
0.0
 10
1.849999999999998
 20
2.177478413941112
 30
0.0
  0
LINE
  5
D4
330
1F
100
AcDbEntity
  8
SK1
  6
Continuous
100
AcDbLine
 10
1.85
 20
2.1774784139
 30
0.0
 11
3.65
 21
2.1774784139
 31
0.0
  0
SPLINE
  5
D5
330
1F
100
AcDbEntity
  8
SK1
  6
Continuous
100
AcDbSpline
210
0.0
220
0.0
230
1.0
 70
     8
 71
     3
 72
    20
 73
    16
 74
     0
 42
0.0000000822393899
 43
0.0000000001
 12
1.0
 22
0.0
 32
0.0
 13
1.0
 23
0.0
 33
0.0
 40
0.0
 40
0.0
 40
0.0
 40
0.0
 40
0.2131842890743372
 40
0.2131842890743372
 40
0.2131842890743372
 40
0.4276222227334018
 40
0.4276222227334018
 40
0.4276222227334018
 40
0.642168340174726
 40
0.642168340174726
 40
0.642168340174726
 40
0.8569448030455995
 40
0.8569448030455995
 40
0.8569448030455995
 40
1.0
 40
1.0
 40
1.0
 40
1.0
 10
3.649999999999995
 20
2.177478413941113
 30
0.0
 10
3.661117322743993
 20
2.177478413941113
 30
0.0
 10
3.672386192947882
 20
2.178432510498853
 30
0.0
 10
3.682883961170152
 20
2.180262245954167
 30
0.0
 10
3.693443605607299
 20
2.18210276628316
 30
0.0
 10
3.703513109976204
 20
2.184880085177165
 30
0.0
 10
3.712260334062162
 20
2.188363697589403
 30
0.0
 10
3.721012024415105
 20
2.191849088707998
 30
0.0
 10
3.728681246776143
 20
2.196137414529419
 30
0.0
 10
3.73463574461762
 20
2.200873653662106
 30
0.0
 10
3.740596563719035
 20
2.20561492075844
 30
0.0
 10
3.745003297218982
 20
2.210935622616817
 30
0.0
 10
3.747492968132121
 20
2.216395736118824
 30
0.0
 10
3.749153872840735
 20
2.220038277057546
 30
0.0
 10
3.750000000000011
 20
2.223797434289598
 30
0.0
 10
3.750000000001029
 20
2.227533442266413
 30
0.0
  0
LINE
  5
D6
330
1F
100
AcDbEntity
  8
SK1
  6
Continuous
100
AcDbLine
 10
3.75
 20
2.7279801217
 30
0.0
 11
6.125
 21
2.041713337
 31
0.0
  0
SPLINE
  5
D7
330
1F
100
AcDbEntity
  8
SK1
  6
Continuous
100
AcDbSpline
210
0.0
220
0.0
230
1.0
 70
     8
 71
     3
 72
     8
 73
     4
 74
     0
 42
0.0000000532183615
 43
0.0000000001
 12
1.0
 22
0.0
 32
0.0
 13
1.0
 23
0.0
 33
0.0
 40
0.0
 40
0.0
 40
0.0
 40
0.0
 40
1.0
 40
1.0
 40
1.0
 40
1.0
 10
6.125
 20
2.041713337038392
 30
0.0
 10
6.201319494339906
 20
2.019653943166569
 30
0.0
 10
6.249999999999998
 20
1.977158575276666
 30
0.0
 10
6.249999999999998
 20
1.933316335510354
 30
0.0
  0
SPLINE
  5
D8
330
1F
100
AcDbEntity
  8
SK3
100
AcDbSpline
210
0.0
220
0.0
230
1.0
 70
     8
 71
     3
 72
    10
 73
     6
 74
     0
 42
0.0000000402580255
 43
0.0000000001
 12
1.0
 22
0.0
 32
0.0
 13
1.0
 23
0.0
 33
0.0
 40
0.0
 40
0.0
 40
0.0
 40
0.0
 40
0.5
 40
0.5
 40
1.0
 40
1.0
 40
1.0
 40
1.0
 10
6.049999999999994
 20
1.690631116260636
 30
0.0
 10
6.102931479258321
 20
1.690631116260633
 30
0.0
 10
6.154689214481538
 20
1.701549169753725
 30
0.0
 10
6.228432379767733
 20
1.738593933146875
 30
0.0
 10
6.25
 20
1.764761890625828
 30
0.0
 10
6.249999999999998
 20
1.790895837050234
 30
0.0
  0
LINE
  5
D9
330
1F
100
AcDbEntity
  8
SK3
100
AcDbLine
 10
-7.7401143294
 20
1.6906311163
 30
0.0
 11
-7.75
 21
1.6948558156
 31
0.0
  0
LINE
  5
DA
330
1F
100
AcDbEntity
  8
SK1
  6
Continuous
100
AcDbLine
 10
-11.75
 20
0.2250000998
 30
0.0
 11
-11.75
 21
3.0675058696
 31
0.0
  0
LINE
  5
DB
330
1F
100
AcDbEntity
  8
SK1
  6
Continuous
100
AcDbLine
 10
-11.5778346202
 20
0.2250000998
 30
0.0
 11
-11.5778346202
 21
3.2393305501
 31
0.0
  0
LINE
  5
DC
330
1F
100
AcDbEntity
  8
SK1
  6
Continuous
100
AcDbLine
 10
1.75
 20
0.2250000998
 30
0.0
 11
1.75
 21
2.6779424537
 31
0.0
  0
LINE
  5
DD
330
1F
100
AcDbEntity
  8
SK1
  6
Continuous
100
AcDbLine
 10
1.85
 20
0.2250000998
 30
0.0
 11
1.85
 21
2.1774784139
 31
0.0
  0
LINE
  5
DE
330
1F
100
AcDbEntity
  8
SK1
  6
Continuous
100
AcDbLine
 10
2.25
 20
0.2250000998
 30
0.0
 11
2.25
 21
-0.2249999002
 31
0.0
  0
LINE
  5
DF
330
1F
100
AcDbEntity
  8
SK1
  6
Continuous
100
AcDbLine
 10
2.25
 20
0.0000000998
 30
0.0
 11
2.234332167
 21
0.2250000998
 31
0.0
  0
LINE
  5
E0
330
1F
100
AcDbEntity
  8
SK1
  6
Continuous
100
AcDbLine
 10
2.234332167
 20
-0.2249999002
 30
0.0
 11
2.25
 21
0.0000000998
 31
0.0
  0
LINE
  5
E1
330
1F
100
AcDbEntity
  8
SK1
  6
Continuous
100
AcDbLine
 10
1.75
 20
0.2250000998
 30
0.0
 11
1.85
 21
0.2250000998
 31
0.0
  0
LINE
  5
E2
330
1F
100
AcDbEntity
  8
SK1
  6
Continuous
100
AcDbLine
 10
1.85
 20
0.2250000998
 30
0.0
 11
2.25
 21
0.2250000998
 31
0.0
  0
LINE
  5
E3
330
1F
100
AcDbEntity
  8
SK1
  6
Continuous
100
AcDbLine
 10
-11.75
 20
0.2250000998
 30
0.0
 11
-11.5778346202
 21
0.2250000998
 31
0.0
  0
LINE
  5
E4
330
1F
100
AcDbEntity
  8
SK1
  6
Continuous
100
AcDbLine
 10
-11.5778346202
 20
0.2250000998
 30
0.0
 11
1.75
 21
0.2250000998
 31
0.0
  0
LINE
  5
E5
330
1F
100
AcDbEntity
  8
SK1
  6
Continuous
100
AcDbLine
 10
1.75
 20
-0.2249999002
 30
0.0
 11
1.85
 21
-0.2249999002
 31
0.0
  0
LINE
  5
E6
330
1F
100
AcDbEntity
  8
SK1
  6
Continuous
100
AcDbLine
 10
1.85
 20
-0.2249999002
 30
0.0
 11
2.25
 21
-0.2249999002
 31
0.0
  0
LINE
  5
E7
330
1F
100
AcDbEntity
  8
SK1
  6
Continuous
100
AcDbLine
 10
-11.75
 20
-0.2249999002
 30
0.0
 11
-11.5778346202
 21
-0.2249999002
 31
0.0
  0
LINE
  5
E8
330
1F
100
AcDbEntity
  8
SK1
  6
Continuous
100
AcDbLine
 10
-11.5778346202
 20
-0.2249999002
 30
0.0
 11
1.75
 21
-0.2249999002
 31
0.0
  0
SPLINE
  5
E9
330
1F
100
AcDbEntity
  8
SK3
100
AcDbSpline
210
0.0
220
0.0
230
1.0
 70
     8
 71
     3
 72
    10
 73
     6
 74
     0
 42
0.0000000310063742
 43
0.0000000001
 12
1.0
 22
0.0
 32
0.0
 13
1.0
 23
0.0
 33
0.0
 40
0.0
 40
0.0
 40
0.0
 40
0.0
 40
0.5
 40
0.5
 40
1.0
 40
1.0
 40
1.0
 40
1.0
 10
6.049999999999994
 20
2.991550701047568
 30
0.0
 10
6.102931479258379
 20
2.991550701047568
 30
0.0
 10
6.154689214481652
 20
3.0133868080338
 30
0.0
 10
6.228432379767866
 20
3.08747633482024
 30
0.0
 10
6.250000000000089
 20
3.139812249778233
 30
0.0
 10
6.250000000002007
 20
3.192080142626997
 30
0.0
  0
LINE
  5
EA
330
1F
100
AcDbEntity
  8
SK1
  6
Continuous
100
AcDbLine
 10
-7.75
 20
4.4091249676
 30
0.0
 11
-7.75
 21
4.4148621701
 31
0.0
  0
LINE
  5
EB
330
1F
100
AcDbEntity
  8
SK3
100
AcDbLine
 10
-7.75
 20
3.0000000998
 30
0.0
 11
-7.75
 21
4.4091249676
 31
0.0
  0
ARC
  5
EC
330
1F
100
AcDbEntity
  8
SK3
100
AcDbCircle
 10
8.4980768093
 20
22.0000000998
 30
0.0
 40
25.0
100
AcDbArc
 50
229.4641978887
 51
229.4940021664
  0
SPLINE
  5
ED
330
1F
100
AcDbEntity
  8
SK1
  6
Continuous
100
AcDbSpline
210
0.0
220
0.0
230
1.0
 70
     8
 71
     3
 72
    11
 73
     7
 74
     0
 42
0.0000000010423673
 43
0.0000000001
 12
1.0
 22
0.0
 32
0.0
 13
1.0
 23
0.0
 33
0.0
 40
0.0
 40
0.0
 40
0.0
 40
0.0
 40
0.8079120727779506
 40
0.8079120727779506
 40
0.8079120727779506
 40
1.0
 40
1.0
 40
1.0
 40
1.0
 10
-7.749999999999986
 20
4.40912496758909
 30
0.0
 10
-5.19162677884325
 20
4.769148733732857
 30
0.0
 10
-2.63323836467075
 20
5.129064539338291
 30
0.0
 10
-0.0748422555455438
 20
5.488925623276585
 30
0.0
 10
0.5334380541119687
 20
5.574485639097014
 30
0.0
 10
1.141718825728871
 20
5.660042370712207
 30
0.0
 10
1.749999999999996
 20
5.745596239424094
 30
0.0
  0
ARC
  5
EE
330
1F
100
AcDbEntity
  8
SK1
  6
Continuous
100
AcDbCircle
 10
1.8500558282
 20
4.8447239872
 30
0.0
 40
0.1000558429362813
100
AcDbArc
 50
179.9689462458
 51
269.968030626
  0
LINE
  5
EF
330
1F
100
AcDbEntity
  8
SK1
  6
Continuous
100
AcDbLine
 10
1.85
 20
4.7446681598
 30
0.0
 11
3.65
 21
4.7446681598
 31
0.0
  0
ARC
  5
F0
330
1F
100
AcDbEntity
  8
SK1
  6
Continuous
100
AcDbCircle
 10
3.6499459361
 20
4.8447222248
 30
0.0
 40
0.1000540795527922
100
AcDbArc
 50
270.0309595836
 51
0.0320635453
  0
LINE
  5
F1
330
1F
100
AcDbEntity
  8
SK1
  6
Continuous
100
AcDbLine
 10
3.75
 20
5.8456715753
 30
0.0
 11
6.125
 21
4.473138006
 31
0.0
  0
ARC
  5
F2
330
1F
100
AcDbEntity
  8
SK1
  6
Continuous
100
AcDbCircle
 10
5.9966226128
 20
4.2546841161
 30
0.0
 40
0.2533828241692104
100
AcDbArc
 50
0.375341911
 51
59.5587987148
  0
LINE
  5
F3
330
1F
100
AcDbEntity
  8
SK3
100
AcDbLine
 10
6.05
 20
2.991550701
 30
0.0
 11
-7.7401143294
 21
2.991550701
 31
0.0
  0
LINE
  5
F4
330
1F
100
AcDbEntity
  8
SK3
100
AcDbLine
 10
-11.55
 20
-2.9999999002
 30
0.0
 11
-7.75
 21
-2.9999999002
 31
0.0
  0
LINE
  5
F5
330
1F
100
AcDbEntity
  8
SK3
100
AcDbLine
 10
-7.75
 20
3.0000000998
 30
0.0
 11
-11.55
 21
3.0000000998
 31
0.0
  0
ARC
  5
F6
330
1F
100
AcDbEntity
  8
SK3
100
AcDbCircle
 10
-11.55
 20
3.2000000998
 30
0.0
 40
0.2000000000000002
100
AcDbArc
 50
180.0
 51
270.0
  0
ARC
  5
F7
330
1F
100
AcDbEntity
  8
SK1
  6
Continuous
100
AcDbCircle
 10
-11.55
 20
3.6788414837
 30
0.0
 40
0.2000000000000001
100
AcDbArc
 50
98.0
 51
180.0
  0
LINE
  5
F8
330
1F
100
AcDbEntity
  8
SK1
  6
Continuous
100
AcDbLine
 10
-7.75
 20
4.4148621701
 30
0.0
 11
-11.5778346202
 21
3.8768950975
 31
0.0
  0
ARC
  5
F9
330
1F
100
AcDbEntity
  8
SK3
100
AcDbCircle
 10
-11.55
 20
-3.1999999002
 30
0.0
 40
0.2000000000000023
100
AcDbArc
 50
90.0
 51
180.0
  0
ARC
  5
FA
330
1F
100
AcDbEntity
  8
SK1
  6
Continuous
100
AcDbCircle
 10
-11.55
 20
-3.6788412842
 30
0.0
 40
0.1999999999999988
100
AcDbArc
 50
180.0
 51
262.0
  0
LINE
  5
FB
330
1F
100
AcDbEntity
  8
SK1
  6
Continuous
100
AcDbLine
 10
-11.5778346202
 20
-3.8768948979
 30
0.0
 11
-7.75
 21
-4.4148619706
 31
0.0
  0
LINE
  5
FC
330
1F
100
AcDbEntity
  8
SK1
  6
Continuous
100
AcDbLine
 10
0.0
 20
5.4994528329
 30
0.0
 11
0.0
 21
-5.4994526333
 31
0.0
  0
LINE
  5
FE
330
1F
100
AcDbEntity
  8
SK4
  6
Continuous
100
AcDbLine
 10
6.25
 20
0.0000000998
 30
0.0
 11
-11.75
 21
0.0000000998
 31
0.0
  0
DIMENSION
  5
113
330
1F
100
AcDbEntity
  8
SK2
  6
Continuous
 62
   136
100
AcDbDimension
  2
DMBLK67
 10
13.9727108508
 20
2.991550701
 30
0.0
 11
13.9727108508
 21
7.3292237765
 31
0.0
 70
   161
  1
\A1;ø <>
 71
     5
 42
-1.0
  3
DIN
100
AcDbAlignedDimension
 13
6.05
 23
2.991550701
 33
0.0
 14
6.05
 24
-2.9915505015
 34
0.0
  0
DIMENSION
  5
11E
330
1F
100
AcDbEntity
  8
SK2
  6
Continuous
 62
   136
100
AcDbDimension
  2
DMBLK68
 10
6.25
 20
-16.7963246829
 30
0.0
 11
10.6630688533
 21
-16.7963246829
 31
0.0
 70
   160
  1
\A1;<>
 71
     5
 42
-1.0
  3
DIN
100
AcDbAlignedDimension
 13
0.0
 23
-5.4994526333
 33
0.0
 14
6.25
 24
-4.2563438034
 34
0.0
100
AcDbRotatedDimension
  0
DIMENSION
  5
128
330
1F
100
AcDbEntity
  8
SK2
  6
Continuous
 62
   136
100
AcDbDimension
  2
DMBLK69
 10
-15.5328204855
 20
5.4994528329
 30
0.0
 11
-15.5328204855
 21
0.0000000147
 31
0.0
 70
   161
  1
\A1;ø <>
 71
     5
 42
-1.0
  3
DIN
100
AcDbAlignedDimension
 13
0.0
 23
5.4994528329
 33
0.0
 14
0.0
 24
-5.4994526333
 34
0.0
1001
ACAD
1000
DSTYLE
1002
{
1070
   271
1070
     2
1070
   272
1070
     2
1070
     0
1002
}
  0
DIMENSION
  5
133
330
1F
100
AcDbEntity
  8
SK2
  6
Continuous
 62
   136
100
AcDbDimension
  2
DMBLK70
 10
6.25
 20
10.9455157235
 30
0.0
 11
-2.7500003874
 21
10.9455157235
 31
0.0
 70
   160
  1
\A1;<>
 71
     5
 42
-1.0
  3
DIN
100
AcDbAlignedDimension
 13
-11.75
 23
0.2250000998
 33
0.0
 14
6.25
 24
3.2896858851
 34
0.0
100
AcDbRotatedDimension
1001
ACAD
1000
DSTYLE
1002
{
1070
   271
1070
     2
1070
   272
1070
     2
1070
     0
1002
}
  0
ENDSEC
  0
SECTION
  2
OBJECTS
  0
DICTIONARY
  5
C
330
0
100
AcDbDictionary
281
     1
  3
ACAD_GROUP
350
D
  3
ACAD_LAYOUT
350
1A
  3
ACAD_MATERIAL
350
3B
  3
ACAD_MLEADERSTYLE
350
13F
  3
ACAD_MLINESTYLE
350
17
  3
ACAD_PLOTSETTINGS
350
19
  3
ACAD_PLOTSTYLENAME
350
E
  3
ACAD_VISUALSTYLE
350
2A
  3
AcDbVariableDictionary
350
13D
  0
DICTIONARY
  5
D
102
{ACAD_REACTORS
330
C
102
}
330
C
100
AcDbDictionary
281
     1
  0
DICTIONARY
  5
1A
102
{ACAD_REACTORS
330
C
102
}
330
C
100
AcDbDictionary
281
     1
  3
Layout1
350
1E
  3
Model
350
22
  0
DICTIONARY
  5
3B
102
{ACAD_REACTORS
330
C
102
}
330
C
100
AcDbDictionary
281
     1
  3
ByBlock
350
3D
  3
ByLayer
350
3C
  3
Global
350
3E
  0
DICTIONARY
  5
13F
102
{ACAD_REACTORS
330
C
102
}
330
C
100
AcDbDictionary
281
     1
  0
DICTIONARY
  5
17
102
{ACAD_REACTORS
330
C
102
}
330
C
100
AcDbDictionary
281
     1
  3
Standard
350
18
  0
DICTIONARY
  5
19
102
{ACAD_REACTORS
330
C
102
}
330
C
100
AcDbDictionary
281
     1
  0
ACDBDICTIONARYWDFLT
  5
E
102
{ACAD_REACTORS
330
C
102
}
330
C
100
AcDbDictionary
281
     1
  3
Normal
350
F
100
AcDbDictionaryWithDefault
340
F
  0
DICTIONARY
  5
2A
102
{ACAD_REACTORS
330
C
102
}
330
C
100
AcDbDictionary
281
     1
  3
2dWireframe
350
2F
  3
3D Hidden
350
31
  3
3dWireframe
350
30
  3
Basic
350
32
  3
Brighten
350
36
  3
ColorChange
350
3A
  3
Conceptual
350
34
  3
Dim
350
35
  3
Facepattern
350
39
  3
Flat
350
2B
  3
FlatWithEdges
350
2C
  3
Gouraud
350
2D
  3
GouraudWithEdges
350
2E
  3
Linepattern
350
38
  3
Realistic
350
33
  3
Thicken
350
37
  0
DICTIONARY
  5
13D
102
{ACAD_REACTORS
330
C
102
}
330
C
100
AcDbDictionary
281
     1
  3
DIMASSOC
350
142
  3
HIDETEXT
350
143
  3
PSOLHEIGHT
350
141
  3
PSOLWIDTH
350
140
  0
LAYOUT
  5
1E
102
{ACAD_REACTORS
330
1A
102
}
330
1A
100
AcDbPlotSettings
  1

  2
none_device
  4

  6

 40
0.0
 41
0.0
 42
0.0
 43
0.0
 44
0.0
 45
0.0
 46
0.0
 47
0.0
 48
0.0
 49
0.0
140
0.0
141
0.0
142
1.0
143
1.0
 70
   688
 72
     0
 73
     0
 74
     5
  7

 75
    16
147
1.0
148
0.0
149
0.0
100
AcDbLayout
  1
Layout1
 70
     1
 71
     1
 10
0.0
 20
0.0
 11
210.0
 21
297.0
 12
0.0
 22
0.0
 32
0.0
 14
0.0
 24
0.0
 34
0.0
 15
210.0
 25
297.0
 35
0.0
146
0.0
 13
0.0
 23
0.0
 33
0.0
 16
1.0
 26
0.0
 36
0.0
 17
0.0
 27
1.0
 37
0.0
 76
     0
330
1B
  0
LAYOUT
  5
22
102
{ACAD_REACTORS
330
1A
102
}
330
1A
100
AcDbPlotSettings
  1

  2
none_device
  4

  6

 40
0.0
 41
0.0
 42
0.0
 43
0.0
 44
0.0
 45
0.0
 46
0.0
 47
0.0
 48
0.0
 49
0.0
140
0.0
141
0.0
142
1.0
143
1.0
 70
  1712
 72
     0
 73
     0
 74
     0
  7

 75
     0
147
1.0
148
0.0
149
0.0
100
AcDbLayout
  1
Model
 70
     1
 71
     0
 10
0.0
 20
0.0
 11
210.0
 21
297.0
 12
0.0
 22
0.0
 32
0.0
 14
0.0
 24
0.0
 34
0.0
 15
210.0
 25
297.0
 35
0.0
146
0.0
 13
0.0
 23
0.0
 33
0.0
 16
1.0
 26
0.0
 36
0.0
 17
0.0
 27
1.0
 37
0.0
 76
     0
330
1F
331
29
  0
MATERIAL
  5
3D
102
{ACAD_REACTORS
330
3B
102
}
102
{ACAD_XDICTIONARY
360
166
102
}
330
3B
100
AcDbMaterial
  1
ByBlock
  0
MATERIAL
  5
3C
102
{ACAD_REACTORS
330
3B
102
}
102
{ACAD_XDICTIONARY
360
164
102
}
330
3B
100
AcDbMaterial
  1
ByLayer
  0
MATERIAL
  5
3E
102
{ACAD_REACTORS
330
3B
102
}
102
{ACAD_XDICTIONARY
360
168
102
}
330
3B
100
AcDbMaterial
  1
Global
  0
MLINESTYLE
  5
18
102
{ACAD_REACTORS
330
17
102
}
330
17
100
AcDbMlineStyle
  2
Standard
 70
     0
  3

 62
   256
 51
90.0
 52
90.0
 71
     2
 49
0.5
 62
   256
  6
BYLAYER
 49
-0.5
 62
   256
  6
BYLAYER
  0
ACDBPLACEHOLDER
  5
F
102
{ACAD_REACTORS
330
E
102
}
330
E
  0
VISUALSTYLE
  5
2F
102
{ACAD_REACTORS
330
2A
102
}
102
{ACAD_XDICTIONARY
360
14C
102
}
330
2A
100
AcDbVisualStyle
  2
2dWireframe
 70
     4
 71
     0
 72
     2
 73
     0
 90
        0
 40
-0.6
 41
-30.0
 62
     5
 63
     7
 74
     1
 91
        4
 64
     7
 65
   257
 75
     1
175
     1
 42
1.0
 92
        0
 66
   257
 43
1.0
 76
     1
 77
     6
 78
     2
 67
     7
 79
     5
170
     0
171
     0
290
     0
174
     0
 93
        1
 44
0.0
173
     0
291
     0
 45
0.0
1001
ACAD
1000
AcDbSavedByObjectVersion
1070
     0
  0
VISUALSTYLE
  5
31
102
{ACAD_REACTORS
330
2A
102
}
102
{ACAD_XDICTIONARY
360
150
102
}
330
2A
100
AcDbVisualStyle
  2
3D Hidden
 70
     6
 71
     1
 72
     2
 73
     2
 90
        0
 40
-0.6
 41
-30.0
 62
     5
 63
     7
 74
     2
 91
        2
 64
     7
 65
   257
 75
     2
175
     1
 42
40.0
 92
        0
 66
   257
 43
1.0
 76
     1
 77
     6
 78
     2
 67
     7
 79
     3
170
     0
171
     0
290
     0
174
     0
 93
        1
 44
0.0
173
     0
291
     0
 45
0.0
1001
ACAD
1000
AcDbSavedByObjectVersion
1070
     0
  0
VISUALSTYLE
  5
30
102
{ACAD_REACTORS
330
2A
102
}
102
{ACAD_XDICTIONARY
360
14E
102
}
330
2A
100
AcDbVisualStyle
  2
3dWireframe
 70
     5
 71
     0
 72
     2
 73
     0
 90
        0
 40
-0.6
 41
-30.0
 62
     5
 63
     7
 74
     1
 91
        4
 64
     7
 65
   257
 75
     1
175
     1
 42
1.0
 92
        0
 66
   257
 43
1.0
 76
     1
 77
     6
 78
     2
 67
     7
 79
     5
170
     0
171
     0
290
     0
174
     0
 93
        1
 44
0.0
173
     0
291
     0
 45
0.0
1001
ACAD
1000
AcDbSavedByObjectVersion
1070
     0
  0
VISUALSTYLE
  5
32
102
{ACAD_REACTORS
330
2A
102
}
102
{ACAD_XDICTIONARY
360
152
102
}
330
2A
100
AcDbVisualStyle
  2
Basic
 70
     7
 71
     1
 72
     0
 73
     1
 90
        0
 40
-0.6
 41
-30.0
 62
     5
 63
     7
 74
     0
 91
        4
 64
     7
 65
   257
 75
     1
175
     1
 42
1.0
 92
        8
 66
     7
 43
1.0
 76
     1
 77
     6
 78
     2
 67
     7
 79
     5
170
     0
171
     0
290
     0
174
     0
 93
        1
 44
0.0
173
     0
291
     1
 45
0.0
1001
ACAD
1000
AcDbSavedByObjectVersion
1070
     0
  0
VISUALSTYLE
  5
36
102
{ACAD_REACTORS
330
2A
102
}
102
{ACAD_XDICTIONARY
360
15A
102
}
330
2A
100
AcDbVisualStyle
  2
Brighten
 70
    12
 71
     2
 72
     2
 73
     0
 90
        0
 40
-0.6
 41
-30.0
 62
     5
 63
     7
 74
     1
 91
        4
 64
     7
 65
   257
 75
     1
175
     1
 42
1.0
 92
        8
 66
     7
 43
1.0
 76
     1
 77
     6
 78
     2
 67
     7
 79
     5
170
     0
171
     0
290
     0
174
     0
 93
        1
 44
50.0
173
     0
291
     1
 45
0.0
1001
ACAD
1000
AcDbSavedByObjectVersion
1070
     0
  0
VISUALSTYLE
  5
3A
102
{ACAD_REACTORS
330
2A
102
}
102
{ACAD_XDICTIONARY
360
162
102
}
330
2A
100
AcDbVisualStyle
  2
ColorChange
 70
    16
 71
     2
 72
     2
 73
     3
 90
        0
 40
-0.6
 41
-30.0
 62
     5
 63
     8
 74
     1
 91
        4
 64
     7
 65
   257
 75
     1
175
     1
 42
1.0
 92
        8
 66
     8
 43
1.0
 76
     1
 77
     6
 78
     2
 67
     7
 79
     5
170
     0
171
     0
290
     0
174
     0
 93
        1
 44
0.0
173
     0
291
     1
 45
0.0
1001
ACAD
1000
AcDbSavedByObjectVersion
1070
     0
  0
VISUALSTYLE
  5
34
102
{ACAD_REACTORS
330
2A
102
}
102
{ACAD_XDICTIONARY
360
156
102
}
330
2A
100
AcDbVisualStyle
  2
Conceptual
 70
     9
 71
     3
 72
     2
 73
     0
 90
        0
 40
-0.6
 41
-30.0
 62
     5
 63
     7
 74
     2
 91
        2
 64
     7
 65
   257
 75
     1
175
     1
 42
40.0
 92
        8
 66
     7
 43
1.0
 76
     1
 77
     6
 78
     2
 67
     7
 79
     3
170
     0
171
     0
290
     0
174
     0
 93
        1
 44
0.0
173
     0
291
     0
 45
0.0
1001
ACAD
1000
AcDbSavedByObjectVersion
1070
     0
  0
VISUALSTYLE
  5
35
102
{ACAD_REACTORS
330
2A
102
}
102
{ACAD_XDICTIONARY
360
158
102
}
330
2A
100
AcDbVisualStyle
  2
Dim
 70
    11
 71
     2
 72
     2
 73
     0
 90
        0
 40
-0.6
 41
-30.0
 62
     5
 63
     7
 74
     1
 91
        4
 64
     7
 65
   257
 75
     1
175
     1
 42
1.0
 92
        8
 66
     7
 43
1.0
 76
     1
 77
     6
 78
     2
 67
     7
 79
     5
170
     0
171
     0
290
     0
174
     0
 93
        1
 44
-50.0
173
     0
291
     1
 45
0.0
1001
ACAD
1000
AcDbSavedByObjectVersion
1070
     0
  0
VISUALSTYLE
  5
39
102
{ACAD_REACTORS
330
2A
102
}
102
{ACAD_XDICTIONARY
360
160
102
}
330
2A
100
AcDbVisualStyle
  2
Facepattern
 70
    15
 71
     2
 72
     2
 73
     0
 90
        0
 40
-0.6
 41
-30.0
 62
     5
 63
     7
 74
     1
 91
        4
 64
     7
 65
   257
 75
     1
175
     1
 42
1.0
 92
        8
 66
     7
 43
1.0
 76
     1
 77
     6
 78
     2
 67
     7
 79
     5
170
     0
171
     0
290
     0
174
     0
 93
        1
 44
0.0
173
     0
291
     1
 45
0.0
1001
ACAD
1000
AcDbSavedByObjectVersion
1070
     0
  0
VISUALSTYLE
  5
2B
102
{ACAD_REACTORS
330
2A
102
}
102
{ACAD_XDICTIONARY
360
144
102
}
330
2A
100
AcDbVisualStyle
  2
Flat
 70
     0
 71
     2
 72
     1
 73
     1
 90
        2
 40
-0.6
 41
30.0
 62
     5
 63
     7
 74
     0
 91
        4
 64
     7
 65
   257
 75
     1
175
     1
 42
1.0
 92
        8
 66
     7
 43
1.0
 76
     1
 77
     6
 78
     2
 67
     7
 79
     5
170
     0
171
     0
290
     0
174
     0
 93
       13
 44
0.0
173
     0
291
     1
 45
0.0
1001
ACAD
1000
AcDbSavedByObjectVersion
1070
     0
  0
VISUALSTYLE
  5
2C
102
{ACAD_REACTORS
330
2A
102
}
102
{ACAD_XDICTIONARY
360
146
102
}
330
2A
100
AcDbVisualStyle
  2
FlatWithEdges
 70
     1
 71
     2
 72
     1
 73
     1
 90
        2
 40
-0.6
 41
30.0
 62
     5
 63
     7
 74
     1
 91
        4
 64
     7
 65
   257
 75
     1
175
     1
 42
1.0
 92
        0
 66
   257
 43
1.0
 76
     1
 77
     6
 78
     2
 67
     7
 79
     5
170
     0
171
     0
290
     0
174
     0
 93
       13
 44
0.0
173
     0
291
     1
 45
0.0
1001
ACAD
1000
AcDbSavedByObjectVersion
1070
     0
  0
VISUALSTYLE
  5
2D
102
{ACAD_REACTORS
330
2A
102
}
102
{ACAD_XDICTIONARY
360
148
102
}
330
2A
100
AcDbVisualStyle
  2
Gouraud
 70
     2
 71
     2
 72
     2
 73
     1
 90
        2
 40
-0.6
 41
30.0
 62
     5
 63
     7
 74
     0
 91
        4
 64
     7
 65
   257
 75
     1
175
     1
 42
1.0
 92
        0
 66
     7
 43
1.0
 76
     1
 77
     6
 78
     2
 67
     7
 79
     5
170
     0
171
     0
290
     0
174
     0
 93
       13
 44
0.0
173
     0
291
     1
 45
0.0
1001
ACAD
1000
AcDbSavedByObjectVersion
1070
     0
  0
VISUALSTYLE
  5
2E
102
{ACAD_REACTORS
330
2A
102
}
102
{ACAD_XDICTIONARY
360
14A
102
}
330
2A
100
AcDbVisualStyle
  2
GouraudWithEdges
 70
     3
 71
     2
 72
     2
 73
     1
 90
        2
 40
-0.6
 41
30.0
 62
     5
 63
     7
 74
     1
 91
        4
 64
     7
 65
   257
 75
     1
175
     1
 42
1.0
 92
        0
 66
   257
 43
1.0
 76
     1
 77
     6
 78
     2
 67
     7
 79
     5
170
     0
171
     0
290
     0
174
     0
 93
       13
 44
0.0
173
     0
291
     1
 45
0.0
1001
ACAD
1000
AcDbSavedByObjectVersion
1070
     0
  0
VISUALSTYLE
  5
38
102
{ACAD_REACTORS
330
2A
102
}
102
{ACAD_XDICTIONARY
360
15E
102
}
330
2A
100
AcDbVisualStyle
  2
Linepattern
 70
    14
 71
     2
 72
     2
 73
     0
 90
        0
 40
-0.6
 41
-30.0
 62
     5
 63
     7
 74
     1
 91
        4
 64
     7
 65
   257
 75
     7
175
     7
 42
1.0
 92
        8
 66
     7
 43
1.0
 76
     1
 77
     6
 78
     2
 67
     7
 79
     5
170
     0
171
     0
290
     0
174
     0
 93
        1
 44
0.0
173
     0
291
     1
 45
0.0
1001
ACAD
1000
AcDbSavedByObjectVersion
1070
     0
  0
VISUALSTYLE
  5
33
102
{ACAD_REACTORS
330
2A
102
}
102
{ACAD_XDICTIONARY
360
154
102
}
330
2A
100
AcDbVisualStyle
  2
Realistic
 70
     8
 71
     2
 72
     2
 73
     0
 90
        0
 40
-0.6
 41
-30.0
 62
     5
 63
     7
 74
     1
 91
        0
 64
     7
 65
   257
 75
     1
175
     1
 42
1.0
 92
        8
 66
     8
 43
1.0
 76
     1
 77
     6
 78
     2
 67
     7
 79
     5
170
     0
171
     0
290
     0
174
     0
 93
       13
 44
0.0
173
     0
291
     0
 45
0.0
1001
ACAD
1000
AcDbSavedByObjectVersion
1070
     0
  0
VISUALSTYLE
  5
37
102
{ACAD_REACTORS
330
2A
102
}
102
{ACAD_XDICTIONARY
360
15C
102
}
330
2A
100
AcDbVisualStyle
  2
Thicken
 70
    13
 71
     2
 72
     2
 73
     0
 90
        0
 40
-0.6
 41
-30.0
 62
     5
 63
     7
 74
     1
 91
        4
 64
     7
 65
   257
 75
     1
175
     1
 42
1.0
 92
       12
 66
     7
 43
1.0
 76
     1
 77
     6
 78
     2
 67
     7
 79
     5
170
     0
171
     0
290
     0
174
     0
 93
        1
 44
0.0
173
     0
291
     1
 45
0.0
1001
ACAD
1000
AcDbSavedByObjectVersion
1070
     0
  0
DICTIONARYVAR
  5
142
102
{ACAD_REACTORS
330
13D
102
}
330
13D
100
DictionaryVariables
280
     0
  1
2
  0
DICTIONARYVAR
  5
143
102
{ACAD_REACTORS
330
13D
102
}
330
13D
100
DictionaryVariables
280
     0
  1
1
  0
DICTIONARYVAR
  5
141
102
{ACAD_REACTORS
330
13D
102
}
330
13D
100
DictionaryVariables
280
     0
  1
80.000000
  0
DICTIONARYVAR
  5
140
102
{ACAD_REACTORS
330
13D
102
}
330
13D
100
DictionaryVariables
280
     0
  1
5.000000
  0
DICTIONARY
  5
166
330
3D
100
AcDbDictionary
280
     1
281
     1
  3
ACAD_XREC_ROUNDTRIP
360
167
  0
DICTIONARY
  5
164
330
3C
100
AcDbDictionary
280
     1
281
     1
  3
ACAD_XREC_ROUNDTRIP
360
165
  0
DICTIONARY
  5
168
330
3E
100
AcDbDictionary
280
     1
281
     1
  3
ACAD_XREC_ROUNDTRIP
360
169
  0
DICTIONARY
  5
14C
330
2F
100
AcDbDictionary
280
     1
281
     1
  3
ACAD_XREC_ROUNDTRIP
360
14D
  0
DICTIONARY
  5
150
330
31
100
AcDbDictionary
280
     1
281
     1
  3
ACAD_XREC_ROUNDTRIP
360
151
  0
DICTIONARY
  5
14E
330
30
100
AcDbDictionary
280
     1
281
     1
  3
ACAD_XREC_ROUNDTRIP
360
14F
  0
DICTIONARY
  5
152
330
32
100
AcDbDictionary
280
     1
281
     1
  3
ACAD_XREC_ROUNDTRIP
360
153
  0
DICTIONARY
  5
15A
330
36
100
AcDbDictionary
280
     1
281
     1
  3
ACAD_XREC_ROUNDTRIP
360
15B
  0
DICTIONARY
  5
162
330
3A
100
AcDbDictionary
280
     1
281
     1
  3
ACAD_XREC_ROUNDTRIP
360
163
  0
DICTIONARY
  5
156
330
34
100
AcDbDictionary
280
     1
281
     1
  3
ACAD_XREC_ROUNDTRIP
360
157
  0
DICTIONARY
  5
158
330
35
100
AcDbDictionary
280
     1
281
     1
  3
ACAD_XREC_ROUNDTRIP
360
159
  0
DICTIONARY
  5
160
330
39
100
AcDbDictionary
280
     1
281
     1
  3
ACAD_XREC_ROUNDTRIP
360
161
  0
DICTIONARY
  5
144
330
2B
100
AcDbDictionary
280
     1
281
     1
  3
ACAD_XREC_ROUNDTRIP
360
145
  0
DICTIONARY
  5
146
330
2C
100
AcDbDictionary
280
     1
281
     1
  3
ACAD_XREC_ROUNDTRIP
360
147
  0
DICTIONARY
  5
148
330
2D
100
AcDbDictionary
280
     1
281
     1
  3
ACAD_XREC_ROUNDTRIP
360
149
  0
DICTIONARY
  5
14A
330
2E
100
AcDbDictionary
280
     1
281
     1
  3
ACAD_XREC_ROUNDTRIP
360
14B
  0
DICTIONARY
  5
15E
330
38
100
AcDbDictionary
280
     1
281
     1
  3
ACAD_XREC_ROUNDTRIP
360
15F
  0
DICTIONARY
  5
154
330
33
100
AcDbDictionary
280
     1
281
     1
  3
ACAD_XREC_ROUNDTRIP
360
155
  0
DICTIONARY
  5
15C
330
37
100
AcDbDictionary
280
     1
281
     1
  3
ACAD_XREC_ROUNDTRIP
360
15D
  0
XRECORD
  5
167
102
{ACAD_REACTORS
330
166
102
}
330
166
100
AcDbXrecord
280
     1
102
MATERIAL
148
0.0
149
0.0
149
0.0
 93
        0
 94
      127
282
     0
 72
     1
 77
     1
171
     1
175
     1
179
     1
273
     0
  0
XRECORD
  5
165
102
{ACAD_REACTORS
330
164
102
}
330
164
100
AcDbXrecord
280
     1
102
MATERIAL
148
0.0
149
0.0
149
0.0
 93
        0
 94
      127
282
     0
 72
     1
 77
     1
171
     1
175
     1
179
     1
273
     0
  0
XRECORD
  5
169
102
{ACAD_REACTORS
330
168
102
}
330
168
100
AcDbXrecord
280
     1
102
MATERIAL
148
0.0
149
0.0
149
0.0
 93
        0
 94
      127
282
     0
 72
     1
 77
     1
171
     1
175
     1
179
     1
273
     0
  0
XRECORD
  5
14D
102
{ACAD_REACTORS
330
14C
102
}
330
14C
100
AcDbXrecord
280
     1
102
RTVSPropertyOp0
 70
     1
102
RTVSPropertyOp1
 70
     1
102
RTVSPropertyOp2
 70
     1
102
RTVSPropertyOp3
 70
     1
102
RTVSPropertyOp4
 70
     1
102
RTVSPropertyOp5
 70
     1
102
RTVSPropertyOp6
 70
     1
102
RTVSPropertyOp7
 70
     1
102
RTVSPropertyOp8
 70
     1
102
RTVSPropertyOp9
 70
     1
102
RTVSPropertyOp10
 70
     1
102
RTVSPropertyOp11
 70
     1
102
RTVSPropertyOp12
 70
     1
102
RTVSPropertyOp13
 70
     1
102
RTVSPropertyOp14
 70
     1
102
RTVSPropertyOp15
 70
     1
102
RTVSPropertyOp16
 70
     1
102
RTVSPropertyOp17
 70
     1
102
RTVSPropertyOp18
 70
     1
102
RTVSPropertyOp19
 70
     1
102
RTVSPropertyOp20
 70
     1
102
RTVSPropertyOp21
 70
     1
102
RTVSPropertyOp22
 70
     1
102
RTVSPropertyOp23
 70
     1
102
RTVSPropertyOp24
 70
     1
102
RTVSPropertyOp25
 70
     1
102
RTVSPropertyOp26
 70
     1
102
RTVSPropertyOp27
 70
     1
102
RTVSPropertyOp28
 70
     1
102
RTVSPropertyOp29
 70
     1
102
RTVSPropertyOp30
 70
     1
102
RTVSPropertyOp31
 70
     1
102
RTVSPropertyOp32
 70
     1
  0
XRECORD
  5
151
102
{ACAD_REACTORS
330
150
102
}
330
150
100
AcDbXrecord
280
     1
102
RTVSPropertyOp0
 70
     1
102
RTVSPropertyOp1
 70
     1
102
RTVSPropertyOp2
 70
     1
102
RTVSPropertyOp3
 70
     1
102
RTVSPropertyOp4
 70
     1
102
RTVSPropertyOp5
 70
     1
102
RTVSPropertyOp6
 70
     1
102
RTVSPropertyOp7
 70
     1
102
RTVSPropertyOp8
 70
     1
102
RTVSPropertyOp9
 70
     1
102
RTVSPropertyOp10
 70
     1
102
RTVSPropertyOp11
 70
     1
102
RTVSPropertyOp12
 70
     1
102
RTVSPropertyOp13
 70
     1
102
RTVSPropertyOp14
 70
     1
102
RTVSPropertyOp15
 70
     1
102
RTVSPropertyOp16
 70
     1
102
RTVSPropertyOp17
 70
     1
102
RTVSPropertyOp18
 70
     1
102
RTVSPropertyOp19
 70
     1
102
RTVSPropertyOp20
 70
     1
102
RTVSPropertyOp21
 70
     1
102
RTVSPropertyOp22
 70
     1
102
RTVSPropertyOp23
 70
     1
102
RTVSPropertyOp24
 70
     1
102
RTVSPropertyOp25
 70
     1
102
RTVSPropertyOp26
 70
     1
102
RTVSPropertyOp27
 70
     1
102
RTVSPropertyOp28
 70
     1
102
RTVSPropertyOp29
 70
     1
102
RTVSPropertyOp30
 70
     1
102
RTVSPropertyOp31
 70
     1
102
RTVSPropertyOp32
 70
     1
  0
XRECORD
  5
14F
102
{ACAD_REACTORS
330
14E
102
}
330
14E
100
AcDbXrecord
280
     1
102
RTVSPropertyOp0
 70
     1
102
RTVSPropertyOp1
 70
     1
102
RTVSPropertyOp2
 70
     1
102
RTVSPropertyOp3
 70
     1
102
RTVSPropertyOp4
 70
     1
102
RTVSPropertyOp5
 70
     1
102
RTVSPropertyOp6
 70
     1
102
RTVSPropertyOp7
 70
     1
102
RTVSPropertyOp8
 70
     1
102
RTVSPropertyOp9
 70
     1
102
RTVSPropertyOp10
 70
     1
102
RTVSPropertyOp11
 70
     1
102
RTVSPropertyOp12
 70
     1
102
RTVSPropertyOp13
 70
     1
102
RTVSPropertyOp14
 70
     1
102
RTVSPropertyOp15
 70
     1
102
RTVSPropertyOp16
 70
     1
102
RTVSPropertyOp17
 70
     1
102
RTVSPropertyOp18
 70
     1
102
RTVSPropertyOp19
 70
     1
102
RTVSPropertyOp20
 70
     1
102
RTVSPropertyOp21
 70
     1
102
RTVSPropertyOp22
 70
     1
102
RTVSPropertyOp23
 70
     1
102
RTVSPropertyOp24
 70
     1
102
RTVSPropertyOp25
 70
     1
102
RTVSPropertyOp26
 70
     1
102
RTVSPropertyOp27
 70
     1
102
RTVSPropertyOp28
 70
     1
102
RTVSPropertyOp29
 70
     1
102
RTVSPropertyOp30
 70
     1
102
RTVSPropertyOp31
 70
     1
102
RTVSPropertyOp32
 70
     1
  0
XRECORD
  5
153
102
{ACAD_REACTORS
330
152
102
}
330
152
100
AcDbXrecord
280
     1
102
RTVSPropertyOp0
 70
     1
102
RTVSPropertyOp1
 70
     1
102
RTVSPropertyOp2
 70
     1
102
RTVSPropertyOp3
 70
     1
102
RTVSPropertyOp4
 70
     1
102
RTVSPropertyOp5
 70
     1
102
RTVSPropertyOp6
 70
     1
102
RTVSPropertyOp7
 70
     1
102
RTVSPropertyOp8
 70
     1
102
RTVSPropertyOp9
 70
     1
102
RTVSPropertyOp10
 70
     1
102
RTVSPropertyOp11
 70
     1
102
RTVSPropertyOp12
 70
     1
102
RTVSPropertyOp13
 70
     1
102
RTVSPropertyOp14
 70
     1
102
RTVSPropertyOp15
 70
     1
102
RTVSPropertyOp16
 70
     1
102
RTVSPropertyOp17
 70
     1
102
RTVSPropertyOp18
 70
     1
102
RTVSPropertyOp19
 70
     1
102
RTVSPropertyOp20
 70
     1
102
RTVSPropertyOp21
 70
     1
102
RTVSPropertyOp22
 70
     1
102
RTVSPropertyOp23
 70
     1
102
RTVSPropertyOp24
 70
     1
102
RTVSPropertyOp25
 70
     1
102
RTVSPropertyOp26
 70
     1
102
RTVSPropertyOp27
 70
     1
102
RTVSPropertyOp28
 70
     1
102
RTVSPropertyOp29
 70
     1
102
RTVSPropertyOp30
 70
     1
102
RTVSPropertyOp31
 70
     1
102
RTVSPropertyOp32
 70
     1
  0
XRECORD
  5
15B
102
{ACAD_REACTORS
330
15A
102
}
330
15A
100
AcDbXrecord
280
     1
102
RTVSPropertyOp0
 70
     1
102
RTVSPropertyOp1
 70
     1
102
RTVSPropertyOp2
 70
     1
102
RTVSPropertyOp3
 70
     1
102
RTVSPropertyOp4
 70
     1
102
RTVSPropertyOp5
 70
     1
102
RTVSPropertyOp6
 70
     1
102
RTVSPropertyOp7
 70
     1
102
RTVSPropertyOp8
 70
     1
102
RTVSPropertyOp9
 70
     1
102
RTVSPropertyOp10
 70
     1
102
RTVSPropertyOp11
 70
     1
102
RTVSPropertyOp12
 70
     1
102
RTVSPropertyOp13
 70
     1
102
RTVSPropertyOp14
 70
     1
102
RTVSPropertyOp15
 70
     1
102
RTVSPropertyOp16
 70
     1
102
RTVSPropertyOp17
 70
     1
102
RTVSPropertyOp18
 70
     1
102
RTVSPropertyOp19
 70
     1
102
RTVSPropertyOp20
 70
     1
102
RTVSPropertyOp21
 70
     1
102
RTVSPropertyOp22
 70
     1
102
RTVSPropertyOp23
 70
     1
102
RTVSPropertyOp24
 70
     1
102
RTVSPropertyOp25
 70
     1
102
RTVSPropertyOp26
 70
     1
102
RTVSPropertyOp27
 70
     1
102
RTVSPropertyOp28
 70
     1
102
RTVSPropertyOp29
 70
     1
102
RTVSPropertyOp30
 70
     1
102
RTVSPropertyOp31
 70
     1
102
RTVSPropertyOp32
 70
     1
  0
XRECORD
  5
163
102
{ACAD_REACTORS
330
162
102
}
330
162
100
AcDbXrecord
280
     1
102
RTVSPropertyOp0
 70
     1
102
RTVSPropertyOp1
 70
     1
102
RTVSPropertyOp2
 70
     1
102
RTVSPropertyOp3
 70
     1
102
RTVSPropertyOp4
 70
     1
102
RTVSPropertyOp5
 70
     1
102
RTVSPropertyOp6
 70
     1
102
RTVSPropertyOp7
 70
     1
102
RTVSPropertyOp8
 70
     1
102
RTVSPropertyOp9
 70
     1
102
RTVSPropertyOp10
 70
     1
102
RTVSPropertyOp11
 70
     1
102
RTVSPropertyOp12
 70
     1
102
RTVSPropertyOp13
 70
     1
102
RTVSPropertyOp14
 70
     1
102
RTVSPropertyOp15
 70
     1
102
RTVSPropertyOp16
 70
     1
102
RTVSPropertyOp17
 70
     1
102
RTVSPropertyOp18
 70
     1
102
RTVSPropertyOp19
 70
     1
102
RTVSPropertyOp20
 70
     1
102
RTVSPropertyOp21
 70
     1
102
RTVSPropertyOp22
 70
     1
102
RTVSPropertyOp23
 70
     1
102
RTVSPropertyOp24
 70
     1
102
RTVSPropertyOp25
 70
     1
102
RTVSPropertyOp26
 70
     1
102
RTVSPropertyOp27
 70
     1
102
RTVSPropertyOp28
 70
     1
102
RTVSPropertyOp29
 70
     1
102
RTVSPropertyOp30
 70
     1
102
RTVSPropertyOp31
 70
     1
102
RTVSPropertyOp32
 70
     1
  0
XRECORD
  5
157
102
{ACAD_REACTORS
330
156
102
}
330
156
100
AcDbXrecord
280
     1
102
RTVSPropertyOp0
 70
     1
102
RTVSPropertyOp1
 70
     1
102
RTVSPropertyOp2
 70
     1
102
RTVSPropertyOp3
 70
     1
102
RTVSPropertyOp4
 70
     1
102
RTVSPropertyOp5
 70
     1
102
RTVSPropertyOp6
 70
     1
102
RTVSPropertyOp7
 70
     1
102
RTVSPropertyOp8
 70
     1
102
RTVSPropertyOp9
 70
     1
102
RTVSPropertyOp10
 70
     1
102
RTVSPropertyOp11
 70
     1
102
RTVSPropertyOp12
 70
     1
102
RTVSPropertyOp13
 70
     1
102
RTVSPropertyOp14
 70
     1
102
RTVSPropertyOp15
 70
     1
102
RTVSPropertyOp16
 70
     1
102
RTVSPropertyOp17
 70
     1
102
RTVSPropertyOp18
 70
     1
102
RTVSPropertyOp19
 70
     1
102
RTVSPropertyOp20
 70
     1
102
RTVSPropertyOp21
 70
     1
102
RTVSPropertyOp22
 70
     1
102
RTVSPropertyOp23
 70
     1
102
RTVSPropertyOp24
 70
     1
102
RTVSPropertyOp25
 70
     1
102
RTVSPropertyOp26
 70
     1
102
RTVSPropertyOp27
 70
     1
102
RTVSPropertyOp28
 70
     1
102
RTVSPropertyOp29
 70
     1
102
RTVSPropertyOp30
 70
     1
102
RTVSPropertyOp31
 70
     1
102
RTVSPropertyOp32
 70
     1
  0
XRECORD
  5
159
102
{ACAD_REACTORS
330
158
102
}
330
158
100
AcDbXrecord
280
     1
102
RTVSPropertyOp0
 70
     1
102
RTVSPropertyOp1
 70
     1
102
RTVSPropertyOp2
 70
     1
102
RTVSPropertyOp3
 70
     1
102
RTVSPropertyOp4
 70
     1
102
RTVSPropertyOp5
 70
     1
102
RTVSPropertyOp6
 70
     1
102
RTVSPropertyOp7
 70
     1
102
RTVSPropertyOp8
 70
     1
102
RTVSPropertyOp9
 70
     1
102
RTVSPropertyOp10
 70
     1
102
RTVSPropertyOp11
 70
     1
102
RTVSPropertyOp12
 70
     1
102
RTVSPropertyOp13
 70
     1
102
RTVSPropertyOp14
 70
     1
102
RTVSPropertyOp15
 70
     1
102
RTVSPropertyOp16
 70
     1
102
RTVSPropertyOp17
 70
     1
102
RTVSPropertyOp18
 70
     1
102
RTVSPropertyOp19
 70
     1
102
RTVSPropertyOp20
 70
     1
102
RTVSPropertyOp21
 70
     1
102
RTVSPropertyOp22
 70
     1
102
RTVSPropertyOp23
 70
     1
102
RTVSPropertyOp24
 70
     1
102
RTVSPropertyOp25
 70
     1
102
RTVSPropertyOp26
 70
     1
102
RTVSPropertyOp27
 70
     1
102
RTVSPropertyOp28
 70
     1
102
RTVSPropertyOp29
 70
     1
102
RTVSPropertyOp30
 70
     1
102
RTVSPropertyOp31
 70
     1
102
RTVSPropertyOp32
 70
     1
  0
XRECORD
  5
161
102
{ACAD_REACTORS
330
160
102
}
330
160
100
AcDbXrecord
280
     1
102
RTVSPropertyOp0
 70
     1
102
RTVSPropertyOp1
 70
     1
102
RTVSPropertyOp2
 70
     1
102
RTVSPropertyOp3
 70
     1
102
RTVSPropertyOp4
 70
     1
102
RTVSPropertyOp5
 70
     1
102
RTVSPropertyOp6
 70
     1
102
RTVSPropertyOp7
 70
     1
102
RTVSPropertyOp8
 70
     1
102
RTVSPropertyOp9
 70
     1
102
RTVSPropertyOp10
 70
     1
102
RTVSPropertyOp11
 70
     1
102
RTVSPropertyOp12
 70
     1
102
RTVSPropertyOp13
 70
     1
102
RTVSPropertyOp14
 70
     1
102
RTVSPropertyOp15
 70
     1
102
RTVSPropertyOp16
 70
     1
102
RTVSPropertyOp17
 70
     1
102
RTVSPropertyOp18
 70
     1
102
RTVSPropertyOp19
 70
     1
102
RTVSPropertyOp20
 70
     1
102
RTVSPropertyOp21
 70
     1
102
RTVSPropertyOp22
 70
     1
102
RTVSPropertyOp23
 70
     1
102
RTVSPropertyOp24
 70
     1
102
RTVSPropertyOp25
 70
     1
102
RTVSPropertyOp26
 70
     1
102
RTVSPropertyOp27
 70
     1
102
RTVSPropertyOp28
 70
     1
102
RTVSPropertyOp29
 70
     1
102
RTVSPropertyOp30
 70
     1
102
RTVSPropertyOp31
 70
     1
102
RTVSPropertyOp32
 70
     1
  0
XRECORD
  5
145
102
{ACAD_REACTORS
330
144
102
}
330
144
100
AcDbXrecord
280
     1
102
RTVSPropertyOp0
 70
     1
102
RTVSPropertyOp1
 70
     1
102
RTVSPropertyOp2
 70
     1
102
RTVSPropertyOp3
 70
     1
102
RTVSPropertyOp4
 70
     1
102
RTVSPropertyOp5
 70
     1
102
RTVSPropertyOp6
 70
     1
102
RTVSPropertyOp7
 70
     1
102
RTVSPropertyOp8
 70
     1
102
RTVSPropertyOp9
 70
     1
102
RTVSPropertyOp10
 70
     1
102
RTVSPropertyOp11
 70
     1
102
RTVSPropertyOp12
 70
     1
102
RTVSPropertyOp13
 70
     1
102
RTVSPropertyOp14
 70
     1
102
RTVSPropertyOp15
 70
     1
102
RTVSPropertyOp16
 70
     1
102
RTVSPropertyOp17
 70
     1
102
RTVSPropertyOp18
 70
     1
102
RTVSPropertyOp19
 70
     1
102
RTVSPropertyOp20
 70
     1
102
RTVSPropertyOp21
 70
     1
102
RTVSPropertyOp22
 70
     1
102
RTVSPropertyOp23
 70
     1
102
RTVSPropertyOp24
 70
     1
102
RTVSPropertyOp25
 70
     1
102
RTVSPropertyOp26
 70
     1
102
RTVSPropertyOp27
 70
     1
102
RTVSPropertyOp28
 70
     1
102
RTVSPropertyOp29
 70
     1
102
RTVSPropertyOp30
 70
     1
102
RTVSPropertyOp31
 70
     1
102
RTVSPropertyOp32
 70
     1
  0
XRECORD
  5
147
102
{ACAD_REACTORS
330
146
102
}
330
146
100
AcDbXrecord
280
     1
102
RTVSPropertyOp0
 70
     1
102
RTVSPropertyOp1
 70
     1
102
RTVSPropertyOp2
 70
     1
102
RTVSPropertyOp3
 70
     1
102
RTVSPropertyOp4
 70
     1
102
RTVSPropertyOp5
 70
     1
102
RTVSPropertyOp6
 70
     1
102
RTVSPropertyOp7
 70
     1
102
RTVSPropertyOp8
 70
     1
102
RTVSPropertyOp9
 70
     1
102
RTVSPropertyOp10
 70
     1
102
RTVSPropertyOp11
 70
     1
102
RTVSPropertyOp12
 70
     1
102
RTVSPropertyOp13
 70
     1
102
RTVSPropertyOp14
 70
     1
102
RTVSPropertyOp15
 70
     1
102
RTVSPropertyOp16
 70
     1
102
RTVSPropertyOp17
 70
     1
102
RTVSPropertyOp18
 70
     1
102
RTVSPropertyOp19
 70
     1
102
RTVSPropertyOp20
 70
     1
102
RTVSPropertyOp21
 70
     1
102
RTVSPropertyOp22
 70
     1
102
RTVSPropertyOp23
 70
     1
102
RTVSPropertyOp24
 70
     1
102
RTVSPropertyOp25
 70
     1
102
RTVSPropertyOp26
 70
     1
102
RTVSPropertyOp27
 70
     1
102
RTVSPropertyOp28
 70
     1
102
RTVSPropertyOp29
 70
     1
102
RTVSPropertyOp30
 70
     1
102
RTVSPropertyOp31
 70
     1
102
RTVSPropertyOp32
 70
     1
  0
XRECORD
  5
149
102
{ACAD_REACTORS
330
148
102
}
330
148
100
AcDbXrecord
280
     1
102
RTVSPropertyOp0
 70
     1
102
RTVSPropertyOp1
 70
     1
102
RTVSPropertyOp2
 70
     1
102
RTVSPropertyOp3
 70
     1
102
RTVSPropertyOp4
 70
     1
102
RTVSPropertyOp5
 70
     1
102
RTVSPropertyOp6
 70
     1
102
RTVSPropertyOp7
 70
     1
102
RTVSPropertyOp8
 70
     1
102
RTVSPropertyOp9
 70
     1
102
RTVSPropertyOp10
 70
     1
102
RTVSPropertyOp11
 70
     1
102
RTVSPropertyOp12
 70
     1
102
RTVSPropertyOp13
 70
     1
102
RTVSPropertyOp14
 70
     1
102
RTVSPropertyOp15
 70
     1
102
RTVSPropertyOp16
 70
     1
102
RTVSPropertyOp17
 70
     1
102
RTVSPropertyOp18
 70
     1
102
RTVSPropertyOp19
 70
     1
102
RTVSPropertyOp20
 70
     1
102
RTVSPropertyOp21
 70
     1
102
RTVSPropertyOp22
 70
     1
102
RTVSPropertyOp23
 70
     1
102
RTVSPropertyOp24
 70
     1
102
RTVSPropertyOp25
 70
     1
102
RTVSPropertyOp26
 70
     1
102
RTVSPropertyOp27
 70
     1
102
RTVSPropertyOp28
 70
     1
102
RTVSPropertyOp29
 70
     1
102
RTVSPropertyOp30
 70
     1
102
RTVSPropertyOp31
 70
     1
102
RTVSPropertyOp32
 70
     1
  0
XRECORD
  5
14B
102
{ACAD_REACTORS
330
14A
102
}
330
14A
100
AcDbXrecord
280
     1
102
RTVSPropertyOp0
 70
     1
102
RTVSPropertyOp1
 70
     1
102
RTVSPropertyOp2
 70
     1
102
RTVSPropertyOp3
 70
     1
102
RTVSPropertyOp4
 70
     1
102
RTVSPropertyOp5
 70
     1
102
RTVSPropertyOp6
 70
     1
102
RTVSPropertyOp7
 70
     1
102
RTVSPropertyOp8
 70
     1
102
RTVSPropertyOp9
 70
     1
102
RTVSPropertyOp10
 70
     1
102
RTVSPropertyOp11
 70
     1
102
RTVSPropertyOp12
 70
     1
102
RTVSPropertyOp13
 70
     1
102
RTVSPropertyOp14
 70
     1
102
RTVSPropertyOp15
 70
     1
102
RTVSPropertyOp16
 70
     1
102
RTVSPropertyOp17
 70
     1
102
RTVSPropertyOp18
 70
     1
102
RTVSPropertyOp19
 70
     1
102
RTVSPropertyOp20
 70
     1
102
RTVSPropertyOp21
 70
     1
102
RTVSPropertyOp22
 70
     1
102
RTVSPropertyOp23
 70
     1
102
RTVSPropertyOp24
 70
     1
102
RTVSPropertyOp25
 70
     1
102
RTVSPropertyOp26
 70
     1
102
RTVSPropertyOp27
 70
     1
102
RTVSPropertyOp28
 70
     1
102
RTVSPropertyOp29
 70
     1
102
RTVSPropertyOp30
 70
     1
102
RTVSPropertyOp31
 70
     1
102
RTVSPropertyOp32
 70
     1
  0
XRECORD
  5
15F
102
{ACAD_REACTORS
330
15E
102
}
330
15E
100
AcDbXrecord
280
     1
102
RTVSPropertyOp0
 70
     1
102
RTVSPropertyOp1
 70
     1
102
RTVSPropertyOp2
 70
     1
102
RTVSPropertyOp3
 70
     1
102
RTVSPropertyOp4
 70
     1
102
RTVSPropertyOp5
 70
     1
102
RTVSPropertyOp6
 70
     1
102
RTVSPropertyOp7
 70
     1
102
RTVSPropertyOp8
 70
     1
102
RTVSPropertyOp9
 70
     1
102
RTVSPropertyOp10
 70
     1
102
RTVSPropertyOp11
 70
     1
102
RTVSPropertyOp12
 70
     1
102
RTVSPropertyOp13
 70
     1
102
RTVSPropertyOp14
 70
     1
102
RTVSPropertyOp15
 70
     1
102
RTVSPropertyOp16
 70
     1
102
RTVSPropertyOp17
 70
     1
102
RTVSPropertyOp18
 70
     1
102
RTVSPropertyOp19
 70
     1
102
RTVSPropertyOp20
 70
     1
102
RTVSPropertyOp21
 70
     1
102
RTVSPropertyOp22
 70
     1
102
RTVSPropertyOp23
 70
     1
102
RTVSPropertyOp24
 70
     1
102
RTVSPropertyOp25
 70
     1
102
RTVSPropertyOp26
 70
     1
102
RTVSPropertyOp27
 70
     1
102
RTVSPropertyOp28
 70
     1
102
RTVSPropertyOp29
 70
     1
102
RTVSPropertyOp30
 70
     1
102
RTVSPropertyOp31
 70
     1
102
RTVSPropertyOp32
 70
     1
  0
XRECORD
  5
155
102
{ACAD_REACTORS
330
154
102
}
330
154
100
AcDbXrecord
280
     1
102
RTVSPropertyOp0
 70
     1
102
RTVSPropertyOp1
 70
     1
102
RTVSPropertyOp2
 70
     1
102
RTVSPropertyOp3
 70
     1
102
RTVSPropertyOp4
 70
     1
102
RTVSPropertyOp5
 70
     1
102
RTVSPropertyOp6
 70
     1
102
RTVSPropertyOp7
 70
     1
102
RTVSPropertyOp8
 70
     1
102
RTVSPropertyOp9
 70
     1
102
RTVSPropertyOp10
 70
     1
102
RTVSPropertyOp11
 70
     1
102
RTVSPropertyOp12
 70
     1
102
RTVSPropertyOp13
 70
     1
102
RTVSPropertyOp14
 70
     1
102
RTVSPropertyOp15
 70
     1
102
RTVSPropertyOp16
 70
     1
102
RTVSPropertyOp17
 70
     1
102
RTVSPropertyOp18
 70
     1
102
RTVSPropertyOp19
 70
     1
102
RTVSPropertyOp20
 70
     1
102
RTVSPropertyOp21
 70
     1
102
RTVSPropertyOp22
 70
     1
102
RTVSPropertyOp23
 70
     1
102
RTVSPropertyOp24
 70
     1
102
RTVSPropertyOp25
 70
     1
102
RTVSPropertyOp26
 70
     1
102
RTVSPropertyOp27
 70
     1
102
RTVSPropertyOp28
 70
     1
102
RTVSPropertyOp29
 70
     1
102
RTVSPropertyOp30
 70
     1
102
RTVSPropertyOp31
 70
     1
102
RTVSPropertyOp32
 70
     1
  0
XRECORD
  5
15D
102
{ACAD_REACTORS
330
15C
102
}
330
15C
100
AcDbXrecord
280
     1
102
RTVSPropertyOp0
 70
     1
102
RTVSPropertyOp1
 70
     1
102
RTVSPropertyOp2
 70
     1
102
RTVSPropertyOp3
 70
     1
102
RTVSPropertyOp4
 70
     1
102
RTVSPropertyOp5
 70
     1
102
RTVSPropertyOp6
 70
     1
102
RTVSPropertyOp7
 70
     1
102
RTVSPropertyOp8
 70
     1
102
RTVSPropertyOp9
 70
     1
102
RTVSPropertyOp10
 70
     1
102
RTVSPropertyOp11
 70
     1
102
RTVSPropertyOp12
 70
     1
102
RTVSPropertyOp13
 70
     1
102
RTVSPropertyOp14
 70
     1
102
RTVSPropertyOp15
 70
     1
102
RTVSPropertyOp16
 70
     1
102
RTVSPropertyOp17
 70
     1
102
RTVSPropertyOp18
 70
     1
102
RTVSPropertyOp19
 70
     1
102
RTVSPropertyOp20
 70
     1
102
RTVSPropertyOp21
 70
     1
102
RTVSPropertyOp22
 70
     1
102
RTVSPropertyOp23
 70
     1
102
RTVSPropertyOp24
 70
     1
102
RTVSPropertyOp25
 70
     1
102
RTVSPropertyOp26
 70
     1
102
RTVSPropertyOp27
 70
     1
102
RTVSPropertyOp28
 70
     1
102
RTVSPropertyOp29
 70
     1
102
RTVSPropertyOp30
 70
     1
102
RTVSPropertyOp31
 70
     1
102
RTVSPropertyOp32
 70
     1
  0
ENDSEC
  0
EOF
