  0
SECTION
  2
HEADER
  9
$ACADVER
  1
AC1015
  9
$ACADMAINTVER
 70
     6
  9
$DWGCODEPAGE
  3
ANSI_1252
  9
$INSBASE
 10
0.0
 20
0.0
 30
0.0
  9
$EXTMIN
 10
0.0
 20
0.0
 30
0.0
  9
$EXTMAX
 10
210.0
 20
297.0
 30
0.0
  9
$LIMMIN
 10
0.0
 20
0.0
  9
$LIMMAX
 10
210.0
 20
297.0
  9
$ORTHOMODE
 70
     0
  9
$REGENMODE
 70
     1
  9
$FILLMODE
 70
     1
  9
$QTEXTMODE
 70
     0
  9
$MIRRTEXT
 70
     1
  9
$LTSCALE
 40
1.0
  9
$ATTMODE
 70
     1
  9
$TEXTSIZE
 40
2.5
  9
$TRACEWID
 40
1.0
  9
$TEXTSTYLE
  7
Standard
  9
$CLAYER
  8
0
  9
$CELTYPE
  6
ByLayer
  9
$CECOLOR
 62
   256
  9
$CELTSCALE
 40
1.0
  9
$DISPSILH
 70
     0
  9
$DIMSCALE
 40
1.0
  9
$DIMASZ
 40
2.5
  9
$DIMEXO
 40
0.625
  9
$DIMDLI
 40
3.75
  9
$DIMRND
 40
0.0
  9
$DIMDLE
 40
0.0
  9
$DIMEXE
 40
1.25
  9
$DIMTP
 40
0.0
  9
$DIMTM
 40
0.0
  9
$DIMTXT
 40
2.5
  9
$DIMCEN
 40
2.5
  9
$DIMTSZ
 40
0.0
  9
$DIMTOL
 70
     0
  9
$DIMLIM
 70
     0
  9
$DIMTIH
 70
     0
  9
$DIMTOH
 70
     0
  9
$DIMSE1
 70
     0
  9
$DIMSE2
 70
     0
  9
$DIMTAD
 70
     1
  9
$DIMZIN
 70
     8
  9
$DIMBLK
  1

  9
$DIMASO
 70
     1
  9
$DIMSHO
 70
     1
  9
$DIMPOST
  1

  9
$DIMAPOST
  1

  9
$DIMALT
 70
     0
  9
$DIMALTD
 70
     3
  9
$DIMALTF
 40
0.0393700787
  9
$DIMLFAC
 40
1.0
  9
$DIMTOFL
 70
     1
  9
$DIMTVP
 40
0.0
  9
$DIMTIX
 70
     0
  9
$DIMSOXD
 70
     0
  9
$DIMSAH
 70
     0
  9
$DIMBLK1
  1

  9
$DIMBLK2
  1

  9
$DIMSTYLE
  2
ISO-25
  9
$DIMCLRD
 70
     0
  9
$DIMCLRE
 70
     0
  9
$DIMCLRT
 70
     0
  9
$DIMTFAC
 40
1.0
  9
$DIMGAP
 40
0.625
  9
$DIMJUST
 70
     0
  9
$DIMSD1
 70
     0
  9
$DIMSD2
 70
     0
  9
$DIMTOLJ
 70
     0
  9
$DIMTZIN
 70
     8
  9
$DIMALTZ
 70
     0
  9
$DIMALTTZ
 70
     0
  9
$DIMUPT
 70
     0
  9
$DIMDEC
 70
     2
  9
$DIMTDEC
 70
     2
  9
$DIMALTU
 70
     2
  9
$DIMALTTD
 70
     3
  9
$DIMTXSTY
  7
Standard
  9
$DIMAUNIT
 70
     0
  9
$DIMADEC
 70
     0
  9
$DIMALTRND
 40
0.0
  9
$DIMAZIN
 70
     0
  9
$DIMDSEP
 70
    44
  9
$DIMATFIT
 70
     3
  9
$DIMFRAC
 70
     0
  9
$DIMLDRBLK
  1

  9
$DIMLUNIT
 70
     2
  9
$DIMLWD
 70
    -2
  9
$DIMLWE
 70
    -2
  9
$DIMTMOVE
 70
     0
  9
$LUNITS
 70
     2
  9
$LUPREC
 70
     4
  9
$SKETCHINC
 40
1.0
  9
$FILLETRAD
 40
10.0
  9
$AUNITS
 70
     0
  9
$AUPREC
 70
     0
  9
$MENU
  1
.
  9
$ELEVATION
 40
0.0
  9
$PELEVATION
 40
0.0
  9
$THICKNESS
 40
0.0
  9
$LIMCHECK
 70
     0
  9
$CHAMFERA
 40
10.0
  9
$CHAMFERB
 40
10.0
  9
$CHAMFERC
 40
20.0
  9
$CHAMFERD
 40
0.0
  9
$SKPOLY
 70
     0
  9
$TDCREATE
 40
2457560.467147361
  9
$TDUCREATE
 40
2457560.383814028
  9
$TDUPDATE
 40
2457560.467148958
  9
$TDUUPDATE
 40
2457560.383815625
  9
$TDINDWG
 40
0.0000000116
  9
$TDUSRTIMER
 40
0.0000000116
  9
$USRTIMER
 70
     1
  9
$ANGBASE
 50
0.0
  9
$ANGDIR
 70
     0
  9
$PDMODE
 70
     0
  9
$PDSIZE
 40
0.0
  9
$PLINEWID
 40
0.0
  9
$SPLFRAME
 70
     0
  9
$SPLINETYPE
 70
     6
  9
$SPLINESEGS
 70
     8
  9
$HANDSEED
  5
16A
  9
$SURFTAB1
 70
     6
  9
$SURFTAB2
 70
     6
  9
$SURFTYPE
 70
     6
  9
$SURFU
 70
     6
  9
$SURFV
 70
     6
  9
$UCSBASE
  2

  9
$UCSNAME
  2

  9
$UCSORG
 10
0.0
 20
0.0
 30
0.0
  9
$UCSXDIR
 10
1.0
 20
0.0
 30
0.0
  9
$UCSYDIR
 10
0.0
 20
1.0
 30
0.0
  9
$UCSORTHOREF
  2

  9
$UCSORTHOVIEW
 70
     0
  9
$UCSORGTOP
 10
0.0
 20
0.0
 30
0.0
  9
$UCSORGBOTTOM
 10
0.0
 20
0.0
 30
0.0
  9
$UCSORGLEFT
 10
0.0
 20
0.0
 30
0.0
  9
$UCSORGRIGHT
 10
0.0
 20
0.0
 30
0.0
  9
$UCSORGFRONT
 10
0.0
 20
0.0
 30
0.0
  9
$UCSORGBACK
 10
0.0
 20
0.0
 30
0.0
  9
$PUCSBASE
  2

  9
$PUCSNAME
  2

  9
$PUCSORG
 10
0.0
 20
0.0
 30
0.0
  9
$PUCSXDIR
 10
1.0
 20
0.0
 30
0.0
  9
$PUCSYDIR
 10
0.0
 20
1.0
 30
0.0
  9
$PUCSORTHOREF
  2

  9
$PUCSORTHOVIEW
 70
     0
  9
$PUCSORGTOP
 10
0.0
 20
0.0
 30
0.0
  9
$PUCSORGBOTTOM
 10
0.0
 20
0.0
 30
0.0
  9
$PUCSORGLEFT
 10
0.0
 20
0.0
 30
0.0
  9
$PUCSORGRIGHT
 10
0.0
 20
0.0
 30
0.0
  9
$PUCSORGFRONT
 10
0.0
 20
0.0
 30
0.0
  9
$PUCSORGBACK
 10
0.0
 20
0.0
 30
0.0
  9
$USERI1
 70
     0
  9
$USERI2
 70
     0
  9
$USERI3
 70
     0
  9
$USERI4
 70
     0
  9
$USERI5
 70
     0
  9
$USERR1
 40
0.0
  9
$USERR2
 40
0.0
  9
$USERR3
 40
0.0
  9
$USERR4
 40
0.0
  9
$USERR5
 40
0.0
  9
$WORLDVIEW
 70
     1
  9
$SHADEDGE
 70
     3
  9
$SHADEDIF
 70
    70
  9
$TILEMODE
 70
     1
  9
$MAXACTVP
 70
    64
  9
$PINSBASE
 10
0.0
 20
0.0
 30
0.0
  9
$PLIMCHECK
 70
     0
  9
$PEXTMIN
 10
0.0
 20
0.0
 30
0.0
  9
$PEXTMAX
 10
210.0
 20
297.0
 30
0.0
  9
$PLIMMIN
 10
0.0
 20
0.0
  9
$PLIMMAX
 10
210.0
 20
297.0
  9
$UNITMODE
 70
     0
  9
$VISRETAIN
 70
     1
  9
$PLINEGEN
 70
     0
  9
$PSLTSCALE
 70
     1
  9
$TREEDEPTH
 70
  3020
  9
$CMLSTYLE
  2
Standard
  9
$CMLJUST
 70
     0
  9
$CMLSCALE
 40
20.0
  9
$PROXYGRAPHICS
 70
     1
  9
$MEASUREMENT
 70
     1
  9
$CELWEIGHT
370
    -1
  9
$ENDCAPS
280
     0
  9
$JOINSTYLE
280
     0
  9
$LWDISPLAY
290
     0
  9
$INSUNITS
 70
     4
  9
$HYPERLINKBASE
  1

  9
$STYLESHEET
  1

  9
$XEDIT
290
     1
  9
$CEPSNTYPE
380
     0
  9
$PSTYLEMODE
290
     1
  9
$FINGERPRINTGUID
  2
{50C48776-A2DC-47F6-B006-3C451CBBA31F}
  9
$VERSIONGUID
  2
{FAEB1C32-E019-11D5-929B-00C0DF256EC4}
  9
$EXTNAMES
290
     1
  9
$PSVPSCALE
 40
0.0
  9
$OLESTARTUP
290
     0
  0
ENDSEC
  0
SECTION
  2
CLASSES
  0
CLASS
  1
ACDBDICTIONARYWDFLT
  2
AcDbDictionaryWithDefault
  3
ObjectDBX Classes
 90
        0
280
     0
281
     0
  0
CLASS
  1
VISUALSTYLE
  2
AcDbVisualStyle
  3
ObjectDBX Classes
 90
     4095
280
     0
281
     0
  0
CLASS
  1
MATERIAL
  2
AcDbMaterial
  3
ObjectDBX Classes
 90
     1153
280
     0
281
     0
  0
CLASS
  1
DICTIONARYVAR
  2
AcDbDictionaryVar
  3
ObjectDBX Classes
 90
        0
280
     0
281
     0
  0
CLASS
  1
ACDBPLACEHOLDER
  2
AcDbPlaceHolder
  3
ObjectDBX Classes
 90
        0
280
     0
281
     0
  0
CLASS
  1
LAYOUT
  2
AcDbLayout
  3
ObjectDBX Classes
 90
        0
280
     0
281
     0
  0
ENDSEC
  0
SECTION
  2
TABLES
  0
TABLE
  2
VPORT
  5
8
330
0
100
AcDbSymbolTable
 70
     1
  0
VPORT
  5
29
330
8
100
AcDbSymbolTableRecord
100
AcDbViewportTableRecord
  2
*Active
 70
     0
 10
0.0
 20
0.0
 11
1.0
 21
1.0
 12
344.1869158879
 22
148.5
 13
0.0
 23
0.0
 14
10.0
 24
10.0
 15
10.0
 25
10.0
 16
0.0
 26
0.0
 36
1.0
 17
0.0
 27
0.0
 37
0.0
 40
297.0
 41
1.9729729729
 42
50.0
 43
0.0
 44
0.0
 50
0.0
 51
0.0
 71
     0
 72
   100
 73
     1
 74
     3
 75
     0
 76
     0
 77
     0
 78
     0
281
     0
 65
     1
110
0.0
120
0.0
130
0.0
111
1.0
121
0.0
131
0.0
112
0.0
122
1.0
132
0.0
 79
     0
146
0.0
  0
ENDTAB
  0
TABLE
  2
LTYPE
  5
5
330
0
100
AcDbSymbolTable
 70
     2
  0
LTYPE
  5
14
330
5
100
AcDbSymbolTableRecord
100
AcDbLinetypeTableRecord
  2
ByBlock
 70
     0
  3

 72
    65
 73
     0
 40
0.0
  0
LTYPE
  5
15
330
5
100
AcDbSymbolTableRecord
100
AcDbLinetypeTableRecord
  2
ByLayer
 70
     0
  3

 72
    65
 73
     0
 40
0.0
  0
LTYPE
  5
16
330
5
100
AcDbSymbolTableRecord
100
AcDbLinetypeTableRecord
  2
Continuous
 70
     0
  3
Solid line
 72
    65
 73
     0
 40
0.0
  0
LTYPE
  5
5C
330
5
100
AcDbSymbolTableRecord
100
AcDbLinetypeTableRecord
  2
HIDDEN2
 70
     0
  3
Hidden (.5x) _ _ _ _ _ _ _ _ _ _ _ _ _ _ _ _ _ 
 72
    65
 73
     2
 40
4.7625
 49
3.175
 74
     4
 75
     0
340
0
 46
0.0
 50
0.0
 44
0.0
 45
0.0
 49
-1.5875
 74
     4
 75
     0
340
0
 46
0.0
 50
0.0
 44
0.0
 45
0.0
  0
ENDTAB
  0
TABLE
  2
LAYER
  5
2
330
0
100
AcDbSymbolTable
 70
     5
  0
LAYER
  5
10
330
2
100
AcDbSymbolTableRecord
100
AcDbLayerTableRecord
  2
0
 70
     0
 62
     7
  6
Continuous
370
    -3
390
F
  0
LAYER
  5
3F
330
2
100
AcDbSymbolTableRecord
100
AcDbLayerTableRecord
  2
SK2
 70
     0
 62
     7
  6
Continuous
370
    15
390
F
  0
LAYER
  5
40
330
2
100
AcDbSymbolTableRecord
100
AcDbLayerTableRecord
  2
SK1
 70
     0
 62
     4
  6
Continuous
370
    18
390
F
  0
LAYER
  5
5B
330
2
100
AcDbSymbolTableRecord
100
AcDbLayerTableRecord
  2
SK3
 70
     0
 62
     1
  6
HIDDEN2
370
    15
390
F
  0
LAYER
  5
FD
330
2
100
AcDbSymbolTableRecord
100
AcDbLayerTableRecord
  2
SK4
 70
     0
 62
     2
  6
Continuous
370
    13
390
F
  0
ENDTAB
  0
TABLE
  2
STYLE
  5
3
330
0
100
AcDbSymbolTable
 70
     2
  0
STYLE
  5
11
330
3
100
AcDbSymbolTableRecord
100
AcDbTextStyleTableRecord
  2
Standard
 70
     0
 40
0.0
 41
1.0
 50
0.0
 71
     0
 42
2.5
  3
txt
  4

  0
STYLE
  5
111
330
3
100
AcDbSymbolTableRecord
100
AcDbTextStyleTableRecord
  2
SEACAD_Solid_Edge_ISO
 70
     0
 40
0.0
 41
1.0
 50
0.0
 71
     0
 42
0.2
  3
seiso.ttf
  4

1001
ACAD
1000
Solid Edge ISO
1071
        0
  0
ENDTAB
  0
TABLE
  2
VIEW
  5
6
330
0
100
AcDbSymbolTable
 70
     0
  0
ENDTAB
  0
TABLE
  2
UCS
  5
7
330
0
100
AcDbSymbolTable
 70
     0
  0
ENDTAB
  0
TABLE
  2
APPID
  5
9
330
0
100
AcDbSymbolTable
 70
     1
  0
APPID
  5
12
330
9
100
AcDbSymbolTableRecord
100
AcDbRegAppTableRecord
  2
ACAD
 70
     0
  0
ENDTAB
  0
TABLE
  2
DIMSTYLE
  5
A
330
0
100
AcDbSymbolTable
 70
     3
100
AcDbDimStyleTable
  0
DIMSTYLE
105
27
330
A
100
AcDbSymbolTableRecord
100
AcDbDimStyleTableRecord
  2
ISO-25
 70
     0
 41
2.5
 42
0.625
 43
3.75
 44
1.25
 73
     0
 74
     0
 77
     1
 78
     8
140
2.5
141
2.5
143
0.0393700787
147
0.625
171
     3
172
     1
178
     0
271
     2
272
     2
274
     3
278
    44
283
     0
284
     8
340
11
  0
DIMSTYLE
105
FF
330
A
100
AcDbSymbolTableRecord
100
AcDbDimStyleTableRecord
  2
Standard
 70
     0
178
     0
340
11
  0
DIMSTYLE
105
112
102
{ACAD_REACTORS
330
113
330
11E
330
128
330
133
102
}
330
A
100
AcDbSymbolTableRecord
100
AcDbDimStyleTableRecord
  2
DIN
 70
     0
 41
3.5
 42
0.0
 44
1.75
 73
     0
 74
     0
 77
     1
 78
     8
140
3.5
141
1.75
147
1.75
172
     1
173
     1
178
     0
179
     3
271
     1
272
     1
278
    44
284
     8
340
111
343
10C
344
10C
  0
ENDTAB
  0
TABLE
  2
BLOCK_RECORD
  5
1
330
0
100
AcDbSymbolTable
 70
    10
  0
BLOCK_RECORD
  5
1F
330
1
100
AcDbSymbolTableRecord
100
AcDbBlockTableRecord
  2
*Model_Space
340
22
  0
BLOCK_RECORD
  5
1B
330
1
100
AcDbSymbolTableRecord
100
AcDbBlockTableRecord
  2
*Paper_Space
340
1E
  0
BLOCK_RECORD
  5
41
330
1
100
AcDbSymbolTableRecord
100
AcDbBlockTableRecord
  2
Nullpunkt
340
0
102
{BLKREFS
331
4B
102
}
  0
BLOCK_RECORD
  5
4C
330
1
100
AcDbSymbolTableRecord
100
AcDbBlockTableRecord
  2
Einfügepunkt
340
0
102
{BLKREFS
331
56
102
}
  0
BLOCK_RECORD
  5
100
330
1
100
AcDbSymbolTableRecord
100
AcDbBlockTableRecord
  2
_OBLIQUE
340
0
  0
BLOCK_RECORD
  5
104
330
1
100
AcDbSymbolTableRecord
100
AcDbBlockTableRecord
  2
_DOT
340
0
  0
BLOCK_RECORD
  5
10C
330
1
100
AcDbSymbolTableRecord
100
AcDbBlockTableRecord
  2
_SE_FILLED
340
0
  0
BLOCK_RECORD
  5
114
330
1
100
AcDbSymbolTableRecord
100
AcDbBlockTableRecord
  2
DMBLK43
340
0
  0
BLOCK_RECORD
  5
11F
330
1
100
AcDbSymbolTableRecord
100
AcDbBlockTableRecord
  2
DMBLK44
340
0
  0
BLOCK_RECORD
  5
129
330
1
100
AcDbSymbolTableRecord
100
AcDbBlockTableRecord
  2
DMBLK45
340
0
  0
BLOCK_RECORD
  5
134
330
1
100
AcDbSymbolTableRecord
100
AcDbBlockTableRecord
  2
DMBLK46
340
0
  0
ENDTAB
  0
ENDSEC
  0
SECTION
  2
BLOCKS
  0
BLOCK
  5
20
330
1F
100
AcDbEntity
  8
0
100
AcDbBlockBegin
  2
*Model_Space
 70
     0
 10
0.0
 20
0.0
 30
0.0
  3
*Model_Space
  1

  0
ENDBLK
  5
21
330
1F
100
AcDbEntity
  8
0
100
AcDbBlockEnd
  0
BLOCK
  5
1C
330
1B
100
AcDbEntity
 67
     1
  8
0
100
AcDbBlockBegin
  2
*Paper_Space
 70
     0
 10
0.0
 20
0.0
 30
0.0
  3
*Paper_Space
  1

  0
ENDBLK
  5
1D
330
1B
100
AcDbEntity
 67
     1
  8
0
100
AcDbBlockEnd
  0
BLOCK
  5
49
330
41
100
AcDbEntity
  8
0
100
AcDbBlockBegin
  2
Nullpunkt
 70
     0
 10
0.0
 20
0.0
 30
0.0
  3
Nullpunkt
  1

  0
HATCH
  5
42
330
41
100
AcDbEntity
  8
SK2
  6
Continuous
 62
     7
100
AcDbHatch
 10
0.0
 20
0.0
 30
0.0
210
0.0
220
0.0
230
1.0
  2
SOLID
 70
     1
 71
     0
 91
        1
 92
        1
 93
        3
 72
     1
 10
-1.0
 20
0.0
 11
0.0000000000000009
 21
0.0
 72
     1
 10
0.0
 20
0.0
 11
0.0
 21
1.000000000000001
 72
     2
 10
0.0
 20
0.0
 40
1.0
 50
90.0
 51
180.0
 73
     1
 97
        0
 75
     0
 76
     1
 98
        0
  0
HATCH
  5
43
330
41
100
AcDbEntity
  8
SK2
  6
Continuous
 62
     7
100
AcDbHatch
 10
0.0
 20
0.0
 30
0.0
210
0.0
220
0.0
230
1.0
  2
SOLID
 70
     1
 71
     0
 91
        1
 92
        1
 93
        3
 72
     2
 10
0.0
 20
0.0
 40
1.0
 50
270.0
 51
360.0
 73
     1
 72
     1
 10
1.0
 20
0.0
 11
-0.0000000000000009
 21
0.0
 72
     1
 10
0.0
 20
0.0
 11
0.0
 21
-1.000000000000001
 97
        0
 75
     0
 76
     1
 98
        0
  0
CIRCLE
  5
44
330
41
100
AcDbEntity
  8
SK2
  6
Continuous
 62
     7
100
AcDbCircle
 10
0.0
 20
0.0
 30
0.0
 40
1.0
  0
LINE
  5
45
330
41
100
AcDbEntity
  8
SK1
  6
Continuous
100
AcDbLine
 10
-1.0
 20
0.0
 30
0.0
 11
1.0
 21
0.0
 31
0.0
  0
LINE
  5
46
330
41
100
AcDbEntity
  8
SK1
  6
Continuous
100
AcDbLine
 10
0.0
 20
1.0
 30
0.0
 11
0.0
 21
-1.0
 31
0.0
  0
POINT
  5
47
330
41
100
AcDbEntity
  8
SK1
  6
Continuous
100
AcDbPoint
 10
0.0
 20
0.0
 30
0.0
  0
POINT
  5
48
330
41
100
AcDbEntity
  8
SK1
  6
Continuous
100
AcDbPoint
 10
0.0
 20
0.0
 30
0.0
  0
ENDBLK
  5
4A
330
41
100
AcDbEntity
  8
0
100
AcDbBlockEnd
  0
BLOCK
  5
54
330
4C
100
AcDbEntity
  8
0
100
AcDbBlockBegin
  2
Einfügepunkt
 70
     0
 10
0.0
 20
0.0
 30
0.0
  3
Einfügepunkt
  1

  0
HATCH
  5
4D
330
4C
100
AcDbEntity
  8
SK2
  6
Continuous
 62
     7
100
AcDbHatch
 10
0.0
 20
0.0
 30
0.0
210
0.0
220
0.0
230
1.0
  2
SOLID
 70
     1
 71
     0
 91
        1
 92
        1
 93
        3
 72
     1
 10
-0.4502381196756744
 20
-0.0000000000000018
 11
0.0000000000000033
 21
-0.0000000000000018
 72
     1
 10
0.0
 20
-0.0000000000000018
 11
0.0
 21
0.4502381196756812
 72
     2
 10
0.0
 20
-0.0000000000000018
 40
0.4502381196756812
 50
90.0
 51
180.0
 73
     1
 97
        0
 75
     0
 76
     1
 98
        0
  0
HATCH
  5
4E
330
4C
100
AcDbEntity
  8
SK2
  6
Continuous
 62
     7
100
AcDbHatch
 10
0.0
 20
0.0
 30
0.0
210
0.0
220
0.0
230
1.0
  2
SOLID
 70
     1
 71
     0
 91
        1
 92
        1
 93
        3
 72
     2
 10
0.0
 20
-0.0000000000000018
 40
0.4502381196756812
 50
270.0
 51
360.0
 73
     1
 72
     1
 10
0.4502381196756815
 20
-0.0000000000000018
 11
0.0000000000000038
 21
-0.0000000000000018
 72
     1
 10
0.0
 20
-0.0000000000000018
 11
0.0
 21
-0.4502381196756812
 97
        0
 75
     0
 76
     1
 98
        0
  0
CIRCLE
  5
4F
330
4C
100
AcDbEntity
  8
SK2
  6
Continuous
 62
     7
100
AcDbCircle
 10
0.0
 20
0.0
 30
0.0
 40
0.4502381196756812
  0
LINE
  5
50
330
4C
100
AcDbEntity
  8
SK1
  6
Continuous
100
AcDbLine
 10
-0.4502381197
 20
0.0
 30
0.0
 11
0.4502381197
 21
0.0
 31
0.0
  0
LINE
  5
51
330
4C
100
AcDbEntity
  8
SK1
  6
Continuous
100
AcDbLine
 10
0.0
 20
0.4502381197
 30
0.0
 11
0.0
 21
-0.4502381197
 31
0.0
  0
POINT
  5
52
330
4C
100
AcDbEntity
  8
SK2
  6
Continuous
 62
     7
100
AcDbPoint
 10
0.0
 20
0.0
 30
0.0
  0
POINT
  5
53
330
4C
100
AcDbEntity
  8
SK2
  6
Continuous
 62
     7
100
AcDbPoint
 10
0.0
 20
0.0
 30
0.0
  0
ENDBLK
  5
55
330
4C
100
AcDbEntity
  8
0
100
AcDbBlockEnd
  0
BLOCK
  5
101
330
100
100
AcDbEntity
  8
0
100
AcDbBlockBegin
  2
_OBLIQUE
 70
     0
 10
0.0
 20
0.0
 30
0.0
  3
_OBLIQUE
  1

  0
LINE
  5
103
330
100
100
AcDbEntity
  8
0
  6
ByBlock
 62
     0
370
    -2
100
AcDbLine
 10
-0.5
 20
-0.5
 30
0.0
 11
0.5
 21
0.5
 31
0.0
  0
ENDBLK
  5
102
330
100
100
AcDbEntity
  8
0
100
AcDbBlockEnd
  0
BLOCK
  5
105
330
104
100
AcDbEntity
  8
0
100
AcDbBlockBegin
  2
_DOT
 70
     0
 10
0.0
 20
0.0
 30
0.0
  3
_DOT
  1

  0
POLYLINE
  5
107
330
104
100
AcDbEntity
  8
0
  6
ByBlock
 62
     0
100
AcDb2dPolyline
 66
     1
 10
0.0
 20
0.0
 30
0.0
 70
     1
 40
0.5
 41
0.5
  0
VERTEX
  5
109
330
107
100
AcDbEntity
  8
0
  6
ByBlock
 62
     0
100
AcDbVertex
100
AcDb2dVertex
 10
-0.25
 20
0.0
 30
0.0
 42
1.0
  0
VERTEX
  5
10A
330
107
100
AcDbEntity
  8
0
  6
ByBlock
 62
     0
100
AcDbVertex
100
AcDb2dVertex
 10
0.25
 20
0.0
 30
0.0
 42
1.0
  0
SEQEND
  5
10B
330
107
100
AcDbEntity
  8
0
  6
ByBlock
 62
     0
  0
LINE
  5
108
330
104
100
AcDbEntity
  8
0
  6
ByBlock
 62
     0
370
    -2
100
AcDbLine
 10
-0.5
 20
0.0
 30
0.0
 11
-1.0
 21
0.0
 31
0.0
  0
ENDBLK
  5
106
330
104
100
AcDbEntity
  8
0
100
AcDbBlockEnd
  0
BLOCK
  5
10F
330
10C
100
AcDbEntity
  8
0
100
AcDbBlockBegin
  2
_SE_FILLED
 70
     0
 10
0.0
 20
0.0
 30
0.0
  3
_SE_FILLED
  1

  0
SOLID
  5
10D
330
10C
100
AcDbEntity
  8
0
 62
     0
100
AcDbTrace
 10
0.0
 20
0.0
 30
0.0
 11
-1.0
 21
-0.1665
 31
0.0
 12
-1.0
 22
0.1665
 32
0.0
 13
0.0
 23
0.0
 33
0.0
  0
LINE
  5
10E
330
10C
100
AcDbEntity
  8
0
 62
     0
100
AcDbLine
 10
0.0
 20
0.0
 30
0.0
 11
-1.0
 21
0.0
 31
0.0
  0
ENDBLK
  5
110
330
10C
100
AcDbEntity
  8
0
100
AcDbBlockEnd
  0
BLOCK
  5
11C
330
114
100
AcDbEntity
  8
0
100
AcDbBlockBegin
  2
DMBLK43
 70
     0
 10
0.0
 20
0.0
 30
0.0
  3
DMBLK43
  1

  0
HATCH
  5
115
330
114
100
AcDbEntity
  8
SK2
  6
Continuous
 62
   136
100
AcDbHatch
 10
0.0
 20
0.0
 30
0.0
210
0.0
220
0.0
230
1.0
  2
SOLID
 70
     1
 71
     0
 91
        1
 92
        1
 93
        3
 72
     1
 10
15.55664041253507
 20
4.983029202800504
 11
14.38997370985726
 21
4.983029202800504
 72
     1
 10
14.38997370985726
 20
4.983029202800504
 11
14.97330706119617
 21
1.483029094767086
 72
     1
 10
14.97330706119617
 20
1.483029094767085
 11
15.55664041253507
 21
4.983029202800504
 97
        0
 75
     0
 76
     1
 98
        0
  0
HATCH
  5
116
330
114
100
AcDbEntity
  8
SK2
  6
Continuous
 62
   136
100
AcDbHatch
 10
0.0
 20
0.0
 30
0.0
210
0.0
220
0.0
230
1.0
  2
SOLID
 70
     1
 71
     0
 91
        1
 92
        1
 93
        3
 72
     1
 10
15.55664041253507
 20
-4.983029003259105
 11
14.97330706119617
 21
-1.483028895225687
 72
     1
 10
14.97330706119617
 20
-1.483028895225686
 11
14.38997370985726
 21
-4.983029003259104
 72
     1
 10
14.38997370985726
 20
-4.983029003259105
 11
15.55664041253507
 21
-4.983029003259105
 97
        0
 75
     0
 76
     1
 98
        0
  0
LINE
  5
117
330
114
100
AcDbEntity
  8
SK2
  6
Continuous
 62
   136
100
AcDbLine
 10
6.05
 20
1.4830290948
 30
0.0
 11
16.7233071152
 21
1.4830290948
 31
0.0
  0
LINE
  5
118
330
114
100
AcDbEntity
  8
SK2
  6
Continuous
 62
   136
100
AcDbLine
 10
6.05
 20
-1.4830288952
 30
0.0
 11
16.7233071152
 21
-1.4830288952
 31
0.0
  0
LINE
  5
119
330
114
100
AcDbEntity
  8
SK2
  6
Continuous
 62
   136
100
AcDbLine
 10
14.9733070612
 20
17.0186761443
 30
0.0
 11
14.9733070612
 21
-8.4830286305
 31
0.0
  0
TEXT
  5
11A
330
114
100
AcDbEntity
  8
SK2
  6
Continuous
 62
   136
100
AcDbText
 10
14.0983070612
 20
13.9641302732
 30
0.0
 40
3.5
  1
3
 50
90.0
  7
SEACAD_Solid_Edge_ISO
 11
10.5983070612
 21
13.9641302732
 31
0.0
100
AcDbText
 73
     3
  0
TEXT
  5
11B
330
114
100
AcDbEntity
  8
SK2
  6
Continuous
 62
   136
100
AcDbText
 10
14.0983070612
 20
9.8914030005
 30
0.0
 40
3.5
  1
ø
 50
90.0
  7
SEACAD_Solid_Edge_ISO
 11
10.5983070612
 21
9.8914030005
 31
0.0
100
AcDbText
 73
     3
  0
ENDBLK
  5
11D
330
114
100
AcDbEntity
  8
0
100
AcDbBlockEnd
  0
BLOCK
  5
126
330
11F
100
AcDbEntity
  8
0
100
AcDbBlockBegin
  2
DMBLK44
 70
     0
 10
0.0
 20
0.0
 30
0.0
  3
DMBLK44
  1

  0
HATCH
  5
120
330
11F
100
AcDbEntity
  8
SK2
  6
Continuous
 62
   136
100
AcDbHatch
 10
0.0
 20
0.0
 30
0.0
210
0.0
220
0.0
230
1.0
  2
SOLID
 70
     1
 71
     0
 91
        1
 92
        1
 93
        3
 72
     1
 10
-3.500000108033419
 20
-15.31615082004049
 11
-0.0000000000000004
 21
-14.73281746870159
 72
     1
 10
0.0
 20
-14.73281746870159
 11
-3.500000108033418
 21
-14.14948411736269
 72
     1
 10
-3.500000108033419
 20
-14.14948411736269
 11
-3.500000108033419
 21
-15.31615082004049
 97
        0
 75
     0
 76
     1
 98
        0
  0
HATCH
  5
121
330
11F
100
AcDbEntity
  8
SK2
  6
Continuous
 62
   136
100
AcDbHatch
 10
0.0
 20
0.0
 30
0.0
210
0.0
220
0.0
230
1.0
  2
SOLID
 70
     1
 71
     0
 91
        1
 92
        1
 93
        3
 72
     1
 10
9.750000108034978
 20
-15.31615082004049
 11
9.750000108034978
 21
-14.14948411736269
 72
     1
 10
9.750000108034978
 20
-14.14948411736269
 11
6.25000000000156
 21
-14.73281746870159
 72
     1
 10
6.25000000000156
 20
-14.73281746870159
 11
9.750000108034978
 21
-15.31615082004049
 97
        0
 75
     0
 76
     1
 98
        0
  0
LINE
  5
122
330
11F
100
AcDbEntity
  8
SK2
  6
Continuous
 62
   136
100
AcDbLine
 10
0.0
 20
-5.4994526333
 30
0.0
 11
0.0
 21
-16.4828175227
 31
0.0
  0
LINE
  5
123
330
11F
100
AcDbEntity
  8
SK2
  6
Continuous
 62
   136
100
AcDbLine
 10
6.25
 20
-4.2563438034
 30
0.0
 11
6.25
 21
-16.4828175227
 31
0.0
  0
LINE
  5
124
330
11F
100
AcDbEntity
  8
SK2
  6
Continuous
 62
   136
100
AcDbLine
 10
-7.0000002161
 20
-14.7328174687
 30
0.0
 11
18.0668588728
 21
-14.7328174687
 31
0.0
  0
TEXT
  5
125
330
11F
100
AcDbEntity
  8
SK2
  6
Continuous
 62
   136
100
AcDbText
 10
12.2282223165
 20
-13.8578174687
 30
0.0
 40
3.5
  1
6,3
  7
SEACAD_Solid_Edge_ISO
 11
12.2282223165
 21
-10.3578174687
 31
0.0
100
AcDbText
 73
     3
  0
ENDBLK
  5
127
330
11F
100
AcDbEntity
  8
0
100
AcDbBlockEnd
  0
BLOCK
  5
131
330
129
100
AcDbEntity
  8
0
100
AcDbBlockBegin
  2
DMBLK45
 70
     0
 10
0.0
 20
0.0
 30
0.0
  3
DMBLK45
  1

  0
HATCH
  5
12A
330
129
100
AcDbEntity
  8
SK2
  6
Continuous
 62
   136
100
AcDbHatch
 10
0.0
 20
0.0
 30
0.0
210
0.0
220
0.0
230
1.0
  2
SOLID
 70
     1
 71
     0
 91
        1
 92
        1
 93
        3
 72
     1
 10
-16.49424379381041
 20
8.999452940894898
 11
-15.9109104424715
 21
5.499452832861481
 72
     1
 10
-15.9109104424715
 20
5.499452832861481
 11
-15.3275770911326
 21
8.999452940894898
 72
     1
 10
-15.3275770911326
 20
8.999452940894898
 11
-16.49424379381041
 21
8.999452940894898
 97
        0
 75
     0
 76
     1
 98
        0
  0
HATCH
  5
12B
330
129
100
AcDbEntity
  8
SK2
  6
Continuous
 62
   136
100
AcDbHatch
 10
0.0
 20
0.0
 30
0.0
210
0.0
220
0.0
230
1.0
  2
SOLID
 70
     1
 71
     0
 91
        1
 92
        1
 93
        3
 72
     1
 10
-16.49424379381041
 20
-8.999452741353501
 11
-15.3275770911326
 21
-8.999452741353501
 72
     1
 10
-15.3275770911326
 20
-8.999452741353501
 11
-15.9109104424715
 21
-5.499452633320083
 72
     1
 10
-15.9109104424715
 20
-5.499452633320083
 11
-16.49424379381041
 21
-8.999452741353501
 97
        0
 75
     0
 76
     1
 98
        0
  0
LINE
  5
12C
330
129
100
AcDbEntity
  8
SK2
  6
Continuous
 62
   136
100
AcDbLine
 10
0.0
 20
5.4994528329
 30
0.0
 11
-17.6609104965
 21
5.4994528329
 31
0.0
  0
LINE
  5
12D
330
129
100
AcDbEntity
  8
SK2
  6
Continuous
 62
   136
100
AcDbLine
 10
0.0
 20
-5.4994526333
 30
0.0
 11
-17.6609104965
 21
-5.4994526333
 31
0.0
  0
LINE
  5
12E
330
129
100
AcDbEntity
  8
SK2
  6
Continuous
 62
   136
100
AcDbLine
 10
-15.9109104425
 20
12.4994530489
 30
0.0
 11
-15.9109104425
 21
-12.4994530196
 31
0.0
  0
TEXT
  5
12F
330
129
100
AcDbEntity
  8
SK2
  6
Continuous
 62
   136
100
AcDbText
 10
-16.7859104425
 20
0.6045454692
 30
0.0
 40
3.5
  1
11
 50
90.0
  7
SEACAD_Solid_Edge_ISO
 11
-20.2859104425
 21
0.6045454692
 31
0.0
100
AcDbText
 73
     3
  0
TEXT
  5
130
330
129
100
AcDbEntity
  8
SK2
  6
Continuous
 62
   136
100
AcDbText
 10
-16.7859104425
 20
-3.4681818035
 30
0.0
 40
3.5
  1
ø
 50
90.0
  7
SEACAD_Solid_Edge_ISO
 11
-20.2859104425
 21
-3.4681818035
 31
0.0
100
AcDbText
 73
     3
  0
ENDBLK
  5
132
330
129
100
AcDbEntity
  8
0
100
AcDbBlockEnd
  0
BLOCK
  5
13B
330
134
100
AcDbEntity
  8
0
100
AcDbBlockBegin
  2
DMBLK46
 70
     0
 10
0.0
 20
0.0
 30
0.0
  3
DMBLK46
  1

  0
HATCH
  5
135
330
134
100
AcDbEntity
  8
SK2
  6
Continuous
 62
   136
100
AcDbHatch
 10
0.0
 20
0.0
 30
0.0
210
0.0
220
0.0
230
1.0
  2
SOLID
 70
     1
 71
     0
 91
        1
 92
        1
 93
        3
 72
     1
 10
-8.249999891965786
 20
11.80217113740206
 11
-11.7499999999992
 21
11.21883778606316
 72
     1
 10
-11.7499999999992
 20
11.21883778606316
 11
-8.249999891965786
 21
10.63550443472425
 72
     1
 10
-8.249999891965786
 20
10.63550443472425
 11
-8.249999891965786
 21
11.80217113740206
 97
        0
 75
     0
 76
     1
 98
        0
  0
HATCH
  5
136
330
134
100
AcDbEntity
  8
SK2
  6
Continuous
 62
   136
100
AcDbHatch
 10
0.0
 20
0.0
 30
0.0
210
0.0
220
0.0
230
1.0
  2
SOLID
 70
     1
 71
     0
 91
        1
 92
        1
 93
        3
 72
     1
 10
2.749999117106996
 20
11.80217113740206
 11
2.749999117106996
 21
10.63550443472425
 72
     1
 10
2.749999117106996
 20
10.63550443472425
 11
6.249999225140414
 21
11.21883778606316
 72
     1
 10
6.249999225140414
 20
11.21883778606316
 11
2.749999117106996
 21
11.80217113740206
 97
        0
 75
     0
 76
     1
 98
        0
  0
LINE
  5
137
330
134
100
AcDbEntity
  8
SK2
  6
Continuous
 62
   136
100
AcDbLine
 10
-11.75
 20
3.0675058696
 30
0.0
 11
-11.75
 21
12.9688378401
 31
0.0
  0
LINE
  5
138
330
134
100
AcDbEntity
  8
SK2
  6
Continuous
 62
   136
100
AcDbLine
 10
6.25
 20
3.2896858851
 30
0.0
 11
6.25
 21
12.9688378401
 31
0.0
  0
LINE
  5
139
330
134
100
AcDbEntity
  8
SK2
  6
Continuous
 62
   136
100
AcDbLine
 10
-11.75
 20
11.2188377861
 30
0.0
 11
6.2499992251
 21
11.2188377861
 31
0.0
  0
TEXT
  5
13A
330
134
100
AcDbEntity
  8
SK2
  6
Continuous
 62
   136
100
AcDbText
 10
-4.579545842
 20
12.0938377861
 30
0.0
 40
3.5
  1
18
  7
SEACAD_Solid_Edge_ISO
 11
-4.579545842
 21
15.5938377861
 31
0.0
100
AcDbText
 73
     3
  0
ENDBLK
  5
13C
330
134
100
AcDbEntity
  8
0
100
AcDbBlockEnd
  0
ENDSEC
  0
SECTION
  2
ENTITIES
  0
INSERT
  5
4B
330
1F
100
AcDbEntity
  8
SK2
 62
     7
100
AcDbBlockReference
  2
Nullpunkt
 10
0.0
 20
0.0000000998
 30
0.0
  0
INSERT
  5
56
330
1F
100
AcDbEntity
  8
SK2
 62
     7
100
AcDbBlockReference
  2
Einfügepunkt
 10
6.25
 20
0.0000000998
 30
0.0
  0
LINE
  5
57
330
1F
100
AcDbEntity
  8
SK1
  6
Continuous
100
AcDbLine
 10
-11.75
 20
3.2925058696
 30
0.0
 11
-11.75
 21
3.6788414837
 31
0.0
  0
LINE
  5
58
330
1F
100
AcDbEntity
  8
SK1
  6
Continuous
100
AcDbLine
 10
-11.5778346202
 20
3.4643305501
 30
0.0
 11
-11.5778346202
 21
3.8768950975
 31
0.0
  0
LINE
  5
59
330
1F
100
AcDbEntity
  8
SK1
  6
Continuous
100
AcDbLine
 10
1.75
 20
5.0883323166
 30
0.0
 11
1.75
 21
5.7455962394
 31
0.0
  0
LINE
  5
5A
330
1F
100
AcDbEntity
  8
SK1
  6
Continuous
100
AcDbLine
 10
1.85
 20
4.2215031723
 30
0.0
 11
1.85
 21
4.7446681598
 31
0.0
  0
SPLINE
  5
5D
330
1F
100
AcDbEntity
  8
SK3
100
AcDbSpline
210
0.0
220
0.0
230
1.0
 70
     8
 71
     3
 72
    10
 73
     6
 74
     0
 42
0.0000000330899918
 43
0.0000000001
 12
1.0
 22
0.0
 32
0.0
 13
1.0
 23
0.0
 33
0.0
 40
0.0
 40
0.0
 40
0.0
 40
0.0
 40
0.5
 40
0.5
 40
1.0
 40
1.0
 40
1.0
 40
1.0
 10
-11.74999999999921
 20
1.571791451763165
 30
0.0
 10
-11.74999999999921
 20
1.52644919449617
 30
0.0
 10
-11.72885938814157
 20
1.48109611680841
 30
0.0
 10
-11.65485177516945
 20
1.415925955535121
 30
0.0
 10
-11.6023650165971
 20
1.396840883985987
 30
0.0
 10
-11.54999999999749
 20
1.396840883973893
 30
0.0
  0
SPLINE
  5
5E
330
1F
100
AcDbEntity
  8
SK3
100
AcDbSpline
210
0.0
220
0.0
230
1.0
 70
     8
 71
     3
 72
    10
 73
     6
 74
     0
 42
0.0000000330899918
 43
0.0000000001
 12
1.0
 22
0.0
 32
0.0
 13
1.0
 23
0.0
 33
0.0
 40
0.0
 40
0.0
 40
0.0
 40
0.0
 40
0.5
 40
0.5
 40
1.0
 40
1.0
 40
1.0
 40
1.0
 10
-11.75000000001537
 20
1.346791451761189
 30
0.0
 10
-11.7499999999985
 20
1.301449194494169
 30
0.0
 10
-11.72885938814056
 20
1.256096116807079
 30
0.0
 10
-11.65485177516851
 20
1.190925955534742
 30
0.0
 10
-11.60236501659664
 20
1.171840883985987
 30
0.0
 10
-11.54999999999749
 20
1.171840883973893
 30
0.0
  0
ARC
  5
5F
330
1F
100
AcDbEntity
  8
SK3
100
AcDbCircle
 10
2.1220534495
 20
1.2978261278
 30
0.0
 40
0.1279522915351333
100
AcDbArc
 50
0.542764602
 51
50.7000905715
  0
ARC
  5
60
330
1F
100
AcDbEntity
  8
SK3
100
AcDbCircle
 10
2.0110266045
 20
1.3149132996
 30
0.0
 40
0.2395001093216395
100
AcDbArc
 50
323.3175641198
 51
356.1994035411
  0
LINE
  5
61
330
1F
100
AcDbEntity
  8
SK1
  6
Continuous
100
AcDbLine
 10
2.25
 20
4.2215031723
 30
0.0
 11
2.25
 21
3.9965031723
 31
0.0
  0
ARC
  5
62
330
1F
100
AcDbEntity
  8
SK3
100
AcDbCircle
 10
-6.033200017
 20
27.5388597053
 30
0.0
 40
27.62347282576413
100
AcDbArc
 50
287.3472983484
 51
287.449249942
  0
SPLINE
  5
63
330
1F
100
AcDbEntity
  8
SK1
  6
Continuous
100
AcDbSpline
210
0.0
220
0.0
230
1.0
 70
     8
 71
     3
 72
    23
 73
    19
 74
     0
 42
0.0000000678582138
 43
0.0000000001
 12
1.0
 22
0.0
 32
0.0
 13
1.0
 23
0.0
 33
0.0
 40
0.0
 40
0.0
 40
0.0
 40
0.0
 40
0.1608235623791988
 40
0.1608235623791988
 40
0.1608235623791988
 40
0.3761075724262296
 40
0.3761075724262296
 40
0.3761075724262296
 40
0.5912939433087809
 40
0.5912939433087809
 40
0.5912939433087809
 40
0.7249247848718562
 40
0.7249247848718562
 40
0.7249247848718562
 40
0.9395394096340067
 40
0.9395394096340067
 40
0.9395394096340067
 40
1.0
 40
1.0
 40
1.0
 40
1.0
 10
1.750000000000794
 20
4.308201024526894
 30
0.0
 10
1.750000000000793
 20
4.300937993116633
 30
0.0
 10
1.751069383816865
 20
4.293618404439471
 30
0.0
 10
1.753158358307455
 20
4.286584290106473
 30
0.0
 10
1.755952128262139
 20
4.277176948193084
 30
0.0
 10
1.760660198361816
 20
4.268057425607767
 30
0.0
 10
1.76689363040303
 20
4.259982143040831
 30
0.0
 10
1.773124198160114
 20
4.251910571094874
 30
0.0
 10
1.781050962049322
 20
4.244659431550017
 30
0.0
 10
1.790017668273693
 20
4.238831576951209
 30
0.0
 10
1.795634924297519
 20
4.235180676550105
 30
0.0
 10
1.801732145438792
 20
4.232027811982825
 30
0.0
 10
1.808108146211592
 20
4.229477477048817
 30
0.0
 10
1.818259442299439
 20
4.225417062698062
 30
0.0
 10
1.829359976559992
 20
4.222817893810306
 30
0.0
 10
1.840490940175693
 20
4.221896042067008
 30
0.0
 10
1.843649820249466
 20
4.221634427780643
 30
0.0
 10
1.846826708434123
 20
4.221503172293276
 30
0.0
 10
1.850000000000779
 20
4.221503172293113
 30
0.0
  0
LINE
  5
64
330
1F
100
AcDbEntity
  8
SK1
  6
Continuous
100
AcDbLine
 10
1.85
 20
4.2215031723
 30
0.0
 11
2.25
 21
4.2215031723
 31
0.0
  0
ARC
  5
65
330
1F
100
AcDbEntity
  8
SK3
100
AcDbCircle
 10
-6.033200017
 20
27.7638597053
 30
0.0
 40
27.623472825731
100
AcDbArc
 50
287.3472983484
 51
287.449249942
  0
LINE
  5
66
330
1F
100
AcDbEntity
  8
SK3
100
AcDbLine
 10
2.2030958271
 20
1.396840884
 30
0.0
 11
-11.55
 21
1.396840884
 31
0.0
  0
LINE
  5
67
330
1F
100
AcDbEntity
  8
SK1
  6
Continuous
100
AcDbLine
 10
-11.75
 20
3.0675058696
 30
0.0
 11
-11.75
 21
3.2925058696
 31
0.0
  0
SPLINE
  5
68
330
1F
100
AcDbEntity
  8
SK1
  6
Continuous
100
AcDbSpline
210
0.0
220
0.0
230
1.0
 70
     8
 71
     3
 72
    10
 73
     6
 74
     0
 42
0.0000000368289463
 43
0.0000000001
 12
1.0
 22
0.0
 32
0.0
 13
1.0
 23
0.0
 33
0.0
 40
0.0
 40
0.0
 40
0.0
 40
0.0
 40
0.5
 40
0.5
 40
1.0
 40
1.0
 40
1.0
 40
1.0
 10
-11.7499999999992
 20
3.292505869611702
 30
0.0
 10
-11.7499999999992
 20
3.333839557598933
 30
0.0
 10
-11.7321701711843
 20
3.37515651726215
 30
0.0
 10
-11.66980701690304
 20
3.437439067967379
 30
0.0
 10
-11.62490885453791
 20
3.458591380516336
 30
0.0
 10
-11.57783462020921
 20
3.464330550098401
 30
0.0
  0
SPLINE
  5
69
330
1F
100
AcDbEntity
  8
SK1
  6
Continuous
100
AcDbSpline
210
0.0
220
0.0
230
1.0
 70
     8
 71
     3
 72
    14
 73
    10
 74
     0
 42
0.0000000007448006
 43
0.0000000001
 12
1.0
 22
0.0
 32
0.0
 13
1.0
 23
0.0
 33
0.0
 40
0.0
 40
0.0
 40
0.0
 40
0.0
 40
0.1271509348008371
 40
0.1271509348008371
 40
0.1271509348008371
 40
0.6639355351686679
 40
0.6639355351686679
 40
0.6639355351686679
 40
1.0
 40
1.0
 40
1.0
 40
1.0
 10
-11.57783462020921
 20
3.464330550098401
 30
0.0
 10
-11.01295844420826
 20
3.533198800003851
 30
0.0
 10
-10.44808113248886
 20
3.602060063553771
 30
0.0
 10
-9.883202872250422
 20
3.670915490628398
 30
0.0
 10
-7.498494089498334
 20
3.961597843345777
 30
0.0
 10
-5.113768993601956
 20
4.252179826463309
 30
0.0
 10
-2.729035638404592
 20
4.542710947927715
 30
0.0
 10
-1.236026826203746
 20
4.724603621009843
 30
0.0
 10
0.2569853898611637
 20
4.906475340004285
 30
0.0
 10
1.750000000000794
 20
5.088332316596342
 30
0.0
  0
LINE
  5
6A
330
1F
100
AcDbEntity
  8
SK1
  6
Continuous
100
AcDbLine
 10
1.75
 20
5.0883323166
 30
0.0
 11
1.75
 21
4.8633323166
 31
0.0
  0
LINE
  5
6B
330
1F
100
AcDbEntity
  8
SK3
100
AcDbLine
 10
2.25
 20
3.9965031723
 30
0.0
 11
2.25
 21
1.1865382054
 31
0.0
  0
SPLINE
  5
6C
330
1F
100
AcDbEntity
  8
SK1
  6
Continuous
100
AcDbSpline
210
0.0
220
0.0
230
1.0
 70
     8
 71
     3
 72
    23
 73
    19
 74
     0
 42
0.0000000678582138
 43
0.0000000001
 12
1.0
 22
0.0
 32
0.0
 13
1.0
 23
0.0
 33
0.0
 40
0.0
 40
0.0
 40
0.0
 40
0.0
 40
0.1608235623791988
 40
0.1608235623791988
 40
0.1608235623791988
 40
0.3761075724262296
 40
0.3761075724262296
 40
0.3761075724262296
 40
0.5912939433087809
 40
0.5912939433087809
 40
0.5912939433087809
 40
0.7249247848718562
 40
0.7249247848718562
 40
0.7249247848718562
 40
0.9395394096340067
 40
0.9395394096340067
 40
0.9395394096340067
 40
1.0
 40
1.0
 40
1.0
 40
1.0
 10
1.750000000000794
 20
4.083201024526894
 30
0.0
 10
1.750000000000793
 20
4.075937993116633
 30
0.0
 10
1.751069383816865
 20
4.068618404439471
 30
0.0
 10
1.753158358307455
 20
4.061584290106473
 30
0.0
 10
1.755952128262139
 20
4.052176948193083
 30
0.0
 10
1.760660198361816
 20
4.043057425607767
 30
0.0
 10
1.76689363040303
 20
4.034982143040831
 30
0.0
 10
1.773124198160114
 20
4.026910571094874
 30
0.0
 10
1.781050962049322
 20
4.019659431550018
 30
0.0
 10
1.790017668273693
 20
4.01383157695121
 30
0.0
 10
1.795634924297519
 20
4.010180676550105
 30
0.0
 10
1.801732145438792
 20
4.007027811982826
 30
0.0
 10
1.808108146211592
 20
4.004477477048817
 30
0.0
 10
1.818259442299439
 20
4.000417062698062
 30
0.0
 10
1.829359976559992
 20
3.997817893810306
 30
0.0
 10
1.840490940175693
 20
3.996896042067008
 30
0.0
 10
1.843649820249466
 20
3.996634427780642
 30
0.0
 10
1.846826708434123
 20
3.996503172293276
 30
0.0
 10
1.850000000000779
 20
3.996503172293113
 30
0.0
  0
LINE
  5
6D
330
1F
100
AcDbEntity
  8
SK1
  6
Continuous
100
AcDbLine
 10
1.85
 20
3.9965031723
 30
0.0
 11
2.25
 21
3.9965031723
 31
0.0
  0
LINE
  5
6E
330
1F
100
AcDbEntity
  8
SK3
100
AcDbLine
 10
2.2030958271
 20
1.171840884
 30
0.0
 11
-11.55
 21
1.171840884
 31
0.0
  0
SPLINE
  5
6F
330
1F
100
AcDbEntity
  8
SK1
  6
Continuous
100
AcDbSpline
210
0.0
220
0.0
230
1.0
 70
     8
 71
     3
 72
    10
 73
     6
 74
     0
 42
0.0000000368289463
 43
0.0000000001
 12
1.0
 22
0.0
 32
0.0
 13
1.0
 23
0.0
 33
0.0
 40
0.0
 40
0.0
 40
0.0
 40
0.0
 40
0.5
 40
0.5
 40
1.0
 40
1.0
 40
1.0
 40
1.0
 10
-11.7499999999992
 20
3.067505869611702
 30
0.0
 10
-11.7499999999992
 20
3.108839557598933
 30
0.0
 10
-11.7321701711843
 20
3.150156517262149
 30
0.0
 10
-11.66980701690304
 20
3.212439067967379
 30
0.0
 10
-11.62490885453791
 20
3.233591380516336
 30
0.0
 10
-11.57783462020921
 20
3.239330550098401
 30
0.0
  0
SPLINE
  5
70
330
1F
100
AcDbEntity
  8
SK1
  6
Continuous
100
AcDbSpline
210
0.0
220
0.0
230
1.0
 70
     8
 71
     3
 72
    14
 73
    10
 74
     0
 42
0.0000000007448006
 43
0.0000000001
 12
1.0
 22
0.0
 32
0.0
 13
1.0
 23
0.0
 33
0.0
 40
0.0
 40
0.0
 40
0.0
 40
0.0
 40
0.1271509348008371
 40
0.1271509348008371
 40
0.1271509348008371
 40
0.6639355351686679
 40
0.6639355351686679
 40
0.6639355351686679
 40
1.0
 40
1.0
 40
1.0
 40
1.0
 10
-11.57783462020921
 20
3.239330550098401
 30
0.0
 10
-11.01295844420826
 20
3.308198800003852
 30
0.0
 10
-10.44808113248886
 20
3.377060063553771
 30
0.0
 10
-9.883202872250422
 20
3.445915490628398
 30
0.0
 10
-7.498494089498334
 20
3.736597843345777
 30
0.0
 10
-5.113768993601956
 20
4.027179826463309
 30
0.0
 10
-2.729035638404592
 20
4.317710947927716
 30
0.0
 10
-1.236026826203746
 20
4.499603621009842
 30
0.0
 10
0.2569853898611637
 20
4.681475340004284
 30
0.0
 10
1.750000000000794
 20
4.863332316596343
 30
0.0
  0
LINE
  5
71
330
1F
100
AcDbEntity
  8
SK1
  6
Continuous
100
AcDbLine
 10
1.75
 20
-5.7455960399
 30
0.0
 11
1.75
 21
-5.0883321171
 31
0.0
  0
LINE
  5
72
330
1F
100
AcDbEntity
  8
SK1
  6
Continuous
100
AcDbLine
 10
1.85
 20
-4.7446679603
 30
0.0
 11
1.85
 21
-4.2215029728
 31
0.0
  0
LINE
  5
73
330
1F
100
AcDbEntity
  8
SK1
  6
Continuous
100
AcDbLine
 10
3.65
 20
-4.7446679603
 30
0.0
 11
3.65
 21
-2.5671896461
 31
0.0
  0
LINE
  5
74
330
1F
100
AcDbEntity
  8
SK1
  6
Continuous
100
AcDbLine
 10
3.75
 20
-5.8456713758
 30
0.0
 11
3.75
 21
-3.1176913539
 31
0.0
  0
LINE
  5
75
330
1F
100
AcDbEntity
  8
SK1
  6
Continuous
100
AcDbLine
 10
6.125
 20
-4.4731378065
 30
0.0
 11
6.125
 21
-2.4314245692
 31
0.0
  0
LINE
  5
76
330
1F
100
AcDbEntity
  8
SK1
  6
Continuous
100
AcDbLine
 10
6.25
 20
-4.2563438034
 30
0.0
 11
6.25
 21
-2.3230275677
 31
0.0
  0
LINE
  5
77
330
1F
100
AcDbEntity
  8
SK1
  6
Continuous
100
AcDbLine
 10
-7.75
 20
-4.409124768
 30
0.0
 11
-7.75
 21
-4.4148619706
 31
0.0
  0
LINE
  5
78
330
1F
100
AcDbEntity
  8
SK3
100
AcDbLine
 10
6.05
 20
-1.4830288952
 30
0.0
 11
-7.7185033381
 21
-1.4830288952
 31
0.0
  0
LINE
  5
79
330
1F
100
AcDbEntity
  8
SK3
100
AcDbLine
 10
-7.75
 20
-2.39941805
 30
0.0
 11
-7.75
 21
-4.409124768
 31
0.0
  0
SPLINE
  5
7A
330
1F
100
AcDbEntity
  8
SK1
  6
Continuous
100
AcDbSpline
210
0.0
220
0.0
230
1.0
 70
     8
 71
     3
 72
    11
 73
     7
 74
     0
 42
0.0000000010423673
 43
0.0000000001
 12
1.0
 22
0.0
 32
0.0
 13
1.0
 23
0.0
 33
0.0
 40
0.0
 40
0.0
 40
0.0
 40
0.0
 40
0.8079120727779493
 40
0.8079120727779493
 40
0.8079120727779493
 40
1.0
 40
1.0
 40
1.0
 40
1.0
 10
-7.749999999999188
 20
-4.409124768047691
 30
0.0
 10
-5.191626778842456
 20
-4.769148534191459
 30
0.0
 10
-2.633238364669961
 20
-5.129064339796892
 30
0.0
 10
-0.0748422555447597
 20
-5.488925423735187
 30
0.0
 10
0.5334380541127566
 20
-5.574485439555613
 30
0.0
 10
1.141718825729663
 20
-5.660042171170809
 30
0.0
 10
1.750000000000794
 20
-5.745596039882696
 30
0.0
  0
ARC
  5
7B
330
1F
100
AcDbEntity
  8
SK1
  6
Continuous
100
AcDbCircle
 10
1.850055978
 20
-4.8447239372
 30
0.0
 40
0.1000559925875433
100
AcDbArc
 50
90.032055069
 51
180.0309680599
  0
LINE
  5
7C
330
1F
100
AcDbEntity
  8
SK1
  6
Continuous
100
AcDbLine
 10
1.85
 20
-4.7446679603
 30
0.0
 11
3.65
 21
-4.7446679603
 31
0.0
  0
ARC
  5
7D
330
1F
100
AcDbEntity
  8
SK1
  6
Continuous
100
AcDbCircle
 10
3.6499441656
 20
-4.8447237938
 30
0.0
 40
0.1000558491312002
100
AcDbArc
 50
359.9689497931
 51
89.9680270781
  0
LINE
  5
7E
330
1F
100
AcDbEntity
  8
SK1
  6
Continuous
100
AcDbLine
 10
3.75
 20
-5.8456713758
 30
0.0
 11
6.125
 21
-4.4731378065
 31
0.0
  0
ARC
  5
7F
330
1F
100
AcDbEntity
  8
SK1
  6
Continuous
100
AcDbCircle
 10
5.9952678569
 20
-4.2539027857
 30
0.0
 40
0.2547438385546849
100
AcDbArc
 50
300.6148899389
 51
359.450969435
  0
SPLINE
  5
80
330
1F
100
AcDbEntity
  8
SK3
100
AcDbSpline
210
0.0
220
0.0
230
1.0
 70
     8
 71
     3
 72
    10
 73
     6
 74
     0
 42
0.0000000308957402
 43
0.0000000001
 12
1.0
 22
0.0
 32
0.0
 13
1.0
 23
0.0
 33
0.0
 40
0.0
 40
0.0
 40
0.0
 40
0.0
 40
0.5
 40
0.5
 40
1.0
 40
1.0
 40
1.0
 40
1.0
 10
6.050000000000793
 20
-1.483028895225687
 30
0.0
 10
6.102709961459833
 20
-1.483028895225689
 30
0.0
 10
6.154972822332785
 20
-1.505247901157571
 30
0.0
 10
6.228518071732338
 20
-1.579913196060671
 30
0.0
 10
6.250000000000793
 20
-1.632285867048239
 30
0.0
 10
6.250000000000797
 20
-1.685044410027187
 30
0.0
  0
ARC
  5
81
330
1F
100
AcDbEntity
  8
SK3
100
AcDbCircle
 10
4.124342087
 20
-23.4999999002
 30
0.0
 40
25.0
100
AcDbArc
 50
118.2756397717
 51
118.3576365763
  0
LINE
  5
82
330
1F
100
AcDbEntity
  8
SK1
  6
Continuous
100
AcDbLine
 10
-11.75
 20
-3.2925056701
 30
0.0
 11
-11.75
 21
-3.6788412842
 31
0.0
  0
LINE
  5
83
330
1F
100
AcDbEntity
  8
SK1
  6
Continuous
100
AcDbLine
 10
-11.5778346202
 20
-3.4643303505
 30
0.0
 11
-11.5778346202
 21
-3.876894898
 31
0.0
  0
LINE
  5
84
330
1F
100
AcDbEntity
  8
SK1
  6
Continuous
100
AcDbLine
 10
1.75
 20
-2.6779422542
 30
0.0
 11
1.75
 21
-0.2249999002
 31
0.0
  0
LINE
  5
85
330
1F
100
AcDbEntity
  8
SK1
  6
Continuous
100
AcDbLine
 10
1.75
 20
-3.0676536859
 30
0.0
 11
1.75
 21
-2.6779422542
 31
0.0
  0
LINE
  5
86
330
1F
100
AcDbEntity
  8
SK1
  6
Continuous
100
AcDbLine
 10
1.85
 20
-2.1774782144
 30
0.0
 11
1.85
 21
-0.2249999002
 31
0.0
  0
LINE
  5
87
330
1F
100
AcDbEntity
  8
SK1
  6
Continuous
100
AcDbLine
 10
3.65
 20
-2.1774782144
 30
0.0
 11
3.65
 21
2.1774784139
 31
0.0
  0
LINE
  5
88
330
1F
100
AcDbEntity
  8
SK1
  6
Continuous
100
AcDbLine
 10
3.75
 20
-2.7279799222
 30
0.0
 11
3.75
 21
2.7279801217
 31
0.0
  0
LINE
  5
89
330
1F
100
AcDbEntity
  8
SK1
  6
Continuous
100
AcDbLine
 10
6.125
 20
-2.0417131375
 30
0.0
 11
6.125
 21
2.041713337
 31
0.0
  0
LINE
  5
8A
330
1F
100
AcDbEntity
  8
SK1
  6
Continuous
100
AcDbLine
 10
6.25
 20
-1.933316136
 30
0.0
 11
6.25
 21
1.9333163355
 31
0.0
  0
LINE
  5
8B
330
1F
100
AcDbEntity
  8
SK1
  6
Continuous
100
AcDbLine
 10
-7.75
 20
-2.39941805
 30
0.0
 11
-7.75
 21
-2.0097066183
 31
0.0
  0
ARC
  5
8C
330
1F
100
AcDbEntity
  8
SK3
100
AcDbCircle
 10
-7.0418662597
 20
-0.7555767507
 30
0.0
 40
0.7081556999866847
100
AcDbArc
 50
162.8414348749
 51
179.5487810122
  0
ARC
  5
8D
330
1F
100
AcDbEntity
  8
SK3
100
AcDbCircle
 10
-7.1974930322
 20
-0.7524725214
 30
0.0
 40
0.5525125006248773
100
AcDbArc
 50
179.7435872884
 51
199.4411693575
  0
SPLINE
  5
8E
330
1F
100
AcDbEntity
  8
SK3
100
AcDbSpline
210
0.0
220
0.0
230
1.0
 70
     8
 71
     3
 72
    10
 73
     6
 74
     0
 42
0.0000000401876441
 43
0.0000000001
 12
1.0
 22
0.0
 32
0.0
 13
1.0
 23
0.0
 33
0.0
 40
0.0
 40
0.0
 40
0.0
 40
0.0
 40
0.5
 40
0.5
 40
1.0
 40
1.0
 40
1.0
 40
1.0
 10
6.050000000000832
 20
-0.9363701135787091
 30
0.0
 10
6.102456836628269
 20
-0.9363701135789981
 30
0.0
 10
6.155192561323847
 20
-0.9475535570595353
 30
0.0
 10
6.228583553501324
 20
-0.9848832520678364
 30
0.0
 10
6.250000000000797
 20
-1.011109141253227
 30
0.0
 10
6.250000000000797
 20
-1.037377870979737
 30
0.0
  0
LINE
  5
8F
330
1F
100
AcDbEntity
  8
SK3
100
AcDbLine
 10
6.05
 20
-0.5466586819
 30
0.0
 11
-7.7185033381
 21
-0.5466586819
 31
0.0
  0
LINE
  5
90
330
1F
100
AcDbEntity
  8
SK3
100
AcDbLine
 10
-7.75
 20
-0.5551441844
 30
0.0
 11
-7.75
 21
-2.0097066183
 31
0.0
  0
LINE
  5
91
330
1F
100
AcDbEntity
  8
SK1
  6
Continuous
100
AcDbLine
 10
-7.75
 20
-2.0097066183
 30
0.0
 11
1.75
 21
-2.6779422542
 31
0.0
  0
SPLINE
  5
92
330
1F
100
AcDbEntity
  8
SK1
  6
Continuous
100
AcDbSpline
210
0.0
220
0.0
230
1.0
 70
     8
 71
     3
 72
    23
 73
    19
 74
     0
 42
0.000000082312202
 43
0.0000000001
 12
1.0
 22
0.0
 32
0.0
 13
1.0
 23
0.0
 33
0.0
 40
0.0
 40
0.0
 40
0.0
 40
0.0
 40
0.106038334238046
 40
0.106038334238046
 40
0.106038334238046
 40
0.2398832645084525
 40
0.2398832645084525
 40
0.2398832645084525
 40
0.4549224522257553
 40
0.4549224522257553
 40
0.4549224522257553
 40
0.6699730152660927
 40
0.6699730152660927
 40
0.6699730152660927
 40
0.8848551123182445
 40
0.8848551123182445
 40
0.8848551123182445
 40
1.0
 40
1.0
 40
1.0
 40
1.0
 10
1.750000000000794
 20
-2.227533242724946
 30
0.0
 10
1.750000000000794
 20
-2.224760733481144
 30
0.0
 10
1.75046338481377
 20
-2.221978723696035
 30
0.0
 10
1.751380657901606
 20
-2.219244412077446
 30
0.0
 10
1.752544326295753
 20
-2.215775617394055
 30
0.0
 10
1.754453016949206
 20
-2.212349687281649
 30
0.0
 10
1.757043980355548
 20
-2.209079703375702
 30
0.0
 10
1.76117062451088
 20
-2.203871578884066
 30
0.0
 10
1.767151213103118
 20
-2.198947564348948
 30
0.0
 10
1.774492253359359
 20
-2.194715645079205
 30
0.0
 10
1.781833521536621
 20
-2.190483594418905
 30
0.0
 10
1.79073812011412
 20
-2.186826969161236
 30
0.0
 10
1.800468750088776
 20
-2.184049827199065
 30
0.0
 10
1.810191795693744
 20
-2.181274849831724
 30
0.0
 10
1.821008142759338
 20
-2.179301419291153
 30
0.0
 10
1.832020825971808
 20
-2.178293894867736
 30
0.0
 10
1.837940229092609
 20
-2.177752342631901
 30
0.0
 10
1.843982321997638
 20
-2.177478214399572
 30
0.0
 10
1.850000000004918
 20
-2.177478214386778
 30
0.0
  0
LINE
  5
93
330
1F
100
AcDbEntity
  8
SK1
  6
Continuous
100
AcDbLine
 10
1.85
 20
-2.1774782144
 30
0.0
 11
3.65
 21
-2.1774782144
 31
0.0
  0
SPLINE
  5
94
330
1F
100
AcDbEntity
  8
SK1
  6
Continuous
100
AcDbSpline
210
0.0
220
0.0
230
1.0
 70
     8
 71
     3
 72
    23
 73
    19
 74
     0
 42
0.0000000822436666
 43
0.0000000001
 12
1.0
 22
0.0
 32
0.0
 13
1.0
 23
0.0
 33
0.0
 40
0.0
 40
0.0
 40
0.0
 40
0.0
 40
0.1846839083358934
 40
0.1846839083358934
 40
0.1846839083358934
 40
0.3992819677967652
 40
0.3992819677967652
 40
0.3992819677967652
 40
0.6140065032247509
 40
0.6140065032247509
 40
0.6140065032247509
 40
0.7471534523961246
 40
0.7471534523961246
 40
0.7471534523961246
 40
0.9624264908622414
 40
0.9624264908622414
 40
0.9624264908622414
 40
1.0
 40
1.0
 40
1.0
 40
1.0
 10
3.650000000000793
 20
-2.177478214399704
 30
0.0
 10
3.659624579207836
 20
-2.177478214399704
 30
0.0
 10
3.669348044748014
 20
-2.178188372338891
 30
0.0
 10
3.678570600710248
 20
-2.179564688657557
 30
0.0
 10
3.689284142976871
 20
-2.181163510406392
 30
0.0
 10
3.699593160727654
 20
-2.183708981739015
 30
0.0
 10
3.708645720509961
 20
-2.186989838076341
 30
0.0
 10
3.717703645032224
 20
-2.190272638719091
 30
0.0
 10
3.725753191696284
 20
-2.194382034718355
 30
0.0
 10
3.732130597367967
 20
-2.198977734169743
 30
0.0
 10
3.736119807240202
 20
-2.201852446955023
 30
0.0
 10
3.739521295481616
 20
-2.204954240073768
 30
0.0
 10
3.742224227384027
 20
-2.208181617063178
 30
0.0
 10
3.746556147884474
 20
-2.213354052421474
 30
0.0
 10
3.749161252349874
 20
-2.218971850087793
 30
0.0
 10
3.749824568161554
 20
-2.224569659871521
 30
0.0
 10
3.749941471593226
 20
-2.225556223378736
 30
0.0
 10
3.750000000000794
 20
-2.226544949166911
 30
0.0
 10
3.750000000000796
 20
-2.227533242724946
 30
0.0
  0
SPLINE
  5
95
330
1F
100
AcDbEntity
  8
SK1
  6
Continuous
100
AcDbSpline
210
0.0
220
0.0
230
1.0
 70
     8
 71
     3
 72
     8
 73
     4
 74
     0
 42
0.0000000040450416
 43
0.0000000001
 12
1.0
 22
0.0
 32
0.0
 13
1.0
 23
0.0
 33
0.0
 40
0.0
 40
0.0
 40
0.0
 40
0.0
 40
1.0
 40
1.0
 40
1.0
 40
1.0
 10
3.750000000000796
 20
-2.727979922150276
 30
0.0
 10
4.541711652870563
 20
-2.499263222432343
 30
0.0
 10
5.33339215107282
 20
-2.270519545120108
 30
0.0
 10
6.125000000000798
 20
-2.041713137496983
 30
0.0
  0
SPLINE
  5
96
330
1F
100
AcDbEntity
  8
SK1
  6
Continuous
100
AcDbSpline
210
0.0
220
0.0
230
1.0
 70
     8
 71
     3
 72
    10
 73
     6
 74
     0
 42
0.0000000557548262
 43
0.0000000001
 12
1.0
 22
0.0
 32
0.0
 13
1.0
 23
0.0
 33
0.0
 40
0.0
 40
0.0
 40
0.0
 40
0.0
 40
0.5
 40
0.5
 40
1.0
 40
1.0
 40
1.0
 40
1.0
 10
6.125000000000798
 20
-2.041713137496983
 30
0.0
 10
6.162588024094397
 20
-2.030848691453208
 30
0.0
 10
6.194954277884038
 20
-2.014625590352285
 30
0.0
 10
6.238262796914081
 20
-1.976998835471863
 30
0.0
 10
6.250000000000797
 20
-1.955309136127558
 30
0.0
 10
6.250000000000797
 20
-1.933316135968945
 30
0.0
  0
LINE
  5
97
330
1F
100
AcDbEntity
  8
SK3
100
AcDbLine
 10
-7.7185033381
 20
-0.9363701136
 30
0.0
 11
-7.75
 21
-0.9448556161
 31
0.0
  0
LINE
  5
98
330
1F
100
AcDbEntity
  8
SK3
100
AcDbLine
 10
6.05
 20
-0.9363701136
 30
0.0
 11
-7.7185033381
 21
-0.9363701136
 31
0.0
  0
LINE
  5
99
330
1F
100
AcDbEntity
  8
SK1
  6
Continuous
100
AcDbLine
 10
-7.75
 20
-2.39941805
 30
0.0
 11
1.75
 21
-3.0676536859
 31
0.0
  0
SPLINE
  5
9A
330
1F
100
AcDbEntity
  8
SK1
  6
Continuous
100
AcDbSpline
210
0.0
220
0.0
230
1.0
 70
     8
 71
     3
 72
    23
 73
    19
 74
     0
 42
0.000000082312202
 43
0.0000000001
 12
1.0
 22
0.0
 32
0.0
 13
1.0
 23
0.0
 33
0.0
 40
0.0
 40
0.0
 40
0.0
 40
0.0
 40
0.1060383342380502
 40
0.1060383342380502
 40
0.1060383342380502
 40
0.2398832645084623
 40
0.2398832645084623
 40
0.2398832645084623
 40
0.4549224522257639
 40
0.4549224522257639
 40
0.4549224522257639
 40
0.6699730152661035
 40
0.6699730152661035
 40
0.6699730152661035
 40
0.8848551123182598
 40
0.8848551123182598
 40
0.8848551123182598
 40
1.0
 40
1.0
 40
1.0
 40
1.0
 10
1.750000000000794
 20
-2.617244674427944
 30
0.0
 10
1.750000000000794
 20
-2.614472165184142
 30
0.0
 10
1.75046338481377
 20
-2.611690155399032
 30
0.0
 10
1.751380657901606
 20
-2.608955843780444
 30
0.0
 10
1.752544326295754
 20
-2.605487049097052
 30
0.0
 10
1.754453016949206
 20
-2.602061118984647
 30
0.0
 10
1.757043980355549
 20
-2.598791135078699
 30
0.0
 10
1.761170624510881
 20
-2.593583010587063
 30
0.0
 10
1.767151213103119
 20
-2.588658996051945
 30
0.0
 10
1.77449225335936
 20
-2.584427076782202
 30
0.0
 10
1.781833521536622
 20
-2.580195026121902
 30
0.0
 10
1.790738120114122
 20
-2.576538400864233
 30
0.0
 10
1.800468750088777
 20
-2.573761258902063
 30
0.0
 10
1.810191795693745
 20
-2.570986281534721
 30
0.0
 10
1.821008142759341
 20
-2.569012850994151
 30
0.0
 10
1.83202082597181
 20
-2.568005326570734
 30
0.0
 10
1.837940229092611
 20
-2.567463774334899
 30
0.0
 10
1.843982321997639
 20
-2.567189646102569
 30
0.0
 10
1.850000000004918
 20
-2.567189646089776
 30
0.0
  0
LINE
  5
9B
330
1F
100
AcDbEntity
  8
SK1
  6
Continuous
100
AcDbLine
 10
1.85
 20
-2.5671896461
 30
0.0
 11
3.65
 21
-2.5671896461
 31
0.0
  0
SPLINE
  5
9C
330
1F
100
AcDbEntity
  8
SK1
  6
Continuous
100
AcDbSpline
210
0.0
220
0.0
230
1.0
 70
     8
 71
     3
 72
    23
 73
    19
 74
     0
 42
0.0000000822436666
 43
0.0000000001
 12
1.0
 22
0.0
 32
0.0
 13
1.0
 23
0.0
 33
0.0
 40
0.0
 40
0.0
 40
0.0
 40
0.0
 40
0.1846839083358811
 40
0.1846839083358811
 40
0.1846839083358811
 40
0.399281967796753
 40
0.399281967796753
 40
0.399281967796753
 40
0.6140065032247375
 40
0.6140065032247375
 40
0.6140065032247375
 40
0.7471534523961192
 40
0.7471534523961192
 40
0.7471534523961192
 40
0.9624264908622304
 40
0.9624264908622304
 40
0.9624264908622304
 40
1.0
 40
1.0
 40
1.0
 40
1.0
 10
3.650000000000793
 20
-2.567189646102703
 30
0.0
 10
3.659624579207835
 20
-2.567189646102702
 30
0.0
 10
3.669348044748012
 20
-2.567899804041889
 30
0.0
 10
3.678570600710246
 20
-2.569276120360555
 30
0.0
 10
3.689284142976869
 20
-2.570874942109389
 30
0.0
 10
3.699593160727653
 20
-2.573420413442013
 30
0.0
 10
3.708645720509959
 20
-2.576701269779338
 30
0.0
 10
3.717703645032222
 20
-2.579984070422088
 30
0.0
 10
3.725753191696282
 20
-2.584093466421352
 30
0.0
 10
3.732130597367966
 20
-2.58868916587274
 30
0.0
 10
3.736119807240201
 20
-2.59156387865802
 30
0.0
 10
3.739521295481616
 20
-2.594665671776765
 30
0.0
 10
3.742224227384026
 20
-2.597893048766175
 30
0.0
 10
3.746556147884474
 20
-2.603065484124471
 30
0.0
 10
3.749161252349874
 20
-2.60868328179079
 30
0.0
 10
3.749824568161554
 20
-2.614281091574517
 30
0.0
 10
3.749941471593226
 20
-2.615267655081733
 30
0.0
 10
3.750000000000794
 20
-2.616256380869909
 30
0.0
 10
3.750000000000796
 20
-2.617244674427944
 30
0.0
  0
LINE
  5
9D
330
1F
100
AcDbEntity
  8
SK1
  6
Continuous
100
AcDbLine
 10
3.75
 20
-2.7279799222
 30
0.0
 11
3.75
 21
-3.1176913539
 31
0.0
  0
SPLINE
  5
9E
330
1F
100
AcDbEntity
  8
SK1
  6
Continuous
100
AcDbSpline
210
0.0
220
0.0
230
1.0
 70
     8
 71
     3
 72
     8
 73
     4
 74
     0
 42
0.0000000040450416
 43
0.0000000001
 12
1.0
 22
0.0
 32
0.0
 13
1.0
 23
0.0
 33
0.0
 40
0.0
 40
0.0
 40
0.0
 40
0.0
 40
1.0
 40
1.0
 40
1.0
 40
1.0
 10
3.750000000000796
 20
-3.117691353853273
 30
0.0
 10
4.541711652870564
 20
-2.888974654135341
 30
0.0
 10
5.33339215107282
 20
-2.660230976823105
 30
0.0
 10
6.125000000000798
 20
-2.43142456919998
 30
0.0
  0
SPLINE
  5
9F
330
1F
100
AcDbEntity
  8
SK1
  6
Continuous
100
AcDbSpline
210
0.0
220
0.0
230
1.0
 70
     8
 71
     3
 72
    10
 73
     6
 74
     0
 42
0.0000000557548262
 43
0.0000000001
 12
1.0
 22
0.0
 32
0.0
 13
1.0
 23
0.0
 33
0.0
 40
0.0
 40
0.0
 40
0.0
 40
0.0
 40
0.5
 40
0.5
 40
1.0
 40
1.0
 40
1.0
 40
1.0
 10
6.125000000000798
 20
-2.43142456919998
 30
0.0
 10
6.162588024094395
 20
-2.420560123156205
 30
0.0
 10
6.194954277884038
 20
-2.404337022055282
 30
0.0
 10
6.238262796914081
 20
-2.366710267174861
 30
0.0
 10
6.250000000000797
 20
-2.345020567830557
 30
0.0
 10
6.250000000000797
 20
-2.323027567671943
 30
0.0
  0
LINE
  5
A0
330
1F
100
AcDbEntity
  8
SK1
  6
Continuous
100
AcDbLine
 10
6.25
 20
-2.3230275677
 30
0.0
 11
6.25
 21
-1.933316136
 31
0.0
  0
SPLINE
  5
A1
330
1F
100
AcDbEntity
  8
SK3
100
AcDbSpline
210
0.0
220
0.0
230
1.0
 70
     8
 71
     3
 72
    10
 73
     6
 74
     0
 42
0.0000000401876441
 43
0.0000000001
 12
1.0
 22
0.0
 32
0.0
 13
1.0
 23
0.0
 33
0.0
 40
0.0
 40
0.0
 40
0.0
 40
0.0
 40
0.5
 40
0.5
 40
1.0
 40
1.0
 40
1.0
 40
1.0
 10
6.050000000000832
 20
-0.5466586818757107
 30
0.0
 10
6.102456836628269
 20
-0.5466586818759996
 30
0.0
 10
6.155192561323847
 20
-0.5578421253565367
 30
0.0
 10
6.228583553501324
 20
-0.5951718203648376
 30
0.0
 10
6.250000000000797
 20
-0.6213977095502289
 30
0.0
 10
6.250000000000797
 20
-0.6476664392767387
 30
0.0
  0
LINE
  5
A2
330
1F
100
AcDbEntity
  8
SK3
100
AcDbLine
 10
-7.7185033381
 20
-0.5466586819
 30
0.0
 11
-7.75
 21
-0.5551441844
 31
0.0
  0
SPLINE
  5
A3
330
1F
100
AcDbEntity
  8
SK3
100
AcDbSpline
210
0.0
220
0.0
230
1.0
 70
     8
 71
     3
 72
    10
 73
     6
 74
     0
 42
0.000000033088536
 43
0.0000000001
 12
1.0
 22
0.0
 32
0.0
 13
1.0
 23
0.0
 33
0.0
 40
0.0
 40
0.0
 40
0.0
 40
0.0
 40
0.5
 40
0.5
 40
1.0
 40
1.0
 40
1.0
 40
1.0
 10
-11.74999999999921
 20
-1.346791252221768
 30
0.0
 10
-11.74999999999921
 20
-1.301428129147877
 30
0.0
 10
-11.72866434787758
 20
-1.255905456326471
 30
0.0
 10
-11.65496536203826
 20
-1.191044510806148
 30
0.0
 10
-11.60309436883775
 20
-1.171840684445079
 30
0.0
 10
-11.5499999999992
 20
-1.171840684445078
 30
0.0
  0
SPLINE
  5
A4
330
1F
100
AcDbEntity
  8
SK3
100
AcDbSpline
210
0.0
220
0.0
230
1.0
 70
     8
 71
     3
 72
    10
 73
     6
 74
     0
 42
0.0000000330849467
 43
0.0000000001
 12
1.0
 22
0.0
 32
0.0
 13
1.0
 23
0.0
 33
0.0
 40
0.0
 40
0.0
 40
0.0
 40
0.0
 40
0.5
 40
0.5
 40
1.0
 40
1.0
 40
1.0
 40
1.0
 10
-11.74999999999921
 20
-1.571791252221767
 30
0.0
 10
-11.74999999999921
 20
-1.526142046861831
 30
0.0
 10
-11.72871873328055
 20
-1.480920785821357
 30
0.0
 10
-11.65476960226666
 20
-1.415904822940995
 30
0.0
 10
-11.60284223359556
 20
-1.396840684445079
 30
0.0
 10
-11.5499999999992
 20
-1.396840684445076
 30
0.0
  0
LINE
  5
A5
330
1F
100
AcDbEntity
  8
SK1
  6
Continuous
100
AcDbLine
 10
-11.75
 20
-3.0675056701
 30
0.0
 11
-11.75
 21
-0.2249999002
 31
0.0
  0
LINE
  5
A6
330
1F
100
AcDbEntity
  8
SK1
  6
Continuous
100
AcDbLine
 10
-11.5778346202
 20
-3.2393303505
 30
0.0
 11
-11.5778346202
 21
-0.2249999002
 31
0.0
  0
LINE
  5
A7
330
1F
100
AcDbEntity
  8
SK1
  6
Continuous
100
AcDbLine
 10
1.75
 20
-4.8633321171
 30
0.0
 11
1.75
 21
-3.0676536859
 31
0.0
  0
LINE
  5
A8
330
1F
100
AcDbEntity
  8
SK1
  6
Continuous
100
AcDbLine
 10
1.85
 20
-3.9965029728
 30
0.0
 11
1.85
 21
-2.5671896461
 31
0.0
  0
LINE
  5
A9
330
1F
100
AcDbEntity
  8
SK1
  6
Continuous
100
AcDbLine
 10
2.25
 20
-3.9965029728
 30
0.0
 11
2.25
 21
-4.2215029728
 31
0.0
  0
ARC
  5
AA
330
1F
100
AcDbEntity
  8
SK3
100
AcDbCircle
 10
2.0109535297
 20
-1.3149400465
 30
0.0
 40
0.2395748105374534
100
AcDbArc
 50
3.8058682842
 51
36.6771640549
  0
ARC
  5
AB
330
1F
100
AcDbEntity
  8
SK3
100
AcDbCircle
 10
2.1220898018
 20
-1.297843362
 30
0.0
 40
0.1279157768834173
100
AcDbArc
 50
309.2922551065
 51
359.4648897201
  0
ARC
  5
AC
330
1F
100
AcDbEntity
  8
SK3
100
AcDbCircle
 10
-6.0332000175
 20
-27.7638595073
 30
0.0
 40
27.62347282731647
100
AcDbArc
 50
72.550750058
 51
72.6527016516
  0
SPLINE
  5
AD
330
1F
100
AcDbEntity
  8
SK1
  6
Continuous
100
AcDbSpline
210
0.0
220
0.0
230
1.0
 70
     8
 71
     3
 72
    23
 73
    19
 74
     0
 42
0.0000000678275214
 43
0.0000000001
 12
1.0
 22
0.0
 32
0.0
 13
1.0
 23
0.0
 33
0.0
 40
0.0
 40
0.0
 40
0.0
 40
0.0
 40
0.0358229175984895
 40
0.0358229175984895
 40
0.0358229175984895
 40
0.2510766976394448
 40
0.2510766976394448
 40
0.2510766976394448
 40
0.4663208858400358
 40
0.4663208858400358
 40
0.4663208858400358
 40
0.6814110606152384
 40
0.6814110606152384
 40
0.6814110606152384
 40
0.8962683163458642
 40
0.8962683163458642
 40
0.8962683163458642
 40
1.0
 40
1.0
 40
1.0
 40
1.0
 10
1.750000000000794
 20
-4.083200824985497
 30
0.0
 10
1.750000000000793
 20
-4.081568292240394
 30
0.0
 10
1.750053230805995
 20
-4.079935110043377
 30
0.0
 10
1.750159565506754
 20
-4.078305176651365
 30
0.0
 10
1.750792217392077
 20
-4.068607679728492
 30
0.0
 10
1.75336664962892
 20
-4.058870950808487
 30
0.0
 10
1.757670410401341
 20
-4.049901565919574
 30
0.0
 10
1.761973924759854
 20
-4.040932694577138
 30
0.0
 10
1.768125541331366
 20
-4.032483499103642
 30
0.0
 10
1.77561660064846
 20
-4.025255508181993
 30
0.0
 10
1.783102297605231
 20
-4.018032691307178
 30
0.0
 10
1.792132426268225
 20
-4.01182991728006
 30
0.0
 10
1.801958816563368
 20
-4.007163294504516
 30
0.0
 10
1.811774691371144
 20
-4.002501665608857
 30
0.0
 10
1.82265625499502
 20
-3.999244243487927
 30
0.0
 10
1.833701125871789
 20
-3.997662329100567
 30
0.0
 10
1.839079323847846
 20
-3.996892030484013
 30
0.0
 10
1.844548746926392
 20
-3.99650297275188
 30
0.0
 10
1.850000000000797
 20
-3.99650297275188
 30
0.0
  0
LINE
  5
AE
330
1F
100
AcDbEntity
  8
SK1
  6
Continuous
100
AcDbLine
 10
1.85
 20
-3.9965029728
 30
0.0
 11
2.25
 21
-3.9965029728
 31
0.0
  0
ARC
  5
AF
330
1F
100
AcDbEntity
  8
SK3
100
AcDbCircle
 10
-6.0332000171
 20
-27.538859506
 30
0.0
 40
27.62347282595238
100
AcDbArc
 50
72.550750058
 51
72.6527016516
  0
LINE
  5
B0
330
1F
100
AcDbEntity
  8
SK3
100
AcDbLine
 10
2.2030958271
 20
-1.1718406844
 30
0.0
 11
-11.55
 21
-1.1718406844
 31
0.0
  0
SPLINE
  5
B1
330
1F
100
AcDbEntity
  8
SK1
  6
Continuous
100
AcDbSpline
210
0.0
220
0.0
230
1.0
 70
     8
 71
     3
 72
    10
 73
     6
 74
     0
 42
0.0000000368296852
 43
0.0000000001
 12
1.0
 22
0.0
 32
0.0
 13
1.0
 23
0.0
 33
0.0
 40
0.0
 40
0.0
 40
0.0
 40
0.0
 40
0.5
 40
0.5
 40
1.0
 40
1.0
 40
1.0
 40
1.0
 10
-11.7499999999992
 20
-3.067505670070306
 30
0.0
 10
-11.74999999999921
 20
-3.108670197157253
 30
0.0
 10
-11.73215690820238
 20
-3.150143903186488
 30
0.0
 10
-11.66992734617997
 20
-3.212344310946538
 30
0.0
 10
-11.62525746873186
 20
-3.233548678831554
 30
0.0
 10
-11.57783462019122
 20
-3.239330350507136
 30
0.0
  0
SPLINE
  5
B2
330
1F
100
AcDbEntity
  8
SK1
  6
Continuous
100
AcDbSpline
210
0.0
220
0.0
230
1.0
 70
     8
 71
     3
 72
    11
 73
     7
 74
     0
 42
0.0000000007448006
 43
0.0000000001
 12
1.0
 22
0.0
 32
0.0
 13
1.0
 23
0.0
 33
0.0
 40
0.0
 40
0.0
 40
0.0
 40
0.0
 40
0.5056987538629509
 40
0.5056987538629509
 40
0.5056987538629509
 40
1.0
 40
1.0
 40
1.0
 40
1.0
 10
-11.57783462019122
 20
-3.239330350507136
 30
0.0
 10
-9.33123550190637
 20
-3.513229934532271
 30
0.0
 10
-7.084619057034523
 20
-3.787022934224569
 30
0.0
 10
-4.837993842416936
 20
-4.060761933311638
 30
0.0
 10
-2.642003373525117
 20
-4.328331365475034
 30
0.0
 10
-0.4460042188518913
 20
-4.595847334848693
 30
0.0
 10
1.750000000000794
 20
-4.863332117054946
 30
0.0
  0
SPLINE
  5
B3
330
1F
100
AcDbEntity
  8
SK1
  6
Continuous
100
AcDbSpline
210
0.0
220
0.0
230
1.0
 70
     8
 71
     3
 72
    23
 73
    19
 74
     0
 42
0.0000000678275214
 43
0.0000000001
 12
1.0
 22
0.0
 32
0.0
 13
1.0
 23
0.0
 33
0.0
 40
0.0
 40
0.0
 40
0.0
 40
0.0
 40
0.0358229175982969
 40
0.0358229175982969
 40
0.0358229175982969
 40
0.2510766976392514
 40
0.2510766976392514
 40
0.2510766976392514
 40
0.4663208858398523
 40
0.4663208858398523
 40
0.4663208858398523
 40
0.6814110606150501
 40
0.6814110606150501
 40
0.6814110606150501
 40
0.8962683163456778
 40
0.8962683163456778
 40
0.8962683163456778
 40
1.0
 40
1.0
 40
1.0
 40
1.0
 10
1.750000000000794
 20
-4.308200824985497
 30
0.0
 10
1.750000000000793
 20
-4.306568292240403
 30
0.0
 10
1.750053230805994
 20
-4.304935110043393
 30
0.0
 10
1.750159565506752
 20
-4.303305176651391
 30
0.0
 10
1.750792217392072
 20
-4.293607679728518
 30
0.0
 10
1.753366649628912
 20
-4.28387095080851
 30
0.0
 10
1.757670410401329
 20
-4.274901565919595
 30
0.0
 10
1.761973924759839
 20
-4.265932694577159
 30
0.0
 10
1.768125541331348
 20
-4.257483499103661
 30
0.0
 10
1.775616600648441
 20
-4.250255508182011
 30
0.0
 10
1.78310229760521
 20
-4.243032691307194
 30
0.0
 10
1.792132426268201
 20
-4.236829917280076
 30
0.0
 10
1.801958816563342
 20
-4.23216329450453
 30
0.0
 10
1.811774691371116
 20
-4.227501665608868
 30
0.0
 10
1.822656254994992
 20
-4.224244243487933
 30
0.0
 10
1.83370112587176
 20
-4.222662329100571
 30
0.0
 10
1.839079323847826
 20
-4.221892030484015
 30
0.0
 10
1.844548746926382
 20
-4.22150297275188
 30
0.0
 10
1.850000000000797
 20
-4.221502972751878
 30
0.0
  0
LINE
  5
B4
330
1F
100
AcDbEntity
  8
SK1
  6
Continuous
100
AcDbLine
 10
1.85
 20
-4.2215029728
 30
0.0
 11
2.25
 21
-4.2215029728
 31
0.0
  0
LINE
  5
B5
330
1F
100
AcDbEntity
  8
SK3
100
AcDbLine
 10
2.2030958271
 20
-1.3968406844
 30
0.0
 11
-11.55
 21
-1.3968406844
 31
0.0
  0
LINE
  5
B6
330
1F
100
AcDbEntity
  8
SK1
  6
Continuous
100
AcDbLine
 10
-11.75
 20
-3.0675056701
 30
0.0
 11
-11.75
 21
-3.2925056701
 31
0.0
  0
SPLINE
  5
B7
330
1F
100
AcDbEntity
  8
SK1
  6
Continuous
100
AcDbSpline
210
0.0
220
0.0
230
1.0
 70
     8
 71
     3
 72
    10
 73
     6
 74
     0
 42
0.0000000368296852
 43
0.0000000001
 12
1.0
 22
0.0
 32
0.0
 13
1.0
 23
0.0
 33
0.0
 40
0.0
 40
0.0
 40
0.0
 40
0.0
 40
0.5
 40
0.5
 40
1.0
 40
1.0
 40
1.0
 40
1.0
 10
-11.7499999999992
 20
-3.292505670070304
 30
0.0
 10
-11.74999999999921
 20
-3.333670197157252
 30
0.0
 10
-11.73215690820238
 20
-3.375143903186489
 30
0.0
 10
-11.66992734617996
 20
-3.437344310946538
 30
0.0
 10
-11.62525746873187
 20
-3.458548678831554
 30
0.0
 10
-11.57783462019122
 20
-3.464330350507136
 30
0.0
  0
SPLINE
  5
B8
330
1F
100
AcDbEntity
  8
SK1
  6
Continuous
100
AcDbSpline
210
0.0
220
0.0
230
1.0
 70
     8
 71
     3
 72
    11
 73
     7
 74
     0
 42
0.0000000007448006
 43
0.0000000001
 12
1.0
 22
0.0
 32
0.0
 13
1.0
 23
0.0
 33
0.0
 40
0.0
 40
0.0
 40
0.0
 40
0.0
 40
0.5056987538629512
 40
0.5056987538629512
 40
0.5056987538629512
 40
1.0
 40
1.0
 40
1.0
 40
1.0
 10
-11.57783462019122
 20
-3.464330350507136
 30
0.0
 10
-9.33123550190637
 20
-3.738229934532271
 30
0.0
 10
-7.084619057034521
 20
-4.012022934224569
 30
0.0
 10
-4.837993842416934
 20
-4.285761933311639
 30
0.0
 10
-2.642003373525116
 20
-4.553331365475033
 30
0.0
 10
-0.4460042188518913
 20
-4.820847334848692
 30
0.0
 10
1.750000000000794
 20
-5.088332117054946
 30
0.0
  0
LINE
  5
B9
330
1F
100
AcDbEntity
  8
SK1
  6
Continuous
100
AcDbLine
 10
1.75
 20
-5.0883321171
 30
0.0
 11
1.75
 21
-4.8633321171
 31
0.0
  0
LINE
  5
BA
330
1F
100
AcDbEntity
  8
SK3
100
AcDbLine
 10
2.25
 20
-3.9965029728
 30
0.0
 11
2.25
 21
-1.1865380059
 31
0.0
  0
LINE
  5
BB
330
1F
100
AcDbEntity
  8
SK1
  6
Continuous
100
AcDbLine
 10
1.75
 20
3.0676538854
 30
0.0
 11
1.75
 21
4.8633323166
 31
0.0
  0
LINE
  5
BC
330
1F
100
AcDbEntity
  8
SK1
  6
Continuous
100
AcDbLine
 10
1.75
 20
3.0676538854
 30
0.0
 11
1.75
 21
2.6779424537
 31
0.0
  0
LINE
  5
BD
330
1F
100
AcDbEntity
  8
SK1
  6
Continuous
100
AcDbLine
 10
1.85
 20
2.5671898456
 30
0.0
 11
1.85
 21
3.9965031723
 31
0.0
  0
LINE
  5
BE
330
1F
100
AcDbEntity
  8
SK1
  6
Continuous
100
AcDbLine
 10
3.65
 20
2.5671898456
 30
0.0
 11
3.65
 21
4.7446681598
 31
0.0
  0
LINE
  5
BF
330
1F
100
AcDbEntity
  8
SK1
  6
Continuous
100
AcDbLine
 10
3.75
 20
3.1176915534
 30
0.0
 11
3.75
 21
5.8456715753
 31
0.0
  0
LINE
  5
C0
330
1F
100
AcDbEntity
  8
SK1
  6
Continuous
100
AcDbLine
 10
6.125
 20
2.4314247687
 30
0.0
 11
6.125
 21
4.473138006
 31
0.0
  0
LINE
  5
C1
330
1F
100
AcDbEntity
  8
SK1
  6
Continuous
100
AcDbLine
 10
6.25
 20
2.3230277672
 30
0.0
 11
6.25
 21
4.256344003
 31
0.0
  0
LINE
  5
C2
330
1F
100
AcDbEntity
  8
SK1
  6
Continuous
100
AcDbLine
 10
-7.75
 20
2.0097068178
 30
0.0
 11
-7.75
 21
2.3994182495
 31
0.0
  0
ARC
  5
C3
330
1F
100
AcDbEntity
  8
SK3
100
AcDbCircle
 10
-7.199322479
 20
0.7527818984
 30
0.0
 40
0.5506845472268378
100
AcDbArc
 50
160.5258108699
 51
180.2894324842
  0
ARC
  5
C4
330
1F
100
AcDbEntity
  8
SK3
100
AcDbCircle
 10
-7.0395061564
 20
0.7559425199
 30
0.0
 40
0.7105186937065533
100
AcDbArc
 50
180.4791985977
 51
197.1305855151
  0
LINE
  5
C5
330
1F
100
AcDbEntity
  8
SK3
100
AcDbLine
 10
-7.75
 20
0.5551443839
 30
0.0
 11
-7.75
 21
2.0097068178
 31
0.0
  0
SPLINE
  5
C6
330
1F
100
AcDbEntity
  8
SK3
100
AcDbSpline
210
0.0
220
0.0
230
1.0
 70
     8
 71
     3
 72
    10
 73
     6
 74
     0
 42
0.0000000401819144
 43
0.0000000001
 12
1.0
 22
0.0
 32
0.0
 13
1.0
 23
0.0
 33
0.0
 40
0.0
 40
0.0
 40
0.0
 40
0.0
 40
0.4999999999999999
 40
0.4999999999999999
 40
1.0
 40
1.0
 40
1.0
 40
1.0
 10
6.050000000000793
 20
0.546658881417398
 30
0.0
 10
6.102709961459839
 20
0.5466588814173973
 30
0.0
 10
6.154972822332787
 20
0.5577683843833391
 30
0.0
 10
6.228518071732338
 20
0.5951010318348895
 30
0.0
 10
6.250000000000793
 20
0.6212873673286764
 30
0.0
 10
6.250000000000797
 20
0.6476666388181478
 30
0.0
  0
LINE
  5
C7
330
1F
100
AcDbEntity
  8
SK3
100
AcDbLine
 10
6.05
 20
0.9363703131
 30
0.0
 11
-7.7185033381
 21
0.9363703131
 31
0.0
  0
LINE
  5
C8
330
1F
100
AcDbEntity
  8
SK1
  6
Continuous
100
AcDbLine
 10
-7.75
 20
2.3994182495
 30
0.0
 11
1.75
 21
3.0676538854
 31
0.0
  0
SPLINE
  5
C9
330
1F
100
AcDbEntity
  8
SK1
  6
Continuous
100
AcDbSpline
210
0.0
220
0.0
230
1.0
 70
     8
 71
     3
 72
    23
 73
    19
 74
     0
 42
0.000000082208697
 43
0.0000000001
 12
1.0
 22
0.0
 32
0.0
 13
1.0
 23
0.0
 33
0.0
 40
0.0
 40
0.0
 40
0.0
 40
0.0
 40
0.0358229176006288
 40
0.0358229176006288
 40
0.0358229176006288
 40
0.251076697641587
 40
0.251076697641587
 40
0.251076697641587
 40
0.4663208858421888
 40
0.4663208858421888
 40
0.4663208858421888
 40
0.6814110606173852
 40
0.6814110606173852
 40
0.6814110606173852
 40
0.8962683163480132
 40
0.8962683163480132
 40
0.8962683163480132
 40
1.0
 40
1.0
 40
1.0
 40
1.0
 10
1.750000000000794
 20
2.617244873969351
 30
0.0
 10
1.750000000000793
 20
2.61630233074945
 30
0.0
 10
1.750053230806001
 20
2.615359412568308
 30
0.0
 10
1.750159565506773
 20
2.614418370085614
 30
0.0
 10
1.750792217392133
 20
2.608819517626729
 30
0.0
 10
1.753366649629015
 20
2.603198014563741
 30
0.0
 10
1.757670410401471
 20
2.598019537783669
 30
0.0
 10
1.761973924760018
 20
2.592841357499794
 30
0.0
 10
1.768125541331564
 20
2.587963212218746
 30
0.0
 10
1.775616600648686
 20
2.583790129714445
 30
0.0
 10
1.783102297605484
 20
2.579620034447476
 30
0.0
 10
1.792132426268503
 20
2.576038861193212
 30
0.0
 10
1.801958816563662
 20
2.573344585277561
 30
0.0
 10
1.811774691371457
 20
2.570653192579807
 30
0.0
 10
1.822656254995347
 20
2.568772519041442
 30
0.0
 10
1.833701125872122
 20
2.567859200344083
 30
0.0
 10
1.83907932384807
 20
2.567414468230478
 30
0.0
 10
1.844548746926504
 20
2.567189845644109
 30
0.0
 10
1.850000000000797
 20
2.567189845644108
 30
0.0
  0
LINE
  5
CA
330
1F
100
AcDbEntity
  8
SK1
  6
Continuous
100
AcDbLine
 10
1.85
 20
2.5671898456
 30
0.0
 11
3.65
 21
2.5671898456
 31
0.0
  0
SPLINE
  5
CB
330
1F
100
AcDbEntity
  8
SK1
  6
Continuous
100
AcDbSpline
210
0.0
220
0.0
230
1.0
 70
     8
 71
     3
 72
    20
 73
    16
 74
     0
 42
0.0000000822210415
 43
0.0000000001
 12
1.0
 22
0.0
 32
0.0
 13
1.0
 23
0.0
 33
0.0
 40
0.0
 40
0.0
 40
0.0
 40
0.0
 40
0.1774221801057076
 40
0.1774221801057076
 40
0.1774221801057076
 40
0.3917967653459456
 40
0.3917967653459456
 40
0.3917967653459456
 40
0.6062634635069926
 40
0.6062634635069926
 40
0.6062634635069926
 40
0.8209529426024753
 40
0.8209529426024753
 40
0.8209529426024753
 40
1.0
 40
1.0
 40
1.0
 40
1.0
 10
3.650000000000793
 20
2.56718984564411
 30
0.0
 10
3.659258347796309
 20
2.567189845644107
 30
0.0
 10
3.668604827491901
 20
2.56784597095157
 30
0.0
 10
3.677505315869777
 20
2.569120560153827
 30
0.0
 10
3.688255076760591
 20
2.570659973338428
 30
0.0
 10
3.698621284755945
 20
2.573148496898665
 30
0.0
 10
3.707746987277381
 20
2.576379521678498
 30
0.0
 10
3.716876680483939
 20
2.579611959390924
 30
0.0
 10
3.725016354913
 20
2.583676499089488
 30
0.0
 10
3.731494775952281
 20
2.58823654221271
 30
0.0
 10
3.737979861356454
 20
2.592801276261561
 30
0.0
 10
3.742978992396838
 20
2.597988224256329
 30
0.0
 10
3.746080384930713
 20
2.603368393510108
 30
0.0
 10
3.748667874767844
 20
2.607857065329023
 30
0.0
 10
3.750000000000794
 20
2.6125734768965
 30
0.0
 10
3.750000000000794
 20
2.61724487396935
 30
0.0
  0
LINE
  5
CC
330
1F
100
AcDbEntity
  8
SK1
  6
Continuous
100
AcDbLine
 10
3.75
 20
2.7279801217
 30
0.0
 11
3.75
 21
3.1176915534
 31
0.0
  0
LINE
  5
CD
330
1F
100
AcDbEntity
  8
SK1
  6
Continuous
100
AcDbLine
 10
3.75
 20
3.1176915534
 30
0.0
 11
6.125
 21
2.4314247687
 31
0.0
  0
SPLINE
  5
CE
330
1F
100
AcDbEntity
  8
SK1
  6
Continuous
100
AcDbSpline
210
0.0
220
0.0
230
1.0
 70
     8
 71
     3
 72
     8
 73
     4
 74
     0
 42
0.0000000532625061
 43
0.0000000001
 12
1.0
 22
0.0
 32
0.0
 13
1.0
 23
0.0
 33
0.0
 40
0.0
 40
0.0
 40
0.0
 40
0.0
 40
1.0
 40
1.0
 40
1.0
 40
1.0
 10
6.125000000000798
 20
2.431424768741386
 30
0.0
 10
6.200674220117484
 20
2.409551884992155
 30
0.0
 10
6.250000000000757
 20
2.366598765722236
 30
0.0
 10
6.25000000000156
 20
2.323027767213389
 30
0.0
  0
LINE
  5
CF
330
1F
100
AcDbEntity
  8
SK1
  6
Continuous
100
AcDbLine
 10
6.25
 20
2.3230277672
 30
0.0
 11
6.25
 21
1.9333163355
 31
0.0
  0
LINE
  5
D0
330
1F
100
AcDbEntity
  8
SK3
100
AcDbLine
 10
-7.7185033381
 20
0.5466588814
 30
0.0
 11
-7.75
 21
0.5551443839
 31
0.0
  0
LINE
  5
D1
330
1F
100
AcDbEntity
  8
SK3
100
AcDbLine
 10
6.05
 20
0.5466588814
 30
0.0
 11
-7.7185033381
 21
0.5466588814
 31
0.0
  0
LINE
  5
D2
330
1F
100
AcDbEntity
  8
SK1
  6
Continuous
100
AcDbLine
 10
-7.75
 20
2.0097068178
 30
0.0
 11
1.75
 21
2.6779424537
 31
0.0
  0
SPLINE
  5
D3
330
1F
100
AcDbEntity
  8
SK1
  6
Continuous
100
AcDbSpline
210
0.0
220
0.0
230
1.0
 70
     8
 71
     3
 72
    23
 73
    19
 74
     0
 42
0.000000082208697
 43
0.0000000001
 12
1.0
 22
0.0
 32
0.0
 13
1.0
 23
0.0
 33
0.0
 40
0.0
 40
0.0
 40
0.0
 40
0.0
 40
0.0358229175982955
 40
0.0358229175982955
 40
0.0358229175982955
 40
0.2510766976392591
 40
0.2510766976392591
 40
0.2510766976392591
 40
0.4663208858398469
 40
0.4663208858398469
 40
0.4663208858398469
 40
0.6814110606150497
 40
0.6814110606150497
 40
0.6814110606150497
 40
0.8962683163456822
 40
0.8962683163456822
 40
0.8962683163456822
 40
1.0
 40
1.0
 40
1.0
 40
1.0
 10
1.750000000000794
 20
2.227533442266354
 30
0.0
 10
1.750000000000793
 20
2.226590899046514
 30
0.0
 10
1.750053230805994
 20
2.225647980865435
 30
0.0
 10
1.750159565506752
 20
2.224706938382801
 30
0.0
 10
1.750792217392072
 20
2.219108085923914
 30
0.0
 10
1.753366649628912
 20
2.213486582860921
 30
0.0
 10
1.757670410401329
 20
2.208308106080841
 30
0.0
 10
1.761973924759839
 20
2.203129925796958
 30
0.0
 10
1.768125541331348
 20
2.198251780515899
 30
0.0
 10
1.775616600648441
 20
2.194078698011583
 30
0.0
 10
1.783102297605209
 20
2.1899086027446
 30
0.0
 10
1.792132426268201
 20
2.186327429490321
 30
0.0
 10
1.801958816563342
 20
2.183633153574652
 30
0.0
 10
1.811774691371117
 20
2.18094176087688
 30
0.0
 10
1.822656254994993
 20
2.179061087338495
 30
0.0
 10
1.833701125871761
 20
2.178147768641117
 30
0.0
 10
1.839079323847826
 20
2.177703036527492
 30
0.0
 10
1.844548746926382
 20
2.177478413941111
 30
0.0
 10
1.850000000000797
 20
2.177478413941111
 30
0.0
  0
LINE
  5
D4
330
1F
100
AcDbEntity
  8
SK1
  6
Continuous
100
AcDbLine
 10
1.85
 20
2.1774784139
 30
0.0
 11
3.65
 21
2.1774784139
 31
0.0
  0
SPLINE
  5
D5
330
1F
100
AcDbEntity
  8
SK1
  6
Continuous
100
AcDbSpline
210
0.0
220
0.0
230
1.0
 70
     8
 71
     3
 72
    20
 73
    16
 74
     0
 42
0.0000000822210415
 43
0.0000000001
 12
1.0
 22
0.0
 32
0.0
 13
1.0
 23
0.0
 33
0.0
 40
0.0
 40
0.0
 40
0.0
 40
0.0
 40
0.1774221801058849
 40
0.1774221801058849
 40
0.1774221801058849
 40
0.3917967653461252
 40
0.3917967653461252
 40
0.3917967653461252
 40
0.6062634635071671
 40
0.6062634635071671
 40
0.6062634635071671
 40
0.8209529426026569
 40
0.8209529426026569
 40
0.8209529426026569
 40
1.0
 40
1.0
 40
1.0
 40
1.0
 10
3.650000000000793
 20
2.177478413941113
 30
0.0
 10
3.659258347796319
 20
2.177478413941111
 30
0.0
 10
3.668604827491919
 20
2.178134539248574
 30
0.0
 10
3.677505315869804
 20
2.179409128450834
 30
0.0
 10
3.688255076760617
 20
2.180948541635435
 30
0.0
 10
3.69862128475597
 20
2.183437065195673
 30
0.0
 10
3.707746987277404
 20
2.186668089975508
 30
0.0
 10
3.71687668048396
 20
2.189900527687936
 30
0.0
 10
3.72501635491302
 20
2.193965067386502
 30
0.0
 10
3.731494775952297
 20
2.198525110509725
 30
0.0
 10
3.737979861356468
 20
2.203089844558577
 30
0.0
 10
3.742978992396848
 20
2.208276792553344
 30
0.0
 10
3.746080384930721
 20
2.213656961807124
 30
0.0
 10
3.748667874767847
 20
2.218145633626035
 30
0.0
 10
3.750000000000794
 20
2.222862045193509
 30
0.0
 10
3.750000000000794
 20
2.227533442266354
 30
0.0
  0
LINE
  5
D6
330
1F
100
AcDbEntity
  8
SK1
  6
Continuous
100
AcDbLine
 10
3.75
 20
2.7279801217
 30
0.0
 11
6.125
 21
2.041713337
 31
0.0
  0
SPLINE
  5
D7
330
1F
100
AcDbEntity
  8
SK1
  6
Continuous
100
AcDbSpline
210
0.0
220
0.0
230
1.0
 70
     8
 71
     3
 72
     8
 73
     4
 74
     0
 42
0.0000000532625061
 43
0.0000000001
 12
1.0
 22
0.0
 32
0.0
 13
1.0
 23
0.0
 33
0.0
 40
0.0
 40
0.0
 40
0.0
 40
0.0
 40
1.0
 40
1.0
 40
1.0
 40
1.0
 10
6.125000000000798
 20
2.041713337038388
 30
0.0
 10
6.200674220117484
 20
2.019840453289159
 30
0.0
 10
6.250000000000757
 20
1.97688733401924
 30
0.0
 10
6.25000000000156
 20
1.933316335510392
 30
0.0
  0
SPLINE
  5
D8
330
1F
100
AcDbEntity
  8
SK3
100
AcDbSpline
210
0.0
220
0.0
230
1.0
 70
     8
 71
     3
 72
    10
 73
     6
 74
     0
 42
0.0000000401819144
 43
0.0000000001
 12
1.0
 22
0.0
 32
0.0
 13
1.0
 23
0.0
 33
0.0
 40
0.0
 40
0.0
 40
0.0
 40
0.0
 40
0.5
 40
0.5
 40
1.0
 40
1.0
 40
1.0
 40
1.0
 10
6.050000000000793
 20
0.9363703131203942
 30
0.0
 10
6.102709961459837
 20
0.9363703131203938
 30
0.0
 10
6.154972822332785
 20
0.9474798160863362
 30
0.0
 10
6.228518071732338
 20
0.9848124635378872
 30
0.0
 10
6.250000000000793
 20
1.01099879903167
 30
0.0
 10
6.250000000000797
 20
1.037378070521145
 30
0.0
  0
LINE
  5
D9
330
1F
100
AcDbEntity
  8
SK3
100
AcDbLine
 10
-7.7185033381
 20
0.9363703131
 30
0.0
 11
-7.75
 21
0.9448558156
 31
0.0
  0
LINE
  5
DA
330
1F
100
AcDbEntity
  8
SK1
  6
Continuous
100
AcDbLine
 10
-11.75
 20
0.2250000998
 30
0.0
 11
-11.75
 21
3.0675058696
 31
0.0
  0
LINE
  5
DB
330
1F
100
AcDbEntity
  8
SK1
  6
Continuous
100
AcDbLine
 10
-11.5778346202
 20
0.2250000998
 30
0.0
 11
-11.5778346202
 21
3.2393305501
 31
0.0
  0
LINE
  5
DC
330
1F
100
AcDbEntity
  8
SK1
  6
Continuous
100
AcDbLine
 10
1.75
 20
0.2250000998
 30
0.0
 11
1.75
 21
2.6779424537
 31
0.0
  0
LINE
  5
DD
330
1F
100
AcDbEntity
  8
SK1
  6
Continuous
100
AcDbLine
 10
1.85
 20
0.2250000998
 30
0.0
 11
1.85
 21
2.1774784139
 31
0.0
  0
LINE
  5
DE
330
1F
100
AcDbEntity
  8
SK1
  6
Continuous
100
AcDbLine
 10
2.25
 20
0.2250000998
 30
0.0
 11
2.25
 21
-0.2249999002
 31
0.0
  0
ARC
  5
DF
330
1F
100
AcDbEntity
  8
SK1
  6
Continuous
100
AcDbCircle
 10
1.6678373444
 20
-0.0039703764
 30
0.0
 40
0.5821761952232766
100
AcDbArc
 50
0.3907636474
 51
23.160053456
  0
ARC
  5
E0
330
1F
100
AcDbEntity
  8
SK1
  6
Continuous
100
AcDbCircle
 10
1.6680172578
 20
0.0039330707
 30
0.0
 40
0.5819960313727764
100
AcDbArc
 50
336.836375143
 51
359.6128077537
  0
LINE
  5
E1
330
1F
100
AcDbEntity
  8
SK1
  6
Continuous
100
AcDbLine
 10
1.75
 20
0.2250000998
 30
0.0
 11
1.85
 21
0.2250000998
 31
0.0
  0
LINE
  5
E2
330
1F
100
AcDbEntity
  8
SK1
  6
Continuous
100
AcDbLine
 10
1.85
 20
0.2250000998
 30
0.0
 11
2.25
 21
0.2250000998
 31
0.0
  0
LINE
  5
E3
330
1F
100
AcDbEntity
  8
SK1
  6
Continuous
100
AcDbLine
 10
-11.75
 20
0.2250000998
 30
0.0
 11
-11.5778346202
 21
0.2250000998
 31
0.0
  0
LINE
  5
E4
330
1F
100
AcDbEntity
  8
SK1
  6
Continuous
100
AcDbLine
 10
-11.5778346202
 20
0.2250000998
 30
0.0
 11
1.75
 21
0.2250000998
 31
0.0
  0
LINE
  5
E5
330
1F
100
AcDbEntity
  8
SK1
  6
Continuous
100
AcDbLine
 10
1.75
 20
-0.2249999002
 30
0.0
 11
1.85
 21
-0.2249999002
 31
0.0
  0
LINE
  5
E6
330
1F
100
AcDbEntity
  8
SK1
  6
Continuous
100
AcDbLine
 10
1.85
 20
-0.2249999002
 30
0.0
 11
2.25
 21
-0.2249999002
 31
0.0
  0
LINE
  5
E7
330
1F
100
AcDbEntity
  8
SK1
  6
Continuous
100
AcDbLine
 10
-11.75
 20
-0.2249999002
 30
0.0
 11
-11.5778346202
 21
-0.2249999002
 31
0.0
  0
LINE
  5
E8
330
1F
100
AcDbEntity
  8
SK1
  6
Continuous
100
AcDbLine
 10
-11.5778346202
 20
-0.2249999002
 30
0.0
 11
1.75
 21
-0.2249999002
 31
0.0
  0
SPLINE
  5
E9
330
1F
100
AcDbEntity
  8
SK3
100
AcDbSpline
210
0.0
220
0.0
230
1.0
 70
     8
 71
     3
 72
    10
 73
     6
 74
     0
 42
0.0000000308957402
 43
0.0000000001
 12
1.0
 22
0.0
 32
0.0
 13
1.0
 23
0.0
 33
0.0
 40
0.0
 40
0.0
 40
0.0
 40
0.0
 40
0.5
 40
0.5
 40
1.0
 40
1.0
 40
1.0
 40
1.0
 10
6.050000000000793
 20
1.483029094767085
 30
0.0
 10
6.102709961459833
 20
1.483029094767087
 30
0.0
 10
6.154972822332785
 20
1.50524810069897
 30
0.0
 10
6.228518071732338
 20
1.57991339560207
 30
0.0
 10
6.250000000000793
 20
1.632286066589638
 30
0.0
 10
6.250000000000793
 20
1.685044609568586
 30
0.0
  0
LINE
  5
EA
330
1F
100
AcDbEntity
  8
SK1
  6
Continuous
100
AcDbLine
 10
-7.75
 20
4.4148621701
 30
0.0
 11
-7.75
 21
4.4091249676
 31
0.0
  0
LINE
  5
EB
330
1F
100
AcDbEntity
  8
SK3
100
AcDbLine
 10
-7.75
 20
2.3994182495
 30
0.0
 11
-7.75
 21
4.4091249676
 31
0.0
  0
ARC
  5
EC
330
1F
100
AcDbEntity
  8
SK3
100
AcDbCircle
 10
4.124342087
 20
23.5000000998
 30
0.0
 40
25.0
100
AcDbArc
 50
241.6423634237
 51
241.7243602283
  0
SPLINE
  5
ED
330
1F
100
AcDbEntity
  8
SK1
  6
Continuous
100
AcDbSpline
210
0.0
220
0.0
230
1.0
 70
     8
 71
     3
 72
    11
 73
     7
 74
     0
 42
0.0000000010423673
 43
0.0000000001
 12
1.0
 22
0.0
 32
0.0
 13
1.0
 23
0.0
 33
0.0
 40
0.0
 40
0.0
 40
0.0
 40
0.0
 40
0.8079120727779493
 40
0.8079120727779493
 40
0.8079120727779493
 40
1.0
 40
1.0
 40
1.0
 40
1.0
 10
-7.749999999999188
 20
4.409124967589088
 30
0.0
 10
-5.191626778842456
 20
4.769148733732856
 30
0.0
 10
-2.633238364669961
 20
5.12906453933829
 30
0.0
 10
-0.0748422555447597
 20
5.488925623276584
 30
0.0
 10
0.5334380541127566
 20
5.574485639097012
 30
0.0
 10
1.141718825729663
 20
5.660042370712207
 30
0.0
 10
1.750000000000794
 20
5.745596239424094
 30
0.0
  0
ARC
  5
EE
330
1F
100
AcDbEntity
  8
SK1
  6
Continuous
100
AcDbCircle
 10
1.850055978
 20
4.8447241367
 30
0.0
 40
0.100055992587541
100
AcDbArc
 50
179.9690319401
 51
269.967944931
  0
LINE
  5
EF
330
1F
100
AcDbEntity
  8
SK1
  6
Continuous
100
AcDbLine
 10
1.85
 20
4.7446681598
 30
0.0
 11
3.65
 21
4.7446681598
 31
0.0
  0
ARC
  5
F0
330
1F
100
AcDbEntity
  8
SK1
  6
Continuous
100
AcDbCircle
 10
3.6499441656
 20
4.8447239934
 30
0.0
 40
0.1000558491312063
100
AcDbArc
 50
270.0319729219
 51
0.0310502069
  0
LINE
  5
F1
330
1F
100
AcDbEntity
  8
SK1
  6
Continuous
100
AcDbLine
 10
3.75
 20
5.8456715753
 30
0.0
 11
6.125
 21
4.473138006
 31
0.0
  0
ARC
  5
F2
330
1F
100
AcDbEntity
  8
SK1
  6
Continuous
100
AcDbCircle
 10
5.9952678569
 20
4.2539029852
 30
0.0
 40
0.2547438385523054
100
AcDbArc
 50
0.5490305646
 51
59.3851100612
  0
LINE
  5
F3
330
1F
100
AcDbEntity
  8
SK3
100
AcDbLine
 10
6.05
 20
1.4830290948
 30
0.0
 11
-7.7185033381
 21
1.4830290948
 31
0.0
  0
LINE
  5
F4
330
1F
100
AcDbEntity
  8
SK3
100
AcDbLine
 10
-11.55
 20
-1.4999999002
 30
0.0
 11
-7.75
 21
-1.4999999002
 31
0.0
  0
LINE
  5
F5
330
1F
100
AcDbEntity
  8
SK3
100
AcDbLine
 10
-7.75
 20
1.5000000998
 30
0.0
 11
-11.55
 21
1.5000000998
 31
0.0
  0
ARC
  5
F6
330
1F
100
AcDbEntity
  8
SK3
100
AcDbCircle
 10
-11.55
 20
1.7000000998
 30
0.0
 40
0.2000000000000001
100
AcDbArc
 50
180.0
 51
270.0
  0
ARC
  5
F7
330
1F
100
AcDbEntity
  8
SK1
  6
Continuous
100
AcDbCircle
 10
-11.55
 20
3.6788414837
 30
0.0
 40
0.2000000000000001
100
AcDbArc
 50
98.0
 51
180.0
  0
LINE
  5
F8
330
1F
100
AcDbEntity
  8
SK1
  6
Continuous
100
AcDbLine
 10
-7.75
 20
4.4148621701
 30
0.0
 11
-11.5778346202
 21
3.8768950975
 31
0.0
  0
ARC
  5
F9
330
1F
100
AcDbEntity
  8
SK3
100
AcDbCircle
 10
-11.55
 20
-1.6999999002
 30
0.0
 40
0.2000000000000023
100
AcDbArc
 50
90.0
 51
180.0
  0
ARC
  5
FA
330
1F
100
AcDbEntity
  8
SK1
  6
Continuous
100
AcDbCircle
 10
-11.55
 20
-3.6788412842
 30
0.0
 40
0.1999999999999988
100
AcDbArc
 50
180.0
 51
262.0
  0
LINE
  5
FB
330
1F
100
AcDbEntity
  8
SK1
  6
Continuous
100
AcDbLine
 10
-11.5778346202
 20
-3.8768948979
 30
0.0
 11
-7.75
 21
-4.4148619706
 31
0.0
  0
LINE
  5
FC
330
1F
100
AcDbEntity
  8
SK1
  6
Continuous
100
AcDbLine
 10
0.0
 20
5.4994528329
 30
0.0
 11
0.0
 21
-5.4994526333
 31
0.0
  0
LINE
  5
FE
330
1F
100
AcDbEntity
  8
SK4
  6
Continuous
100
AcDbLine
 10
6.25
 20
0.0000000998
 30
0.0
 11
-11.75
 21
0.0000000998
 31
0.0
  0
DIMENSION
  5
113
330
1F
100
AcDbEntity
  8
SK2
  6
Continuous
 62
   136
100
AcDbDimension
  2
DMBLK43
 10
14.9733070612
 20
1.4830290948
 30
0.0
 11
14.9733070612
 21
8.6664030005
 31
0.0
 70
   161
  1
\A1;ø <>
 71
     5
 42
-1.0
  3
DIN
100
AcDbAlignedDimension
 13
6.05
 23
1.4830290948
 33
0.0
 14
6.05
 24
-1.4830288952
 34
0.0
  0
DIMENSION
  5
11E
330
1F
100
AcDbEntity
  8
SK2
  6
Continuous
 62
   136
100
AcDbDimension
  2
DMBLK44
 10
6.25
 20
-14.7328174687
 30
0.0
 11
11.0032223165
 21
-14.7328174687
 31
0.0
 70
   160
  1
\A1;<>
 71
     5
 42
-1.0
  3
DIN
100
AcDbAlignedDimension
 13
0.0
 23
-5.4994526333
 33
0.0
 14
6.25
 24
-4.2563438034
 34
0.0
100
AcDbRotatedDimension
  0
DIMENSION
  5
128
330
1F
100
AcDbEntity
  8
SK2
  6
Continuous
 62
   136
100
AcDbDimension
  2
DMBLK45
 10
-15.9109104425
 20
5.4994528329
 30
0.0
 11
-15.9109104425
 21
0.0000000147
 31
0.0
 70
   161
  1
\A1;ø <>
 71
     5
 42
-1.0
  3
DIN
100
AcDbAlignedDimension
 13
0.0
 23
5.4994528329
 33
0.0
 14
0.0
 24
-5.4994526333
 34
0.0
  0
DIMENSION
  5
133
330
1F
100
AcDbEntity
  8
SK2
  6
Continuous
 62
   136
100
AcDbDimension
  2
DMBLK46
 10
6.25
 20
11.2188377861
 30
0.0
 11
-2.7500003874
 21
11.2188377861
 31
0.0
 70
   160
  1
\A1;<>
 71
     5
 42
-1.0
  3
DIN
100
AcDbAlignedDimension
 13
-11.75
 23
3.0675058696
 33
0.0
 14
6.25
 24
3.2896858851
 34
0.0
100
AcDbRotatedDimension
  0
ENDSEC
  0
SECTION
  2
OBJECTS
  0
DICTIONARY
  5
C
330
0
100
AcDbDictionary
281
     1
  3
ACAD_GROUP
350
D
  3
ACAD_LAYOUT
350
1A
  3
ACAD_MATERIAL
350
3B
  3
ACAD_MLEADERSTYLE
350
13F
  3
ACAD_MLINESTYLE
350
17
  3
ACAD_PLOTSETTINGS
350
19
  3
ACAD_PLOTSTYLENAME
350
E
  3
ACAD_VISUALSTYLE
350
2A
  3
AcDbVariableDictionary
350
13D
  0
DICTIONARY
  5
D
102
{ACAD_REACTORS
330
C
102
}
330
C
100
AcDbDictionary
281
     1
  0
DICTIONARY
  5
1A
102
{ACAD_REACTORS
330
C
102
}
330
C
100
AcDbDictionary
281
     1
  3
Layout1
350
1E
  3
Model
350
22
  0
DICTIONARY
  5
3B
102
{ACAD_REACTORS
330
C
102
}
330
C
100
AcDbDictionary
281
     1
  3
ByBlock
350
3D
  3
ByLayer
350
3C
  3
Global
350
3E
  0
DICTIONARY
  5
13F
102
{ACAD_REACTORS
330
C
102
}
330
C
100
AcDbDictionary
281
     1
  0
DICTIONARY
  5
17
102
{ACAD_REACTORS
330
C
102
}
330
C
100
AcDbDictionary
281
     1
  3
Standard
350
18
  0
DICTIONARY
  5
19
102
{ACAD_REACTORS
330
C
102
}
330
C
100
AcDbDictionary
281
     1
  0
ACDBDICTIONARYWDFLT
  5
E
102
{ACAD_REACTORS
330
C
102
}
330
C
100
AcDbDictionary
281
     1
  3
Normal
350
F
100
AcDbDictionaryWithDefault
340
F
  0
DICTIONARY
  5
2A
102
{ACAD_REACTORS
330
C
102
}
330
C
100
AcDbDictionary
281
     1
  3
2dWireframe
350
2F
  3
3D Hidden
350
31
  3
3dWireframe
350
30
  3
Basic
350
32
  3
Brighten
350
36
  3
ColorChange
350
3A
  3
Conceptual
350
34
  3
Dim
350
35
  3
Facepattern
350
39
  3
Flat
350
2B
  3
FlatWithEdges
350
2C
  3
Gouraud
350
2D
  3
GouraudWithEdges
350
2E
  3
Linepattern
350
38
  3
Realistic
350
33
  3
Thicken
350
37
  0
DICTIONARY
  5
13D
102
{ACAD_REACTORS
330
C
102
}
330
C
100
AcDbDictionary
281
     1
  3
DIMASSOC
350
142
  3
HIDETEXT
350
143
  3
PSOLHEIGHT
350
141
  3
PSOLWIDTH
350
140
  0
LAYOUT
  5
1E
102
{ACAD_REACTORS
330
1A
102
}
330
1A
100
AcDbPlotSettings
  1

  2
none_device
  4

  6

 40
0.0
 41
0.0
 42
0.0
 43
0.0
 44
0.0
 45
0.0
 46
0.0
 47
0.0
 48
0.0
 49
0.0
140
0.0
141
0.0
142
1.0
143
1.0
 70
   688
 72
     0
 73
     0
 74
     5
  7

 75
    16
147
1.0
148
0.0
149
0.0
100
AcDbLayout
  1
Layout1
 70
     1
 71
     1
 10
0.0
 20
0.0
 11
210.0
 21
297.0
 12
0.0
 22
0.0
 32
0.0
 14
0.0
 24
0.0
 34
0.0
 15
210.0
 25
297.0
 35
0.0
146
0.0
 13
0.0
 23
0.0
 33
0.0
 16
1.0
 26
0.0
 36
0.0
 17
0.0
 27
1.0
 37
0.0
 76
     0
330
1B
  0
LAYOUT
  5
22
102
{ACAD_REACTORS
330
1A
102
}
330
1A
100
AcDbPlotSettings
  1

  2
none_device
  4

  6

 40
0.0
 41
0.0
 42
0.0
 43
0.0
 44
0.0
 45
0.0
 46
0.0
 47
0.0
 48
0.0
 49
0.0
140
0.0
141
0.0
142
1.0
143
1.0
 70
  1712
 72
     0
 73
     0
 74
     0
  7

 75
     0
147
1.0
148
0.0
149
0.0
100
AcDbLayout
  1
Model
 70
     1
 71
     0
 10
0.0
 20
0.0
 11
210.0
 21
297.0
 12
0.0
 22
0.0
 32
0.0
 14
0.0
 24
0.0
 34
0.0
 15
210.0
 25
297.0
 35
0.0
146
0.0
 13
0.0
 23
0.0
 33
0.0
 16
1.0
 26
0.0
 36
0.0
 17
0.0
 27
1.0
 37
0.0
 76
     0
330
1F
331
29
  0
MATERIAL
  5
3D
102
{ACAD_REACTORS
330
3B
102
}
102
{ACAD_XDICTIONARY
360
166
102
}
330
3B
100
AcDbMaterial
  1
ByBlock
  0
MATERIAL
  5
3C
102
{ACAD_REACTORS
330
3B
102
}
102
{ACAD_XDICTIONARY
360
164
102
}
330
3B
100
AcDbMaterial
  1
ByLayer
  0
MATERIAL
  5
3E
102
{ACAD_REACTORS
330
3B
102
}
102
{ACAD_XDICTIONARY
360
168
102
}
330
3B
100
AcDbMaterial
  1
Global
  0
MLINESTYLE
  5
18
102
{ACAD_REACTORS
330
17
102
}
330
17
100
AcDbMlineStyle
  2
Standard
 70
     0
  3

 62
   256
 51
90.0
 52
90.0
 71
     2
 49
0.5
 62
   256
  6
BYLAYER
 49
-0.5
 62
   256
  6
BYLAYER
  0
ACDBPLACEHOLDER
  5
F
102
{ACAD_REACTORS
330
E
102
}
330
E
  0
VISUALSTYLE
  5
2F
102
{ACAD_REACTORS
330
2A
102
}
102
{ACAD_XDICTIONARY
360
14C
102
}
330
2A
100
AcDbVisualStyle
  2
2dWireframe
 70
     4
 71
     0
 72
     2
 73
     0
 90
        0
 40
-0.6
 41
-30.0
 62
     5
 63
     7
 74
     1
 91
        4
 64
     7
 65
   257
 75
     1
175
     1
 42
1.0
 92
        0
 66
   257
 43
1.0
 76
     1
 77
     6
 78
     2
 67
     7
 79
     5
170
     0
171
     0
290
     0
174
     0
 93
        1
 44
0.0
173
     0
291
     0
 45
0.0
1001
ACAD
1000
AcDbSavedByObjectVersion
1070
     0
  0
VISUALSTYLE
  5
31
102
{ACAD_REACTORS
330
2A
102
}
102
{ACAD_XDICTIONARY
360
150
102
}
330
2A
100
AcDbVisualStyle
  2
3D Hidden
 70
     6
 71
     1
 72
     2
 73
     2
 90
        0
 40
-0.6
 41
-30.0
 62
     5
 63
     7
 74
     2
 91
        2
 64
     7
 65
   257
 75
     2
175
     1
 42
40.0
 92
        0
 66
   257
 43
1.0
 76
     1
 77
     6
 78
     2
 67
     7
 79
     3
170
     0
171
     0
290
     0
174
     0
 93
        1
 44
0.0
173
     0
291
     0
 45
0.0
1001
ACAD
1000
AcDbSavedByObjectVersion
1070
     0
  0
VISUALSTYLE
  5
30
102
{ACAD_REACTORS
330
2A
102
}
102
{ACAD_XDICTIONARY
360
14E
102
}
330
2A
100
AcDbVisualStyle
  2
3dWireframe
 70
     5
 71
     0
 72
     2
 73
     0
 90
        0
 40
-0.6
 41
-30.0
 62
     5
 63
     7
 74
     1
 91
        4
 64
     7
 65
   257
 75
     1
175
     1
 42
1.0
 92
        0
 66
   257
 43
1.0
 76
     1
 77
     6
 78
     2
 67
     7
 79
     5
170
     0
171
     0
290
     0
174
     0
 93
        1
 44
0.0
173
     0
291
     0
 45
0.0
1001
ACAD
1000
AcDbSavedByObjectVersion
1070
     0
  0
VISUALSTYLE
  5
32
102
{ACAD_REACTORS
330
2A
102
}
102
{ACAD_XDICTIONARY
360
152
102
}
330
2A
100
AcDbVisualStyle
  2
Basic
 70
     7
 71
     1
 72
     0
 73
     1
 90
        0
 40
-0.6
 41
-30.0
 62
     5
 63
     7
 74
     0
 91
        4
 64
     7
 65
   257
 75
     1
175
     1
 42
1.0
 92
        8
 66
     7
 43
1.0
 76
     1
 77
     6
 78
     2
 67
     7
 79
     5
170
     0
171
     0
290
     0
174
     0
 93
        1
 44
0.0
173
     0
291
     1
 45
0.0
1001
ACAD
1000
AcDbSavedByObjectVersion
1070
     0
  0
VISUALSTYLE
  5
36
102
{ACAD_REACTORS
330
2A
102
}
102
{ACAD_XDICTIONARY
360
15A
102
}
330
2A
100
AcDbVisualStyle
  2
Brighten
 70
    12
 71
     2
 72
     2
 73
     0
 90
        0
 40
-0.6
 41
-30.0
 62
     5
 63
     7
 74
     1
 91
        4
 64
     7
 65
   257
 75
     1
175
     1
 42
1.0
 92
        8
 66
     7
 43
1.0
 76
     1
 77
     6
 78
     2
 67
     7
 79
     5
170
     0
171
     0
290
     0
174
     0
 93
        1
 44
50.0
173
     0
291
     1
 45
0.0
1001
ACAD
1000
AcDbSavedByObjectVersion
1070
     0
  0
VISUALSTYLE
  5
3A
102
{ACAD_REACTORS
330
2A
102
}
102
{ACAD_XDICTIONARY
360
162
102
}
330
2A
100
AcDbVisualStyle
  2
ColorChange
 70
    16
 71
     2
 72
     2
 73
     3
 90
        0
 40
-0.6
 41
-30.0
 62
     5
 63
     8
 74
     1
 91
        4
 64
     7
 65
   257
 75
     1
175
     1
 42
1.0
 92
        8
 66
     8
 43
1.0
 76
     1
 77
     6
 78
     2
 67
     7
 79
     5
170
     0
171
     0
290
     0
174
     0
 93
        1
 44
0.0
173
     0
291
     1
 45
0.0
1001
ACAD
1000
AcDbSavedByObjectVersion
1070
     0
  0
VISUALSTYLE
  5
34
102
{ACAD_REACTORS
330
2A
102
}
102
{ACAD_XDICTIONARY
360
156
102
}
330
2A
100
AcDbVisualStyle
  2
Conceptual
 70
     9
 71
     3
 72
     2
 73
     0
 90
        0
 40
-0.6
 41
-30.0
 62
     5
 63
     7
 74
     2
 91
        2
 64
     7
 65
   257
 75
     1
175
     1
 42
40.0
 92
        8
 66
     7
 43
1.0
 76
     1
 77
     6
 78
     2
 67
     7
 79
     3
170
     0
171
     0
290
     0
174
     0
 93
        1
 44
0.0
173
     0
291
     0
 45
0.0
1001
ACAD
1000
AcDbSavedByObjectVersion
1070
     0
  0
VISUALSTYLE
  5
35
102
{ACAD_REACTORS
330
2A
102
}
102
{ACAD_XDICTIONARY
360
158
102
}
330
2A
100
AcDbVisualStyle
  2
Dim
 70
    11
 71
     2
 72
     2
 73
     0
 90
        0
 40
-0.6
 41
-30.0
 62
     5
 63
     7
 74
     1
 91
        4
 64
     7
 65
   257
 75
     1
175
     1
 42
1.0
 92
        8
 66
     7
 43
1.0
 76
     1
 77
     6
 78
     2
 67
     7
 79
     5
170
     0
171
     0
290
     0
174
     0
 93
        1
 44
-50.0
173
     0
291
     1
 45
0.0
1001
ACAD
1000
AcDbSavedByObjectVersion
1070
     0
  0
VISUALSTYLE
  5
39
102
{ACAD_REACTORS
330
2A
102
}
102
{ACAD_XDICTIONARY
360
160
102
}
330
2A
100
AcDbVisualStyle
  2
Facepattern
 70
    15
 71
     2
 72
     2
 73
     0
 90
        0
 40
-0.6
 41
-30.0
 62
     5
 63
     7
 74
     1
 91
        4
 64
     7
 65
   257
 75
     1
175
     1
 42
1.0
 92
        8
 66
     7
 43
1.0
 76
     1
 77
     6
 78
     2
 67
     7
 79
     5
170
     0
171
     0
290
     0
174
     0
 93
        1
 44
0.0
173
     0
291
     1
 45
0.0
1001
ACAD
1000
AcDbSavedByObjectVersion
1070
     0
  0
VISUALSTYLE
  5
2B
102
{ACAD_REACTORS
330
2A
102
}
102
{ACAD_XDICTIONARY
360
144
102
}
330
2A
100
AcDbVisualStyle
  2
Flat
 70
     0
 71
     2
 72
     1
 73
     1
 90
        2
 40
-0.6
 41
30.0
 62
     5
 63
     7
 74
     0
 91
        4
 64
     7
 65
   257
 75
     1
175
     1
 42
1.0
 92
        8
 66
     7
 43
1.0
 76
     1
 77
     6
 78
     2
 67
     7
 79
     5
170
     0
171
     0
290
     0
174
     0
 93
       13
 44
0.0
173
     0
291
     1
 45
0.0
1001
ACAD
1000
AcDbSavedByObjectVersion
1070
     0
  0
VISUALSTYLE
  5
2C
102
{ACAD_REACTORS
330
2A
102
}
102
{ACAD_XDICTIONARY
360
146
102
}
330
2A
100
AcDbVisualStyle
  2
FlatWithEdges
 70
     1
 71
     2
 72
     1
 73
     1
 90
        2
 40
-0.6
 41
30.0
 62
     5
 63
     7
 74
     1
 91
        4
 64
     7
 65
   257
 75
     1
175
     1
 42
1.0
 92
        0
 66
   257
 43
1.0
 76
     1
 77
     6
 78
     2
 67
     7
 79
     5
170
     0
171
     0
290
     0
174
     0
 93
       13
 44
0.0
173
     0
291
     1
 45
0.0
1001
ACAD
1000
AcDbSavedByObjectVersion
1070
     0
  0
VISUALSTYLE
  5
2D
102
{ACAD_REACTORS
330
2A
102
}
102
{ACAD_XDICTIONARY
360
148
102
}
330
2A
100
AcDbVisualStyle
  2
Gouraud
 70
     2
 71
     2
 72
     2
 73
     1
 90
        2
 40
-0.6
 41
30.0
 62
     5
 63
     7
 74
     0
 91
        4
 64
     7
 65
   257
 75
     1
175
     1
 42
1.0
 92
        0
 66
     7
 43
1.0
 76
     1
 77
     6
 78
     2
 67
     7
 79
     5
170
     0
171
     0
290
     0
174
     0
 93
       13
 44
0.0
173
     0
291
     1
 45
0.0
1001
ACAD
1000
AcDbSavedByObjectVersion
1070
     0
  0
VISUALSTYLE
  5
2E
102
{ACAD_REACTORS
330
2A
102
}
102
{ACAD_XDICTIONARY
360
14A
102
}
330
2A
100
AcDbVisualStyle
  2
GouraudWithEdges
 70
     3
 71
     2
 72
     2
 73
     1
 90
        2
 40
-0.6
 41
30.0
 62
     5
 63
     7
 74
     1
 91
        4
 64
     7
 65
   257
 75
     1
175
     1
 42
1.0
 92
        0
 66
   257
 43
1.0
 76
     1
 77
     6
 78
     2
 67
     7
 79
     5
170
     0
171
     0
290
     0
174
     0
 93
       13
 44
0.0
173
     0
291
     1
 45
0.0
1001
ACAD
1000
AcDbSavedByObjectVersion
1070
     0
  0
VISUALSTYLE
  5
38
102
{ACAD_REACTORS
330
2A
102
}
102
{ACAD_XDICTIONARY
360
15E
102
}
330
2A
100
AcDbVisualStyle
  2
Linepattern
 70
    14
 71
     2
 72
     2
 73
     0
 90
        0
 40
-0.6
 41
-30.0
 62
     5
 63
     7
 74
     1
 91
        4
 64
     7
 65
   257
 75
     7
175
     7
 42
1.0
 92
        8
 66
     7
 43
1.0
 76
     1
 77
     6
 78
     2
 67
     7
 79
     5
170
     0
171
     0
290
     0
174
     0
 93
        1
 44
0.0
173
     0
291
     1
 45
0.0
1001
ACAD
1000
AcDbSavedByObjectVersion
1070
     0
  0
VISUALSTYLE
  5
33
102
{ACAD_REACTORS
330
2A
102
}
102
{ACAD_XDICTIONARY
360
154
102
}
330
2A
100
AcDbVisualStyle
  2
Realistic
 70
     8
 71
     2
 72
     2
 73
     0
 90
        0
 40
-0.6
 41
-30.0
 62
     5
 63
     7
 74
     1
 91
        0
 64
     7
 65
   257
 75
     1
175
     1
 42
1.0
 92
        8
 66
     8
 43
1.0
 76
     1
 77
     6
 78
     2
 67
     7
 79
     5
170
     0
171
     0
290
     0
174
     0
 93
       13
 44
0.0
173
     0
291
     0
 45
0.0
1001
ACAD
1000
AcDbSavedByObjectVersion
1070
     0
  0
VISUALSTYLE
  5
37
102
{ACAD_REACTORS
330
2A
102
}
102
{ACAD_XDICTIONARY
360
15C
102
}
330
2A
100
AcDbVisualStyle
  2
Thicken
 70
    13
 71
     2
 72
     2
 73
     0
 90
        0
 40
-0.6
 41
-30.0
 62
     5
 63
     7
 74
     1
 91
        4
 64
     7
 65
   257
 75
     1
175
     1
 42
1.0
 92
       12
 66
     7
 43
1.0
 76
     1
 77
     6
 78
     2
 67
     7
 79
     5
170
     0
171
     0
290
     0
174
     0
 93
        1
 44
0.0
173
     0
291
     1
 45
0.0
1001
ACAD
1000
AcDbSavedByObjectVersion
1070
     0
  0
DICTIONARYVAR
  5
142
102
{ACAD_REACTORS
330
13D
102
}
330
13D
100
DictionaryVariables
280
     0
  1
2
  0
DICTIONARYVAR
  5
143
102
{ACAD_REACTORS
330
13D
102
}
330
13D
100
DictionaryVariables
280
     0
  1
1
  0
DICTIONARYVAR
  5
141
102
{ACAD_REACTORS
330
13D
102
}
330
13D
100
DictionaryVariables
280
     0
  1
80.000000
  0
DICTIONARYVAR
  5
140
102
{ACAD_REACTORS
330
13D
102
}
330
13D
100
DictionaryVariables
280
     0
  1
5.000000
  0
DICTIONARY
  5
166
330
3D
100
AcDbDictionary
280
     1
281
     1
  3
ACAD_XREC_ROUNDTRIP
360
167
  0
DICTIONARY
  5
164
330
3C
100
AcDbDictionary
280
     1
281
     1
  3
ACAD_XREC_ROUNDTRIP
360
165
  0
DICTIONARY
  5
168
330
3E
100
AcDbDictionary
280
     1
281
     1
  3
ACAD_XREC_ROUNDTRIP
360
169
  0
DICTIONARY
  5
14C
330
2F
100
AcDbDictionary
280
     1
281
     1
  3
ACAD_XREC_ROUNDTRIP
360
14D
  0
DICTIONARY
  5
150
330
31
100
AcDbDictionary
280
     1
281
     1
  3
ACAD_XREC_ROUNDTRIP
360
151
  0
DICTIONARY
  5
14E
330
30
100
AcDbDictionary
280
     1
281
     1
  3
ACAD_XREC_ROUNDTRIP
360
14F
  0
DICTIONARY
  5
152
330
32
100
AcDbDictionary
280
     1
281
     1
  3
ACAD_XREC_ROUNDTRIP
360
153
  0
DICTIONARY
  5
15A
330
36
100
AcDbDictionary
280
     1
281
     1
  3
ACAD_XREC_ROUNDTRIP
360
15B
  0
DICTIONARY
  5
162
330
3A
100
AcDbDictionary
280
     1
281
     1
  3
ACAD_XREC_ROUNDTRIP
360
163
  0
DICTIONARY
  5
156
330
34
100
AcDbDictionary
280
     1
281
     1
  3
ACAD_XREC_ROUNDTRIP
360
157
  0
DICTIONARY
  5
158
330
35
100
AcDbDictionary
280
     1
281
     1
  3
ACAD_XREC_ROUNDTRIP
360
159
  0
DICTIONARY
  5
160
330
39
100
AcDbDictionary
280
     1
281
     1
  3
ACAD_XREC_ROUNDTRIP
360
161
  0
DICTIONARY
  5
144
330
2B
100
AcDbDictionary
280
     1
281
     1
  3
ACAD_XREC_ROUNDTRIP
360
145
  0
DICTIONARY
  5
146
330
2C
100
AcDbDictionary
280
     1
281
     1
  3
ACAD_XREC_ROUNDTRIP
360
147
  0
DICTIONARY
  5
148
330
2D
100
AcDbDictionary
280
     1
281
     1
  3
ACAD_XREC_ROUNDTRIP
360
149
  0
DICTIONARY
  5
14A
330
2E
100
AcDbDictionary
280
     1
281
     1
  3
ACAD_XREC_ROUNDTRIP
360
14B
  0
DICTIONARY
  5
15E
330
38
100
AcDbDictionary
280
     1
281
     1
  3
ACAD_XREC_ROUNDTRIP
360
15F
  0
DICTIONARY
  5
154
330
33
100
AcDbDictionary
280
     1
281
     1
  3
ACAD_XREC_ROUNDTRIP
360
155
  0
DICTIONARY
  5
15C
330
37
100
AcDbDictionary
280
     1
281
     1
  3
ACAD_XREC_ROUNDTRIP
360
15D
  0
XRECORD
  5
167
102
{ACAD_REACTORS
330
166
102
}
330
166
100
AcDbXrecord
280
     1
102
MATERIAL
148
0.0
149
0.0
149
0.0
 93
        0
 94
      127
282
     0
 72
     1
 77
     1
171
     1
175
     1
179
     1
273
     0
  0
XRECORD
  5
165
102
{ACAD_REACTORS
330
164
102
}
330
164
100
AcDbXrecord
280
     1
102
MATERIAL
148
0.0
149
0.0
149
0.0
 93
        0
 94
      127
282
     0
 72
     1
 77
     1
171
     1
175
     1
179
     1
273
     0
  0
XRECORD
  5
169
102
{ACAD_REACTORS
330
168
102
}
330
168
100
AcDbXrecord
280
     1
102
MATERIAL
148
0.0
149
0.0
149
0.0
 93
        0
 94
      127
282
     0
 72
     1
 77
     1
171
     1
175
     1
179
     1
273
     0
  0
XRECORD
  5
14D
102
{ACAD_REACTORS
330
14C
102
}
330
14C
100
AcDbXrecord
280
     1
102
RTVSPropertyOp0
 70
     1
102
RTVSPropertyOp1
 70
     1
102
RTVSPropertyOp2
 70
     1
102
RTVSPropertyOp3
 70
     1
102
RTVSPropertyOp4
 70
     1
102
RTVSPropertyOp5
 70
     1
102
RTVSPropertyOp6
 70
     1
102
RTVSPropertyOp7
 70
     1
102
RTVSPropertyOp8
 70
     1
102
RTVSPropertyOp9
 70
     1
102
RTVSPropertyOp10
 70
     1
102
RTVSPropertyOp11
 70
     1
102
RTVSPropertyOp12
 70
     1
102
RTVSPropertyOp13
 70
     1
102
RTVSPropertyOp14
 70
     1
102
RTVSPropertyOp15
 70
     1
102
RTVSPropertyOp16
 70
     1
102
RTVSPropertyOp17
 70
     1
102
RTVSPropertyOp18
 70
     1
102
RTVSPropertyOp19
 70
     1
102
RTVSPropertyOp20
 70
     1
102
RTVSPropertyOp21
 70
     1
102
RTVSPropertyOp22
 70
     1
102
RTVSPropertyOp23
 70
     1
102
RTVSPropertyOp24
 70
     1
102
RTVSPropertyOp25
 70
     1
102
RTVSPropertyOp26
 70
     1
102
RTVSPropertyOp27
 70
     1
102
RTVSPropertyOp28
 70
     1
102
RTVSPropertyOp29
 70
     1
102
RTVSPropertyOp30
 70
     1
102
RTVSPropertyOp31
 70
     1
102
RTVSPropertyOp32
 70
     1
  0
XRECORD
  5
151
102
{ACAD_REACTORS
330
150
102
}
330
150
100
AcDbXrecord
280
     1
102
RTVSPropertyOp0
 70
     1
102
RTVSPropertyOp1
 70
     1
102
RTVSPropertyOp2
 70
     1
102
RTVSPropertyOp3
 70
     1
102
RTVSPropertyOp4
 70
     1
102
RTVSPropertyOp5
 70
     1
102
RTVSPropertyOp6
 70
     1
102
RTVSPropertyOp7
 70
     1
102
RTVSPropertyOp8
 70
     1
102
RTVSPropertyOp9
 70
     1
102
RTVSPropertyOp10
 70
     1
102
RTVSPropertyOp11
 70
     1
102
RTVSPropertyOp12
 70
     1
102
RTVSPropertyOp13
 70
     1
102
RTVSPropertyOp14
 70
     1
102
RTVSPropertyOp15
 70
     1
102
RTVSPropertyOp16
 70
     1
102
RTVSPropertyOp17
 70
     1
102
RTVSPropertyOp18
 70
     1
102
RTVSPropertyOp19
 70
     1
102
RTVSPropertyOp20
 70
     1
102
RTVSPropertyOp21
 70
     1
102
RTVSPropertyOp22
 70
     1
102
RTVSPropertyOp23
 70
     1
102
RTVSPropertyOp24
 70
     1
102
RTVSPropertyOp25
 70
     1
102
RTVSPropertyOp26
 70
     1
102
RTVSPropertyOp27
 70
     1
102
RTVSPropertyOp28
 70
     1
102
RTVSPropertyOp29
 70
     1
102
RTVSPropertyOp30
 70
     1
102
RTVSPropertyOp31
 70
     1
102
RTVSPropertyOp32
 70
     1
  0
XRECORD
  5
14F
102
{ACAD_REACTORS
330
14E
102
}
330
14E
100
AcDbXrecord
280
     1
102
RTVSPropertyOp0
 70
     1
102
RTVSPropertyOp1
 70
     1
102
RTVSPropertyOp2
 70
     1
102
RTVSPropertyOp3
 70
     1
102
RTVSPropertyOp4
 70
     1
102
RTVSPropertyOp5
 70
     1
102
RTVSPropertyOp6
 70
     1
102
RTVSPropertyOp7
 70
     1
102
RTVSPropertyOp8
 70
     1
102
RTVSPropertyOp9
 70
     1
102
RTVSPropertyOp10
 70
     1
102
RTVSPropertyOp11
 70
     1
102
RTVSPropertyOp12
 70
     1
102
RTVSPropertyOp13
 70
     1
102
RTVSPropertyOp14
 70
     1
102
RTVSPropertyOp15
 70
     1
102
RTVSPropertyOp16
 70
     1
102
RTVSPropertyOp17
 70
     1
102
RTVSPropertyOp18
 70
     1
102
RTVSPropertyOp19
 70
     1
102
RTVSPropertyOp20
 70
     1
102
RTVSPropertyOp21
 70
     1
102
RTVSPropertyOp22
 70
     1
102
RTVSPropertyOp23
 70
     1
102
RTVSPropertyOp24
 70
     1
102
RTVSPropertyOp25
 70
     1
102
RTVSPropertyOp26
 70
     1
102
RTVSPropertyOp27
 70
     1
102
RTVSPropertyOp28
 70
     1
102
RTVSPropertyOp29
 70
     1
102
RTVSPropertyOp30
 70
     1
102
RTVSPropertyOp31
 70
     1
102
RTVSPropertyOp32
 70
     1
  0
XRECORD
  5
153
102
{ACAD_REACTORS
330
152
102
}
330
152
100
AcDbXrecord
280
     1
102
RTVSPropertyOp0
 70
     1
102
RTVSPropertyOp1
 70
     1
102
RTVSPropertyOp2
 70
     1
102
RTVSPropertyOp3
 70
     1
102
RTVSPropertyOp4
 70
     1
102
RTVSPropertyOp5
 70
     1
102
RTVSPropertyOp6
 70
     1
102
RTVSPropertyOp7
 70
     1
102
RTVSPropertyOp8
 70
     1
102
RTVSPropertyOp9
 70
     1
102
RTVSPropertyOp10
 70
     1
102
RTVSPropertyOp11
 70
     1
102
RTVSPropertyOp12
 70
     1
102
RTVSPropertyOp13
 70
     1
102
RTVSPropertyOp14
 70
     1
102
RTVSPropertyOp15
 70
     1
102
RTVSPropertyOp16
 70
     1
102
RTVSPropertyOp17
 70
     1
102
RTVSPropertyOp18
 70
     1
102
RTVSPropertyOp19
 70
     1
102
RTVSPropertyOp20
 70
     1
102
RTVSPropertyOp21
 70
     1
102
RTVSPropertyOp22
 70
     1
102
RTVSPropertyOp23
 70
     1
102
RTVSPropertyOp24
 70
     1
102
RTVSPropertyOp25
 70
     1
102
RTVSPropertyOp26
 70
     1
102
RTVSPropertyOp27
 70
     1
102
RTVSPropertyOp28
 70
     1
102
RTVSPropertyOp29
 70
     1
102
RTVSPropertyOp30
 70
     1
102
RTVSPropertyOp31
 70
     1
102
RTVSPropertyOp32
 70
     1
  0
XRECORD
  5
15B
102
{ACAD_REACTORS
330
15A
102
}
330
15A
100
AcDbXrecord
280
     1
102
RTVSPropertyOp0
 70
     1
102
RTVSPropertyOp1
 70
     1
102
RTVSPropertyOp2
 70
     1
102
RTVSPropertyOp3
 70
     1
102
RTVSPropertyOp4
 70
     1
102
RTVSPropertyOp5
 70
     1
102
RTVSPropertyOp6
 70
     1
102
RTVSPropertyOp7
 70
     1
102
RTVSPropertyOp8
 70
     1
102
RTVSPropertyOp9
 70
     1
102
RTVSPropertyOp10
 70
     1
102
RTVSPropertyOp11
 70
     1
102
RTVSPropertyOp12
 70
     1
102
RTVSPropertyOp13
 70
     1
102
RTVSPropertyOp14
 70
     1
102
RTVSPropertyOp15
 70
     1
102
RTVSPropertyOp16
 70
     1
102
RTVSPropertyOp17
 70
     1
102
RTVSPropertyOp18
 70
     1
102
RTVSPropertyOp19
 70
     1
102
RTVSPropertyOp20
 70
     1
102
RTVSPropertyOp21
 70
     1
102
RTVSPropertyOp22
 70
     1
102
RTVSPropertyOp23
 70
     1
102
RTVSPropertyOp24
 70
     1
102
RTVSPropertyOp25
 70
     1
102
RTVSPropertyOp26
 70
     1
102
RTVSPropertyOp27
 70
     1
102
RTVSPropertyOp28
 70
     1
102
RTVSPropertyOp29
 70
     1
102
RTVSPropertyOp30
 70
     1
102
RTVSPropertyOp31
 70
     1
102
RTVSPropertyOp32
 70
     1
  0
XRECORD
  5
163
102
{ACAD_REACTORS
330
162
102
}
330
162
100
AcDbXrecord
280
     1
102
RTVSPropertyOp0
 70
     1
102
RTVSPropertyOp1
 70
     1
102
RTVSPropertyOp2
 70
     1
102
RTVSPropertyOp3
 70
     1
102
RTVSPropertyOp4
 70
     1
102
RTVSPropertyOp5
 70
     1
102
RTVSPropertyOp6
 70
     1
102
RTVSPropertyOp7
 70
     1
102
RTVSPropertyOp8
 70
     1
102
RTVSPropertyOp9
 70
     1
102
RTVSPropertyOp10
 70
     1
102
RTVSPropertyOp11
 70
     1
102
RTVSPropertyOp12
 70
     1
102
RTVSPropertyOp13
 70
     1
102
RTVSPropertyOp14
 70
     1
102
RTVSPropertyOp15
 70
     1
102
RTVSPropertyOp16
 70
     1
102
RTVSPropertyOp17
 70
     1
102
RTVSPropertyOp18
 70
     1
102
RTVSPropertyOp19
 70
     1
102
RTVSPropertyOp20
 70
     1
102
RTVSPropertyOp21
 70
     1
102
RTVSPropertyOp22
 70
     1
102
RTVSPropertyOp23
 70
     1
102
RTVSPropertyOp24
 70
     1
102
RTVSPropertyOp25
 70
     1
102
RTVSPropertyOp26
 70
     1
102
RTVSPropertyOp27
 70
     1
102
RTVSPropertyOp28
 70
     1
102
RTVSPropertyOp29
 70
     1
102
RTVSPropertyOp30
 70
     1
102
RTVSPropertyOp31
 70
     1
102
RTVSPropertyOp32
 70
     1
  0
XRECORD
  5
157
102
{ACAD_REACTORS
330
156
102
}
330
156
100
AcDbXrecord
280
     1
102
RTVSPropertyOp0
 70
     1
102
RTVSPropertyOp1
 70
     1
102
RTVSPropertyOp2
 70
     1
102
RTVSPropertyOp3
 70
     1
102
RTVSPropertyOp4
 70
     1
102
RTVSPropertyOp5
 70
     1
102
RTVSPropertyOp6
 70
     1
102
RTVSPropertyOp7
 70
     1
102
RTVSPropertyOp8
 70
     1
102
RTVSPropertyOp9
 70
     1
102
RTVSPropertyOp10
 70
     1
102
RTVSPropertyOp11
 70
     1
102
RTVSPropertyOp12
 70
     1
102
RTVSPropertyOp13
 70
     1
102
RTVSPropertyOp14
 70
     1
102
RTVSPropertyOp15
 70
     1
102
RTVSPropertyOp16
 70
     1
102
RTVSPropertyOp17
 70
     1
102
RTVSPropertyOp18
 70
     1
102
RTVSPropertyOp19
 70
     1
102
RTVSPropertyOp20
 70
     1
102
RTVSPropertyOp21
 70
     1
102
RTVSPropertyOp22
 70
     1
102
RTVSPropertyOp23
 70
     1
102
RTVSPropertyOp24
 70
     1
102
RTVSPropertyOp25
 70
     1
102
RTVSPropertyOp26
 70
     1
102
RTVSPropertyOp27
 70
     1
102
RTVSPropertyOp28
 70
     1
102
RTVSPropertyOp29
 70
     1
102
RTVSPropertyOp30
 70
     1
102
RTVSPropertyOp31
 70
     1
102
RTVSPropertyOp32
 70
     1
  0
XRECORD
  5
159
102
{ACAD_REACTORS
330
158
102
}
330
158
100
AcDbXrecord
280
     1
102
RTVSPropertyOp0
 70
     1
102
RTVSPropertyOp1
 70
     1
102
RTVSPropertyOp2
 70
     1
102
RTVSPropertyOp3
 70
     1
102
RTVSPropertyOp4
 70
     1
102
RTVSPropertyOp5
 70
     1
102
RTVSPropertyOp6
 70
     1
102
RTVSPropertyOp7
 70
     1
102
RTVSPropertyOp8
 70
     1
102
RTVSPropertyOp9
 70
     1
102
RTVSPropertyOp10
 70
     1
102
RTVSPropertyOp11
 70
     1
102
RTVSPropertyOp12
 70
     1
102
RTVSPropertyOp13
 70
     1
102
RTVSPropertyOp14
 70
     1
102
RTVSPropertyOp15
 70
     1
102
RTVSPropertyOp16
 70
     1
102
RTVSPropertyOp17
 70
     1
102
RTVSPropertyOp18
 70
     1
102
RTVSPropertyOp19
 70
     1
102
RTVSPropertyOp20
 70
     1
102
RTVSPropertyOp21
 70
     1
102
RTVSPropertyOp22
 70
     1
102
RTVSPropertyOp23
 70
     1
102
RTVSPropertyOp24
 70
     1
102
RTVSPropertyOp25
 70
     1
102
RTVSPropertyOp26
 70
     1
102
RTVSPropertyOp27
 70
     1
102
RTVSPropertyOp28
 70
     1
102
RTVSPropertyOp29
 70
     1
102
RTVSPropertyOp30
 70
     1
102
RTVSPropertyOp31
 70
     1
102
RTVSPropertyOp32
 70
     1
  0
XRECORD
  5
161
102
{ACAD_REACTORS
330
160
102
}
330
160
100
AcDbXrecord
280
     1
102
RTVSPropertyOp0
 70
     1
102
RTVSPropertyOp1
 70
     1
102
RTVSPropertyOp2
 70
     1
102
RTVSPropertyOp3
 70
     1
102
RTVSPropertyOp4
 70
     1
102
RTVSPropertyOp5
 70
     1
102
RTVSPropertyOp6
 70
     1
102
RTVSPropertyOp7
 70
     1
102
RTVSPropertyOp8
 70
     1
102
RTVSPropertyOp9
 70
     1
102
RTVSPropertyOp10
 70
     1
102
RTVSPropertyOp11
 70
     1
102
RTVSPropertyOp12
 70
     1
102
RTVSPropertyOp13
 70
     1
102
RTVSPropertyOp14
 70
     1
102
RTVSPropertyOp15
 70
     1
102
RTVSPropertyOp16
 70
     1
102
RTVSPropertyOp17
 70
     1
102
RTVSPropertyOp18
 70
     1
102
RTVSPropertyOp19
 70
     1
102
RTVSPropertyOp20
 70
     1
102
RTVSPropertyOp21
 70
     1
102
RTVSPropertyOp22
 70
     1
102
RTVSPropertyOp23
 70
     1
102
RTVSPropertyOp24
 70
     1
102
RTVSPropertyOp25
 70
     1
102
RTVSPropertyOp26
 70
     1
102
RTVSPropertyOp27
 70
     1
102
RTVSPropertyOp28
 70
     1
102
RTVSPropertyOp29
 70
     1
102
RTVSPropertyOp30
 70
     1
102
RTVSPropertyOp31
 70
     1
102
RTVSPropertyOp32
 70
     1
  0
XRECORD
  5
145
102
{ACAD_REACTORS
330
144
102
}
330
144
100
AcDbXrecord
280
     1
102
RTVSPropertyOp0
 70
     1
102
RTVSPropertyOp1
 70
     1
102
RTVSPropertyOp2
 70
     1
102
RTVSPropertyOp3
 70
     1
102
RTVSPropertyOp4
 70
     1
102
RTVSPropertyOp5
 70
     1
102
RTVSPropertyOp6
 70
     1
102
RTVSPropertyOp7
 70
     1
102
RTVSPropertyOp8
 70
     1
102
RTVSPropertyOp9
 70
     1
102
RTVSPropertyOp10
 70
     1
102
RTVSPropertyOp11
 70
     1
102
RTVSPropertyOp12
 70
     1
102
RTVSPropertyOp13
 70
     1
102
RTVSPropertyOp14
 70
     1
102
RTVSPropertyOp15
 70
     1
102
RTVSPropertyOp16
 70
     1
102
RTVSPropertyOp17
 70
     1
102
RTVSPropertyOp18
 70
     1
102
RTVSPropertyOp19
 70
     1
102
RTVSPropertyOp20
 70
     1
102
RTVSPropertyOp21
 70
     1
102
RTVSPropertyOp22
 70
     1
102
RTVSPropertyOp23
 70
     1
102
RTVSPropertyOp24
 70
     1
102
RTVSPropertyOp25
 70
     1
102
RTVSPropertyOp26
 70
     1
102
RTVSPropertyOp27
 70
     1
102
RTVSPropertyOp28
 70
     1
102
RTVSPropertyOp29
 70
     1
102
RTVSPropertyOp30
 70
     1
102
RTVSPropertyOp31
 70
     1
102
RTVSPropertyOp32
 70
     1
  0
XRECORD
  5
147
102
{ACAD_REACTORS
330
146
102
}
330
146
100
AcDbXrecord
280
     1
102
RTVSPropertyOp0
 70
     1
102
RTVSPropertyOp1
 70
     1
102
RTVSPropertyOp2
 70
     1
102
RTVSPropertyOp3
 70
     1
102
RTVSPropertyOp4
 70
     1
102
RTVSPropertyOp5
 70
     1
102
RTVSPropertyOp6
 70
     1
102
RTVSPropertyOp7
 70
     1
102
RTVSPropertyOp8
 70
     1
102
RTVSPropertyOp9
 70
     1
102
RTVSPropertyOp10
 70
     1
102
RTVSPropertyOp11
 70
     1
102
RTVSPropertyOp12
 70
     1
102
RTVSPropertyOp13
 70
     1
102
RTVSPropertyOp14
 70
     1
102
RTVSPropertyOp15
 70
     1
102
RTVSPropertyOp16
 70
     1
102
RTVSPropertyOp17
 70
     1
102
RTVSPropertyOp18
 70
     1
102
RTVSPropertyOp19
 70
     1
102
RTVSPropertyOp20
 70
     1
102
RTVSPropertyOp21
 70
     1
102
RTVSPropertyOp22
 70
     1
102
RTVSPropertyOp23
 70
     1
102
RTVSPropertyOp24
 70
     1
102
RTVSPropertyOp25
 70
     1
102
RTVSPropertyOp26
 70
     1
102
RTVSPropertyOp27
 70
     1
102
RTVSPropertyOp28
 70
     1
102
RTVSPropertyOp29
 70
     1
102
RTVSPropertyOp30
 70
     1
102
RTVSPropertyOp31
 70
     1
102
RTVSPropertyOp32
 70
     1
  0
XRECORD
  5
149
102
{ACAD_REACTORS
330
148
102
}
330
148
100
AcDbXrecord
280
     1
102
RTVSPropertyOp0
 70
     1
102
RTVSPropertyOp1
 70
     1
102
RTVSPropertyOp2
 70
     1
102
RTVSPropertyOp3
 70
     1
102
RTVSPropertyOp4
 70
     1
102
RTVSPropertyOp5
 70
     1
102
RTVSPropertyOp6
 70
     1
102
RTVSPropertyOp7
 70
     1
102
RTVSPropertyOp8
 70
     1
102
RTVSPropertyOp9
 70
     1
102
RTVSPropertyOp10
 70
     1
102
RTVSPropertyOp11
 70
     1
102
RTVSPropertyOp12
 70
     1
102
RTVSPropertyOp13
 70
     1
102
RTVSPropertyOp14
 70
     1
102
RTVSPropertyOp15
 70
     1
102
RTVSPropertyOp16
 70
     1
102
RTVSPropertyOp17
 70
     1
102
RTVSPropertyOp18
 70
     1
102
RTVSPropertyOp19
 70
     1
102
RTVSPropertyOp20
 70
     1
102
RTVSPropertyOp21
 70
     1
102
RTVSPropertyOp22
 70
     1
102
RTVSPropertyOp23
 70
     1
102
RTVSPropertyOp24
 70
     1
102
RTVSPropertyOp25
 70
     1
102
RTVSPropertyOp26
 70
     1
102
RTVSPropertyOp27
 70
     1
102
RTVSPropertyOp28
 70
     1
102
RTVSPropertyOp29
 70
     1
102
RTVSPropertyOp30
 70
     1
102
RTVSPropertyOp31
 70
     1
102
RTVSPropertyOp32
 70
     1
  0
XRECORD
  5
14B
102
{ACAD_REACTORS
330
14A
102
}
330
14A
100
AcDbXrecord
280
     1
102
RTVSPropertyOp0
 70
     1
102
RTVSPropertyOp1
 70
     1
102
RTVSPropertyOp2
 70
     1
102
RTVSPropertyOp3
 70
     1
102
RTVSPropertyOp4
 70
     1
102
RTVSPropertyOp5
 70
     1
102
RTVSPropertyOp6
 70
     1
102
RTVSPropertyOp7
 70
     1
102
RTVSPropertyOp8
 70
     1
102
RTVSPropertyOp9
 70
     1
102
RTVSPropertyOp10
 70
     1
102
RTVSPropertyOp11
 70
     1
102
RTVSPropertyOp12
 70
     1
102
RTVSPropertyOp13
 70
     1
102
RTVSPropertyOp14
 70
     1
102
RTVSPropertyOp15
 70
     1
102
RTVSPropertyOp16
 70
     1
102
RTVSPropertyOp17
 70
     1
102
RTVSPropertyOp18
 70
     1
102
RTVSPropertyOp19
 70
     1
102
RTVSPropertyOp20
 70
     1
102
RTVSPropertyOp21
 70
     1
102
RTVSPropertyOp22
 70
     1
102
RTVSPropertyOp23
 70
     1
102
RTVSPropertyOp24
 70
     1
102
RTVSPropertyOp25
 70
     1
102
RTVSPropertyOp26
 70
     1
102
RTVSPropertyOp27
 70
     1
102
RTVSPropertyOp28
 70
     1
102
RTVSPropertyOp29
 70
     1
102
RTVSPropertyOp30
 70
     1
102
RTVSPropertyOp31
 70
     1
102
RTVSPropertyOp32
 70
     1
  0
XRECORD
  5
15F
102
{ACAD_REACTORS
330
15E
102
}
330
15E
100
AcDbXrecord
280
     1
102
RTVSPropertyOp0
 70
     1
102
RTVSPropertyOp1
 70
     1
102
RTVSPropertyOp2
 70
     1
102
RTVSPropertyOp3
 70
     1
102
RTVSPropertyOp4
 70
     1
102
RTVSPropertyOp5
 70
     1
102
RTVSPropertyOp6
 70
     1
102
RTVSPropertyOp7
 70
     1
102
RTVSPropertyOp8
 70
     1
102
RTVSPropertyOp9
 70
     1
102
RTVSPropertyOp10
 70
     1
102
RTVSPropertyOp11
 70
     1
102
RTVSPropertyOp12
 70
     1
102
RTVSPropertyOp13
 70
     1
102
RTVSPropertyOp14
 70
     1
102
RTVSPropertyOp15
 70
     1
102
RTVSPropertyOp16
 70
     1
102
RTVSPropertyOp17
 70
     1
102
RTVSPropertyOp18
 70
     1
102
RTVSPropertyOp19
 70
     1
102
RTVSPropertyOp20
 70
     1
102
RTVSPropertyOp21
 70
     1
102
RTVSPropertyOp22
 70
     1
102
RTVSPropertyOp23
 70
     1
102
RTVSPropertyOp24
 70
     1
102
RTVSPropertyOp25
 70
     1
102
RTVSPropertyOp26
 70
     1
102
RTVSPropertyOp27
 70
     1
102
RTVSPropertyOp28
 70
     1
102
RTVSPropertyOp29
 70
     1
102
RTVSPropertyOp30
 70
     1
102
RTVSPropertyOp31
 70
     1
102
RTVSPropertyOp32
 70
     1
  0
XRECORD
  5
155
102
{ACAD_REACTORS
330
154
102
}
330
154
100
AcDbXrecord
280
     1
102
RTVSPropertyOp0
 70
     1
102
RTVSPropertyOp1
 70
     1
102
RTVSPropertyOp2
 70
     1
102
RTVSPropertyOp3
 70
     1
102
RTVSPropertyOp4
 70
     1
102
RTVSPropertyOp5
 70
     1
102
RTVSPropertyOp6
 70
     1
102
RTVSPropertyOp7
 70
     1
102
RTVSPropertyOp8
 70
     1
102
RTVSPropertyOp9
 70
     1
102
RTVSPropertyOp10
 70
     1
102
RTVSPropertyOp11
 70
     1
102
RTVSPropertyOp12
 70
     1
102
RTVSPropertyOp13
 70
     1
102
RTVSPropertyOp14
 70
     1
102
RTVSPropertyOp15
 70
     1
102
RTVSPropertyOp16
 70
     1
102
RTVSPropertyOp17
 70
     1
102
RTVSPropertyOp18
 70
     1
102
RTVSPropertyOp19
 70
     1
102
RTVSPropertyOp20
 70
     1
102
RTVSPropertyOp21
 70
     1
102
RTVSPropertyOp22
 70
     1
102
RTVSPropertyOp23
 70
     1
102
RTVSPropertyOp24
 70
     1
102
RTVSPropertyOp25
 70
     1
102
RTVSPropertyOp26
 70
     1
102
RTVSPropertyOp27
 70
     1
102
RTVSPropertyOp28
 70
     1
102
RTVSPropertyOp29
 70
     1
102
RTVSPropertyOp30
 70
     1
102
RTVSPropertyOp31
 70
     1
102
RTVSPropertyOp32
 70
     1
  0
XRECORD
  5
15D
102
{ACAD_REACTORS
330
15C
102
}
330
15C
100
AcDbXrecord
280
     1
102
RTVSPropertyOp0
 70
     1
102
RTVSPropertyOp1
 70
     1
102
RTVSPropertyOp2
 70
     1
102
RTVSPropertyOp3
 70
     1
102
RTVSPropertyOp4
 70
     1
102
RTVSPropertyOp5
 70
     1
102
RTVSPropertyOp6
 70
     1
102
RTVSPropertyOp7
 70
     1
102
RTVSPropertyOp8
 70
     1
102
RTVSPropertyOp9
 70
     1
102
RTVSPropertyOp10
 70
     1
102
RTVSPropertyOp11
 70
     1
102
RTVSPropertyOp12
 70
     1
102
RTVSPropertyOp13
 70
     1
102
RTVSPropertyOp14
 70
     1
102
RTVSPropertyOp15
 70
     1
102
RTVSPropertyOp16
 70
     1
102
RTVSPropertyOp17
 70
     1
102
RTVSPropertyOp18
 70
     1
102
RTVSPropertyOp19
 70
     1
102
RTVSPropertyOp20
 70
     1
102
RTVSPropertyOp21
 70
     1
102
RTVSPropertyOp22
 70
     1
102
RTVSPropertyOp23
 70
     1
102
RTVSPropertyOp24
 70
     1
102
RTVSPropertyOp25
 70
     1
102
RTVSPropertyOp26
 70
     1
102
RTVSPropertyOp27
 70
     1
102
RTVSPropertyOp28
 70
     1
102
RTVSPropertyOp29
 70
     1
102
RTVSPropertyOp30
 70
     1
102
RTVSPropertyOp31
 70
     1
102
RTVSPropertyOp32
 70
     1
  0
ENDSEC
  0
EOF
