  0
SECTION
  2
HEADER
  9
$ACADVER
  1
AC1015
  9
$ACADMAINTVER
 70
     6
  9
$DWGCODEPAGE
  3
ANSI_1252
  9
$INSBASE
 10
0.0
 20
0.0
 30
0.0
  9
$EXTMIN
 10
0.0
 20
0.0
 30
0.0
  9
$EXTMAX
 10
210.0
 20
297.0
 30
0.0
  9
$LIMMIN
 10
0.0
 20
0.0
  9
$LIMMAX
 10
210.0
 20
297.0
  9
$ORTHOMODE
 70
     0
  9
$REGENMODE
 70
     1
  9
$FILLMODE
 70
     1
  9
$QTEXTMODE
 70
     0
  9
$MIRRTEXT
 70
     1
  9
$LTSCALE
 40
1.0
  9
$ATTMODE
 70
     1
  9
$TEXTSIZE
 40
2.5
  9
$TRACEWID
 40
1.0
  9
$TEXTSTYLE
  7
Standard
  9
$CLAYER
  8
0
  9
$CELTYPE
  6
ByLayer
  9
$CECOLOR
 62
   256
  9
$CELTSCALE
 40
1.0
  9
$DISPSILH
 70
     0
  9
$DIMSCALE
 40
1.0
  9
$DIMASZ
 40
2.5
  9
$DIMEXO
 40
0.625
  9
$DIMDLI
 40
3.75
  9
$DIMRND
 40
0.0
  9
$DIMDLE
 40
0.0
  9
$DIMEXE
 40
1.25
  9
$DIMTP
 40
0.0
  9
$DIMTM
 40
0.0
  9
$DIMTXT
 40
2.5
  9
$DIMCEN
 40
2.5
  9
$DIMTSZ
 40
0.0
  9
$DIMTOL
 70
     0
  9
$DIMLIM
 70
     0
  9
$DIMTIH
 70
     0
  9
$DIMTOH
 70
     0
  9
$DIMSE1
 70
     0
  9
$DIMSE2
 70
     0
  9
$DIMTAD
 70
     1
  9
$DIMZIN
 70
     8
  9
$DIMBLK
  1

  9
$DIMASO
 70
     1
  9
$DIMSHO
 70
     1
  9
$DIMPOST
  1

  9
$DIMAPOST
  1

  9
$DIMALT
 70
     0
  9
$DIMALTD
 70
     3
  9
$DIMALTF
 40
0.0393700787
  9
$DIMLFAC
 40
1.0
  9
$DIMTOFL
 70
     1
  9
$DIMTVP
 40
0.0
  9
$DIMTIX
 70
     0
  9
$DIMSOXD
 70
     0
  9
$DIMSAH
 70
     0
  9
$DIMBLK1
  1

  9
$DIMBLK2
  1

  9
$DIMSTYLE
  2
ISO-25
  9
$DIMCLRD
 70
     0
  9
$DIMCLRE
 70
     0
  9
$DIMCLRT
 70
     0
  9
$DIMTFAC
 40
1.0
  9
$DIMGAP
 40
0.625
  9
$DIMJUST
 70
     0
  9
$DIMSD1
 70
     0
  9
$DIMSD2
 70
     0
  9
$DIMTOLJ
 70
     0
  9
$DIMTZIN
 70
     8
  9
$DIMALTZ
 70
     0
  9
$DIMALTTZ
 70
     0
  9
$DIMUPT
 70
     0
  9
$DIMDEC
 70
     2
  9
$DIMTDEC
 70
     2
  9
$DIMALTU
 70
     2
  9
$DIMALTTD
 70
     3
  9
$DIMTXSTY
  7
Standard
  9
$DIMAUNIT
 70
     0
  9
$DIMADEC
 70
     0
  9
$DIMALTRND
 40
0.0
  9
$DIMAZIN
 70
     0
  9
$DIMDSEP
 70
    44
  9
$DIMATFIT
 70
     3
  9
$DIMFRAC
 70
     0
  9
$DIMLDRBLK
  1

  9
$DIMLUNIT
 70
     2
  9
$DIMLWD
 70
    -2
  9
$DIMLWE
 70
    -2
  9
$DIMTMOVE
 70
     0
  9
$LUNITS
 70
     2
  9
$LUPREC
 70
     4
  9
$SKETCHINC
 40
1.0
  9
$FILLETRAD
 40
10.0
  9
$AUNITS
 70
     0
  9
$AUPREC
 70
     0
  9
$MENU
  1
.
  9
$ELEVATION
 40
0.0
  9
$PELEVATION
 40
0.0
  9
$THICKNESS
 40
0.0
  9
$LIMCHECK
 70
     0
  9
$CHAMFERA
 40
10.0
  9
$CHAMFERB
 40
10.0
  9
$CHAMFERC
 40
20.0
  9
$CHAMFERD
 40
0.0
  9
$SKPOLY
 70
     0
  9
$TDCREATE
 40
2457560.449914016
  9
$TDUCREATE
 40
2457560.366580683
  9
$TDUPDATE
 40
2457560.449916539
  9
$TDUUPDATE
 40
2457560.366583206
  9
$TDINDWG
 40
0.0000000116
  9
$TDUSRTIMER
 40
0.0000000116
  9
$USRTIMER
 70
     1
  9
$ANGBASE
 50
0.0
  9
$ANGDIR
 70
     0
  9
$PDMODE
 70
     0
  9
$PDSIZE
 40
0.0
  9
$PLINEWID
 40
0.0
  9
$SPLFRAME
 70
     0
  9
$SPLINETYPE
 70
     6
  9
$SPLINESEGS
 70
     8
  9
$HANDSEED
  5
20E
  9
$SURFTAB1
 70
     6
  9
$SURFTAB2
 70
     6
  9
$SURFTYPE
 70
     6
  9
$SURFU
 70
     6
  9
$SURFV
 70
     6
  9
$UCSBASE
  2

  9
$UCSNAME
  2

  9
$UCSORG
 10
0.0
 20
0.0
 30
0.0
  9
$UCSXDIR
 10
1.0
 20
0.0
 30
0.0
  9
$UCSYDIR
 10
0.0
 20
1.0
 30
0.0
  9
$UCSORTHOREF
  2

  9
$UCSORTHOVIEW
 70
     0
  9
$UCSORGTOP
 10
0.0
 20
0.0
 30
0.0
  9
$UCSORGBOTTOM
 10
0.0
 20
0.0
 30
0.0
  9
$UCSORGLEFT
 10
0.0
 20
0.0
 30
0.0
  9
$UCSORGRIGHT
 10
0.0
 20
0.0
 30
0.0
  9
$UCSORGFRONT
 10
0.0
 20
0.0
 30
0.0
  9
$UCSORGBACK
 10
0.0
 20
0.0
 30
0.0
  9
$PUCSBASE
  2

  9
$PUCSNAME
  2

  9
$PUCSORG
 10
0.0
 20
0.0
 30
0.0
  9
$PUCSXDIR
 10
1.0
 20
0.0
 30
0.0
  9
$PUCSYDIR
 10
0.0
 20
1.0
 30
0.0
  9
$PUCSORTHOREF
  2

  9
$PUCSORTHOVIEW
 70
     0
  9
$PUCSORGTOP
 10
0.0
 20
0.0
 30
0.0
  9
$PUCSORGBOTTOM
 10
0.0
 20
0.0
 30
0.0
  9
$PUCSORGLEFT
 10
0.0
 20
0.0
 30
0.0
  9
$PUCSORGRIGHT
 10
0.0
 20
0.0
 30
0.0
  9
$PUCSORGFRONT
 10
0.0
 20
0.0
 30
0.0
  9
$PUCSORGBACK
 10
0.0
 20
0.0
 30
0.0
  9
$USERI1
 70
     0
  9
$USERI2
 70
     0
  9
$USERI3
 70
     0
  9
$USERI4
 70
     0
  9
$USERI5
 70
     0
  9
$USERR1
 40
0.0
  9
$USERR2
 40
0.0
  9
$USERR3
 40
0.0
  9
$USERR4
 40
0.0
  9
$USERR5
 40
0.0
  9
$WORLDVIEW
 70
     1
  9
$SHADEDGE
 70
     3
  9
$SHADEDIF
 70
    70
  9
$TILEMODE
 70
     1
  9
$MAXACTVP
 70
    64
  9
$PINSBASE
 10
0.0
 20
0.0
 30
0.0
  9
$PLIMCHECK
 70
     0
  9
$PEXTMIN
 10
0.0
 20
0.0
 30
0.0
  9
$PEXTMAX
 10
210.0
 20
297.0
 30
0.0
  9
$PLIMMIN
 10
0.0
 20
0.0
  9
$PLIMMAX
 10
210.0
 20
297.0
  9
$UNITMODE
 70
     0
  9
$VISRETAIN
 70
     1
  9
$PLINEGEN
 70
     0
  9
$PSLTSCALE
 70
     1
  9
$TREEDEPTH
 70
  3020
  9
$CMLSTYLE
  2
Standard
  9
$CMLJUST
 70
     0
  9
$CMLSCALE
 40
20.0
  9
$PROXYGRAPHICS
 70
     1
  9
$MEASUREMENT
 70
     1
  9
$CELWEIGHT
370
    -1
  9
$ENDCAPS
280
     0
  9
$JOINSTYLE
280
     0
  9
$LWDISPLAY
290
     0
  9
$INSUNITS
 70
     4
  9
$HYPERLINKBASE
  1

  9
$STYLESHEET
  1

  9
$XEDIT
290
     1
  9
$CEPSNTYPE
380
     0
  9
$PSTYLEMODE
290
     1
  9
$FINGERPRINTGUID
  2
{1AB0380B-DC33-489D-94C4-53068E30FA4E}
  9
$VERSIONGUID
  2
{FAEB1C32-E019-11D5-929B-00C0DF256EC4}
  9
$EXTNAMES
290
     1
  9
$PSVPSCALE
 40
0.0
  9
$OLESTARTUP
290
     0
  0
ENDSEC
  0
SECTION
  2
CLASSES
  0
CLASS
  1
ACDBDICTIONARYWDFLT
  2
AcDbDictionaryWithDefault
  3
ObjectDBX Classes
 90
        0
280
     0
281
     0
  0
CLASS
  1
VISUALSTYLE
  2
AcDbVisualStyle
  3
ObjectDBX Classes
 90
     4095
280
     0
281
     0
  0
CLASS
  1
MATERIAL
  2
AcDbMaterial
  3
ObjectDBX Classes
 90
     1153
280
     0
281
     0
  0
CLASS
  1
DICTIONARYVAR
  2
AcDbDictionaryVar
  3
ObjectDBX Classes
 90
        0
280
     0
281
     0
  0
CLASS
  1
ACDBPLACEHOLDER
  2
AcDbPlaceHolder
  3
ObjectDBX Classes
 90
        0
280
     0
281
     0
  0
CLASS
  1
LAYOUT
  2
AcDbLayout
  3
ObjectDBX Classes
 90
        0
280
     0
281
     0
  0
ENDSEC
  0
SECTION
  2
TABLES
  0
TABLE
  2
VPORT
  5
8
330
0
100
AcDbSymbolTable
 70
     1
  0
VPORT
  5
29
330
8
100
AcDbSymbolTableRecord
100
AcDbViewportTableRecord
  2
*Active
 70
     0
 10
0.0
 20
0.0
 11
1.0
 21
1.0
 12
344.1869158879
 22
148.5
 13
0.0
 23
0.0
 14
10.0
 24
10.0
 15
10.0
 25
10.0
 16
0.0
 26
0.0
 36
1.0
 17
0.0
 27
0.0
 37
0.0
 40
297.0
 41
1.9729729729
 42
50.0
 43
0.0
 44
0.0
 50
0.0
 51
0.0
 71
     0
 72
   100
 73
     1
 74
     3
 75
     0
 76
     0
 77
     0
 78
     0
281
     0
 65
     1
110
0.0
120
0.0
130
0.0
111
1.0
121
0.0
131
0.0
112
0.0
122
1.0
132
0.0
 79
     0
146
0.0
  0
ENDTAB
  0
TABLE
  2
LTYPE
  5
5
330
0
100
AcDbSymbolTable
 70
     2
  0
LTYPE
  5
14
330
5
100
AcDbSymbolTableRecord
100
AcDbLinetypeTableRecord
  2
ByBlock
 70
     0
  3

 72
    65
 73
     0
 40
0.0
  0
LTYPE
  5
15
330
5
100
AcDbSymbolTableRecord
100
AcDbLinetypeTableRecord
  2
ByLayer
 70
     0
  3

 72
    65
 73
     0
 40
0.0
  0
LTYPE
  5
16
330
5
100
AcDbSymbolTableRecord
100
AcDbLinetypeTableRecord
  2
Continuous
 70
     0
  3
Solid line
 72
    65
 73
     0
 40
0.0
  0
LTYPE
  5
60
330
5
100
AcDbSymbolTableRecord
100
AcDbLinetypeTableRecord
  2
HIDDEN2
 70
     0
  3
Hidden (.5x) _ _ _ _ _ _ _ _ _ _ _ _ _ _ _ _ _ 
 72
    65
 73
     2
 40
4.7625
 49
3.175
 74
     4
 75
     0
340
0
 46
0.0
 50
0.0
 44
0.0
 45
0.0
 49
-1.5875
 74
     4
 75
     0
340
0
 46
0.0
 50
0.0
 44
0.0
 45
0.0
  0
ENDTAB
  0
TABLE
  2
LAYER
  5
2
330
0
100
AcDbSymbolTable
 70
     5
  0
LAYER
  5
10
330
2
100
AcDbSymbolTableRecord
100
AcDbLayerTableRecord
  2
0
 70
     0
 62
     7
  6
Continuous
370
    -3
390
F
  0
LAYER
  5
3F
330
2
100
AcDbSymbolTableRecord
100
AcDbLayerTableRecord
  2
SK2
 70
     0
 62
     7
  6
Continuous
370
    15
390
F
  0
LAYER
  5
40
330
2
100
AcDbSymbolTableRecord
100
AcDbLayerTableRecord
  2
SK1
 70
     0
 62
     4
  6
Continuous
370
    18
390
F
  0
LAYER
  5
5F
330
2
100
AcDbSymbolTableRecord
100
AcDbLayerTableRecord
  2
SK3
 70
     0
 62
     1
  6
HIDDEN2
370
    15
390
F
  0
LAYER
  5
1A1
330
2
100
AcDbSymbolTableRecord
100
AcDbLayerTableRecord
  2
SK4
 70
     0
 62
     2
  6
Continuous
370
    13
390
F
  0
ENDTAB
  0
TABLE
  2
STYLE
  5
3
330
0
100
AcDbSymbolTable
 70
     2
  0
STYLE
  5
11
330
3
100
AcDbSymbolTableRecord
100
AcDbTextStyleTableRecord
  2
Standard
 70
     0
 40
0.0
 41
1.0
 50
0.0
 71
     0
 42
2.5
  3
txt
  4

  0
STYLE
  5
1B5
330
3
100
AcDbSymbolTableRecord
100
AcDbTextStyleTableRecord
  2
SEACAD_Solid_Edge_ISO
 70
     0
 40
0.0
 41
1.0
 50
0.0
 71
     0
 42
0.2
  3
seiso.ttf
  4

1001
ACAD
1000
Solid Edge ISO
1071
        0
  0
ENDTAB
  0
TABLE
  2
VIEW
  5
6
330
0
100
AcDbSymbolTable
 70
     0
  0
ENDTAB
  0
TABLE
  2
UCS
  5
7
330
0
100
AcDbSymbolTable
 70
     0
  0
ENDTAB
  0
TABLE
  2
APPID
  5
9
330
0
100
AcDbSymbolTable
 70
     1
  0
APPID
  5
12
330
9
100
AcDbSymbolTableRecord
100
AcDbRegAppTableRecord
  2
ACAD
 70
     0
  0
ENDTAB
  0
TABLE
  2
DIMSTYLE
  5
A
330
0
100
AcDbSymbolTable
 70
     3
100
AcDbDimStyleTable
  0
DIMSTYLE
105
27
330
A
100
AcDbSymbolTableRecord
100
AcDbDimStyleTableRecord
  2
ISO-25
 70
     0
 41
2.5
 42
0.625
 43
3.75
 44
1.25
 73
     0
 74
     0
 77
     1
 78
     8
140
2.5
141
2.5
143
0.0393700787
147
0.625
171
     3
172
     1
178
     0
271
     2
272
     2
274
     3
278
    44
283
     0
284
     8
340
11
  0
DIMSTYLE
105
1A3
330
A
100
AcDbSymbolTableRecord
100
AcDbDimStyleTableRecord
  2
Standard
 70
     0
178
     0
340
11
  0
DIMSTYLE
105
1B6
102
{ACAD_REACTORS
330
1B7
330
1C2
330
1CC
330
1D7
102
}
330
A
100
AcDbSymbolTableRecord
100
AcDbDimStyleTableRecord
  2
DIN
 70
     0
 41
3.5
 42
0.0
 44
1.75
 73
     0
 74
     0
 77
     1
 78
     8
140
3.5
141
1.75
147
1.75
172
     1
173
     1
178
     0
179
     3
271
     2
272
     2
278
    44
284
     8
340
1B5
343
1B0
344
1B0
  0
ENDTAB
  0
TABLE
  2
BLOCK_RECORD
  5
1
330
0
100
AcDbSymbolTable
 70
    10
  0
BLOCK_RECORD
  5
1F
330
1
100
AcDbSymbolTableRecord
100
AcDbBlockTableRecord
  2
*Model_Space
340
22
  0
BLOCK_RECORD
  5
1B
330
1
100
AcDbSymbolTableRecord
100
AcDbBlockTableRecord
  2
*Paper_Space
340
1E
  0
BLOCK_RECORD
  5
41
330
1
100
AcDbSymbolTableRecord
100
AcDbBlockTableRecord
  2
Nullpunkt
340
0
102
{BLKREFS
331
4B
102
}
  0
BLOCK_RECORD
  5
4C
330
1
100
AcDbSymbolTableRecord
100
AcDbBlockTableRecord
  2
Einfügepunkt
340
0
102
{BLKREFS
331
56
102
}
  0
BLOCK_RECORD
  5
1A4
330
1
100
AcDbSymbolTableRecord
100
AcDbBlockTableRecord
  2
_OBLIQUE
340
0
  0
BLOCK_RECORD
  5
1A8
330
1
100
AcDbSymbolTableRecord
100
AcDbBlockTableRecord
  2
_DOT
340
0
  0
BLOCK_RECORD
  5
1B0
330
1
100
AcDbSymbolTableRecord
100
AcDbBlockTableRecord
  2
_SE_FILLED
340
0
  0
BLOCK_RECORD
  5
1B8
330
1
100
AcDbSymbolTableRecord
100
AcDbBlockTableRecord
  2
DMBLK27
340
0
  0
BLOCK_RECORD
  5
1C3
330
1
100
AcDbSymbolTableRecord
100
AcDbBlockTableRecord
  2
DMBLK28
340
0
  0
BLOCK_RECORD
  5
1CD
330
1
100
AcDbSymbolTableRecord
100
AcDbBlockTableRecord
  2
DMBLK29
340
0
  0
BLOCK_RECORD
  5
1D8
330
1
100
AcDbSymbolTableRecord
100
AcDbBlockTableRecord
  2
DMBLK30
340
0
  0
ENDTAB
  0
ENDSEC
  0
SECTION
  2
BLOCKS
  0
BLOCK
  5
20
330
1F
100
AcDbEntity
  8
0
100
AcDbBlockBegin
  2
*Model_Space
 70
     0
 10
0.0
 20
0.0
 30
0.0
  3
*Model_Space
  1

  0
ENDBLK
  5
21
330
1F
100
AcDbEntity
  8
0
100
AcDbBlockEnd
  0
BLOCK
  5
1C
330
1B
100
AcDbEntity
 67
     1
  8
0
100
AcDbBlockBegin
  2
*Paper_Space
 70
     0
 10
0.0
 20
0.0
 30
0.0
  3
*Paper_Space
  1

  0
ENDBLK
  5
1D
330
1B
100
AcDbEntity
 67
     1
  8
0
100
AcDbBlockEnd
  0
BLOCK
  5
49
330
41
100
AcDbEntity
  8
0
100
AcDbBlockBegin
  2
Nullpunkt
 70
     0
 10
0.0
 20
0.0
 30
0.0
  3
Nullpunkt
  1

  0
HATCH
  5
42
330
41
100
AcDbEntity
  8
SK2
  6
Continuous
 62
     7
100
AcDbHatch
 10
0.0
 20
0.0
 30
0.0
210
0.0
220
0.0
230
1.0
  2
SOLID
 70
     1
 71
     0
 91
        1
 92
        1
 93
        3
 72
     1
 10
-1.0
 20
0.0
 11
0.0000000000000009
 21
0.0
 72
     1
 10
0.0
 20
0.0
 11
0.0
 21
1.000000000000001
 72
     2
 10
0.0
 20
0.0
 40
1.0
 50
90.0
 51
180.0
 73
     1
 97
        0
 75
     0
 76
     1
 98
        0
  0
HATCH
  5
43
330
41
100
AcDbEntity
  8
SK2
  6
Continuous
 62
     7
100
AcDbHatch
 10
0.0
 20
0.0
 30
0.0
210
0.0
220
0.0
230
1.0
  2
SOLID
 70
     1
 71
     0
 91
        1
 92
        1
 93
        3
 72
     2
 10
0.0
 20
0.0
 40
1.0
 50
270.0
 51
360.0
 73
     1
 72
     1
 10
1.0
 20
0.0
 11
-0.0000000000000009
 21
0.0
 72
     1
 10
0.0
 20
0.0
 11
0.0
 21
-1.000000000000001
 97
        0
 75
     0
 76
     1
 98
        0
  0
CIRCLE
  5
44
330
41
100
AcDbEntity
  8
SK2
  6
Continuous
 62
     7
100
AcDbCircle
 10
0.0
 20
0.0
 30
0.0
 40
1.0
  0
LINE
  5
45
330
41
100
AcDbEntity
  8
SK1
  6
Continuous
100
AcDbLine
 10
-1.0
 20
0.0
 30
0.0
 11
1.0
 21
0.0
 31
0.0
  0
LINE
  5
46
330
41
100
AcDbEntity
  8
SK1
  6
Continuous
100
AcDbLine
 10
0.0
 20
1.0
 30
0.0
 11
0.0
 21
-1.0
 31
0.0
  0
POINT
  5
47
330
41
100
AcDbEntity
  8
SK1
  6
Continuous
100
AcDbPoint
 10
0.0
 20
0.0
 30
0.0
  0
POINT
  5
48
330
41
100
AcDbEntity
  8
SK1
  6
Continuous
100
AcDbPoint
 10
0.0
 20
0.0
 30
0.0
  0
ENDBLK
  5
4A
330
41
100
AcDbEntity
  8
0
100
AcDbBlockEnd
  0
BLOCK
  5
54
330
4C
100
AcDbEntity
  8
0
100
AcDbBlockBegin
  2
Einfügepunkt
 70
     0
 10
0.0
 20
0.0
 30
0.0
  3
Einfügepunkt
  1

  0
HATCH
  5
4D
330
4C
100
AcDbEntity
  8
SK2
  6
Continuous
 62
     7
100
AcDbHatch
 10
0.0
 20
0.0
 30
0.0
210
0.0
220
0.0
230
1.0
  2
SOLID
 70
     1
 71
     0
 91
        1
 92
        1
 93
        3
 72
     1
 10
-0.4502381196756744
 20
-0.0000000000000018
 11
0.0000000000000033
 21
-0.0000000000000018
 72
     1
 10
0.0
 20
-0.0000000000000018
 11
0.0
 21
0.4502381196756812
 72
     2
 10
0.0
 20
-0.0000000000000018
 40
0.4502381196756812
 50
90.0
 51
180.0
 73
     1
 97
        0
 75
     0
 76
     1
 98
        0
  0
HATCH
  5
4E
330
4C
100
AcDbEntity
  8
SK2
  6
Continuous
 62
     7
100
AcDbHatch
 10
0.0
 20
0.0
 30
0.0
210
0.0
220
0.0
230
1.0
  2
SOLID
 70
     1
 71
     0
 91
        1
 92
        1
 93
        3
 72
     2
 10
0.0
 20
-0.0000000000000018
 40
0.4502381196756812
 50
270.0
 51
360.0
 73
     1
 72
     1
 10
0.4502381196756815
 20
-0.0000000000000018
 11
0.0000000000000038
 21
-0.0000000000000018
 72
     1
 10
0.0
 20
-0.0000000000000018
 11
0.0
 21
-0.4502381196756812
 97
        0
 75
     0
 76
     1
 98
        0
  0
CIRCLE
  5
4F
330
4C
100
AcDbEntity
  8
SK2
  6
Continuous
 62
     7
100
AcDbCircle
 10
0.0
 20
0.0
 30
0.0
 40
0.4502381196756812
  0
LINE
  5
50
330
4C
100
AcDbEntity
  8
SK1
  6
Continuous
100
AcDbLine
 10
-0.4502381197
 20
0.0
 30
0.0
 11
0.4502381197
 21
0.0
 31
0.0
  0
LINE
  5
51
330
4C
100
AcDbEntity
  8
SK1
  6
Continuous
100
AcDbLine
 10
0.0
 20
0.4502381197
 30
0.0
 11
0.0
 21
-0.4502381197
 31
0.0
  0
POINT
  5
52
330
4C
100
AcDbEntity
  8
SK2
  6
Continuous
 62
     7
100
AcDbPoint
 10
0.0
 20
0.0
 30
0.0
  0
POINT
  5
53
330
4C
100
AcDbEntity
  8
SK2
  6
Continuous
 62
     7
100
AcDbPoint
 10
0.0
 20
0.0
 30
0.0
  0
ENDBLK
  5
55
330
4C
100
AcDbEntity
  8
0
100
AcDbBlockEnd
  0
BLOCK
  5
1A5
330
1A4
100
AcDbEntity
  8
0
100
AcDbBlockBegin
  2
_OBLIQUE
 70
     0
 10
0.0
 20
0.0
 30
0.0
  3
_OBLIQUE
  1

  0
LINE
  5
1A7
330
1A4
100
AcDbEntity
  8
0
  6
ByBlock
 62
     0
370
    -2
100
AcDbLine
 10
-0.5
 20
-0.5
 30
0.0
 11
0.5
 21
0.5
 31
0.0
  0
ENDBLK
  5
1A6
330
1A4
100
AcDbEntity
  8
0
100
AcDbBlockEnd
  0
BLOCK
  5
1A9
330
1A8
100
AcDbEntity
  8
0
100
AcDbBlockBegin
  2
_DOT
 70
     0
 10
0.0
 20
0.0
 30
0.0
  3
_DOT
  1

  0
POLYLINE
  5
1AB
330
1A8
100
AcDbEntity
  8
0
  6
ByBlock
 62
     0
100
AcDb2dPolyline
 66
     1
 10
0.0
 20
0.0
 30
0.0
 70
     1
 40
0.5
 41
0.5
  0
VERTEX
  5
1AD
330
1AB
100
AcDbEntity
  8
0
  6
ByBlock
 62
     0
100
AcDbVertex
100
AcDb2dVertex
 10
-0.25
 20
0.0
 30
0.0
 42
1.0
  0
VERTEX
  5
1AE
330
1AB
100
AcDbEntity
  8
0
  6
ByBlock
 62
     0
100
AcDbVertex
100
AcDb2dVertex
 10
0.25
 20
0.0
 30
0.0
 42
1.0
  0
SEQEND
  5
1AF
330
1AB
100
AcDbEntity
  8
0
  6
ByBlock
 62
     0
  0
LINE
  5
1AC
330
1A8
100
AcDbEntity
  8
0
  6
ByBlock
 62
     0
370
    -2
100
AcDbLine
 10
-0.5
 20
0.0
 30
0.0
 11
-1.0
 21
0.0
 31
0.0
  0
ENDBLK
  5
1AA
330
1A8
100
AcDbEntity
  8
0
100
AcDbBlockEnd
  0
BLOCK
  5
1B3
330
1B0
100
AcDbEntity
  8
0
100
AcDbBlockBegin
  2
_SE_FILLED
 70
     0
 10
0.0
 20
0.0
 30
0.0
  3
_SE_FILLED
  1

  0
SOLID
  5
1B1
330
1B0
100
AcDbEntity
  8
0
 62
     0
100
AcDbTrace
 10
0.0
 20
0.0
 30
0.0
 11
-1.0
 21
-0.1665
 31
0.0
 12
-1.0
 22
0.1665
 32
0.0
 13
0.0
 23
0.0
 33
0.0
  0
LINE
  5
1B2
330
1B0
100
AcDbEntity
  8
0
 62
     0
100
AcDbLine
 10
0.0
 20
0.0
 30
0.0
 11
-1.0
 21
0.0
 31
0.0
  0
ENDBLK
  5
1B4
330
1B0
100
AcDbEntity
  8
0
100
AcDbBlockEnd
  0
BLOCK
  5
1C0
330
1B8
100
AcDbEntity
  8
0
100
AcDbBlockBegin
  2
DMBLK27
 70
     0
 10
0.0
 20
0.0
 30
0.0
  3
DMBLK27
  1

  0
HATCH
  5
1B9
330
1B8
100
AcDbEntity
  8
SK2
  6
Continuous
 62
   136
100
AcDbHatch
 10
0.0
 20
0.0
 30
0.0
210
0.0
220
0.0
230
1.0
  2
SOLID
 70
     1
 71
     0
 91
        1
 92
        1
 93
        3
 72
     1
 10
16.76554926844934
 20
4.375000207804116
 11
15.59888256577153
 21
4.375000207804116
 72
     1
 10
15.59888256577153
 20
4.375000207804116
 11
16.18221591711044
 21
0.8750000997706984
 72
     1
 10
16.18221591711044
 20
0.8750000997706981
 11
16.76554926844934
 21
4.375000207804116
 97
        0
 75
     0
 76
     1
 98
        0
  0
HATCH
  5
1BA
330
1B8
100
AcDbEntity
  8
SK2
  6
Continuous
 62
   136
100
AcDbHatch
 10
0.0
 20
0.0
 30
0.0
210
0.0
220
0.0
230
1.0
  2
SOLID
 70
     1
 71
     0
 91
        1
 92
        1
 93
        3
 72
     1
 10
16.76554926844934
 20
-4.375000008262719
 11
16.18221591711044
 21
-0.8749999002293012
 72
     1
 10
16.18221591711044
 20
-0.8749999002293009
 11
15.59888256577153
 21
-4.375000008262719
 72
     1
 10
15.59888256577153
 20
-4.375000008262719
 11
16.76554926844934
 21
-4.375000008262719
 97
        0
 75
     0
 76
     1
 98
        0
  0
LINE
  5
1BB
330
1B8
100
AcDbEntity
  8
SK2
  6
Continuous
 62
   136
100
AcDbLine
 10
6.05
 20
0.8750000998
 30
0.0
 11
17.9322159711
 21
0.8750000998
 31
0.0
  0
LINE
  5
1BC
330
1B8
100
AcDbEntity
  8
SK2
  6
Continuous
 62
   136
100
AcDbLine
 10
6.05
 20
-0.8749999002
 30
0.0
 11
17.9322159711
 21
-0.8749999002
 31
0.0
  0
LINE
  5
1BD
330
1B8
100
AcDbEntity
  8
SK2
  6
Continuous
 62
   136
100
AcDbLine
 10
16.1822159171
 20
18.6532588705
 30
0.0
 11
16.1822159171
 21
-7.8749999375
 31
0.0
  0
TEXT
  5
1BE
330
1B8
100
AcDbEntity
  8
SK2
  6
Continuous
 62
   136
100
AcDbText
 10
15.3072159171
 20
11.1441673227
 30
0.0
 40
3.5
  1
1,75
 50
90.0
  7
SEACAD_Solid_Edge_ISO
 11
11.8072159171
 21
11.1441673227
 31
0.0
100
AcDbText
 73
     3
  0
TEXT
  5
1BF
330
1B8
100
AcDbEntity
  8
SK2
  6
Continuous
 62
   136
100
AcDbText
 10
15.3072159171
 20
7.0714400499
 30
0.0
 40
3.5
  1
ø
 50
90.0
  7
SEACAD_Solid_Edge_ISO
 11
11.8072159171
 21
7.0714400499
 31
0.0
100
AcDbText
 73
     3
  0
ENDBLK
  5
1C1
330
1B8
100
AcDbEntity
  8
0
100
AcDbBlockEnd
  0
BLOCK
  5
1CA
330
1C3
100
AcDbEntity
  8
0
100
AcDbBlockBegin
  2
DMBLK28
 70
     0
 10
0.0
 20
0.0
 30
0.0
  3
DMBLK28
  1

  0
HATCH
  5
1C4
330
1C3
100
AcDbEntity
  8
SK2
  6
Continuous
 62
   136
100
AcDbHatch
 10
0.0
 20
0.0
 30
0.0
210
0.0
220
0.0
230
1.0
  2
SOLID
 70
     1
 71
     0
 91
        1
 92
        1
 93
        3
 72
     1
 10
-3.500000108033421
 20
-15.00777332001684
 11
-0.0000000000000027
 21
-14.42443996867794
 72
     1
 10
-0.0000000000000022
 20
-14.42443996867794
 11
-3.50000010803342
 21
-13.84110661733904
 72
     1
 10
-3.500000108033421
 20
-13.84110661733904
 11
-3.500000108033421
 21
-15.00777332001684
 97
        0
 75
     0
 76
     1
 98
        0
  0
HATCH
  5
1C5
330
1C3
100
AcDbEntity
  8
SK2
  6
Continuous
 62
   136
100
AcDbHatch
 10
0.0
 20
0.0
 30
0.0
210
0.0
220
0.0
230
1.0
  2
SOLID
 70
     1
 71
     0
 91
        1
 92
        1
 93
        3
 72
     1
 10
9.750000108033415
 20
-15.00777332001684
 11
9.750000108033415
 21
-13.84110661733904
 72
     1
 10
9.750000108033415
 20
-13.84110661733904
 11
6.249999999999996
 21
-14.42443996867794
 72
     1
 10
6.249999999999996
 20
-14.42443996867794
 11
9.750000108033415
 21
-15.00777332001684
 97
        0
 75
     0
 76
     1
 98
        0
  0
LINE
  5
1C6
330
1C3
100
AcDbEntity
  8
SK2
  6
Continuous
 62
   136
100
AcDbLine
 10
0.0
 20
-5.4994528016
 30
0.0
 11
0.0
 21
-16.1744400227
 31
0.0
  0
LINE
  5
1C7
330
1C3
100
AcDbEntity
  8
SK2
  6
Continuous
 62
   136
100
AcDbLine
 10
6.25
 20
-3.8462451434
 30
0.0
 11
6.25
 21
-16.1744400227
 31
0.0
  0
LINE
  5
1C8
330
1C3
100
AcDbEntity
  8
SK2
  6
Continuous
 62
   136
100
AcDbLine
 10
-7.0000002161
 20
-14.4244399687
 30
0.0
 11
17.3992365599
 21
-14.4244399687
 31
0.0
  0
TEXT
  5
1C9
330
1C3
100
AcDbEntity
  8
SK2
  6
Continuous
 62
   136
100
AcDbText
 10
11.5606000036
 20
-13.5494399687
 30
0.0
 40
3.5
  1
6,3
  7
SEACAD_Solid_Edge_ISO
 11
11.5606000036
 21
-10.0494399687
 31
0.0
100
AcDbText
 73
     3
  0
ENDBLK
  5
1CB
330
1C3
100
AcDbEntity
  8
0
100
AcDbBlockEnd
  0
BLOCK
  5
1D5
330
1CD
100
AcDbEntity
  8
0
100
AcDbBlockBegin
  2
DMBLK29
 70
     0
 10
0.0
 20
0.0
 30
0.0
  3
DMBLK29
  1

  0
HATCH
  5
1CE
330
1CD
100
AcDbEntity
  8
SK2
  6
Continuous
 62
   136
100
AcDbHatch
 10
0.0
 20
0.0
 30
0.0
210
0.0
220
0.0
230
1.0
  2
SOLID
 70
     1
 71
     0
 91
        1
 92
        1
 93
        3
 72
     1
 10
-17.03190562936167
 20
8.999453109132775
 11
-16.44857227802277
 21
5.499453001099356
 72
     1
 10
-16.44857227802277
 20
5.499453001099356
 11
-15.86523892668387
 21
8.999453109132775
 72
     1
 10
-15.86523892668387
 20
8.999453109132775
 11
-17.03190562936167
 21
8.999453109132775
 97
        0
 75
     0
 76
     1
 98
        0
  0
HATCH
  5
1CF
330
1CD
100
AcDbEntity
  8
SK2
  6
Continuous
 62
   136
100
AcDbHatch
 10
0.0
 20
0.0
 30
0.0
210
0.0
220
0.0
230
1.0
  2
SOLID
 70
     1
 71
     0
 91
        1
 92
        1
 93
        3
 72
     1
 10
-17.03190562936167
 20
-8.999452909591378
 11
-15.86523892668387
 21
-8.999452909591378
 72
     1
 10
-15.86523892668387
 20
-8.999452909591378
 11
-16.44857227802277
 21
-5.499452801557959
 72
     1
 10
-16.44857227802277
 20
-5.499452801557959
 11
-17.03190562936167
 21
-8.999452909591378
 97
        0
 75
     0
 76
     1
 98
        0
  0
LINE
  5
1D0
330
1CD
100
AcDbEntity
  8
SK2
  6
Continuous
 62
   136
100
AcDbLine
 10
0.0
 20
5.4994530011
 30
0.0
 11
-18.198572332
 21
5.4994530011
 31
0.0
  0
LINE
  5
1D1
330
1CD
100
AcDbEntity
  8
SK2
  6
Continuous
 62
   136
100
AcDbLine
 10
0.0
 20
-5.4994528016
 30
0.0
 11
-18.198572332
 21
-5.4994528016
 31
0.0
  0
LINE
  5
1D2
330
1CD
100
AcDbEntity
  8
SK2
  6
Continuous
 62
   136
100
AcDbLine
 10
-16.448572278
 20
12.4994532172
 30
0.0
 11
-16.448572278
 21
-12.4994528513
 31
0.0
  0
TEXT
  5
1D3
330
1CD
100
AcDbEntity
  8
SK2
  6
Continuous
 62
   136
100
AcDbText
 10
-17.323572278
 20
0.6045456375
 30
0.0
 40
3.5
  1
11
 50
90.0
  7
SEACAD_Solid_Edge_ISO
 11
-20.823572278
 21
0.6045456375
 31
0.0
100
AcDbText
 73
     3
  0
TEXT
  5
1D4
330
1CD
100
AcDbEntity
  8
SK2
  6
Continuous
 62
   136
100
AcDbText
 10
-17.323572278
 20
-3.4681816353
 30
0.0
 40
3.5
  1
ø
 50
90.0
  7
SEACAD_Solid_Edge_ISO
 11
-20.823572278
 21
-3.4681816353
 31
0.0
100
AcDbText
 73
     3
  0
ENDBLK
  5
1D6
330
1CD
100
AcDbEntity
  8
0
100
AcDbBlockEnd
  0
BLOCK
  5
1DF
330
1D8
100
AcDbEntity
  8
0
100
AcDbBlockBegin
  2
DMBLK30
 70
     0
 10
0.0
 20
0.0
 30
0.0
  3
DMBLK30
  1

  0
HATCH
  5
1D9
330
1D8
100
AcDbEntity
  8
SK2
  6
Continuous
 62
   136
100
AcDbHatch
 10
0.0
 20
0.0
 30
0.0
210
0.0
220
0.0
230
1.0
  2
SOLID
 70
     1
 71
     0
 91
        1
 92
        1
 93
        3
 72
     1
 10
-8.249999891966592
 20
10.73193975315261
 11
-11.75000000000001
 21
10.14860640181371
 72
     1
 10
-11.75000000000001
 20
10.14860640181371
 11
-8.249999891966592
 21
9.56527305047481
 72
     1
 10
-8.249999891966592
 20
9.56527305047481
 11
-8.249999891966592
 21
10.73193975315261
 97
        0
 75
     0
 76
     1
 98
        0
  0
HATCH
  5
1DA
330
1D8
100
AcDbEntity
  8
SK2
  6
Continuous
 62
   136
100
AcDbHatch
 10
0.0
 20
0.0
 30
0.0
210
0.0
220
0.0
230
1.0
  2
SOLID
 70
     1
 71
     0
 91
        1
 92
        1
 93
        3
 72
     1
 10
2.749999117106189
 20
10.73193975315261
 11
2.749999117106189
 21
9.56527305047481
 72
     1
 10
2.749999117106189
 20
9.56527305047481
 11
6.249999225139607
 21
10.14860640181371
 72
     1
 10
6.249999225139607
 20
10.14860640181371
 11
2.749999117106189
 21
10.73193975315261
 97
        0
 75
     0
 76
     1
 98
        0
  0
LINE
  5
1DB
330
1D8
100
AcDbEntity
  8
SK2
  6
Continuous
 62
   136
100
AcDbLine
 10
-11.75
 20
3.2137587191
 30
0.0
 11
-11.75
 21
11.8986064558
 31
0.0
  0
LINE
  5
1DC
330
1D8
100
AcDbEntity
  8
SK2
  6
Continuous
 62
   136
100
AcDbLine
 10
6.25
 20
3.846245343
 30
0.0
 11
6.25
 21
11.8986064558
 31
0.0
  0
LINE
  5
1DD
330
1D8
100
AcDbEntity
  8
SK2
  6
Continuous
 62
   136
100
AcDbLine
 10
-11.75
 20
10.1486064018
 30
0.0
 11
6.2499992251
 21
10.1486064018
 31
0.0
  0
TEXT
  5
1DE
330
1D8
100
AcDbEntity
  8
SK2
  6
Continuous
 62
   136
100
AcDbText
 10
-4.579545842
 20
11.0236064018
 30
0.0
 40
3.5
  1
18
  7
SEACAD_Solid_Edge_ISO
 11
-4.579545842
 21
14.5236064018
 31
0.0
100
AcDbText
 73
     3
  0
ENDBLK
  5
1E0
330
1D8
100
AcDbEntity
  8
0
100
AcDbBlockEnd
  0
ENDSEC
  0
SECTION
  2
ENTITIES
  0
INSERT
  5
4B
330
1F
100
AcDbEntity
  8
SK2
 62
     7
100
AcDbBlockReference
  2
Nullpunkt
 10
0.0
 20
0.0000000998
 30
0.0
  0
INSERT
  5
56
330
1F
100
AcDbEntity
  8
SK2
 62
     7
100
AcDbBlockReference
  2
Einfügepunkt
 10
6.25
 20
0.0000000998
 30
0.0
  0
LINE
  5
57
330
1F
100
AcDbEntity
  8
SK1
  6
Continuous
100
AcDbLine
 10
-11.75
 20
-2.4373647129
 30
0.0
 11
-11.75
 21
-0.2249999002
 31
0.0
  0
LINE
  5
58
330
1F
100
AcDbEntity
  8
SK1
  6
Continuous
100
AcDbLine
 10
-11.5778346202
 20
-2.577658977
 30
0.0
 11
-11.5778346202
 21
-0.2249999002
 31
0.0
  0
LINE
  5
59
330
1F
100
AcDbEntity
  8
SK1
  6
Continuous
100
AcDbLine
 10
1.75
 20
-1.9908714571
 30
0.0
 11
1.75
 21
-0.2249999002
 31
0.0
  0
LINE
  5
5A
330
1F
100
AcDbEntity
  8
SK1
  6
Continuous
100
AcDbLine
 10
1.85
 20
-1.6078328641
 30
0.0
 11
1.85
 21
-0.2249999002
 31
0.0
  0
LINE
  5
5B
330
1F
100
AcDbEntity
  8
SK1
  6
Continuous
100
AcDbLine
 10
3.65
 20
-1.6078328641
 30
0.0
 11
3.65
 21
-0.2249999002
 31
0.0
  0
LINE
  5
5C
330
1F
100
AcDbEntity
  8
SK1
  6
Continuous
100
AcDbLine
 10
3.75
 20
-2.0291686302
 30
0.0
 11
3.75
 21
-0.2249999002
 31
0.0
  0
LINE
  5
5D
330
1F
100
AcDbEntity
  8
SK1
  6
Continuous
100
AcDbLine
 10
6.125
 20
-1.5039227728
 30
0.0
 11
6.125
 21
-0.2249999002
 31
0.0
  0
LINE
  5
5E
330
1F
100
AcDbEntity
  8
SK1
  6
Continuous
100
AcDbLine
 10
6.25
 20
-1.4209592996
 30
0.0
 11
6.25
 21
-0.2249999002
 31
0.0
  0
LINE
  5
61
330
1F
100
AcDbEntity
  8
SK3
100
AcDbLine
 10
-2.75
 20
-0.5911361968
 30
0.0
 11
-2.75
 21
-0.2249999002
 31
0.0
  0
LINE
  5
62
330
1F
100
AcDbEntity
  8
SK3
100
AcDbLine
 10
-11.25
 20
-1.6014938144
 30
0.0
 11
-11.25
 21
-0.2249999002
 31
0.0
  0
SPLINE
  5
63
330
1F
100
AcDbEntity
  8
SK3
100
AcDbSpline
210
0.0
220
0.0
230
1.0
 70
     8
 71
     3
 72
    10
 73
     6
 74
     0
 42
0.0000000425868392
 43
0.0000000001
 12
1.0
 22
0.0
 32
0.0
 13
1.0
 23
0.0
 33
0.0
 40
0.0
 40
0.0
 40
0.0
 40
0.0
 40
0.5
 40
0.5
 40
1.0
 40
1.0
 40
1.0
 40
1.0
 10
-2.75000000000001
 20
-0.6101457165720423
 30
0.0
 10
-2.750000000000008
 20
-0.5899411253469302
 30
0.0
 10
-2.72897767034157
 20
-0.5695638423194197
 30
0.0
 10
-2.655291125324291
 20
-0.5402149289967693
 30
0.0
 10
-2.60279509679135
 20
-0.5314609989792718
 30
0.0
 10
-2.55000000000001
 20
-0.5314609989792326
 30
0.0
  0
SPLINE
  5
64
330
1F
100
AcDbEntity
  8
SK3
100
AcDbSpline
210
0.0
220
0.0
230
1.0
 70
     8
 71
     3
 72
    10
 73
     6
 74
     0
 42
0.0000000425868392
 43
0.0000000001
 12
1.0
 22
0.0
 32
0.0
 13
1.0
 23
0.0
 33
0.0
 40
0.0
 40
0.0
 40
0.0
 40
0.0
 40
0.5
 40
0.5
 40
1.0
 40
1.0
 40
1.0
 40
1.0
 10
-2.75000000000001
 20
-0.1943999269419633
 30
0.0
 10
-2.75000000000001
 20
-0.1741953357171334
 30
0.0
 10
-2.728977670342232
 20
-0.1538180526899245
 30
0.0
 10
-2.655291125326716
 20
-0.124469139367336
 30
0.0
 10
-2.602795096795051
 20
-0.1157152093496552
 30
0.0
 10
-2.550000000003701
 20
-0.1157152093273991
 30
0.0
  0
ARC
  5
65
330
1F
100
AcDbEntity
  8
SK3
100
AcDbCircle
 10
-8.2571255755
 20
-0.95770111
 30
0.0
 40
0.9928749207262525
100
AcDbArc
 50
179.942718413
 51
191.7975662542
  0
LINE
  5
66
330
1F
100
AcDbEntity
  8
SK3
100
AcDbLine
 10
-9.2290270801
 20
-0.7449530384
 30
0.0
 11
-9.25
 21
-0.9567084811
 31
0.0
  0
LINE
  5
67
330
1F
100
AcDbEntity
  8
SK3
100
AcDbLine
 10
-9.2290270801
 20
-1.1606988281
 30
0.0
 11
-9.25
 21
-1.164581376
 31
0.0
  0
LINE
  5
68
330
1F
100
AcDbEntity
  8
SK3
100
AcDbLine
 10
-9.25
 20
-0.7488355863
 30
0.0
 11
-9.25
 21
-1.3986418213
 31
0.0
  0
LINE
  5
69
330
1F
100
AcDbEntity
  8
SK1
  6
Continuous
100
AcDbLine
 10
-9.25
 20
-1.3986418213
 30
0.0
 11
1.75
 21
-1.9908714571
 31
0.0
  0
SPLINE
  5
6A
330
1F
100
AcDbEntity
  8
SK1
  6
Continuous
100
AcDbSpline
210
0.0
220
0.0
230
1.0
 70
     8
 71
     3
 72
    23
 73
    19
 74
     0
 42
0.0000000874130399
 43
0.0000000001
 12
1.0
 22
0.0
 32
0.0
 13
1.0
 23
0.0
 33
0.0
 40
0.0
 40
0.0
 40
0.0
 40
0.0
 40
0.1269482408908205
 40
0.1269482408908205
 40
0.1269482408908205
 40
0.2608097305717903
 40
0.2608097305717903
 40
0.2608097305717903
 40
0.4758278739161446
 40
0.4758278739161446
 40
0.4758278739161446
 40
0.6908575624478925
 40
0.6908575624478925
 40
0.6908575624478925
 40
0.9057170526809306
 40
0.9057170526809306
 40
0.9057170526809306
 40
1.0
 40
1.0
 40
1.0
 40
1.0
 10
1.749999999992293
 20
-1.646143324158527
 30
0.0
 10
1.749999999999905
 20
-1.643606116681068
 30
0.0
 10
1.750664424964282
 20
-1.641056506858358
 30
0.0
 10
1.751973853394383
 20
-1.638569274658582
 30
0.0
 10
1.753363329789564
 20
-1.635929993006014
 30
0.0
 10
1.755494844850187
 20
-1.633332807885396
 30
0.0
 10
1.758298297031388
 20
-1.630863482126284
 30
0.0
 10
1.762762395661441
 20
-1.626931432272776
 30
0.0
 10
1.769060678399096
 20
-1.623239847824292
 30
0.0
 10
1.77667338627635
 20
-1.620094635185228
 30
0.0
 10
1.784286334805546
 20
-1.616949323120107
 30
0.0
 10
1.793424075208182
 20
-1.614263681947183
 30
0.0
 10
1.803329895252595
 20
-1.612261063966133
 30
0.0
 10
1.813227923132816
 20
-1.61026002129415
 30
0.0
 10
1.824166187831396
 20
-1.608885719242695
 30
0.0
 10
1.835237602255345
 20
-1.60825261998885
 30
0.0
 10
1.840117783540891
 20
-1.607973555452721
 30
0.0
 10
1.845065636119656
 20
-1.607832864064842
 30
0.0
 10
1.849999999999997
 20
-1.607832864064843
 30
0.0
  0
LINE
  5
6B
330
1F
100
AcDbEntity
  8
SK1
  6
Continuous
100
AcDbLine
 10
1.85
 20
-1.6078328641
 30
0.0
 11
3.65
 21
-1.6078328641
 31
0.0
  0
SPLINE
  5
6C
330
1F
100
AcDbEntity
  8
SK1
  6
Continuous
100
AcDbSpline
210
0.0
220
0.0
230
1.0
 70
     8
 71
     3
 72
    23
 73
    19
 74
     0
 42
0.0000000873343113
 43
0.0000000001
 12
1.0
 22
0.0
 32
0.0
 13
1.0
 23
0.0
 33
0.0
 40
0.0
 40
0.0
 40
0.0
 40
0.0
 40
0.1762408865270348
 40
0.1762408865270348
 40
0.1762408865270348
 40
0.3908346224316143
 40
0.3908346224316143
 40
0.3908346224316143
 40
0.6055493281791104
 40
0.6055493281791104
 40
0.6055493281791104
 40
0.7386809412644514
 40
0.7386809412644514
 40
0.7386809412644514
 40
0.9539493899899539
 40
0.9539493899899539
 40
0.9539493899899539
 40
1.0
 40
1.0
 40
1.0
 40
1.0
 10
3.649999999999994
 20
-1.607832864064842
 30
0.0
 10
3.659186326927572
 20
-1.607832864064843
 30
0.0
 10
3.668458765568133
 20
-1.608327111222381
 30
0.0
 10
3.677295518728275
 20
-1.609287669202494
 30
0.0
 10
3.688050515681577
 20
-1.610456740914962
 30
0.0
 10
3.698426193054507
 20
-1.612352347620462
 30
0.0
 10
3.707565027737675
 20
-1.614817145842879
 30
0.0
 10
3.716709049018713
 20
-1.617283342921677
 30
0.0
 10
3.724866765503116
 20
-1.620387243308352
 30
0.0
 10
3.731365446568493
 20
-1.623871798977376
 30
0.0
 10
3.735430238718147
 20
-1.626051317311326
 30
0.0
 10
3.738913486970232
 20
-1.628407576642
 30
0.0
 10
3.7417017029686
 20
-1.630863482126284
 30
0.0
 10
3.74617072037538
 20
-1.634799864517423
 30
0.0
 10
3.748924895401169
 20
-1.639085869268263
 30
0.0
 10
3.749736950710433
 20
-1.643366451382597
 30
0.0
 10
3.749912202002756
 20
-1.644290252432685
 30
0.0
 10
3.749999999999996
 20
-1.645217091899377
 30
0.0
 10
3.749999999999996
 20
-1.646143324158112
 30
0.0
  0
SPLINE
  5
6D
330
1F
100
AcDbEntity
  8
SK1
  6
Continuous
100
AcDbSpline
210
0.0
220
0.0
230
1.0
 70
     8
 71
     3
 72
     8
 73
     4
 74
     0
 42
0.0000000041111873
 43
0.0000000001
 12
1.0
 22
0.0
 32
0.0
 13
1.0
 23
0.0
 33
0.0
 40
0.0
 40
0.0
 40
0.0
 40
0.0
 40
1.0
 40
1.0
 40
1.0
 40
1.0
 10
3.749999999999996
 20
-2.029168630154507
 30
0.0
 10
4.541711652869764
 20
-1.854116446779959
 30
0.0
 10
5.333392151072022
 20
-1.679043615648641
 30
0.0
 10
6.124999999999998
 20
-1.503922772815954
 30
0.0
  0
SPLINE
  5
6E
330
1F
100
AcDbEntity
  8
SK1
  6
Continuous
100
AcDbSpline
210
0.0
220
0.0
230
1.0
 70
     8
 71
     3
 72
    10
 73
     6
 74
     0
 42
0.0000000616006931
 43
0.0000000001
 12
1.0
 22
0.0
 32
0.0
 13
1.0
 23
0.0
 33
0.0
 40
0.0
 40
0.0
 40
0.0
 40
0.0
 40
0.5
 40
0.5
 40
1.0
 40
1.0
 40
1.0
 40
1.0
 10
6.124999999999998
 20
-1.503922772815954
 30
0.0
 10
6.162588024093593
 20
-1.495607485810399
 30
0.0
 10
6.194954277883236
 20
-1.483190861784586
 30
0.0
 10
6.23826279691328
 20
-1.454392590371788
 30
0.0
 10
6.249999999999998
 20
-1.437792013187692
 30
0.0
 10
6.249999999999998
 20
-1.420959299610288
 30
0.0
  0
LINE
  5
6F
330
1F
100
AcDbEntity
  8
SK3
100
AcDbLine
 10
-9.2290270801
 20
-1.1606988281
 30
0.0
 11
-3.15
 21
-1.1606988281
 31
0.0
  0
SPLINE
  5
70
330
1F
100
AcDbEntity
  8
SK3
100
AcDbSpline
210
0.0
220
0.0
230
1.0
 70
     8
 71
     3
 72
    10
 73
     6
 74
     0
 42
0.000000021377794
 43
0.0000000001
 12
1.0
 22
0.0
 32
0.0
 13
1.0
 23
0.0
 33
0.0
 40
0.0
 40
0.0
 40
0.0
 40
0.0
 40
0.5
 40
0.5
 40
1.0
 40
1.0
 40
1.0
 40
1.0
 10
-3.150000000000007
 20
-1.160698828059195
 30
0.0
 10
-3.04559324983305
 20
-1.160698828059206
 30
0.0
 10
-2.940320946339018
 20
-1.143927232027239
 30
0.0
 10
-2.792696116510862
 20
-1.086918746422779
 30
0.0
 10
-2.750000000000007
 20
-1.046841637036955
 30
0.0
 10
-2.750000000000009
 20
-1.006881986407273
 30
0.0
  0
LINE
  5
71
330
1F
100
AcDbEntity
  8
SK3
100
AcDbLine
 10
-2.75
 20
-1.0068819864
 30
0.0
 11
-2.75
 21
-0.6101457166
 31
0.0
  0
LINE
  5
72
330
1F
100
AcDbEntity
  8
SK3
100
AcDbLine
 10
-2.55
 20
-0.531460999
 30
0.0
 11
6.05
 21
-0.531460999
 31
0.0
  0
SPLINE
  5
73
330
1F
100
AcDbEntity
  8
SK3
100
AcDbSpline
210
0.0
220
0.0
230
1.0
 70
     8
 71
     3
 72
    10
 73
     6
 74
     0
 42
0.0000000425812048
 43
0.0000000001
 12
1.0
 22
0.0
 32
0.0
 13
1.0
 23
0.0
 33
0.0
 40
0.0
 40
0.0
 40
0.0
 40
0.0
 40
0.5
 40
0.5
 40
1.0
 40
1.0
 40
1.0
 40
1.0
 10
6.049999999999993
 20
-0.5314609989792326
 30
0.0
 10
6.102867640724714
 20
-0.5314609989792383
 30
0.0
 10
6.15541988263962
 20
-0.5402369164778972
 30
0.0
 10
6.229131138400092
 20
-0.5696543758546915
 30
0.0
 10
6.249999999999996
 20
-0.5898611062736947
 30
0.0
 10
6.250000000000012
 20
-0.610145716572043
 30
0.0
  0
LINE
  5
74
330
1F
100
AcDbEntity
  8
SK1
  6
Continuous
100
AcDbLine
 10
-9.25
 20
-1.3986418213
 30
0.0
 11
-9.25
 21
-1.8143876109
 31
0.0
  0
LINE
  5
75
330
1F
100
AcDbEntity
  8
SK3
100
AcDbLine
 10
-9.2290270801
 20
-0.7449530384
 30
0.0
 11
-9.25
 21
-0.7488355863
 31
0.0
  0
LINE
  5
76
330
1F
100
AcDbEntity
  8
SK3
100
AcDbLine
 10
-9.2290270801
 20
-0.7449530384
 30
0.0
 11
-3.15
 21
-0.7449530384
 31
0.0
  0
SPLINE
  5
77
330
1F
100
AcDbEntity
  8
SK3
100
AcDbSpline
210
0.0
220
0.0
230
1.0
 70
     8
 71
     3
 72
    10
 73
     6
 74
     0
 42
0.000000021377794
 43
0.0000000001
 12
1.0
 22
0.0
 32
0.0
 13
1.0
 23
0.0
 33
0.0
 40
0.0
 40
0.0
 40
0.0
 40
0.0
 40
0.5
 40
0.5
 40
1.0
 40
1.0
 40
1.0
 40
1.0
 10
-3.150000000000007
 20
-0.7449530384291159
 30
0.0
 10
-3.04559324983305
 20
-0.7449530384291275
 30
0.0
 10
-2.940320946339018
 20
-0.7281814423971597
 30
0.0
 10
-2.792696116510862
 20
-0.6711729567927005
 30
0.0
 10
-2.750000000000007
 20
-0.6310958474068753
 30
0.0
 10
-2.750000000000009
 20
-0.5911361967771943
 30
0.0
  0
LINE
  5
78
330
1F
100
AcDbEntity
  8
SK3
100
AcDbLine
 10
-2.55
 20
-0.1157152093
 30
0.0
 11
6.05
 21
-0.1157152093
 31
0.0
  0
SPLINE
  5
79
330
1F
100
AcDbEntity
  8
SK3
100
AcDbSpline
210
0.0
220
0.0
230
1.0
 70
     8
 71
     3
 72
    10
 73
     6
 74
     0
 42
0.0000000425812048
 43
0.0000000001
 12
1.0
 22
0.0
 32
0.0
 13
1.0
 23
0.0
 33
0.0
 40
0.0
 40
0.0
 40
0.0
 40
0.0
 40
0.5
 40
0.5
 40
1.0
 40
1.0
 40
1.0
 40
1.0
 10
6.049999999999993
 20
-0.1157152093491536
 30
0.0
 10
6.102867640724714
 20
-0.1157152093491592
 30
0.0
 10
6.15541988263962
 20
-0.124491126847818
 30
0.0
 10
6.229131138400092
 20
-0.1539085862246126
 30
0.0
 10
6.249999999999996
 20
-0.1741153166436156
 30
0.0
 10
6.250000000000012
 20
-0.1943999269419638
 30
0.0
  0
LINE
  5
7A
330
1F
100
AcDbEntity
  8
SK1
  6
Continuous
100
AcDbLine
 10
-9.25
 20
-1.8143876109
 30
0.0
 11
1.75
 21
-2.4066172468
 31
0.0
  0
LINE
  5
7B
330
1F
100
AcDbEntity
  8
SK1
  6
Continuous
100
AcDbLine
 10
1.75
 20
-2.4066172468
 30
0.0
 11
1.75
 21
-2.0618891138
 31
0.0
  0
SPLINE
  5
7C
330
1F
100
AcDbEntity
  8
SK1
  6
Continuous
100
AcDbSpline
210
0.0
220
0.0
230
1.0
 70
     8
 71
     3
 72
    23
 73
    19
 74
     0
 42
0.0000000874130399
 43
0.0000000001
 12
1.0
 22
0.0
 32
0.0
 13
1.0
 23
0.0
 33
0.0
 40
0.0
 40
0.0
 40
0.0
 40
0.0
 40
0.1269482408908205
 40
0.1269482408908205
 40
0.1269482408908205
 40
0.2608097305717903
 40
0.2608097305717903
 40
0.2608097305717903
 40
0.4758278739161446
 40
0.4758278739161446
 40
0.4758278739161446
 40
0.6908575624478925
 40
0.6908575624478925
 40
0.6908575624478925
 40
0.9057170526809306
 40
0.9057170526809306
 40
0.9057170526809306
 40
1.0
 40
1.0
 40
1.0
 40
1.0
 10
1.749999999992293
 20
-2.061889113788606
 30
0.0
 10
1.749999999999905
 20
-2.059351906311147
 30
0.0
 10
1.750664424964282
 20
-2.056802296488437
 30
0.0
 10
1.751973853394383
 20
-2.054315064288661
 30
0.0
 10
1.753363329789564
 20
-2.051675782636092
 30
0.0
 10
1.755494844850187
 20
-2.049078597515475
 30
0.0
 10
1.758298297031388
 20
-2.046609271756362
 30
0.0
 10
1.762762395661441
 20
-2.042677221902855
 30
0.0
 10
1.769060678399096
 20
-2.03898563745437
 30
0.0
 10
1.77667338627635
 20
-2.035840424815307
 30
0.0
 10
1.784286334805546
 20
-2.032695112750186
 30
0.0
 10
1.793424075208182
 20
-2.030009471577261
 30
0.0
 10
1.803329895252595
 20
-2.028006853596212
 30
0.0
 10
1.813227923132816
 20
-2.026005810924229
 30
0.0
 10
1.824166187831396
 20
-2.024631508872774
 30
0.0
 10
1.835237602255345
 20
-2.023998409618929
 30
0.0
 10
1.840117783540891
 20
-2.0237193450828
 30
0.0
 10
1.845065636119656
 20
-2.023578653694921
 30
0.0
 10
1.849999999999997
 20
-2.023578653694922
 30
0.0
  0
LINE
  5
7D
330
1F
100
AcDbEntity
  8
SK1
  6
Continuous
100
AcDbLine
 10
1.85
 20
-2.0235786537
 30
0.0
 11
3.65
 21
-2.0235786537
 31
0.0
  0
SPLINE
  5
7E
330
1F
100
AcDbEntity
  8
SK1
  6
Continuous
100
AcDbSpline
210
0.0
220
0.0
230
1.0
 70
     8
 71
     3
 72
    23
 73
    19
 74
     0
 42
0.0000000873343113
 43
0.0000000001
 12
1.0
 22
0.0
 32
0.0
 13
1.0
 23
0.0
 33
0.0
 40
0.0
 40
0.0
 40
0.0
 40
0.0
 40
0.1762408865270348
 40
0.1762408865270348
 40
0.1762408865270348
 40
0.3908346224316143
 40
0.3908346224316143
 40
0.3908346224316143
 40
0.6055493281791104
 40
0.6055493281791104
 40
0.6055493281791104
 40
0.7386809412644514
 40
0.7386809412644514
 40
0.7386809412644514
 40
0.9539493899899539
 40
0.9539493899899539
 40
0.9539493899899539
 40
1.0
 40
1.0
 40
1.0
 40
1.0
 10
3.649999999999994
 20
-2.023578653694921
 30
0.0
 10
3.659186326927572
 20
-2.023578653694922
 30
0.0
 10
3.668458765568133
 20
-2.02407290085246
 30
0.0
 10
3.677295518728275
 20
-2.025033458832572
 30
0.0
 10
3.688050515681577
 20
-2.02620253054504
 30
0.0
 10
3.698426193054507
 20
-2.028098137250541
 30
0.0
 10
3.707565027737675
 20
-2.030562935472958
 30
0.0
 10
3.716709049018713
 20
-2.033029132551756
 30
0.0
 10
3.724866765503116
 20
-2.036133032938432
 30
0.0
 10
3.731365446568493
 20
-2.039617588607455
 30
0.0
 10
3.735430238718147
 20
-2.041797106941405
 30
0.0
 10
3.738913486970232
 20
-2.044153366272079
 30
0.0
 10
3.7417017029686
 20
-2.046609271756362
 30
0.0
 10
3.74617072037538
 20
-2.050545654147502
 30
0.0
 10
3.748924895401169
 20
-2.054831658898342
 30
0.0
 10
3.749736950710433
 20
-2.059112241012675
 30
0.0
 10
3.749912202002756
 20
-2.060036042062764
 30
0.0
 10
3.749999999999996
 20
-2.060962881529456
 30
0.0
 10
3.749999999999996
 20
-2.061889113788192
 30
0.0
  0
LINE
  5
7F
330
1F
100
AcDbEntity
  8
SK1
  6
Continuous
100
AcDbLine
 10
3.75
 20
-2.0618891138
 30
0.0
 11
3.75
 21
-2.4449144198
 31
0.0
  0
SPLINE
  5
80
330
1F
100
AcDbEntity
  8
SK1
  6
Continuous
100
AcDbSpline
210
0.0
220
0.0
230
1.0
 70
     8
 71
     3
 72
     8
 73
     4
 74
     0
 42
0.0000000041111873
 43
0.0000000001
 12
1.0
 22
0.0
 32
0.0
 13
1.0
 23
0.0
 33
0.0
 40
0.0
 40
0.0
 40
0.0
 40
0.0
 40
1.0
 40
1.0
 40
1.0
 40
1.0
 10
3.749999999999996
 20
-2.444914419784586
 30
0.0
 10
4.541711652869764
 20
-2.269862236410038
 30
0.0
 10
5.333392151072022
 20
-2.09478940527872
 30
0.0
 10
6.124999999999998
 20
-1.919668562446033
 30
0.0
  0
SPLINE
  5
81
330
1F
100
AcDbEntity
  8
SK1
  6
Continuous
100
AcDbSpline
210
0.0
220
0.0
230
1.0
 70
     8
 71
     3
 72
    10
 73
     6
 74
     0
 42
0.0000000616006931
 43
0.0000000001
 12
1.0
 22
0.0
 32
0.0
 13
1.0
 23
0.0
 33
0.0
 40
0.0
 40
0.0
 40
0.0
 40
0.0
 40
0.5
 40
0.5
 40
1.0
 40
1.0
 40
1.0
 40
1.0
 10
6.124999999999998
 20
-1.919668562446033
 30
0.0
 10
6.162588024093593
 20
-1.911353275440479
 30
0.0
 10
6.194954277883236
 20
-1.898936651414665
 30
0.0
 10
6.23826279691328
 20
-1.870138380001866
 30
0.0
 10
6.249999999999998
 20
-1.853537802817772
 30
0.0
 10
6.249999999999998
 20
-1.836705089240367
 30
0.0
  0
LINE
  5
82
330
1F
100
AcDbEntity
  8
SK1
  6
Continuous
100
AcDbLine
 10
6.25
 20
-1.8367050892
 30
0.0
 11
6.25
 21
-1.4209592996
 31
0.0
  0
LINE
  5
83
330
1F
100
AcDbEntity
  8
SK1
  6
Continuous
100
AcDbLine
 10
1.75
 20
-5.2221348034
 30
0.0
 11
1.75
 21
-4.2218489183
 31
0.0
  0
SPLINE
  5
84
330
1F
100
AcDbEntity
  8
SK1
  6
Continuous
100
AcDbSpline
210
0.0
220
0.0
230
1.0
 70
     8
 71
     3
 72
    11
 73
     7
 74
     0
 42
0.0000000007896164
 43
0.0000000001
 12
1.0
 22
0.0
 32
0.0
 13
1.0
 23
0.0
 33
0.0
 40
0.0
 40
0.0
 40
0.0
 40
0.0
 40
0.5516321404099094
 40
0.5516321404099094
 40
0.5516321404099094
 40
1.0
 40
1.0
 40
1.0
 40
1.0
 10
-10.80872210923198
 20
-3.761878197128573
 30
0.0
 10
-8.49947918807946
 20
-4.062195846131388
 30
0.0
 10
-6.190219416092861
 20
-4.36240290241447
 30
0.0
 10
-3.880951113836374
 20
-4.662553921548649
 30
0.0
 10
-2.003972579625708
 20
-4.90651735333603
 30
0.0
 10
-0.1269881616724057
 20
-5.150442147868269
 30
0.0
 10
1.749999999999995
 20
-5.394342348013079
 30
0.0
  0
LINE
  5
85
330
1F
100
AcDbEntity
  8
SK1
  6
Continuous
100
AcDbLine
 10
-10.8087221092
 20
-3.5896706526
 30
0.0
 11
-10.8087221092
 21
-3.7618781971
 31
0.0
  0
SPLINE
  5
86
330
1F
100
AcDbEntity
  8
SK1
  6
Continuous
100
AcDbSpline
210
0.0
220
0.0
230
1.0
 70
     8
 71
     3
 72
    11
 73
     7
 74
     0
 42
0.0000000007896164
 43
0.0000000001
 12
1.0
 22
0.0
 32
0.0
 13
1.0
 23
0.0
 33
0.0
 40
0.0
 40
0.0
 40
0.0
 40
0.0
 40
0.5516321404099094
 40
0.5516321404099094
 40
0.5516321404099094
 40
1.0
 40
1.0
 40
1.0
 40
1.0
 10
-10.80872210923198
 20
-3.589670652564279
 30
0.0
 10
-8.49947918807946
 20
-3.889988301567098
 30
0.0
 10
-6.190219416092861
 20
-4.190195357850179
 30
0.0
 10
-3.880951113836374
 20
-4.490346376984358
 30
0.0
 10
-2.003972579625708
 20
-4.734309808771739
 30
0.0
 10
-0.1269881616724061
 20
-4.978234603303979
 30
0.0
 10
1.749999999999995
 20
-5.22213480344879
 30
0.0
  0
LINE
  5
87
330
1F
100
AcDbEntity
  8
SK1
  6
Continuous
100
AcDbLine
 10
1.85
 20
-4.2973978372
 30
0.0
 11
1.85
 21
-3.5140858857
 31
0.0
  0
LINE
  5
88
330
1F
100
AcDbEntity
  8
SK1
  6
Continuous
100
AcDbLine
 10
3.65
 20
-4.2973978372
 30
0.0
 11
3.65
 21
-3.5140858857
 31
0.0
  0
LINE
  5
89
330
1F
100
AcDbEntity
  8
SK1
  6
Continuous
100
AcDbLine
 10
3.75
 20
-5.314592358
 30
0.0
 11
3.75
 21
-4.2926128669
 31
0.0
  0
LINE
  5
8A
330
1F
100
AcDbEntity
  8
SK1
  6
Continuous
100
AcDbLine
 10
6.125
 20
-4.0465366856
 30
0.0
 11
6.125
 21
-3.3220850727
 31
0.0
  0
LINE
  5
8B
330
1F
100
AcDbEntity
  8
SK1
  6
Continuous
100
AcDbLine
 10
6.25
 20
-3.8462451434
 30
0.0
 11
6.25
 21
-3.168788563
 31
0.0
  0
ARC
  5
8C
330
1F
100
AcDbEntity
  8
SK1
  6
Continuous
100
AcDbCircle
 10
6.0184769253
 20
-3.8409052604
 30
0.0
 40
0.2315846464542253
100
AcDbArc
 50
297.3854739579
 51
358.6787557755
  0
LINE
  5
8D
330
1F
100
AcDbEntity
  8
SK3
100
AcDbLine
 10
6.25
 20
-3.1474744917
 30
0.0
 11
-10.8087221092
 21
-3.1474744917
 31
0.0
  0
LINE
  5
8E
330
1F
100
AcDbEntity
  8
SK3
100
AcDbLine
 10
-10.8087221092
 20
-3.1474744917
 30
0.0
 11
-10.8087221092
 21
-3.5896706526
 31
0.0
  0
ARC
  5
8F
330
1F
100
AcDbEntity
  8
SK1
  6
Continuous
100
AcDbCircle
 10
1.8463870288
 20
-4.393796414
 30
0.0
 40
0.0964662592327838
100
AcDbArc
 50
87.8535870552
 51
177.6776609913
  0
LINE
  5
90
330
1F
100
AcDbEntity
  8
SK1
  6
Continuous
100
AcDbLine
 10
1.85
 20
-4.2973978372
 30
0.0
 11
3.65
 21
-4.2973978372
 31
0.0
  0
ARC
  5
91
330
1F
100
AcDbEntity
  8
SK1
  6
Continuous
100
AcDbCircle
 10
3.6534992983
 20
-4.3939193174
 30
0.0
 40
0.0965848912827381
100
AcDbArc
 50
2.3924550263
 51
92.0762969277
  0
LINE
  5
92
330
1F
100
AcDbEntity
  8
SK1
  6
Continuous
100
AcDbLine
 10
3.75
 20
-5.314592358
 30
0.0
 11
6.125
 21
-4.0465366856
 31
0.0
  0
LINE
  5
93
330
1F
100
AcDbEntity
  8
SK3
100
AcDbLine
 10
6.25
 20
-3.3196820363
 30
0.0
 11
-10.8087221092
 21
-3.3196820363
 31
0.0
  0
ARC
  5
94
330
1F
100
AcDbEntity
  8
SK1
  6
Continuous
100
AcDbCircle
 10
6.0184769253
 20
-4.013112805
 30
0.0
 40
0.2315846464542814
100
AcDbArc
 50
297.3854739579
 51
358.6787557755
  0
LINE
  5
95
330
1F
100
AcDbEntity
  8
SK1
  6
Continuous
100
AcDbLine
 10
6.25
 20
-4.018452688
 30
0.0
 11
6.25
 21
-3.8462451434
 31
0.0
  0
LINE
  5
96
330
1F
100
AcDbEntity
  8
SK1
  6
Continuous
100
AcDbLine
 10
1.75
 20
-5.394342348
 30
0.0
 11
1.75
 21
-5.2221348034
 31
0.0
  0
ARC
  5
97
330
1F
100
AcDbEntity
  8
SK1
  6
Continuous
100
AcDbCircle
 10
1.8463870288
 20
-4.5660039585
 30
0.0
 40
0.0964662592327823
100
AcDbArc
 50
87.8535870552
 51
177.6776609913
  0
LINE
  5
98
330
1F
100
AcDbEntity
  8
SK1
  6
Continuous
100
AcDbLine
 10
1.85
 20
-4.4696053817
 30
0.0
 11
3.65
 21
-4.4696053817
 31
0.0
  0
ARC
  5
99
330
1F
100
AcDbEntity
  8
SK1
  6
Continuous
100
AcDbCircle
 10
3.6534992983
 20
-4.5661268619
 30
0.0
 40
0.0965848912827377
100
AcDbArc
 50
2.3924550263
 51
92.0762969277
  0
LINE
  5
9A
330
1F
100
AcDbEntity
  8
SK1
  6
Continuous
100
AcDbLine
 10
3.75
 20
-5.314592358
 30
0.0
 11
3.75
 21
-5.4867999026
 31
0.0
  0
LINE
  5
9B
330
1F
100
AcDbEntity
  8
SK1
  6
Continuous
100
AcDbLine
 10
3.75
 20
-5.4867999026
 30
0.0
 11
6.125
 21
-4.2187442302
 31
0.0
  0
LINE
  5
9C
330
1F
100
AcDbEntity
  8
SK3
100
AcDbLine
 10
-11.75
 20
-2.1245612134
 30
0.0
 11
-11.25
 21
-1.9196918659
 31
0.0
  0
LINE
  5
9D
330
1F
100
AcDbEntity
  8
SK3
100
AcDbLine
 10
-11.75
 20
-1.8063631619
 30
0.0
 11
-11.25
 21
-1.6014938144
 31
0.0
  0
LINE
  5
9E
330
1F
100
AcDbEntity
  8
SK3
100
AcDbLine
 10
-2.75
 20
-1.3172773508
 30
0.0
 11
-2.75
 21
-1.0068819864
 31
0.0
  0
LINE
  5
9F
330
1F
100
AcDbEntity
  8
SK3
100
AcDbLine
 10
-2.75
 20
-1.5733124884
 30
0.0
 11
-2.75
 21
-1.3172773509
 31
0.0
  0
LINE
  5
A0
330
1F
100
AcDbEntity
  8
SK1
  6
Continuous
100
AcDbLine
 10
1.75
 20
-3.9036508668
 30
0.0
 11
1.75
 21
-2.4066172468
 31
0.0
  0
LINE
  5
A1
330
1F
100
AcDbEntity
  8
SK1
  6
Continuous
100
AcDbLine
 10
1.85
 20
-3.1958878342
 30
0.0
 11
1.85
 21
-2.0235786537
 31
0.0
  0
LINE
  5
A2
330
1F
100
AcDbEntity
  8
SK1
  6
Continuous
100
AcDbLine
 10
3.65
 20
-3.1958878342
 30
0.0
 11
3.65
 21
-2.0235786537
 31
0.0
  0
LINE
  5
A3
330
1F
100
AcDbEntity
  8
SK1
  6
Continuous
100
AcDbLine
 10
3.75
 20
-3.9744148154
 30
0.0
 11
3.75
 21
-2.4449144198
 31
0.0
  0
LINE
  5
A4
330
1F
100
AcDbEntity
  8
SK1
  6
Continuous
100
AcDbLine
 10
6.125
 20
-3.0038870211
 30
0.0
 11
6.125
 21
-1.9196685624
 31
0.0
  0
LINE
  5
A5
330
1F
100
AcDbEntity
  8
SK1
  6
Continuous
100
AcDbLine
 10
6.25
 20
-2.8505905115
 30
0.0
 11
6.25
 21
-1.8367050892
 31
0.0
  0
ARC
  5
A6
330
1F
100
AcDbEntity
  8
SK1
  6
Continuous
100
AcDbCircle
 10
6.071237903
 20
-2.8324371158
 30
0.0
 40
0.1796814768051816
100
AcDbArc
 50
287.4100271941
 51
354.2014580503
  0
LINE
  5
A7
330
1F
100
AcDbEntity
  8
SK3
100
AcDbLine
 10
6.25
 20
-2.3157746086
 30
0.0
 11
-2.2793610546
 21
-1.2551144368
 31
0.0
  0
LINE
  5
A8
330
1F
100
AcDbEntity
  8
SK3
100
AcDbLine
 10
-2.2793610546
 20
-1.2551144368
 30
0.0
 11
-2.75
 21
-1.2551144368
 31
0.0
  0
SPLINE
  5
A9
330
1F
100
AcDbEntity
  8
SK1
  6
Continuous
100
AcDbSpline
210
0.0
220
0.0
230
1.0
 70
     8
 71
     3
 72
    10
 73
     6
 74
     0
 42
0.0000000403551188
 43
0.0000000001
 12
1.0
 22
0.0
 32
0.0
 13
1.0
 23
0.0
 33
0.0
 40
0.0
 40
0.0
 40
0.0
 40
0.0
 40
0.5
 40
0.5
 40
1.0
 40
1.0
 40
1.0
 40
1.0
 10
-11.75000000000001
 20
-2.437364712867939
 30
0.0
 10
-11.75000000000001
 20
-2.471071403432709
 30
0.0
 10
-11.73219383834308
 20
-2.5047994325055
 30
0.0
 10
-11.66993624038131
 20
-2.555626678593376
 30
0.0
 10
-11.62554330431898
 20
-2.572909808261867
 30
0.0
 10
-11.57783462019202
 20
-2.577658976963609
 30
0.0
  0
SPLINE
  5
AA
330
1F
100
AcDbEntity
  8
SK1
  6
Continuous
100
AcDbSpline
210
0.0
220
0.0
230
1.0
 70
     8
 71
     3
 72
    11
 73
     7
 74
     0
 42
0.0000000007466234
 43
0.0000000001
 12
1.0
 22
0.0
 32
0.0
 13
1.0
 23
0.0
 33
0.0
 40
0.0
 40
0.0
 40
0.0
 40
0.0
 40
0.5056987538646286
 40
0.5056987538646286
 40
0.5056987538646286
 40
1.0
 40
1.0
 40
1.0
 40
1.0
 10
-11.57783462019202
 20
-2.577658976963609
 30
0.0
 10
-9.331235501899718
 20
-2.801297050838404
 30
0.0
 10
-7.084619057020419
 20
-3.024848098969852
 30
0.0
 10
-4.837993842395378
 20
-3.248355055791766
 30
0.0
 10
-2.642003373511011
 20
-3.46682458231321
 30
0.0
 10
-0.4460042188452387
 20
-3.68525045664963
 30
0.0
 10
1.749999999999995
 20
-3.903650866770494
 30
0.0
  0
SPLINE
  5
AB
330
1F
100
AcDbEntity
  8
SK1
  6
Continuous
100
AcDbSpline
210
0.0
220
0.0
230
1.0
 70
     8
 71
     3
 72
    23
 73
    19
 74
     0
 42
0.0000000737113564
 43
0.0000000001
 12
1.0
 22
0.0
 32
0.0
 13
1.0
 23
0.0
 33
0.0
 40
0.0
 40
0.0
 40
0.0
 40
0.0
 40
0.0720086882387708
 40
0.0720086882387708
 40
0.0720086882387708
 40
0.287278428279415
 40
0.287278428279415
 40
0.287278428279415
 40
0.5025124564906006
 40
0.5025124564906006
 40
0.5025124564906006
 40
0.7175730678404151
 40
0.7175730678404151
 40
0.7175730678404151
 40
0.9323973733037737
 40
0.9323973733037737
 40
0.9323973733037737
 40
1.0
 40
1.0
 40
1.0
 40
1.0
 10
1.749999999999995
 20
-3.266676334121059
 30
0.0
 10
1.749999999999992
 20
-3.264006613780141
 30
0.0
 10
1.750214042480758
 20
-3.261332640568261
 30
0.0
 10
1.750640087238002
 20
-3.258679972169999
 30
0.0
 10
1.751905735756631
 20
-3.250799706607318
 30
0.0
 10
1.755112844441751
 20
-3.2429651698003
 30
0.0
 10
1.759996682042964
 20
-3.235825591131555
 30
0.0
 10
1.764879656110228
 20
-3.228687274844784
 30
0.0
 10
1.771573755956264
 20
-3.222046608420125
 30
0.0
 10
1.779525260096762
 20
-3.216455180316984
 30
0.0
 10
1.78747037364071
 20
-3.210868246025395
 30
0.0
 10
1.79689045854765
 20
-3.206174619718267
 30
0.0
 10
1.807004840077394
 20
-3.202764943410017
 30
0.0
 10
1.8171082553878
 20
-3.199358963942563
 30
0.0
 10
1.828183491965881
 20
-3.197140155497064
 30
0.0
 10
1.839312109219667
 20
-3.196293316900069
 30
0.0
 10
1.842859382110721
 20
-3.196023385108031
 30
0.0
 10
1.846432245620986
 20
-3.195887834197324
 30
0.0
 10
1.849999999999997
 20
-3.195887834198535
 30
0.0
  0
LINE
  5
AC
330
1F
100
AcDbEntity
  8
SK1
  6
Continuous
100
AcDbLine
 10
1.85
 20
-3.1958878342
 30
0.0
 11
3.65
 21
-3.1958878342
 31
0.0
  0
SPLINE
  5
AD
330
1F
100
AcDbEntity
  8
SK1
  6
Continuous
100
AcDbSpline
210
0.0
220
0.0
230
1.0
 70
     8
 71
     3
 72
    20
 73
    16
 74
     0
 42
0.0000000737083677
 43
0.0000000001
 12
1.0
 22
0.0
 32
0.0
 13
1.0
 23
0.0
 33
0.0
 40
0.0
 40
0.0
 40
0.0
 40
0.0
 40
0.2131842890743361
 40
0.2131842890743361
 40
0.2131842890743361
 40
0.427622222733404
 40
0.427622222733404
 40
0.427622222733404
 40
0.642168340174732
 40
0.642168340174732
 40
0.642168340174732
 40
0.8569448030455927
 40
0.8569448030455927
 40
0.8569448030455927
 40
1.0
 40
1.0
 40
1.0
 40
1.0
 10
3.649999999999994
 20
-3.195887834198534
 30
0.0
 10
3.661117322743991
 20
-3.195887834198536
 30
0.0
 10
3.67238619294788
 20
-3.197237130490306
 30
0.0
 10
3.68288396117015
 20
-3.199824767186765
 30
0.0
 10
3.693443605607297
 20
-3.202427655997852
 30
0.0
 10
3.703513109976202
 20
-3.206355378044786
 30
0.0
 10
3.712260334062161
 20
-3.211281949964224
 30
0.0
 10
3.721012024415103
 20
-3.216211037354317
 30
0.0
 10
3.728681246776142
 20
-3.222275645890845
 30
0.0
 10
3.734635744617619
 20
-3.228973699506934
 30
0.0
 10
3.740596563719034
 20
-3.235678863737403
 30
0.0
 10
3.745003297218981
 20
-3.243203472466862
 30
0.0
 10
3.747492968132119
 20
-3.250925239033496
 30
0.0
 10
3.749153872840733
 20
-3.256076569830535
 30
0.0
 10
3.750000000000009
 20
-3.261392820971197
 30
0.0
 10
3.750000000001028
 20
-3.266676334121144
 30
0.0
  0
LINE
  5
AE
330
1F
100
AcDbEntity
  8
SK1
  6
Continuous
100
AcDbLine
 10
3.75
 20
-3.9744148154
 30
0.0
 11
6.125
 21
-3.0038870211
 31
0.0
  0
LINE
  5
AF
330
1F
100
AcDbEntity
  8
SK3
100
AcDbLine
 10
-11.25
 20
-1.9196918659
 30
0.0
 11
-3.15
 21
-1.9196918659
 31
0.0
  0
SPLINE
  5
B0
330
1F
100
AcDbEntity
  8
SK3
100
AcDbSpline
210
0.0
220
0.0
230
1.0
 70
     8
 71
     3
 72
    10
 73
     6
 74
     0
 42
0.0000000180219886
 43
0.0000000001
 12
1.0
 22
0.0
 32
0.0
 13
1.0
 23
0.0
 33
0.0
 40
0.0
 40
0.0
 40
0.0
 40
0.0
 40
0.5
 40
0.5
 40
1.0
 40
1.0
 40
1.0
 40
1.0
 10
-3.150000000000014
 20
-1.919691865888968
 30
0.0
 10
-3.0440034180512
 20
-1.919691865888968
 30
0.0
 10
-2.940388772815496
 20
-1.888686344808616
 30
0.0
 10
-2.792971672204271
 20
-1.783624575564974
 30
0.0
 10
-2.749999999999853
 20
-1.70948763892525
 30
0.0
 10
-2.749999999996606
 20
-1.635475402373219
 30
0.0
  0
LINE
  5
B1
330
1F
100
AcDbEntity
  8
SK3
100
AcDbLine
 10
-2.75
 20
-1.6354754024
 30
0.0
 11
-2.75
 21
-1.5733124884
 31
0.0
  0
LINE
  5
B2
330
1F
100
AcDbEntity
  8
SK3
100
AcDbLine
 10
6.25
 20
-2.6339726601
 30
0.0
 11
-2.2793610546
 21
-1.5733124884
 31
0.0
  0
LINE
  5
B3
330
1F
100
AcDbEntity
  8
SK3
100
AcDbLine
 10
-2.2793610546
 20
-1.5733124884
 30
0.0
 11
-2.75
 21
-1.5733124884
 31
0.0
  0
LINE
  5
B4
330
1F
100
AcDbEntity
  8
SK3
100
AcDbLine
 10
-2.2793610546
 20
-1.2551144368
 30
0.0
 11
-2.2793610546
 21
-1.5733124884
 31
0.0
  0
LINE
  5
B5
330
1F
100
AcDbEntity
  8
SK3
100
AcDbLine
 10
-11.25
 20
-1.6014938144
 30
0.0
 11
-3.15
 21
-1.6014938144
 31
0.0
  0
SPLINE
  5
B6
330
1F
100
AcDbEntity
  8
SK3
100
AcDbSpline
210
0.0
220
0.0
230
1.0
 70
     8
 71
     3
 72
    10
 73
     6
 74
     0
 42
0.0000000180219886
 43
0.0000000001
 12
1.0
 22
0.0
 32
0.0
 13
1.0
 23
0.0
 33
0.0
 40
0.0
 40
0.0
 40
0.0
 40
0.0
 40
0.5
 40
0.5
 40
1.0
 40
1.0
 40
1.0
 40
1.0
 10
-3.150000000000014
 20
-1.601493814355023
 30
0.0
 10
-3.0440034180512
 20
-1.601493814355023
 30
0.0
 10
-2.940388772815497
 20
-1.570488293274669
 30
0.0
 10
-2.792971672204271
 20
-1.465426524031028
 30
0.0
 10
-2.749999999999852
 20
-1.391289587391304
 30
0.0
 10
-2.749999999996606
 20
-1.317277350839272
 30
0.0
  0
ARC
  5
B7
330
1F
100
AcDbEntity
  8
SK1
  6
Continuous
100
AcDbCircle
 10
6.071237903
 20
-3.1506351674
 30
0.0
 40
0.1796814768053028
100
AcDbArc
 50
287.4100271941
 51
354.2014580503
  0
LINE
  5
B8
330
1F
100
AcDbEntity
  8
SK1
  6
Continuous
100
AcDbLine
 10
6.25
 20
-3.168788563
 30
0.0
 11
6.25
 21
-2.8505905115
 31
0.0
  0
LINE
  5
B9
330
1F
100
AcDbEntity
  8
SK1
  6
Continuous
100
AcDbLine
 10
-11.75
 20
-2.4373647129
 30
0.0
 11
-11.75
 21
-2.7555627644
 31
0.0
  0
SPLINE
  5
BA
330
1F
100
AcDbEntity
  8
SK1
  6
Continuous
100
AcDbSpline
210
0.0
220
0.0
230
1.0
 70
     8
 71
     3
 72
    10
 73
     6
 74
     0
 42
0.0000000403551188
 43
0.0000000001
 12
1.0
 22
0.0
 32
0.0
 13
1.0
 23
0.0
 33
0.0
 40
0.0
 40
0.0
 40
0.0
 40
0.0
 40
0.5
 40
0.5
 40
1.0
 40
1.0
 40
1.0
 40
1.0
 10
-11.75000000000001
 20
-2.755562764401885
 30
0.0
 10
-11.75000000000001
 20
-2.789269454966652
 30
0.0
 10
-11.73219383834308
 20
-2.822997484039446
 30
0.0
 10
-11.66993624038132
 20
-2.873824730127323
 30
0.0
 10
-11.62554330431898
 20
-2.891107859795813
 30
0.0
 10
-11.57783462019202
 20
-2.895857028497555
 30
0.0
  0
SPLINE
  5
BB
330
1F
100
AcDbEntity
  8
SK1
  6
Continuous
100
AcDbSpline
210
0.0
220
0.0
230
1.0
 70
     8
 71
     3
 72
    11
 73
     7
 74
     0
 42
0.0000000007466234
 43
0.0000000001
 12
1.0
 22
0.0
 32
0.0
 13
1.0
 23
0.0
 33
0.0
 40
0.0
 40
0.0
 40
0.0
 40
0.0
 40
0.5056987538646285
 40
0.5056987538646285
 40
0.5056987538646285
 40
1.0
 40
1.0
 40
1.0
 40
1.0
 10
-11.57783462019202
 20
-2.895857028497555
 30
0.0
 10
-9.331235501899718
 20
-3.119495102372351
 30
0.0
 10
-7.084619057020419
 20
-3.343046150503798
 30
0.0
 10
-4.837993842395379
 20
-3.566553107325711
 30
0.0
 10
-2.642003373511013
 20
-3.785022633847156
 30
0.0
 10
-0.4460042188452387
 20
-4.003448508183577
 30
0.0
 10
1.749999999999995
 20
-4.221848918304441
 30
0.0
  0
LINE
  5
BC
330
1F
100
AcDbEntity
  8
SK1
  6
Continuous
100
AcDbLine
 10
1.75
 20
-4.2218489183
 30
0.0
 11
1.75
 21
-3.9036508668
 31
0.0
  0
SPLINE
  5
BD
330
1F
100
AcDbEntity
  8
SK1
  6
Continuous
100
AcDbSpline
210
0.0
220
0.0
230
1.0
 70
     8
 71
     3
 72
    23
 73
    19
 74
     0
 42
0.0000000737113564
 43
0.0000000001
 12
1.0
 22
0.0
 32
0.0
 13
1.0
 23
0.0
 33
0.0
 40
0.0
 40
0.0
 40
0.0
 40
0.0
 40
0.0720086882387601
 40
0.0720086882387601
 40
0.0720086882387601
 40
0.2872784282794046
 40
0.2872784282794046
 40
0.2872784282794046
 40
0.5025124564905884
 40
0.5025124564905884
 40
0.5025124564905884
 40
0.717573067840399
 40
0.717573067840399
 40
0.717573067840399
 40
0.9323973733037644
 40
0.9323973733037644
 40
0.9323973733037644
 40
1.0
 40
1.0
 40
1.0
 40
1.0
 10
1.749999999999995
 20
-3.584874385655005
 30
0.0
 10
1.749999999999992
 20
-3.582204665314087
 30
0.0
 10
1.750214042480758
 20
-3.579530692102207
 30
0.0
 10
1.750640087238002
 20
-3.576878023703946
 30
0.0
 10
1.751905735756631
 20
-3.568997758141265
 30
0.0
 10
1.75511284444175
 20
-3.561163221334248
 30
0.0
 10
1.759996682042963
 20
-3.554023642665503
 30
0.0
 10
1.764879656110227
 20
-3.546885326378732
 30
0.0
 10
1.771573755956262
 20
-3.540244659954071
 30
0.0
 10
1.779525260096761
 20
-3.534653231850932
 30
0.0
 10
1.787470373640708
 20
-3.529066297559342
 30
0.0
 10
1.796890458547648
 20
-3.524372671252213
 30
0.0
 10
1.807004840077391
 20
-3.520962994943964
 30
0.0
 10
1.817108255387798
 20
-3.517557015476509
 30
0.0
 10
1.828183491965879
 20
-3.51533820703101
 30
0.0
 10
1.839312109219666
 20
-3.514491368434015
 30
0.0
 10
1.84285938211072
 20
-3.514221436641977
 30
0.0
 10
1.846432245620986
 20
-3.51408588573127
 30
0.0
 10
1.849999999999997
 20
-3.514085885732479
 30
0.0
  0
LINE
  5
BE
330
1F
100
AcDbEntity
  8
SK1
  6
Continuous
100
AcDbLine
 10
1.85
 20
-3.5140858857
 30
0.0
 11
3.65
 21
-3.5140858857
 31
0.0
  0
SPLINE
  5
BF
330
1F
100
AcDbEntity
  8
SK1
  6
Continuous
100
AcDbSpline
210
0.0
220
0.0
230
1.0
 70
     8
 71
     3
 72
    20
 73
    16
 74
     0
 42
0.0000000737083677
 43
0.0000000001
 12
1.0
 22
0.0
 32
0.0
 13
1.0
 23
0.0
 33
0.0
 40
0.0
 40
0.0
 40
0.0
 40
0.0
 40
0.2131842890743394
 40
0.2131842890743394
 40
0.2131842890743394
 40
0.4276222227334086
 40
0.4276222227334086
 40
0.4276222227334086
 40
0.6421683401747322
 40
0.6421683401747322
 40
0.6421683401747322
 40
0.8569448030456066
 40
0.8569448030456066
 40
0.8569448030456066
 40
1.0
 40
1.0
 40
1.0
 40
1.0
 10
3.649999999999994
 20
-3.514085885732479
 30
0.0
 10
3.661117322743991
 20
-3.514085885732481
 30
0.0
 10
3.672386192947879
 20
-3.515435182024251
 30
0.0
 10
3.682883961170149
 20
-3.518022818720711
 30
0.0
 10
3.693443605607297
 20
-3.520625707531798
 30
0.0
 10
3.703513109976203
 20
-3.524553429578733
 30
0.0
 10
3.712260334062162
 20
-3.529480001498171
 30
0.0
 10
3.721012024415104
 20
-3.534409088888263
 30
0.0
 10
3.728681246776142
 20
-3.540473697424792
 30
0.0
 10
3.734635744617619
 20
-3.54717175104088
 30
0.0
 10
3.740596563719034
 20
-3.553876915271349
 30
0.0
 10
3.745003297218981
 20
-3.561401524000809
 30
0.0
 10
3.74749296813212
 20
-3.569123290567443
 30
0.0
 10
3.749153872840733
 20
-3.574274621364482
 30
0.0
 10
3.750000000000009
 20
-3.579590872505142
 30
0.0
 10
3.750000000001028
 20
-3.584874385655089
 30
0.0
  0
LINE
  5
C0
330
1F
100
AcDbEntity
  8
SK1
  6
Continuous
100
AcDbLine
 10
3.75
 20
-3.9744148154
 30
0.0
 11
3.75
 21
-4.2926128669
 31
0.0
  0
LINE
  5
C1
330
1F
100
AcDbEntity
  8
SK1
  6
Continuous
100
AcDbLine
 10
3.75
 20
-4.2926128669
 30
0.0
 11
6.125
 21
-3.3220850727
 31
0.0
  0
LINE
  5
C2
330
1F
100
AcDbEntity
  8
SK3
100
AcDbLine
 10
-11.25
 20
-2.4898543136
 30
0.0
 11
-11.25
 21
-1.9196918659
 31
0.0
  0
LINE
  5
C3
330
1F
100
AcDbEntity
  8
SK3
100
AcDbLine
 10
-11.75
 20
-2.7795833234
 30
0.0
 11
-11.25
 21
-2.4898543136
 31
0.0
  0
LINE
  5
C4
330
1F
100
AcDbEntity
  8
SK3
100
AcDbLine
 10
-2.75
 20
-2.0879115363
 30
0.0
 11
-2.75
 21
-1.6354754024
 31
0.0
  0
LINE
  5
C5
330
1F
100
AcDbEntity
  8
SK1
  6
Continuous
100
AcDbLine
 10
-11.75
 20
-3.6719542747
 30
0.0
 11
-11.75
 21
-2.7555627644
 31
0.0
  0
LINE
  5
C6
330
1F
100
AcDbEntity
  8
SK1
  6
Continuous
100
AcDbLine
 10
-11.5778346202
 20
-3.8703603257
 30
0.0
 11
-11.5778346202
 21
-2.8958570285
 31
0.0
  0
LINE
  5
C7
330
1F
100
AcDbEntity
  8
SK1
  6
Continuous
100
AcDbLine
 10
1.75
 20
-5.7455960399
 30
0.0
 11
1.75
 21
-5.394342348
 31
0.0
  0
LINE
  5
C8
330
1F
100
AcDbEntity
  8
SK1
  6
Continuous
100
AcDbLine
 10
6.25
 20
-4.2563438034
 30
0.0
 11
6.25
 21
-4.018452688
 31
0.0
  0
LINE
  5
C9
330
1F
100
AcDbEntity
  8
SK1
  6
Continuous
100
AcDbLine
 10
1.85
 20
-4.7446679603
 30
0.0
 11
1.85
 21
-4.4696053817
 31
0.0
  0
LINE
  5
CA
330
1F
100
AcDbEntity
  8
SK1
  6
Continuous
100
AcDbLine
 10
3.65
 20
-4.7446679603
 30
0.0
 11
3.65
 21
-4.4696053817
 31
0.0
  0
LINE
  5
CB
330
1F
100
AcDbEntity
  8
SK1
  6
Continuous
100
AcDbLine
 10
3.75
 20
-5.8456713758
 30
0.0
 11
3.75
 21
-5.4867999026
 31
0.0
  0
LINE
  5
CC
330
1F
100
AcDbEntity
  8
SK1
  6
Continuous
100
AcDbLine
 10
6.125
 20
-4.4731378065
 30
0.0
 11
6.125
 21
-4.2187442302
 31
0.0
  0
ARC
  5
CD
330
1F
100
AcDbEntity
  8
SK1
  6
Continuous
100
AcDbCircle
 10
5.9966226128
 20
-4.2546839165
 30
0.0
 40
0.2533828241683882
100
AcDbArc
 50
300.4412012851
 51
359.6246580892
  0
LINE
  5
CE
330
1F
100
AcDbEntity
  8
SK3
100
AcDbLine
 10
6.25
 20
-3.4999999002
 30
0.0
 11
-2.2793610546
 21
-1.9999999002
 31
0.0
  0
LINE
  5
CF
330
1F
100
AcDbEntity
  8
SK3
100
AcDbLine
 10
-2.2793610546
 20
-1.9999999002
 30
0.0
 11
-2.75
 21
-1.9999999002
 31
0.0
  0
ARC
  5
D0
330
1F
100
AcDbEntity
  8
SK1
  6
Continuous
100
AcDbCircle
 10
-11.5497677337
 20
-3.6721048516
 30
0.0
 40
0.2002323229250347
100
AcDbArc
 50
179.9569129513
 51
261.9422234708
  0
SPLINE
  5
D1
330
1F
100
AcDbEntity
  8
SK1
  6
Continuous
100
AcDbSpline
210
0.0
220
0.0
230
1.0
 70
     8
 71
     3
 72
    11
 73
     7
 74
     0
 42
0.0000000007429911
 43
0.0000000001
 12
1.0
 22
0.0
 32
0.0
 13
1.0
 23
0.0
 33
0.0
 40
0.0
 40
0.0
 40
0.0
 40
0.0
 40
0.5056987538646285
 40
0.5056987538646285
 40
0.5056987538646285
 40
1.0
 40
1.0
 40
1.0
 40
1.0
 10
-11.57783462019202
 20
-3.870360325721071
 30
0.0
 10
-9.331235501899718
 20
-4.1866323228578
 30
0.0
 10
-7.084619057020419
 20
-4.502781247008016
 30
0.0
 10
-4.837993842395379
 20
-4.818867816630304
 30
0.0
 10
-2.642003373511012
 20
-5.127830384002159
 30
0.0
 10
-0.4460042188452382
 20
-5.436731217861927
 30
0.0
 10
1.749999999999995
 20
-5.745596039882696
 30
0.0
  0
ARC
  5
D2
330
1F
100
AcDbEntity
  8
SK1
  6
Continuous
100
AcDbCircle
 10
1.8500558282
 20
-4.8447237876
 30
0.0
 40
0.1000558429346854
100
AcDbArc
 50
90.0319693736
 51
180.0310537552
  0
LINE
  5
D3
330
1F
100
AcDbEntity
  8
SK1
  6
Continuous
100
AcDbLine
 10
1.85
 20
-4.7446679603
 30
0.0
 11
3.65
 21
-4.7446679603
 31
0.0
  0
ARC
  5
D4
330
1F
100
AcDbEntity
  8
SK1
  6
Continuous
100
AcDbCircle
 10
3.6499459361
 20
-4.8447220252
 30
0.0
 40
0.1000540795545783
100
AcDbArc
 50
359.9679364557
 51
89.969040416
  0
LINE
  5
D5
330
1F
100
AcDbEntity
  8
SK1
  6
Continuous
100
AcDbLine
 10
3.75
 20
-5.8456713758
 30
0.0
 11
6.125
 21
-4.4731378065
 31
0.0
  0
LINE
  5
D6
330
1F
100
AcDbEntity
  8
SK3
100
AcDbLine
 10
-11.25
 20
-2.4898543136
 30
0.0
 11
-3.15
 21
-2.4898543136
 31
0.0
  0
SPLINE
  5
D7
330
1F
100
AcDbEntity
  8
SK3
100
AcDbSpline
210
0.0
220
0.0
230
1.0
 70
     8
 71
     3
 72
    10
 73
     6
 74
     0
 42
0.0000000154849241
 43
0.0000000001
 12
1.0
 22
0.0
 32
0.0
 13
1.0
 23
0.0
 33
0.0
 40
0.0
 40
0.0
 40
0.0
 40
0.0
 40
0.5
 40
0.5
 40
1.0
 40
1.0
 40
1.0
 40
1.0
 10
-3.150000000000014
 20
-2.489854313643868
 30
0.0
 10
-3.0440034180512
 20
-2.48985431364387
 30
0.0
 10
-2.940388772815497
 20
-2.44600588522359
 30
0.0
 10
-2.79297167220427
 20
-2.29742610627232
 30
0.0
 10
-2.749999999999854
 20
-2.192580645003626
 30
0.0
 10
-2.749999999996606
 20
-2.087911536290179
 30
0.0
  0
ARC
  5
D8
330
1F
100
AcDbEntity
  8
SK3
100
AcDbCircle
 10
-2.5545341401
 20
0.8905988474
 30
0.0
 40
0.1955440636388498
100
AcDbArc
 50
181.6204793907
 51
271.3286538644
  0
ARC
  5
D9
330
1F
100
AcDbEntity
  8
SK3
100
AcDbCircle
 10
-2.5545341401
 20
1.062806392
 30
0.0
 40
0.1955440636625741
100
AcDbArc
 50
181.6204793935
 51
271.3286538575
  0
LINE
  5
DA
330
1F
100
AcDbEntity
  8
SK3
100
AcDbLine
 10
-2.75
 20
2.0150826983
 30
0.0
 11
-2.75
 21
2.0879117358
 31
0.0
  0
LINE
  5
DB
330
1F
100
AcDbEntity
  8
SK1
  6
Continuous
100
AcDbLine
 10
6.25
 20
4.0184528875
 30
0.0
 11
6.25
 21
4.256344003
 31
0.0
  0
ARC
  5
DC
330
1F
100
AcDbEntity
  8
SK3
100
AcDbCircle
 10
-8.9896096881
 20
2.3168553909
 30
0.0
 40
0.2604886358849219
100
AcDbArc
 50
181.5742972472
 51
203.2038627603
  0
LINE
  5
DD
330
1F
100
AcDbEntity
  8
SK3
100
AcDbLine
 10
-9.2290270801
 20
2.3864294035
 30
0.0
 11
-9.25
 21
2.309698931
 31
0.0
  0
LINE
  5
DE
330
1F
100
AcDbEntity
  8
SK1
  6
Continuous
100
AcDbLine
 10
1.75
 20
5.3943425476
 30
0.0
 11
1.75
 21
5.7455962394
 31
0.0
  0
LINE
  5
DF
330
1F
100
AcDbEntity
  8
SK1
  6
Continuous
100
AcDbLine
 10
1.85
 20
4.4696055813
 30
0.0
 11
1.85
 21
4.7446681598
 31
0.0
  0
LINE
  5
E0
330
1F
100
AcDbEntity
  8
SK1
  6
Continuous
100
AcDbLine
 10
3.65
 20
4.4696055813
 30
0.0
 11
3.65
 21
4.7446681598
 31
0.0
  0
LINE
  5
E1
330
1F
100
AcDbEntity
  8
SK1
  6
Continuous
100
AcDbLine
 10
3.75
 20
5.4868001021
 30
0.0
 11
3.75
 21
5.8456715753
 31
0.0
  0
LINE
  5
E2
330
1F
100
AcDbEntity
  8
SK1
  6
Continuous
100
AcDbLine
 10
6.125
 20
4.2187444297
 30
0.0
 11
6.125
 21
4.473138006
 31
0.0
  0
LINE
  5
E3
330
1F
100
AcDbEntity
  8
SK3
100
AcDbLine
 10
-9.25
 20
2.2235951588
 30
0.0
 11
-9.25
 21
3.7923661841
 31
0.0
  0
LINE
  5
E4
330
1F
100
AcDbEntity
  8
SK3
100
AcDbLine
 10
-9.2290270801
 20
2.214221859
 30
0.0
 11
-9.25
 21
2.2235951588
 31
0.0
  0
SPLINE
  5
E5
330
1F
100
AcDbEntity
  8
SK1
  6
Continuous
100
AcDbSpline
210
0.0
220
0.0
230
1.0
 70
     8
 71
     3
 72
    14
 73
    10
 74
     0
 42
0.0000000009015075
 43
0.0000000001
 12
1.0
 22
0.0
 32
0.0
 13
1.0
 23
0.0
 33
0.0
 40
0.0
 40
0.0
 40
0.0
 40
0.0
 40
0.1240092644167509
 40
0.1240092644167509
 40
0.1240092644167509
 40
0.8187546515588591
 40
0.8187546515588591
 40
0.8187546515588591
 40
1.0
 40
1.0
 40
1.0
 40
1.0
 10
-9.25000000000001
 20
3.964573728707698
 30
0.0
 10
-8.795302770983353
 20
4.023697627462316
 30
0.0
 10
-8.340604964593883
 20
4.08281773624942
 30
0.0
 10
-7.885906653491029
 20
4.141934531405656
 30
0.0
 10
-5.338519928110633
 20
4.473128502332821
 30
0.0
 10
-2.791117942080925
 20
4.804222287871707
 30
0.0
 10
-0.2437082271582775
 20
5.135265294440438
 30
0.0
 10
0.4208606494780316
 20
5.221627875891286
 30
0.0
 10
1.085430084535458
 20
5.307986789589758
 30
0.0
 10
1.749999999999995
 20
5.394342547554476
 30
0.0
  0
LINE
  5
E6
330
1F
100
AcDbEntity
  8
SK1
  6
Continuous
100
AcDbLine
 10
1.75
 20
5.3943425476
 30
0.0
 11
1.75
 21
5.222135003
 31
0.0
  0
ARC
  5
E7
330
1F
100
AcDbEntity
  8
SK1
  6
Continuous
100
AcDbCircle
 10
1.8465554358
 20
4.5661862401
 30
0.0
 40
0.0966420647969993
100
AcDbArc
 50
182.4261548709
 51
272.0425970826
  0
LINE
  5
E8
330
1F
100
AcDbEntity
  8
SK1
  6
Continuous
100
AcDbLine
 10
1.85
 20
4.4696055813
 30
0.0
 11
3.65
 21
4.4696055813
 31
0.0
  0
ARC
  5
E9
330
1F
100
AcDbEntity
  8
SK1
  6
Continuous
100
AcDbCircle
 10
3.6537384028
 20
4.5658685411
 30
0.0
 40
0.0963355235463977
100
AcDbArc
 50
267.776017708
 51
357.7552303385
  0
LINE
  5
EA
330
1F
100
AcDbEntity
  8
SK1
  6
Continuous
100
AcDbLine
 10
3.75
 20
5.3145925575
 30
0.0
 11
3.75
 21
5.4868001021
 31
0.0
  0
SPLINE
  5
EB
330
1F
100
AcDbEntity
  8
SK1
  6
Continuous
100
AcDbSpline
210
0.0
220
0.0
230
1.0
 70
     8
 71
     3
 72
     8
 73
     4
 74
     0
 42
0.0000000037142679
 43
0.0000000001
 12
1.0
 22
0.0
 32
0.0
 13
1.0
 23
0.0
 33
0.0
 40
0.0
 40
0.0
 40
0.0
 40
0.0
 40
1.0
 40
1.0
 40
1.0
 40
1.0
 10
3.749999999999996
 20
5.486800102093884
 30
0.0
 10
4.541711652869815
 20
5.064186746868003
 30
0.0
 10
5.333392151072123
 20
4.641523543547693
 30
0.0
 10
6.125000000000937
 20
4.218744429728042
 30
0.0
  0
ARC
  5
EC
330
1F
100
AcDbEntity
  8
SK1
  6
Continuous
100
AcDbCircle
 10
6.0213403376
 20
4.0149000322
 30
0.0
 40
0.2286872624395858
100
AcDbArc
 50
0.8901755218
 51
63.0455947441
  0
LINE
  5
ED
330
1F
100
AcDbEntity
  8
SK1
  6
Continuous
100
AcDbLine
 10
6.25
 20
4.0184528875
 30
0.0
 11
6.25
 21
3.846245343
 31
0.0
  0
LINE
  5
EE
330
1F
100
AcDbEntity
  8
SK3
100
AcDbLine
 10
-9.2290270801
 20
2.214221859
 30
0.0
 11
-3.15
 21
2.214221859
 31
0.0
  0
ARC
  5
EF
330
1F
100
AcDbEntity
  8
SK3
100
AcDbCircle
 10
-3.1360529055
 20
1.8281396669
 30
0.0
 40
0.3863340270364178
100
AcDbArc
 50
2.1858961086
 51
92.0688918755
  0
LINE
  5
F0
330
1F
100
AcDbEntity
  8
SK3
100
AcDbLine
 10
-2.55
 20
0.6951073581
 30
0.0
 11
6.05
 21
0.6951073581
 31
0.0
  0
ARC
  5
F1
330
1F
100
AcDbEntity
  8
SK3
100
AcDbCircle
 10
6.0545345588
 20
0.8905984065
 30
0.0
 40
0.1955436326031919
100
AcDbArc
 50
268.6712204818
 51
358.3796462646
  0
LINE
  5
F2
330
1F
100
AcDbEntity
  8
SK1
  6
Continuous
100
AcDbLine
 10
-9.25
 20
3.9645737287
 30
0.0
 11
-9.25
 21
3.7923661841
 31
0.0
  0
LINE
  5
F3
330
1F
100
AcDbEntity
  8
SK3
100
AcDbLine
 10
-9.2290270801
 20
2.3864294035
 30
0.0
 11
-9.25
 21
2.3958027033
 31
0.0
  0
LINE
  5
F4
330
1F
100
AcDbEntity
  8
SK3
100
AcDbLine
 10
-9.2290270801
 20
2.3864294035
 30
0.0
 11
-3.15
 21
2.3864294035
 31
0.0
  0
ARC
  5
F5
330
1F
100
AcDbEntity
  8
SK3
100
AcDbCircle
 10
-3.1360529055
 20
2.0003472115
 30
0.0
 40
0.3863340270364171
100
AcDbArc
 50
2.1858961086
 51
92.0688918755
  0
LINE
  5
F6
330
1F
100
AcDbEntity
  8
SK3
100
AcDbLine
 10
-2.75
 20
2.0150826983
 30
0.0
 11
-2.75
 21
1.8428751537
 31
0.0
  0
LINE
  5
F7
330
1F
100
AcDbEntity
  8
SK3
100
AcDbLine
 10
-2.55
 20
0.8673149026
 30
0.0
 11
6.05
 21
0.8673149026
 31
0.0
  0
ARC
  5
F8
330
1F
100
AcDbEntity
  8
SK3
100
AcDbCircle
 10
6.0545345588
 20
1.0628059511
 30
0.0
 40
0.1955436326031909
100
AcDbArc
 50
268.6712204818
 51
358.3796462646
  0
SPLINE
  5
F9
330
1F
100
AcDbEntity
  8
SK1
  6
Continuous
100
AcDbSpline
210
0.0
220
0.0
230
1.0
 70
     8
 71
     3
 72
    14
 73
    10
 74
     0
 42
0.0000000009015075
 43
0.0000000001
 12
1.0
 22
0.0
 32
0.0
 13
1.0
 23
0.0
 33
0.0
 40
0.0
 40
0.0
 40
0.0
 40
0.0
 40
0.1240092644167509
 40
0.1240092644167509
 40
0.1240092644167509
 40
0.8187546515588591
 40
0.8187546515588591
 40
0.8187546515588591
 40
1.0
 40
1.0
 40
1.0
 40
1.0
 10
-9.25000000000001
 20
3.792366184143408
 30
0.0
 10
-8.795302770983351
 20
3.851490082898025
 30
0.0
 10
-8.340604964593883
 20
3.91061019168513
 30
0.0
 10
-7.885906653491029
 20
3.969726986841366
 30
0.0
 10
-5.338519928110633
 20
4.30092095776853
 30
0.0
 10
-2.791117942080925
 20
4.632014743307415
 30
0.0
 10
-0.2437082271582775
 20
4.963057749876148
 30
0.0
 10
0.4208606494780316
 20
5.049420331326996
 30
0.0
 10
1.085430084535458
 20
5.135779245025467
 30
0.0
 10
1.749999999999995
 20
5.222135002990185
 30
0.0
  0
ARC
  5
FA
330
1F
100
AcDbEntity
  8
SK1
  6
Continuous
100
AcDbCircle
 10
1.8465554358
 20
4.3939786956
 30
0.0
 40
0.0966420647969994
100
AcDbArc
 50
182.4261548709
 51
272.0425970826
  0
LINE
  5
FB
330
1F
100
AcDbEntity
  8
SK1
  6
Continuous
100
AcDbLine
 10
1.85
 20
4.2973980367
 30
0.0
 11
3.65
 21
4.2973980367
 31
0.0
  0
ARC
  5
FC
330
1F
100
AcDbEntity
  8
SK1
  6
Continuous
100
AcDbCircle
 10
3.6537384028
 20
4.3936609966
 30
0.0
 40
0.0963355235463977
100
AcDbArc
 50
267.776017708
 51
357.7552303385
  0
SPLINE
  5
FD
330
1F
100
AcDbEntity
  8
SK1
  6
Continuous
100
AcDbSpline
210
0.0
220
0.0
230
1.0
 70
     8
 71
     3
 72
     8
 73
     4
 74
     0
 42
0.0000000037142679
 43
0.0000000001
 12
1.0
 22
0.0
 32
0.0
 13
1.0
 23
0.0
 33
0.0
 40
0.0
 40
0.0
 40
0.0
 40
0.0
 40
1.0
 40
1.0
 40
1.0
 40
1.0
 10
3.749999999999996
 20
5.314592557529594
 30
0.0
 10
4.541711652869814
 20
4.891979202303713
 30
0.0
 10
5.333392151072123
 20
4.469315998983403
 30
0.0
 10
6.125000000000937
 20
4.046536885163751
 30
0.0
  0
ARC
  5
FE
330
1F
100
AcDbEntity
  8
SK1
  6
Continuous
100
AcDbCircle
 10
6.0213403376
 20
3.8426924877
 30
0.0
 40
0.2286872624395851
100
AcDbArc
 50
0.8901755218
 51
63.0455947441
  0
LINE
  5
FF
330
1F
100
AcDbEntity
  8
SK1
  6
Continuous
100
AcDbLine
 10
1.75
 20
2.4066174463
 30
0.0
 11
1.75
 21
3.9036510663
 31
0.0
  0
LINE
  5
100
330
1F
100
AcDbEntity
  8
SK1
  6
Continuous
100
AcDbLine
 10
-10.8087221092
 20
1.3146828653
 30
0.0
 11
1.75
 21
1.9908716567
 31
0.0
  0
LINE
  5
101
330
1F
100
AcDbEntity
  8
SK1
  6
Continuous
100
AcDbLine
 10
-10.8087221092
 20
1.7304286549
 30
0.0
 11
-10.8087221092
 21
1.3146828653
 31
0.0
  0
LINE
  5
102
330
1F
100
AcDbEntity
  8
SK1
  6
Continuous
100
AcDbLine
 10
-10.8087221092
 20
1.7304286549
 30
0.0
 11
1.75
 21
2.4066174463
 31
0.0
  0
LINE
  5
103
330
1F
100
AcDbEntity
  8
SK1
  6
Continuous
100
AcDbLine
 10
6.25
 20
1.8367052888
 30
0.0
 11
6.25
 21
2.850590711
 31
0.0
  0
LINE
  5
104
330
1F
100
AcDbEntity
  8
SK1
  6
Continuous
100
AcDbLine
 10
1.85
 20
2.0235788532
 30
0.0
 11
1.85
 21
3.1958880337
 31
0.0
  0
LINE
  5
105
330
1F
100
AcDbEntity
  8
SK1
  6
Continuous
100
AcDbLine
 10
3.65
 20
2.0235788532
 30
0.0
 11
3.65
 21
3.1958880337
 31
0.0
  0
LINE
  5
106
330
1F
100
AcDbEntity
  8
SK1
  6
Continuous
100
AcDbLine
 10
3.75
 20
2.4449146193
 30
0.0
 11
3.75
 21
3.974415015
 31
0.0
  0
LINE
  5
107
330
1F
100
AcDbEntity
  8
SK1
  6
Continuous
100
AcDbLine
 10
6.125
 20
1.919668762
 30
0.0
 11
6.125
 21
3.0038872207
 31
0.0
  0
LINE
  5
108
330
1F
100
AcDbEntity
  8
SK3
100
AcDbLine
 10
-10.8087221092
 20
1.1315192182
 30
0.0
 11
-10.8087221092
 21
1.3146828653
 31
0.0
  0
SPLINE
  5
109
330
1F
100
AcDbEntity
  8
SK1
  6
Continuous
100
AcDbSpline
210
0.0
220
0.0
230
1.0
 70
     8
 71
     3
 72
     8
 73
     4
 74
     0
 42
0.0000000587315907
 43
0.0000000001
 12
1.0
 22
0.0
 32
0.0
 13
1.0
 23
0.0
 33
0.0
 40
0.0
 40
0.0
 40
0.0
 40
0.0
 40
1.0
 40
1.0
 40
1.0
 40
1.0
 10
6.124999999999998
 20
1.919668761987424
 30
0.0
 10
6.201319494339903
 20
1.902785232861901
 30
0.0
 10
6.249999999999996
 20
1.870260686374448
 30
0.0
 10
6.249999999999996
 20
1.836705288781759
 30
0.0
  0
LINE
  5
10A
330
1F
100
AcDbEntity
  8
SK1
  6
Continuous
100
AcDbLine
 10
6.25
 20
1.8367052888
 30
0.0
 11
6.25
 21
1.5472650079
 31
0.0
  0
LINE
  5
10B
330
1F
100
AcDbEntity
  8
SK1
  6
Continuous
100
AcDbLine
 10
6.25
 20
1.5472650079
 30
0.0
 11
5.9290206641
 21
1.5472650079
 31
0.0
  0
LINE
  5
10C
330
1F
100
AcDbEntity
  8
SK3
100
AcDbLine
 10
5.9290206641
 20
1.5472650079
 30
0.0
 11
-6.4897826337
 21
1.5472650079
 31
0.0
  0
LINE
  5
10D
330
1F
100
AcDbEntity
  8
SK1
  6
Continuous
100
AcDbLine
 10
-6.4897826337
 20
1.5472650079
 30
0.0
 11
-10.8087221092
 21
1.5472650079
 31
0.0
  0
LINE
  5
10E
330
1F
100
AcDbEntity
  8
SK1
  6
Continuous
100
AcDbLine
 10
1.75
 20
2.4066174463
 30
0.0
 11
1.75
 21
2.0618893133
 31
0.0
  0
SPLINE
  5
10F
330
1F
100
AcDbEntity
  8
SK1
  6
Continuous
100
AcDbSpline
210
0.0
220
0.0
230
1.0
 70
     8
 71
     3
 72
    23
 73
    19
 74
     0
 42
0.0000000873296311
 43
0.0000000001
 12
1.0
 22
0.0
 32
0.0
 13
1.0
 23
0.0
 33
0.0
 40
0.0
 40
0.0
 40
0.0
 40
0.0
 40
0.0720086882387639
 40
0.0720086882387639
 40
0.0720086882387639
 40
0.2872784282793996
 40
0.2872784282793996
 40
0.2872784282793996
 40
0.5025124564906002
 40
0.5025124564906002
 40
0.5025124564906002
 40
0.717573067840405
 40
0.717573067840405
 40
0.717573067840405
 40
0.9323973733037715
 40
0.9323973733037715
 40
0.9323973733037715
 40
1.0
 40
1.0
 40
1.0
 40
1.0
 10
1.749999999999995
 20
2.061889313329583
 30
0.0
 10
1.749999999999992
 20
2.060444471092596
 30
0.0
 10
1.750214042480758
 20
2.058997327218431
 30
0.0
 10
1.750640087238002
 20
2.057561713426311
 30
0.0
 10
1.751905735756631
 20
2.053296944435672
 30
0.0
 10
1.755112844441751
 20
2.049056923669264
 30
0.0
 10
1.759996682042963
 20
2.045193011537053
 30
0.0
 10
1.764879656110227
 20
2.041329782601042
 30
0.0
 10
1.771573755956262
 20
2.037735879829642
 30
0.0
 10
1.779525260096761
 20
2.034709820745974
 30
0.0
 10
1.787470373640709
 20
2.031686193695593
 30
0.0
 10
1.796890458547649
 20
2.029146021442634
 30
0.0
 10
1.807004840077392
 20
2.027300717921849
 30
0.0
 10
1.817108255387799
 20
2.025457415116884
 30
0.0
 10
1.828183491965881
 20
2.024256604639207
 30
0.0
 10
1.839312109219667
 20
2.023798298893061
 30
0.0
 10
1.84285938211072
 20
2.023652212859904
 30
0.0
 10
1.846432245620986
 20
2.023578853235657
 30
0.0
 10
1.849999999999997
 20
2.023578853236312
 30
0.0
  0
LINE
  5
110
330
1F
100
AcDbEntity
  8
SK1
  6
Continuous
100
AcDbLine
 10
1.85
 20
2.0235788532
 30
0.0
 11
3.65
 21
2.0235788532
 31
0.0
  0
SPLINE
  5
111
330
1F
100
AcDbEntity
  8
SK1
  6
Continuous
100
AcDbSpline
210
0.0
220
0.0
230
1.0
 70
     8
 71
     3
 72
    20
 73
    16
 74
     0
 42
0.0000000873371732
 43
0.0000000001
 12
1.0
 22
0.0
 32
0.0
 13
1.0
 23
0.0
 33
0.0
 40
0.0
 40
0.0
 40
0.0
 40
0.0
 40
0.2131842890743922
 40
0.2131842890743922
 40
0.2131842890743922
 40
0.4276222227334626
 40
0.4276222227334626
 40
0.4276222227334626
 40
0.6421683401747835
 40
0.6421683401747835
 40
0.6421683401747835
 40
0.8569448030456558
 40
0.8569448030456558
 40
0.8569448030456558
 40
1.0
 40
1.0
 40
1.0
 40
1.0
 10
3.649999999999994
 20
2.023578853236312
 30
0.0
 10
3.661117322743995
 20
2.023578853236312
 30
0.0
 10
3.672386192947886
 20
2.024309087127364
 30
0.0
 10
3.682883961170158
 20
2.025709506016084
 30
0.0
 10
3.693443605607305
 20
2.027118179289758
 30
0.0
 10
3.70351310997621
 20
2.029243847144017
 30
0.0
 10
3.712260334062168
 20
2.031910088653906
 30
0.0
 10
3.72101202441511
 20
2.034577691526705
 30
0.0
 10
3.728681246776147
 20
2.037859834015586
 30
0.0
 10
3.734635744617623
 20
2.041484794511184
 30
0.0
 10
3.740596563719037
 20
2.045113603243553
 30
0.0
 10
3.745003297218984
 20
2.049185892143061
 30
0.0
 10
3.747492968132121
 20
2.053364882095163
 30
0.0
 10
3.749153872840734
 20
2.056152762233082
 30
0.0
 10
3.750000000000009
 20
2.059029896617809
 30
0.0
 10
3.750000000001028
 20
2.061889313329627
 30
0.0
  0
LINE
  5
112
330
1F
100
AcDbEntity
  8
SK1
  6
Continuous
100
AcDbLine
 10
3.75
 20
2.0618893133
 30
0.0
 11
3.75
 21
2.4449146193
 31
0.0
  0
LINE
  5
113
330
1F
100
AcDbEntity
  8
SK1
  6
Continuous
100
AcDbLine
 10
3.75
 20
2.4449146193
 30
0.0
 11
6.125
 21
1.919668762
 31
0.0
  0
LINE
  5
114
330
1F
100
AcDbEntity
  8
SK3
100
AcDbLine
 10
6.25
 20
1.1315192182
 30
0.0
 11
-10.8087221092
 21
1.1315192182
 31
0.0
  0
LINE
  5
115
330
1F
100
AcDbEntity
  8
SK1
  6
Continuous
100
AcDbLine
 10
6.25
 20
1.5472650079
 30
0.0
 11
6.25
 21
1.4209594992
 31
0.0
  0
SPLINE
  5
116
330
1F
100
AcDbEntity
  8
SK1
  6
Continuous
100
AcDbSpline
210
0.0
220
0.0
230
1.0
 70
     8
 71
     3
 72
     8
 73
     4
 74
     0
 42
0.0000000587315907
 43
0.0000000001
 12
1.0
 22
0.0
 32
0.0
 13
1.0
 23
0.0
 33
0.0
 40
0.0
 40
0.0
 40
0.0
 40
0.0
 40
1.0
 40
1.0
 40
1.0
 40
1.0
 10
6.124999999999998
 20
1.503922972357345
 30
0.0
 10
6.201319494339552
 20
1.4870394432319
 30
0.0
 10
6.249999999999996
 20
1.45451489674425
 30
0.0
 10
6.249999999999996
 20
1.420959499151677
 30
0.0
  0
SPLINE
  5
117
330
1F
100
AcDbEntity
  8
SK1
  6
Continuous
100
AcDbSpline
210
0.0
220
0.0
230
1.0
 70
     8
 71
     3
 72
    23
 73
    19
 74
     0
 42
0.0000000873296311
 43
0.0000000001
 12
1.0
 22
0.0
 32
0.0
 13
1.0
 23
0.0
 33
0.0
 40
0.0
 40
0.0
 40
0.0
 40
0.0
 40
0.072008688238791
 40
0.072008688238791
 40
0.072008688238791
 40
0.2872784282794332
 40
0.2872784282794332
 40
0.2872784282794332
 40
0.5025124564906266
 40
0.5025124564906266
 40
0.5025124564906266
 40
0.7175730678404323
 40
0.7175730678404323
 40
0.7175730678404323
 40
0.932397373303795
 40
0.932397373303795
 40
0.932397373303795
 40
1.0
 40
1.0
 40
1.0
 40
1.0
 10
1.749999999999995
 20
1.646143523699505
 30
0.0
 10
1.749999999999992
 20
1.644698681462518
 30
0.0
 10
1.750214042480758
 20
1.643251537588351
 30
0.0
 10
1.750640087238002
 20
1.64181592379623
 30
0.0
 10
1.751905735756632
 20
1.637551154805592
 30
0.0
 10
1.755112844441751
 20
1.633311134039183
 30
0.0
 10
1.759996682042964
 20
1.62944722190697
 30
0.0
 10
1.76487965611023
 20
1.62558399297096
 30
0.0
 10
1.771573755956265
 20
1.621990090199565
 30
0.0
 10
1.779525260096764
 20
1.618964031115897
 30
0.0
 10
1.787470373640712
 20
1.615940404065516
 30
0.0
 10
1.796890458547653
 20
1.613400231812553
 30
0.0
 10
1.807004840077396
 20
1.611554928291767
 30
0.0
 10
1.817108255387802
 20
1.609711625486803
 30
0.0
 10
1.828183491965884
 20
1.608510815009128
 30
0.0
 10
1.839312109219671
 20
1.608052509262982
 30
0.0
 10
1.842859382110723
 20
1.607906423229825
 30
0.0
 10
1.846432245620987
 20
1.60783306360558
 30
0.0
 10
1.849999999999997
 20
1.607833063606235
 30
0.0
  0
LINE
  5
118
330
1F
100
AcDbEntity
  8
SK1
  6
Continuous
100
AcDbLine
 10
1.85
 20
1.6078330636
 30
0.0
 11
3.65
 21
1.6078330636
 31
0.0
  0
SPLINE
  5
119
330
1F
100
AcDbEntity
  8
SK1
  6
Continuous
100
AcDbSpline
210
0.0
220
0.0
230
1.0
 70
     8
 71
     3
 72
    20
 73
    16
 74
     0
 42
0.0000000873371732
 43
0.0000000001
 12
1.0
 22
0.0
 32
0.0
 13
1.0
 23
0.0
 33
0.0
 40
0.0
 40
0.0
 40
0.0
 40
0.0
 40
0.2131842890743408
 40
0.2131842890743408
 40
0.2131842890743408
 40
0.4276222227334139
 40
0.4276222227334139
 40
0.4276222227334139
 40
0.6421683401747341
 40
0.6421683401747341
 40
0.6421683401747341
 40
0.8569448030456059
 40
0.8569448030456059
 40
0.8569448030456059
 40
1.0
 40
1.0
 40
1.0
 40
1.0
 10
3.649999999999994
 20
1.607833063606234
 30
0.0
 10
3.661117322743991
 20
1.607833063606233
 30
0.0
 10
3.67238619294788
 20
1.608563297497282
 30
0.0
 10
3.68288396117015
 20
1.609963716386001
 30
0.0
 10
3.693443605607298
 20
1.611372389659676
 30
0.0
 10
3.703513109976204
 20
1.613498057513935
 30
0.0
 10
3.712260334062162
 20
1.616164299023825
 30
0.0
 10
3.721012024415104
 20
1.618831901896623
 30
0.0
 10
3.728681246776142
 20
1.622114044385507
 30
0.0
 10
3.734635744617619
 20
1.625739004881103
 30
0.0
 10
3.740596563719034
 20
1.629367813613473
 30
0.0
 10
3.745003297218981
 20
1.633440102512981
 30
0.0
 10
3.74749296813212
 20
1.637619092465083
 30
0.0
 10
3.749153872840733
 20
1.640406972603003
 30
0.0
 10
3.750000000000009
 20
1.643284106987727
 30
0.0
 10
3.750000000001028
 20
1.646143523699549
 30
0.0
  0
LINE
  5
11A
330
1F
100
AcDbEntity
  8
SK1
  6
Continuous
100
AcDbLine
 10
3.75
 20
2.0291688297
 30
0.0
 11
6.125
 21
1.5039229724
 31
0.0
  0
LINE
  5
11B
330
1F
100
AcDbEntity
  8
SK3
100
AcDbLine
 10
-11.25
 20
1.9196920654
 30
0.0
 11
-11.25
 21
2.4898545132
 31
0.0
  0
LINE
  5
11C
330
1F
100
AcDbEntity
  8
SK3
100
AcDbLine
 10
-11.75
 20
1.8063633614
 30
0.0
 11
-11.25
 21
1.6014940139
 31
0.0
  0
LINE
  5
11D
330
1F
100
AcDbEntity
  8
SK3
100
AcDbLine
 10
-11.75
 20
2.1245614129
 30
0.0
 11
-11.25
 21
1.9196920654
 31
0.0
  0
LINE
  5
11E
330
1F
100
AcDbEntity
  8
SK1
  6
Continuous
100
AcDbLine
 10
-11.75
 20
2.7555629639
 30
0.0
 11
-11.75
 21
3.6719544743
 31
0.0
  0
LINE
  5
11F
330
1F
100
AcDbEntity
  8
SK1
  6
Continuous
100
AcDbLine
 10
-11.5778346202
 20
2.895857228
 30
0.0
 11
-11.5778346202
 21
3.8703605253
 31
0.0
  0
LINE
  5
120
330
1F
100
AcDbEntity
  8
SK1
  6
Continuous
100
AcDbLine
 10
1.75
 20
4.2218491178
 30
0.0
 11
1.75
 21
5.222135003
 31
0.0
  0
LINE
  5
121
330
1F
100
AcDbEntity
  8
SK3
100
AcDbLine
 10
-2.75
 20
1.6354756019
 30
0.0
 11
-2.75
 21
1.8428751537
 31
0.0
  0
LINE
  5
122
330
1F
100
AcDbEntity
  8
SK3
100
AcDbLine
 10
-2.75
 20
1.3172775504
 30
0.0
 11
-2.75
 21
1.5733126879
 31
0.0
  0
LINE
  5
123
330
1F
100
AcDbEntity
  8
SK1
  6
Continuous
100
AcDbLine
 10
6.25
 20
3.1687887625
 30
0.0
 11
6.25
 21
3.846245343
 31
0.0
  0
LINE
  5
124
330
1F
100
AcDbEntity
  8
SK1
  6
Continuous
100
AcDbLine
 10
1.85
 20
3.5140860853
 30
0.0
 11
1.85
 21
4.2973980367
 31
0.0
  0
LINE
  5
125
330
1F
100
AcDbEntity
  8
SK1
  6
Continuous
100
AcDbLine
 10
3.65
 20
3.5140860853
 30
0.0
 11
3.65
 21
4.2973980367
 31
0.0
  0
LINE
  5
126
330
1F
100
AcDbEntity
  8
SK1
  6
Continuous
100
AcDbLine
 10
3.75
 20
4.2926130665
 30
0.0
 11
3.75
 21
5.3145925575
 31
0.0
  0
LINE
  5
127
330
1F
100
AcDbEntity
  8
SK1
  6
Continuous
100
AcDbLine
 10
6.125
 20
3.3220852722
 30
0.0
 11
6.125
 21
4.0465368852
 31
0.0
  0
ARC
  5
128
330
1F
100
AcDbEntity
  8
SK1
  6
Continuous
100
AcDbCircle
 10
6.071237903
 20
3.1506353669
 30
0.0
 40
0.1796814768051855
100
AcDbArc
 50
5.7985419497
 51
72.5899728059
  0
LINE
  5
129
330
1F
100
AcDbEntity
  8
SK1
  6
Continuous
100
AcDbLine
 10
6.25
 20
3.1687887625
 30
0.0
 11
6.25
 21
2.850590711
 31
0.0
  0
LINE
  5
12A
330
1F
100
AcDbEntity
  8
SK3
100
AcDbLine
 10
6.25
 20
2.6339728597
 30
0.0
 11
-2.2793610546
 21
1.5733126879
 31
0.0
  0
LINE
  5
12B
330
1F
100
AcDbEntity
  8
SK3
100
AcDbLine
 10
-2.2793610546
 20
1.5733126879
 30
0.0
 11
-2.75
 21
1.5733126879
 31
0.0
  0
LINE
  5
12C
330
1F
100
AcDbEntity
  8
SK1
  6
Continuous
100
AcDbLine
 10
-11.75
 20
2.4373649124
 30
0.0
 11
-11.75
 21
2.7555629639
 31
0.0
  0
SPLINE
  5
12D
330
1F
100
AcDbEntity
  8
SK1
  6
Continuous
100
AcDbSpline
210
0.0
220
0.0
230
1.0
 70
     8
 71
     3
 72
    10
 73
     6
 74
     0
 42
0.0000000403551188
 43
0.0000000001
 12
1.0
 22
0.0
 32
0.0
 13
1.0
 23
0.0
 33
0.0
 40
0.0
 40
0.0
 40
0.0
 40
0.0
 40
0.5
 40
0.5
 40
1.0
 40
1.0
 40
1.0
 40
1.0
 10
-11.75000000000001
 20
2.755562963943279
 30
0.0
 10
-11.75000000000001
 20
2.789269654508048
 30
0.0
 10
-11.73219383834308
 20
2.822997683580839
 30
0.0
 10
-11.66993624038132
 20
2.873824929668715
 30
0.0
 10
-11.62554330431898
 20
2.891108059337206
 30
0.0
 10
-11.57783462019202
 20
2.89585722803895
 30
0.0
  0
SPLINE
  5
12E
330
1F
100
AcDbEntity
  8
SK1
  6
Continuous
100
AcDbSpline
210
0.0
220
0.0
230
1.0
 70
     8
 71
     3
 72
    11
 73
     7
 74
     0
 42
0.0000000007466234
 43
0.0000000001
 12
1.0
 22
0.0
 32
0.0
 13
1.0
 23
0.0
 33
0.0
 40
0.0
 40
0.0
 40
0.0
 40
0.0
 40
0.5056987538646286
 40
0.5056987538646286
 40
0.5056987538646286
 40
1.0
 40
1.0
 40
1.0
 40
1.0
 10
-11.57783462019202
 20
2.89585722803895
 30
0.0
 10
-9.331235501899718
 20
3.119495301913742
 30
0.0
 10
-7.084619057020417
 20
3.343046350045193
 30
0.0
 10
-4.837993842395377
 20
3.566553306867106
 30
0.0
 10
-2.642003373511011
 20
3.785022833388551
 30
0.0
 10
-0.4460042188452382
 20
4.00344870772497
 30
0.0
 10
1.749999999999995
 20
4.221849117845832
 30
0.0
  0
LINE
  5
12F
330
1F
100
AcDbEntity
  8
SK1
  6
Continuous
100
AcDbLine
 10
1.75
 20
4.2218491178
 30
0.0
 11
1.75
 21
3.9036510663
 31
0.0
  0
SPLINE
  5
130
330
1F
100
AcDbEntity
  8
SK1
  6
Continuous
100
AcDbSpline
210
0.0
220
0.0
230
1.0
 70
     8
 71
     3
 72
    23
 73
    19
 74
     0
 42
0.0000000737113564
 43
0.0000000001
 12
1.0
 22
0.0
 32
0.0
 13
1.0
 23
0.0
 33
0.0
 40
0.0
 40
0.0
 40
0.0
 40
0.0
 40
0.0720086882387774
 40
0.0720086882387774
 40
0.0720086882387774
 40
0.287278428279415
 40
0.287278428279415
 40
0.287278428279415
 40
0.5025124564906048
 40
0.5025124564906048
 40
0.5025124564906048
 40
0.7175730678404163
 40
0.7175730678404163
 40
0.7175730678404163
 40
0.932397373303778
 40
0.932397373303778
 40
0.932397373303778
 40
1.0
 40
1.0
 40
1.0
 40
1.0
 10
1.749999999999995
 20
3.584874585196399
 30
0.0
 10
1.749999999999992
 20
3.582204864855479
 30
0.0
 10
1.750214042480758
 20
3.5795308916436
 30
0.0
 10
1.750640087238002
 20
3.576878223245338
 30
0.0
 10
1.751905735756631
 20
3.568997957682658
 30
0.0
 10
1.755112844441751
 20
3.561163420875641
 30
0.0
 10
1.759996682042964
 20
3.554023842206895
 30
0.0
 10
1.764879656110229
 20
3.546885525920124
 30
0.0
 10
1.771573755956264
 20
3.540244859495463
 30
0.0
 10
1.779525260096762
 20
3.534653431392323
 30
0.0
 10
1.78747037364071
 20
3.529066497100734
 30
0.0
 10
1.796890458547651
 20
3.524372870793609
 30
0.0
 10
1.807004840077394
 20
3.520963194485359
 30
0.0
 10
1.817108255387801
 20
3.517557215017905
 30
0.0
 10
1.828183491965882
 20
3.515338406572401
 30
0.0
 10
1.839312109219668
 20
3.514491567975407
 30
0.0
 10
1.842859382110721
 20
3.51422163618337
 30
0.0
 10
1.846432245620986
 20
3.514086085272664
 30
0.0
 10
1.849999999999997
 20
3.514086085273874
 30
0.0
  0
LINE
  5
131
330
1F
100
AcDbEntity
  8
SK1
  6
Continuous
100
AcDbLine
 10
1.85
 20
3.5140860853
 30
0.0
 11
3.65
 21
3.5140860853
 31
0.0
  0
SPLINE
  5
132
330
1F
100
AcDbEntity
  8
SK1
  6
Continuous
100
AcDbSpline
210
0.0
220
0.0
230
1.0
 70
     8
 71
     3
 72
    20
 73
    16
 74
     0
 42
0.0000000737083677
 43
0.0000000001
 12
1.0
 22
0.0
 32
0.0
 13
1.0
 23
0.0
 33
0.0
 40
0.0
 40
0.0
 40
0.0
 40
0.0
 40
0.2131842890743375
 40
0.2131842890743375
 40
0.2131842890743375
 40
0.42762222273341
 40
0.42762222273341
 40
0.42762222273341
 40
0.6421683401747282
 40
0.6421683401747282
 40
0.6421683401747282
 40
0.8569448030455964
 40
0.8569448030455964
 40
0.8569448030455964
 40
1.0
 40
1.0
 40
1.0
 40
1.0
 10
3.649999999999994
 20
3.514086085273876
 30
0.0
 10
3.661117322743991
 20
3.514086085273874
 30
0.0
 10
3.67238619294788
 20
3.515435381565645
 30
0.0
 10
3.68288396117015
 20
3.518023018262104
 30
0.0
 10
3.693443605607298
 20
3.520625907073191
 30
0.0
 10
3.703513109976203
 20
3.524553629120127
 30
0.0
 10
3.712260334062162
 20
3.529480201039565
 30
0.0
 10
3.721012024415104
 20
3.534409288429658
 30
0.0
 10
3.728681246776142
 20
3.540473896966185
 30
0.0
 10
3.734635744617619
 20
3.547171950582273
 30
0.0
 10
3.740596563719034
 20
3.553877114812742
 30
0.0
 10
3.745003297218981
 20
3.561401723542201
 30
0.0
 10
3.74749296813212
 20
3.569123490108836
 30
0.0
 10
3.749153872840733
 20
3.574274820905875
 30
0.0
 10
3.750000000000009
 20
3.579591072046539
 30
0.0
 10
3.750000000001028
 20
3.584874585196484
 30
0.0
  0
LINE
  5
133
330
1F
100
AcDbEntity
  8
SK1
  6
Continuous
100
AcDbLine
 10
3.75
 20
3.974415015
 30
0.0
 11
3.75
 21
4.2926130665
 31
0.0
  0
LINE
  5
134
330
1F
100
AcDbEntity
  8
SK1
  6
Continuous
100
AcDbLine
 10
3.75
 20
4.2926130665
 30
0.0
 11
6.125
 21
3.3220852722
 31
0.0
  0
LINE
  5
135
330
1F
100
AcDbEntity
  8
SK3
100
AcDbLine
 10
-11.25
 20
1.6014940139
 30
0.0
 11
-3.15
 21
1.6014940139
 31
0.0
  0
SPLINE
  5
136
330
1F
100
AcDbEntity
  8
SK3
100
AcDbSpline
210
0.0
220
0.0
230
1.0
 70
     8
 71
     3
 72
    10
 73
     6
 74
     0
 42
0.0000000180219886
 43
0.0000000001
 12
1.0
 22
0.0
 32
0.0
 13
1.0
 23
0.0
 33
0.0
 40
0.0
 40
0.0
 40
0.0
 40
0.0
 40
0.5
 40
0.5
 40
1.0
 40
1.0
 40
1.0
 40
1.0
 10
-3.150000000000014
 20
1.601494013896416
 30
0.0
 10
-3.0440034180512
 20
1.601494013896417
 30
0.0
 10
-2.940388772815497
 20
1.570488492816063
 30
0.0
 10
-2.79297167220427
 20
1.465426723572422
 30
0.0
 10
-2.749999999999854
 20
1.391289786932696
 30
0.0
 10
-2.749999999996606
 20
1.317277550380668
 30
0.0
  0
LINE
  5
137
330
1F
100
AcDbEntity
  8
SK3
100
AcDbLine
 10
6.25
 20
2.3157748082
 30
0.0
 11
-2.2793610546
 21
1.2551146364
 31
0.0
  0
LINE
  5
138
330
1F
100
AcDbEntity
  8
SK3
100
AcDbLine
 10
-2.2793610546
 20
1.2551146364
 30
0.0
 11
-2.75
 21
1.2551146364
 31
0.0
  0
LINE
  5
139
330
1F
100
AcDbEntity
  8
SK3
100
AcDbLine
 10
-2.2793610546
 20
1.5733126879
 30
0.0
 11
-2.2793610546
 21
1.2551146364
 31
0.0
  0
LINE
  5
13A
330
1F
100
AcDbEntity
  8
SK3
100
AcDbLine
 10
-11.25
 20
1.9196920654
 30
0.0
 11
-3.15
 21
1.9196920654
 31
0.0
  0
SPLINE
  5
13B
330
1F
100
AcDbEntity
  8
SK3
100
AcDbSpline
210
0.0
220
0.0
230
1.0
 70
     8
 71
     3
 72
    10
 73
     6
 74
     0
 42
0.0000000180219886
 43
0.0000000001
 12
1.0
 22
0.0
 32
0.0
 13
1.0
 23
0.0
 33
0.0
 40
0.0
 40
0.0
 40
0.0
 40
0.0
 40
0.5
 40
0.5
 40
1.0
 40
1.0
 40
1.0
 40
1.0
 10
-3.150000000000014
 20
1.919692065430362
 30
0.0
 10
-3.0440034180512
 20
1.919692065430364
 30
0.0
 10
-2.940388772815497
 20
1.888686544350011
 30
0.0
 10
-2.79297167220427
 20
1.783624775106369
 30
0.0
 10
-2.749999999999854
 20
1.709487838466644
 30
0.0
 10
-2.749999999996606
 20
1.635475601914614
 30
0.0
  0
LINE
  5
13C
330
1F
100
AcDbEntity
  8
SK3
100
AcDbLine
 10
-2.75
 20
1.6354756019
 30
0.0
 11
-2.75
 21
1.5733126879
 31
0.0
  0
ARC
  5
13D
330
1F
100
AcDbEntity
  8
SK1
  6
Continuous
100
AcDbCircle
 10
6.071237903
 20
2.8324373154
 30
0.0
 40
0.1796814768053001
100
AcDbArc
 50
5.7985419497
 51
72.5899728059
  0
SPLINE
  5
13E
330
1F
100
AcDbEntity
  8
SK1
  6
Continuous
100
AcDbSpline
210
0.0
220
0.0
230
1.0
 70
     8
 71
     3
 72
    10
 73
     6
 74
     0
 42
0.0000000403551188
 43
0.0000000001
 12
1.0
 22
0.0
 32
0.0
 13
1.0
 23
0.0
 33
0.0
 40
0.0
 40
0.0
 40
0.0
 40
0.0
 40
0.5
 40
0.5
 40
1.0
 40
1.0
 40
1.0
 40
1.0
 10
-11.75000000000001
 20
2.437364912409333
 30
0.0
 10
-11.75000000000001
 20
2.471071602974101
 30
0.0
 10
-11.73219383834308
 20
2.504799632046891
 30
0.0
 10
-11.66993624038132
 20
2.555626878134769
 30
0.0
 10
-11.62554330431898
 20
2.572910007803261
 30
0.0
 10
-11.57783462019202
 20
2.577659176505004
 30
0.0
  0
SPLINE
  5
13F
330
1F
100
AcDbEntity
  8
SK1
  6
Continuous
100
AcDbSpline
210
0.0
220
0.0
230
1.0
 70
     8
 71
     3
 72
    11
 73
     7
 74
     0
 42
0.0000000007466234
 43
0.0000000001
 12
1.0
 22
0.0
 32
0.0
 13
1.0
 23
0.0
 33
0.0
 40
0.0
 40
0.0
 40
0.0
 40
0.0
 40
0.5056987538646285
 40
0.5056987538646285
 40
0.5056987538646285
 40
1.0
 40
1.0
 40
1.0
 40
1.0
 10
-11.57783462019202
 20
2.577659176505004
 30
0.0
 10
-9.331235501899718
 20
2.801297250379796
 30
0.0
 10
-7.084619057020419
 20
3.024848298511246
 30
0.0
 10
-4.837993842395379
 20
3.248355255333159
 30
0.0
 10
-2.642003373511012
 20
3.466824781854604
 30
0.0
 10
-0.4460042188452378
 20
3.685250656191023
 30
0.0
 10
1.749999999999995
 20
3.903651066311887
 30
0.0
  0
SPLINE
  5
140
330
1F
100
AcDbEntity
  8
SK1
  6
Continuous
100
AcDbSpline
210
0.0
220
0.0
230
1.0
 70
     8
 71
     3
 72
    23
 73
    19
 74
     0
 42
0.0000000737113564
 43
0.0000000001
 12
1.0
 22
0.0
 32
0.0
 13
1.0
 23
0.0
 33
0.0
 40
0.0
 40
0.0
 40
0.0
 40
0.0
 40
0.072008688238747
 40
0.072008688238747
 40
0.072008688238747
 40
0.2872784282793936
 40
0.2872784282793936
 40
0.2872784282793936
 40
0.5025124564905982
 40
0.5025124564905982
 40
0.5025124564905982
 40
0.7175730678403952
 40
0.7175730678403952
 40
0.7175730678403952
 40
0.9323973733037608
 40
0.9323973733037608
 40
0.9323973733037608
 40
1.0
 40
1.0
 40
1.0
 40
1.0
 10
1.749999999999995
 20
3.266676533662453
 30
0.0
 10
1.749999999999992
 20
3.264006813321533
 30
0.0
 10
1.750214042480758
 20
3.261332840109654
 30
0.0
 10
1.750640087238002
 20
3.258680171711394
 30
0.0
 10
1.75190573575663
 20
3.250799906148714
 30
0.0
 10
1.755112844441751
 20
3.242965369341697
 30
0.0
 10
1.759996682042963
 20
3.235825790672951
 30
0.0
 10
1.764879656110227
 20
3.228687474386179
 30
0.0
 10
1.771573755956263
 20
3.222046807961519
 30
0.0
 10
1.779525260096762
 20
3.216455379858379
 30
0.0
 10
1.787470373640709
 20
3.210868445566789
 30
0.0
 10
1.796890458547649
 20
3.206174819259664
 30
0.0
 10
1.807004840077391
 20
3.202765142951414
 30
0.0
 10
1.817108255387798
 20
3.19935916348396
 30
0.0
 10
1.828183491965879
 20
3.197140355038455
 30
0.0
 10
1.839312109219666
 20
3.19629351644146
 30
0.0
 10
1.84285938211072
 20
3.196023584649423
 30
0.0
 10
1.846432245620985
 20
3.195888033738718
 30
0.0
 10
1.849999999999997
 20
3.195888033739928
 30
0.0
  0
LINE
  5
141
330
1F
100
AcDbEntity
  8
SK1
  6
Continuous
100
AcDbLine
 10
1.85
 20
3.1958880337
 30
0.0
 11
3.65
 21
3.1958880337
 31
0.0
  0
SPLINE
  5
142
330
1F
100
AcDbEntity
  8
SK1
  6
Continuous
100
AcDbSpline
210
0.0
220
0.0
230
1.0
 70
     8
 71
     3
 72
    20
 73
    16
 74
     0
 42
0.0000000737083677
 43
0.0000000001
 12
1.0
 22
0.0
 32
0.0
 13
1.0
 23
0.0
 33
0.0
 40
0.0
 40
0.0
 40
0.0
 40
0.0
 40
0.2131842890743328
 40
0.2131842890743328
 40
0.2131842890743328
 40
0.4276222227333982
 40
0.4276222227333982
 40
0.4276222227333982
 40
0.6421683401747204
 40
0.6421683401747204
 40
0.6421683401747204
 40
0.8569448030455898
 40
0.8569448030455898
 40
0.8569448030455898
 40
1.0
 40
1.0
 40
1.0
 40
1.0
 10
3.649999999999994
 20
3.195888033739929
 30
0.0
 10
3.661117322743991
 20
3.195888033739927
 30
0.0
 10
3.672386192947879
 20
3.1972373300317
 30
0.0
 10
3.682883961170149
 20
3.199824966728159
 30
0.0
 10
3.693443605607296
 20
3.202427855539246
 30
0.0
 10
3.703513109976202
 20
3.206355577586181
 30
0.0
 10
3.712260334062161
 20
3.211282149505617
 30
0.0
 10
3.721012024415103
 20
3.216211236895711
 30
0.0
 10
3.728681246776141
 20
3.222275845432237
 30
0.0
 10
3.734635744617619
 20
3.228973899048325
 30
0.0
 10
3.740596563719034
 20
3.235679063278794
 30
0.0
 10
3.745003297218981
 20
3.243203672008255
 30
0.0
 10
3.74749296813212
 20
3.250925438574889
 30
0.0
 10
3.749153872840734
 20
3.256076769371929
 30
0.0
 10
3.750000000000009
 20
3.261393020512592
 30
0.0
 10
3.750000000001028
 20
3.266676533662538
 30
0.0
  0
LINE
  5
143
330
1F
100
AcDbEntity
  8
SK1
  6
Continuous
100
AcDbLine
 10
3.75
 20
3.974415015
 30
0.0
 11
6.125
 21
3.0038872207
 31
0.0
  0
LINE
  5
144
330
1F
100
AcDbEntity
  8
SK3
100
AcDbLine
 10
-2.75
 20
0.2250000998
 30
0.0
 11
-2.75
 21
1.3172775504
 31
0.0
  0
LINE
  5
145
330
1F
100
AcDbEntity
  8
SK1
  6
Continuous
100
AcDbLine
 10
-2.75
 20
-0.2249999002
 30
0.0
 11
-2.75
 21
0.2250000998
 31
0.0
  0
LINE
  5
146
330
1F
100
AcDbEntity
  8
SK1
  6
Continuous
100
AcDbLine
 10
6.25
 20
0.2250000998
 30
0.0
 11
6.25
 21
1.4209594992
 31
0.0
  0
LINE
  5
147
330
1F
100
AcDbEntity
  8
SK1
  6
Continuous
100
AcDbLine
 10
1.75
 20
0.2250000998
 30
0.0
 11
1.75
 21
1.9908716567
 31
0.0
  0
LINE
  5
148
330
1F
100
AcDbEntity
  8
SK1
  6
Continuous
100
AcDbLine
 10
1.85
 20
0.2250000998
 30
0.0
 11
1.85
 21
1.6078330636
 31
0.0
  0
LINE
  5
149
330
1F
100
AcDbEntity
  8
SK1
  6
Continuous
100
AcDbLine
 10
3.65
 20
0.2250000998
 30
0.0
 11
3.65
 21
1.6078330636
 31
0.0
  0
LINE
  5
14A
330
1F
100
AcDbEntity
  8
SK1
  6
Continuous
100
AcDbLine
 10
3.75
 20
0.2250000998
 30
0.0
 11
3.75
 21
2.0291688297
 31
0.0
  0
LINE
  5
14B
330
1F
100
AcDbEntity
  8
SK1
  6
Continuous
100
AcDbLine
 10
6.125
 20
0.2250000998
 30
0.0
 11
6.125
 21
1.5039229724
 31
0.0
  0
LINE
  5
14C
330
1F
100
AcDbEntity
  8
SK3
100
AcDbLine
 10
-11.25
 20
0.2250000998
 30
0.0
 11
-11.25
 21
1.6014940139
 31
0.0
  0
LINE
  5
14D
330
1F
100
AcDbEntity
  8
SK1
  6
Continuous
100
AcDbLine
 10
-11.75
 20
0.2250000998
 30
0.0
 11
-11.75
 21
2.4373649124
 31
0.0
  0
LINE
  5
14E
330
1F
100
AcDbEntity
  8
SK1
  6
Continuous
100
AcDbLine
 10
-11.5778346202
 20
0.2250000998
 30
0.0
 11
-11.5778346202
 21
2.5776591765
 31
0.0
  0
LINE
  5
14F
330
1F
100
AcDbEntity
  8
SK1
  6
Continuous
100
AcDbLine
 10
6.125
 20
0.2250000998
 30
0.0
 11
6.25
 21
0.2250000998
 31
0.0
  0
LINE
  5
150
330
1F
100
AcDbEntity
  8
SK1
  6
Continuous
100
AcDbLine
 10
-11.75
 20
0.2250000998
 30
0.0
 11
-11.5778346202
 21
0.2250000998
 31
0.0
  0
LINE
  5
151
330
1F
100
AcDbEntity
  8
SK1
  6
Continuous
100
AcDbLine
 10
-11.5778346202
 20
0.2250000998
 30
0.0
 11
1.75
 21
0.2250000998
 31
0.0
  0
LINE
  5
152
330
1F
100
AcDbEntity
  8
SK1
  6
Continuous
100
AcDbLine
 10
1.75
 20
0.2250000998
 30
0.0
 11
1.85
 21
0.2250000998
 31
0.0
  0
LINE
  5
153
330
1F
100
AcDbEntity
  8
SK1
  6
Continuous
100
AcDbLine
 10
1.85
 20
0.2250000998
 30
0.0
 11
3.65
 21
0.2250000998
 31
0.0
  0
LINE
  5
154
330
1F
100
AcDbEntity
  8
SK1
  6
Continuous
100
AcDbLine
 10
3.65
 20
0.2250000998
 30
0.0
 11
3.75
 21
0.2250000998
 31
0.0
  0
LINE
  5
155
330
1F
100
AcDbEntity
  8
SK1
  6
Continuous
100
AcDbLine
 10
3.75
 20
0.2250000998
 30
0.0
 11
6.125
 21
0.2250000998
 31
0.0
  0
LINE
  5
156
330
1F
100
AcDbEntity
  8
SK1
  6
Continuous
100
AcDbLine
 10
6.25
 20
0.2250000998
 30
0.0
 11
6.25
 21
-0.2249999002
 31
0.0
  0
LINE
  5
157
330
1F
100
AcDbEntity
  8
SK1
  6
Continuous
100
AcDbLine
 10
-2.2793610546
 20
0.2250000998
 30
0.0
 11
-2.2793610546
 21
-0.2249999002
 31
0.0
  0
LINE
  5
158
330
1F
100
AcDbEntity
  8
SK1
  6
Continuous
100
AcDbLine
 10
6.125
 20
-0.2249999002
 30
0.0
 11
6.25
 21
-0.2249999002
 31
0.0
  0
LINE
  5
159
330
1F
100
AcDbEntity
  8
SK1
  6
Continuous
100
AcDbLine
 10
-11.75
 20
-0.2249999002
 30
0.0
 11
-11.5778346202
 21
-0.2249999002
 31
0.0
  0
LINE
  5
15A
330
1F
100
AcDbEntity
  8
SK1
  6
Continuous
100
AcDbLine
 10
-11.5778346202
 20
-0.2249999002
 30
0.0
 11
1.75
 21
-0.2249999002
 31
0.0
  0
LINE
  5
15B
330
1F
100
AcDbEntity
  8
SK1
  6
Continuous
100
AcDbLine
 10
1.75
 20
-0.2249999002
 30
0.0
 11
1.85
 21
-0.2249999002
 31
0.0
  0
LINE
  5
15C
330
1F
100
AcDbEntity
  8
SK1
  6
Continuous
100
AcDbLine
 10
1.85
 20
-0.2249999002
 30
0.0
 11
3.65
 21
-0.2249999002
 31
0.0
  0
LINE
  5
15D
330
1F
100
AcDbEntity
  8
SK1
  6
Continuous
100
AcDbLine
 10
3.65
 20
-0.2249999002
 30
0.0
 11
3.75
 21
-0.2249999002
 31
0.0
  0
LINE
  5
15E
330
1F
100
AcDbEntity
  8
SK1
  6
Continuous
100
AcDbLine
 10
3.75
 20
-0.2249999002
 30
0.0
 11
6.125
 21
-0.2249999002
 31
0.0
  0
SPLINE
  5
15F
330
1F
100
AcDbEntity
  8
SK3
100
AcDbSpline
210
0.0
220
0.0
230
1.0
 70
     8
 71
     3
 72
    10
 73
     6
 74
     0
 42
0.0000000425851114
 43
0.0000000001
 12
1.0
 22
0.0
 32
0.0
 13
1.0
 23
0.0
 33
0.0
 40
0.0
 40
0.0
 40
0.0
 40
0.0
 40
0.5
 40
0.5
 40
1.0
 40
1.0
 40
1.0
 40
1.0
 10
-2.750000000005071
 20
0.6101459161131999
 30
0.0
 10
-2.749999999999801
 20
0.5899248222760709
 30
0.0
 10
-2.729192938394911
 20
0.5697019011567912
 30
0.0
 10
-2.655575353792985
 20
0.5402765678610688
 30
0.0
 10
-2.60281490795701
 20
0.5314611985206503
 30
0.0
 10
-2.55000000000001
 20
0.5314611985206318
 30
0.0
  0
SPLINE
  5
160
330
1F
100
AcDbEntity
  8
SK3
100
AcDbSpline
210
0.0
220
0.0
230
1.0
 70
     8
 71
     3
 72
    10
 73
     6
 74
     0
 42
0.0000000425851114
 43
0.0000000001
 12
1.0
 22
0.0
 32
0.0
 13
1.0
 23
0.0
 33
0.0
 40
0.0
 40
0.0
 40
0.0
 40
0.0
 40
0.5
 40
0.5
 40
1.0
 40
1.0
 40
1.0
 40
1.0
 10
-2.750000000005071
 20
0.1944001264831213
 30
0.0
 10
-2.749999999999799
 20
0.1741790326459309
 30
0.0
 10
-2.729192938394789
 20
0.1539561115265947
 30
0.0
 10
-2.655575353792436
 20
0.1245307782308406
 30
0.0
 10
-2.602814907956221
 20
0.1157154088904713
 30
0.0
 10
-2.549999999999542
 20
0.1157154088847094
 30
0.0
  0
ARC
  5
161
330
1F
100
AcDbEntity
  8
SK3
100
AcDbCircle
 10
-8.2571255755
 20
0.9577013095
 30
0.0
 40
0.992874920725321
100
AcDbArc
 50
168.2024337458
 51
180.057281587
  0
LINE
  5
162
330
1F
100
AcDbEntity
  8
SK3
100
AcDbLine
 10
-9.2290270801
 20
0.744953238
 30
0.0
 11
-9.25
 21
0.9567086807
 31
0.0
  0
LINE
  5
163
330
1F
100
AcDbEntity
  8
SK3
100
AcDbLine
 10
-9.25
 20
0.7488357859
 30
0.0
 11
-9.25
 21
0.9567086807
 31
0.0
  0
LINE
  5
164
330
1F
100
AcDbEntity
  8
SK3
100
AcDbLine
 10
-9.25
 20
0.9567086807
 30
0.0
 11
-9.25
 21
1.1645815755
 31
0.0
  0
LINE
  5
165
330
1F
100
AcDbEntity
  8
SK3
100
AcDbLine
 10
-9.25
 20
1.1645815755
 30
0.0
 11
-9.25
 21
1.8143878105
 31
0.0
  0
LINE
  5
166
330
1F
100
AcDbEntity
  8
SK3
100
AcDbLine
 10
-9.2290270801
 20
1.1606990276
 30
0.0
 11
-9.25
 21
1.1645815755
 31
0.0
  0
LINE
  5
167
330
1F
100
AcDbEntity
  8
SK3
100
AcDbLine
 10
-9.2290270801
 20
1.1606990276
 30
0.0
 11
-3.15
 21
1.1606990276
 31
0.0
  0
SPLINE
  5
168
330
1F
100
AcDbEntity
  8
SK3
100
AcDbSpline
210
0.0
220
0.0
230
1.0
 70
     8
 71
     3
 72
    10
 73
     6
 74
     0
 42
0.0000000213751246
 43
0.0000000001
 12
1.0
 22
0.0
 32
0.0
 13
1.0
 23
0.0
 33
0.0
 40
0.0
 40
0.0
 40
0.0
 40
0.0
 40
0.5
 40
0.5
 40
1.0
 40
1.0
 40
1.0
 40
1.0
 10
-3.150000000000007
 20
1.160699027600594
 30
0.0
 10
-3.044582646818784
 20
1.160699027600594
 30
0.0
 10
-2.940394547805603
 20
1.143907596322226
 30
0.0
 10
-2.793100917342106
 20
1.087123369938523
 30
0.0
 10
-2.750000000000007
 20
1.047061070407283
 30
0.0
 10
-2.750000000000009
 20
1.006882185948673
 30
0.0
  0
LINE
  5
169
330
1F
100
AcDbEntity
  8
SK3
100
AcDbLine
 10
-2.55
 20
0.5314611985
 30
0.0
 11
6.05
 21
0.5314611985
 31
0.0
  0
SPLINE
  5
16A
330
1F
100
AcDbEntity
  8
SK3
100
AcDbSpline
210
0.0
220
0.0
230
1.0
 70
     8
 71
     3
 72
    10
 73
     6
 74
     0
 42
0.0000000425849469
 43
0.0000000001
 12
1.0
 22
0.0
 32
0.0
 13
1.0
 23
0.0
 33
0.0
 40
0.0
 40
0.0
 40
0.0
 40
0.0
 40
0.5
 40
0.5
 40
1.0
 40
1.0
 40
1.0
 40
1.0
 10
6.049999999999993
 20
0.5314611985206318
 30
0.0
 10
6.102924541456132
 20
0.5314611985206346
 30
0.0
 10
6.155875825261711
 20
0.54039488750776
 30
0.0
 10
6.228909678261445
 20
0.5695904613904063
 30
0.0
 10
6.249999999999996
 20
0.5898278159139941
 30
0.0
 10
6.249999999999996
 20
0.6101459161134415
 30
0.0
  0
LINE
  5
16B
330
1F
100
AcDbEntity
  8
SK3
100
AcDbLine
 10
-9.2290270801
 20
0.744953238
 30
0.0
 11
-9.25
 21
0.7488357859
 31
0.0
  0
LINE
  5
16C
330
1F
100
AcDbEntity
  8
SK3
100
AcDbLine
 10
-9.2290270801
 20
0.744953238
 30
0.0
 11
-3.15
 21
0.744953238
 31
0.0
  0
SPLINE
  5
16D
330
1F
100
AcDbEntity
  8
SK3
100
AcDbSpline
210
0.0
220
0.0
230
1.0
 70
     8
 71
     3
 72
    10
 73
     6
 74
     0
 42
0.0000000213751246
 43
0.0000000001
 12
1.0
 22
0.0
 32
0.0
 13
1.0
 23
0.0
 33
0.0
 40
0.0
 40
0.0
 40
0.0
 40
0.0
 40
0.5
 40
0.5
 40
1.0
 40
1.0
 40
1.0
 40
1.0
 10
-3.150000000000007
 20
0.744953237970515
 30
0.0
 10
-3.044582646818784
 20
0.7449532379705153
 30
0.0
 10
-2.940394547805603
 20
0.7281618066921464
 30
0.0
 10
-2.793100917342106
 20
0.6713775803084444
 30
0.0
 10
-2.750000000000007
 20
0.6313152807772037
 30
0.0
 10
-2.750000000000009
 20
0.5911363963185936
 30
0.0
  0
LINE
  5
16E
330
1F
100
AcDbEntity
  8
SK3
100
AcDbLine
 10
-2.55
 20
0.1157154089
 30
0.0
 11
6.05
 21
0.1157154089
 31
0.0
  0
SPLINE
  5
16F
330
1F
100
AcDbEntity
  8
SK3
100
AcDbSpline
210
0.0
220
0.0
230
1.0
 70
     8
 71
     3
 72
    10
 73
     6
 74
     0
 42
0.0000000425849469
 43
0.0000000001
 12
1.0
 22
0.0
 32
0.0
 13
1.0
 23
0.0
 33
0.0
 40
0.0
 40
0.0
 40
0.0
 40
0.0
 40
0.5
 40
0.5
 40
1.0
 40
1.0
 40
1.0
 40
1.0
 10
6.049999999999993
 20
0.1157154088905531
 30
0.0
 10
6.102924541456132
 20
0.115715408890556
 30
0.0
 10
6.155875825261711
 20
0.1246490978776815
 30
0.0
 10
6.228909678261445
 20
0.1538446717603275
 30
0.0
 10
6.249999999999996
 20
0.1740820262839154
 30
0.0
 10
6.249999999999996
 20
0.1944001264833629
 30
0.0
  0
SPLINE
  5
170
330
1F
100
AcDbEntity
  8
SK3
100
AcDbSpline
210
0.0
220
0.0
230
1.0
 70
     8
 71
     3
 72
     8
 73
     4
 74
     0
 42
0.0000000019737912
 43
0.0000000001
 12
1.0
 22
0.0
 32
0.0
 13
1.0
 23
0.0
 33
0.0
 40
0.0
 40
0.0
 40
0.0
 40
0.0
 40
1.0
 40
1.0
 40
1.0
 40
1.0
 10
-10.80872210923198
 20
3.761878396669974
 30
0.0
 10
-9.134028660772339
 20
3.979672719924109
 30
0.0
 10
-7.459326349882997
 20
4.197408878686272
 30
0.0
 10
-5.784618350147072
 20
4.415107681237523
 30
0.0
  0
SPLINE
  5
171
330
1F
100
AcDbEntity
  8
SK3
100
AcDbSpline
210
0.0
220
0.0
230
1.0
 70
     8
 71
     3
 72
     8
 73
     4
 74
     0
 42
0.0000000019737912
 43
0.0000000001
 12
1.0
 22
0.0
 32
0.0
 13
1.0
 23
0.0
 33
0.0
 40
0.0
 40
0.0
 40
0.0
 40
0.0
 40
1.0
 40
1.0
 40
1.0
 40
1.0
 10
-10.80872210923198
 20
3.589670852105685
 30
0.0
 10
-9.134028660789491
 20
3.807465175357589
 30
0.0
 10
-7.459326349917307
 20
4.025201334117522
 30
0.0
 10
-5.784618350198537
 20
4.242900136666543
 30
0.0
  0
LINE
  5
172
330
1F
100
AcDbEntity
  8
SK3
100
AcDbLine
 10
-10.8087221092
 20
3.1474746913
 30
0.0
 11
-10.8087221092
 21
3.3196822358
 31
0.0
  0
LINE
  5
173
330
1F
100
AcDbEntity
  8
SK3
100
AcDbLine
 10
-10.8087221092
 20
3.3196822358
 30
0.0
 11
-10.8087221092
 21
3.7618783967
 31
0.0
  0
LINE
  5
174
330
1F
100
AcDbEntity
  8
SK3
100
AcDbLine
 10
6.25
 20
3.1474746913
 30
0.0
 11
-10.8087221092
 21
3.1474746913
 31
0.0
  0
LINE
  5
175
330
1F
100
AcDbEntity
  8
SK3
100
AcDbLine
 10
6.25
 20
3.3196822358
 30
0.0
 11
-10.8087221092
 21
3.3196822358
 31
0.0
  0
LINE
  5
176
330
1F
100
AcDbEntity
  8
SK3
100
AcDbLine
 10
-11.75
 20
2.7795835229
 30
0.0
 11
-11.25
 21
2.4898545132
 31
0.0
  0
LINE
  5
177
330
1F
100
AcDbEntity
  8
SK3
100
AcDbLine
 10
-11.25
 20
2.4898545132
 30
0.0
 11
-3.15
 21
2.4898545132
 31
0.0
  0
SPLINE
  5
178
330
1F
100
AcDbEntity
  8
SK3
100
AcDbSpline
210
0.0
220
0.0
230
1.0
 70
     8
 71
     3
 72
    10
 73
     6
 74
     0
 42
0.0000000154849241
 43
0.0000000001
 12
1.0
 22
0.0
 32
0.0
 13
1.0
 23
0.0
 33
0.0
 40
0.0
 40
0.0
 40
0.0
 40
0.0
 40
0.5
 40
0.5
 40
1.0
 40
1.0
 40
1.0
 40
1.0
 10
-3.150000000000007
 20
2.489854513185267
 30
0.0
 10
-3.044003418051294
 20
2.489854513185265
 30
0.0
 10
-2.940388772815684
 20
2.446006084765071
 30
0.0
 10
-2.792971672204484
 20
2.297426305814037
 30
0.0
 10
-2.750000000000002
 20
2.192580844545492
 30
0.0
 10
-2.750000000000009
 20
2.087911735831956
 30
0.0
  0
LINE
  5
179
330
1F
100
AcDbEntity
  8
SK3
100
AcDbLine
 10
6.25
 20
3.5000000998
 30
0.0
 11
-2.2793610546
 21
2.0000000998
 31
0.0
  0
LINE
  5
17A
330
1F
100
AcDbEntity
  8
SK3
100
AcDbLine
 10
-2.2793610546
 20
2.0000000998
 30
0.0
 11
-2.75
 21
2.0000000998
 31
0.0
  0
ARC
  5
17B
330
1F
100
AcDbEntity
  8
SK1
  6
Continuous
100
AcDbCircle
 10
5.9966226128
 20
4.2546841161
 30
0.0
 40
0.253382824166854
100
AcDbArc
 50
0.3753419106
 51
59.5587987151
  0
ARC
  5
17C
330
1F
100
AcDbEntity
  8
SK1
  6
Continuous
100
AcDbCircle
 10
-11.5497677337
 20
3.6721050511
 30
0.0
 40
0.200232322925031
100
AcDbArc
 50
98.0577765292
 51
180.0430870487
  0
SPLINE
  5
17D
330
1F
100
AcDbEntity
  8
SK1
  6
Continuous
100
AcDbSpline
210
0.0
220
0.0
230
1.0
 70
     8
 71
     3
 72
    11
 73
     7
 74
     0
 42
0.0000000007429911
 43
0.0000000001
 12
1.0
 22
0.0
 32
0.0
 13
1.0
 23
0.0
 33
0.0
 40
0.0
 40
0.0
 40
0.0
 40
0.0
 40
0.5056987538646287
 40
0.5056987538646287
 40
0.5056987538646287
 40
1.0
 40
1.0
 40
1.0
 40
1.0
 10
-11.57783462019202
 20
3.870360525262468
 30
0.0
 10
-9.331235501899718
 20
4.186632522399198
 30
0.0
 10
-7.084619057020419
 20
4.502781446549414
 30
0.0
 10
-4.837993842395378
 20
4.818868016171701
 30
0.0
 10
-2.642003373511011
 20
5.127830583543557
 30
0.0
 10
-0.4460042188452382
 20
5.436731417403323
 30
0.0
 10
1.749999999999995
 20
5.745596239424093
 30
0.0
  0
ARC
  5
17E
330
1F
100
AcDbEntity
  8
SK1
  6
Continuous
100
AcDbCircle
 10
1.8500558282
 20
4.8447239872
 30
0.0
 40
0.1000558429346832
100
AcDbArc
 50
179.9689462448
 51
269.9680306264
  0
LINE
  5
17F
330
1F
100
AcDbEntity
  8
SK1
  6
Continuous
100
AcDbLine
 10
1.85
 20
4.7446681598
 30
0.0
 11
3.65
 21
4.7446681598
 31
0.0
  0
ARC
  5
180
330
1F
100
AcDbEntity
  8
SK1
  6
Continuous
100
AcDbCircle
 10
3.6499459361
 20
4.8447222248
 30
0.0
 40
0.1000540795545797
100
AcDbArc
 50
270.030959584
 51
0.0320635443
  0
LINE
  5
181
330
1F
100
AcDbEntity
  8
SK1
  6
Continuous
100
AcDbLine
 10
3.75
 20
5.8456715753
 30
0.0
 11
6.125
 21
4.473138006
 31
0.0
  0
LINE
  5
182
330
1F
100
AcDbEntity
  8
SK3
100
AcDbLine
 10
-2.75
 20
-0.6101457166
 30
0.0
 11
-2.75
 21
-0.5911361968
 31
0.0
  0
ARC
  5
183
330
1F
100
AcDbEntity
  8
SK3
100
AcDbCircle
 10
-2.5545215443
 20
-0.8906119093
 30
0.0
 40
0.1955570298523108
100
AcDbArc
 50
88.6751256523
 51
178.3757410941
  0
ARC
  5
184
330
1F
100
AcDbEntity
  8
SK3
100
AcDbCircle
 10
-2.5545215443
 20
-1.0628194538
 30
0.0
 40
0.1955570298523366
100
AcDbArc
 50
88.6751256523
 51
178.3757410941
  0
ARC
  5
185
330
1F
100
AcDbEntity
  8
SK3
100
AcDbCircle
 10
-8.9896096881
 20
-2.3168551913
 30
0.0
 40
0.2604886358849084
100
AcDbArc
 50
156.7961372397
 51
178.4257027528
  0
LINE
  5
186
330
1F
100
AcDbEntity
  8
SK3
100
AcDbLine
 10
-9.2290270801
 20
-2.386429204
 30
0.0
 11
-9.25
 21
-2.3096987315
 31
0.0
  0
LINE
  5
187
330
1F
100
AcDbEntity
  8
SK3
100
AcDbLine
 10
-9.25
 20
-2.3958025038
 30
0.0
 11
-9.25
 21
-2.3096987315
 31
0.0
  0
LINE
  5
188
330
1F
100
AcDbEntity
  8
SK3
100
AcDbLine
 10
-9.25
 20
-2.3096987315
 30
0.0
 11
-9.25
 21
-2.2235949592
 31
0.0
  0
LINE
  5
189
330
1F
100
AcDbEntity
  8
SK3
100
AcDbLine
 10
-9.2290270801
 20
-2.2142216594
 30
0.0
 11
-9.25
 21
-2.2235949592
 31
0.0
  0
LINE
  5
18A
330
1F
100
AcDbEntity
  8
SK3
100
AcDbLine
 10
-9.25
 20
-2.3958025038
 30
0.0
 11
-9.25
 21
-3.9645735292
 31
0.0
  0
LINE
  5
18B
330
1F
100
AcDbEntity
  8
SK3
100
AcDbLine
 10
-9.2290270801
 20
-2.2142216594
 30
0.0
 11
-3.15
 21
-2.2142216594
 31
0.0
  0
ARC
  5
18C
330
1F
100
AcDbEntity
  8
SK3
100
AcDbCircle
 10
-3.1360351185
 20
-1.8281586269
 30
0.0
 40
0.3863155225684397
100
AcDbArc
 50
267.9283691969
 51
357.816842819
  0
LINE
  5
18D
330
1F
100
AcDbEntity
  8
SK3
100
AcDbLine
 10
-2.55
 20
-0.6951071585
 30
0.0
 11
6.05
 21
-0.6951071585
 31
0.0
  0
ARC
  5
18E
330
1F
100
AcDbEntity
  8
SK3
100
AcDbCircle
 10
6.0545234114
 20
-0.8906099435
 30
0.0
 40
0.195555107814043
100
AcDbArc
 50
1.6236986969
 51
91.3254345677
  0
LINE
  5
18F
330
1F
100
AcDbEntity
  8
SK3
100
AcDbLine
 10
-9.2290270801
 20
-2.386429204
 30
0.0
 11
-9.25
 21
-2.3958025038
 31
0.0
  0
LINE
  5
190
330
1F
100
AcDbEntity
  8
SK3
100
AcDbLine
 10
-9.2290270801
 20
-2.386429204
 30
0.0
 11
-3.15
 21
-2.386429204
 31
0.0
  0
ARC
  5
191
330
1F
100
AcDbEntity
  8
SK3
100
AcDbCircle
 10
-3.1360351185
 20
-2.0003661715
 30
0.0
 40
0.3863155225684399
100
AcDbArc
 50
267.9283691969
 51
357.816842819
  0
LINE
  5
192
330
1F
100
AcDbEntity
  8
SK3
100
AcDbLine
 10
-2.55
 20
-0.8673147031
 30
0.0
 11
6.05
 21
-0.8673147031
 31
0.0
  0
ARC
  5
193
330
1F
100
AcDbEntity
  8
SK3
100
AcDbCircle
 10
6.0545234114
 20
-1.0628174881
 30
0.0
 40
0.1955551078140442
100
AcDbArc
 50
1.6236986969
 51
91.3254345677
  0
LINE
  5
194
330
1F
100
AcDbEntity
  8
SK3
100
AcDbLine
 10
-10.8087221092
 20
-1.3146826657
 30
0.0
 11
-5.7846147095
 21
-1.5851914867
 31
0.0
  0
LINE
  5
195
330
1F
100
AcDbEntity
  8
SK3
100
AcDbLine
 10
-10.8087221092
 20
-1.7304284554
 30
0.0
 11
-5.7846147095
 21
-2.0009372763
 31
0.0
  0
LINE
  5
196
330
1F
100
AcDbEntity
  8
SK3
100
AcDbLine
 10
-10.8087221092
 20
-1.5472648083
 30
0.0
 11
-10.8087221092
 21
-1.1315190187
 31
0.0
  0
LINE
  5
197
330
1F
100
AcDbEntity
  8
SK3
100
AcDbLine
 10
6.25
 20
-1.5472648083
 30
0.0
 11
-10.8087221092
 21
-1.5472648083
 31
0.0
  0
LINE
  5
198
330
1F
100
AcDbEntity
  8
SK3
100
AcDbLine
 10
-10.8087221092
 20
-1.5472648083
 30
0.0
 11
-10.8087221092
 21
-1.7304284554
 31
0.0
  0
LINE
  5
199
330
1F
100
AcDbEntity
  8
SK3
100
AcDbLine
 10
6.25
 20
-1.1315190187
 30
0.0
 11
-10.8087221092
 21
-1.1315190187
 31
0.0
  0
LINE
  5
19A
330
1F
100
AcDbEntity
  8
SK3
100
AcDbLine
 10
-2.55
 20
-0.8749999002
 30
0.0
 11
6.05
 21
-0.8749999002
 31
0.0
  0
ARC
  5
19B
330
1F
100
AcDbEntity
  8
SK3
100
AcDbCircle
 10
6.05
 20
-1.0749999002
 30
0.0
 40
0.2000000000000001
100
AcDbArc
 50
0.0
 51
90.0
  0
ARC
  5
19C
330
1F
100
AcDbEntity
  8
SK3
100
AcDbCircle
 10
-2.55
 20
-1.0749999002
 30
0.0
 40
0.1999999999999988
100
AcDbArc
 50
90.0
 51
180.0
  0
ARC
  5
19D
330
1F
100
AcDbEntity
  8
SK3
100
AcDbCircle
 10
-2.55
 20
1.0750000998
 30
0.0
 40
0.2000000000000001
100
AcDbArc
 50
180.0
 51
270.0
  0
ARC
  5
19E
330
1F
100
AcDbEntity
  8
SK3
100
AcDbCircle
 10
6.05
 20
1.0750000998
 30
0.0
 40
0.2000000000000023
100
AcDbArc
 50
270.0
 51
0.0
  0
LINE
  5
19F
330
1F
100
AcDbEntity
  8
SK3
100
AcDbLine
 10
6.05
 20
0.8750000998
 30
0.0
 11
-2.55
 21
0.8750000998
 31
0.0
  0
LINE
  5
1A0
330
1F
100
AcDbEntity
  8
SK1
  6
Continuous
100
AcDbLine
 10
0.0
 20
5.4994530011
 30
0.0
 11
0.0
 21
-5.4994528016
 31
0.0
  0
LINE
  5
1A2
330
1F
100
AcDbEntity
  8
SK4
  6
Continuous
100
AcDbLine
 10
6.25
 20
0.0000000998
 30
0.0
 11
-11.75
 21
0.0000000998
 31
0.0
  0
DIMENSION
  5
1B7
330
1F
100
AcDbEntity
  8
SK2
  6
Continuous
 62
   136
100
AcDbDimension
  2
DMBLK27
 10
16.1822159171
 20
0.8750000998
 30
0.0
 11
16.1822159171
 21
5.8464400499
 31
0.0
 70
   161
  1
\A1;ø <>
 71
     5
 42
-1.0
  3
DIN
100
AcDbAlignedDimension
 13
6.05
 23
0.8750000998
 33
0.0
 14
6.05
 24
-0.8749999002
 34
0.0
  0
DIMENSION
  5
1C2
330
1F
100
AcDbEntity
  8
SK2
  6
Continuous
 62
   136
100
AcDbDimension
  2
DMBLK28
 10
6.25
 20
-14.4244399687
 30
0.0
 11
10.3356000036
 21
-14.4244399687
 31
0.0
 70
   160
  1
\A1;<>
 71
     5
 42
-1.0
  3
DIN
100
AcDbAlignedDimension
 13
0.0
 23
-5.4994528016
 33
0.0
 14
6.25
 24
-3.8462451434
 34
0.0
100
AcDbRotatedDimension
1001
ACAD
1000
DSTYLE
1002
{
1070
   271
1070
     1
1070
   272
1070
     1
1070
     0
1002
}
  0
DIMENSION
  5
1CC
330
1F
100
AcDbEntity
  8
SK2
  6
Continuous
 62
   136
100
AcDbDimension
  2
DMBLK29
 10
-16.448572278
 20
5.4994530011
 30
0.0
 11
-16.448572278
 21
0.0000001829
 31
0.0
 70
   161
  1
\A1;ø <>
 71
     5
 42
-1.0
  3
DIN
100
AcDbAlignedDimension
 13
0.0
 23
5.4994530011
 33
0.0
 14
0.0
 24
-5.4994528016
 34
0.0
  0
DIMENSION
  5
1D7
330
1F
100
AcDbEntity
  8
SK2
  6
Continuous
 62
   136
100
AcDbDimension
  2
DMBLK30
 10
6.25
 20
10.1486064018
 30
0.0
 11
-2.7500003874
 21
10.1486064018
 31
0.0
 70
   160
  1
\A1;<>
 71
     5
 42
-1.0
  3
DIN
100
AcDbAlignedDimension
 13
-11.75
 23
3.2137587191
 33
0.0
 14
6.25
 24
3.846245343
 34
0.0
100
AcDbRotatedDimension
  0
ENDSEC
  0
SECTION
  2
OBJECTS
  0
DICTIONARY
  5
C
330
0
100
AcDbDictionary
281
     1
  3
ACAD_GROUP
350
D
  3
ACAD_LAYOUT
350
1A
  3
ACAD_MATERIAL
350
3B
  3
ACAD_MLEADERSTYLE
350
1E3
  3
ACAD_MLINESTYLE
350
17
  3
ACAD_PLOTSETTINGS
350
19
  3
ACAD_PLOTSTYLENAME
350
E
  3
ACAD_VISUALSTYLE
350
2A
  3
AcDbVariableDictionary
350
1E1
  0
DICTIONARY
  5
D
102
{ACAD_REACTORS
330
C
102
}
330
C
100
AcDbDictionary
281
     1
  0
DICTIONARY
  5
1A
102
{ACAD_REACTORS
330
C
102
}
330
C
100
AcDbDictionary
281
     1
  3
Layout1
350
1E
  3
Model
350
22
  0
DICTIONARY
  5
3B
102
{ACAD_REACTORS
330
C
102
}
330
C
100
AcDbDictionary
281
     1
  3
ByBlock
350
3D
  3
ByLayer
350
3C
  3
Global
350
3E
  0
DICTIONARY
  5
1E3
102
{ACAD_REACTORS
330
C
102
}
330
C
100
AcDbDictionary
281
     1
  0
DICTIONARY
  5
17
102
{ACAD_REACTORS
330
C
102
}
330
C
100
AcDbDictionary
281
     1
  3
Standard
350
18
  0
DICTIONARY
  5
19
102
{ACAD_REACTORS
330
C
102
}
330
C
100
AcDbDictionary
281
     1
  0
ACDBDICTIONARYWDFLT
  5
E
102
{ACAD_REACTORS
330
C
102
}
330
C
100
AcDbDictionary
281
     1
  3
Normal
350
F
100
AcDbDictionaryWithDefault
340
F
  0
DICTIONARY
  5
2A
102
{ACAD_REACTORS
330
C
102
}
330
C
100
AcDbDictionary
281
     1
  3
2dWireframe
350
2F
  3
3D Hidden
350
31
  3
3dWireframe
350
30
  3
Basic
350
32
  3
Brighten
350
36
  3
ColorChange
350
3A
  3
Conceptual
350
34
  3
Dim
350
35
  3
Facepattern
350
39
  3
Flat
350
2B
  3
FlatWithEdges
350
2C
  3
Gouraud
350
2D
  3
GouraudWithEdges
350
2E
  3
Linepattern
350
38
  3
Realistic
350
33
  3
Thicken
350
37
  0
DICTIONARY
  5
1E1
102
{ACAD_REACTORS
330
C
102
}
330
C
100
AcDbDictionary
281
     1
  3
DIMASSOC
350
1E6
  3
HIDETEXT
350
1E7
  3
PSOLHEIGHT
350
1E5
  3
PSOLWIDTH
350
1E4
  0
LAYOUT
  5
1E
102
{ACAD_REACTORS
330
1A
102
}
330
1A
100
AcDbPlotSettings
  1

  2
none_device
  4

  6

 40
0.0
 41
0.0
 42
0.0
 43
0.0
 44
0.0
 45
0.0
 46
0.0
 47
0.0
 48
0.0
 49
0.0
140
0.0
141
0.0
142
1.0
143
1.0
 70
   688
 72
     0
 73
     0
 74
     5
  7

 75
    16
147
1.0
148
0.0
149
0.0
100
AcDbLayout
  1
Layout1
 70
     1
 71
     1
 10
0.0
 20
0.0
 11
210.0
 21
297.0
 12
0.0
 22
0.0
 32
0.0
 14
0.0
 24
0.0
 34
0.0
 15
210.0
 25
297.0
 35
0.0
146
0.0
 13
0.0
 23
0.0
 33
0.0
 16
1.0
 26
0.0
 36
0.0
 17
0.0
 27
1.0
 37
0.0
 76
     0
330
1B
  0
LAYOUT
  5
22
102
{ACAD_REACTORS
330
1A
102
}
330
1A
100
AcDbPlotSettings
  1

  2
none_device
  4

  6

 40
0.0
 41
0.0
 42
0.0
 43
0.0
 44
0.0
 45
0.0
 46
0.0
 47
0.0
 48
0.0
 49
0.0
140
0.0
141
0.0
142
1.0
143
1.0
 70
  1712
 72
     0
 73
     0
 74
     0
  7

 75
     0
147
1.0
148
0.0
149
0.0
100
AcDbLayout
  1
Model
 70
     1
 71
     0
 10
0.0
 20
0.0
 11
210.0
 21
297.0
 12
0.0
 22
0.0
 32
0.0
 14
0.0
 24
0.0
 34
0.0
 15
210.0
 25
297.0
 35
0.0
146
0.0
 13
0.0
 23
0.0
 33
0.0
 16
1.0
 26
0.0
 36
0.0
 17
0.0
 27
1.0
 37
0.0
 76
     0
330
1F
331
29
  0
MATERIAL
  5
3D
102
{ACAD_REACTORS
330
3B
102
}
102
{ACAD_XDICTIONARY
360
20A
102
}
330
3B
100
AcDbMaterial
  1
ByBlock
  0
MATERIAL
  5
3C
102
{ACAD_REACTORS
330
3B
102
}
102
{ACAD_XDICTIONARY
360
208
102
}
330
3B
100
AcDbMaterial
  1
ByLayer
  0
MATERIAL
  5
3E
102
{ACAD_REACTORS
330
3B
102
}
102
{ACAD_XDICTIONARY
360
20C
102
}
330
3B
100
AcDbMaterial
  1
Global
  0
MLINESTYLE
  5
18
102
{ACAD_REACTORS
330
17
102
}
330
17
100
AcDbMlineStyle
  2
Standard
 70
     0
  3

 62
   256
 51
90.0
 52
90.0
 71
     2
 49
0.5
 62
   256
  6
BYLAYER
 49
-0.5
 62
   256
  6
BYLAYER
  0
ACDBPLACEHOLDER
  5
F
102
{ACAD_REACTORS
330
E
102
}
330
E
  0
VISUALSTYLE
  5
2F
102
{ACAD_REACTORS
330
2A
102
}
102
{ACAD_XDICTIONARY
360
1F0
102
}
330
2A
100
AcDbVisualStyle
  2
2dWireframe
 70
     4
 71
     0
 72
     2
 73
     0
 90
        0
 40
-0.6
 41
-30.0
 62
     5
 63
     7
 74
     1
 91
        4
 64
     7
 65
   257
 75
     1
175
     1
 42
1.0
 92
        0
 66
   257
 43
1.0
 76
     1
 77
     6
 78
     2
 67
     7
 79
     5
170
     0
171
     0
290
     0
174
     0
 93
        1
 44
0.0
173
     0
291
     0
 45
0.0
1001
ACAD
1000
AcDbSavedByObjectVersion
1070
     0
  0
VISUALSTYLE
  5
31
102
{ACAD_REACTORS
330
2A
102
}
102
{ACAD_XDICTIONARY
360
1F4
102
}
330
2A
100
AcDbVisualStyle
  2
3D Hidden
 70
     6
 71
     1
 72
     2
 73
     2
 90
        0
 40
-0.6
 41
-30.0
 62
     5
 63
     7
 74
     2
 91
        2
 64
     7
 65
   257
 75
     2
175
     1
 42
40.0
 92
        0
 66
   257
 43
1.0
 76
     1
 77
     6
 78
     2
 67
     7
 79
     3
170
     0
171
     0
290
     0
174
     0
 93
        1
 44
0.0
173
     0
291
     0
 45
0.0
1001
ACAD
1000
AcDbSavedByObjectVersion
1070
     0
  0
VISUALSTYLE
  5
30
102
{ACAD_REACTORS
330
2A
102
}
102
{ACAD_XDICTIONARY
360
1F2
102
}
330
2A
100
AcDbVisualStyle
  2
3dWireframe
 70
     5
 71
     0
 72
     2
 73
     0
 90
        0
 40
-0.6
 41
-30.0
 62
     5
 63
     7
 74
     1
 91
        4
 64
     7
 65
   257
 75
     1
175
     1
 42
1.0
 92
        0
 66
   257
 43
1.0
 76
     1
 77
     6
 78
     2
 67
     7
 79
     5
170
     0
171
     0
290
     0
174
     0
 93
        1
 44
0.0
173
     0
291
     0
 45
0.0
1001
ACAD
1000
AcDbSavedByObjectVersion
1070
     0
  0
VISUALSTYLE
  5
32
102
{ACAD_REACTORS
330
2A
102
}
102
{ACAD_XDICTIONARY
360
1F6
102
}
330
2A
100
AcDbVisualStyle
  2
Basic
 70
     7
 71
     1
 72
     0
 73
     1
 90
        0
 40
-0.6
 41
-30.0
 62
     5
 63
     7
 74
     0
 91
        4
 64
     7
 65
   257
 75
     1
175
     1
 42
1.0
 92
        8
 66
     7
 43
1.0
 76
     1
 77
     6
 78
     2
 67
     7
 79
     5
170
     0
171
     0
290
     0
174
     0
 93
        1
 44
0.0
173
     0
291
     1
 45
0.0
1001
ACAD
1000
AcDbSavedByObjectVersion
1070
     0
  0
VISUALSTYLE
  5
36
102
{ACAD_REACTORS
330
2A
102
}
102
{ACAD_XDICTIONARY
360
1FE
102
}
330
2A
100
AcDbVisualStyle
  2
Brighten
 70
    12
 71
     2
 72
     2
 73
     0
 90
        0
 40
-0.6
 41
-30.0
 62
     5
 63
     7
 74
     1
 91
        4
 64
     7
 65
   257
 75
     1
175
     1
 42
1.0
 92
        8
 66
     7
 43
1.0
 76
     1
 77
     6
 78
     2
 67
     7
 79
     5
170
     0
171
     0
290
     0
174
     0
 93
        1
 44
50.0
173
     0
291
     1
 45
0.0
1001
ACAD
1000
AcDbSavedByObjectVersion
1070
     0
  0
VISUALSTYLE
  5
3A
102
{ACAD_REACTORS
330
2A
102
}
102
{ACAD_XDICTIONARY
360
206
102
}
330
2A
100
AcDbVisualStyle
  2
ColorChange
 70
    16
 71
     2
 72
     2
 73
     3
 90
        0
 40
-0.6
 41
-30.0
 62
     5
 63
     8
 74
     1
 91
        4
 64
     7
 65
   257
 75
     1
175
     1
 42
1.0
 92
        8
 66
     8
 43
1.0
 76
     1
 77
     6
 78
     2
 67
     7
 79
     5
170
     0
171
     0
290
     0
174
     0
 93
        1
 44
0.0
173
     0
291
     1
 45
0.0
1001
ACAD
1000
AcDbSavedByObjectVersion
1070
     0
  0
VISUALSTYLE
  5
34
102
{ACAD_REACTORS
330
2A
102
}
102
{ACAD_XDICTIONARY
360
1FA
102
}
330
2A
100
AcDbVisualStyle
  2
Conceptual
 70
     9
 71
     3
 72
     2
 73
     0
 90
        0
 40
-0.6
 41
-30.0
 62
     5
 63
     7
 74
     2
 91
        2
 64
     7
 65
   257
 75
     1
175
     1
 42
40.0
 92
        8
 66
     7
 43
1.0
 76
     1
 77
     6
 78
     2
 67
     7
 79
     3
170
     0
171
     0
290
     0
174
     0
 93
        1
 44
0.0
173
     0
291
     0
 45
0.0
1001
ACAD
1000
AcDbSavedByObjectVersion
1070
     0
  0
VISUALSTYLE
  5
35
102
{ACAD_REACTORS
330
2A
102
}
102
{ACAD_XDICTIONARY
360
1FC
102
}
330
2A
100
AcDbVisualStyle
  2
Dim
 70
    11
 71
     2
 72
     2
 73
     0
 90
        0
 40
-0.6
 41
-30.0
 62
     5
 63
     7
 74
     1
 91
        4
 64
     7
 65
   257
 75
     1
175
     1
 42
1.0
 92
        8
 66
     7
 43
1.0
 76
     1
 77
     6
 78
     2
 67
     7
 79
     5
170
     0
171
     0
290
     0
174
     0
 93
        1
 44
-50.0
173
     0
291
     1
 45
0.0
1001
ACAD
1000
AcDbSavedByObjectVersion
1070
     0
  0
VISUALSTYLE
  5
39
102
{ACAD_REACTORS
330
2A
102
}
102
{ACAD_XDICTIONARY
360
204
102
}
330
2A
100
AcDbVisualStyle
  2
Facepattern
 70
    15
 71
     2
 72
     2
 73
     0
 90
        0
 40
-0.6
 41
-30.0
 62
     5
 63
     7
 74
     1
 91
        4
 64
     7
 65
   257
 75
     1
175
     1
 42
1.0
 92
        8
 66
     7
 43
1.0
 76
     1
 77
     6
 78
     2
 67
     7
 79
     5
170
     0
171
     0
290
     0
174
     0
 93
        1
 44
0.0
173
     0
291
     1
 45
0.0
1001
ACAD
1000
AcDbSavedByObjectVersion
1070
     0
  0
VISUALSTYLE
  5
2B
102
{ACAD_REACTORS
330
2A
102
}
102
{ACAD_XDICTIONARY
360
1E8
102
}
330
2A
100
AcDbVisualStyle
  2
Flat
 70
     0
 71
     2
 72
     1
 73
     1
 90
        2
 40
-0.6
 41
30.0
 62
     5
 63
     7
 74
     0
 91
        4
 64
     7
 65
   257
 75
     1
175
     1
 42
1.0
 92
        8
 66
     7
 43
1.0
 76
     1
 77
     6
 78
     2
 67
     7
 79
     5
170
     0
171
     0
290
     0
174
     0
 93
       13
 44
0.0
173
     0
291
     1
 45
0.0
1001
ACAD
1000
AcDbSavedByObjectVersion
1070
     0
  0
VISUALSTYLE
  5
2C
102
{ACAD_REACTORS
330
2A
102
}
102
{ACAD_XDICTIONARY
360
1EA
102
}
330
2A
100
AcDbVisualStyle
  2
FlatWithEdges
 70
     1
 71
     2
 72
     1
 73
     1
 90
        2
 40
-0.6
 41
30.0
 62
     5
 63
     7
 74
     1
 91
        4
 64
     7
 65
   257
 75
     1
175
     1
 42
1.0
 92
        0
 66
   257
 43
1.0
 76
     1
 77
     6
 78
     2
 67
     7
 79
     5
170
     0
171
     0
290
     0
174
     0
 93
       13
 44
0.0
173
     0
291
     1
 45
0.0
1001
ACAD
1000
AcDbSavedByObjectVersion
1070
     0
  0
VISUALSTYLE
  5
2D
102
{ACAD_REACTORS
330
2A
102
}
102
{ACAD_XDICTIONARY
360
1EC
102
}
330
2A
100
AcDbVisualStyle
  2
Gouraud
 70
     2
 71
     2
 72
     2
 73
     1
 90
        2
 40
-0.6
 41
30.0
 62
     5
 63
     7
 74
     0
 91
        4
 64
     7
 65
   257
 75
     1
175
     1
 42
1.0
 92
        0
 66
     7
 43
1.0
 76
     1
 77
     6
 78
     2
 67
     7
 79
     5
170
     0
171
     0
290
     0
174
     0
 93
       13
 44
0.0
173
     0
291
     1
 45
0.0
1001
ACAD
1000
AcDbSavedByObjectVersion
1070
     0
  0
VISUALSTYLE
  5
2E
102
{ACAD_REACTORS
330
2A
102
}
102
{ACAD_XDICTIONARY
360
1EE
102
}
330
2A
100
AcDbVisualStyle
  2
GouraudWithEdges
 70
     3
 71
     2
 72
     2
 73
     1
 90
        2
 40
-0.6
 41
30.0
 62
     5
 63
     7
 74
     1
 91
        4
 64
     7
 65
   257
 75
     1
175
     1
 42
1.0
 92
        0
 66
   257
 43
1.0
 76
     1
 77
     6
 78
     2
 67
     7
 79
     5
170
     0
171
     0
290
     0
174
     0
 93
       13
 44
0.0
173
     0
291
     1
 45
0.0
1001
ACAD
1000
AcDbSavedByObjectVersion
1070
     0
  0
VISUALSTYLE
  5
38
102
{ACAD_REACTORS
330
2A
102
}
102
{ACAD_XDICTIONARY
360
202
102
}
330
2A
100
AcDbVisualStyle
  2
Linepattern
 70
    14
 71
     2
 72
     2
 73
     0
 90
        0
 40
-0.6
 41
-30.0
 62
     5
 63
     7
 74
     1
 91
        4
 64
     7
 65
   257
 75
     7
175
     7
 42
1.0
 92
        8
 66
     7
 43
1.0
 76
     1
 77
     6
 78
     2
 67
     7
 79
     5
170
     0
171
     0
290
     0
174
     0
 93
        1
 44
0.0
173
     0
291
     1
 45
0.0
1001
ACAD
1000
AcDbSavedByObjectVersion
1070
     0
  0
VISUALSTYLE
  5
33
102
{ACAD_REACTORS
330
2A
102
}
102
{ACAD_XDICTIONARY
360
1F8
102
}
330
2A
100
AcDbVisualStyle
  2
Realistic
 70
     8
 71
     2
 72
     2
 73
     0
 90
        0
 40
-0.6
 41
-30.0
 62
     5
 63
     7
 74
     1
 91
        0
 64
     7
 65
   257
 75
     1
175
     1
 42
1.0
 92
        8
 66
     8
 43
1.0
 76
     1
 77
     6
 78
     2
 67
     7
 79
     5
170
     0
171
     0
290
     0
174
     0
 93
       13
 44
0.0
173
     0
291
     0
 45
0.0
1001
ACAD
1000
AcDbSavedByObjectVersion
1070
     0
  0
VISUALSTYLE
  5
37
102
{ACAD_REACTORS
330
2A
102
}
102
{ACAD_XDICTIONARY
360
200
102
}
330
2A
100
AcDbVisualStyle
  2
Thicken
 70
    13
 71
     2
 72
     2
 73
     0
 90
        0
 40
-0.6
 41
-30.0
 62
     5
 63
     7
 74
     1
 91
        4
 64
     7
 65
   257
 75
     1
175
     1
 42
1.0
 92
       12
 66
     7
 43
1.0
 76
     1
 77
     6
 78
     2
 67
     7
 79
     5
170
     0
171
     0
290
     0
174
     0
 93
        1
 44
0.0
173
     0
291
     1
 45
0.0
1001
ACAD
1000
AcDbSavedByObjectVersion
1070
     0
  0
DICTIONARYVAR
  5
1E6
102
{ACAD_REACTORS
330
1E1
102
}
330
1E1
100
DictionaryVariables
280
     0
  1
2
  0
DICTIONARYVAR
  5
1E7
102
{ACAD_REACTORS
330
1E1
102
}
330
1E1
100
DictionaryVariables
280
     0
  1
1
  0
DICTIONARYVAR
  5
1E5
102
{ACAD_REACTORS
330
1E1
102
}
330
1E1
100
DictionaryVariables
280
     0
  1
80.000000
  0
DICTIONARYVAR
  5
1E4
102
{ACAD_REACTORS
330
1E1
102
}
330
1E1
100
DictionaryVariables
280
     0
  1
5.000000
  0
DICTIONARY
  5
20A
330
3D
100
AcDbDictionary
280
     1
281
     1
  3
ACAD_XREC_ROUNDTRIP
360
20B
  0
DICTIONARY
  5
208
330
3C
100
AcDbDictionary
280
     1
281
     1
  3
ACAD_XREC_ROUNDTRIP
360
209
  0
DICTIONARY
  5
20C
330
3E
100
AcDbDictionary
280
     1
281
     1
  3
ACAD_XREC_ROUNDTRIP
360
20D
  0
DICTIONARY
  5
1F0
330
2F
100
AcDbDictionary
280
     1
281
     1
  3
ACAD_XREC_ROUNDTRIP
360
1F1
  0
DICTIONARY
  5
1F4
330
31
100
AcDbDictionary
280
     1
281
     1
  3
ACAD_XREC_ROUNDTRIP
360
1F5
  0
DICTIONARY
  5
1F2
330
30
100
AcDbDictionary
280
     1
281
     1
  3
ACAD_XREC_ROUNDTRIP
360
1F3
  0
DICTIONARY
  5
1F6
330
32
100
AcDbDictionary
280
     1
281
     1
  3
ACAD_XREC_ROUNDTRIP
360
1F7
  0
DICTIONARY
  5
1FE
330
36
100
AcDbDictionary
280
     1
281
     1
  3
ACAD_XREC_ROUNDTRIP
360
1FF
  0
DICTIONARY
  5
206
330
3A
100
AcDbDictionary
280
     1
281
     1
  3
ACAD_XREC_ROUNDTRIP
360
207
  0
DICTIONARY
  5
1FA
330
34
100
AcDbDictionary
280
     1
281
     1
  3
ACAD_XREC_ROUNDTRIP
360
1FB
  0
DICTIONARY
  5
1FC
330
35
100
AcDbDictionary
280
     1
281
     1
  3
ACAD_XREC_ROUNDTRIP
360
1FD
  0
DICTIONARY
  5
204
330
39
100
AcDbDictionary
280
     1
281
     1
  3
ACAD_XREC_ROUNDTRIP
360
205
  0
DICTIONARY
  5
1E8
330
2B
100
AcDbDictionary
280
     1
281
     1
  3
ACAD_XREC_ROUNDTRIP
360
1E9
  0
DICTIONARY
  5
1EA
330
2C
100
AcDbDictionary
280
     1
281
     1
  3
ACAD_XREC_ROUNDTRIP
360
1EB
  0
DICTIONARY
  5
1EC
330
2D
100
AcDbDictionary
280
     1
281
     1
  3
ACAD_XREC_ROUNDTRIP
360
1ED
  0
DICTIONARY
  5
1EE
330
2E
100
AcDbDictionary
280
     1
281
     1
  3
ACAD_XREC_ROUNDTRIP
360
1EF
  0
DICTIONARY
  5
202
330
38
100
AcDbDictionary
280
     1
281
     1
  3
ACAD_XREC_ROUNDTRIP
360
203
  0
DICTIONARY
  5
1F8
330
33
100
AcDbDictionary
280
     1
281
     1
  3
ACAD_XREC_ROUNDTRIP
360
1F9
  0
DICTIONARY
  5
200
330
37
100
AcDbDictionary
280
     1
281
     1
  3
ACAD_XREC_ROUNDTRIP
360
201
  0
XRECORD
  5
20B
102
{ACAD_REACTORS
330
20A
102
}
330
20A
100
AcDbXrecord
280
     1
102
MATERIAL
148
0.0
149
0.0
149
0.0
 93
        0
 94
      127
282
     0
 72
     1
 77
     1
171
     1
175
     1
179
     1
273
     0
  0
XRECORD
  5
209
102
{ACAD_REACTORS
330
208
102
}
330
208
100
AcDbXrecord
280
     1
102
MATERIAL
148
0.0
149
0.0
149
0.0
 93
        0
 94
      127
282
     0
 72
     1
 77
     1
171
     1
175
     1
179
     1
273
     0
  0
XRECORD
  5
20D
102
{ACAD_REACTORS
330
20C
102
}
330
20C
100
AcDbXrecord
280
     1
102
MATERIAL
148
0.0
149
0.0
149
0.0
 93
        0
 94
      127
282
     0
 72
     1
 77
     1
171
     1
175
     1
179
     1
273
     0
  0
XRECORD
  5
1F1
102
{ACAD_REACTORS
330
1F0
102
}
330
1F0
100
AcDbXrecord
280
     1
102
RTVSPropertyOp0
 70
     1
102
RTVSPropertyOp1
 70
     1
102
RTVSPropertyOp2
 70
     1
102
RTVSPropertyOp3
 70
     1
102
RTVSPropertyOp4
 70
     1
102
RTVSPropertyOp5
 70
     1
102
RTVSPropertyOp6
 70
     1
102
RTVSPropertyOp7
 70
     1
102
RTVSPropertyOp8
 70
     1
102
RTVSPropertyOp9
 70
     1
102
RTVSPropertyOp10
 70
     1
102
RTVSPropertyOp11
 70
     1
102
RTVSPropertyOp12
 70
     1
102
RTVSPropertyOp13
 70
     1
102
RTVSPropertyOp14
 70
     1
102
RTVSPropertyOp15
 70
     1
102
RTVSPropertyOp16
 70
     1
102
RTVSPropertyOp17
 70
     1
102
RTVSPropertyOp18
 70
     1
102
RTVSPropertyOp19
 70
     1
102
RTVSPropertyOp20
 70
     1
102
RTVSPropertyOp21
 70
     1
102
RTVSPropertyOp22
 70
     1
102
RTVSPropertyOp23
 70
     1
102
RTVSPropertyOp24
 70
     1
102
RTVSPropertyOp25
 70
     1
102
RTVSPropertyOp26
 70
     1
102
RTVSPropertyOp27
 70
     1
102
RTVSPropertyOp28
 70
     1
102
RTVSPropertyOp29
 70
     1
102
RTVSPropertyOp30
 70
     1
102
RTVSPropertyOp31
 70
     1
102
RTVSPropertyOp32
 70
     1
  0
XRECORD
  5
1F5
102
{ACAD_REACTORS
330
1F4
102
}
330
1F4
100
AcDbXrecord
280
     1
102
RTVSPropertyOp0
 70
     1
102
RTVSPropertyOp1
 70
     1
102
RTVSPropertyOp2
 70
     1
102
RTVSPropertyOp3
 70
     1
102
RTVSPropertyOp4
 70
     1
102
RTVSPropertyOp5
 70
     1
102
RTVSPropertyOp6
 70
     1
102
RTVSPropertyOp7
 70
     1
102
RTVSPropertyOp8
 70
     1
102
RTVSPropertyOp9
 70
     1
102
RTVSPropertyOp10
 70
     1
102
RTVSPropertyOp11
 70
     1
102
RTVSPropertyOp12
 70
     1
102
RTVSPropertyOp13
 70
     1
102
RTVSPropertyOp14
 70
     1
102
RTVSPropertyOp15
 70
     1
102
RTVSPropertyOp16
 70
     1
102
RTVSPropertyOp17
 70
     1
102
RTVSPropertyOp18
 70
     1
102
RTVSPropertyOp19
 70
     1
102
RTVSPropertyOp20
 70
     1
102
RTVSPropertyOp21
 70
     1
102
RTVSPropertyOp22
 70
     1
102
RTVSPropertyOp23
 70
     1
102
RTVSPropertyOp24
 70
     1
102
RTVSPropertyOp25
 70
     1
102
RTVSPropertyOp26
 70
     1
102
RTVSPropertyOp27
 70
     1
102
RTVSPropertyOp28
 70
     1
102
RTVSPropertyOp29
 70
     1
102
RTVSPropertyOp30
 70
     1
102
RTVSPropertyOp31
 70
     1
102
RTVSPropertyOp32
 70
     1
  0
XRECORD
  5
1F3
102
{ACAD_REACTORS
330
1F2
102
}
330
1F2
100
AcDbXrecord
280
     1
102
RTVSPropertyOp0
 70
     1
102
RTVSPropertyOp1
 70
     1
102
RTVSPropertyOp2
 70
     1
102
RTVSPropertyOp3
 70
     1
102
RTVSPropertyOp4
 70
     1
102
RTVSPropertyOp5
 70
     1
102
RTVSPropertyOp6
 70
     1
102
RTVSPropertyOp7
 70
     1
102
RTVSPropertyOp8
 70
     1
102
RTVSPropertyOp9
 70
     1
102
RTVSPropertyOp10
 70
     1
102
RTVSPropertyOp11
 70
     1
102
RTVSPropertyOp12
 70
     1
102
RTVSPropertyOp13
 70
     1
102
RTVSPropertyOp14
 70
     1
102
RTVSPropertyOp15
 70
     1
102
RTVSPropertyOp16
 70
     1
102
RTVSPropertyOp17
 70
     1
102
RTVSPropertyOp18
 70
     1
102
RTVSPropertyOp19
 70
     1
102
RTVSPropertyOp20
 70
     1
102
RTVSPropertyOp21
 70
     1
102
RTVSPropertyOp22
 70
     1
102
RTVSPropertyOp23
 70
     1
102
RTVSPropertyOp24
 70
     1
102
RTVSPropertyOp25
 70
     1
102
RTVSPropertyOp26
 70
     1
102
RTVSPropertyOp27
 70
     1
102
RTVSPropertyOp28
 70
     1
102
RTVSPropertyOp29
 70
     1
102
RTVSPropertyOp30
 70
     1
102
RTVSPropertyOp31
 70
     1
102
RTVSPropertyOp32
 70
     1
  0
XRECORD
  5
1F7
102
{ACAD_REACTORS
330
1F6
102
}
330
1F6
100
AcDbXrecord
280
     1
102
RTVSPropertyOp0
 70
     1
102
RTVSPropertyOp1
 70
     1
102
RTVSPropertyOp2
 70
     1
102
RTVSPropertyOp3
 70
     1
102
RTVSPropertyOp4
 70
     1
102
RTVSPropertyOp5
 70
     1
102
RTVSPropertyOp6
 70
     1
102
RTVSPropertyOp7
 70
     1
102
RTVSPropertyOp8
 70
     1
102
RTVSPropertyOp9
 70
     1
102
RTVSPropertyOp10
 70
     1
102
RTVSPropertyOp11
 70
     1
102
RTVSPropertyOp12
 70
     1
102
RTVSPropertyOp13
 70
     1
102
RTVSPropertyOp14
 70
     1
102
RTVSPropertyOp15
 70
     1
102
RTVSPropertyOp16
 70
     1
102
RTVSPropertyOp17
 70
     1
102
RTVSPropertyOp18
 70
     1
102
RTVSPropertyOp19
 70
     1
102
RTVSPropertyOp20
 70
     1
102
RTVSPropertyOp21
 70
     1
102
RTVSPropertyOp22
 70
     1
102
RTVSPropertyOp23
 70
     1
102
RTVSPropertyOp24
 70
     1
102
RTVSPropertyOp25
 70
     1
102
RTVSPropertyOp26
 70
     1
102
RTVSPropertyOp27
 70
     1
102
RTVSPropertyOp28
 70
     1
102
RTVSPropertyOp29
 70
     1
102
RTVSPropertyOp30
 70
     1
102
RTVSPropertyOp31
 70
     1
102
RTVSPropertyOp32
 70
     1
  0
XRECORD
  5
1FF
102
{ACAD_REACTORS
330
1FE
102
}
330
1FE
100
AcDbXrecord
280
     1
102
RTVSPropertyOp0
 70
     1
102
RTVSPropertyOp1
 70
     1
102
RTVSPropertyOp2
 70
     1
102
RTVSPropertyOp3
 70
     1
102
RTVSPropertyOp4
 70
     1
102
RTVSPropertyOp5
 70
     1
102
RTVSPropertyOp6
 70
     1
102
RTVSPropertyOp7
 70
     1
102
RTVSPropertyOp8
 70
     1
102
RTVSPropertyOp9
 70
     1
102
RTVSPropertyOp10
 70
     1
102
RTVSPropertyOp11
 70
     1
102
RTVSPropertyOp12
 70
     1
102
RTVSPropertyOp13
 70
     1
102
RTVSPropertyOp14
 70
     1
102
RTVSPropertyOp15
 70
     1
102
RTVSPropertyOp16
 70
     1
102
RTVSPropertyOp17
 70
     1
102
RTVSPropertyOp18
 70
     1
102
RTVSPropertyOp19
 70
     1
102
RTVSPropertyOp20
 70
     1
102
RTVSPropertyOp21
 70
     1
102
RTVSPropertyOp22
 70
     1
102
RTVSPropertyOp23
 70
     1
102
RTVSPropertyOp24
 70
     1
102
RTVSPropertyOp25
 70
     1
102
RTVSPropertyOp26
 70
     1
102
RTVSPropertyOp27
 70
     1
102
RTVSPropertyOp28
 70
     1
102
RTVSPropertyOp29
 70
     1
102
RTVSPropertyOp30
 70
     1
102
RTVSPropertyOp31
 70
     1
102
RTVSPropertyOp32
 70
     1
  0
XRECORD
  5
207
102
{ACAD_REACTORS
330
206
102
}
330
206
100
AcDbXrecord
280
     1
102
RTVSPropertyOp0
 70
     1
102
RTVSPropertyOp1
 70
     1
102
RTVSPropertyOp2
 70
     1
102
RTVSPropertyOp3
 70
     1
102
RTVSPropertyOp4
 70
     1
102
RTVSPropertyOp5
 70
     1
102
RTVSPropertyOp6
 70
     1
102
RTVSPropertyOp7
 70
     1
102
RTVSPropertyOp8
 70
     1
102
RTVSPropertyOp9
 70
     1
102
RTVSPropertyOp10
 70
     1
102
RTVSPropertyOp11
 70
     1
102
RTVSPropertyOp12
 70
     1
102
RTVSPropertyOp13
 70
     1
102
RTVSPropertyOp14
 70
     1
102
RTVSPropertyOp15
 70
     1
102
RTVSPropertyOp16
 70
     1
102
RTVSPropertyOp17
 70
     1
102
RTVSPropertyOp18
 70
     1
102
RTVSPropertyOp19
 70
     1
102
RTVSPropertyOp20
 70
     1
102
RTVSPropertyOp21
 70
     1
102
RTVSPropertyOp22
 70
     1
102
RTVSPropertyOp23
 70
     1
102
RTVSPropertyOp24
 70
     1
102
RTVSPropertyOp25
 70
     1
102
RTVSPropertyOp26
 70
     1
102
RTVSPropertyOp27
 70
     1
102
RTVSPropertyOp28
 70
     1
102
RTVSPropertyOp29
 70
     1
102
RTVSPropertyOp30
 70
     1
102
RTVSPropertyOp31
 70
     1
102
RTVSPropertyOp32
 70
     1
  0
XRECORD
  5
1FB
102
{ACAD_REACTORS
330
1FA
102
}
330
1FA
100
AcDbXrecord
280
     1
102
RTVSPropertyOp0
 70
     1
102
RTVSPropertyOp1
 70
     1
102
RTVSPropertyOp2
 70
     1
102
RTVSPropertyOp3
 70
     1
102
RTVSPropertyOp4
 70
     1
102
RTVSPropertyOp5
 70
     1
102
RTVSPropertyOp6
 70
     1
102
RTVSPropertyOp7
 70
     1
102
RTVSPropertyOp8
 70
     1
102
RTVSPropertyOp9
 70
     1
102
RTVSPropertyOp10
 70
     1
102
RTVSPropertyOp11
 70
     1
102
RTVSPropertyOp12
 70
     1
102
RTVSPropertyOp13
 70
     1
102
RTVSPropertyOp14
 70
     1
102
RTVSPropertyOp15
 70
     1
102
RTVSPropertyOp16
 70
     1
102
RTVSPropertyOp17
 70
     1
102
RTVSPropertyOp18
 70
     1
102
RTVSPropertyOp19
 70
     1
102
RTVSPropertyOp20
 70
     1
102
RTVSPropertyOp21
 70
     1
102
RTVSPropertyOp22
 70
     1
102
RTVSPropertyOp23
 70
     1
102
RTVSPropertyOp24
 70
     1
102
RTVSPropertyOp25
 70
     1
102
RTVSPropertyOp26
 70
     1
102
RTVSPropertyOp27
 70
     1
102
RTVSPropertyOp28
 70
     1
102
RTVSPropertyOp29
 70
     1
102
RTVSPropertyOp30
 70
     1
102
RTVSPropertyOp31
 70
     1
102
RTVSPropertyOp32
 70
     1
  0
XRECORD
  5
1FD
102
{ACAD_REACTORS
330
1FC
102
}
330
1FC
100
AcDbXrecord
280
     1
102
RTVSPropertyOp0
 70
     1
102
RTVSPropertyOp1
 70
     1
102
RTVSPropertyOp2
 70
     1
102
RTVSPropertyOp3
 70
     1
102
RTVSPropertyOp4
 70
     1
102
RTVSPropertyOp5
 70
     1
102
RTVSPropertyOp6
 70
     1
102
RTVSPropertyOp7
 70
     1
102
RTVSPropertyOp8
 70
     1
102
RTVSPropertyOp9
 70
     1
102
RTVSPropertyOp10
 70
     1
102
RTVSPropertyOp11
 70
     1
102
RTVSPropertyOp12
 70
     1
102
RTVSPropertyOp13
 70
     1
102
RTVSPropertyOp14
 70
     1
102
RTVSPropertyOp15
 70
     1
102
RTVSPropertyOp16
 70
     1
102
RTVSPropertyOp17
 70
     1
102
RTVSPropertyOp18
 70
     1
102
RTVSPropertyOp19
 70
     1
102
RTVSPropertyOp20
 70
     1
102
RTVSPropertyOp21
 70
     1
102
RTVSPropertyOp22
 70
     1
102
RTVSPropertyOp23
 70
     1
102
RTVSPropertyOp24
 70
     1
102
RTVSPropertyOp25
 70
     1
102
RTVSPropertyOp26
 70
     1
102
RTVSPropertyOp27
 70
     1
102
RTVSPropertyOp28
 70
     1
102
RTVSPropertyOp29
 70
     1
102
RTVSPropertyOp30
 70
     1
102
RTVSPropertyOp31
 70
     1
102
RTVSPropertyOp32
 70
     1
  0
XRECORD
  5
205
102
{ACAD_REACTORS
330
204
102
}
330
204
100
AcDbXrecord
280
     1
102
RTVSPropertyOp0
 70
     1
102
RTVSPropertyOp1
 70
     1
102
RTVSPropertyOp2
 70
     1
102
RTVSPropertyOp3
 70
     1
102
RTVSPropertyOp4
 70
     1
102
RTVSPropertyOp5
 70
     1
102
RTVSPropertyOp6
 70
     1
102
RTVSPropertyOp7
 70
     1
102
RTVSPropertyOp8
 70
     1
102
RTVSPropertyOp9
 70
     1
102
RTVSPropertyOp10
 70
     1
102
RTVSPropertyOp11
 70
     1
102
RTVSPropertyOp12
 70
     1
102
RTVSPropertyOp13
 70
     1
102
RTVSPropertyOp14
 70
     1
102
RTVSPropertyOp15
 70
     1
102
RTVSPropertyOp16
 70
     1
102
RTVSPropertyOp17
 70
     1
102
RTVSPropertyOp18
 70
     1
102
RTVSPropertyOp19
 70
     1
102
RTVSPropertyOp20
 70
     1
102
RTVSPropertyOp21
 70
     1
102
RTVSPropertyOp22
 70
     1
102
RTVSPropertyOp23
 70
     1
102
RTVSPropertyOp24
 70
     1
102
RTVSPropertyOp25
 70
     1
102
RTVSPropertyOp26
 70
     1
102
RTVSPropertyOp27
 70
     1
102
RTVSPropertyOp28
 70
     1
102
RTVSPropertyOp29
 70
     1
102
RTVSPropertyOp30
 70
     1
102
RTVSPropertyOp31
 70
     1
102
RTVSPropertyOp32
 70
     1
  0
XRECORD
  5
1E9
102
{ACAD_REACTORS
330
1E8
102
}
330
1E8
100
AcDbXrecord
280
     1
102
RTVSPropertyOp0
 70
     1
102
RTVSPropertyOp1
 70
     1
102
RTVSPropertyOp2
 70
     1
102
RTVSPropertyOp3
 70
     1
102
RTVSPropertyOp4
 70
     1
102
RTVSPropertyOp5
 70
     1
102
RTVSPropertyOp6
 70
     1
102
RTVSPropertyOp7
 70
     1
102
RTVSPropertyOp8
 70
     1
102
RTVSPropertyOp9
 70
     1
102
RTVSPropertyOp10
 70
     1
102
RTVSPropertyOp11
 70
     1
102
RTVSPropertyOp12
 70
     1
102
RTVSPropertyOp13
 70
     1
102
RTVSPropertyOp14
 70
     1
102
RTVSPropertyOp15
 70
     1
102
RTVSPropertyOp16
 70
     1
102
RTVSPropertyOp17
 70
     1
102
RTVSPropertyOp18
 70
     1
102
RTVSPropertyOp19
 70
     1
102
RTVSPropertyOp20
 70
     1
102
RTVSPropertyOp21
 70
     1
102
RTVSPropertyOp22
 70
     1
102
RTVSPropertyOp23
 70
     1
102
RTVSPropertyOp24
 70
     1
102
RTVSPropertyOp25
 70
     1
102
RTVSPropertyOp26
 70
     1
102
RTVSPropertyOp27
 70
     1
102
RTVSPropertyOp28
 70
     1
102
RTVSPropertyOp29
 70
     1
102
RTVSPropertyOp30
 70
     1
102
RTVSPropertyOp31
 70
     1
102
RTVSPropertyOp32
 70
     1
  0
XRECORD
  5
1EB
102
{ACAD_REACTORS
330
1EA
102
}
330
1EA
100
AcDbXrecord
280
     1
102
RTVSPropertyOp0
 70
     1
102
RTVSPropertyOp1
 70
     1
102
RTVSPropertyOp2
 70
     1
102
RTVSPropertyOp3
 70
     1
102
RTVSPropertyOp4
 70
     1
102
RTVSPropertyOp5
 70
     1
102
RTVSPropertyOp6
 70
     1
102
RTVSPropertyOp7
 70
     1
102
RTVSPropertyOp8
 70
     1
102
RTVSPropertyOp9
 70
     1
102
RTVSPropertyOp10
 70
     1
102
RTVSPropertyOp11
 70
     1
102
RTVSPropertyOp12
 70
     1
102
RTVSPropertyOp13
 70
     1
102
RTVSPropertyOp14
 70
     1
102
RTVSPropertyOp15
 70
     1
102
RTVSPropertyOp16
 70
     1
102
RTVSPropertyOp17
 70
     1
102
RTVSPropertyOp18
 70
     1
102
RTVSPropertyOp19
 70
     1
102
RTVSPropertyOp20
 70
     1
102
RTVSPropertyOp21
 70
     1
102
RTVSPropertyOp22
 70
     1
102
RTVSPropertyOp23
 70
     1
102
RTVSPropertyOp24
 70
     1
102
RTVSPropertyOp25
 70
     1
102
RTVSPropertyOp26
 70
     1
102
RTVSPropertyOp27
 70
     1
102
RTVSPropertyOp28
 70
     1
102
RTVSPropertyOp29
 70
     1
102
RTVSPropertyOp30
 70
     1
102
RTVSPropertyOp31
 70
     1
102
RTVSPropertyOp32
 70
     1
  0
XRECORD
  5
1ED
102
{ACAD_REACTORS
330
1EC
102
}
330
1EC
100
AcDbXrecord
280
     1
102
RTVSPropertyOp0
 70
     1
102
RTVSPropertyOp1
 70
     1
102
RTVSPropertyOp2
 70
     1
102
RTVSPropertyOp3
 70
     1
102
RTVSPropertyOp4
 70
     1
102
RTVSPropertyOp5
 70
     1
102
RTVSPropertyOp6
 70
     1
102
RTVSPropertyOp7
 70
     1
102
RTVSPropertyOp8
 70
     1
102
RTVSPropertyOp9
 70
     1
102
RTVSPropertyOp10
 70
     1
102
RTVSPropertyOp11
 70
     1
102
RTVSPropertyOp12
 70
     1
102
RTVSPropertyOp13
 70
     1
102
RTVSPropertyOp14
 70
     1
102
RTVSPropertyOp15
 70
     1
102
RTVSPropertyOp16
 70
     1
102
RTVSPropertyOp17
 70
     1
102
RTVSPropertyOp18
 70
     1
102
RTVSPropertyOp19
 70
     1
102
RTVSPropertyOp20
 70
     1
102
RTVSPropertyOp21
 70
     1
102
RTVSPropertyOp22
 70
     1
102
RTVSPropertyOp23
 70
     1
102
RTVSPropertyOp24
 70
     1
102
RTVSPropertyOp25
 70
     1
102
RTVSPropertyOp26
 70
     1
102
RTVSPropertyOp27
 70
     1
102
RTVSPropertyOp28
 70
     1
102
RTVSPropertyOp29
 70
     1
102
RTVSPropertyOp30
 70
     1
102
RTVSPropertyOp31
 70
     1
102
RTVSPropertyOp32
 70
     1
  0
XRECORD
  5
1EF
102
{ACAD_REACTORS
330
1EE
102
}
330
1EE
100
AcDbXrecord
280
     1
102
RTVSPropertyOp0
 70
     1
102
RTVSPropertyOp1
 70
     1
102
RTVSPropertyOp2
 70
     1
102
RTVSPropertyOp3
 70
     1
102
RTVSPropertyOp4
 70
     1
102
RTVSPropertyOp5
 70
     1
102
RTVSPropertyOp6
 70
     1
102
RTVSPropertyOp7
 70
     1
102
RTVSPropertyOp8
 70
     1
102
RTVSPropertyOp9
 70
     1
102
RTVSPropertyOp10
 70
     1
102
RTVSPropertyOp11
 70
     1
102
RTVSPropertyOp12
 70
     1
102
RTVSPropertyOp13
 70
     1
102
RTVSPropertyOp14
 70
     1
102
RTVSPropertyOp15
 70
     1
102
RTVSPropertyOp16
 70
     1
102
RTVSPropertyOp17
 70
     1
102
RTVSPropertyOp18
 70
     1
102
RTVSPropertyOp19
 70
     1
102
RTVSPropertyOp20
 70
     1
102
RTVSPropertyOp21
 70
     1
102
RTVSPropertyOp22
 70
     1
102
RTVSPropertyOp23
 70
     1
102
RTVSPropertyOp24
 70
     1
102
RTVSPropertyOp25
 70
     1
102
RTVSPropertyOp26
 70
     1
102
RTVSPropertyOp27
 70
     1
102
RTVSPropertyOp28
 70
     1
102
RTVSPropertyOp29
 70
     1
102
RTVSPropertyOp30
 70
     1
102
RTVSPropertyOp31
 70
     1
102
RTVSPropertyOp32
 70
     1
  0
XRECORD
  5
203
102
{ACAD_REACTORS
330
202
102
}
330
202
100
AcDbXrecord
280
     1
102
RTVSPropertyOp0
 70
     1
102
RTVSPropertyOp1
 70
     1
102
RTVSPropertyOp2
 70
     1
102
RTVSPropertyOp3
 70
     1
102
RTVSPropertyOp4
 70
     1
102
RTVSPropertyOp5
 70
     1
102
RTVSPropertyOp6
 70
     1
102
RTVSPropertyOp7
 70
     1
102
RTVSPropertyOp8
 70
     1
102
RTVSPropertyOp9
 70
     1
102
RTVSPropertyOp10
 70
     1
102
RTVSPropertyOp11
 70
     1
102
RTVSPropertyOp12
 70
     1
102
RTVSPropertyOp13
 70
     1
102
RTVSPropertyOp14
 70
     1
102
RTVSPropertyOp15
 70
     1
102
RTVSPropertyOp16
 70
     1
102
RTVSPropertyOp17
 70
     1
102
RTVSPropertyOp18
 70
     1
102
RTVSPropertyOp19
 70
     1
102
RTVSPropertyOp20
 70
     1
102
RTVSPropertyOp21
 70
     1
102
RTVSPropertyOp22
 70
     1
102
RTVSPropertyOp23
 70
     1
102
RTVSPropertyOp24
 70
     1
102
RTVSPropertyOp25
 70
     1
102
RTVSPropertyOp26
 70
     1
102
RTVSPropertyOp27
 70
     1
102
RTVSPropertyOp28
 70
     1
102
RTVSPropertyOp29
 70
     1
102
RTVSPropertyOp30
 70
     1
102
RTVSPropertyOp31
 70
     1
102
RTVSPropertyOp32
 70
     1
  0
XRECORD
  5
1F9
102
{ACAD_REACTORS
330
1F8
102
}
330
1F8
100
AcDbXrecord
280
     1
102
RTVSPropertyOp0
 70
     1
102
RTVSPropertyOp1
 70
     1
102
RTVSPropertyOp2
 70
     1
102
RTVSPropertyOp3
 70
     1
102
RTVSPropertyOp4
 70
     1
102
RTVSPropertyOp5
 70
     1
102
RTVSPropertyOp6
 70
     1
102
RTVSPropertyOp7
 70
     1
102
RTVSPropertyOp8
 70
     1
102
RTVSPropertyOp9
 70
     1
102
RTVSPropertyOp10
 70
     1
102
RTVSPropertyOp11
 70
     1
102
RTVSPropertyOp12
 70
     1
102
RTVSPropertyOp13
 70
     1
102
RTVSPropertyOp14
 70
     1
102
RTVSPropertyOp15
 70
     1
102
RTVSPropertyOp16
 70
     1
102
RTVSPropertyOp17
 70
     1
102
RTVSPropertyOp18
 70
     1
102
RTVSPropertyOp19
 70
     1
102
RTVSPropertyOp20
 70
     1
102
RTVSPropertyOp21
 70
     1
102
RTVSPropertyOp22
 70
     1
102
RTVSPropertyOp23
 70
     1
102
RTVSPropertyOp24
 70
     1
102
RTVSPropertyOp25
 70
     1
102
RTVSPropertyOp26
 70
     1
102
RTVSPropertyOp27
 70
     1
102
RTVSPropertyOp28
 70
     1
102
RTVSPropertyOp29
 70
     1
102
RTVSPropertyOp30
 70
     1
102
RTVSPropertyOp31
 70
     1
102
RTVSPropertyOp32
 70
     1
  0
XRECORD
  5
201
102
{ACAD_REACTORS
330
200
102
}
330
200
100
AcDbXrecord
280
     1
102
RTVSPropertyOp0
 70
     1
102
RTVSPropertyOp1
 70
     1
102
RTVSPropertyOp2
 70
     1
102
RTVSPropertyOp3
 70
     1
102
RTVSPropertyOp4
 70
     1
102
RTVSPropertyOp5
 70
     1
102
RTVSPropertyOp6
 70
     1
102
RTVSPropertyOp7
 70
     1
102
RTVSPropertyOp8
 70
     1
102
RTVSPropertyOp9
 70
     1
102
RTVSPropertyOp10
 70
     1
102
RTVSPropertyOp11
 70
     1
102
RTVSPropertyOp12
 70
     1
102
RTVSPropertyOp13
 70
     1
102
RTVSPropertyOp14
 70
     1
102
RTVSPropertyOp15
 70
     1
102
RTVSPropertyOp16
 70
     1
102
RTVSPropertyOp17
 70
     1
102
RTVSPropertyOp18
 70
     1
102
RTVSPropertyOp19
 70
     1
102
RTVSPropertyOp20
 70
     1
102
RTVSPropertyOp21
 70
     1
102
RTVSPropertyOp22
 70
     1
102
RTVSPropertyOp23
 70
     1
102
RTVSPropertyOp24
 70
     1
102
RTVSPropertyOp25
 70
     1
102
RTVSPropertyOp26
 70
     1
102
RTVSPropertyOp27
 70
     1
102
RTVSPropertyOp28
 70
     1
102
RTVSPropertyOp29
 70
     1
102
RTVSPropertyOp30
 70
     1
102
RTVSPropertyOp31
 70
     1
102
RTVSPropertyOp32
 70
     1
  0
ENDSEC
  0
EOF
