0
SECTION
2
HEADER
9
$ACADVER
1
AC1015
9
$DWGCODEPAGE
3
ANSI_1252
9
$HANDSEED
5
2dd
9
$ANGBASE
50
0
9
$ANGDIR
70
0
9
$ATTMODE
70
1
9
$AUNITS
70
0
9
$AUPREC
70
0
9
$CECOLOR
62
256
9
$CELTSCALE
40
1
9
$CELTYPE
6
ByLayer
9
$CELWEIGHT
370
18
9
$CLAYER
8
0
9
$CMLJUST
70
0
9
$CMLSCALE
40
1
9
$CMLSTYLE
2
Standard
9
$DIMSTYLE
2
Standard
9
$TEXTSIZE
40
0.2
9
$TEXTSTYLE
7
Standard
9
$LUNITS
70
2
9
$LUPREC
70
4
9
$EXTNAMES
290
1
9
$INSUNITS
70
4
9
$LTSCALE
40
1
9
$LWDISPLAY
290
1
9
$PDMODE
70
0
9
$PDSIZE
40
0
9
$PLINEGEN
70
0
0
ENDSEC
0
SECTION
2
CLASSES
0
CLASS
1
RASTERVARIABLES
2
AcDbRasterVariables
3
ISM
90
0
280
0
281
0
0
ENDSEC
0
SECTION
2
TABLES
0
TABLE
2
VPORT
5
2d3
100
AcDbSymbolTable
0
VPORT
5
1
100
AcDbSymbolTableRecord
100
AcDbViewportTableRecord
2
*Active
70
0
10
0
20
0
11
1
21
1
12
-1
22
1
13
0
23
0
14
0.5
24
0.5
15
10
25
10
16
0
26
0
36
1
17
0
27
0
37
0
0
ENDTAB
0
TABLE
2
LTYPE
5
2d4
100
AcDbSymbolTable
0
LTYPE
5
14
100
AcDbSymbolTableRecord
100
AcDbLinetypeTableRecord
70
0
2
ByBlock
3

72
65
73
0
40
0
0
LTYPE
5
15
100
AcDbSymbolTableRecord
100
AcDbLinetypeTableRecord
70
0
2
ByLayer
3

72
65
73
0
40
0
0
LTYPE
5
16
100
AcDbSymbolTableRecord
100
AcDbLinetypeTableRecord
70
0
2
CONTINUOUS
3
Solid line
72
65
73
0
40
0
0
LTYPE
5
6A
100
AcDbSymbolTableRecord
100
AcDbLinetypeTableRecord
70
0
2
CENTER
3
____ _ ____ _ ____ _ ____
72
65
73
4
40
47.5
49
22
74
0
49
-8.5
74
0
49
8.5
74
0
49
-8.5
74
0
0
LTYPE
5
6B
100
AcDbSymbolTableRecord
100
AcDbLinetypeTableRecord
70
0
2
DASHED
3
__ __ __ __ __ __ __ __ __
72
65
73
2
40
25.72
49
12.86
74
0
49
-12.86
74
0
0
ENDTAB
0
TABLE
2
LAYER
5
2d5
100
AcDbSymbolTable
0
LAYER
5
10
100
AcDbSymbolTableRecord
100
AcDbLayerTableRecord
2
0
70
0
62
7
6
CONTINUOUS
290
1
370
-3
390
0
0
LAYER
5
6D
100
AcDbSymbolTableRecord
100
AcDbLayerTableRecord
2
81
70
0
62
-3
6
CONTINUOUS
290
1
370
-3
390
0
0
LAYER
5
6F
100
AcDbSymbolTableRecord
100
AcDbLayerTableRecord
2
80
70
0
62
-6
6
CONTINUOUS
290
1
370
-3
390
0
0
LAYER
5
71
100
AcDbSymbolTableRecord
100
AcDbLayerTableRecord
2
1
70
0
62
4
6
CONTINUOUS
290
1
370
-3
390
0
0
LAYER
5
CB
100
AcDbSymbolTableRecord
100
AcDbLayerTableRecord
2
4
70
0
62
-2
6
CENTER
290
1
370
-3
390
0
0
LAYER
5
22E
100
AcDbSymbolTableRecord
100
AcDbLayerTableRecord
2
2
70
0
62
7
6
CONTINUOUS
290
1
370
-3
390
0
0
LAYER
5
2be
100
AcDbSymbolTableRecord
100
AcDbLayerTableRecord
2
SK4
70
0
62
2
6
CENTER
290
1
370
-3
390
0
0
LAYER
5
2bf
100
AcDbSymbolTableRecord
100
AcDbLayerTableRecord
2
SK3
70
0
62
1
6
DASHED
290
1
370
-3
390
0
0
LAYER
5
2c0
100
AcDbSymbolTableRecord
100
AcDbLayerTableRecord
2
SK1
70
0
62
4
6
CONTINUOUS
290
1
370
-3
390
0
0
LAYER
5
2c1
100
AcDbSymbolTableRecord
100
AcDbLayerTableRecord
2
SK6
70
0
62
5
6
CONTINUOUS
290
1
370
-3
390
0
0
LAYER
5
2c2
100
AcDbSymbolTableRecord
100
AcDbLayerTableRecord
2
SK2
70
0
62
7
6
CONTINUOUS
290
1
370
-3
390
0
0
ENDTAB
0
TABLE
2
STYLE
5
2d6
100
AcDbSymbolTable
0
STYLE
5
11
100
AcDbSymbolTableRecord
100
AcDbTextStyleTableRecord
2
Standard
3
txt
70
0
71
0
40
0
41
1
42
0
50
0
0
STYLE
5
1F5
100
AcDbSymbolTableRecord
100
AcDbTextStyleTableRecord
2
iso_b_vert
3
simplex.shx
70
0
71
0
40
0
41
1
42
0
50
0
0
STYLE
5
1F6
100
AcDbSymbolTableRecord
100
AcDbTextStyleTableRecord
2
DWGDirectTextStyle
3
simplex
70
0
71
0
40
0
41
1
42
0
50
0
0
ENDTAB
0
TABLE
2
DIMSTYLE
5
2d7
100
AcDbSymbolTable
100
AcDbDimStyleTable
0
DIMSTYLE
105
27
100
AcDbSymbolTableRecord
100
AcDbDimStyleTableRecord
2
Standard
70
0
3
<>
41
0.18
42
0.0625
44
0.18
140
0.18
147
0.09
73
0
74
0
77
1
271
2
275
0
278
52
280
0
340
11
0
ENDTAB
0
TABLE
2
VIEW
5
2d8
100
AcDbSymbolTable
0
ENDTAB
0
TABLE
2
UCS
5
2d9
100
AcDbSymbolTable
0
ENDTAB
0
TABLE
2
APPID
5
2da
100
AcDbSymbolTable
0
APPID
5
12
100
AcDbSymbolTableRecord
100
AcDbRegAppTableRecord
2
ACAD
70
0
0
ENDTAB
0
TABLE
2
BLOCK_RECORD
5
2db
100
AcDbSymbolTable
0
BLOCK_RECORD
5
1F
100
AcDbSymbolTableRecord
100
AcDbBlockTableRecord
2
*Model_Space
340
0
70
0
0
BLOCK_RECORD
5
1B
100
AcDbSymbolTableRecord
100
AcDbBlockTableRecord
2
*Paper_Space
340
0
70
0
0
BLOCK_RECORD
5
23
100
AcDbSymbolTableRecord
100
AcDbBlockTableRecord
2
*Paper_Space0
340
0
70
0
0
BLOCK_RECORD
5
1F8
100
AcDbSymbolTableRecord
100
AcDbBlockTableRecord
2
LABLE3D_1
340
0
70
0
0
BLOCK_RECORD
5
1F9
100
AcDbSymbolTableRecord
100
AcDbBlockTableRecord
2
_CLOSED
340
0
70
0
0
BLOCK_RECORD
5
206
100
AcDbSymbolTableRecord
100
AcDbBlockTableRecord
2
DimnDraft3D1
340
0
70
0
0
BLOCK_RECORD
5
210
100
AcDbSymbolTableRecord
100
AcDbBlockTableRecord
2
DimnDraft3D2
340
0
70
0
0
BLOCK_RECORD
5
21E
100
AcDbSymbolTableRecord
100
AcDbBlockTableRecord
2
DimnDraft3D3
340
0
70
0
0
BLOCK_RECORD
5
22C
100
AcDbSymbolTableRecord
100
AcDbBlockTableRecord
2
DimnDraft3D4
340
0
70
0
0
BLOCK_RECORD
5
23B
100
AcDbSymbolTableRecord
100
AcDbBlockTableRecord
2
DimnDraft3D5
340
0
70
0
0
BLOCK_RECORD
5
249
100
AcDbSymbolTableRecord
100
AcDbBlockTableRecord
2
DimnDraft3D6
340
0
70
0
0
BLOCK_RECORD
5
257
100
AcDbSymbolTableRecord
100
AcDbBlockTableRecord
2
DimnDraft3D7
340
0
70
0
0
ENDTAB
0
ENDSEC
0
SECTION
2
BLOCKS
0
BLOCK
5
20
100
AcDbEntity
8
0
100
AcDbBlockBegin
2
*Model_Space
70
0
10
0
20
0
30
0
3
*Model_Space
0
ENDBLK
5
21
100
AcDbEntity
8
0
100
AcDbBlockEnd
0
BLOCK
5
1C
100
AcDbEntity
8
0
100
AcDbBlockBegin
2
*Paper_Space
70
0
10
0
20
0
30
0
3
*Paper_Space
0
ENDBLK
5
1D
100
AcDbEntity
8
0
100
AcDbBlockEnd
0
BLOCK
5
24
100
AcDbEntity
8
0
100
AcDbBlockBegin
2
*Paper_Space0
70
0
10
0
20
0
30
0
3
*Paper_Space0
0
ENDBLK
5
25
100
AcDbEntity
8
0
100
AcDbBlockEnd
0
BLOCK
5
204
100
AcDbEntity
8
0
100
AcDbBlockBegin
2
LABLE3D_1
70
0
10
0
20
0
30
0
3
LABLE3D_1
0
MTEXT
5
202
100
AcDbEntity
8
SK2
62
256
6
ByLayer
370
18
48
1
60
0
100
AcDbMText
10
-37.05087
20
-52.526757
30
0
210
0
220
0
230
1
1
\W0.7886;Combination of\PHSK-A/C/T 63
40
3
41
0
44
1.084337
50
0
71
7
72
5
7
iso_b_vert
0
ENDBLK
5
205
100
AcDbEntity
8
0
100
AcDbBlockEnd
0
BLOCK
5
1FA
100
AcDbEntity
8
0
100
AcDbBlockBegin
2
_CLOSED
70
0
10
0
20
0
30
0
3
_CLOSED
0
LINE
5
1FC
100
AcDbEntity
8
0
62
256
6
ByLayer
370
-2
48
1
60
0
100
AcDbLine
10
-1
20
0.166667
30
0
11
0
21
0
31
0
39
0
210
0
220
0
230
1
0
LINE
5
1FD
100
AcDbEntity
8
0
62
256
6
ByLayer
370
-2
48
1
60
0
100
AcDbLine
10
0
20
0
30
0
11
-1
21
-0.166667
31
0
39
0
210
0
220
0
230
1
0
LINE
5
1FE
100
AcDbEntity
8
0
62
256
6
ByLayer
370
-2
48
1
60
0
100
AcDbLine
10
-1
20
0.166667
30
0
11
-1
21
-0.166667
31
0
39
0
210
0
220
0
230
1
0
LINE
5
1FF
100
AcDbEntity
8
0
62
256
6
ByLayer
370
-2
48
1
60
0
100
AcDbLine
10
0
20
0
30
0
11
-1
21
0
31
0
39
0
210
0
220
0
230
1
0
ENDBLK
5
1FB
100
AcDbEntity
8
0
100
AcDbBlockEnd
0
BLOCK
5
20D
100
AcDbEntity
8
0
100
AcDbBlockBegin
2
DimnDraft3D1
70
0
10
0
20
0
30
0
3
DimnDraft3D1
0
MTEXT
5
207
100
AcDbEntity
8
SK2
62
256
6
ByLayer
370
18
48
1
60
0
100
AcDbMText
10
11.99738
20
46.222458
30
0
210
0
220
0
230
1
1
\W0.6563;26
40
3.000007
41
0
44
1.084337
50
0
71
7
72
5
7
iso_b_vert
0
LINE
5
208
100
AcDbEntity
8
SK2
62
256
6
ByLayer
370
13
48
1
60
0
100
AcDbLine
10
1.3E-05
20
32.5875
30
0
11
1.3E-05
21
48.647457
31
0
39
0
210
0
220
0
230
1
0
LINE
5
209
100
AcDbEntity
8
SK2
62
256
6
ByLayer
370
13
48
1
60
0
100
AcDbLine
10
26.000013
20
32.5875
30
0
11
26.000013
21
48.647457
31
0
39
0
210
0
220
0
230
1
0
LINE
5
20A
100
AcDbEntity
8
SK2
62
256
6
ByLayer
370
13
48
1
60
0
100
AcDbLine
10
1.3E-05
20
45.472457
30
0
11
26.000013
21
45.472457
31
0
39
0
210
0
220
0
230
1
0
SOLID
5
20B
100
AcDbEntity
8
SK2
62
256
6
ByLayer
370
13
48
1
60
0
100
AcDbTrace
10
1.3E-05
20
45.472457
30
0
11
3.175012
21
45.975327
31
0
12
3.175015
22
44.969586
32
0
13
1.3E-05
23
45.472457
33
0
39
0
210
0
220
0
230
1
0
SOLID
5
20C
100
AcDbEntity
8
SK2
62
256
6
ByLayer
370
13
48
1
60
0
100
AcDbTrace
10
26.000013
20
45.472457
30
0
11
22.825015
21
44.969586
31
0
12
22.825012
22
45.975327
32
0
13
26.000013
23
45.472457
33
0
39
0
210
0
220
0
230
1
0
ENDBLK
5
20E
100
AcDbEntity
8
0
100
AcDbBlockEnd
0
BLOCK
5
21B
100
AcDbEntity
8
0
100
AcDbBlockBegin
2
DimnDraft3D2
70
0
10
0
20
0
30
0
3
DimnDraft3D2
0
MTEXT
5
211
100
AcDbEntity
8
SK2
62
256
6
ByLayer
370
18
48
1
60
0
100
AcDbMText
10
-56.33407
20
-3.323684
30
0
210
0
220
0
230
1
1
\W0.7884;%%c 63
40
3
41
0
44
1.084337
50
90
71
7
72
5
7
iso_b_vert
0
LINE
5
212
100
AcDbEntity
8
SK2
62
256
6
ByLayer
370
13
48
1
60
0
100
AcDbLine
10
-0.999987
20
-31.5
30
0
11
-58.58407
21
-31.5
31
0
39
0
210
0
220
0
230
1
0
LINE
5
213
100
AcDbEntity
8
SK2
62
256
6
ByLayer
370
13
48
1
60
0
100
AcDbLine
10
-0.999987
20
31.5
30
0
11
-58.58407
21
31.5
31
0
39
0
210
0
220
0
230
1
0
LINE
5
214
100
AcDbEntity
8
SK2
62
256
6
ByLayer
370
13
48
1
60
0
100
AcDbLine
10
-55.58407
20
-31.5
30
0
11
-55.58407
21
31.5
31
0
39
0
210
0
220
0
230
1
0
LINE
5
215
100
AcDbEntity
8
SK2
62
256
6
ByLayer
370
13
48
1
60
0
100
AcDbLine
10
-55.58407
20
-31.5
30
0
11
-56.113051
21
-28.500002
31
0
39
0
210
0
220
0
230
1
0
LINE
5
216
100
AcDbEntity
8
SK2
62
256
6
ByLayer
370
13
48
1
60
0
100
AcDbLine
10
-55.58407
20
-31.5
30
0
11
-55.055089
21
-28.499998
31
0
39
0
210
0
220
0
230
1
0
LINE
5
217
100
AcDbEntity
8
SK2
62
256
6
ByLayer
370
13
48
1
60
0
100
AcDbLine
10
-56.113051
20
-28.500002
30
0
11
-55.055089
21
-28.499998
31
0
39
0
210
0
220
0
230
1
0
LINE
5
218
100
AcDbEntity
8
SK2
62
256
6
ByLayer
370
13
48
1
60
0
100
AcDbLine
10
-55.58407
20
31.5
30
0
11
-55.055089
21
28.500002
31
0
39
0
210
0
220
0
230
1
0
LINE
5
219
100
AcDbEntity
8
SK2
62
256
6
ByLayer
370
13
48
1
60
0
100
AcDbLine
10
-55.58407
20
31.5
30
0
11
-56.113051
21
28.499998
31
0
39
0
210
0
220
0
230
1
0
LINE
5
21A
100
AcDbEntity
8
SK2
62
256
6
ByLayer
370
13
48
1
60
0
100
AcDbLine
10
-55.055089
20
28.500002
30
0
11
-56.113051
21
28.499998
31
0
39
0
210
0
220
0
230
1
0
ENDBLK
5
21C
100
AcDbEntity
8
0
100
AcDbBlockEnd
0
BLOCK
5
229
100
AcDbEntity
8
0
100
AcDbBlockBegin
2
DimnDraft3D3
70
0
10
0
20
0
30
0
3
DimnDraft3D3
0
MTEXT
5
21F
100
AcDbEntity
8
SK2
62
256
6
ByLayer
370
18
48
1
60
0
100
AcDbMText
10
-43.285949
20
-3.481579
30
0
210
0
220
0
230
1
1
\W0.8203;%%c 48
40
3
41
0
44
1.084337
50
90
71
7
72
5
7
iso_b_vert
0
LINE
5
220
100
AcDbEntity
8
SK2
62
256
6
ByLayer
370
13
48
1
60
0
100
AcDbLine
10
-7.799987
20
-24
30
0
11
-45.535949
21
-24
31
0
39
0
210
0
220
0
230
1
0
LINE
5
221
100
AcDbEntity
8
SK2
62
256
6
ByLayer
370
13
48
1
60
0
100
AcDbLine
10
-7.799987
20
24
30
0
11
-45.535949
21
24
31
0
39
0
210
0
220
0
230
1
0
LINE
5
222
100
AcDbEntity
8
SK2
62
256
6
ByLayer
370
13
48
1
60
0
100
AcDbLine
10
-42.535949
20
-24
30
0
11
-42.535949
21
24
31
0
39
0
210
0
220
0
230
1
0
LINE
5
223
100
AcDbEntity
8
SK2
62
256
6
ByLayer
370
13
48
1
60
0
100
AcDbLine
10
-42.535949
20
-24
30
0
11
-43.06493
21
-21.000002
31
0
39
0
210
0
220
0
230
1
0
LINE
5
224
100
AcDbEntity
8
SK2
62
256
6
ByLayer
370
13
48
1
60
0
100
AcDbLine
10
-42.535949
20
-24
30
0
11
-42.006968
21
-20.999998
31
0
39
0
210
0
220
0
230
1
0
LINE
5
225
100
AcDbEntity
8
SK2
62
256
6
ByLayer
370
13
48
1
60
0
100
AcDbLine
10
-43.06493
20
-21.000002
30
0
11
-42.006968
21
-20.999998
31
0
39
0
210
0
220
0
230
1
0
LINE
5
226
100
AcDbEntity
8
SK2
62
256
6
ByLayer
370
13
48
1
60
0
100
AcDbLine
10
-42.535949
20
24
30
0
11
-42.006968
21
21.000002
31
0
39
0
210
0
220
0
230
1
0
LINE
5
227
100
AcDbEntity
8
SK2
62
256
6
ByLayer
370
13
48
1
60
0
100
AcDbLine
10
-42.535949
20
24
30
0
11
-43.06493
21
20.999998
31
0
39
0
210
0
220
0
230
1
0
LINE
5
228
100
AcDbEntity
8
SK2
62
256
6
ByLayer
370
13
48
1
60
0
100
AcDbLine
10
-42.006968
20
21.000002
30
0
11
-43.06493
21
20.999998
31
0
39
0
210
0
220
0
230
1
0
ENDBLK
5
22A
100
AcDbEntity
8
0
100
AcDbBlockEnd
0
BLOCK
5
238
100
AcDbEntity
8
0
100
AcDbBlockBegin
2
DimnDraft3D4
70
0
10
0
20
0
30
0
3
DimnDraft3D4
0
MTEXT
5
22D
100
AcDbEntity
8
2
62
256
6
ByLayer
370
18
48
1
60
0
100
AcDbMText
10
28.997385
20
59.936834
30
0
210
0
220
0
230
1
1
\W0.6563;60
40
3
41
0
44
1.084337
50
0
71
7
72
5
7
iso_b_vert
0
LINE
5
22F
100
AcDbEntity
8
2
62
256
6
ByLayer
370
18
48
1
60
0
100
AcDbLine
10
1.3E-05
20
33
30
0
11
1.3E-05
21
61.186834
31
0
39
0
210
0
220
0
230
1
0
LINE
5
230
100
AcDbEntity
8
2
62
256
6
ByLayer
370
18
48
1
60
0
100
AcDbLine
10
60.000019
20
-3
30
0
11
60.000019
21
61.186834
31
0
39
0
210
0
220
0
230
1
0
LINE
5
231
100
AcDbEntity
8
2
62
256
6
ByLayer
370
18
48
1
60
0
100
AcDbLine
10
1.3E-05
20
59.186834
30
0
11
60.000019
21
59.186834
31
0
39
0
210
0
220
0
230
1
0
LINE
5
232
100
AcDbEntity
8
2
62
256
6
ByLayer
370
18
48
1
60
0
100
AcDbLine
10
1.3E-05
20
59.186834
30
0
11
3.175012
21
59.604831
31
0
39
0
210
0
220
0
230
1
0
LINE
5
233
100
AcDbEntity
8
2
62
256
6
ByLayer
370
18
48
1
60
0
100
AcDbLine
10
1.3E-05
20
59.186834
30
0
11
3.175015
21
58.768837
31
0
39
0
210
0
220
0
230
1
0
LINE
5
234
100
AcDbEntity
8
2
62
256
6
ByLayer
370
18
48
1
60
0
100
AcDbLine
10
3.175012
20
59.604831
30
0
11
3.175015
21
58.768837
31
0
39
0
210
0
220
0
230
1
0
LINE
5
235
100
AcDbEntity
8
2
62
256
6
ByLayer
370
18
48
1
60
0
100
AcDbLine
10
60.000019
20
59.186834
30
0
11
56.825021
21
58.768837
31
0
39
0
210
0
220
0
230
1
0
LINE
5
236
100
AcDbEntity
8
2
62
256
6
ByLayer
370
18
48
1
60
0
100
AcDbLine
10
60.000019
20
59.186834
30
0
11
56.825018
21
59.604831
31
0
39
0
210
0
220
0
230
1
0
LINE
5
237
100
AcDbEntity
8
2
62
256
6
ByLayer
370
18
48
1
60
0
100
AcDbLine
10
56.825021
20
58.768837
30
0
11
56.825018
21
59.604831
31
0
39
0
210
0
220
0
230
1
0
ENDBLK
5
239
100
AcDbEntity
8
0
100
AcDbBlockEnd
0
BLOCK
5
246
100
AcDbEntity
8
0
100
AcDbBlockBegin
2
DimnDraft3D5
70
0
10
0
20
0
30
0
3
DimnDraft3D5
0
MTEXT
5
23C
100
AcDbEntity
8
SK2
62
256
6
ByLayer
370
18
48
1
60
0
100
AcDbMText
10
98.445239
20
-2.401316
30
0
210
0
220
0
230
1
1
\W0.5211;5
40
3
41
0
44
1.084337
50
90
71
7
72
5
7
iso_b_vert
0
LINE
5
23D
100
AcDbEntity
8
SK2
62
256
6
ByLayer
370
18
48
1
60
0
100
AcDbLine
10
71.761493
20
0
30
0
11
101.195239
21
0
31
0
39
0
210
0
220
0
230
1
0
LINE
5
23E
100
AcDbEntity
8
SK2
62
256
6
ByLayer
370
18
48
1
60
0
100
AcDbLine
10
62.000019
20
-5
30
0
11
101.195239
21
-5
31
0
39
0
210
0
220
0
230
1
0
LINE
5
23F
100
AcDbEntity
8
SK2
62
256
6
ByLayer
370
18
48
1
60
0
100
AcDbLine
10
99.195239
20
7.5
30
0
11
99.195239
21
-12.5
31
0
39
0
210
0
220
0
230
1
0
LINE
5
240
100
AcDbEntity
8
SK2
62
256
6
ByLayer
370
18
48
1
60
0
100
AcDbLine
10
99.195239
20
0
30
0
11
98.777242
21
3.174998
31
0
39
0
210
0
220
0
230
1
0
LINE
5
241
100
AcDbEntity
8
SK2
62
256
6
ByLayer
370
18
48
1
60
0
100
AcDbLine
10
99.195239
20
0
30
0
11
99.613235
21
3.175002
31
0
39
0
210
0
220
0
230
1
0
LINE
5
242
100
AcDbEntity
8
SK2
62
256
6
ByLayer
370
18
48
1
60
0
100
AcDbLine
10
98.777242
20
3.174998
30
0
11
99.613235
21
3.175002
31
0
39
0
210
0
220
0
230
1
0
LINE
5
243
100
AcDbEntity
8
SK2
62
256
6
ByLayer
370
18
48
1
60
0
100
AcDbLine
10
99.195239
20
-5
30
0
11
99.613235
21
-8.174998
31
0
39
0
210
0
220
0
230
1
0
LINE
5
244
100
AcDbEntity
8
SK2
62
256
6
ByLayer
370
18
48
1
60
0
100
AcDbLine
10
99.195239
20
-5
30
0
11
98.777242
21
-8.175002
31
0
39
0
210
0
220
0
230
1
0
LINE
5
245
100
AcDbEntity
8
SK2
62
256
6
ByLayer
370
18
48
1
60
0
100
AcDbLine
10
99.613235
20
-8.174998
30
0
11
98.777242
21
-8.175002
31
0
39
0
210
0
220
0
230
1
0
ENDBLK
5
247
100
AcDbEntity
8
0
100
AcDbBlockEnd
0
BLOCK
5
254
100
AcDbEntity
8
0
100
AcDbBlockBegin
2
DimnDraft3D6
70
0
10
0
20
0
30
0
3
DimnDraft3D6
0
MTEXT
5
24A
100
AcDbEntity
8
SK2
62
256
6
ByLayer
370
18
48
1
60
0
100
AcDbMText
10
-17.002618
20
46.294366
30
0
210
0
220
0
230
1
1
\W0.6562;32
40
3
41
0
44
1.084337
50
0
71
7
72
5
7
iso_b_vert
0
LINE
5
24B
100
AcDbEntity
8
SK2
62
256
6
ByLayer
370
18
48
1
60
0
100
AcDbLine
10
-31.999987
20
23.573501
30
0
11
-31.999987
21
47.544366
31
0
39
0
210
0
220
0
230
1
0
LINE
5
24C
100
AcDbEntity
8
SK2
62
256
6
ByLayer
370
18
48
1
60
0
100
AcDbLine
10
1.3E-05
20
33
30
0
11
1.3E-05
21
47.544366
31
0
39
0
210
0
220
0
230
1
0
LINE
5
24D
100
AcDbEntity
8
SK2
62
256
6
ByLayer
370
18
48
1
60
0
100
AcDbLine
10
-31.999987
20
45.544366
30
0
11
1.3E-05
21
45.544366
31
0
39
0
210
0
220
0
230
1
0
LINE
5
24E
100
AcDbEntity
8
SK2
62
256
6
ByLayer
370
18
48
1
60
0
100
AcDbLine
10
-31.999987
20
45.544366
30
0
11
-28.824988
21
45.962363
31
0
39
0
210
0
220
0
230
1
0
LINE
5
24F
100
AcDbEntity
8
SK2
62
256
6
ByLayer
370
18
48
1
60
0
100
AcDbLine
10
-31.999987
20
45.544366
30
0
11
-28.824985
21
45.126369
31
0
39
0
210
0
220
0
230
1
0
LINE
5
250
100
AcDbEntity
8
SK2
62
256
6
ByLayer
370
18
48
1
60
0
100
AcDbLine
10
-28.824988
20
45.962363
30
0
11
-28.824985
21
45.126369
31
0
39
0
210
0
220
0
230
1
0
LINE
5
251
100
AcDbEntity
8
SK2
62
256
6
ByLayer
370
18
48
1
60
0
100
AcDbLine
10
1.3E-05
20
45.544366
30
0
11
-3.174985
21
45.126369
31
0
39
0
210
0
220
0
230
1
0
LINE
5
252
100
AcDbEntity
8
SK2
62
256
6
ByLayer
370
18
48
1
60
0
100
AcDbLine
10
1.3E-05
20
45.544366
30
0
11
-3.174988
21
45.962363
31
0
39
0
210
0
220
0
230
1
0
LINE
5
253
100
AcDbEntity
8
SK2
62
256
6
ByLayer
370
18
48
1
60
0
100
AcDbLine
10
-3.174985
20
45.126369
30
0
11
-3.174988
21
45.962363
31
0
39
0
210
0
220
0
230
1
0
ENDBLK
5
255
100
AcDbEntity
8
0
100
AcDbBlockEnd
0
BLOCK
5
262
100
AcDbEntity
8
0
100
AcDbBlockBegin
2
DimnDraft3D7
70
0
10
0
20
0
30
0
3
DimnDraft3D7
0
MTEXT
5
258
100
AcDbEntity
8
SK2
62
256
6
ByLayer
370
18
48
1
60
0
100
AcDbMText
10
74.008777
20
-23.932454
30
0
210
0
220
0
230
1
1
\W0.8203;%%c 40
40
3
41
0
44
1.084337
50
45.0000000000001
71
7
72
5
7
iso_b_vert
0
LINE
5
259
100
AcDbEntity
8
SK2
62
256
6
ByLayer
370
18
48
1
60
0
100
AcDbLine
10
46.918544
20
-20.202796
30
0
11
64.273033
21
-37.557285
31
0
39
0
210
0
220
0
230
1
0
LINE
5
25A
100
AcDbEntity
8
SK2
62
256
6
ByLayer
370
18
48
1
60
0
100
AcDbLine
10
75.202815
20
8.081475
30
0
11
92.557304
21
-9.273014
31
0
39
0
210
0
220
0
230
1
0
LINE
5
25B
100
AcDbEntity
8
SK2
62
256
6
ByLayer
370
18
48
1
60
0
100
AcDbLine
10
62.858819
20
-36.143071
30
0
11
91.14309
21
-7.8588
31
0
39
0
210
0
220
0
230
1
0
LINE
5
25C
100
AcDbEntity
8
SK2
62
256
6
ByLayer
370
18
48
1
60
0
100
AcDbLine
10
62.858819
20
-36.143071
30
0
11
64.808314
21
-33.60244
31
0
39
0
210
0
220
0
230
1
0
LINE
5
25D
100
AcDbEntity
8
SK2
62
256
6
ByLayer
370
18
48
1
60
0
100
AcDbLine
10
62.858819
20
-36.143071
30
0
11
65.399452
21
-34.193574
31
0
39
0
210
0
220
0
230
1
0
LINE
5
25E
100
AcDbEntity
8
SK2
62
256
6
ByLayer
370
18
48
1
60
0
100
AcDbLine
10
64.808314
20
-33.60244
30
0
11
65.399452
21
-34.193574
31
0
39
0
210
0
220
0
230
1
0
LINE
5
25F
100
AcDbEntity
8
SK2
62
256
6
ByLayer
370
18
48
1
60
0
100
AcDbLine
10
91.14309
20
-7.8588
30
0
11
89.193596
21
-10.399431
31
0
39
0
210
0
220
0
230
1
0
LINE
5
260
100
AcDbEntity
8
SK2
62
256
6
ByLayer
370
18
48
1
60
0
100
AcDbLine
10
91.14309
20
-7.8588
30
0
11
88.602457
21
-9.808297
31
0
39
0
210
0
220
0
230
1
0
LINE
5
261
100
AcDbEntity
8
SK2
62
256
6
ByLayer
370
18
48
1
60
0
100
AcDbLine
10
89.193596
20
-10.399431
30
0
11
88.602457
21
-9.808297
31
0
39
0
210
0
220
0
230
1
0
ENDBLK
5
263
100
AcDbEntity
8
0
100
AcDbBlockEnd
0
ENDSEC
0
SECTION
2
ENTITIES
0
ARC
5
133
100
AcDbEntity
8
SK1
62
256
6
ByLayer
370
18
48
1
60
0
100
AcDbCircle
39
0
10
0.495072
20
24.615
30
0
40
0.6
210
1.22460635382238E-16
220
0
230
-1
100
AcDbArc
50
214.397094
51
270
0
ARC
5
134
100
AcDbEntity
8
SK1
62
256
6
ByLayer
370
18
48
1
60
0
100
AcDbCircle
39
0
10
-0.495072
20
-24.615
30
0
40
0.6
210
0
220
0
230
1
100
AcDbArc
50
34.397094
51
90
0
ARC
5
135
100
AcDbEntity
8
SK1
62
256
6
ByLayer
370
18
48
1
60
0
100
AcDbCircle
39
0
10
-30.799987
20
21.573501
30
0
40
1.2
210
0
220
0
230
1
100
AcDbArc
50
92.862405
51
180
0
ARC
5
136
100
AcDbEntity
8
SK1
62
256
6
ByLayer
370
18
48
1
60
0
100
AcDbCircle
39
0
10
-30.799987
20
-21.573501
30
0
40
1.2
210
0
220
0
230
1
100
AcDbArc
50
180
51
267.137595
0
ARC
5
137
100
AcDbEntity
8
1
62
256
6
ByLayer
370
18
48
1
60
0
100
AcDbCircle
39
0
10
-19.515013
20
27.875
30
0
40
0.4
210
1.22460635382238E-16
220
0
230
-1
100
AcDbArc
50
180
51
270
0
ARC
5
138
100
AcDbEntity
8
1
62
256
6
ByLayer
370
18
48
1
60
0
100
AcDbCircle
39
0
10
-16.485013
20
27.875
30
0
40
0.4
210
1.22460635382238E-16
220
0
230
-1
100
AcDbArc
50
270
51
0
0
ARC
5
139
100
AcDbEntity
8
1
62
256
6
ByLayer
370
18
48
1
60
0
100
AcDbCircle
39
0
10
16.485013
20
-27.875
30
0
40
0.4
210
0
220
0
230
1
100
AcDbArc
50
90
51
180
0
ARC
5
13A
100
AcDbEntity
8
1
62
256
6
ByLayer
370
18
48
1
60
0
100
AcDbCircle
39
0
10
19.515013
20
-27.875
30
0
40
0.4
210
0
220
0
230
1
100
AcDbArc
50
0
51
90
0
ARC
5
13B
100
AcDbEntity
8
1
62
256
6
ByLayer
370
18
48
1
60
0
100
AcDbCircle
39
0
10
-12.177418
20
27.85
30
0
40
8
210
1.22460635382238E-16
220
0
230
-1
100
AcDbArc
50
270
51
334.612067
0
ARC
5
13C
100
AcDbEntity
8
1
62
256
6
ByLayer
370
18
48
1
60
0
100
AcDbCircle
39
0
10
-27.950013
20
-24.5
30
0
40
2
210
0
220
0
230
-1
100
AcDbArc
50
0
51
90
0
ARC
5
13D
100
AcDbEntity
8
1
62
256
6
ByLayer
370
18
48
1
60
0
100
AcDbCircle
39
0
10
-27.950013
20
24.5
30
0
40
2
210
0
220
0
230
-1
100
AcDbArc
50
270
51
0
0
POINT
5
6C
100
AcDbEntity
8
81
62
256
6
ByLayer
370
18
48
1
60
0
100
AcDbPoint
10
60.000019
20
-5
30
0
39
0
210
0
220
0
230
1
50
360
0
POINT
5
6E
100
AcDbEntity
8
80
62
256
6
ByLayer
370
18
48
1
60
0
100
AcDbPoint
10
0
20
0
30
0
39
0
210
0
220
0
230
1
50
360
0
SPLINE
5
13E
100
AcDbEntity
8
1
62
256
6
ByLayer
370
18
48
1
60
0
100
AcDbSpline
70
4
71
3
72
29
73
25
40
0
40
0
40
0
40
0
40
0.0304706643282696
40
0.0739855655105012
40
0.117328475744764
40
0.157480488805096
40
0.197744691296923
40
0.238060034839145
40
0.278349117023815
40
0.318522056239563
40
0.363548681929761
40
0.408699211819965
40
0.45393771856183
40
0.499204946014711
40
0.544421855898574
40
0.589492867437043
40
0.639934461132272
40
0.69043481127683
40
0.740945580222047
40
0.791401397383983
40
0.843524971503266
40
0.895693070806009
40
0.947867621378739
40
1
40
1
40
1
40
1
41
1
10
73.7886012859762
20
9.21855704573321
30
0
41
1
10
73.7886012172824
20
9.21854490247632
30
0
41
1
10
73.7886005561381
20
9.21839659666345
30
0
41
1
10
73.7885977338205
20
9.2177274535479
30
0
41
1
10
73.7885919793766
20
9.21637072263914
30
0
41
1
10
73.788583955384
20
9.21447211683984
30
0
41
1
10
73.7885740846959
20
9.21211486631562
30
0
41
1
10
73.7885623393971
20
9.20927778317836
30
0
41
1
10
73.7885489171796
20
9.20599199933382
30
0
41
1
10
73.7885333747443
20
9.20213119059671
30
0
41
1
10
73.7885156715306
20
9.19765221031117
30
0
41
1
10
73.7884958967097
20
9.19253662119431
30
0
41
1
10
73.788474960938
20
9.18699004710525
30
0
41
1
10
73.7884531463328
20
9.18105724357656
30
0
41
1
10
73.7884307315417
20
9.17478284076593
30
0
41
1
10
73.7884070475669
20
9.16793649460197
30
0
41
1
10
73.7883822783572
20
9.16050080341356
30
0
41
1
10
73.7883566203461
20
9.15246798199002
30
0
41
1
10
73.7883312222652
20
9.14414755031046
30
0
41
1
10
73.788306043299
20
9.13547953732824
30
0
41
1
10
73.7882813213896
20
9.12648039416888
30
0
41
1
10
73.7882572390928
20
9.11716593032227
30
0
41
1
10
73.7882342104634
20
9.10765783783607
30
0
41
1
10
73.7882197068716
20
9.10121111868246
30
0
41
1
10
73.7882126576617
20
9.09796026454786
30
0
0
SPLINE
5
13F
100
AcDbEntity
8
1
62
256
6
ByLayer
370
18
48
1
60
0
100
AcDbSpline
70
4
71
3
72
25
73
21
40
0
40
0
40
0
40
0
40
0.0569503691896748
40
0.113904080159259
40
0.170858421545269
40
0.227809650442408
40
0.284755836072364
40
0.34170446431612
40
0.39865325380843
40
0.455599659332086
40
0.512905345841287
40
0.570213463609776
40
0.627521399601703
40
0.684826838223107
40
0.737328213009232
40
0.789830661059506
40
0.842331679458511
40
0.894887661280988
40
0.947445212013181
40
1
40
1
40
1
40
1
41
1
10
63.5331889444949
20
-2.06787087235202
30
0
41
1
10
63.5225659096972
20
-2.08234496732532
30
0
41
1
10
63.5011970781474
20
-2.11118829461454
30
0
41
1
10
63.4687679049311
20
-2.15413240761137
30
0
41
1
10
63.4359902478999
20
-2.19676819694484
30
0
41
1
10
63.4028826244621
20
-2.23910306295494
30
0
41
1
10
63.3694625447175
20
-2.2811477928198
30
0
41
1
10
63.3357357968184
20
-2.32290314977554
30
0
41
1
10
63.301709353036
20
-2.3643710212962
30
0
41
1
10
63.2673183470703
20
-2.4056383414213
30
0
41
1
10
63.2325674545413
20
-2.44670534526966
30
0
41
1
10
63.1974524019527
20
-2.48756220464208
30
0
41
1
10
63.1620443183322
20
-2.52811312869974
30
0
41
1
10
63.1273395984356
20
-2.56722408623293
30
0
41
1
10
63.0933643154417
20
-2.60491645772321
30
0
41
1
10
63.0601345773956
20
-2.64120055932639
30
0
41
1
10
63.0266224075234
20
-2.67718369713295
30
0
41
1
10
62.9928193794976
20
-2.71284640295597
30
0
41
1
10
62.9587020711109
20
-2.74814849738958
30
0
41
1
10
62.9357304551147
20
-2.7713867739458
30
0
41
1
10
62.9241903466041
20
-2.78293548742069
30
0
0
SPLINE
5
140
100
AcDbEntity
8
1
62
256
6
ByLayer
370
18
48
1
60
0
100
AcDbSpline
70
4
71
3
72
31
73
27
40
0
40
0
40
0
40
0
40
0.0415873295200745
40
0.083175477421993
40
0.124764017350461
40
0.166352536889455
40
0.207940637738295
40
0.249527935889037
40
0.291115553424422
40
0.332704045332782
40
0.37429295754002
40
0.415881849681428
40
0.457470295283544
40
0.49905788194746
40
0.540645780329794
40
0.582234607385998
40
0.623823882552373
40
0.665413138431333
40
0.707001920977624
40
0.748589789686025
40
0.790490676209519
40
0.832392565189226
40
0.874294939797381
40
0.916197295853251
40
0.958099142019491
40
1
40
1
40
1
40
1
41
1
10
65.3003494374865
20
0.610097044372701
30
0
41
1
10
65.2777294067165
20
0.571951625755588
30
0
41
1
10
65.2323353365953
20
0.495736645111116
30
0
41
1
10
65.1637837219987
20
0.381641637496635
30
0
41
1
10
65.094769493187
20
0.267778628535318
30
0
41
1
10
65.0252921274502
20
0.154151949268751
30
0
41
1
10
64.9553509206591
20
0.0407663956985331
30
0
41
1
10
64.884944380627
20
-0.0723747162401409
30
0
41
1
10
64.8140704397606
20
-0.185268835985767
30
0
41
1
10
64.7427273534199
20
-0.297913455496548
30
0
41
1
10
64.6709142837536
20
-0.4103046128076
30
0
41
1
10
64.5986309689756
20
-0.522437418476009
30
0
41
1
10
64.5258771472097
20
-0.634306982812113
30
0
41
1
10
64.4526516409895
20
-0.745909822571825
30
0
41
1
10
64.3789526344063
20
-0.857243319855726
30
0
41
1
10
64.3047786817711
20
-0.968304933237
30
0
41
1
10
64.2301293231754
20
-1.07909062279003
30
0
41
1
10
64.1550047496533
20
-1.18959535444284
30
0
41
1
10
64.0794051518618
20
-1.29981409446743
30
0
41
1
10
64.0031390467197
20
-1.41001878931896
30
0
41
1
10
63.9262006980934
20
-1.52020423585882
30
0
41
1
10
63.8485847814977
20
-1.63036523664561
30
0
41
1
10
63.7704831319164
20
-1.74022287591961
30
0
41
1
10
63.6918964465724
20
-1.84977180280237
30
0
41
1
10
63.6128254536262
20
-1.95900720666184
30
0
41
1
10
63.5597881767256
20
-2.03161837073113
30
0
41
1
10
63.5331889444949
20
-2.06787087235202
30
0
0
SPLINE
5
141
100
AcDbEntity
8
1
62
256
6
ByLayer
370
18
48
1
60
0
100
AcDbSpline
70
4
71
3
72
38
73
34
40
0
40
0
40
0
40
0
40
0.0280624111240487
40
0.0561907595988438
40
0.0842811520239622
40
0.112291670306769
40
0.131675211058268
40
0.151116325500009
40
0.170538816677485
40
0.18989688209723
40
0.209441815500432
40
0.229079032983711
40
0.248713689885321
40
0.268255115013562
40
0.290834495234439
40
0.313480316085728
40
0.336081665245261
40
0.363249317047849
40
0.390509905786727
40
0.417813721807244
40
0.445040504097153
40
0.47959291902471
40
0.514206740209112
40
0.548895006374315
40
0.583631425910627
40
0.618356507735331
40
0.652983267683273
40
0.707656711922119
40
0.762369682380376
40
0.81710146231747
40
0.871800572776462
40
0.944545393773376
40
1
40
1
40
1
40
1
41
1
10
65.7662363083469
20
1.0759839152331
30
0
41
1
10
65.7663726300935
20
1.07823565293916
30
0
41
1
10
65.7665407359338
20
1.08270217262167
30
0
41
1
10
65.7665011301867
20
1.08929664342909
30
0
41
1
10
65.7661003704832
20
1.09571630689859
30
0
41
1
10
65.7653763409049
20
1.10126395301791
30
0
41
1
10
65.7644188448339
20
1.10595769191738
30
0
41
1
10
65.7633404084741
20
1.10985796374279
30
0
41
1
10
65.7620054975647
20
1.1135279333554
30
0
41
1
10
65.7603971011929
20
1.11693061252457
30
0
41
1
10
65.7584876079784
20
1.12000305862059
30
0
41
1
10
65.7562908995529
20
1.12271614008022
30
0
41
1
10
65.7538394479114
20
1.12503588784249
30
0
41
1
10
65.7510138816164
20
1.12702393818631
30
0
41
1
10
65.7477926707197
20
1.1285709042244
30
0
41
1
10
65.7442030963479
20
1.12964174936761
30
0
41
1
10
65.7401907048332
20
1.13023152158876
30
0
41
1
10
65.7357653199881
20
1.13025970604105
30
0
41
1
10
65.7309549253208
20
1.12969527037302
30
0
41
1
10
65.7260706069083
20
1.12861742809144
30
0
41
1
10
65.720709872701
20
1.12696453809313
30
0
41
1
10
65.7148882818258
20
1.12469439640306
30
0
41
1
10
65.7086195341104
20
1.1217578867679
30
0
41
1
10
65.7023615153904
20
1.11838766894596
30
0
41
1
10
65.696130323589
20
1.11465031000861
30
0
41
1
10
65.6899420758334
20
1.1106094490388
30
0
41
1
10
65.6826161707157
20
1.10549763001714
30
0
41
1
10
65.6741789751435
20
1.09918612130539
30
0
41
1
10
65.6646701113322
20
1.09153071816917
30
0
41
1
10
65.6552635610427
20
1.0834848451973
30
0
41
1
10
65.6449316403512
20
1.0741967578107
30
0
41
1
10
65.6346735100489
20
1.06451948625183
30
0
41
1
10
65.6275628568306
20
1.05752526287934
30
0
41
1
10
65.6245020201928
20
1.05445777602021
30
0
0
SPLINE
5
142
100
AcDbEntity
8
1
62
256
6
ByLayer
370
18
48
1
60
0
100
AcDbSpline
70
4
71
3
72
13
73
9
40
0
40
0
40
0
40
0
40
0.166655895385702
40
0.333312293668031
40
0.499968101828385
40
0.666645232266318
40
0.833322980959062
40
1
40
1
40
1
40
1
41
1
10
65.7662363083469
20
1.0759839152331
30
0
41
1
10
65.7630680517208
20
1.02166137189832
30
0
41
1
10
65.7565368964009
20
0.91300032600877
30
0
41
1
10
65.7461655442716
20
0.749961265536101
30
0
41
1
10
65.7351912837914
20
0.586868324650148
30
0
41
1
10
65.7235954502995
20
0.423722199402249
30
0
41
1
10
65.7113568215786
20
0.26052357643394
30
0
41
1
10
65.702748224103
20
0.151695074800124
30
0
41
1
10
65.698333333828
20
0.097273516981133
30
0
0
SPLINE
5
143
100
AcDbEntity
8
1
62
256
6
ByLayer
370
18
48
1
60
0
100
AcDbSpline
70
4
71
3
72
36
73
32
40
0
40
0
40
0
40
0
40
0.0267557926030454
40
0.0535713493494635
40
0.0803508341244848
40
0.10705731552017
40
0.131312143067981
40
0.155615025955141
40
0.179832589613737
40
0.204322615872495
40
0.228915829750425
40
0.253396464761162
40
0.274218672101815
40
0.295103847920112
40
0.315946572744745
40
0.340589583261478
40
0.365316925795539
40
0.39008354396639
40
0.41478027956777
40
0.452526679171577
40
0.490359562192801
40
0.52828110125235
40
0.566223292775767
40
0.604061601377055
40
0.653181615147406
40
0.702335527599752
40
0.751505593287599
40
0.800647648075386
40
0.86708941952921
40
0.933549566641457
40
1
40
1
40
1
40
1
41
1
10
65.698333333828
20
0.097273516981133
30
0
41
1
10
65.6981710144738
20
0.0953286314115331
30
0
41
1
10
65.6979350538441
20
0.091466611589091
30
0
41
1
10
65.6978272977542
20
0.0857526618383346
30
0
41
1
10
65.698029391119
20
0.0801740496603571
30
0
41
1
10
65.69856533998
20
0.0749481022153446
30
0
41
1
10
65.6994523860166
20
0.0701194579238873
30
0
41
1
10
65.7006893212941
20
0.0657341738269892
30
0
41
1
10
65.7023416694955
20
0.0617000059821109
30
0
41
1
10
65.7044668098411
20
0.0581494804812408
30
0
41
1
10
65.7070316150164
20
0.0551506051234725
30
0
41
1
10
65.7098463917844
20
0.0528946325688011
30
0
41
1
10
65.7128098961291
20
0.0513408010004923
30
0
41
1
10
65.715805509448
20
0.0503314130144759
30
0
41
1
10
65.7191469257581
20
0.0497232603908486
30
0
41
1
10
65.7228234262552
20
0.0495758009073199
30
0
41
1
10
65.726809665908
20
0.0499067529634303
30
0
41
1
10
65.7308647751407
20
0.0506588802616221
30
0
41
1
10
65.7356752821611
20
0.0519683210544741
30
0
41
1
10
65.7412369524502
20
0.0539792606931044
30
0
41
1
10
65.7475299086786
20
0.056825102194594
30
0
41
1
10
65.7538069779523
20
0.0601562306565953
30
0
41
1
10
65.7600433545358
20
0.06387934934925
30
0
41
1
10
65.7668439790915
20
0.0683095643101197
30
0
41
1
10
65.7741929237595
20
0.0734821744292233
30
0
41
1
10
65.7820697387204
20
0.0794613646253524
30
0
41
1
10
65.7898645504216
20
0.0857579572726692
30
0
41
1
10
65.7984848411385
20
0.0930880454225331
30
0
41
1
10
65.8079041860994
20
0.10150733342423
30
0
41
1
10
65.8180866728272
20
0.111086042320594
30
0
41
1
10
65.8247955197613
20
0.117663134953915
30
0
41
1
10
65.8281290198327
20
0.121003185807851
30
0
0
SPLINE
5
144
100
AcDbEntity
8
1
62
256
6
ByLayer
370
18
48
1
60
0
100
AcDbSpline
70
4
71
3
72
26
73
22
40
0
40
0
40
0
40
0
40
0.0413037723571767
40
0.0826256089148604
40
0.123960828470467
40
0.165296343587692
40
0.206611593607472
40
0.258171578617491
40
0.309743169912547
40
0.361317539065945
40
0.412881312880153
40
0.466624104530969
40
0.520375474886116
40
0.574127808310223
40
0.627871913442266
40
0.689786878004104
40
0.751707532871259
40
0.813622561984106
40
0.875746707113747
40
0.937876620178026
40
1
40
1
40
1
40
1
41
1
10
66.1377337446445
20
0.430607910619614
30
0
41
1
10
66.141793674461
20
0.434673563872607
30
0
41
1
10
66.1498573017492
20
0.442932076440542
30
0
41
1
10
66.1617777991828
20
0.455719399591999
30
0
41
1
10
66.1735332226763
20
0.468844894269068
30
0
41
1
10
66.1851284689221
20
0.482268622499575
30
0
41
1
10
66.197520331645
20
0.497078233976779
30
0
41
1
10
66.2106771406127
20
0.513315757221804
30
0
41
1
10
66.2245557179358
20
0.531036870813232
30
0
41
1
10
66.2382298166179
20
0.549058304104108
30
0
41
1
10
66.2518961118926
20
0.567609289113435
30
0
41
1
10
66.2655536167073
20
0.586678990683396
30
0
41
1
10
66.2791940501314
20
0.606268191892241
30
0
41
1
10
66.2926315868114
20
0.626100308718698
30
0
41
1
10
66.3065383386033
20
0.647177386318646
30
0
41
1
10
66.3208796388054
20
0.669528541996748
30
0
41
1
10
66.3356114504098
20
0.69318782988654
30
0
41
1
10
66.3500860751217
20
0.717144197640586
30
0
41
1
10
66.3642976041918
20
0.741389375174627
30
0
41
1
10
66.378234550729
20
0.765921972457669
30
0
41
1
10
66.3873205386082
20
0.782447767404641
30
0
41
1
10
66.3918129216219
20
0.790753104775071
30
0
0
SPLINE
5
145
100
AcDbEntity
8
1
62
256
6
ByLayer
370
18
48
1
60
0
100
AcDbSpline
70
4
71
3
72
22
73
18
40
0
40
0
40
0
40
0
40
0.066626168426018
40
0.133253277801706
40
0.19988072642288
40
0.266507884266632
40
0.333134093343854
40
0.399759926812783
40
0.466386632296412
40
0.533013653078587
40
0.599640405198328
40
0.666266277781928
40
0.733012460794878
40
0.799759454145963
40
0.866506741265169
40
0.93325377941416
40
1
40
1
40
1
40
1
41
1
10
66.3918129216219
20
0.790753104775078
30
0
41
1
10
66.4136173767532
20
0.831076288077384
30
0
41
1
10
66.4570610095367
20
0.911793515781604
30
0
41
1
10
66.5217288234488
20
1.03308253532527
30
0
41
1
10
66.5859024634197
20
1.15457941491884
30
0
41
1
10
66.6495835282762
20
1.2762795904855
30
0
41
1
10
66.7127743372125
20
1.39817874289989
30
0
41
1
10
66.7754777364499
20
1.52027389111764
30
0
41
1
10
66.8376967516041
20
1.64256208953944
30
0
41
1
10
66.8994340292829
20
1.76503976099093
30
0
41
1
10
66.9606916653039
20
1.88770223793808
30
0
41
1
10
67.02150879511
20
2.01061973125191
30
0
41
1
10
67.081887418171
20
2.13378978686053
30
0
41
1
10
67.141829633133
20
2.25721004670968
30
0
41
1
10
67.2013019056017
20
2.38080279579942
30
0
41
1
10
67.2603062389404
20
2.50456400324301
30
0
41
1
10
67.2993331175673
20
2.58718075778078
30
0
41
1
10
67.3187689190159
20
2.62851652590202
30
0
0
SPLINE
5
146
100
AcDbEntity
8
1
62
256
6
ByLayer
370
18
48
1
60
0
100
AcDbSpline
70
4
71
3
72
27
73
23
40
0
40
0
40
0
40
0
40
0.0670055616534624
40
0.134031035482076
40
0.201056661843111
40
0.268062431557025
40
0.321675342883947
40
0.375306512387661
40
0.428941619222238
40
0.48256866461488
40
0.536178115853362
40
0.582956595928424
40
0.629766879215681
40
0.676586065019968
40
0.723396673507117
40
0.770187156847153
40
0.816952428912053
40
0.855939444863597
40
0.894987047441213
40
0.934045100918581
40
0.973078310707619
40
1
40
1
40
1
40
1
41
1
10
67.3187689190159
20
2.62851652590203
30
0
41
1
10
67.3227128578663
20
2.63690355225782
30
0
41
1
10
67.3307049415811
20
2.65358484101338
30
0
41
1
10
67.3430070101723
20
2.67832850138127
30
0
41
1
10
67.3556099478549
20
2.70277372837684
30
0
41
1
10
67.3676460989437
20
2.72529804264366
30
0
41
1
10
67.3790448743984
20
2.74596076119208
30
0
41
1
10
67.3897529447562
20
2.76481611946876
30
0
41
1
10
67.4006479385333
20
2.78343535780029
30
0
41
1
10
67.411728782975
20
2.80179811416527
30
0
41
1
10
67.422518533279
20
2.81911729580563
30
0
41
1
10
67.4329911409321
20
2.83542359055956
30
0
41
1
10
67.4431291042068
20
2.85073755184001
30
0
41
1
10
67.4534257126633
20
2.86578707618125
30
0
41
1
10
67.463883400504
20
2.88053773162009
30
0
41
1
10
67.4745043853646
20
2.89495554854069
30
0
41
1
10
67.4846961070129
20
2.90822712015128
30
0
41
1
10
67.4944309689203
20
2.92040571033475
30
0
41
1
10
67.5036920482422
20
2.93152084716148
30
0
41
1
10
67.5130970070382
20
2.94226583814316
30
0
41
1
10
67.5216567929487
20
2.95152688848516
30
0
41
1
10
67.5271106166877
20
2.95707866733449
30
0
41
1
10
67.5293491313326
20
2.9593048870573
30
0
0
SPLINE
5
147
100
AcDbEntity
8
1
62
256
6
ByLayer
370
18
48
1
60
0
100
AcDbSpline
70
4
71
3
72
11
73
7
40
0
40
0
40
0
40
0
40
0.249998546865872
40
0.499997103610211
40
0.749998547678361
40
1
40
1
40
1
40
1
41
1
10
67.6648173449595
20
2.06375752811203
30
0
41
1
10
67.6627580561788
20
2.13738627704448
30
0
41
1
10
67.6585095494455
20
2.28462141398286
30
0
41
1
10
67.6517404136227
20
2.50540703742833
30
0
41
1
10
67.6445945838801
20
2.72612810755501
30
0
41
1
10
67.6395911995053
20
2.87323398217416
30
0
41
1
10
67.6370286678373
20
2.94677627472348
30
0
0
SPLINE
5
148
100
AcDbEntity
8
1
62
256
6
ByLayer
370
18
48
1
60
0
100
AcDbSpline
70
4
71
3
72
32
73
28
40
0
40
0
40
0
40
0
40
0.0634399937808602
40
0.126900660383639
40
0.190322652478011
40
0.23909344474569
40
0.287928798075465
40
0.336729212919243
40
0.385452292454899
40
0.417910895569113
40
0.450422370281078
40
0.482911235391859
40
0.515338953054625
40
0.548149165897139
40
0.581087841410279
40
0.61398197542016
40
0.646731196576761
40
0.680448448356674
40
0.714272226700555
40
0.747985334760576
40
0.781600419044212
40
0.815317717894674
40
0.848963685325269
40
0.886628081717265
40
0.924418973031972
40
0.96226296687197
40
1
40
1
40
1
40
1
41
1
10
67.7611580253792
20
2.05403219135436
30
0
41
1
10
67.7587059098698
20
2.05157253055741
30
0
41
1
10
67.7537658040493
20
2.04678906342907
30
0
41
1
10
67.7462519887779
20
2.03999279002882
30
0
41
1
10
67.7392193342717
20
2.03415792412547
30
0
41
1
10
67.7326987488923
20
2.02921260741812
30
0
41
1
10
67.7267141708764
20
2.02509544994143
30
0
41
1
10
67.7206829040771
20
2.0214300534338
30
0
41
1
10
67.7152953813356
20
2.01864146218918
30
0
41
1
10
67.7105760936309
20
2.01660059812838
30
0
41
1
10
67.7065351518581
20
2.01516512061186
30
0
41
1
10
67.7025140107147
20
2.01408615261312
30
0
41
1
10
67.6985170572544
20
2.01340341996866
30
0
41
1
10
67.6945649377972
20
2.01318415580566
30
0
41
1
10
67.6906902131297
20
2.01348184094567
30
0
41
1
10
67.6869516766843
20
2.01433784286536
30
0
41
1
10
67.6833665641265
20
2.01581400400618
30
0
41
1
10
67.6800018408424
20
2.01799227311557
30
0
41
1
10
67.6769036382173
20
2.02085413454342
30
0
41
1
10
67.6741478701732
20
2.02434638892417
30
0
41
1
10
67.6717823854379
20
2.02844006840655
30
0
41
1
10
67.6697916563462
20
2.03302366336005
30
0
41
1
10
67.6681021357864
20
2.03822315344916
30
0
41
1
10
67.6667533171292
20
2.0440194027822
30
0
41
1
10
67.6657490140013
20
2.05036202311376
30
0
41
1
10
67.6651040108088
20
2.05696041944533
30
0
41
1
10
67.6648770149127
20
2.06147216046907
30
0
41
1
10
67.6648173449595
20
2.06375752811203
30
0
0
SPLINE
5
149
100
AcDbEntity
8
1
62
256
6
ByLayer
370
18
48
1
60
0
100
AcDbSpline
70
4
71
3
72
24
73
20
40
0
40
0
40
0
40
0
40
0.0686681501438173
40
0.137362263773589
40
0.206057246029935
40
0.274726581109661
40
0.34340467345119
40
0.412110777293248
40
0.480813132552706
40
0.549486111054839
40
0.607623432421423
40
0.66580834660235
40
0.723995832792476
40
0.782155000722837
40
0.840270711547679
40
0.880117297529752
40
0.919962744978416
40
0.959982471299729
40
1
40
1
40
1
40
1
41
1
10
68.1431922085683
20
2.54213239172138
30
0
41
1
10
68.1400494750559
20
2.53487648444941
30
0
41
1
10
68.1336556842197
20
2.52045599155181
30
0
41
1
10
68.1237381090732
20
2.49909986536168
30
0
41
1
10
68.1135084337764
20
2.47803834186203
30
0
41
1
10
68.1029757252086
20
2.45728525935964
30
0
41
1
10
68.0921481984532
20
2.43685098537949
30
0
41
1
10
68.0810230787194
20
2.41675924611226
30
0
41
1
10
68.0696010082075
20
2.39704249311279
30
0
41
1
10
68.0584808428959
20
2.37872302813927
30
0
41
1
10
68.0477140711532
20
2.36174970364846
30
0
41
1
10
68.0373370380165
20
2.34608643180521
30
0
41
1
10
68.0267272584185
20
2.33081660926975
30
0
41
1
10
68.0158822583457
20
2.31599891668489
30
0
41
1
10
68.0059587799019
20
2.30318557907088
30
0
41
1
10
67.9970334204592
20
2.29225353703596
30
0
41
1
10
67.9891550183958
20
2.28306719477759
30
0
41
1
10
67.9811380268459
20
2.27420930774603
30
0
41
1
10
67.9756962801553
20
2.26857746608746
30
0
41
1
10
67.9729534886862
20
2.26582765466141
30
0
0
SPLINE
5
14A
100
AcDbEntity
8
1
62
256
6
ByLayer
370
18
48
1
60
0
100
AcDbSpline
70
4
71
3
72
19
73
15
40
0
40
0
40
0
40
0
40
0.083308790128694
40
0.166618115923546
40
0.249927423291662
40
0.333236188292831
40
0.416545174773547
40
0.499854738238998
40
0.583164282056277
40
0.666473241743854
40
0.749854632382875
40
0.833236645636775
40
0.916618637935896
40
1
40
1
40
1
40
1
41
1
10
68.7726790371758
20
4.082426644062
30
0
41
1
10
68.7560968001868
20
4.03940704633715
30
0
41
1
10
68.7227858940093
20
3.95340583643683
30
0
41
1
10
68.6723821170927
20
3.824517415789
30
0
41
1
10
68.6215361437549
20
3.6957463234687
30
0
41
1
10
68.5702449435672
20
3.56709522070402
30
0
41
1
10
68.5185048397844
20
3.43856671115473
30
0
41
1
10
68.4663122550732
20
3.31016340420457
30
0
41
1
10
68.4136638690153
20
3.18188866681503
30
0
41
1
10
68.360540936993
20
3.05370866440363
30
0
41
1
10
68.3069394124211
20
2.92562623534684
30
0
41
1
10
68.2528551122495
20
2.79764444735093
30
0
41
1
10
68.1983005789035
20
2.66980355752992
30
0
41
1
10
68.1616142253098
20
2.58467335100463
30
0
41
1
10
68.1431922085683
20
2.54213239172139
30
0
0
SPLINE
5
14B
100
AcDbEntity
8
1
62
256
6
ByLayer
370
18
48
1
60
0
100
AcDbSpline
70
4
71
3
72
33
73
29
40
0
40
0
40
0
40
0
40
0.0391223622133688
40
0.0783217471846426
40
0.117492781546508
40
0.156576402551473
40
0.18845337800925
40
0.220464878271333
40
0.252497629843575
40
0.284462072351403
40
0.316299417953955
40
0.352950312607314
40
0.389766339521498
40
0.426591789484937
40
0.46325559102464
40
0.495952428498324
40
0.528733849719753
40
0.561534925185835
40
0.594258630250998
40
0.638152469109676
40
0.682170716416514
40
0.726282215195497
40
0.770395631172505
40
0.814369528666659
40
0.863003939383215
40
0.911687046757256
40
0.960386484272293
40
1
40
1
40
1
40
1
41
1
10
69.0167091532122
20
4.32645676009835
30
0
41
1
10
69.0165253712877
20
4.32891721780806
30
0
41
1
10
69.0160703059225
20
4.33377495570262
30
0
41
1
10
69.0151362494455
20
4.34087917651151
30
0
41
1
10
69.013920140558
20
4.34773420720962
30
0
41
1
10
69.012497615796
20
4.35388368836418
30
0
41
1
10
69.0109029993003
20
4.35933263592274
30
0
41
1
10
69.0091902810364
20
4.36411992690056
30
0
41
1
10
69.0072490810924
20
4.36858927337443
30
0
41
1
10
69.0050819822712
20
4.37268580910548
30
0
41
1
10
69.0025687028378
20
4.37654738815908
30
0
41
1
10
68.9996580582193
20
4.38003496411332
30
0
41
1
10
68.9963421451839
20
4.38304994264669
30
0
41
1
10
68.9927946098004
20
4.38542173126818
30
0
41
1
10
68.9891851218726
20
4.38706499320789
30
0
41
1
10
68.985565389309
20
4.3880514340549
30
0
41
1
10
68.9819817869946
20
4.38851019881012
30
0
41
1
10
68.9783201901238
20
4.38850732813489
30
0
41
1
10
68.9741819932135
20
4.38802084068525
30
0
41
1
10
68.9695633995168
20
4.38690469494405
30
0
41
1
10
68.9644757902761
20
4.38504469776484
30
0
41
1
10
68.959371985933
20
4.38261278490931
30
0
41
1
10
68.9542812725779
20
4.37968173893695
30
0
41
1
10
68.9490419215152
20
4.37619515148025
30
0
41
1
10
68.9436649741757
20
4.37215747505659
30
0
41
1
10
68.9381581215238
20
4.36756824640356
30
0
41
1
10
68.933043513382
20
4.36291243095324
30
0
41
1
10
68.9297788056406
20
4.35973770286324
30
0
41
1
10
68.9283207665298
20
4.35827652526756
30
0
0
SPLINE
5
14C
100
AcDbEntity
8
1
62
256
6
ByLayer
370
18
48
1
60
0
100
AcDbSpline
70
4
71
2
72
6
73
3
40
0
40
0
40
0
40
1
40
1
40
1
41
1
10
69.0167091532122
20
4.32645676009837
30
0
41
1
10
69.0488128780223
20
3.90279871559797
30
0
41
1
10
69.0800040710805
20
3.47894425423359
30
0
0
SPLINE
5
14D
100
AcDbEntity
8
1
62
256
6
ByLayer
370
18
48
1
60
0
100
AcDbSpline
70
4
71
3
72
31
73
27
40
0
40
0
40
0
40
0
40
0.0387562707940303
40
0.07758852231419
40
0.11639256545354
40
0.15511028969194
40
0.194658259786462
40
0.234369236057531
40
0.274039797757671
40
0.313532419350137
40
0.349847404247765
40
0.386325074478384
40
0.422812744852998
40
0.459141426694657
40
0.491640607514895
40
0.524223118518146
40
0.556825264408749
40
0.589351285732645
40
0.633345724426077
40
0.677464525119186
40
0.721677035689779
40
0.765891873030148
40
0.809967100013136
40
0.873279693727487
40
0.936657670078349
40
1
40
1
40
1
40
1
41
1
10
69.0800040710805
20
3.47894425423359
30
0
41
1
10
69.080160098957
20
3.47679171938614
30
0
41
1
10
69.0805492105742
20
3.47254136692558
30
0
41
1
10
69.081354154161
20
3.46632375251178
30
0
41
1
10
69.0824079146208
20
3.46032232113624
30
0
41
1
10
69.0837352291652
20
3.45454328037172
30
0
41
1
10
69.0853750758666
20
3.44905605368232
30
0
41
1
10
69.0873428121113
20
3.44392885591243
30
0
41
1
10
69.0896250464329
20
3.43927074683778
30
0
41
1
10
69.092152612624
20
3.43527539006532
30
0
41
1
10
69.0949025968186
20
3.43197855337449
30
0
41
1
10
69.0978149449301
20
3.42932557405406
30
0
41
1
10
69.1009311024297
20
3.42723261864451
30
0
41
1
10
69.104104743897
20
3.42577303794057
30
0
41
1
10
69.1072904994964
20
3.42488559427248
30
0
41
1
10
69.1104476668753
20
3.42445923658716
30
0
41
1
10
69.1136730704773
20
3.42443607355345
30
0
41
1
10
69.1173298446165
20
3.42483349557633
30
0
41
1
10
69.1214212163634
20
3.42578388881625
30
0
41
1
10
69.125936565981
20
3.42739231193656
30
0
41
1
10
69.1304642870209
20
3.42950755874128
30
0
41
1
10
69.134978102355
20
3.43206497275391
30
0
41
1
10
69.1401143584189
20
3.43543725247708
30
0
41
1
10
69.1458492662775
20
3.43977091309542
30
0
41
1
10
69.1521471463742
20
3.4452020963714
30
0
41
1
10
69.1562841602969
20
3.44914976429196
30
0
41
1
10
69.1583369831306
20
3.45121114910573
30
0
0
SPLINE
5
14E
100
AcDbEntity
8
1
62
256
6
ByLayer
370
18
48
1
60
0
100
AcDbSpline
70
4
71
3
72
25
73
21
40
0
40
0
40
0
40
0
40
0.044601430958853
40
0.0892510146940773
40
0.1339180505408
40
0.178543303820839
40
0.224298854958845
40
0.270078931228569
40
0.315865106620691
40
0.361628978999427
40
0.424614609648804
40
0.487651118902903
40
0.55071409372863
40
0.613768341836693
40
0.676768862587506
40
0.741385832307081
40
0.806045945979004
40
0.870721032274581
40
0.935382170447077
40
1
40
1
40
1
40
1
41
1
10
69.3203674710389
20
3.61324163701409
30
0
41
1
10
69.322712945396
20
3.61559486558366
30
0
41
1
10
69.3273621245507
20
3.62047745851598
30
0
41
1
10
69.3342060879114
20
3.62835781802478
30
0
41
1
10
69.3409160286659
20
3.6366953191766
30
0
41
1
10
69.347548357617
20
3.64550517658807
30
0
41
1
10
69.3541042757408
20
3.65474284612618
30
0
41
1
10
69.3605821315684
20
3.66438984785754
30
0
41
1
10
69.3669287856664
20
3.67433456962716
30
0
41
1
10
69.3739258906441
20
3.68582629516399
30
0
41
1
10
69.3815204076053
20
3.69895705290045
30
0
41
1
10
69.389646185758
20
3.71382092282461
30
0
41
1
10
69.3975430251623
20
3.72906419126628
30
0
41
1
10
69.4052092283773
20
3.74464400474258
30
0
41
1
10
69.4127112077248
20
3.76066209958034
30
0
41
1
10
69.4200473877913
20
3.77710432046558
30
0
41
1
10
69.4272083301666
20
3.79396905996536
30
0
41
1
10
69.4341272185072
20
3.81109952999668
30
0
41
1
10
69.4407966435364
20
3.82847364957421
30
0
41
1
10
69.4450719637273
20
3.84020467211415
30
0
41
1
10
69.4471668115161
20
3.84610699466922
30
0
0
SPLINE
5
14F
100
AcDbEntity
8
1
62
256
6
ByLayer
370
18
48
1
60
0
100
AcDbSpline
70
4
71
3
72
17
73
13
40
0
40
0
40
0
40
0
40
0.099984300706523
40
0.199969534408379
40
0.299955115323485
40
0.399940417596414
40
0.499924775814688
40
0.599939231561699
40
0.699954526999974
40
0.799970135019512
40
0.899985492346166
40
1
40
1
40
1
40
1
41
1
10
69.4471668115161
20
3.84610699466922
30
0
41
1
10
69.4633544364704
20
3.89171839355304
30
0
41
1
10
69.4955726369578
20
3.98297599877271
30
0
41
1
10
69.5434264502873
20
4.11996724181709
30
0
41
1
10
69.5908128411247
20
4.25705945431075
30
0
41
1
10
69.6377354062626
20
4.39424931032669
30
0
41
1
10
69.684203233423
20
4.53154763288327
30
0
41
1
10
69.7302206809472
20
4.66895232516652
30
0
41
1
10
69.7757919670194
20
4.80646143583215
30
0
41
1
10
69.820916762683
20
4.94405848212655
30
0
41
1
10
69.8655985917125
20
5.08174047138196
30
0
41
1
10
69.8950951059528
20
5.1735828936233
30
0
41
1
10
69.9097701477765
20
5.21951775466265
30
0
0
SPLINE
5
150
100
AcDbEntity
8
1
62
256
6
ByLayer
370
18
48
1
60
0
100
AcDbSpline
70
4
71
3
72
26
73
22
40
0
40
0
40
0
40
0
40
0.0679374129289707
40
0.135911601291896
40
0.203884525105497
40
0.271820212709627
40
0.327221474866601
40
0.382661821143385
40
0.438109706109891
40
0.493539464708235
40
0.54893184074807
40
0.602015800264798
40
0.655163825299445
40
0.708316284954938
40
0.761431473662243
40
0.814487861153318
40
0.858620597513735
40
0.902771798504783
40
0.946893679845967
40
0.980856771176575
40
1
40
1
40
1
40
1
41
1
10
69.9097701477765
20
5.21951775466268
30
0
41
1
10
69.9118548725635
20
5.22604333612097
30
0
41
1
10
69.9161158983761
20
5.23900617034754
30
0
41
1
10
69.9227820899068
20
5.25818681182831
30
0
41
1
10
69.9297143802473
20
5.27707066480223
30
0
41
1
10
69.9364647455238
20
5.29449141548073
30
0
41
1
10
69.9429763364995
20
5.31049717246515
30
0
41
1
10
69.9492045226961
20
5.32513684483973
30
0
41
1
10
69.9556069014954
20
5.33950788399218
30
0
41
1
10
69.9621815603182
20
5.35357939211534
30
0
41
1
10
69.9688353448243
20
5.36713278763722
30
0
41
1
10
69.9755619894799
20
5.38016513891573
30
0
41
1
10
69.9823604989476
20
5.39265656653482
30
0
41
1
10
69.9893309684906
20
5.40474211997655
30
0
41
1
10
69.9964713716616
20
5.41635977759864
30
0
41
1
10
70.0033724252477
20
5.42683125410171
30
0
41
1
10
70.0100032100983
20
5.43620154751425
30
0
41
1
10
70.0163386865386
20
5.44451145722532
30
0
41
1
10
70.0223009839742
20
5.45168778818644
30
0
41
1
10
70.0271196714661
20
5.45700338186456
30
0
41
1
10
70.0297791202114
20
5.45973394279337
30
0
41
1
10
70.0307413830411
20
5.46069713917483
30
0
0
SPLINE
5
151
100
AcDbEntity
8
1
62
256
6
ByLayer
370
18
48
1
60
0
100
AcDbSpline
70
4
71
1
72
4
73
2
40
0
40
0
40
1
40
1
41
1
10
70.183626475867
20
4.58256665902015
30
0
41
1
10
70.1053463791102
20
5.41509398599635
30
0
0
SPLINE
5
152
100
AcDbEntity
8
1
62
256
6
ByLayer
370
18
48
1
60
0
100
AcDbSpline
70
4
71
3
72
31
73
27
40
0
40
0
40
0
40
0
40
0.048054652876172
40
0.0962201891174624
40
0.144389045829392
40
0.19248881030218
40
0.240488178422618
40
0.287826997545665
40
0.335311599703284
40
0.382747747798133
40
0.430020277122272
40
0.468845846094819
40
0.507805595128706
40
0.546750544291413
40
0.585555860438559
40
0.624401697788225
40
0.66338659628126
40
0.702387256461751
40
0.74125466233602
40
0.780189429605194
40
0.819244172247678
40
0.858372635477172
40
0.897489288237749
40
0.936476146561239
40
0.968237507399495
40
1
40
1
40
1
40
1
41
1
10
70.2493004634007
20
4.54217462937589
30
0
41
1
10
70.2479628757727
20
4.54083330728927
30
0
41
1
10
70.2452698593406
20
4.53826514918453
30
0
41
1
10
70.2411817925145
20
4.53474565361665
30
0
41
1
10
70.2370531785649
20
4.53161686358106
30
0
41
1
10
70.2328982741769
20
4.52892707621918
30
0
41
1
10
70.2287485820011
20
4.52673492480243
30
0
41
1
10
70.2246142616602
20
4.52509370567932
30
0
41
1
10
70.2205151915736
20
4.52405134298834
30
0
41
1
10
70.216463762724
20
4.52365733593759
30
0
41
1
10
70.2127329729329
20
4.52395589639725
30
0
41
1
10
70.2093396231096
20
4.52487133108844
30
0
41
1
10
70.206278996772
20
4.52626442755186
30
0
41
1
10
70.2033483890906
20
4.52819585988721
30
0
41
1
10
70.2005763063855
20
4.53067173238782
30
0
41
1
10
70.1979908050344
20
4.5337058471867
30
0
41
1
10
70.1955985927879
20
4.5372489725946
30
0
41
1
10
70.1934119004471
20
4.5412519933733
30
0
41
1
10
70.1914423073813
20
4.54567709260845
30
0
41
1
10
70.1896973255391
20
4.55049274550203
30
0
41
1
10
70.188163268945
20
4.55564599341135
30
0
41
1
10
70.1868336578103
20
4.56108752806019
30
0
41
1
10
70.1857016414933
20
4.5667637808401
30
0
41
1
10
70.1848172989797
20
4.5722736544558
30
0
41
1
10
70.1841345303233
20
4.57755184473422
30
0
41
1
10
70.1837834283549
20
4.58088397893476
30
0
41
1
10
70.183626475867
20
4.58256665902015
30
0
0
SPLINE
5
153
100
AcDbEntity
8
1
62
256
6
ByLayer
370
18
48
1
60
0
100
AcDbSpline
70
4
71
3
72
25
73
21
40
0
40
0
40
0
40
0
40
0.0703646991320142
40
0.140774586425561
40
0.211183018445129
40
0.281545731830666
40
0.339136509935091
40
0.396775858834641
40
0.454424466470114
40
0.512050423989292
40
0.569629961349864
40
0.622486817297417
40
0.675382614101721
40
0.728267587680806
40
0.78110967325892
40
0.82485762741264
40
0.86868496513954
40
0.912513909352799
40
0.956292772310311
40
1
40
1
40
1
40
1
41
1
10
70.4771981304164
20
4.87613831356958
30
0
41
1
10
70.4755051095923
20
4.87035333512878
30
0
41
1
10
70.4720298213045
20
4.85886855849306
30
0
41
1
10
70.4665495458101
20
4.84189563190494
30
0
41
1
10
70.4608091158015
20
4.82521141421587
30
0
41
1
10
70.4551759809493
20
4.80983207200973
30
0
41
1
10
70.449704230098
20
4.79571267299547
30
0
41
1
10
70.4444371304003
20
4.78280660360053
30
0
41
1
10
70.4389970076054
20
4.7701677109653
30
0
41
1
10
70.4333856217669
20
4.75782824487406
30
0
41
1
10
70.4277606836995
20
4.74614460807116
30
0
41
1
10
70.4221364045117
20
4.73510965702199
30
0
41
1
10
70.4165229286758
20
4.72472537311382
30
0
41
1
10
70.4107561444589
20
4.71471628096315
30
0
41
1
10
70.4051751808813
20
4.7056800609701
30
0
41
1
10
70.3998076236646
20
4.69756981606462
30
0
41
1
10
70.3946764572211
20
4.69034308221148
30
0
41
1
10
70.3894351080618
20
4.68353202602083
30
0
41
1
10
70.3840904929427
20
4.67719452907903
30
0
41
1
10
70.3804631917122
20
4.67334406619205
30
0
41
1
10
70.3786339704977
20
4.67150813647286
30
0
0
SPLINE
5
154
100
AcDbEntity
8
1
62
256
6
ByLayer
370
18
48
1
60
0
100
AcDbSpline
70
4
71
3
72
15
73
11
40
0
40
0
40
0
40
0
40
0.124988019727269
40
0.249976734233678
40
0.374965415980309
40
0.499953391034907
40
0.624964679831859
40
0.749976738647141
40
0.874988760968207
40
1
40
1
40
1
40
1
41
1
10
70.8288829243114
20
6.13863053119759
30
0
41
1
10
70.8149218097457
20
6.08593715098785
30
0
41
1
10
70.786830023499
20
5.98057229323313
30
0
41
1
10
70.7441866860704
20
5.82259025535124
30
0
41
1
10
70.7010292767428
20
5.66467723462381
30
0
41
1
10
70.6573497228665
20
5.50682612903273
30
0
41
1
10
70.6131416376977
20
5.34903941800559
30
0
41
1
10
70.5683983363232
20
5.19131977379565
30
0
41
1
10
70.5231169624205
20
5.03367996324732
30
0
41
1
10
70.4925648152175
20
4.92864290565415
30
0
41
1
10
70.4771981304164
20
4.87613831356958
30
0
0
SPLINE
5
155
100
AcDbEntity
8
1
62
256
6
ByLayer
370
18
48
1
60
0
100
AcDbSpline
70
4
71
3
72
31
73
27
40
0
40
0
40
0
40
0
40
0.0418509702571974
40
0.0838019086694366
40
0.125762404183144
40
0.167666864126102
40
0.209478762733958
40
0.252050360988778
40
0.294817062958815
40
0.337617285852486
40
0.380320728027506
40
0.422839032586043
40
0.460345170371106
40
0.498007818841077
40
0.535729807204652
40
0.573403868615724
40
0.610919618713603
40
0.653083237336767
40
0.695360804398519
40
0.737661735759503
40
0.779857297621756
40
0.82400151245275
40
0.868255985925036
40
0.912601947653693
40
0.95698833177957
40
1
40
1
40
1
40
1
41
1
10
70.9885681488618
20
6.29831575574804
30
0
41
1
10
70.9883221782487
20
6.3007707492173
30
0
41
1
10
70.9877729668374
20
6.305625169787
30
0
41
1
10
70.9867825181752
20
6.31273972288929
30
0
41
1
10
70.9856128363566
20
6.31964422319666
30
0
41
1
10
70.9842565378482
20
6.32629335156309
30
0
41
1
10
70.9826966058847
20
6.33268477686416
30
0
41
1
10
70.980910352279
20
6.33876455286914
30
0
41
1
10
70.978890016235
20
6.34448249432666
30
0
41
1
10
70.9766513203245
20
6.34975432181956
30
0
41
1
10
70.9742024155879
20
6.35450955168733
30
0
41
1
10
70.9716515108952
20
6.35852316313105
30
0
41
1
10
70.9690253978173
20
6.36181197054506
30
0
41
1
10
70.9663645650419
20
6.36446184864189
30
0
41
1
10
70.963575974862
20
6.36660812417025
30
0
41
1
10
70.9606835534305
20
6.36823939804865
30
0
41
1
10
70.9575807366724
20
6.36938831869148
30
0
41
1
10
70.9542682154194
20
6.36997342769105
30
0
41
1
10
70.9507585186836
20
6.36996794449671
30
0
41
1
10
70.9472022184719
20
6.36938419547977
30
0
41
1
10
70.9435662135441
20
6.36823815018417
30
0
41
1
10
70.9398635607827
20
6.36653421334817
30
0
41
1
10
70.9361037452081
20
6.36429573175522
30
0
41
1
10
70.9323530846634
20
6.36159030442676
30
0
41
1
10
70.9286620757521
20
6.35848993028098
30
0
41
1
10
70.9262355506796
20
6.35619321925569
30
0
41
1
10
70.925046227276
20
6.3550019869226
30
0
0
SPLINE
5
156
100
AcDbEntity
8
1
62
256
6
ByLayer
370
18
48
1
60
0
100
AcDbSpline
70
4
71
1
72
4
73
2
40
0
40
0
40
1
40
1
41
1
10
70.9885681488619
20
6.29831575574804
30
0
41
1
10
71.0718819520026
20
5.47082213515571
30
0
0
SPLINE
5
157
100
AcDbEntity
8
1
62
256
6
ByLayer
370
18
48
1
60
0
100
AcDbSpline
70
4
71
3
72
28
73
24
40
0
40
0
40
0
40
0
40
0.0524584669507038
40
0.10503624534241
40
0.157573609121797
40
0.209976832033833
40
0.252690110048784
40
0.29559896909632
40
0.338542021410309
40
0.381388608136358
40
0.424049424457435
40
0.471106167505601
40
0.518369573476716
40
0.565643545427843
40
0.612714759300509
40
0.655226222908207
40
0.697852046503927
40
0.740501374512978
40
0.783044972530348
40
0.837193950106235
40
0.89147436585682
40
0.945795445189323
40
1
40
1
40
1
40
1
41
1
10
71.0718819520026
20
5.47082213515572
30
0
41
1
10
71.0721528883344
20
5.46810928394831
30
0
41
1
10
71.0727751032206
20
5.46276660847889
30
0
41
1
10
71.0739405401554
20
5.45499336493208
30
0
41
1
10
71.075360089873
20
5.4475432031857
30
0
41
1
10
71.0769417725622
20
5.44091718822139
30
0
41
1
10
71.0786518088964
20
5.43510613892905
30
0
41
1
10
71.0804393447117
20
5.43005561005961
30
0
41
1
10
71.0824192266356
20
5.42539976519771
30
0
41
1
10
71.0845838287786
20
5.42120041594315
30
0
41
1
10
71.0870094018812
20
5.41738493361656
30
0
41
1
10
71.089720067801
20
5.41408174503761
30
0
41
1
10
71.092707446082
20
5.41136265540684
30
0
41
1
10
71.0958503964969
20
5.40934196602333
30
0
41
1
10
71.0990128862557
20
5.40808193686343
30
0
41
1
10
71.1021575693466
20
5.40751311149086
30
0
41
1
10
71.1052535664396
20
5.40750709024974
30
0
41
1
10
71.1083875814239
20
5.40801398298584
30
0
41
1
10
71.1118263521352
20
5.40909408311836
30
0
41
1
10
71.1155606691698
20
5.41087502158981
30
0
41
1
10
71.1195712162124
20
5.41344448704267
30
0
41
1
10
71.1235519625418
20
5.41660236639968
30
0
41
1
10
71.1261733240709
20
5.41904258953966
30
0
41
1
10
71.1274755194233
20
5.42034968539851
30
0
0
SPLINE
5
158
100
AcDbEntity
8
1
62
256
6
ByLayer
370
18
48
1
60
0
100
AcDbSpline
70
4
71
3
72
26
73
22
40
0
40
0
40
0
40
0
40
0.0385565456335216
40
0.0771626152149088
40
0.115782486065641
40
0.154357874549091
40
0.207484417675796
40
0.260651785792157
40
0.313791982419117
40
0.372639292422533
40
0.43154325504208
40
0.490460013651496
40
0.549324788835577
40
0.609734126151536
40
0.670183604340457
40
0.73063808193719
40
0.791054241054393
40
0.843204823629037
40
0.895355596477879
40
0.947677772234533
40
1
40
1
40
1
40
1
41
1
10
71.2324650422119
20
5.52533920818714
30
0
41
1
10
71.2337665047483
20
5.52664541391649
30
0
41
1
10
71.2363502837611
20
5.52940371379643
30
0
41
1
10
71.2401671628687
20
5.53399742742154
30
0
41
1
10
71.2439172190948
20
5.53898169129874
30
0
41
1
10
71.2480590424
20
5.54498868951029
30
0
41
1
10
71.2525577850164
20
5.55213573094355
30
0
41
1
10
71.2573705017131
20
5.56052672287242
30
0
41
1
10
71.2622124428042
20
5.56969698911866
30
0
41
1
10
71.2670686965214
20
5.57964293915514
30
0
41
1
10
71.271921951629
20
5.59036694611503
30
0
41
1
10
71.276609903682
20
5.60148618546235
30
0
41
1
10
71.2811733769921
20
5.61305390217948
30
0
41
1
10
71.2856112332025
20
5.62504433386842
30
0
41
1
10
71.289919731565
20
5.63744230206854
30
0
41
1
10
71.2940603288039
20
5.65011514587824
30
0
41
1
10
71.2978518707272
20
5.66244618081396
30
0
41
1
10
71.3013201037401
20
5.67437807270389
30
0
41
1
10
71.3044922404038
20
5.68588209077559
30
0
41
1
10
71.3075412200682
20
5.69754712228509
30
0
41
1
10
71.3094898861765
20
5.70542219444653
30
0
41
1
10
71.3104427970291
20
5.70938298018221
30
0
0
SPLINE
5
159
100
AcDbEntity
8
1
62
256
6
ByLayer
370
18
48
1
60
0
100
AcDbSpline
70
4
71
3
72
14
73
10
40
0
40
0
40
0
40
0
40
0.124991812352006
40
0.249984142995058
40
0.374976497021849
40
0.499968341260913
40
0.666645355677589
40
0.833322943344418
40
1
40
1
40
1
40
1
41
1
10
71.3104427970291
20
5.70938298018221
30
0
41
1
10
71.3222760077161
20
5.75856666571429
30
0
41
1
10
71.3458033169855
20
5.85694783699324
30
0
41
1
10
71.3806745705092
20
6.00456129899762
30
0
41
1
10
71.4151328459103
20
6.15221395262633
30
0
41
1
10
71.4529675829324
20
6.31632244997444
30
0
41
1
10
71.4940120683993
20
6.4969006757719
30
0
41
1
10
71.5380815303228
20
6.69396253815342
30
0
41
1
10
71.5669994209811
20
6.82537432069699
30
0
41
1
10
71.5813420547005
20
6.89108966158663
30
0
0
SPLINE
5
15A
100
AcDbEntity
8
1
62
256
6
ByLayer
370
18
48
1
60
0
100
AcDbSpline
70
4
71
3
72
28
73
24
40
0
40
0
40
0
40
0
40
0.0576434457896765
40
0.115334306644699
40
0.173037908391
40
0.230722803630645
40
0.288361241926805
40
0.347864982013694
40
0.407444608523973
40
0.467035889738405
40
0.526589056622697
40
0.58607057724888
40
0.629432430293987
40
0.672876860397839
40
0.716345522842708
40
0.759793015153585
40
0.803188548238531
40
0.846517747276725
40
0.882857009400176
40
0.919313095927711
40
0.955801332844349
40
0.992256510541192
40
1
40
1
40
1
40
1
41
1
10
71.5813420547005
20
6.89108966158663
30
0
41
1
10
71.5823772335099
20
6.89583330639903
30
0
41
1
10
71.5845001240958
20
6.90526160333755
30
0
41
1
10
71.587840925952
20
6.91922626971788
30
0
41
1
10
71.5913364781067
20
6.93298924544457
30
0
41
1
10
71.5949838028668
20
6.94652613958046
30
0
41
1
10
71.5988223363486
20
6.95995873496308
30
0
41
1
10
71.6028583096167
20
6.97326380010914
30
0
41
1
10
71.6071005931457
20
6.98640409982955
30
0
41
1
10
71.6115078964234
20
6.99919985595545
30
0
41
1
10
71.6160778513102
20
7.01160029795149
30
0
41
1
10
71.620383291019
20
7.02248079933556
30
0
41
1
10
71.6243781939132
20
7.03193990846501
30
0
41
1
10
71.6280249713334
20
7.04008000917282
30
0
41
1
10
71.6317643410166
20
7.04791038003501
30
0
41
1
10
71.635592731981
20
7.0553884600675
30
0
41
1
10
71.6395066197386
20
7.06247107806174
30
0
41
1
10
71.6432893646992
20
7.06876272046495
30
0
41
1
10
71.6469278906795
20
7.07430729642464
30
0
41
1
10
71.6504096768555
20
7.07915110129352
30
0
41
1
10
71.6539488353884
20
7.08358897765883
30
0
41
1
10
71.6565954723903
20
7.08652313349454
30
0
41
1
10
71.6580549991359
20
7.08800990361864
30
0
41
1
10
71.6583110357949
20
7.08826679398591
30
0
0
SPLINE
5
15B
100
AcDbEntity
8
1
62
256
6
ByLayer
370
18
48
1
60
0
100
AcDbSpline
70
4
71
1
72
4
73
2
40
0
40
0
40
1
40
1
41
1
10
71.7948088671942
20
6.19374905034732
30
0
41
1
10
71.7123278825527
20
7.0220754894389
30
0
0
SPLINE
5
15C
100
AcDbEntity
8
1
62
256
6
ByLayer
370
18
48
1
60
0
100
AcDbSpline
70
4
71
3
72
28
73
24
40
0
40
0
40
0
40
0
40
0.0532451984862295
40
0.106623457847048
40
0.159963302157196
40
0.213155978566855
40
0.256375230511595
40
0.299781977204486
40
0.343230315378392
40
0.386594473686035
40
0.429777854094208
40
0.478355662239488
40
0.527125706031224
40
0.575910453560991
40
0.624508390467918
40
0.670814284670918
40
0.717241510031573
40
0.763693860380649
40
0.810034102259581
40
0.857475944539275
40
0.904994787763205
40
0.952532452388734
40
1
40
1
40
1
40
1
41
1
10
71.8417638562053
20
6.13463802218041
30
0
41
1
10
71.8406670758133
20
6.13353744480428
30
0
41
1
10
71.8384609446544
20
6.13152515528534
30
0
41
1
10
71.8351152169368
20
6.12905716123881
30
0
41
1
10
71.8317538693145
20
6.12721532242949
30
0
41
1
10
71.8286056723826
20
6.12612600076812
30
0
41
1
10
71.8256859223751
20
6.12571647937267
30
0
41
1
10
71.8230002996205
20
6.12585834001854
30
0
41
1
10
71.820357208318
20
6.12653039337123
30
0
41
1
10
71.8177806401398
20
6.12774634585374
30
0
41
1
10
71.8151864482216
20
6.12959643691774
30
0
41
1
10
71.8126067697397
20
6.13219287722151
30
0
41
1
10
71.8100710583452
20
6.13557221320532
30
0
41
1
10
71.8076963255654
20
6.13958459316404
30
0
41
1
10
71.805536499851
20
6.14411747180064
30
0
41
1
10
71.8035949729164
20
6.14910498926782
30
0
41
1
10
71.8018545489904
20
6.15445222439417
30
0
41
1
10
71.8002841525944
20
6.16018419408388
30
0
41
1
10
71.7988722621192
20
6.16629763630515
30
0
41
1
10
71.7976200918236
20
6.17276097201441
30
0
41
1
10
71.7965211878548
20
6.17953802146595
30
0
41
1
10
71.7955792808627
20
6.18653995007507
30
0
41
1
10
71.7950489141066
20
6.19132578929737
30
0
41
1
10
71.7948088671942
20
6.19374905034732
30
0
0
SPLINE
5
15D
100
AcDbEntity
8
1
62
256
6
ByLayer
370
18
48
1
60
0
100
AcDbSpline
70
4
71
3
72
26
73
22
40
0
40
0
40
0
40
0
40
0.069418385187674
40
0.138894320983783
40
0.208365561373678
40
0.277777538347238
40
0.335062384787066
40
0.392417079551467
40
0.449783723114793
40
0.507116437858222
40
0.564382827527187
40
0.614843611726143
40
0.66532500759759
40
0.715778493470458
40
0.767305989859118
40
0.818866201501411
40
0.870377823882291
40
0.902655409558201
40
0.93493183370036
40
0.96746672124677
40
1
40
1
40
1
40
1
41
1
10
71.9890620909857
20
6.38800227413886
30
0
41
1
10
71.9881010610603
20
6.38308760389121
30
0
41
1
10
71.9861132982589
20
6.37333741154335
30
0
41
1
10
71.9829360165436
20
6.35894713045215
30
0
41
1
10
71.9795648844806
20
6.34483338252487
30
0
41
1
10
71.976208789722
20
6.33183184748365
30
0
41
1
10
71.9729048713068
20
6.31990675567486
30
0
41
1
10
71.969684563902
20
6.30901663118362
30
0
41
1
10
71.9663290719236
20
6.29840609056947
30
0
41
1
10
71.9628397724349
20
6.28811422791057
30
0
41
1
10
71.9593598323601
20
6.278568462168
30
0
41
1
10
71.9559061053554
20
6.26975273104323
30
0
41
1
10
71.9524933839096
20
6.26165079005779
30
0
41
1
10
71.9489477800414
20
6.25386678332019
30
0
41
1
10
71.9452667140922
20
6.2464531077343
30
0
41
1
10
71.9414487267045
20
6.23947884408337
30
0
41
1
10
71.9380105017226
20
6.23385976274557
30
0
41
1
10
71.9349993925607
20
6.22942770856614
30
0
41
1
10
71.9324418036242
20
6.22599176720981
30
0
41
1
10
71.9298407059072
20
6.22284114862759
30
0
41
1
10
71.9280809135458
20
6.22095774814531
30
0
41
1
10
71.9271954600213
20
6.22006962599652
30
0
0
SPLINE
5
15E
100
AcDbEntity
8
1
62
256
6
ByLayer
370
18
48
1
60
0
100
AcDbSpline
70
4
71
3
72
13
73
9
40
0
40
0
40
0
40
0
40
0.166659547741856
40
0.333319457245375
40
0.499978977163021
40
0.666652529084657
40
0.833326479068975
40
1
40
1
40
1
40
1
41
1
10
72.1976405515026
20
7.50738815838883
30
0
41
1
10
72.1866099933657
20
7.44517936871252
30
0
41
1
10
72.1643660489205
20
7.32076876034869
30
0
41
1
10
72.1304556312251
20
7.13417331491569
30
0
41
1
10
72.0959880389533
20
6.94759581949822
30
0
41
1
10
72.0609554130757
20
6.76103823479468
30
0
41
1
10
72.0253494753287
20
6.57450260315833
30
0
41
1
10
72.0012223829043
20
6.45016573850381
30
0
41
1
10
71.9890620909857
20
6.38800227413886
30
0
0
SPLINE
5
15F
100
AcDbEntity
8
1
62
256
6
ByLayer
370
18
48
1
60
0
100
AcDbSpline
70
4
71
3
72
29
73
25
40
0
40
0
40
0
40
0
40
0.0513526040109111
40
0.102841569296679
40
0.15434442820405
40
0.205771545630417
40
0.257072144405529
40
0.300261560263661
40
0.343596270334637
40
0.386956606325782
40
0.430246059568339
40
0.473397393491534
40
0.516843790503293
40
0.560481543932876
40
0.60418056914422
40
0.647810766239599
40
0.691250797852203
40
0.739113591380791
40
0.787126060887317
40
0.835161054044098
40
0.883054655001951
40
0.935294583898581
40
0.987695556224732
40
1
40
1
40
1
40
1
41
1
10
72.3044460278987
20
7.61419363478493
30
0
41
1
10
72.3041700656988
20
7.61715785524859
30
0
41
1
10
72.3035650726188
20
7.62301438294822
30
0
41
1
10
72.302503065624
20
7.63158237188656
30
0
41
1
10
72.3012764057724
20
7.63987756584232
30
0
41
1
10
72.2998799747548
20
7.64784085227863
30
0
41
1
10
72.2983900793593
20
7.65501847118058
30
0
41
1
10
72.2968282467688
20
7.66142818019387
30
0
41
1
10
72.2952227462258
20
7.66711432719578
30
0
41
1
10
72.2934840041357
20
7.67241571850928
30
0
41
1
10
72.2916164740517
20
7.67727790549486
30
0
41
1
10
72.2896183368732
20
7.68166571338913
30
0
41
1
10
72.2874849033637
20
7.68551943440094
30
0
41
1
10
72.2852253202331
20
7.68882194300558
30
0
41
1
10
72.2828592385981
20
7.69154965924602
30
0
41
1
10
72.2804060284234
20
7.6936759018461
30
0
41
1
10
72.2777934556732
20
7.69522513440872
30
0
41
1
10
72.2750233468768
20
7.69610033670163
30
0
41
1
10
72.2721086143021
20
7.69627257060847
30
0
41
1
10
72.2691593528298
20
7.69574571666283
30
0
41
1
10
72.2661065357758
20
7.69450911113169
30
0
41
1
10
72.2629627677741
20
7.69252629568404
30
0
41
1
10
72.2605653489521
20
7.69046997239987
30
0
41
1
10
72.2592460750203
20
7.68919858085773
30
0
41
1
10
72.2589954157963
20
7.68895117367841
30
0
0
SPLINE
5
160
100
AcDbEntity
8
1
62
256
6
ByLayer
370
18
48
1
60
0
100
AcDbSpline
70
4
71
1
72
4
73
2
40
0
40
0
40
1
40
1
41
1
10
72.3044460278987
20
7.61419363478493
30
0
41
1
10
72.3821221103452
20
6.78106229349837
30
0
0
SPLINE
5
161
100
AcDbEntity
8
1
62
256
6
ByLayer
370
18
48
1
60
0
100
AcDbSpline
70
4
71
3
72
28
73
24
40
0
40
0
40
0
40
0
40
0.0517942260672874
40
0.103726841685633
40
0.155673725142633
40
0.207543891744791
40
0.259285606228348
40
0.30284945361383
40
0.346559890877695
40
0.390296549068188
40
0.433962032729016
40
0.477488053254235
40
0.521304715779411
40
0.565313106681366
40
0.609383177759918
40
0.653384565053923
40
0.697195327954682
40
0.745616888346256
40
0.79418983930467
40
0.842785284978115
40
0.891237613235511
40
0.945615412809512
40
1
40
1
40
1
40
1
41
1
10
72.3821221103452
20
6.78106229349838
30
0
41
1
10
72.3823662575754
20
6.77842688164108
30
0
41
1
10
72.3829013516267
20
6.7732202355646
30
0
41
1
10
72.3838403909635
20
6.76560379325645
30
0
41
1
10
72.3849243314922
20
6.75823081661794
30
0
41
1
10
72.3861573895373
20
6.75115405888937
30
0
41
1
10
72.3874719572143
20
6.74477674131622
30
0
41
1
10
72.3888489115286
20
6.73908300854286
30
0
41
1
10
72.3902630366171
20
6.73403300363737
30
0
41
1
10
72.3917928256412
20
6.72932573281052
30
0
41
1
10
72.3934338781895
20
6.72500933355044
30
0
41
1
10
72.3951872847973
20
6.72111509940261
30
0
41
1
10
72.397056452471
20
6.71769549253717
30
0
41
1
10
72.3990328391073
20
6.71476517062061
30
0
41
1
10
72.4010990389625
20
6.71234467949609
30
0
41
1
10
72.4032377697775
20
6.71045735310711
30
0
41
1
10
72.405513974239
20
6.70907953602779
30
0
41
1
10
72.4079253160658
20
6.70829940527805
30
0
41
1
10
72.4104600542251
20
6.70814528538025
30
0
41
1
10
72.4130198323247
20
6.70861535792469
30
0
41
1
10
72.4156907107126
20
6.70972864139797
30
0
41
1
10
72.4184591287096
20
6.71154730806195
30
0
41
1
10
72.4203564981364
20
6.71322614344403
30
0
41
1
10
72.4213019888842
20
6.71417615485935
30
0
0
SPLINE
5
162
100
AcDbEntity
8
1
62
256
6
ByLayer
370
18
48
1
60
0
100
AcDbSpline
70
4
71
3
72
26
73
22
40
0
40
0
40
0
40
0
40
0.0443326812998323
40
0.0887211730373385
40
0.133070227576349
40
0.178949173651651
40
0.224867580852565
40
0.270757733027398
40
0.31706476785049
40
0.36341766196557
40
0.409780028927915
40
0.456099993578761
40
0.519542340846487
40
0.583027227098108
40
0.64647973319343
40
0.70500878791498
40
0.763561821599917
40
0.822094522947771
40
0.881388960656232
40
0.940703804009748
40
1
40
1
40
1
40
1
41
1
10
72.4901780349664
20
6.78305220094156
30
0
41
1
10
72.4911403892798
20
6.78402060885837
30
0
41
1
10
72.4930499833562
20
6.78615439169683
30
0
41
1
10
72.4958691627368
20
6.78997022996934
30
0
41
1
10
72.4986633446498
20
6.79436852654858
30
0
41
1
10
72.5014246494352
20
6.79932381447722
30
0
41
1
10
72.5041462427048
20
6.8047994569239
30
0
41
1
10
72.5068023285935
20
6.81071121302033
30
0
41
1
10
72.5093906379986
20
6.81702075598165
30
0
41
1
10
72.5119100696798
20
6.82369684820747
30
0
41
1
10
72.5143516685159
20
6.83068584034014
30
0
41
1
10
72.5170059428027
20
6.83885085872745
30
0
41
1
10
72.5198375927119
20
6.84828995057006
30
0
41
1
10
72.52280524019
20
6.85908666426626
30
0
41
1
10
72.5255577701881
20
6.86997096897351
30
0
41
1
10
72.5281092133096
20
6.88086946192674
30
0
41
1
10
72.5304725130554
20
6.89172737647275
30
0
41
1
10
72.5327278444518
20
6.90286500910464
30
0
41
1
10
72.5348741963609
20
6.91426230587307
30
0
41
1
10
72.5369098193608
20
6.92590419476681
30
0
41
1
10
72.5381868887112
20
6.93377901108138
30
0
41
1
10
72.5388053137021
20
6.93774549685526
30
0
0
SPLINE
5
163
100
AcDbEntity
8
1
62
256
6
ByLayer
370
18
48
1
60
0
100
AcDbSpline
70
4
71
3
72
13
73
9
40
0
40
0
40
0
40
0
40
0.166661617296802
40
0.333323529256958
40
0.499985167290288
40
0.666656682522076
40
0.833328466119308
40
1
40
1
40
1
40
1
41
1
10
72.5388053137021
20
6.93774549685526
30
0
41
1
10
72.5480707330894
20
6.9971502755897
30
0
41
1
10
72.5664474159825
20
7.11596153180879
30
0
41
1
10
72.5935466807158
20
7.29418375069087
30
0
41
1
10
72.6201904268667
20
7.47241308195315
30
0
41
1
10
72.6463850799116
20
7.65064839882893
30
0
41
1
10
72.6721367302792
20
7.82888861579203
30
0
41
1
10
72.6890149354008
20
7.94771535427869
30
0
41
1
10
72.697381130559
20
8.00712873744521
30
0
0
SPLINE
5
164
100
AcDbEntity
8
1
62
256
6
ByLayer
370
18
48
1
60
0
100
AcDbSpline
70
4
71
3
72
27
73
23
40
0
40
0
40
0
40
0
40
0.0633031817516702
40
0.126656597458663
40
0.190004723179249
40
0.253300685478671
40
0.30548822630565
40
0.357737782799681
40
0.409998341319397
40
0.462229147947971
40
0.514400944844318
40
0.560645730728375
40
0.607003506535449
40
0.653396065181477
40
0.699761498386887
40
0.746056606011068
40
0.792259520380573
40
0.836031412555026
40
0.87994440287278
40
0.923872364119695
40
0.96772225425069
40
1
40
1
40
1
40
1
41
1
10
72.697381130559
20
8.00712873744521
30
0
41
1
10
72.6980393750748
20
8.01180549322377
30
0
41
1
10
72.699401793135
20
8.02108584154942
30
0
41
1
10
72.7015820310774
20
8.03478971127233
30
0
41
1
10
72.7038982991671
20
8.04823698345754
30
0
41
1
10
72.7062065614485
20
8.06062720669961
30
0
41
1
10
72.7084809269938
20
8.07199235145971
30
0
41
1
10
72.7106988227212
20
8.08237164627602
30
0
41
1
10
72.7130113160307
20
8.09249005075201
30
0
41
1
10
72.7154172271999
20
8.10231169397576
30
0
41
1
10
72.7178219337753
20
8.11144625766637
30
0
41
1
10
72.7202155441878
20
8.11991289542208
30
0
41
1
10
72.7225886765309
20
8.12773088563637
30
0
41
1
10
72.7250390366076
20
8.13521150610747
30
0
41
1
10
72.7275630288174
20
8.14230735313635
30
0
41
1
10
72.7301571239331
20
8.14897031561657
30
0
41
1
10
72.7327725941437
20
8.15505032342707
30
0
41
1
10
72.7354066990667
20
8.16053073488325
30
0
41
1
10
72.7380536398546
20
8.16539772675005
30
0
41
1
10
72.7407535215429
20
8.16969618471818
30
0
41
1
10
72.7432560329526
20
8.17304466259005
30
0
41
1
10
72.7448587427145
20
8.17481018029432
30
0
41
1
10
72.7455415805337
20
8.17549733866917
30
0
0
SPLINE
5
165
100
AcDbEntity
8
1
62
256
6
ByLayer
370
18
48
1
60
0
100
AcDbSpline
70
4
71
2
72
6
73
3
40
0
40
0
40
0
40
1
40
1
40
1
41
1
10
72.8528718916619
20
7.25181207481504
30
0
41
1
10
72.8181571892687
20
7.67233291410699
30
0
41
1
10
72.7830094585011
20
8.09275706538725
30
0
0
SPLINE
5
166
100
AcDbEntity
8
1
62
256
6
ByLayer
370
18
48
1
60
0
100
AcDbSpline
70
4
71
3
72
27
73
23
40
0
40
0
40
0
40
0
40
0.0523540730095836
40
0.104869956945876
40
0.157358301763362
40
0.209674701685252
40
0.251961335142545
40
0.294408374245541
40
0.336909327401105
40
0.379355196139172
40
0.421640844278745
40
0.471734371756178
40
0.521982215129311
40
0.572252705832984
40
0.622377208574096
40
0.676911374560327
40
0.731615060222849
40
0.78641832752084
40
0.84120099748877
40
0.895801621776819
40
0.947899524010962
40
1
40
1
40
1
40
1
41
1
10
72.8847994714544
20
7.17767363742963
30
0
41
1
10
72.8840518221801
20
7.17692464409559
30
0
41
1
10
72.8825507937696
20
7.17564395966909
30
0
41
1
10
72.8802820567128
20
7.17436793932056
30
0
41
1
10
72.8780158772352
20
7.17378186137864
30
0
41
1
10
72.8759117079547
20
7.17391315876984
30
0
41
1
10
72.8739792547194
20
7.17465278441821
30
0
41
1
10
72.8722172572459
20
7.17584066965742
30
0
41
1
10
72.8704936013233
20
7.17751876331003
30
0
41
1
10
72.8688212118632
20
7.1796751701341
30
0
41
1
10
72.8671110315913
20
7.18246648393768
30
0
41
1
10
72.865385157594
20
7.18599724298875
30
0
41
1
10
72.8636641976116
20
7.1903157353837
30
0
41
1
10
72.8620500398201
20
7.19517327647637
30
0
41
1
10
72.860505943337
20
7.20067649155477
30
0
41
1
10
72.8590478780004
20
7.20683700504195
30
0
41
1
10
72.8576835067746
20
7.21363518396539
30
0
41
1
10
72.8564509063955
20
7.22083917003517
30
0
41
1
10
72.8553490710898
20
7.2283787734498
30
0
41
1
10
72.8543901536939
20
7.23608317780074
30
0
41
1
10
72.8535636628198
20
7.24390055323303
30
0
41
1
10
72.8530906390853
20
7.24915265564525
30
0
41
1
10
72.8528718916619
20
7.25181207481504
30
0
0
SPLINE
5
167
100
AcDbEntity
8
1
62
256
6
ByLayer
370
18
48
1
60
0
100
AcDbSpline
70
4
71
3
72
27
73
23
40
0
40
0
40
0
40
0
40
0.0612089722996065
40
0.122465923312058
40
0.183717829296401
40
0.244919916516039
40
0.307972387699494
40
0.371096444866114
40
0.434206222850557
40
0.497239199506105
40
0.543551513765976
40
0.589882652697853
40
0.636189638207726
40
0.683411701386205
40
0.730661455449978
40
0.777873857662641
40
0.814434298748763
40
0.85101356955305
40
0.887568650457919
40
0.925039051967628
40
0.962537542354899
40
1
40
1
40
1
40
1
41
1
10
72.9764512979057
20
7.37539148105883
30
0
41
1
10
72.9759815517029
20
7.37149045932821
30
0
41
1
10
72.9750067740149
20
7.36374936833607
30
0
41
1
10
72.973439925393
20
7.35231823450096
30
0
41
1
10
72.9717677560944
20
7.34110056513982
30
0
41
1
10
72.9699721776616
20
7.33001139459378
30
0
41
1
10
72.9680479218788
20
7.31908331348979
30
0
41
1
10
72.9659890912752
20
7.30835941336353
30
0
41
1
10
72.9638137950679
20
7.297993135793
30
0
41
1
10
72.9617241333036
20
7.28891400408136
30
0
41
1
10
72.9597531101682
20
7.28104367696447
30
0
41
1
10
72.9579291306173
20
7.27428959424437
30
0
41
1
10
72.9560279828422
20
7.26779153935291
30
0
41
1
10
72.9540481463687
20
7.26158764870679
30
0
41
1
10
72.951989027536
20
7.25572323071076
30
0
41
1
10
72.9500244925868
20
7.25068911060168
30
0
41
1
10
72.9481726527167
20
7.24641825367835
30
0
41
1
10
72.9464487220834
20
7.24282944053249
30
0
41
1
10
72.9446763286021
20
7.23954234552593
30
0
41
1
10
72.9428571889287
20
7.23659725503636
30
0
41
1
10
72.9409941949498
20
7.23402957713771
30
0
41
1
10
72.9397375169548
20
7.23261486028477
30
0
41
1
10
72.9391054412355
20
7.23197960721069
30
0
0
SPLINE
5
168
100
AcDbEntity
8
1
62
256
6
ByLayer
370
18
48
1
60
0
100
AcDbSpline
70
4
71
3
72
13
73
9
40
0
40
0
40
0
40
0
40
0.166663274663073
40
0.33332672234509
40
0.499989984415984
40
0.666659931133777
40
0.833330067271027
40
1
40
1
40
1
40
1
41
1
10
73.0937601230677
20
8.40350772995381
30
0
41
1
10
73.0875997715402
20
8.34640240833266
30
0
41
1
10
73.0751618701674
20
8.23218782145209
30
0
41
1
10
73.0561558625896
20
8.06085406495711
30
0
41
1
10
73.0367931874401
20
7.88950688302608
30
0
41
1
10
73.0170689877766
20
7.718146830232
30
0
41
1
10
72.9969781372842
20
7.54677447898528
30
0
41
1
10
72.9833348537707
20
7.43252016763515
30
0
41
1
10
72.9764512979057
20
7.37539148105883
30
0
0
SPLINE
5
169
100
AcDbEntity
8
1
62
256
6
ByLayer
370
18
48
1
60
0
100
AcDbSpline
70
4
71
3
72
29
73
25
40
0
40
0
40
0
40
0
40
0.0501764632483238
40
0.100494749764774
40
0.150858605651004
40
0.201190614206192
40
0.251435309768347
40
0.301562585579434
40
0.349098266937446
40
0.396790482584506
40
0.444508652297237
40
0.492148951594879
40
0.539640950529559
40
0.587520846528859
40
0.635623778069764
40
0.683790031180095
40
0.731868566038874
40
0.7797279057897
40
0.820942835584198
40
0.862288889716683
40
0.903691498706022
40
0.94506042490646
40
0.986294599585741
40
1
40
1
40
1
40
1
41
1
10
73.1602677282707
20
8.4700153351569
30
0
41
1
10
73.1600611794005
20
8.47293903841062
30
0
41
1
10
73.1596187535014
20
8.47872918357006
30
0
41
1
10
73.1588694953414
20
8.48723694906945
30
0
41
1
10
73.1580301583906
20
8.49553018831436
30
0
41
1
10
73.1570990158741
20
8.50356588659321
30
0
41
1
10
73.1560738468161
20
8.51129704262348
30
0
41
1
10
73.1549714206499
20
8.51855809895737
30
0
41
1
10
73.153792020725
20
8.52533027011498
30
0
41
1
10
73.1525401527799
20
8.53160306904137
30
0
41
1
10
73.1511963858932
20
8.53745405243629
30
0
41
1
10
73.1497641493844
20
8.54282260260559
30
0
41
1
10
73.1482415250533
20
8.5476718363707
30
0
41
1
10
73.1466248395749
20
8.55193259047
30
0
41
1
10
73.1449199957197
20
8.55557747243359
30
0
41
1
10
73.1431421317926
20
8.55857204213701
30
0
41
1
10
73.1413058297458
20
8.56087813688886
30
0
41
1
10
73.1395083202161
20
8.56238617512312
30
0
41
1
10
73.1377644542653
20
8.56318045991659
30
0
41
1
10
73.1360858334513
20
8.56340149679298
30
0
41
1
10
73.1343918593285
20
8.56310364710536
30
0
41
1
10
73.1326934763074
20
8.56230310991069
30
0
41
1
10
73.1313747497222
20
8.56129653758875
30
0
41
1
10
73.1306249532785
20
8.56058113789967
30
0
41
1
10
73.130437997914
20
8.56039375662479
30
0
0
SPLINE
5
16A
100
AcDbEntity
8
1
62
256
6
ByLayer
370
18
48
1
60
0
100
AcDbSpline
70
4
71
2
72
6
73
3
40
0
40
0
40
0
40
1
40
1
40
1
41
1
10
73.1602677282707
20
8.4700153351569
30
0
41
1
10
73.1904078050145
20
8.04445909235285
30
0
41
1
10
73.2198064522872
20
7.61874663544039
30
0
0
SPLINE
5
16B
100
AcDbEntity
8
1
62
256
6
ByLayer
370
18
48
1
60
0
100
AcDbSpline
70
4
71
3
72
26
73
22
40
0
40
0
40
0
40
0
40
0.0609799708690302
40
0.122138731643203
40
0.183316444373002
40
0.244395383430533
40
0.305308217626539
40
0.353377817358283
40
0.401605688869018
40
0.449860105055514
40
0.498036068696011
40
0.546061993115738
40
0.594476286300732
40
0.643115560405537
40
0.691818558548676
40
0.740432945553227
40
0.788826269513106
40
0.841514744649828
40
0.894389240658922
40
0.947283914482619
40
1
40
1
40
1
40
1
41
1
10
73.2198064522873
20
7.61874663544038
30
0
41
1
10
73.2200225654058
20
7.61560666586402
30
0
41
1
10
73.2204914554577
20
7.60940512476387
30
0
41
1
10
73.2213017595811
20
7.60034002709084
30
0
41
1
10
73.2222245704118
20
7.5915752635719
30
0
41
1
10
73.2232621246057
20
7.58317819067767
30
0
41
1
10
73.2243366841464
20
7.57577076642816
30
0
41
1
10
73.2254256554796
20
7.56930746085183
30
0
41
1
10
73.2265041985329
20
7.56371083415257
30
0
41
1
10
73.2276593404887
20
7.55849130433674
30
0
41
1
10
73.2288875870683
20
7.55370273416385
30
0
41
1
10
73.2301900429844
20
7.5493779984911
30
0
41
1
10
73.231569043276
20
7.54557833013914
30
0
41
1
10
73.2330189880413
20
7.5423279742494
30
0
41
1
10
73.2345266480312
20
7.53965768990124
30
0
41
1
10
73.2360792105085
20
7.53760151448606
30
0
41
1
10
73.2377143727382
20
7.53615062667978
30
0
41
1
10
73.2394284787086
20
7.53540574305398
30
0
41
1
10
73.241211152148
20
7.53539462087855
30
0
41
1
10
73.2430010438935
20
7.53611352272122
30
0
41
1
10
73.2441874335242
20
7.5370616198305
30
0
41
1
10
73.2447789530455
20
7.53765311902072
30
0
0
SPLINE
5
16C
100
AcDbEntity
8
1
62
256
6
ByLayer
370
18
48
1
60
0
100
AcDbSpline
70
4
71
3
72
26
73
22
40
0
40
0
40
0
40
0
40
0.0407899412378834
40
0.0816280602350318
40
0.122427629684653
40
0.164697739977805
40
0.20700762957624
40
0.249286843221081
40
0.300848332693552
40
0.352460916899861
40
0.404035850653821
40
0.457057510227432
40
0.510116802737914
40
0.563147369821402
40
0.617000469440242
40
0.670903629673976
40
0.724814706148909
40
0.778678610386262
40
0.852432777303159
40
0.926237490189342
40
1
40
1
40
1
40
1
41
1
10
73.2858609645383
20
7.57873513051351
30
0
41
1
10
73.2863727599074
20
7.57925045255647
30
0
41
1
10
73.2873902958639
20
7.58045117222724
30
0
41
1
10
73.2888989916297
20
7.58277673767362
30
0
41
1
10
73.2904005183388
20
7.58561278243553
30
0
41
1
10
73.2918895028989
20
7.58895259606258
30
0
41
1
10
73.2933611195045
20
7.59277207171875
30
0
41
1
10
73.2948999964002
20
7.59730579200204
30
0
41
1
10
73.2964932284415
20
7.60262365327181
30
0
41
1
10
73.2981264934638
20
7.6087753465952
30
0
41
1
10
73.2997114543481
20
7.61543216981623
30
0
41
1
10
73.3012451227203
20
7.62256137467996
30
0
41
1
10
73.3027254997589
20
7.63013143375765
30
0
41
1
10
73.3041461511232
20
7.63807872019481
30
0
41
1
10
73.3055066516226
20
7.64637451508739
30
0
41
1
10
73.3068067931044
20
7.6549945678446
30
0
41
1
10
73.3080400480739
20
7.66386582812068
30
0
41
1
10
73.3093505689656
20
7.67407902816485
30
0
41
1
10
73.3107088373293
20
7.68571027889259
30
0
41
1
10
73.312080904163
20
7.69882238631492
30
0
41
1
10
73.3129170039563
20
7.70774612141201
30
0
41
1
10
73.3133151340787
20
7.71225531723184
30
0
0
SPLINE
5
16D
100
AcDbEntity
8
1
62
256
6
ByLayer
370
18
48
1
60
0
100
AcDbSpline
70
4
71
3
72
11
73
7
40
0
40
0
40
0
40
0
40
0.249996457160472
40
0.499992927971239
40
0.749996457831891
40
1
40
1
40
1
40
1
41
1
10
73.3133151340787
20
7.71225531723184
30
0
41
1
10
73.320634760866
20
7.79505888025086
30
0
41
1
10
73.3350514309144
20
7.96065304888443
30
0
41
1
10
73.3560024811095
20
8.20900815188771
30
0
41
1
10
73.3762987567358
20
8.45732592189397
30
0
41
1
10
73.389405043364
20
8.62284553832851
30
0
41
1
10
73.3958510167407
20
8.7055986236269
30
0
0
SPLINE
5
16E
100
AcDbEntity
8
1
62
256
6
ByLayer
370
18
48
1
60
0
100
AcDbSpline
70
4
71
3
72
27
73
23
40
0
40
0
40
0
40
0
40
0.0652383946733501
40
0.130638065483636
40
0.196095139742708
40
0.261523020430143
40
0.326855242582583
40
0.392048568000753
40
0.441734265540953
40
0.491557262235946
40
0.541424335699118
40
0.591260555620651
40
0.641012259885579
40
0.69065030905269
40
0.736729147371955
40
0.782957081442031
40
0.829205779694865
40
0.875376635101879
40
0.92140745072077
40
0.95943544754613
40
0.997592327429511
40
1
40
1
40
1
40
1
41
1
10
73.3958510167407
20
8.7055986236269
30
0
41
1
10
73.3961969952794
20
8.71004337855066
30
0
41
1
10
73.3969197555533
20
8.71885909016977
30
0
41
1
10
73.398094402216
20
8.73185330959102
30
0
41
1
10
73.3993609918341
20
8.744572136565
30
0
41
1
10
73.4007187697901
20
8.75696147803029
30
0
41
1
10
73.4021670769596
20
8.76896243509903
30
0
41
1
10
73.4035843996745
20
8.77961160407756
30
0
41
1
10
73.4049488816303
20
8.78898594064044
30
0
41
1
10
73.4062411021227
20
8.79717593918827
30
0
41
1
10
73.4075892685098
20
8.8050279544273
30
0
41
1
10
73.4089912515697
20
8.81249128923375
30
0
41
1
10
73.4104449371538
20
8.81951463053323
30
0
41
1
10
73.411913273181
20
8.82589796323077
30
0
41
1
10
73.4133930789775
20
8.83163452964354
30
0
41
1
10
73.4148791977697
20
8.83672862964752
30
0
41
1
10
73.4164044664818
20
8.84127508769397
30
0
41
1
10
73.4179616025715
20
8.84521797356724
30
0
41
1
10
73.4194537827909
20
8.84828820557939
30
0
41
1
10
73.4208715486423
20
8.85063653565792
30
0
41
1
10
73.4217918865643
20
8.8516492268972
30
0
41
1
10
73.4222663130956
20
8.85221670479527
30
0
41
1
10
73.4222944752242
20
8.85225023481183
30
0
0
SPLINE
5
16F
100
AcDbEntity
8
1
62
256
6
ByLayer
370
18
48
1
60
0
100
AcDbSpline
70
4
71
2
72
6
73
3
40
0
40
0
40
0
40
1
40
1
40
1
41
1
10
73.491592100553
20
7.89053228370614
30
0
41
1
10
73.4686796817355
20
8.32257595861969
30
0
41
1
10
73.4446542379992
20
8.75440184488539
30
0
0
SPLINE
5
170
100
AcDbEntity
8
1
62
256
6
ByLayer
370
18
48
1
60
0
100
AcDbSpline
70
4
71
3
72
27
73
23
40
0
40
0
40
0
40
0
40
0.0427036315913673
40
0.0855595082902855
40
0.128460389533829
40
0.171303546444268
40
0.213996472038908
40
0.256919817261442
40
0.299986756155164
40
0.34311452513246
40
0.386204360631197
40
0.429146974497741
40
0.482804710109993
40
0.53660152201423
40
0.590425059292424
40
0.644119329693031
40
0.703228207264679
40
0.762513270821889
40
0.821933485091503
40
0.881405648559675
40
0.940810799077623
40
1
40
1
40
1
40
1
41
1
10
73.5097405678961
20
7.80261473387126
30
0
41
1
10
73.5093925483593
20
7.8022676085692
30
0
41
1
10
73.5086947664394
20
7.80173532252465
30
0
41
1
10
73.5076433349154
20
7.80142728823648
30
0
41
1
10
73.5065937738858
20
7.80161111439019
30
0
41
1
10
73.5055529956526
20
7.80229187530401
30
0
41
1
10
73.5045248884198
20
7.8034791020057
30
0
41
1
10
73.5035138274879
20
7.80518849100113
30
0
41
1
10
73.5025226578908
20
7.80739392955184
30
0
41
1
10
73.5015574216978
20
7.81006723406772
30
0
41
1
10
73.5006239389087
20
7.81317961729572
30
0
41
1
10
73.4996518592427
20
7.81700520687019
30
0
41
1
10
73.4986550937298
20
7.82165459465184
30
0
41
1
10
73.4976475212618
20
7.82719324085285
30
0
41
1
10
73.4967027663513
20
7.83322820549739
30
0
41
1
10
73.4957935323786
20
7.83992011191623
30
0
41
1
10
73.4949280442437
20
7.84727755976219
30
0
41
1
10
73.494111600333
20
7.85529273779231
30
0
41
1
10
73.4933697315832
20
7.86368174592084
30
0
41
1
10
73.4927014112357
20
7.87238247187239
30
0
41
1
10
73.4921058729561
20
7.88133762671928
30
0
41
1
10
73.4917553907579
20
7.88744543646905
30
0
41
1
10
73.491592100553
20
7.89053228370614
30
0
0
SPLINE
5
171
100
AcDbEntity
8
1
62
256
6
ByLayer
370
18
48
1
60
0
100
AcDbSpline
70
4
71
3
72
25
73
21
40
0
40
0
40
0
40
0
40
0.0665348053289725
40
0.133253511038215
40
0.200036318409057
40
0.266784017829262
40
0.333421599346732
40
0.399902183275319
40
0.458180383403303
40
0.516627698393519
40
0.575094322145945
40
0.633468840631344
40
0.691685814423925
40
0.737235158267764
40
0.782931479159575
40
0.828650901543431
40
0.874296056271853
40
0.919802351847693
40
0.959902183276168
40
1
40
1
40
1
40
1
41
1
10
73.5570820171721
20
7.95602220032525
30
0
41
1
10
73.5568503098307
20
7.952102297336
30
0
41
1
10
73.5563632631403
20
7.94433138210443
30
0
41
1
10
73.5555635878493
20
7.93288982490718
30
0
41
1
10
73.5546925551541
20
7.92170808881398
30
0
41
1
10
73.5537499686033
20
7.91083947406495
30
0
41
1
10
73.5527354255896
20
7.90034193922521
30
0
41
1
10
73.5516924883925
20
7.8906764569251
30
0
41
1
10
73.5506287351725
20
7.88182577032575
30
0
41
1
10
73.5495522084191
20
7.87376649732298
30
0
41
1
10
73.5484155573827
20
7.86615811310912
30
0
41
1
10
73.54722083277
20
7.85907517249651
30
0
41
1
10
73.5460597453118
20
7.85305328855578
30
0
41
1
10
73.5449455371666
20
7.848010603673
30
0
41
1
10
73.5438909045497
20
7.84383309527244
30
0
41
1
10
73.5428045065642
20
7.84013119153925
30
0
41
1
10
73.5416913720966
20
7.8369537692629
30
0
41
1
10
73.5406001970799
20
7.83445235874504
30
0
41
1
10
73.5395374150444
20
7.83258632828646
30
0
41
1
10
73.5388526299817
20
7.83172909175715
30
0
41
1
10
73.5385082395395
20
7.83138240551464
30
0
0
SPLINE
5
172
100
AcDbEntity
8
1
62
256
6
ByLayer
370
18
48
1
60
0
100
AcDbSpline
70
4
71
3
72
11
73
7
40
0
40
0
40
0
40
0
40
0.249997648594072
40
0.499995288931463
40
0.749997649039619
40
1
40
1
40
1
40
1
41
1
10
73.609863161274
20
8.91961076816018
30
0
41
1
10
73.6058124683914
20
8.83934371364885
30
0
41
1
10
73.5975386032163
20
8.67879397386184
30
0
41
1
10
73.5846150373764
20
8.43792090961223
30
0
41
1
10
73.5711644366956
20
8.19699951350069
30
0
41
1
10
73.5618358379818
20
8.03635315807477
30
0
41
1
10
73.5570820171721
20
7.95602220032526
30
0
0
SPLINE
5
173
100
AcDbEntity
8
1
62
256
6
ByLayer
370
18
48
1
60
0
100
AcDbSpline
70
4
71
3
72
28
73
24
40
0
40
0
40
0
40
0
40
0.0573437256041465
40
0.11486321421852
40
0.172439367798242
40
0.229976162081025
40
0.287404691224951
40
0.344687607168112
40
0.395464956591966
40
0.446404523579326
40
0.497368794099874
40
0.548250371124354
40
0.598978932760783
40
0.64194874691881
40
0.68506479874546
40
0.728216744446502
40
0.771306646431131
40
0.814254454861559
40
0.857318040018988
40
0.900540141757127
40
0.943821291483626
40
0.987053217608012
40
1
40
1
40
1
40
1
41
1
10
73.6419131496976
20
8.95166075658376
30
0
41
1
10
73.641781947564
20
8.95509368359177
30
0
41
1
10
73.6415023102596
20
8.96189222588496
30
0
41
1
10
73.6410326312649
20
8.97188035985189
30
0
41
1
10
73.6405101696319
20
8.98161319209002
30
0
41
1
10
73.6399340676954
20
8.99103700503433
30
0
41
1
10
73.639303199876
20
9.00009324025044
30
0
41
1
10
73.6386421140495
20
9.0084071218129
30
0
41
1
10
73.6379553067527
20
9.01598607280242
30
0
41
1
10
73.6372488776859
20
9.0228526221007
30
0
41
1
10
73.6364953483933
20
9.02926875633327
30
0
41
1
10
73.6356964558781
20
9.03516844178213
30
0
41
1
10
73.634896057812
20
9.04022355169551
30
0
41
1
10
73.6341013457855
20
9.04447624471556
30
0
41
1
10
73.6333207331325
20
9.04801085853605
30
0
41
1
10
73.632512228847
20
9.05104469286442
30
0
41
1
10
73.6316802718104
20
9.05354336076411
30
0
41
1
10
73.6308272720986
20
9.055478563786
30
0
41
1
10
73.6299549113004
20
9.0568120646663
30
0
41
1
10
73.6290667348942
20
9.05755290648267
30
0
41
1
10
73.6281684412396
20
9.05771122497494
30
0
41
1
10
73.6274759606866
20
9.05737834897977
30
0
41
1
10
73.6270848993638
20
9.05703749384512
30
0
41
1
10
73.6269947465274
20
9.05695050602701
30
0
0
SPLINE
5
174
100
AcDbEntity
8
1
62
256
6
ByLayer
370
18
48
1
60
0
100
AcDbSpline
70
4
71
3
72
11
73
7
40
0
40
0
40
0
40
0
40
0.24999962755804
40
0.499999253843646
40
0.749999627624987
40
1
40
1
40
1
40
1
41
1
10
73.6419131496976
20
8.95166075658376
30
0
41
1
10
73.6447174963522
20
8.87845961948
30
0
41
1
10
73.6502627559184
20
8.73204597721507
30
0
41
1
10
73.65839206258
20
8.51239142752519
30
0
41
1
10
73.6663276546493
20
8.2927020788235
30
0
41
1
10
73.6714852478573
20
8.14621881139002
30
0
41
1
10
73.6740311475951
20
8.07297133074827
30
0
0
SPLINE
5
175
100
AcDbEntity
8
1
62
256
6
ByLayer
370
18
48
1
60
0
100
AcDbSpline
70
4
71
3
72
27
73
23
40
0
40
0
40
0
40
0
40
0.0582209871287239
40
0.116622076661776
40
0.175081594148385
40
0.233501213628939
40
0.291810097387369
40
0.349969439886354
40
0.401391546953157
40
0.452977741109842
40
0.504589112899079
40
0.556117017281292
40
0.607490084473349
40
0.650972696389677
40
0.694603197524129
40
0.738269656113461
40
0.781873058481717
40
0.825332866202482
40
0.868943580681222
40
0.912664678531751
40
0.956387258858597
40
1
40
1
40
1
40
1
41
1
10
73.6740311475951
20
8.07297133074827
30
0
41
1
10
73.6741382674752
20
8.06988360174561
30
0
41
1
10
73.6743661645056
20
8.06376886211858
30
0
41
1
10
73.6747480096633
20
8.05478600803092
30
0
41
1
10
73.6751712183972
20
8.04603354726336
30
0
41
1
10
73.6756360206724
20
8.03756001529411
30
0
41
1
10
73.6761427826964
20
8.0294183039147
30
0
41
1
10
73.6766709921056
20
8.02195133101807
30
0
41
1
10
73.6772166809288
20
8.01515123451117
30
0
41
1
10
73.6777745956945
20
8.00899620484038
30
0
41
1
10
73.6783665270039
20
8.00324499141375
30
0
41
1
10
73.6789905239378
20
7.99795658441735
30
0
41
1
10
73.6796118382258
20
7.9934259846333
30
0
41
1
10
73.6802248919571
20
7.98961480228195
30
0
41
1
10
73.6808235243867
20
7.98644732441348
30
0
41
1
10
73.6814400550311
20
7.98372818780819
30
0
41
1
10
73.6820707766092
20
7.98148813862123
30
0
41
1
10
73.6827137180392
20
7.97975369455637
30
0
41
1
10
73.6833668428201
20
7.97855549565906
30
0
41
1
10
73.6840270948284
20
7.97788574949238
30
0
41
1
10
73.6846901751161
20
7.97774471748446
30
0
41
1
10
73.6851308100041
20
7.9780061058374
30
0
41
1
10
73.6853508006065
20
7.97822496658168
30
0
0
SPLINE
5
176
100
AcDbEntity
8
1
62
256
6
ByLayer
370
18
48
1
60
0
100
AcDbSpline
70
4
71
3
72
26
73
22
40
0
40
0
40
0
40
0
40
0.0466099387316803
40
0.093406611041024
40
0.140292566155822
40
0.187137700185592
40
0.233788450331581
40
0.280251269352914
40
0.326828721739892
40
0.373467415275526
40
0.420087199653217
40
0.466585613060842
40
0.525589209095703
40
0.584749728689278
40
0.644026718446097
40
0.703345818877535
40
0.762603662799941
40
0.821672331908128
40
0.881103005696693
40
0.940564258683367
40
1
40
1
40
1
40
1
41
1
10
73.7023917733133
20
7.99526593928851
30
0
41
1
10
73.7026207802199
20
7.99549986819683
30
0
41
1
10
73.7030765056195
20
7.99618633723255
30
0
41
1
10
73.7037529279424
20
7.99789327951134
30
0
41
1
10
73.7044175965156
20
8.00021976886249
30
0
41
1
10
73.7050661851733
20
8.00312893885446
30
0
41
1
10
73.7056945169884
20
8.00658564845437
30
0
41
1
10
73.7063009693536
20
8.01055970793998
30
0
41
1
10
73.7068860183307
20
8.01499817481301
30
0
41
1
10
73.7074494435603
20
8.01986731350682
30
0
41
1
10
73.7079897744418
20
8.02512045173824
30
0
41
1
10
73.7085525507978
20
8.03122439871623
30
0
41
1
10
73.7091303846549
20
8.03826472375761
30
0
41
1
10
73.7097157401932
20
8.04630680881458
30
0
41
1
10
73.7102652320745
20
8.05476642467786
30
0
41
1
10
73.7107788619895
20
8.06358555542803
30
0
41
1
10
73.7112566192184
20
8.07270657023321
30
0
41
1
10
73.7117001750075
20
8.08210945333687
30
0
41
1
10
73.7121104409355
20
8.0917669322867
30
0
41
1
10
73.7124884532589
20
8.10166117748969
30
0
41
1
10
73.712719094789
20
8.10837886766758
30
0
41
1
10
73.712828988666
20
8.1117691718192
30
0
0
SPLINE
5
177
100
AcDbEntity
8
1
62
256
6
ByLayer
370
18
48
1
60
0
100
AcDbSpline
70
4
71
3
72
11
73
7
40
0
40
0
40
0
40
0
40
0.249998382316818
40
0.499996770671808
40
0.749998382607667
40
1
40
1
40
1
40
1
41
1
10
73.712828988666
20
8.1117691718192
30
0
41
1
10
73.7153661608236
20
8.18995471862404
30
0
41
1
10
73.7202974170614
20
8.34630964718328
30
0
41
1
10
73.7272610464871
20
8.58079442544026
30
0
41
1
10
73.7338034761182
20
8.81523195869294
30
0
41
1
10
73.7378918098523
20
8.97149240619918
30
0
41
1
10
73.7398670240339
20
9.04961463092012
30
0
0
SPLINE
5
178
100
AcDbEntity
8
1
62
256
6
ByLayer
370
18
48
1
60
0
100
AcDbSpline
70
4
71
3
72
27
73
23
40
0
40
0
40
0
40
0
40
0.068614776950459
40
0.137269694724174
40
0.205874280414271
40
0.258778950007742
40
0.311740511548783
40
0.364691278036954
40
0.417581210723229
40
0.471159340669774
40
0.524896248799711
40
0.578653792112374
40
0.63232719021947
40
0.685851900780494
40
0.729936997055139
40
0.774170033451613
40
0.818431763715799
40
0.862623738417935
40
0.906674282781181
40
0.951001647585962
40
0.995521556389813
40
1
40
1
40
1
40
1
41
1
10
73.7398670240339
20
9.04961463092012
30
0
41
1
10
73.7399779640041
20
9.05400650151781
30
0
41
1
10
73.7402118510295
20
9.06269236743775
30
0
41
1
10
73.7405982979705
20
9.07543970293055
30
0
41
1
10
73.7409886529417
20
9.08689562817798
30
0
41
1
10
73.7413741551357
20
9.09710752962197
30
0
41
1
10
73.7417468898239
20
9.10613749276716
30
0
41
1
10
73.7421414905835
20
9.11486809192903
30
0
41
1
10
73.7425595890589
20
9.12329705223158
30
0
41
1
10
73.74300212718
20
9.13138263221583
30
0
41
1
10
73.743469311505
20
9.13907626592745
30
0
41
1
10
73.7439584145626
20
9.14628905819077
30
0
41
1
10
73.744467798697
20
9.152948091196
30
0
41
1
10
73.7449652901518
20
9.15863528774802
30
0
41
1
10
73.7454466966738
20
9.16341027577246
30
0
41
1
10
73.7459079470067
20
9.16737120353203
30
0
41
1
10
73.7463792590027
20
9.17080088277114
30
0
41
1
10
73.7468579421545
20
9.1736583526834
30
0
41
1
10
73.7473428893684
20
9.17588864280716
30
0
41
1
10
73.7478330114676
20
9.17750789458687
30
0
41
1
10
73.7481774515955
20
9.17800953187096
30
0
41
1
10
73.7483584207187
20
9.17830436786662
30
0
41
1
10
73.7483749621388
20
9.17833072182135
30
0
0
SPLINE
5
179
100
AcDbEntity
8
1
62
256
6
ByLayer
370
18
48
1
60
0
100
AcDbSpline
70
4
71
3
72
11
73
7
40
0
40
0
40
0
40
0
40
0.249999345204986
40
0.499998692817582
40
0.749999345319608
40
1
40
1
40
1
40
1
41
1
10
73.7707543831118
20
8.16969456626488
30
0
41
1
10
73.7696778670624
20
8.24437230935993
30
0
41
1
10
73.7674373205991
20
8.39371394606555
30
0
41
1
10
73.7638115202033
20
8.61768498472967
30
0
41
1
10
73.7599280314849
20
8.84161537521831
30
0
41
1
10
73.7571717934626
20
8.99087569182499
30
0
41
1
10
73.7557514852106
20
9.06549909209676
30
0
0
SPLINE
5
17A
100
AcDbEntity
8
1
62
256
6
ByLayer
370
18
48
1
60
0
100
AcDbSpline
70
4
71
3
72
27
73
23
40
0
40
0
40
0
40
0
40
0.0443296814760853
40
0.0888311554311509
40
0.133398792136823
40
0.177914902206928
40
0.222256907019412
40
0.266614023991027
40
0.311099740926245
40
0.355648279389015
40
0.400170332695268
40
0.444558015639007
40
0.494728813327374
40
0.545035503311809
40
0.595440792969644
40
0.645879982746894
40
0.696265022453108
40
0.746488208201094
40
0.809811106303182
40
0.873223979782869
40
0.936653868068015
40
1
40
1
40
1
40
1
41
1
10
73.7751173847005
20
8.06799155067562
30
0
41
1
10
73.7750350081655
20
8.06791189910366
30
0
41
1
10
73.7748696153003
20
8.06794195370814
30
0
41
1
10
73.7746196247969
20
8.06856714847455
30
0
41
1
10
73.7743696260551
20
8.06974764013297
30
0
41
1
10
73.7741214140744
20
8.07146947904191
30
0
41
1
10
73.7738764153471
20
8.07372353906778
30
0
41
1
10
73.7736356331504
20
8.07650248901006
30
0
41
1
10
73.7733996001181
20
8.07976348033769
30
0
41
1
10
73.7731692412065
20
8.08347262052582
30
0
41
1
10
73.7729457442528
20
8.08759015804764
30
0
41
1
10
73.772720543791
20
8.09228216171102
30
0
41
1
10
73.7724952726242
20
8.09758386591762
30
0
41
1
10
73.7722712714045
20
8.10351048999438
30
0
41
1
10
73.7720578045511
20
8.10981116298831
30
0
41
1
10
73.7718553556792
20
8.11643990724303
30
0
41
1
10
73.771664399952
20
8.12335107635503
30
0
41
1
10
73.7714695583723
20
8.13113528080636
30
0
41
1
10
73.7712744045499
20
8.13984786426767
30
0
41
1
10
73.7710825218375
20
8.14952557115154
30
0
41
1
10
73.7709082895073
20
8.15948023392733
30
0
41
1
10
73.7708037245367
20
8.16626458001341
30
0
41
1
10
73.7707543831118
20
8.16969456626488
30
0
0
SPLINE
5
17B
100
AcDbEntity
8
1
62
256
6
ByLayer
370
18
48
1
60
0
100
AcDbSpline
70
4
71
3
72
26
73
22
40
0
40
0
40
0
40
0
40
0.0696926540687544
40
0.139429769175721
40
0.209110160538184
40
0.263015242760764
40
0.316985729741809
40
0.370943328853833
40
0.424830814614832
40
0.477070463532583
40
0.529468143298394
40
0.581888412646857
40
0.634226827562683
40
0.68641662451949
40
0.730266483958869
40
0.774264634414777
40
0.818294594410832
40
0.862257436312216
40
0.906077583834664
40
0.95303949156063
40
1
40
1
40
1
40
1
41
1
10
73.7836066272172
20
8.18254681037033
30
0
41
1
10
73.7835758817495
20
8.17867977643294
30
0
41
1
10
73.7835101391076
20
8.1710376870536
30
0
41
1
10
73.7833991554825
20
8.15983844632741
30
0
41
1
10
73.7832842352734
20
8.149786208092
30
0
41
1
10
73.7831681916898
20
8.14083890724729
30
0
41
1
10
73.7830536869666
20
8.13293926195129
30
0
41
1
10
73.7829300894303
20
8.12532829737542
30
0
41
1
10
73.7827984764746
20
8.11811850174033
30
0
41
1
10
73.7826586066194
20
8.11133459636708
30
0
41
1
10
73.7825104941334
20
8.10499928017712
30
0
41
1
10
73.7823526163908
20
8.09908677273361
30
0
41
1
10
73.7821851344078
20
8.09365765416486
30
0
41
1
10
73.7820174814443
20
8.0890247132352
30
0
41
1
10
73.781851103618
20
8.08514402933319
30
0
41
1
10
73.7816877517774
20
8.08193695938016
30
0
41
1
10
73.7815180474519
20
8.07919844556034
30
0
41
1
10
73.7813428026836
20
8.07696331436777
30
0
41
1
10
73.7811582863429
20
8.07522666148481
30
0
41
1
10
73.7809645952318
20
8.07406287776001
30
0
41
1
10
73.7808300910625
20
8.07370600867147
30
0
41
1
10
73.7807621365938
20
8.073636302569
30
0
0
SPLINE
5
17C
100
AcDbEntity
8
1
62
256
6
ByLayer
370
18
48
1
60
0
100
AcDbSpline
70
4
71
3
72
11
73
7
40
0
40
0
40
0
40
0
40
0.249998976029811
40
0.499997948544235
40
0.749998976215789
40
1
40
1
40
1
40
1
41
1
10
73.7882126576617
20
9.09796026454785
30
0
41
1
10
73.788048368308
20
9.02170655713287
30
0
41
1
10
73.7876108645121
20
8.86918398642001
30
0
41
1
10
73.786630777535
20
8.64035424739296
30
0
41
1
10
73.7853180160848
20
8.41147798345132
30
0
41
1
10
73.7842147542273
20
8.25886234989375
30
0
41
1
10
73.7836066272172
20
8.18254681037033
30
0
0
SPLINE
5
17D
100
AcDbEntity
8
1
62
256
6
ByLayer
370
18
48
1
60
0
100
AcDbSpline
70
4
71
3
72
28
73
24
40
0
40
0
40
0
40
0
40
0.0526668691941245
40
0.105377287432641
40
0.15808096371408
40
0.210738631513092
40
0.265147527994578
40
0.319626666331859
40
0.374091297662741
40
0.428480385355229
40
0.479443471464572
40
0.53056101013921
40
0.581701022481887
40
0.632761401769079
40
0.683676406659442
40
0.72686478740247
40
0.770199684645729
40
0.813567278211185
40
0.856869718642871
40
0.900030786786453
40
0.943373006867333
40
0.986886929312634
40
1
40
1
40
1
40
1
41
1
10
45.9020587882904
20
-18.7881936048236
30
0
41
1
10
45.8987746176282
20
-18.7882007265795
30
0
41
1
10
45.8922624522595
20
-18.788215383074
30
0
41
1
10
45.8826596644641
20
-18.788238666358
30
0
41
1
10
45.8732549996538
20
-18.7882630214645
30
0
41
1
10
45.8639722833652
20
-18.7882885750215
30
0
41
1
10
45.8548461262097
20
-18.7883152020077
30
0
41
1
10
45.8459193658818
20
-18.7883426633439
30
0
41
1
10
45.8373347060114
20
-18.7883703709821
30
0
41
1
10
45.8293107692349
20
-18.7883974409195
30
0
41
1
10
45.8218632041358
20
-18.7884236024187
30
0
41
1
10
45.8149998179043
20
-18.7884485589104
30
0
41
1
10
45.8086062119617
20
-18.7884725318515
30
0
41
1
10
45.8027483594706
20
-18.7884951076694
30
0
41
1
10
45.7977493364776
20
-18.7885148649023
30
0
41
1
10
45.7935654367001
20
-18.7885317328437
30
0
41
1
10
45.7901135111548
20
-18.7885458652805
30
0
41
1
10
45.7871855956632
20
-18.788558021533
30
0
41
1
10
45.7848184382598
20
-18.7885679680043
30
0
41
1
10
45.7830472978798
20
-18.7885754756957
30
0
41
1
10
45.7819009896165
20
-18.7885803556175
30
0
41
1
10
45.7815490186467
20
-18.7885818001767
30
0
41
1
10
45.7814718361354
20
-18.788582177838
30
0
41
1
10
45.7814618352937
20
-18.7885822341069
30
0
0
SPLINE
5
17E
100
AcDbEntity
8
1
62
256
6
ByLayer
370
18
48
1
60
0
100
AcDbSpline
70
4
71
3
72
11
73
7
40
0
40
0
40
0
40
0
40
0.249998948294772
40
0.499997900476775
40
0.749998948480631
40
1
40
1
40
1
40
1
41
1
10
46.8174722424679
20
-18.7835875743791
30
0
41
1
10
46.7411573365095
20
-18.7841956963538
30
0
41
1
10
46.588542969827
20
-18.785298949993
30
0
41
1
10
46.3596673386822
20
-18.7866117120241
30
0
41
1
10
46.130836965842
20
-18.7875918057892
30
0
41
1
10
45.9783131287622
20
-18.7880293141189
30
0
41
1
10
45.9020587882904
20
-18.7881936048236
30
0
0
SPLINE
5
17F
100
AcDbEntity
8
1
62
256
6
ByLayer
370
18
48
1
60
0
100
AcDbSpline
70
4
71
3
72
26
73
22
40
0
40
0
40
0
40
0
40
0.0453852814136416
40
0.0909504625935201
40
0.136593229314302
40
0.182189318157563
40
0.227600626244408
40
0.272923229169549
40
0.318367314667055
40
0.363873788273136
40
0.409357968941941
40
0.454714292542762
40
0.509099182279826
40
0.563629694264607
40
0.618267486523139
40
0.67294344590828
40
0.727562168634585
40
0.782006038705887
40
0.854644098646468
40
0.927347257785442
40
1
40
1
40
1
40
1
41
1
10
46.9263827502692
20
-18.7807430837557
30
0
41
1
10
46.9263133214402
20
-18.7808087380114
30
0
41
1
10
46.9259707287774
20
-18.7809390016738
30
0
41
1
10
46.9248291429079
20
-18.7811311157966
30
0
41
1
10
46.923100295568
20
-18.7813187663556
30
0
41
1
10
46.9208091396516
20
-18.7815007567471
30
0
41
1
10
46.9179769299334
20
-18.7816760293817
30
0
41
1
10
46.9146225589948
20
-18.7818440970087
30
0
41
1
10
46.9107947562624
20
-18.7820051811621
30
0
41
1
10
46.906527934779
20
-18.7821591618505
30
0
41
1
10
46.9018657294825
20
-18.7823056780267
30
0
41
1
10
46.8965073503968
20
-18.7824537774775
30
0
41
1
10
46.8903924051283
20
-18.7826018302974
30
0
41
1
10
46.8834807062082
20
-18.782748412794
30
0
41
1
10
46.8761743971331
20
-18.7828851425066
30
0
41
1
10
46.8685252643349
20
-18.7830121889906
30
0
41
1
10
46.8605847552035
20
-18.7831297179742
30
0
41
1
10
46.8514759335421
20
-18.7832501283057
30
0
41
1
10
46.841122499097
20
-18.7833702612926
30
0
41
1
10
46.8294667268971
20
-18.7834868086111
30
0
41
1
10
46.8215039531515
20
-18.7835555301472
30
0
41
1
10
46.8174722424679
20
-18.783587574379
30
0
0
SPLINE
5
180
100
AcDbEntity
8
1
62
256
6
ByLayer
370
18
48
1
60
0
100
AcDbSpline
70
4
71
3
72
26
73
22
40
0
40
0
40
0
40
0
40
0.0712253998987473
40
0.142502138013851
40
0.213711226983086
40
0.26910153547036
40
0.324572925238181
40
0.380026999085763
40
0.435393659032433
40
0.485029663213874
40
0.534819279262444
40
0.584633553660377
40
0.634370753925308
40
0.683962664057103
40
0.733998323815523
40
0.784269706253536
40
0.834598609688394
40
0.884826197385848
40
0.934824955495209
40
0.9674124648193
40
1
40
1
40
1
40
1
41
1
10
46.8303244865733
20
-18.7707353302736
30
0
41
1
10
46.8341823559407
20
-18.770790798055
30
0
41
1
10
46.8417972953413
20
-18.7709091393956
30
0
41
1
10
46.8529317117317
20
-18.7711085652338
30
0
41
1
10
46.8629070352298
20
-18.77131395749
30
0
41
1
10
46.8717645639019
20
-18.7715201527319
30
0
41
1
10
46.8795645612314
20
-18.7717222826842
30
0
41
1
10
46.887033297759
20
-18.7719381209166
30
0
41
1
10
46.8938799240078
20
-18.7721595428101
30
0
41
1
10
46.9001056286297
20
-18.7723851722522
30
0
41
1
10
46.9057267114133
20
-18.7726132520577
30
0
41
1
10
46.9109340357514
20
-18.7728514642379
30
0
41
1
10
46.9156729144138
20
-18.7730987579493
30
0
41
1
10
46.9199107300002
20
-18.7733550907237
30
0
41
1
10
46.9235821589741
20
-18.7736203184018
30
0
41
1
10
46.9266554367949
20
-18.7738933050102
30
0
41
1
10
46.9290931938897
20
-18.7741714675975
30
0
41
1
10
46.9308554053743
20
-18.7744522934945
30
0
41
1
10
46.9317783098217
20
-18.7747012253937
30
0
41
1
10
46.9321056978148
20
-18.7749166171703
30
0
41
1
10
46.9320878671055
20
-18.7750378453158
30
0
41
1
10
46.9320275021626
20
-18.7750983318623
30
0
0
SPLINE
5
181
100
AcDbEntity
8
1
62
256
6
ByLayer
370
18
48
1
60
0
100
AcDbSpline
70
4
71
3
72
11
73
7
40
0
40
0
40
0
40
0
40
0.249999362386756
40
0.499998722595197
40
0.749999362501421
40
1
40
1
40
1
40
1
41
1
10
45.9345199607415
20
-18.7557324323725
30
0
41
1
10
46.0091429752735
20
-18.7571527332764
30
0
41
1
10
46.1584025202598
20
-18.7599089574861
30
0
41
1
10
46.3823325245887
20
-18.763792441479
30
0
41
1
10
46.6063039488467
20
-18.7674182501543
30
0
41
1
10
46.7556463574556
20
-18.7696588086532
30
0
41
1
10
46.8303244865733
20
-18.7707353302736
30
0
0
SPLINE
5
182
100
AcDbEntity
8
1
62
256
6
ByLayer
370
18
48
1
60
0
100
AcDbSpline
70
4
71
3
72
27
73
23
40
0
40
0
40
0
40
0
40
0.060928387095801
40
0.122050722257571
40
0.183235689929579
40
0.244377286766367
40
0.305399386145976
40
0.36626075478115
40
0.41832034229063
40
0.470542996782548
40
0.522789270908925
40
0.574951315775123
40
0.626959914799033
40
0.670502122257596
40
0.714191885128351
40
0.757915323024146
40
0.801573834114229
40
0.845089743042253
40
0.888772712141131
40
0.93262552713362
40
0.976538126493578
40
1
40
1
40
1
40
1
41
1
10
45.9345199607415
20
-18.7557324323725
30
0
41
1
10
45.9308029313155
20
-18.7556618870148
30
0
41
1
10
45.9234415071788
20
-18.7555116865838
30
0
41
1
10
45.9126262599761
20
-18.7552599187657
30
0
41
1
10
45.9020883611738
20
-18.7549801471643
30
0
41
1
10
45.8918876500068
20
-18.7546718241387
30
0
41
1
10
45.8820892918697
20
-18.7543342439294
30
0
41
1
10
45.8731966964451
20
-18.7539842307591
30
0
41
1
10
45.8651856206792
20
-18.7536252011154
30
0
41
1
10
45.8580133912022
20
-18.7532611591037
30
0
41
1
10
45.8513035036587
20
-18.7528730878654
30
0
41
1
10
45.8451247800247
20
-18.7524616672946
30
0
41
1
10
45.8398395452551
20
-18.7520507324363
30
0
41
1
10
45.835398569528
20
-18.7516440904979
30
0
41
1
10
45.8317113975498
20
-18.751246131496
30
0
41
1
10
45.8285350001684
20
-18.7508335482066
30
0
41
1
10
45.8259078302301
20
-18.7504084468573
30
0
41
1
10
45.8238600160832
20
-18.7499717815815
30
0
41
1
10
45.822438106638
20
-18.7495241907406
30
0
41
1
10
45.8216318490045
20
-18.7490675844876
30
0
41
1
10
45.8214849379461
20
-18.7486765393596
30
0
41
1
10
45.8216150761815
20
-18.7484388027927
30
0
41
1
10
45.8216883925672
20
-18.7483558478578
30
0
0
SPLINE
5
183
100
AcDbEntity
8
1
62
256
6
ByLayer
370
18
48
1
60
0
100
AcDbSpline
70
4
71
3
72
11
73
7
40
0
40
0
40
0
40
0
40
0.249998425382244
40
0.499996845308296
40
0.749998425673382
40
1
40
1
40
1
40
1
41
1
10
45.9504044219181
20
-18.7398479711958
30
0
41
1
10
46.0285256491784
20
-18.7378727822082
30
0
41
1
10
46.1847841013535
20
-18.7337845024291
30
0
41
1
10
46.4192206359179
20
-18.7272421085789
30
0
41
1
10
46.6537064112201
20
-18.7202784577224
30
0
41
1
10
46.8100633359321
20
-18.7153471403542
30
0
41
1
10
46.888249881019
20
-18.7128099358279
30
0
0
SPLINE
5
184
100
AcDbEntity
8
1
62
256
6
ByLayer
370
18
48
1
60
0
100
AcDbSpline
70
4
71
3
72
26
73
22
40
0
40
0
40
0
40
0
40
0.0679224551615427
40
0.135883077352617
40
0.203796525139107
40
0.256086039588626
40
0.308427970471709
40
0.360760510740236
40
0.41303720654846
40
0.468136212652667
40
0.523398344928026
40
0.578681298602112
40
0.633877447927657
40
0.688920954836923
40
0.733161416948386
40
0.777545334118888
40
0.821955933079322
40
0.86629788538919
40
0.910503039641061
40
0.95525260229088
40
1
40
1
40
1
40
1
41
1
10
46.888249881019
20
-18.7128099358279
30
0
41
1
10
46.8921254125847
20
-18.712684375496
30
0
41
1
10
46.8997926919777
20
-18.7124190113967
30
0
41
1
10
46.9110522239373
20
-18.7119790354995
30
0
41
1
10
46.9211764853857
20
-18.7115325523827
30
0
41
1
10
46.9302073559962
20
-18.7110896769236
30
0
41
1
10
46.9381988177932
20
-18.7106596677726
30
0
41
1
10
46.9459390334413
20
-18.7102019723158
30
0
41
1
10
46.9535307464463
20
-18.7097075331277
30
0
41
1
10
46.9609259577988
20
-18.7091731801024
30
0
41
1
10
46.9680646201365
20
-18.7085964249123
30
0
41
1
10
46.9747684042372
20
-18.7079867605135
30
0
41
1
10
46.9809700858322
20
-18.7073453790481
30
0
41
1
10
46.9862424547397
20
-18.7067168267717
30
0
41
1
10
46.9906522526892
20
-18.7061076146711
30
0
41
1
10
46.9942995147995
20
-18.7055243435297
30
0
41
1
10
46.9974846549657
20
-18.7049230811265
30
0
41
1
10
47.0001669350234
20
-18.7043067368581
30
0
41
1
10
47.0023141773812
20
-18.7036749076432
30
0
41
1
10
47.0038856178583
20
-18.7030293568141
30
0
41
1
10
47.0045309142418
20
-18.7025925575234
30
0
41
1
10
47.0047531135497
20
-18.7023727204752
30
0
0
SPLINE
5
185
100
AcDbEntity
8
1
62
256
6
ByLayer
370
18
48
1
60
0
100
AcDbSpline
70
4
71
3
72
27
73
23
40
0
40
0
40
0
40
0
40
0.0434344507700895
40
0.0870314178041863
40
0.130683616364593
40
0.174280578198929
40
0.217715024591623
40
0.261271509904557
40
0.304963963160583
40
0.348718781399956
40
0.392441961884933
40
0.436024300288522
40
0.491607135518995
40
0.547364867640293
40
0.603220682232121
40
0.659051244352031
40
0.714695361247936
40
0.771667110377554
40
0.828744163344663
40
0.885877871283055
40
0.942994769041832
40
1
40
1
40
1
40
1
41
1
10
47.0217940862565
20
-18.6853317477683
30
0
41
1
10
47.0220114163853
20
-18.6851126516782
30
0
41
1
10
47.0222706519963
20
-18.6846735445809
30
0
41
1
10
47.0221251890755
20
-18.6840123576948
30
0
41
1
10
47.0214562509039
20
-18.683353169805
30
0
41
1
10
47.0202677539827
20
-18.6827005125145
30
0
41
1
10
47.0185585362332
20
-18.6820575034742
30
0
41
1
10
47.0163243071763
20
-18.6814268272434
30
0
41
1
10
47.0136003557031
20
-18.6808099028136
30
0
41
1
10
47.0104186017932
20
-18.6802096934127
30
0
41
1
10
47.0068138705622
20
-18.6796294293781
30
0
41
1
10
47.0024440779038
20
-18.6790201709491
30
0
41
1
10
46.9971943774907
20
-18.6783907704672
30
0
41
1
10
46.9909896954337
20
-18.6777502695345
30
0
41
1
10
46.9842974768511
20
-18.6771483395348
30
0
41
1
10
46.977187853455
20
-18.6765866275962
30
0
41
1
10
46.9696522932767
20
-18.6760616677384
30
0
41
1
10
46.9617199645618
20
-18.6755741035555
30
0
41
1
10
46.9534188285627
20
-18.6751230712699
30
0
41
1
10
46.9448499358689
20
-18.6747117129571
30
0
41
1
10
46.9360560637556
20
-18.6743396478709
30
0
41
1
10
46.9300708611508
20
-18.6741169622699
30
0
41
1
10
46.9270477220899
20
-18.674012094757
30
0
0
SPLINE
5
186
100
AcDbEntity
8
1
62
256
6
ByLayer
370
18
48
1
60
0
100
AcDbSpline
70
4
71
3
72
11
73
7
40
0
40
0
40
0
40
0
40
0.249999617521803
40
0.49999923644992
40
0.749999617588735
40
1
40
1
40
1
40
1
41
1
10
46.9270477220899
20
-18.674012094757
30
0
41
1
10
46.8538004626119
20
-18.6714662027091
30
0
41
1
10
46.7073176374359
20
-18.6663086252732
30
0
41
1
10
46.4876285096864
20
-18.6583730420833
30
0
41
1
10
46.2679737387657
20
-18.650243728103
30
0
41
1
10
46.1215596543827
20
-18.6446984519843
30
0
41
1
10
46.0483582962545
20
-18.6418940968594
30
0
0
SPLINE
5
187
100
AcDbEntity
8
1
62
256
6
ByLayer
370
18
48
1
60
0
100
AcDbSpline
70
4
71
3
72
28
73
24
40
0
40
0
40
0
40
0
40
0.0667693167525056
40
0.133573026522491
40
0.200334884178898
40
0.251602244570726
40
0.302915296681456
40
0.354220493845097
40
0.405477133098623
40
0.452504999334295
40
0.499665141278144
40
0.546868981138355
40
0.594044595942138
40
0.641139517179978
40
0.688123790593281
40
0.733180840401522
40
0.778386786827581
40
0.823617467862736
40
0.868774116069464
40
0.913789685874134
40
0.951605106367255
40
0.989589017314302
40
1
40
1
40
1
40
1
41
1
10
46.0804082846781
20
-18.6098441084359
30
0
41
1
10
46.0760079722636
20
-18.6100659670595
30
0
41
1
10
46.0672966509285
20
-18.6105313058835
30
0
41
1
10
46.0544875150637
20
-18.6112934641416
30
0
41
1
10
46.0429571689916
20
-18.6120567238115
30
0
41
1
10
46.0326589356121
20
-18.6128050619852
30
0
41
1
10
46.0235344498002
20
-18.6135241955996
30
0
41
1
10
46.0146713885347
20
-18.614282689225
30
0
41
1
10
46.0063370270421
20
-18.6150585508109
30
0
41
1
10
45.9985289146725
20
-18.6158491420221
30
0
41
1
10
45.9912416873937
20
-18.616651373668
30
0
41
1
10
45.9842810960437
20
-18.6174878275388
30
0
41
1
10
45.9776930783202
20
-18.6183569126871
30
0
41
1
10
45.9715241033627
20
-18.6192570515927
30
0
41
1
10
45.965891714647
20
-18.6201746081808
30
0
41
1
10
45.9608179787874
20
-18.6211086212672
30
0
41
1
10
45.9563128083639
20
-18.6220564458113
30
0
41
1
10
45.9523457995908
20
-18.6230280186625
30
0
41
1
10
45.9489694094735
20
-18.6240182879618
30
0
41
1
10
45.9463838955583
20
-18.6249699462589
30
0
41
1
10
45.9445022067548
20
-18.6258781311379
30
0
41
1
10
45.9436006810461
20
-18.6265303049644
30
0
41
1
10
45.943158979841
20
-18.6268965680819
30
0
41
1
10
45.9430688457933
20
-18.6269753948437
30
0
0
SPLINE
5
188
100
AcDbEntity
8
1
62
256
6
ByLayer
370
18
48
1
60
0
100
AcDbSpline
70
4
71
3
72
11
73
7
40
0
40
0
40
0
40
0
40
0.249997583387899
40
0.499995175922899
40
0.749997583832794
40
1
40
1
40
1
40
1
41
1
10
47.043996852513
20
-18.557062964334
30
0
41
1
10
46.9636674266851
20
-18.5618166945371
30
0
41
1
10
46.8030241345076
20
-18.5711451187784
30
0
41
1
10
46.5621042685385
20
-18.5845956492933
30
0
41
1
10
46.321229671766
20
-18.5975193121117
30
0
41
1
10
46.1606768699209
20
-18.6057933383526
30
0
41
1
10
46.0804082846781
20
-18.6098441084359
30
0
0
SPLINE
5
189
100
AcDbEntity
8
1
62
256
6
ByLayer
370
18
48
1
60
0
100
AcDbSpline
70
4
71
3
72
25
73
21
40
0
40
0
40
0
40
0
40
0.0480287906659081
40
0.0962498319969113
40
0.144571925880026
40
0.192859908733922
40
0.240945074679732
40
0.288748888486646
40
0.336660780696117
40
0.384632209986992
40
0.432587431534236
40
0.480427670829811
40
0.544525222485376
40
0.608793020581177
40
0.673187022655279
40
0.737626539698102
40
0.801999529701178
40
0.866167414514988
40
0.933082836845787
40
1
40
1
40
1
40
1
41
1
10
47.1686366473236
20
-18.5384891867013
30
0
41
1
10
47.1682177235602
20
-18.5389019293928
30
0
41
1
10
47.167145746646
20
-18.5397228425393
30
0
41
1
10
47.1648085916501
20
-18.5409400176983
30
0
41
1
10
47.1618188756677
20
-18.542134812447
30
0
41
1
10
47.1582262662398
20
-18.5432997635378
30
0
41
1
10
47.1540814980248
20
-18.544427122616
30
0
41
1
10
47.1494256738056
20
-18.5455146366468
30
0
41
1
10
47.1443143326873
20
-18.5465635542304
30
0
41
1
10
47.1387795607273
20
-18.5475744584211
30
0
41
1
10
47.1328703932325
20
-18.5485451498426
30
0
41
1
10
47.1259168902369
20
-18.5495798936922
30
0
41
1
10
47.1178078792858
20
-18.5506625082774
30
0
41
1
10
47.108452124824
20
-18.551775179039
30
0
41
1
10
47.0986528746689
20
-18.5528188930107
30
0
41
1
10
47.0884750125646
20
-18.5537935429102
30
0
41
1
10
47.0779825790009
20
-18.5546989815348
30
0
41
1
10
47.0670667497095
20
-18.5555485750752
30
0
41
1
10
47.0557434466456
20
-18.5563406432005
30
0
41
1
10
47.0479393130565
20
-18.556829938152
30
0
41
1
10
47.043996852513
20
-18.557062964334
30
0
0
SPLINE
5
18A
100
AcDbEntity
8
1
62
256
6
ByLayer
370
18
48
1
60
0
100
AcDbSpline
70
4
71
3
72
27
73
23
40
0
40
0
40
0
40
0
40
0.0545207602764236
40
0.109203548014588
40
0.163938763882689
40
0.218637977243374
40
0.273237566673326
40
0.327702710528688
40
0.377572237168165
40
0.427603639700615
40
0.477661079877491
40
0.527637268908812
40
0.577460341133527
40
0.627726034603478
40
0.678232849798384
40
0.728802951664713
40
0.779273413575664
40
0.829508472626775
40
0.872077912312138
40
0.914747456312202
40
0.957422729545989
40
1
40
1
40
1
40
1
41
1
10
47.109486769132
20
-18.4915730477149
30
0
41
1
10
47.1123295687971
20
-18.4917234635123
30
0
41
1
10
47.1179591796753
20
-18.4920444410069
30
0
41
1
10
47.1262295635766
20
-18.4925848525708
30
0
41
1
10
47.134288874788
20
-18.4931866273079
30
0
41
1
10
47.1420937414273
20
-18.4938504482141
30
0
41
1
10
47.1495968444011
20
-18.4945772537624
30
0
41
1
10
47.1565582369688
20
-18.4953461147082
30
0
41
1
10
47.1629726043152
20
-18.4961537855344
30
0
41
1
10
47.1688454925695
20
-18.4969945096777
30
0
41
1
10
47.1743272263654
20
-18.4978908559019
30
0
41
1
10
47.1793611016971
20
-18.4988400485074
30
0
41
1
10
47.1839138170542
20
-18.4998430950295
30
0
41
1
10
47.1879196326167
20
-18.5009017070814
30
0
41
1
10
47.1913484554515
20
-18.502011793951
30
0
41
1
10
47.1941629868644
20
-18.5031629797302
30
0
41
1
10
47.1963228676084
20
-18.5043452953014
30
0
41
1
10
47.1977135062928
20
-18.5054903368857
30
0
41
1
10
47.1984256135359
20
-18.5065882781049
30
0
41
1
10
47.1986000857285
20
-18.5076323146797
30
0
41
1
10
47.1982836533929
20
-18.5086793057499
30
0
41
1
10
47.1977510100232
20
-18.5093745501535
30
0
41
1
10
47.197404318967
20
-18.5097215150579
30
0
0
SPLINE
5
18B
100
AcDbEntity
8
1
62
256
6
ByLayer
370
18
48
1
60
0
100
AcDbSpline
70
4
71
2
72
6
73
3
40
0
40
0
40
0
40
1
40
1
40
1
41
1
10
46.2456172079528
20
-18.4446351851611
30
0
41
1
10
46.6774430942204
20
-18.4686606288846
30
0
41
1
10
47.109486769132
20
-18.4915730477149
30
0
0
SPLINE
5
18C
100
AcDbEntity
8
1
62
256
6
ByLayer
370
18
48
1
60
0
100
AcDbSpline
70
4
71
3
72
29
73
25
40
0
40
0
40
0
40
0
40
0.0537721207398862
40
0.107702665081223
40
0.161684203115863
40
0.215630220963395
40
0.269478682664938
40
0.323195934195393
40
0.372473160733661
40
0.421910427308063
40
0.471373188564692
40
0.520755388011654
40
0.569986283244218
40
0.61135963009256
40
0.652919130180704
40
0.69456213569497
40
0.736190974996063
40
0.777717710793134
40
0.819069119334489
40
0.861311740487595
40
0.903696745409529
40
0.94614079068229
40
0.988546084596908
40
1
40
1
40
1
40
1
41
1
10
46.2456172079528
20
-18.4446351851611
30
0
41
1
10
46.2424473085883
20
-18.4444592773421
30
0
41
1
10
46.2361697383804
20
-18.444083534631
30
0
41
1
10
46.2269467128514
20
-18.4434501116964
30
0
41
1
10
46.2179582021818
20
-18.4427433411084
30
0
41
1
10
46.209252345557
20
-18.441961961725
30
0
41
1
10
46.2008816787718
20
-18.4411043315185
30
0
41
1
10
46.1931091724204
20
-18.4401942151521
30
0
41
1
10
46.18594164127
20
-18.4392349277999
30
0
41
1
10
46.1793742155078
20
-18.4382326592564
30
0
41
1
10
46.1732437116855
20
-18.4371605971849
30
0
41
1
10
46.1676137387698
20
-18.4360213856912
30
0
41
1
10
46.1628066598698
20
-18.4348806834542
30
0
41
1
10
46.1587805049164
20
-18.4337487604518
30
0
41
1
10
46.1554467474714
20
-18.4326381704151
30
0
41
1
10
46.1525800694928
20
-18.4314862102521
30
0
41
1
10
46.1502071462845
20
-18.4302995260636
30
0
41
1
10
46.148353256071
20
-18.4290848940287
30
0
41
1
10
46.1470342575519
20
-18.4278377839997
30
0
41
1
10
46.1462860586399
20
-18.4265605161872
30
0
41
1
10
46.1460967129046
20
-18.4252575968318
30
0
41
1
10
46.1464542907188
20
-18.4239447308031
30
0
41
1
10
46.1471393741191
20
-18.4229489747417
30
0
41
1
10
46.1476537115151
20
-18.4223931005047
30
0
41
1
10
46.1477693433003
20
-18.4222748973325
30
0
0
SPLINE
5
18D
100
AcDbEntity
8
1
62
256
6
ByLayer
370
18
48
1
60
0
100
AcDbSpline
70
4
71
3
72
11
73
7
40
0
40
0
40
0
40
0
40
0.249996554411313
40
0.499993096516559
40
0.749996555084182
40
1
40
1
40
1
40
1
41
1
10
46.2944204292113
20
-18.3958319639026
30
0
41
1
10
46.3771712015027
20
-18.3893861706065
30
0
41
1
10
46.5426861911813
20
-18.3762802562794
30
0
41
1
10
46.7910016459227
20
-18.3559841967566
30
0
41
1
10
47.0393590612361
20
-18.3350329793046
30
0
41
1
10
47.2049578581031
20
-18.3206159125309
30
0
41
1
10
47.2877637356064
20
-18.3132960812405
30
0
0
SPLINE
5
18E
100
AcDbEntity
8
1
62
256
6
ByLayer
370
18
48
1
60
0
100
AcDbSpline
70
4
71
3
72
26
73
22
40
0
40
0
40
0
40
0
40
0.0641215558835892
40
0.128388446564522
40
0.192708824534188
40
0.257005128912152
40
0.321216405255975
40
0.38530080619359
40
0.43683293324055
40
0.488507841849181
40
0.540228410578318
40
0.591916672726868
40
0.643516931196906
40
0.69499916548818
40
0.742194636784231
40
0.789542862622055
40
0.836910610458403
40
0.884196958560421
40
0.931340369735565
40
0.965670883246786
40
1
40
1
40
1
40
1
41
1
10
47.2877637356064
20
-18.3132960812405
30
0
41
1
10
47.2916824437523
20
-18.3129499611305
30
0
41
1
10
47.2994569083309
20
-18.3122270724482
30
0
41
1
10
47.3109234544743
20
-18.311052789799
30
0
41
1
10
47.3221577536412
20
-18.309786442545
30
0
41
1
10
47.3331164340809
20
-18.3084281907289
30
0
41
1
10
47.3437522787523
20
-18.3069780265536
30
0
41
1
10
47.3533574441966
20
-18.3055355961427
30
0
41
1
10
47.361981594068
20
-18.3041185351195
30
0
41
1
10
47.3696828196848
20
-18.3027431421025
30
0
41
1
10
47.3770742463912
20
-18.3013027879789
30
0
41
1
10
47.384108436826
20
-18.2997991677396
30
0
41
1
10
47.3907373840465
20
-18.2982339454544
30
0
41
1
10
47.3967485127091
20
-18.2966528531419
30
0
41
1
10
47.4021417328133
20
-18.2950600016301
30
0
41
1
10
47.4069256208399
20
-18.2934616425071
30
0
41
1
10
47.4112128570824
20
-18.2918151324989
30
0
41
1
10
47.4149448311603
20
-18.290127728537
30
0
41
1
10
47.4177818633198
20
-18.2885606770218
30
0
41
1
10
47.419864936346
20
-18.2871291184087
30
0
41
1
10
47.4208515412973
20
-18.286272466607
30
0
41
1
10
47.4212839223247
20
-18.2858419117002
30
0
0
SPLINE
5
18F
100
AcDbEntity
8
1
62
256
6
ByLayer
370
18
48
1
60
0
100
AcDbSpline
70
4
71
3
72
26
73
22
40
0
40
0
40
0
40
0
40
0.0527252366264783
40
0.105629164814726
40
0.158512902395532
40
0.211210511097558
40
0.253692763122704
40
0.296326615457635
40
0.339018517929497
40
0.381664803375596
40
0.424157520620486
40
0.47578290596418
40
0.527552991990955
40
0.579347979133062
40
0.631007412679912
40
0.691170164400917
40
0.75151856263771
40
0.811977812531001
40
0.872416049135978
40
0.93265439044218
40
1
40
1
40
1
40
1
41
1
10
47.4623659338175
20
-18.2447599002074
30
0
41
1
10
47.4629575462129
20
-18.2441682666083
30
0
41
1
10
47.4639057941897
20
-18.2429816480057
30
0
41
1
10
47.4646245469195
20
-18.2411914102182
30
0
41
1
10
47.464613332397
20
-18.2394083986291
30
0
41
1
10
47.4638955377706
20
-18.2377598853278
30
0
41
1
10
47.4626012289701
20
-18.2362528202963
30
0
41
1
10
47.4609050838235
20
-18.2348840809993
30
0
41
1
10
47.4587305399917
20
-18.233548542735
30
0
41
1
10
47.4560987796102
20
-18.2322552157528
30
0
41
1
10
47.4528025704127
20
-18.2309218280653
30
0
41
1
10
47.4487363002076
20
-18.229566380719
30
0
41
1
10
47.443844372019
20
-18.2282061286643
30
0
41
1
10
47.4384397028482
20
-18.226930450982
30
0
41
1
10
47.4322543707958
20
-18.2256784694157
30
0
41
1
10
47.4252410302944
20
-18.2244695739794
30
0
41
1
10
47.4173870453309
20
-18.223318688689
30
0
41
1
10
47.4091072418751
20
-18.2222830918743
30
0
41
1
10
47.4004817370935
20
-18.2213612260231
30
0
41
1
10
47.391211605796
20
-18.2205191511798
30
0
41
1
10
47.3847417997666
20
-18.2200257318701
30
0
41
1
10
47.3812724173978
20
-18.2197873994491
30
0
0
SPLINE
5
190
100
AcDbEntity
8
1
62
256
6
ByLayer
370
18
48
1
60
0
100
AcDbSpline
70
4
71
2
72
6
73
3
40
0
40
0
40
0
40
1
40
1
40
1
41
1
10
47.3812724173978
20
-18.2197873994491
30
0
41
1
10
46.9555599604846
20
-18.1903887521803
30
0
41
1
10
46.5300037176813
20
-18.1602486754326
30
0
0
SPLINE
5
191
100
AcDbEntity
8
1
62
256
6
ByLayer
370
18
48
1
60
0
100
AcDbSpline
70
4
71
3
72
27
73
23
40
0
40
0
40
0
40
0
40
0.059735801161008
40
0.119517622049819
40
0.179294208261305
40
0.239022865612395
40
0.300538487530969
40
0.362123717538993
40
0.423694775493579
40
0.485191049200244
40
0.531609895812164
40
0.578149386366028
40
0.624727063436442
40
0.671277018003947
40
0.717752456034879
40
0.764128499709252
40
0.808191186401201
40
0.852397369618966
40
0.896622318654352
40
0.940771193689112
40
0.984785663798731
40
1
40
1
40
1
40
1
41
1
10
46.5965113228844
20
-18.0937410702295
30
0
41
1
10
46.5922851402732
20
-18.0941967307429
30
0
41
1
10
46.5838983113439
20
-18.0951412228321
30
0
41
1
10
46.5715119582062
20
-18.0966565105207
30
0
41
1
10
46.5593553124855
20
-18.0982704726574
30
0
41
1
10
46.5473376498479
20
-18.100000010378
30
0
41
1
10
46.5354944838097
20
-18.1018496259583
30
0
41
1
10
46.5238726442336
20
-18.103824245444
30
0
41
1
10
46.5126375226988
20
-18.1059060503871
30
0
41
1
10
46.5027243370476
20
-18.1079160136937
30
0
41
1
10
46.494053703156
20
-18.1098271202515
30
0
41
1
10
46.4865317382904
20
-18.1116156535116
30
0
41
1
10
46.4793465280761
20
-18.113467650789
30
0
41
1
10
46.4725449104418
20
-18.1153800517128
30
0
41
1
10
46.4661744008393
20
-18.1173498311488
30
0
41
1
10
46.4603738488211
20
-18.1193415395199
30
0
41
1
10
46.4551611263569
20
-18.1213529718146
30
0
41
1
10
46.4505471765989
20
-18.1233790978116
30
0
41
1
10
46.4464897473056
20
-18.1254483781981
30
0
41
1
10
46.4430502536006
20
-18.1275503490616
30
0
41
1
10
46.4408882047312
20
-18.1292143291183
30
0
41
1
10
46.4398719670827
20
-18.1301726314773
30
0
41
1
10
46.4396250145465
20
-18.1304192265897
30
0
0
SPLINE
5
192
100
AcDbEntity
8
1
62
256
6
ByLayer
370
18
48
1
60
0
100
AcDbSpline
70
4
71
3
72
13
73
9
40
0
40
0
40
0
40
0
40
0.16666317602541
40
0.333326555434453
40
0.499989745446436
40
0.666659764221437
40
0.833329968630745
40
1
40
1
40
1
40
1
41
1
10
47.6246275717794
20
-17.9764322450675
30
0
41
1
10
47.5675012011743
20
-17.9833155219263
30
0
41
1
10
47.4532515215108
20
-17.9969582573801
30
0
41
1
10
47.2818861170339
20
-18.0170483159564
30
0
41
1
10
47.1105283788595
20
-18.0367722860216
30
0
41
1
10
46.9391788803081
20
-18.056135259137
30
0
41
1
10
46.7678381770482
20
-18.0751420586457
30
0
41
1
10
46.6536189596217
20
-18.0875804690026
30
0
41
1
10
46.5965113228844
20
-18.0937410702295
30
0
0
SPLINE
5
193
100
AcDbEntity
8
1
62
256
6
ByLayer
370
18
48
1
60
0
100
AcDbSpline
70
4
71
3
72
25
73
21
40
0
40
0
40
0
40
0
40
0.0423991015052763
40
0.084850208209922
40
0.127262133156763
40
0.171179984589322
40
0.215137657739498
40
0.259065774162739
40
0.315230124002285
40
0.371450614767058
40
0.427631074025728
40
0.485360959861771
40
0.543130663306233
40
0.600870141056976
40
0.66673713071451
40
0.73264589293053
40
0.798521243636763
40
0.865668189835163
40
0.932848816562641
40
1
40
1
40
1
40
1
41
1
10
47.7680394456275
20
-17.9390863883974
30
0
41
1
10
47.7673192177786
20
-17.9398019549614
30
0
41
1
10
47.7656960125841
20
-17.9412232831986
30
0
41
1
10
47.7626941076679
20
-17.9433263431269
30
0
41
1
10
47.7591473418503
20
-17.9454152677066
30
0
41
1
10
47.7550710559186
20
-17.9474832423436
30
0
41
1
10
47.7504955646395
20
-17.9495243093988
30
0
41
1
10
47.7450460220874
20
-17.9516959730615
30
0
41
1
10
47.7386276893662
20
-17.953976841031
30
0
41
1
10
47.7311683402425
20
-17.9563421545068
30
0
41
1
10
47.7231587821879
20
-17.9586332805996
30
0
41
1
10
47.7146399580819
20
-17.9608468454796
30
0
41
1
10
47.7056474442664
20
-17.9629802895287
30
0
41
1
10
47.6958633878896
20
-17.9651099575882
30
0
41
1
10
47.6852719709717
20
-17.9672205432494
30
0
41
1
10
47.6738648587089
20
-17.9692955781796
30
0
41
1
10
47.662062560672
20
-17.9712587578197
30
0
41
1
10
47.6498970317275
20
-17.9731088796331
30
0
41
1
10
47.637392105536
20
-17.9748439621033
30
0
41
1
10
47.6289078072385
20
-17.9759169081424
30
0
41
1
10
47.6246275717794
20
-17.9764322450675
30
0
0
SPLINE
5
194
100
AcDbEntity
8
1
62
256
6
ByLayer
370
18
48
1
60
0
100
AcDbSpline
70
4
71
3
72
27
73
23
40
0
40
0
40
0
40
0
40
0.0564435780060961
40
0.113045374892879
40
0.169663755664412
40
0.22619461644375
40
0.282578538738076
40
0.328561869940768
40
0.374698412495889
40
0.420861590210978
40
0.46694967870378
40
0.512892238947586
40
0.559172171241248
40
0.605660599828809
40
0.652212209590097
40
0.698685531749749
40
0.744952737374604
40
0.795478795043565
40
0.846170985819985
40
0.896884415149197
40
0.947439527442137
40
1
40
1
40
1
40
1
41
1
10
47.7482069780232
20
-17.8528528388237
30
0
41
1
10
47.7510885511751
20
-17.8530898740026
30
0
41
1
10
47.7567803758414
20
-17.8536064718011
30
0
41
1
10
47.7651026889528
20
-17.8545053787585
30
0
41
1
10
47.7731532541156
20
-17.8555353726291
30
0
41
1
10
47.7808722789039
20
-17.8566996652858
30
0
41
1
10
47.7877538743219
20
-17.8579226596934
30
0
41
1
10
47.7938275807403
20
-17.8591824606086
30
0
41
1
10
47.799150964283
20
-17.8604530304835
30
0
41
1
10
47.8041132203191
20
-17.8618203175086
30
0
41
1
10
47.8086633421901
20
-17.8632802640012
30
0
41
1
10
47.8127691259345
20
-17.8648339726366
30
0
41
1
10
47.8163737854371
20
-17.8664843253072
30
0
41
1
10
47.8194582476684
20
-17.8682242227765
30
0
41
1
10
47.8219972943494
20
-17.8700381132241
30
0
41
1
10
47.8239626957856
20
-17.8719107330018
30
0
41
1
10
47.8253686513891
20
-17.8738901253193
30
0
41
1
10
47.8261249592265
20
-17.8759726961746
30
0
41
1
10
47.8262063131816
20
-17.8781473445619
30
0
41
1
10
47.8256193252738
20
-17.8803364960332
30
0
41
1
10
47.8243631088337
20
-17.8825541247783
30
0
41
1
10
47.8231007595954
20
-17.8840299388112
30
0
41
1
10
47.8223454154086
20
-17.8847804186163
30
0
0
SPLINE
5
195
100
AcDbEntity
8
1
62
256
6
ByLayer
370
18
48
1
60
0
100
AcDbSpline
70
4
71
2
72
6
73
3
40
0
40
0
40
0
40
1
40
1
40
1
41
1
10
46.907261987451
20
-17.7829904056629
30
0
41
1
10
47.3276861387314
20
-17.8181381364298
30
0
41
1
10
47.7482069780232
20
-17.8528528388237
30
0
0
SPLINE
5
196
100
AcDbEntity
8
1
62
256
6
ByLayer
370
18
48
1
60
0
100
AcDbSpline
70
4
71
3
72
29
73
25
40
0
40
0
40
0
40
0
40
0.055846909523991
40
0.111849215794351
40
0.167867571137054
40
0.223799751740353
40
0.279587688322372
40
0.325109966761844
40
0.370783901910524
40
0.416483862534251
40
0.462109180152133
40
0.507590550146755
40
0.5534115281981
40
0.599439875773097
40
0.645530967800998
40
0.691544095499843
40
0.73735225104964
40
0.777269354561479
40
0.817306586623946
40
0.857397633433915
40
0.897459647560691
40
0.937397599588524
40
0.989351022603439
40
1
40
1
40
1
40
1
41
1
10
46.907261987451
20
-17.7829904056629
30
0
41
1
10
46.9040304943372
20
-17.7827212656004
30
0
41
1
10
46.8976471835977
20
-17.7821344040824
30
0
41
1
10
46.8883127970112
20
-17.7811126581667
30
0
41
1
10
46.8792819425515
20
-17.7799406872558
30
0
41
1
10
46.8706213960485
20
-17.7786143501045
30
0
41
1
10
46.8628973840316
20
-17.7772191585245
30
0
41
1
10
46.8560772021629
20
-17.7757798571408
30
0
41
1
10
46.8500971486461
20
-17.7743258687573
30
0
41
1
10
46.8445217073653
20
-17.7727587344503
30
0
41
1
10
46.8394084186508
20
-17.7710825013961
30
0
41
1
10
46.8347934419658
20
-17.7692952989278
30
0
41
1
10
46.830741156196
20
-17.7673929359171
30
0
41
1
10
46.8272734384522
20
-17.7653829646772
30
0
41
1
10
46.8244188354345
20
-17.7632830134741
30
0
41
1
10
46.8222093770315
20
-17.7611102867286
30
0
41
1
10
46.8207415483614
20
-17.7589722693602
30
0
41
1
10
46.8199401577852
20
-17.7568863699098
30
0
41
1
10
46.8196789948459
20
-17.7548666569026
30
0
41
1
10
46.8199055414288
20
-17.7528251095861
30
0
41
1
10
46.8206045104544
20
-17.7507742885747
30
0
41
1
10
46.8218745961206
20
-17.7485174439458
30
0
41
1
10
46.8233167949346
20
-17.7467674646719
30
0
41
1
10
46.8243416708474
20
-17.7457042261267
30
0
41
1
10
46.8245207751931
20
-17.7455234661935
30
0
0
SPLINE
5
197
100
AcDbEntity
8
1
62
256
6
ByLayer
370
18
48
1
60
0
100
AcDbSpline
70
4
71
3
72
13
73
9
40
0
40
0
40
0
40
0
40
0.16666176345178
40
0.333323776576039
40
0.499985521383354
40
0.666656929844796
40
0.833328612279889
40
1
40
1
40
1
40
1
41
1
10
46.992890315393
20
-17.6973620777209
30
0
41
1
10
47.0523002156797
20
-17.6889963729089
30
0
41
1
10
47.1711199884295
20
-17.672119165726
30
0
41
1
10
47.3493497568222
20
-17.646369063451
30
0
41
1
10
47.5275815910963
20
-17.6201749876016
30
0
41
1
10
47.705814405638
20
-17.593530787295
30
0
41
1
10
47.8840470731027
20
-17.5664299744958
30
0
41
1
10
48.002865294665
20
-17.5480522233405
30
0
41
1
10
48.0622735559829
20
-17.538786260864
30
0
0
SPLINE
5
198
100
AcDbEntity
8
1
62
256
6
ByLayer
370
18
48
1
60
0
100
AcDbSpline
70
4
71
3
72
25
73
21
40
0
40
0
40
0
40
0
40
0.0650353956255641
40
0.130123293780633
40
0.195206243102798
40
0.260234884777989
40
0.327281925646017
40
0.394407052782034
40
0.461515859521951
40
0.528540618391165
40
0.576750106864201
40
0.624979171777389
40
0.673182553591563
40
0.722365023672195
40
0.771577207988456
40
0.820747678887647
40
0.865214836551792
40
0.909678309832135
40
0.954841858249314
40
1
40
1
40
1
40
1
41
1
10
48.0622735559829
20
-17.538786260864
30
0
41
1
10
48.0666244437452
20
-17.5381079949314
30
0
41
1
10
48.0752574222339
20
-17.536702761077
30
0
41
1
10
48.0880028961361
20
-17.5344501761902
30
0
41
1
10
48.1005075542256
20
-17.5320530174039
30
0
41
1
10
48.1128693032668
20
-17.5294853957583
30
0
41
1
10
48.1250519586377
20
-17.5267407210026
30
0
41
1
10
48.1370058785069
20
-17.5238109441562
30
0
41
1
10
48.1485547554766
20
-17.5207228359625
30
0
41
1
10
48.1586044830584
20
-17.5177797216703
30
0
41
1
10
48.1672505144082
20
-17.5150290818103
30
0
41
1
10
48.1746036643684
20
-17.5125108855777
30
0
41
1
10
48.1816747821653
20
-17.509890792205
30
0
41
1
10
48.1884200307276
20
-17.5071668450614
30
0
41
1
10
48.1947850054032
20
-17.5043381163167
30
0
41
1
10
48.2004861044493
20
-17.501517540313
30
0
41
1
10
48.2055222952135
20
-17.4987181454574
30
0
41
1
10
48.2099240308711
20
-17.4959372467255
30
0
41
1
10
48.2138045216016
20
-17.4930830694162
30
0
41
1
10
48.2159803552974
20
-17.4911393089955
30
0
41
1
10
48.2169668518967
20
-17.4901589821282
30
0
0
SPLINE
5
199
100
AcDbEntity
8
1
62
256
6
ByLayer
370
18
48
1
60
0
100
AcDbSpline
70
4
71
3
72
28
73
24
40
0
40
0
40
0
40
0
40
0.0524328969297314
40
0.105011915957119
40
0.157557587827026
40
0.209944879260067
40
0.252398722579679
40
0.295023812034111
40
0.337697316403626
40
0.380303632135921
40
0.422741666777764
40
0.471822933092688
40
0.521073604843117
40
0.570343776507008
40
0.61945172342234
40
0.668638102994034
40
0.717978884366992
40
0.767408177699238
40
0.816816827024629
40
0.866060312907932
40
0.910695698597818
40
0.955358119748223
40
1
40
1
40
1
40
1
41
1
10
48.2858428979789
20
-17.421282936046
30
0
41
1
10
48.2867570041569
20
-17.4203714171877
30
0
41
1
10
48.2883837290428
20
-17.418539621051
30
0
41
1
10
48.2902310928994
20
-17.4157661015098
30
0
41
1
10
48.2914248057644
20
-17.4129875718796
30
0
41
1
10
48.2918883425646
20
-17.4103964307347
30
0
41
1
10
48.2917115252644
20
-17.4080051702423
30
0
41
1
10
48.2910386949256
20
-17.4058154794549
30
0
41
1
10
48.2898603372146
20
-17.403667131879
30
0
41
1
10
48.2881769999392
20
-17.4015778597198
30
0
41
1
10
48.285869968362
20
-17.3994566309712
30
0
41
1
10
48.2828318970697
20
-17.3973301090113
30
0
41
1
10
48.2790197875925
20
-17.3952228749704
30
0
41
1
10
48.2746296434248
20
-17.3932469682142
30
0
41
1
10
48.269704766183
20
-17.3914133261413
30
0
41
1
10
48.26427874401
20
-17.3897299075519
30
0
41
1
10
48.2584115050778
20
-17.3881910834945
30
0
41
1
10
48.2521598368568
20
-17.3867961183791
30
0
41
1
10
48.2455862079731
20
-17.385544648185
30
0
41
1
10
48.2389484958408
20
-17.3844693012157
30
0
41
1
10
48.2323106082131
20
-17.3835508859024
30
0
41
1
10
48.2257185505825
20
-17.3827685098141
30
0
41
1
10
48.2212274561567
20
-17.382313528249
30
0
41
1
10
48.2189567593398
20
-17.3821030575071
30
0
0
SPLINE
5
19A
100
AcDbEntity
8
1
62
256
6
ByLayer
370
18
48
1
60
0
100
AcDbSpline
70
4
71
1
72
4
73
2
40
0
40
0
40
1
40
1
41
1
10
48.2189567593398
20
-17.3821030575071
30
0
41
1
10
47.3858254180533
20
-17.3044269750606
30
0
0
SPLINE
5
19B
100
AcDbEntity
8
1
62
256
6
ByLayer
370
18
48
1
60
0
100
AcDbSpline
70
4
71
3
72
27
73
23
40
0
40
0
40
0
40
0
40
0.0673321232354205
40
0.134719165576338
40
0.202100939995892
40
0.269425873740139
40
0.324980064820235
40
0.380602508459119
40
0.436236404204704
40
0.491836935761896
40
0.547372726965776
40
0.592758825371187
40
0.638245831036222
40
0.683763061968599
40
0.729255093239025
40
0.774683886055334
40
0.820031097840821
40
0.856275057995569
40
0.892632717457024
40
0.929024675463349
40
0.965388233773431
40
1
40
1
40
1
40
1
41
1
10
47.4926308944494
20
-17.1976214986645
30
0
41
1
10
47.4874017063753
20
-17.1985483666842
30
0
41
1
10
47.4770262677888
20
-17.2004637888871
30
0
41
1
10
47.4617089895058
20
-17.2035206436267
30
0
41
1
10
47.4466823945621
20
-17.2067592941605
30
0
41
1
10
47.432837582047
20
-17.2099789677087
30
0
41
1
10
47.420137849139
20
-17.2131446557715
30
0
41
1
10
47.408539802691
20
-17.2162267222695
30
0
41
1
10
47.3972386501015
20
-17.2194346215297
30
0
41
1
10
47.3862764401101
20
-17.2227666316904
30
0
41
1
10
47.3763345040925
20
-17.2260123173946
30
0
41
1
10
47.3673626976516
20
-17.2291485622805
30
0
41
1
10
47.3593081486772
20
-17.2321552184844
30
0
41
1
10
47.3515841645514
20
-17.2352497607434
30
0
41
1
10
47.3442371718928
20
-17.2384283618925
30
0
41
1
10
47.3373143165281
20
-17.2416872408682
30
0
41
1
10
47.3312885655711
20
-17.2448011854882
30
0
41
1
10
47.326094207025
20
-17.2477538843345
30
0
41
1
10
47.3216555165482
20
-17.2505306899199
30
0
41
1
10
47.3176058879979
20
-17.2533549844141
30
0
41
1
10
47.3140417652489
20
-17.2561742581458
30
0
41
1
10
47.3119915981759
20
-17.2580583650191
30
0
41
1
10
47.3110617752464
20
-17.2589824651411
30
0
0
SPLINE
5
19C
100
AcDbEntity
8
1
62
256
6
ByLayer
370
18
48
1
60
0
100
AcDbSpline
70
4
71
3
72
13
73
9
40
0
40
0
40
0
40
0
40
0.166659329483101
40
0.333319087910337
40
0.499978448373656
40
0.666652159741751
40
0.833326260798078
40
1
40
1
40
1
40
1
41
1
10
48.6120167786994
20
-16.9890430381476
30
0
41
1
10
48.5498586073027
20
-17.0012022948414
30
0
41
1
10
48.4255323302144
20
-17.0253273494699
30
0
41
1
10
48.2390125849443
20
-17.060930329564
30
0
41
1
10
48.0524603008991
20
-17.0959620822975
30
0
41
1
10
47.8658775148262
20
-17.1304307719169
30
0
41
1
10
47.6792661830568
20
-17.1643441473128
30
0
41
1
10
47.5548449813953
20
-17.1865900014105
30
0
41
1
10
47.4926308944494
20
-17.1976214986645
30
0
0
SPLINE
5
19D
100
AcDbEntity
8
1
62
256
6
ByLayer
370
18
48
1
60
0
100
AcDbSpline
70
4
71
3
72
25
73
21
40
0
40
0
40
0
40
0
40
0.0467115821854371
40
0.0934827546545953
40
0.140214634532838
40
0.188488561364051
40
0.236801190203213
40
0.285087022484337
40
0.33660139264234
40
0.388166292382474
40
0.439742298993363
40
0.491271829142451
40
0.54417603487331
40
0.597115595938363
40
0.650060370608149
40
0.702971690423229
40
0.776936914593443
40
0.850903817925852
40
0.925451547292854
40
1
40
1
40
1
40
1
41
1
10
48.7799494268417
20
-16.9271764071832
30
0
41
1
10
48.7786695203942
20
-16.9284485030443
30
0
41
1
10
48.7758962287533
20
-16.9309700762913
30
0
41
1
10
48.771065078304
20
-16.9346839015717
30
0
41
1
10
48.7656089234214
20
-16.9383564460593
30
0
41
1
10
48.7595652355852
20
-16.9419794507099
30
0
41
1
10
48.7529770198363
20
-16.9455455948386
30
0
41
1
10
48.7458051242109
20
-16.9490911697016
30
0
41
1
10
48.7380664769192
20
-16.9526083692503
30
0
41
1
10
48.7297729428852
20
-16.9560892723816
30
0
41
1
10
48.7211313702014
20
-16.959458010777
30
0
41
1
10
48.7121009537225
20
-16.9627436424921
30
0
41
1
10
48.7027028443992
20
-16.9659448832491
30
0
41
1
10
48.6929512008014
20
-16.9690596624141
30
0
41
1
10
48.6829540596294
20
-16.9720601444304
30
0
41
1
10
48.6713809498261
20
-16.9753295109779
30
0
41
1
10
48.6581450853264
20
-16.9788108893837
30
0
41
1
10
48.6431295933552
20
-16.9824470885327
30
0
41
1
10
48.6277547380895
20
-16.9858718627168
30
0
41
1
10
48.6172950533539
20
-16.9880108915853
30
0
41
1
10
48.6120167786994
20
-16.9890430381476
30
0
0
SPLINE
5
19E
100
AcDbEntity
8
1
62
256
6
ByLayer
370
18
48
1
60
0
100
AcDbSpline
70
4
71
3
72
29
73
25
40
0
40
0
40
0
40
0
40
0.0469829904522524
40
0.0940851689066629
40
0.141199311705206
40
0.188247128015369
40
0.235184412892551
40
0.283009930848703
40
0.331067573310641
40
0.379165060978611
40
0.42714716794001
40
0.474909033726711
40
0.515871681415264
40
0.557007095415451
40
0.598206788354216
40
0.639352462739797
40
0.680323752373923
40
0.726170510734816
40
0.772144609490958
40
0.818142819746815
40
0.864022545541315
40
0.909329688477491
40
0.954681035323063
40
1
40
1
40
1
40
1
41
1
10
48.8062700024909
20
-16.794789814356
30
0
41
1
10
48.8086683905706
20
-16.7950275069176
30
0
41
1
10
48.8134083400847
20
-16.7955524217643
30
0
41
1
10
48.8203471402893
20
-16.7964840768033
30
0
41
1
10
48.8270710129002
20
-16.7975697915054
30
0
41
1
10
48.8335335213207
20
-16.7988149978928
30
0
41
1
10
48.8397318767307
20
-16.8002342524324
30
0
41
1
10
48.8456103434372
20
-16.8018466230509
30
0
41
1
10
48.8511176338925
20
-16.8036574453667
30
0
41
1
10
48.8561685159613
20
-16.8056506559102
30
0
41
1
10
48.8606912324619
20
-16.8078170120815
30
0
41
1
10
48.8644368346658
20
-16.8100407091411
30
0
41
1
10
48.8674398437118
20
-16.8122932898165
30
0
41
1
10
48.8698043005997
20
-16.8145380427852
30
0
41
1
10
48.871682815429
20
-16.8168771295258
30
0
41
1
10
48.8730648077445
20
-16.8192902615871
30
0
41
1
10
48.8739726047523
20
-16.8218613336764
30
0
41
1
10
48.8743295106581
20
-16.8245871993068
30
0
41
1
10
48.874110859496
20
-16.8274561827626
30
0
41
1
10
48.8733359744836
20
-16.8303483738519
30
0
41
1
10
48.8720405073317
20
-16.8332337729787
30
0
41
1
10
48.8702630435545
20
-16.8360992263015
30
0
41
1
10
48.8680530067092
20
-16.8389371826092
30
0
41
1
10
48.866316907446
20
-16.8408117146989
30
0
41
1
10
48.8653810306578
20
-16.8417448033671
30
0
0
SPLINE
5
19F
100
AcDbEntity
8
1
62
256
6
ByLayer
370
18
48
1
60
0
100
AcDbSpline
70
4
71
1
72
4
73
2
40
0
40
0
40
1
40
1
41
1
10
47.9779435633993
20
-16.7123088297146
30
0
41
1
10
48.8062700024909
20
-16.794789814356
30
0
0
SPLINE
5
1A0
100
AcDbEntity
8
1
62
256
6
ByLayer
370
18
48
1
60
0
100
AcDbSpline
70
4
71
3
72
31
73
27
40
0
40
0
40
0
40
0
40
0.0467065332185848
40
0.0935309900908867
40
0.140367186639237
40
0.187137672301702
40
0.233798829168741
40
0.273369845235827
40
0.313124890818805
40
0.352948451993128
40
0.392741129336003
40
0.43242474522113
40
0.471947934104697
40
0.512652594422329
40
0.553530537884241
40
0.594472610679067
40
0.635360176814121
40
0.676072942265232
40
0.721428708511106
40
0.766910657155474
40
0.812416628244141
40
0.857805240284742
40
0.903600363827878
40
0.949512739004885
40
0.995518836505368
40
1
40
1
40
1
40
1
41
1
10
47.9779435633993
20
-16.7123088297146
30
0
41
1
10
47.9752372672174
20
-16.712040398994
30
0
41
1
10
47.9698885958033
20
-16.7114475722869
30
0
41
1
10
47.9620580462705
20
-16.7103954067251
30
0
41
1
10
47.95446924707
20
-16.7091689390469
30
0
41
1
10
47.9471744303796
20
-16.7077618767481
30
0
41
1
10
47.9405723688496
20
-16.7062480827229
30
0
41
1
10
47.9346511669961
20
-16.7046459393801
30
0
41
1
10
47.92937311509
20
-16.7029836827986
30
0
41
1
10
47.9244342026684
20
-16.701174481214
30
0
41
1
10
47.9198814507176
20
-16.6992239655102
30
0
41
1
10
47.9157613833131
20
-16.6971381155259
30
0
41
1
10
47.9120781993603
20
-16.6948974764619
30
0
41
1
10
47.9088936904063
20
-16.6924954226448
30
0
41
1
10
47.9062227920503
20
-16.6899416665043
30
0
41
1
10
47.9041018933451
20
-16.6872772500767
30
0
41
1
10
47.9025434081551
20
-16.6845250366659
30
0
41
1
10
47.9015243630576
20
-16.6815934987318
30
0
41
1
10
47.9011284714098
20
-16.6784856745719
30
0
41
1
10
47.901379706583
20
-16.6752144750176
30
0
41
1
10
47.9022558703287
20
-16.6719119859101
30
0
41
1
10
47.903725390118
20
-16.6685885635487
30
0
41
1
10
47.9057660502447
20
-16.6652571220155
30
0
41
1
10
47.9083179593939
20
-16.6619246316368
30
0
41
1
10
47.910465394615
20
-16.6596103388316
30
0
41
1
10
47.9116429084907
20
-16.6584033038118
30
0
41
1
10
47.911748030588
20
-16.6582962100926
30
0
0
SPLINE
5
1A1
100
AcDbEntity
8
1
62
256
6
ByLayer
370
18
48
1
60
0
100
AcDbSpline
70
4
71
3
72
14
73
10
40
0
40
0
40
0
40
0
40
0.166656174020745
40
0.333312878852478
40
0.499969010655765
40
0.624976516828488
40
0.749984532976952
40
0.874992525730106
40
1
40
1
40
1
40
1
41
1
10
48.1089293912516
20
-16.5813230018623
30
0
41
1
10
48.1746364986935
20
-16.5669821647959
30
0
41
1
10
48.3060318192204
20
-16.5380679262642
30
0
41
1
10
48.5030690028814
20
-16.4940041170051
30
0
41
1
10
48.6836369621967
20
-16.4529621733694
30
0
41
1
10
48.8477495901026
20
-16.4151266863148
30
0
41
1
10
48.9954207573576
20
-16.3806642220251
30
0
41
1
10
49.1430527236098
20
-16.3457886773583
30
0
41
1
10
49.2414462241787
20
-16.3222584374898
30
0
41
1
10
49.290636072656
20
-16.3104237441909
30
0
0
SPLINE
5
1A2
100
AcDbEntity
8
1
62
256
6
ByLayer
370
18
48
1
60
0
100
AcDbSpline
70
4
71
3
72
25
73
21
40
0
40
0
40
0
40
0
40
0.0746466396433318
40
0.149356582436326
40
0.224062290503768
40
0.298703150564247
40
0.360341407284934
40
0.422057061504044
40
0.483784821542765
40
0.545473918125527
40
0.607089873494646
40
0.660265452689482
40
0.713463096130318
40
0.766629419843448
40
0.807415535810473
40
0.848240760451653
40
0.88905451039553
40
0.929824963237808
40
0.964872063256559
40
1
40
1
40
1
40
1
41
1
10
49.290636072656
20
-16.3104237441909
30
0
41
1
10
49.2962888418104
20
-16.3090641212718
30
0
41
1
10
49.3075009184107
20
-16.3062568784487
30
0
41
1
10
49.3240410454118
20
-16.3017834286299
30
0
41
1
10
49.3402559480283
20
-16.2970521153563
30
0
41
1
10
49.3551890241326
20
-16.2923556401412
30
0
41
1
10
49.3688837999148
20
-16.2877443886226
30
0
41
1
10
49.3813875368995
20
-16.2832592367898
30
0
41
1
10
49.3935623500601
20
-16.2785956281599
30
0
41
1
10
49.4053606089819
20
-16.2737555091868
30
0
41
1
10
49.4162214049498
20
-16.2689675225075
30
0
41
1
10
49.4261707102863
20
-16.2642573989628
30
0
41
1
10
49.4352327817178
20
-16.2596468101956
30
0
41
1
10
49.4431897739683
20
-16.2552666068189
30
0
41
1
10
49.4501117777682
20
-16.2511523282293
30
0
41
1
10
49.456078254638
20
-16.2473340533544
30
0
41
1
10
49.4616856111165
20
-16.2434361306792
30
0
41
1
10
49.4666468879939
20
-16.2396483058129
30
0
41
1
10
49.4709936906351
20
-16.2359829353307
30
0
41
1
10
49.4734904552317
20
-16.2336315714886
30
0
41
1
10
49.4746798446511
20
-16.2324459893738
30
0
0
SPLINE
5
1A3
100
AcDbEntity
8
1
62
256
6
ByLayer
370
18
48
1
60
0
100
AcDbSpline
70
4
71
3
72
29
73
25
40
0
40
0
40
0
40
0
40
0.0553728329638819
40
0.110870851377201
40
0.16632424139787
40
0.221636070799767
40
0.266713700944841
40
0.312010219068195
40
0.357339760169938
40
0.402556251642938
40
0.447566445881486
40
0.486286014672351
40
0.525176231429096
40
0.564129211320059
40
0.603028082287963
40
0.641754941564002
40
0.684165696906332
40
0.72669345422714
40
0.769244523758088
40
0.811687152937311
40
0.85870419106407
40
0.905813616976686
40
0.952948365971917
40
1
40
1
40
1
40
1
41
1
10
49.5796693674397
20
-16.1274564665852
30
0
41
1
10
49.5810049202622
20
-16.1261261133749
30
0
41
1
10
49.583493984806
20
-16.1234477176827
30
0
41
1
10
49.5867024342096
20
-16.1193794356513
30
0
41
1
10
49.5892930478325
20
-16.1152808310259
30
0
41
1
10
49.5910839823107
20
-16.1114255935228
30
0
41
1
10
49.5921323161796
20
-16.107832152598
30
0
41
1
10
49.5925511292173
20
-16.1045116304023
30
0
41
1
10
49.5923904430314
20
-16.1012342917186
30
0
41
1
10
49.5916167873946
20
-16.0980337742217
30
0
41
1
10
49.5902627652539
20
-16.0950817079226
30
0
41
1
10
49.588390312311
20
-16.0923864049383
30
0
41
1
10
49.586122772168
20
-16.0899355448645
30
0
41
1
10
49.5833881012634
20
-16.0876041535256
30
0
41
1
10
49.5802137005584
20
-16.085411297952
30
0
41
1
10
49.5765010137342
20
-16.0833077552572
30
0
41
1
10
49.5722195036909
20
-16.081321040265
30
0
41
1
10
49.5673853148235
20
-16.079462781298
30
0
41
1
10
49.5621781403025
20
-16.077793151946
30
0
41
1
10
49.5564479511899
20
-16.0762591860787
30
0
41
1
10
49.5501943599746
20
-16.0748811542673
30
0
41
1
10
49.5434355209939
20
-16.0736680527693
30
0
41
1
10
49.5364279873223
20
-16.0726566597931
30
0
41
1
10
49.5316291525739
20
-16.0721061439717
30
0
41
1
10
49.5291969176825
20
-16.0718628991644
30
0
0
SPLINE
5
1A4
100
AcDbEntity
8
1
62
256
6
ByLayer
370
18
48
1
60
0
100
AcDbSpline
70
4
71
1
72
4
73
2
40
0
40
0
40
1
40
1
41
1
10
49.5291969176825
20
-16.0718628991644
30
0
41
1
10
48.7017032970902
20
-15.9885490960237
30
0
0
SPLINE
5
1A5
100
AcDbEntity
8
1
62
256
6
ByLayer
370
18
48
1
60
0
100
AcDbSpline
70
4
71
3
72
26
73
22
40
0
40
0
40
0
40
0
40
0.0597478977288489
40
0.119541610895688
40
0.179348213568401
40
0.239137275337012
40
0.298881268926089
40
0.36041149024457
40
0.422013856838479
40
0.483626964653896
40
0.545203544571104
40
0.606712113717958
40
0.656297560441388
40
0.705958910509915
40
0.755625284844854
40
0.805247200657751
40
0.854799524950073
40
0.895994989736983
40
0.937212261344129
40
0.978396200430777
40
1
40
1
40
1
40
1
41
1
10
48.8613885216406
20
-15.8288638714733
30
0
41
1
10
48.8561186965383
20
-15.830259983625
30
0
41
1
10
48.8456436780161
20
-15.8331161913349
30
0
41
1
10
48.8301260102887
20
-15.8375913722792
30
0
41
1
10
48.8148273555692
20
-15.8422542333581
30
0
41
1
10
48.7997723882244
20
-15.8471003787455
30
0
41
1
10
48.784835406142
20
-15.8521773094266
30
0
41
1
10
48.7700387260094
20
-15.8574910263462
30
0
41
1
10
48.7554206803696
20
-15.8630519334959
30
0
41
1
10
48.7411673538854
20
-15.8688101300284
30
0
41
1
10
48.7273318071322
20
-15.8747630733405
30
0
41
1
10
48.7148248412102
20
-15.8805141570791
30
0
41
1
10
48.7035813410223
20
-15.8860236468399
30
0
41
1
10
48.6935388438779
20
-15.8912594687809
30
0
41
1
10
48.6839156976779
20
-15.896631402452
30
0
41
1
10
48.6747758394661
20
-15.9021350330966
30
0
41
1
10
48.666661165233
20
-15.9074517932744
30
0
41
1
10
48.6595245424859
20
-15.9125558655274
30
0
41
1
10
48.6533187230149
20
-15.9174250317112
30
0
41
1
10
48.6485468462919
20
-15.9215936640542
30
0
41
1
10
48.6459074468293
20
-15.9241387162152
30
0
41
1
10
48.6450262605245
20
-15.9250179814877
30
0
0
SPLINE
5
1A6
100
AcDbEntity
8
1
62
256
6
ByLayer
370
18
48
1
60
0
100
AcDbSpline
70
4
71
3
72
15
73
11
40
0
40
0
40
0
40
0
40
0.124987626519733
40
0.249976035891166
40
0.374964481729617
40
0.499952157977412
40
0.624963745559764
40
0.749976040242815
40
0.874988367710743
40
1
40
1
40
1
40
1
41
1
10
50.1238807392686
20
-15.4771790775783
30
0
41
1
10
50.0713860645528
20
-15.4925428601318
30
0
41
1
10
49.9663688520639
20
-15.5230892708136
30
0
41
1
10
49.8087588406161
20
-15.5683622456421
30
0
41
1
10
49.6510690244885
20
-15.613097348719
30
0
41
1
10
49.4932922988911
20
-15.6573030003335
30
0
41
1
10
49.3354313014295
20
-15.700985650091
30
0
41
1
10
49.1774884807764
20
-15.7441514565076
30
0
41
1
10
49.0194766158315
20
-15.7868029943587
30
0
41
1
10
48.9140918567285
20
-15.814900119649
30
0
41
1
10
48.8613885216406
20
-15.8288638714733
30
0
0
SPLINE
5
1A7
100
AcDbEntity
8
1
62
256
6
ByLayer
370
18
48
1
60
0
100
AcDbSpline
70
4
71
3
72
27
73
23
40
0
40
0
40
0
40
0
40
0.0352049245813073
40
0.0704420347158452
40
0.105688215493663
40
0.140905519858998
40
0.188945502706599
40
0.237011272674305
40
0.285059674552988
40
0.336555269018634
40
0.388095031461773
40
0.439659149239474
40
0.491216872863635
40
0.542727544886144
40
0.608798282372549
40
0.674912092446973
40
0.741030905589011
40
0.807108469793581
40
0.855273701185154
40
0.903438992974472
40
0.951719508429886
40
1
40
1
40
1
40
1
41
1
10
50.3285109163654
20
-15.3786149176595
30
0
41
1
10
50.3270339595493
20
-15.3800879832043
30
0
41
1
10
50.3239612799179
20
-15.3830135474808
30
0
41
1
10
50.3189812439749
20
-15.3873385911595
30
0
41
1
10
50.31368274698
20
-15.3915954311236
30
0
41
1
10
50.3074195176106
20
-15.3962900256819
30
0
41
1
10
50.3001006082457
20
-15.4013907951818
30
0
41
1
10
50.2916415929853
20
-15.4068591716776
30
0
41
1
10
50.282594319165
20
-15.4123258430486
30
0
41
1
10
50.2729742383267
20
-15.4177840852347
30
0
41
1
10
50.2627860386384
20
-15.4232247446628
30
0
41
1
10
50.2522811057298
20
-15.4285238818957
30
0
41
1
10
50.2414950432913
20
-15.4336803631052
30
0
41
1
10
50.2294172110345
20
-15.4391686954871
30
0
41
1
10
50.2159836211366
20
-15.4449448404546
30
0
41
1
10
50.201131070719
20
-15.450954975769
30
0
41
1
10
50.1859581784864
20
-15.4567401227239
30
0
41
1
10
50.1718934286247
20
-15.461797277441
30
0
41
1
10
50.1590403415459
20
-15.4661913024966
30
0
41
1
10
50.1474611039069
20
-15.469982057234
30
0
41
1
10
50.135744997827
20
-15.4736527688773
30
0
41
1
10
50.1278490096938
20
-15.4760175735034
30
0
41
1
10
50.1238807392686
20
-15.4771790775783
30
0
0
SPLINE
5
1A8
100
AcDbEntity
8
1
62
256
6
ByLayer
370
18
48
1
60
0
100
AcDbSpline
70
4
71
3
72
30
73
26
40
0
40
0
40
0
40
0
40
0.0458139173897863
40
0.0917251722306436
40
0.137602333357694
40
0.183369654145268
40
0.220697124387368
40
0.258187271127479
40
0.295705369488761
40
0.333142892432213
40
0.370426039033309
40
0.412579124511612
40
0.454916864320766
40
0.497265603641261
40
0.539433753423918
40
0.577580670686348
40
0.615827391321109
40
0.654096197561752
40
0.692273307123563
40
0.742168981719829
40
0.792208918485505
40
0.842351941499948
40
0.892492978583983
40
0.942473705573705
40
1
40
1
40
1
40
1
41
1
10
50.4174523938181
20
-15.1836074230288
30
0
41
1
10
50.4198820368095
20
-15.1838329817774
30
0
41
1
10
50.4246719977416
20
-15.1843640215934
30
0
41
1
10
50.4316562890171
20
-15.185390963599
30
0
41
1
10
50.4383698234438
20
-15.1866728570926
30
0
41
1
10
50.4443639187933
20
-15.1881280981261
30
0
41
1
10
50.4496455160432
20
-15.189724109709
30
0
41
1
10
50.4542591186573
20
-15.1914106733367
30
0
41
1
10
50.4585375609622
20
-15.1932959092746
30
0
41
1
10
50.4624269541685
20
-15.195374383205
30
0
41
1
10
50.4660307815756
20
-15.1977422667233
30
0
41
1
10
50.4692218378826
20
-15.2004341772543
30
0
41
1
10
50.4719183149573
20
-15.2034490351732
30
0
41
1
10
50.4739845566748
20
-15.2066437085406
30
0
41
1
10
50.475356296564
20
-15.2098808284114
30
0
41
1
10
50.4760959177205
20
-15.2131198978262
30
0
41
1
10
50.4763200653593
20
-15.2163256343409
30
0
41
1
10
50.4760817323755
20
-15.2195848773274
30
0
41
1
10
50.475339580916
20
-15.2232134424993
30
0
41
1
10
50.4739635470914
20
-15.2272076265801
30
0
41
1
10
50.4718551342952
20
-15.2315525298264
30
0
41
1
10
50.4691944026568
20
-15.2358892827027
30
0
41
1
10
50.4660503461947
20
-15.2401938877439
30
0
41
1
10
50.4622956275065
20
-15.2446675841236
30
0
41
1
10
50.4594518388225
20
-15.2476798918336
30
0
41
1
10
50.4578444234623
20
-15.2492814105626
30
0
0
SPLINE
5
1A9
100
AcDbEntity
8
1
62
256
6
ByLayer
370
18
48
1
60
0
100
AcDbSpline
70
4
71
1
72
4
73
2
40
0
40
0
40
1
40
1
41
1
10
49.5849250668418
20
-15.105327326272
30
0
41
1
10
50.4174523938181
20
-15.1836074230288
30
0
0
SPLINE
5
1AA
100
AcDbEntity
8
1
62
256
6
ByLayer
370
18
48
1
60
0
100
AcDbSpline
70
4
71
3
72
32
73
28
40
0
40
0
40
0
40
0
40
0.0459218700537469
40
0.0919412983441606
40
0.137926633199012
40
0.18380190705464
40
0.221177790209669
40
0.25871665825674
40
0.296283157324996
40
0.333768578969097
40
0.371099445576524
40
0.404854704099234
40
0.438750058778335
40
0.472699415785485
40
0.506606669360615
40
0.540371949293346
40
0.57839152463489
40
0.616511286090432
40
0.654653020522243
40
0.692702634761376
40
0.74217833198586
40
0.791797116015276
40
0.841518166333254
40
0.891237263078346
40
0.94079735018631
40
0.992848991402334
40
1
40
1
40
1
40
1
41
1
10
49.5849250668419
20
-15.1053273262721
30
0
41
1
10
49.5821617708965
20
-15.1050693479023
30
0
41
1
10
49.576714187226
20
-15.1044630046053
30
0
41
1
10
49.5687715108558
20
-15.1032929251971
30
0
41
1
10
49.561137234056
20
-15.1018346030008
30
0
41
1
10
49.5543236227206
20
-15.1001814015031
30
0
41
1
10
49.5483221679876
20
-15.0983705820097
30
0
41
1
10
49.5430818930126
20
-15.0964588265395
30
0
41
1
10
49.5382225651069
20
-15.0943223764136
30
0
41
1
10
49.5338057441018
20
-15.0919670860636
30
0
41
1
10
49.5300094964103
20
-15.0894773047522
30
0
41
1
10
49.5268334889374
20
-15.0868737827267
30
0
41
1
10
49.5242171754115
20
-15.0841947658212
30
0
41
1
10
49.5220570075425
20
-15.0813711532906
30
0
41
1
10
49.5203641744067
20
-15.0784275176341
30
0
41
1
10
49.5190999833291
20
-15.0752526944724
30
0
41
1
10
49.5183387666932
20
-15.0718454436262
30
0
41
1
10
49.5181046205798
20
-15.0682179538112
30
0
41
1
10
49.5183950180853
20
-15.0645278184535
30
0
41
1
10
49.5192574421642
20
-15.0604253442421
30
0
41
1
10
49.5208355561923
20
-15.0559136472851
30
0
41
1
10
49.5232367470279
20
-15.0510082930887
30
0
41
1
10
49.5262579337197
20
-15.0461075948995
30
0
41
1
10
49.5298221786467
20
-15.0412380646029
30
0
41
1
10
49.5339349564372
20
-15.0363344659037
30
0
41
1
10
49.5372066807486
20
-15.0328456084095
30
0
41
1
10
49.5390828539697
20
-15.0309608168991
30
0
41
1
10
49.5393108978976
20
-15.030733343066
30
0
0
SPLINE
5
1AB
100
AcDbEntity
8
1
62
256
6
ByLayer
370
18
48
1
60
0
100
AcDbSpline
70
4
71
3
72
17
73
13
40
0
40
0
40
0
40
0
40
0.0999848181261503
40
0.199970485153554
40
0.299956402655765
40
0.399942007869222
40
0.499926774150962
40
0.599940821861996
40
0.6999558144559
40
0.799971085925807
40
0.899986009868202
40
1
40
1
40
1
40
1
41
1
10
49.7805012981756
20
-14.9097510949383
30
0
41
1
10
49.8264225231785
20
-14.8950804091557
30
0
41
1
10
49.9182376897037
20
-14.8655926944394
30
0
41
1
10
50.0558788442382
20
-14.8209243250165
30
0
41
1
10
50.1934351076349
20
-14.7758132545735
30
0
41
1
10
50.3309034899574
20
-14.7302559624839
30
0
41
1
10
50.468294706086
20
-14.6842436738056
30
0
41
1
10
50.605606743287
20
-14.6377718587859
30
0
41
1
10
50.7428374379007
20
-14.5908358402252
30
0
41
1
10
50.8799704335285
20
-14.5434357242385
30
0
41
1
10
51.0170024013266
20
-14.4955679108453
30
0
41
1
10
51.1082871151951
20
-14.4633401901211
30
0
41
1
10
51.153912058169
20
-14.4471477586779
30
0
0
SPLINE
5
1AC
100
AcDbEntity
8
1
62
256
6
ByLayer
370
18
48
1
60
0
100
AcDbSpline
70
4
71
3
72
26
73
22
40
0
40
0
40
0
40
0
40
0.0580730029314667
40
0.116166760220995
40
0.174260701745645
40
0.232333955996443
40
0.290415009857753
40
0.348518488932925
40
0.406619751807316
40
0.464697782388812
40
0.525872905049396
40
0.587084988198347
40
0.648287777568061
40
0.709450218884666
40
0.757500391424857
40
0.805563410673959
40
0.853607271501152
40
0.890198207742889
40
0.926814005449846
40
0.963421032455607
40
1
40
1
40
1
40
1
41
1
10
51.153912058169
20
-14.4471477586779
30
0
41
1
10
51.1592161694795
20
-14.4452651175286
30
0
41
1
10
51.1697640109357
20
-14.4414308767832
30
0
41
1
10
51.1854047379651
20
-14.435472089555
30
0
41
1
10
51.2008488167584
20
-14.4293126938861
30
0
41
1
10
51.2160854279627
20
-14.422956921869
30
0
41
1
10
51.231105469768
20
-14.4164082738801
30
0
41
1
10
51.2458944382858
20
-14.4096660872501
30
0
41
1
10
51.2604321189959
20
-14.4027315787523
30
0
41
1
10
51.2749510012985
20
-14.3954790234078
30
0
41
1
10
51.2894175971467
20
-14.3878960229951
30
0
41
1
10
51.3037782928791
20
-14.3799643647812
30
0
41
1
10
51.3177390524599
20
-14.3718104169996
30
0
41
1
10
51.3302862351883
20
-14.3640309399843
30
0
41
1
10
51.3414852245461
20
-14.3566766600202
30
0
41
1
10
51.3514020977647
20
-14.3497892464974
30
0
41
1
10
51.36016904119
20
-14.3433113897643
30
0
41
1
10
51.3678535542251
20
-14.3372813359759
30
0
41
1
10
51.3745243158568
20
-14.3317308125702
30
0
41
1
10
51.3808719978111
20
-14.3260903275837
30
0
41
1
10
51.3848495063351
20
-14.3222717984203
30
0
41
1
10
51.3867774158241
20
-14.3203484182007
30
0
0
SPLINE
5
1AD
100
AcDbEntity
8
1
62
256
6
ByLayer
370
18
48
1
60
0
100
AcDbSpline
70
4
71
3
72
31
73
27
40
0
40
0
40
0
40
0
40
0.0563219054507003
40
0.112785940741386
40
0.169242296545837
40
0.22559832423247
40
0.281829427724963
40
0.325519937861193
40
0.369321330400892
40
0.413076623495584
40
0.456704098904755
40
0.491696827162189
40
0.526804823199035
40
0.561888074354211
40
0.596846943989923
40
0.631990566741662
40
0.667282182457733
40
0.702580572689821
40
0.737733471986001
40
0.770125447852953
40
0.802603111555529
40
0.835100282348842
40
0.867518926193567
40
0.911646085698385
40
0.955844096395913
40
1
40
1
40
1
40
1
41
1
10
51.5488079037325
20
-14.1583179302924
30
0
41
1
10
51.5506394557055
20
-14.1564928359053
30
0
41
1
10
51.5541711776722
20
-14.1528139648363
30
0
41
1
10
51.5590919557879
20
-14.1472195057756
30
0
41
1
10
51.563544688489
20
-14.141554943989
30
0
41
1
10
51.5674534748213
20
-14.1358388514288
30
0
41
1
10
51.57049599148
20
-14.1305145334599
30
0
41
1
10
51.5727506693184
20
-14.1256047631518
30
0
41
1
10
51.574311294728
20
-14.1211269882694
30
0
41
1
10
51.5753103960426
20
-14.1166808578639
30
0
41
1
10
51.575655034312
20
-14.1125889169995
30
0
41
1
10
51.5754130106182
20
-14.1088678371099
30
0
41
1
10
51.5747023279117
20
-14.1055172906363
30
0
41
1
10
51.5734868751335
20
-14.1022850002868
30
0
41
1
10
51.5717415750032
20
-14.0991996422411
30
0
41
1
10
51.5694265671724
20
-14.0962981091867
30
0
41
1
10
51.5665736834501
20
-14.0935979101546
30
0
41
1
10
51.5632278157287
20
-14.091123998802
30
0
41
1
10
51.5595183708445
20
-14.0889584022335
30
0
41
1
10
51.5555137298423
20
-14.0870941760518
30
0
41
1
10
51.5513034663644
20
-14.0854943695826
30
0
41
1
10
51.5468208302839
20
-14.0841035835409
30
0
41
1
10
51.5415386308915
20
-14.0827745802082
30
0
41
1
10
51.5353944839269
20
-14.0815885199408
30
0
41
1
10
51.5283602151045
20
-14.0806169521357
30
0
41
1
10
51.5235288940684
20
-14.0801619590464
30
0
41
1
10
51.5210747986046
20
-14.0799850182423
30
0
0
SPLINE
5
1AE
100
AcDbEntity
8
1
62
256
6
ByLayer
370
18
48
1
60
0
100
AcDbSpline
70
4
71
2
72
6
73
3
40
0
40
0
40
0
40
1
40
1
40
1
41
1
10
51.5210747986046
20
-14.0799850182423
30
0
41
1
10
51.0972203372382
20
-14.0487938251949
30
0
41
1
10
50.6735622927399
20
-14.016690100374
30
0
0
SPLINE
5
1AF
100
AcDbEntity
8
1
62
256
6
ByLayer
370
18
48
1
60
0
100
AcDbSpline
70
4
71
3
72
26
73
22
40
0
40
0
40
0
40
0
40
0.0617812411722286
40
0.123584401537422
40
0.185387442501668
40
0.247168520796568
40
0.308964159613157
40
0.370784730348291
40
0.432601933675257
40
0.494392978673307
40
0.546580377784936
40
0.59880653336191
40
0.651036683467097
40
0.703245593930962
40
0.755418519040666
40
0.802745295696896
40
0.850085885570239
40
0.897404473857066
40
0.933545780577073
40
0.969717783905008
40
1
40
1
40
1
40
1
41
1
10
50.9175924087762
20
-13.7726599843377
30
0
41
1
10
50.9109679715325
20
-13.7752136232908
30
0
41
1
10
50.8977944842843
20
-13.7804039764634
30
0
41
1
10
50.8782600007718
20
-13.788439378726
30
0
41
1
10
50.8589715721738
20
-13.7967156806017
30
0
41
1
10
50.8399428288078
20
-13.8052275208824
30
0
41
1
10
50.8211858090704
20
-13.8139700833745
30
0
41
1
10
50.8027218222304
20
-13.8229455245299
30
0
41
1
10
50.7845806656539
20
-13.8321529789925
30
0
41
1
10
50.7677144229183
20
-13.8411033485651
30
0
41
1
10
50.7520811582016
20
-13.8497566984663
30
0
41
1
10
50.7376452357801
20
-13.8580826718641
30
0
41
1
10
50.7235401225994
20
-13.8665862474527
30
0
41
1
10
50.7098096598671
20
-13.8752677949609
30
0
41
1
10
50.6969059549114
20
-13.883855377518
30
0
41
1
10
50.6848241737461
20
-13.8923334973124
30
0
41
1
10
50.673575721506
20
-13.9006924713232
30
0
41
1
10
50.6636705917195
20
-13.908545546848
30
0
41
1
10
50.6550323355338
20
-13.9158505856525
30
0
41
1
10
50.6479756919809
20
-13.9222090931078
30
0
41
1
10
50.6436616103557
20
-13.9263843552909
30
0
41
1
10
50.6417455769184
20
-13.9282986648687
30
0
0
SPLINE
5
1B0
100
AcDbEntity
8
1
62
256
6
ByLayer
370
18
48
1
60
0
100
AcDbSpline
70
4
71
3
72
19
73
15
40
0
40
0
40
0
40
0
40
0.083307683119905
40
0.166615994822271
40
0.249924327405994
40
0.33323203900069
40
0.41653951113898
40
0.499847567414118
40
0.583155643337119
40
0.666463142268137
40
0.749847073843918
40
0.833231549277587
40
0.91661604320513
40
1
40
1
40
1
40
1
41
1
10
52.4578866611168
20
-13.1431731557301
30
0
41
1
10
52.4153832933294
20
-13.1615788947361
30
0
41
1
10
52.3303283542679
20
-13.1982329701035
30
0
41
1
10
52.2026006209625
20
-13.2527399230163
30
0
41
1
10
52.0747322324818
20
-13.3067774670456
30
0
41
1
10
51.9467264626346
20
-13.3603485256304
30
0
41
1
10
51.8185862342805
20
-13.4134568043273
30
0
41
1
10
51.690314250903
20
-13.4661058811841
30
0
41
1
10
51.5619136918887
20
-13.5182991605586
30
0
41
1
10
51.433348504061
20
-13.570055832125
30
0
41
1
10
51.3046211639786
20
-13.6213789914845
30
0
41
1
10
51.1757341517896
20
-13.6722718427805
30
0
41
1
10
51.0467295942245
20
-13.7227216928
30
0
41
1
10
50.9606508221981
20
-13.7560627864474
30
0
41
1
10
50.9175924087762
20
-13.7726599843377
30
0
0
SPLINE
5
1B1
100
AcDbEntity
8
1
62
256
6
ByLayer
370
18
48
1
60
0
100
AcDbSpline
70
4
71
3
72
25
73
21
40
0
40
0
40
0
40
0
40
0.0412179254494832
40
0.0824688676623762
40
0.123743819850299
40
0.16501889758638
40
0.206257082895226
40
0.258911270442612
40
0.311588120793461
40
0.364270721466129
40
0.416932753580266
40
0.474795466780723
40
0.532684250980921
40
0.590585055346994
40
0.648480079943366
40
0.706348029428039
40
0.779745917538393
40
0.853175138819619
40
0.926603409170061
40
1
40
1
40
1
40
1
41
1
10
52.7341913981768
20
-12.9729344358481
30
0
41
1
10
52.7313600804636
20
-12.9757598755892
30
0
41
1
10
52.7255554996909
20
-12.9813663653537
30
0
41
1
10
52.7164024704921
20
-12.9896382596285
30
0
41
1
10
52.7068733666917
20
-12.9977748208992
30
0
41
1
10
52.6970140188858
20
-13.0057758736318
30
0
41
1
10
52.6859364037389
20
-13.0143732409209
30
0
41
1
10
52.6735846663072
20
-13.0235331791814
30
0
41
1
10
52.6598931976019
20
-13.0332119559516
30
0
41
1
10
52.6458643655444
20
-13.0427005547418
30
0
41
1
10
52.6310627481193
20
-13.052310056358
30
0
41
1
10
52.6154853829707
20
-13.0620282390782
30
0
41
1
10
52.5991177201788
20
-13.071835218711
30
0
41
1
10
52.582462188338
20
-13.0814314762829
30
0
41
1
10
52.5655433044122
20
-13.0908153802322
30
0
41
1
10
52.5468458897637
20
-13.1008085587713
30
0
41
1
10
52.5263041365143
20
-13.1113446641247
30
0
41
1
10
52.5038465367785
20
-13.1223358635114
30
0
41
1
10
52.4810497907382
20
-13.1329717446704
30
0
41
1
10
52.4656425405135
20
-13.1398138612443
30
0
41
1
10
52.4578866611168
20
-13.1431731557301
30
0
0
SPLINE
5
1B2
100
AcDbEntity
8
1
62
256
6
ByLayer
370
18
48
1
60
0
100
AcDbSpline
70
4
71
3
72
34
73
30
40
0
40
0
40
0
40
0
40
0.0314979272066992
40
0.0630529807233557
40
0.0945842147944357
40
0.126049597498186
40
0.158290661280731
40
0.190668796908668
40
0.223005872076869
40
0.25519069287444
40
0.284294860608101
40
0.313538078674984
40
0.342789183428434
40
0.371904156567851
40
0.405532778425159
40
0.43924976839629
40
0.472910394126248
40
0.508147028303987
40
0.543480852885982
40
0.578891995400363
40
0.61430833371884
40
0.649614376517539
40
0.692864483892796
40
0.736160500589383
40
0.779474614609176
40
0.822749424456578
40
0.881818722174077
40
0.940917708038333
40
1
40
1
40
1
40
1
41
1
10
52.9362615247255
20
-12.6647982921215
30
0
41
1
10
52.938167526723
20
-12.6648490541905
30
0
41
1
10
52.9419399483904
20
-12.6650237993606
30
0
41
1
10
52.9474849321371
20
-12.6654946507361
30
0
41
1
10
52.952868148322
20
-12.6662067144444
30
0
41
1
10
52.9580926379891
20
-12.6671865146622
30
0
41
1
10
52.9630997572592
20
-12.6684788452245
30
0
41
1
10
52.9678245261628
20
-12.6701083166869
30
0
41
1
10
52.9721577827388
20
-12.6720706294699
30
0
41
1
10
52.9758949025206
20
-12.6743008558463
30
0
41
1
10
52.9790018876524
20
-12.6767759424709
30
0
41
1
10
52.9815304171544
20
-12.6794283160149
30
0
41
1
10
52.9835745342762
20
-12.6823059182995
30
0
41
1
10
52.9851900658073
20
-12.6855375508006
30
0
41
1
10
52.986272007693
20
-12.689128252476
30
0
41
1
10
52.9867955387106
20
-12.6930474908101
30
0
41
1
10
52.9867548022745
20
-12.6971467853659
30
0
41
1
10
52.9861754738256
20
-12.7013926996801
30
0
41
1
10
52.9850981225284
20
-12.7057602247862
30
0
41
1
10
52.98358574934
20
-12.7101606874918
30
0
41
1
10
52.981696102818
20
-12.7145668443448
30
0
41
1
10
52.9793136634952
20
-12.7192915815667
30
0
41
1
10
52.9764029547554
20
-12.7243239356752
30
0
41
1
10
52.972927402854
20
-12.7296527165944
30
0
41
1
10
52.9691245064246
20
-12.7349409633383
30
0
41
1
10
52.9645433111467
20
-12.7408204248909
30
0
41
1
10
52.9591081259479
20
-12.7472688427272
30
0
41
1
10
52.9527397713001
20
-12.7542566295314
30
0
41
1
10
52.9482765879412
20
-12.7588552041932
30
0
41
1
10
52.9459868614839
20
-12.761138972541
30
0
0
SPLINE
5
1B3
100
AcDbEntity
8
1
62
256
6
ByLayer
370
18
48
1
60
0
100
AcDbSpline
70
4
71
3
72
11
73
7
40
0
40
0
40
0
40
0
40
0.249998614661779
40
0.499997221070453
40
0.749998615474676
40
1
40
1
40
1
40
1
41
1
10
52.0532427781147
20
-12.6370096149992
30
0
41
1
10
52.1267842359213
20
-12.6395721175454
30
0
41
1
10
52.2738884405635
20
-12.6445754465025
30
0
41
1
10
52.4946086744923
20
-12.6517212554406
30
0
41
1
10
52.7153951321532
20
-12.6584904234893
30
0
41
1
10
52.8626319400595
20
-12.662738979929
30
0
41
1
10
52.9362615247255
20
-12.6647982921215
30
0
0
SPLINE
5
1B4
100
AcDbEntity
8
1
62
256
6
ByLayer
370
18
48
1
60
0
100
AcDbSpline
70
4
71
3
72
35
73
31
40
0
40
0
40
0
40
0
40
0.0320594963848524
40
0.0641773954634246
40
0.0962715242242497
40
0.128298543056865
40
0.161049729106354
40
0.19393756684727
40
0.226785423566298
40
0.259481850060708
40
0.289333148596254
40
0.319326804665438
40
0.349327855468944
40
0.37918928535103
40
0.405066201883427
40
0.431009259606017
40
0.456968484507359
40
0.482867500992187
40
0.518576281578952
40
0.554384129001391
40
0.590269870160494
40
0.626160150902868
40
0.661938273396412
40
0.703770796829263
40
0.745645197908139
40
0.787535414963859
40
0.829389525735439
40
0.886462970145513
40
0.943564250503746
40
1
40
1
40
1
40
1
41
1
10
52.0532427781147
20
-12.6370096149992
30
0
41
1
10
52.0510590789087
20
-12.6369363294338
30
0
41
1
10
52.0467383068244
20
-12.63670651501
30
0
41
1
10
52.040391146466
20
-12.6361240696757
30
0
41
1
10
52.0342332861885
20
-12.6352684840391
30
0
41
1
10
52.0282654234555
20
-12.6341108667009
30
0
41
1
10
52.022553934931
20
-12.6326029481384
30
0
41
1
10
52.0171710330926
20
-12.6307190752577
30
0
41
1
10
52.0122360299258
20
-12.6284643293624
30
0
41
1
10
52.0079672736508
20
-12.6259066103704
30
0
41
1
10
52.0044077218891
20
-12.6230680103518
30
0
41
1
10
52.0015051711296
20
-12.6200203004564
30
0
41
1
10
51.9991642044206
20
-12.6167171270314
30
0
41
1
10
51.9974894050561
20
-12.6133485238784
30
0
41
1
10
51.9964039723707
20
-12.6099751892299
30
0
41
1
10
51.9957790170704
20
-12.6066514531775
30
0
41
1
10
51.9955389921439
20
-12.6032384289309
30
0
41
1
10
51.9956760805647
20
-12.5993204730957
30
0
41
1
10
51.9963269655892
20
-12.5948862605045
30
0
41
1
10
51.9976018639417
20
-12.5899412063708
30
0
41
1
10
51.9993735985024
20
-12.5849586493467
30
0
41
1
10
52.0015768663412
20
-12.5799691493221
30
0
41
1
10
52.0042998468835
20
-12.5747103452653
30
0
41
1
10
52.0075605898293
20
-12.5691932227684
30
0
41
1
10
52.0113809255599
20
-12.5634271107239
30
0
41
1
10
52.0155471340818
20
-12.5577004788502
30
0
41
1
10
52.0205537854913
20
-12.5513307808732
30
0
41
1
10
52.0264830203274
20
-12.5443397018942
30
0
41
1
10
52.0333929444973
20
-12.5367851968587
30
0
41
1
10
52.0382215156369
20
-12.5318165810233
30
0
41
1
10
52.0406828312652
20
-12.5293614090557
30
0
0
SPLINE
5
1B5
100
AcDbEntity
8
1
62
256
6
ByLayer
370
18
48
1
60
0
100
AcDbSpline
70
4
71
3
72
22
73
18
40
0
40
0
40
0
40
0
40
0.0666280003630594
40
0.133256813888511
40
0.199885875084635
40
0.266514644130731
40
0.333142607188063
40
0.399770926113889
40
0.466400124553711
40
0.533029591646854
40
0.599658743447257
40
0.666287023255628
40
0.733029005905243
40
0.799771942221462
40
0.86651517077179
40
0.933258058283657
40
1
40
1
40
1
40
1
41
1
10
52.3715025269361
20
-12.3187498661777
30
0
41
1
10
52.4127650801759
20
-12.2993484881817
30
0
41
1
10
52.4952356001545
20
-12.2603910083676
30
0
41
1
10
52.6187780392145
20
-12.2014924193537
30
0
41
1
10
52.7421526275684
20
-12.1421275580244
30
0
41
1
10
52.8653553560305
20
-12.0822944314695
30
0
41
1
10
52.9883827973282
20
-12.0219901820872
30
0
41
1
10
53.1112322346056
20
-11.9612117227434
30
0
41
1
10
53.2339008335693
20
-11.8999560528391
30
0
41
1
10
53.3563846448491
20
-11.8382207293995
30
0
41
1
10
53.4786790009439
20
-11.7760036559847
30
0
41
1
10
53.6008495510074
20
-11.7132666363993
30
0
41
1
10
53.7228929634444
20
-11.650005675015
30
0
41
1
10
53.8448058485906
20
-11.5862169441599
30
0
41
1
10
53.9665147513434
20
-11.521933937309
30
0
41
1
10
54.0880150840078
20
-11.4571550470898
30
0
41
1
10
54.168872695353
20
-11.4136362116313
30
0
41
1
10
54.2092659480631
20
-11.3917938687838
30
0
0
SPLINE
5
1B6
100
AcDbEntity
8
1
62
256
6
ByLayer
370
18
48
1
60
0
100
AcDbSpline
70
4
71
3
72
24
73
20
40
0
40
0
40
0
40
0
40
0.0648727688634462
40
0.129765695406955
40
0.194666583497675
40
0.259561839398825
40
0.324436562529728
40
0.390014492912354
40
0.455616537639356
40
0.521223199778014
40
0.58681867396162
40
0.652391091583808
40
0.710112394779612
40
0.767840770916008
40
0.825558371599438
40
0.86916532689822
40
0.912787185175925
40
0.95640227619543
40
1
40
1
40
1
40
1
41
1
10
54.2092659480631
20
-11.3917938687838
30
0
41
1
10
54.2179391588581
20
-11.3871028955414
30
0
41
1
10
54.2351948520539
20
-11.3776099897526
30
0
41
1
10
54.2608034518149
20
-11.3630354821704
30
0
41
1
10
54.2861285744285
20
-11.3481410823077
30
0
41
1
10
54.3111596869438
20
-11.3329393668619
30
0
41
1
10
54.3359788613586
20
-11.3173851499713
30
0
41
1
10
54.3605820550273
20
-11.301483066761
30
0
41
1
10
54.3849471054463
20
-11.2852234502356
30
0
41
1
10
54.4089593831408
20
-11.2686592283032
30
0
41
1
10
54.4325868309121
20
-11.2517903634284
30
0
41
1
10
54.4548754463015
20
-11.2353000213068
30
0
41
1
10
54.4758543546037
20
-11.2192249908462
30
0
41
1
10
54.4955349493738
20
-11.2035878742635
30
0
41
1
10
54.5132094296261
20
-11.1889744445952
30
0
41
1
10
54.5289609118034
20
-11.175451695913
30
0
41
1
10
54.5428603343383
20
-11.1630718467057
30
0
41
1
10
54.556393094809
20
-11.1505073539005
30
0
41
1
10
54.5651186896373
20
-11.1419998881479
30
0
41
1
10
54.5694111422186
20
-11.1377146918063
30
0
0
SPLINE
5
1B7
100
AcDbEntity
8
1
62
256
6
ByLayer
370
18
48
1
60
0
100
AcDbSpline
70
4
71
3
72
35
73
31
40
0
40
0
40
0
40
0
40
0.0726161532907293
40
0.14527435341946
40
0.217905835483458
40
0.290485531504262
40
0.339228016867149
40
0.387984499616815
40
0.436709764990553
40
0.474295117551547
40
0.511945525735068
40
0.54954885876542
40
0.587069891991122
40
0.610643955146604
40
0.634278488099881
40
0.657880538968844
40
0.681410183423409
40
0.703944880076251
40
0.726532245591439
40
0.749039105710653
40
0.771693916891314
40
0.794437869994455
40
0.81709944516
40
0.837809596815976
40
0.858574980628101
40
0.879305679354957
40
0.909383246267662
40
0.939577481213228
40
0.969835353097355
40
1
40
1
40
1
40
1
41
1
10
54.8790158670303
20
-10.8281099669945
30
0
41
1
10
54.8826682566445
20
-10.8244679020617
30
0
41
1
10
54.8898494103082
20
-10.8171318918052
30
0
41
1
10
54.9002804068459
20
-10.8059857502649
30
0
41
1
10
54.910258650659
20
-10.7946782533537
30
0
41
1
10
54.9186705741787
20
-10.7844616006724
30
0
41
1
10
54.9256341762294
20
-10.7753923540681
30
0
41
1
10
54.9312642476786
20
-10.7675124536272
30
0
41
1
10
54.9360628365276
20
-10.7601580727218
30
0
41
1
10
54.9400851861343
20
-10.7533549136473
30
0
41
1
10
54.9433692176023
20
-10.7471235429213
30
0
41
1
10
54.9461769033571
20
-10.7408702332238
30
0
41
1
10
54.9481319108993
20
-10.7353965278064
30
0
41
1
10
54.949382536447
20
-10.7307248296527
30
0
41
1
10
54.9500973852535
20
-10.7268551785649
30
0
41
1
10
54.9504290349281
20
-10.7230476489909
30
0
41
1
10
54.9503235636492
20
-10.71939046412
30
0
41
1
10
54.9497331759781
20
-10.7159211665206
30
0
41
1
10
54.9486446496681
20
-10.7126803471486
30
0
41
1
10
54.9470150879905
20
-10.7096637832634
30
0
41
1
10
54.9447890696551
20
-10.70695097557
30
0
41
1
10
54.9420229224266
20
-10.7045738093881
30
0
41
1
10
54.9388619799768
20
-10.7026239999834
30
0
41
1
10
54.9353987519156
20
-10.7010945687661
30
0
41
1
10
54.9317537225498
20
-10.6999167540125
30
0
41
1
10
54.9272915364163
20
-10.6988946693307
30
0
41
1
10
54.9219476655615
20
-10.6981597016146
30
0
41
1
10
54.9157141932192
20
-10.6978127112476
30
0
41
1
10
54.909291001723
20
-10.6978760622409
30
0
41
1
10
54.9049394998281
20
-10.6981297542718
30
0
41
1
10
54.9027455358571
20
-10.6983142809898
30
0
0
SPLINE
5
1B8
100
AcDbEntity
8
1
62
256
6
ByLayer
370
18
48
1
60
0
100
AcDbSpline
70
4
71
3
72
13
73
9
40
0
40
0
40
0
40
0
40
0.166655161444303
40
0.333311052255976
40
0.499966325040631
40
0.666643990813468
40
0.833322246954642
40
1
40
1
40
1
40
1
41
1
10
54.9027455358571
20
-10.6983142809898
30
0
41
1
10
54.8483311147859
20
-10.7027285929553
30
0
41
1
10
54.7395168827906
20
-10.7113360906593
30
0
41
1
10
54.5763396525772
20
-10.7235732444348
30
0
41
1
10
54.4132006442545
20
-10.735168779073
30
0
41
1
10
54.2501005581352
20
-10.7461437191671
30
0
41
1
10
54.0870401049951
20
-10.7565165467054
30
0
41
1
10
53.9783648055961
20
-10.7630485839623
30
0
41
1
10
53.9240351375997
20
-10.7662172555142
30
0
0
SPLINE
5
1B9
100
AcDbEntity
8
1
62
256
6
ByLayer
370
18
48
1
60
0
100
AcDbSpline
70
4
71
3
72
28
73
24
40
0
40
0
40
0
40
0
40
0.0593229462183258
40
0.118657017418845
40
0.177994844057704
40
0.237328997602797
40
0.296652012897298
40
0.356375156842579
40
0.416112864416739
40
0.475853119182519
40
0.535586398819273
40
0.595305828127173
40
0.646749836861101
40
0.698197888707863
40
0.749640113082028
40
0.788388333245543
40
0.827143754442393
40
0.865896677772892
40
0.904641491082033
40
0.935414830525238
40
0.966196113205824
40
0.996974048457432
40
1
40
1
40
1
40
1
41
1
10
54.3899220084655
20
-10.3003303846484
30
0
41
1
10
54.3802851371409
20
-10.3060452614189
30
0
41
1
10
54.3610849679827
20
-10.3175572130236
30
0
41
1
10
54.3325063406013
20
-10.3350719029311
30
0
41
1
10
54.304158214341
20
-10.3528262677925
30
0
41
1
10
54.2760499989961
20
-10.3708134651247
30
0
41
1
10
54.248126837172
20
-10.389069147294
30
0
41
1
10
54.2203934023404
20
-10.4075910346098
30
0
41
1
10
54.1928687512673
20
-10.4263884391159
30
0
41
1
10
54.1656380234949
20
-10.4454260872898
30
0
41
1
10
54.1387286066025
20
-10.4647069615948
30
0
41
1
10
54.1133913690298
20
-10.4833335489716
30
0
41
1
10
54.089595463553
20
-10.5012733845263
30
0
41
1
10
54.0673198093118
20
-10.5185041893151
30
0
41
1
10
54.0471919940017
20
-10.5345153406554
30
0
41
1
10
54.0291450708318
20
-10.5492552685736
30
0
41
1
10
54.0131150625548
20
-10.5626810944172
30
0
41
1
10
53.9973570415141
20
-10.576252674188
30
0
41
1
10
53.9829646020774
20
-10.5890366974299
30
0
41
1
10
53.9698908008542
20
-10.6010029431498
30
0
41
1
10
53.9581046367069
20
-10.6121312765759
30
0
41
1
10
53.9500440207757
20
-10.619993908775
30
0
41
1
10
53.9459030796504
20
-10.6241399600466
30
0
41
1
10
53.9455329323428
20
-10.6245113085761
30
0
0
SPLINE
5
1BA
100
AcDbEntity
8
1
62
256
6
ByLayer
370
18
48
1
60
0
100
AcDbSpline
70
4
71
3
72
31
73
27
40
0
40
0
40
0
40
0
40
0.0415829731963885
40
0.0831669125061018
40
0.124751350189752
40
0.166335805863362
40
0.207919786688859
40
0.249502787563088
40
0.291085497424857
40
0.332669121199681
40
0.374253218329941
40
0.415837334730158
40
0.457421002974613
40
0.499003742483463
40
0.540586173764139
40
0.582169464100994
40
0.623753201024075
40
0.665336957998775
40
0.706920294609084
40
0.748502756739376
40
0.790418255975891
40
0.832334577229568
40
0.874251327387073
40
0.916168098584719
40
0.958084468393064
40
1
40
1
40
1
40
1
41
1
10
57.0678899251902
20
-8.53316989165668
30
0
41
1
10
57.0319124639229
20
-8.55956732647641
30
0
41
1
10
56.9598529801887
20
-8.61220344033018
30
0
41
1
10
56.8514499005392
20
-8.69068001517833
30
0
41
1
10
56.7427379848819
20
-8.76867959292271
30
0
41
1
10
56.633721935586
20
-8.8462014600505
30
0
41
1
10
56.5244069825452
20
-8.9232449331187
30
0
41
1
10
56.4147971512856
20
-8.99981005588615
30
0
41
1
10
56.3048949779289
20
-9.07589793107695
30
0
41
1
10
56.1947031146679
20
-9.15151007862808
30
0
41
1
10
56.0842251543194
20
-9.2266472942753
30
0
41
1
10
55.9734661297926
20
-9.30130938343993
30
0
41
1
10
55.8624310741431
20
-9.37549615158453
30
0
41
1
10
55.7511240232733
20
-9.44920805730307
30
0
41
1
10
55.6395475177205
20
-9.52244654323838
30
0
41
1
10
55.5277041748282
20
-9.59521342244499
30
0
41
1
10
55.4155974804312
20
-9.66750986728379
30
0
41
1
10
55.3032323238064
20
-9.73933613615715
30
0
41
1
10
55.1906135936209
20
-9.8106924874503
30
0
41
1
10
55.0774436410466
20
-9.88176918342785
30
0
41
1
10
54.9637226324437
20
-9.9525635986076
30
0
41
1
10
54.8494508743419
20
-10.0230734393182
30
0
41
1
10
54.7349340442621
20
-10.0931120541852
30
0
41
1
10
54.6201770536743
20
-10.1626801623007
30
0
41
1
10
54.5051843377886
20
-10.2317782975019
30
0
41
1
10
54.4283684726846
20
-10.2775318413449
30
0
41
1
10
54.3899220084655
20
-10.3003303846484
30
0
0
SPLINE
5
1BB
100
AcDbEntity
8
1
62
256
6
ByLayer
370
18
48
1
60
0
100
AcDbSpline
70
4
71
3
72
25
73
21
40
0
40
0
40
0
40
0
40
0.0524961946048218
40
0.10499514314852
40
0.157492527064303
40
0.210052141272883
40
0.262613190558663
40
0.315173162988611
40
0.372133479089207
40
0.429096248482606
40
0.486059196503375
40
0.543019756197099
40
0.599979774415892
40
0.656942176560285
40
0.713904419247518
40
0.770864220015515
40
0.82814696341027
40
0.885432870246967
40
0.942718133825588
40
1
40
1
40
1
40
1
41
1
10
57.7829545402589
20
-7.92417129376597
30
0
41
1
10
57.7714187129628
20
-7.93569854069953
30
0
41
1
10
57.7482065024385
20
-7.95864466435724
30
0
41
1
10
57.7129444519532
20
-7.99272446901307
30
0
41
1
10
57.6772960106957
20
-8.02651575204701
30
0
41
1
10
57.641300389272
20
-8.06004115456521
30
0
41
1
10
57.6049762864805
20
-8.09330841881181
30
0
41
1
10
57.5673370013799
20
-8.12723613664566
30
0
41
1
10
57.5283748148061
20
-8.16181052190991
30
0
41
1
10
57.4880708894935
20
-8.19700795771467
30
0
41
1
10
57.4474646209171
20
-8.23191588049945
30
0
41
1
10
57.4065657814944
20
-8.26653581843179
30
0
41
1
10
57.3653820025627
20
-8.30086995774974
30
0
41
1
10
57.3239110425071
20
-8.33491157829228
30
0
41
1
10
57.2821524832528
20
-8.36865352803631
30
0
41
1
10
57.240026258596
20
-8.40215107721461
30
0
41
1
10
57.1975297801683
20
-8.43539648834684
30
0
41
1
10
57.1546502461298
20
-8.46836995193286
30
0
41
1
10
57.1114588816032
20
-8.50099106552685
30
0
41
1
10
57.0824482638328
20
-8.5224850002899
30
0
41
1
10
57.0678899251902
20
-8.53316989165668
30
0
0
SPLINE
5
1BC
100
AcDbEntity
8
1
62
256
6
ByLayer
370
18
48
1
60
0
100
AcDbSpline
70
4
71
3
72
50
73
46
40
0
40
0
40
0
40
0
40
0.0219701513487708
40
0.0439380385572926
40
0.0542148384580792
40
0.0645334220301941
40
0.0748486419014384
40
0.0851308897704116
40
0.0953732489395508
40
0.10559908806456
40
0.110285543366632
40
0.114975995170635
40
0.119647917679831
40
0.123389385115221
40
0.127122529804673
40
0.129776718197993
40
0.132428621761236
40
0.13507961207892
40
0.137732292081251
40
0.141895359012127
40
0.146072156136642
40
0.150187564546815
40
0.15430681301504
40
0.161250135858854
40
0.168211803412413
40
0.175170309285683
40
0.185494902158409
40
0.195822064104814
40
0.211042863532832
40
0.226265961570606
40
0.249506485517301
40
0.272749314080139
40
0.298489935498341
40
0.324233597240082
40
0.349976267503752
40
0.400466028924845
40
0.450962424120997
40
0.501463562109463
40
0.55195979171383
40
0.626626137185075
40
0.701296660787025
40
0.775972145549348
40
0.850650828680206
40
0.925328733416271
40
1
40
1
40
1
40
1
41
1
10
58.9627170197175
20
-6.63834279712942
30
0
41
1
10
58.9668217497967
20
-6.63577649907829
30
0
41
1
10
58.9750708986214
20
-6.63074520715524
30
0
41
1
10
58.9853510843375
20
-6.62477650517091
30
0
41
1
10
58.9934758964649
20
-6.62024569186257
30
0
41
1
10
58.9994041495787
20
-6.61703688371563
30
0
41
1
10
59.0053843626084
20
-6.6139950796472
30
0
41
1
10
59.0114087948566
20
-6.61119996910922
30
0
41
1
10
59.0174714345163
20
-6.60874127744209
30
0
41
1
10
59.0224597501361
20
-6.60706558343073
30
0
41
1
10
59.0263409360281
20
-6.60601621617543
30
0
41
1
10
59.0291051757835
20
-6.6054679283495
30
0
41
1
10
59.0316372017577
20
-6.60521128571062
30
0
41
1
10
59.0338938687756
20
-6.60526260010419
30
0
41
1
10
59.0356494906387
20
-6.60559655793859
30
0
41
1
10
59.0370335324374
20
-6.60617988954875
30
0
41
1
10
59.0380768509109
20
-6.60690968754774
30
0
41
1
10
59.0388876079795
20
-6.60786131582525
30
0
41
1
10
59.0395722330047
20
-6.60920024445699
30
0
41
1
10
59.0399465414627
20
-6.61099800592422
30
0
41
1
10
59.0399273224772
20
-6.61319451064889
30
0
41
1
10
59.0395869209194
20
-6.61545950432808
30
0
41
1
10
59.0388810205699
20
-6.61826765571877
30
0
41
1
10
59.0377252671993
20
-6.62162205530785
30
0
41
1
10
59.0360553085797
20
-6.62548928361053
30
0
41
1
10
59.0338505938016
20
-6.62995126086283
30
0
41
1
10
59.0310943212485
20
-6.63499008772872
30
0
41
1
10
59.0272159452283
20
-6.6414644240252
30
0
41
1
10
59.0225303004647
20
-6.64874171583134
30
0
41
1
10
59.0160358624953
20
-6.65820864030115
30
0
41
1
10
59.0082516313364
20
-6.66896328800433
30
0
41
1
10
58.9988055009891
20
-6.68139826532632
30
0
41
1
10
58.9887859626909
20
-6.69414209621277
30
0
41
1
10
58.9782110120996
20
-6.70719511101605
30
0
41
1
10
58.9640180473474
20
-6.72430170329103
30
0
41
1
10
58.946074427391
20
-6.74537968345991
30
0
41
1
10
58.9242320275609
20
-6.77032575974223
30
0
41
1
10
58.9020718513355
20
-6.79506062141424
30
0
41
1
10
58.8760993939236
20
-6.82354658783854
30
0
41
1
10
58.8462682619538
20
-6.85574187981699
30
0
41
1
10
58.8124747696985
20
-6.89156364043961
30
0
41
1
10
58.7783681637092
20
-6.92714160380596
30
0
41
1
10
58.7439869415859
20
-6.96249761025167
30
0
41
1
10
58.7093659828222
20
-6.99765091812094
30
0
41
1
10
58.6861584021245
20
-7.02097409237137
30
0
41
1
10
58.6745205494882
20
-7.03260528453666
30
0
0
SPLINE
5
1BD
100
AcDbEntity
8
1
62
256
6
ByLayer
370
18
48
1
60
0
100
AcDbSpline
70
4
71
3
72
34
73
30
40
0
40
0
40
0
40
0
40
0.0414029011800066
40
0.0828081321713283
40
0.124214378625764
40
0.165620446702531
40
0.20702526604181
40
0.248427892772126
40
0.289833518261538
40
0.331242026226957
40
0.372651798667526
40
0.414061360037258
40
0.455469380899617
40
0.496874681631686
40
0.53236770112404
40
0.567863519473056
40
0.603360881137724
40
0.638858616921806
40
0.674355645967487
40
0.709850977776965
40
0.74534371426053
40
0.77716051547914
40
0.808978204230478
40
0.840795855730891
40
0.872612606151357
40
0.904458990915098
40
0.936306347712602
40
0.968153666741071
40
1
40
1
40
1
40
1
41
1
10
57.1702023368684
20
-7.5200500562454
30
0
41
1
10
57.1957220418619
20
-7.51019249449178
30
0
41
1
10
57.2467165756843
20
-7.49030345949078
30
0
41
1
10
57.3230737936428
20
-7.45995304787348
30
0
41
1
10
57.3992879710778
20
-7.42907421635047
30
0
41
1
10
57.4753507886512
20
-7.39766062373882
30
0
41
1
10
57.5512530734372
20
-7.36570483573425
30
0
41
1
10
57.6269895559928
20
-7.33319818127254
30
0
41
1
10
57.7025551600517
20
-7.30013146951646
30
0
41
1
10
57.7779441210384
20
-7.26649567237262
30
0
41
1
10
57.8531463921947
20
-7.23228374525155
30
0
41
1
10
57.9281509209876
20
-7.19748903878605
30
0
41
1
10
58.0029466384542
20
-7.16210490537858
30
0
41
1
10
58.0739751927865
20
-7.12783620130993
30
0
41
1
10
58.1412655928454
20
-7.09477077809934
30
0
41
1
10
58.2048481182479
20
-7.06299337363703
30
0
41
1
10
58.2682565822528
20
-7.03076009443627
30
0
41
1
10
58.3314826508249
20
-6.99806754000291
30
0
41
1
10
58.3945179865397
20
-6.96491232433428
30
0
41
1
10
58.4573542504235
20
-6.93129107156518
30
0
41
1
10
58.517822966578
20
-6.8983761809806
30
0
41
1
10
58.5759432799766
20
-6.86621857126806
30
0
41
1
10
58.6317353077292
20
-6.83486809151359
30
0
41
1
10
58.6873486708411
20
-6.80312986502852
30
0
41
1
10
58.7427948408471
20
-6.77099160306873
30
0
41
1
10
58.7980688796981
20
-6.73844993572056
30
0
41
1
10
58.8531656122142
20
-6.70550187801459
30
0
41
1
10
58.908062489681
20
-6.67215592530482
30
0
41
1
10
58.9445218085517
20
-6.64965815500847
30
0
41
1
10
58.9627170197175
20
-6.63834279712943
30
0
0
SPLINE
5
1BE
100
AcDbEntity
8
1
62
256
6
ByLayer
370
18
48
1
60
0
100
AcDbSpline
70
4
71
3
72
47
73
43
40
0
40
0
40
0
40
0
40
0.0150007344488304
40
0.0300784556764394
40
0.045155397913417
40
0.0601803737873218
40
0.0751379064671814
40
0.0900582093563867
40
0.0982299222887025
40
0.106410995392438
40
0.114569447841631
40
0.120987998915871
40
0.127420730170973
40
0.133829544453492
40
0.140297881920393
40
0.146793966149164
40
0.153263129648044
40
0.161669063744832
40
0.170083294958296
40
0.179982562882773
40
0.189921972512382
40
0.199847671524025
40
0.215425848786127
40
0.231046264392545
40
0.246720907691972
40
0.262413893132184
40
0.27805312257768
40
0.307707164193872
40
0.337387634322014
40
0.367100481509877
40
0.396823818710745
40
0.426513849545459
40
0.476855835954765
40
0.527209702331972
40
0.577559340929005
40
0.643183526385562
40
0.708818820487507
40
0.774468004282459
40
0.840126449763675
40
0.905783119537935
40
0.971421558627887
40
1
40
1
40
1
40
1
41
1
10
57.1702023368685
20
-7.52005005624539
30
0
41
1
10
57.1680528942153
20
-7.52088768406612
30
0
41
1
10
57.1637366030826
20
-7.52250710788105
30
0
41
1
10
57.1572366138569
20
-7.5247887539003
30
0
41
1
10
57.1507157927199
20
-7.52682705854658
30
0
41
1
10
57.1442095819706
20
-7.5285473486337
30
0
41
1
10
57.1377543958669
20
-7.52986179762731
30
0
41
1
10
57.1323479426949
20
-7.53057041230929
30
0
41
1
10
57.1279926585799
20
-7.53082618138587
30
0
41
1
10
57.1246633748703
20
-7.53077878690505
30
0
41
1
10
57.121688783705
20
-7.53046561649203
30
0
41
1
10
57.1190908816662
20
-7.52990768750828
30
0
41
1
10
57.1168668485357
20
-7.52915703737095
30
0
41
1
10
57.1148377633226
20
-7.52814790435495
30
0
41
1
10
57.1130720577103
20
-7.52684965963636
30
0
41
1
10
57.1115950003144
20
-7.52529078746101
30
0
41
1
10
57.1103187908883
20
-7.52332285275325
30
0
41
1
10
57.1093937788087
20
-7.52089884273462
30
0
41
1
10
57.1088553856637
20
-7.51788092133744
30
0
41
1
10
57.1088137280948
20
-7.51450464965513
30
0
41
1
10
57.1092470826696
20
-7.51083219103421
30
0
41
1
10
57.1102205505539
20
-7.50638592351211
30
0
41
1
10
57.1118387901705
20
-7.50117939123226
30
0
41
1
10
57.1142125577011
20
-7.49523936780944
30
0
41
1
10
57.1170188100115
20
-7.48930924223615
30
0
41
1
10
57.1201497049818
20
-7.48341509783674
30
0
41
1
10
57.1245081411339
20
-7.47581715465411
30
0
41
1
10
57.1302429806073
20
-7.46654925713341
30
0
41
1
10
57.1375635762171
20
-7.45567213694807
30
0
41
1
10
57.1452917796834
20
-7.44491001520256
30
0
41
1
10
57.1533355703922
20
-7.43425724047088
30
0
41
1
10
57.1635146761355
20
-7.42124389946957
30
0
41
1
10
57.1759472400262
20
-7.40592180505357
30
0
41
1
10
57.19079217401
20
-7.38837111518637
30
0
41
1
10
57.2075117600066
20
-7.36922542469332
30
0
41
1
10
57.2261121741052
20
-7.34849519465146
30
0
41
1
10
57.2466402813682
20
-7.32621235244163
30
0
41
1
10
57.2674848016564
20
-7.3041022781129
30
0
41
1
10
57.2885955140051
20
-7.28214500905467
30
0
41
1
10
57.3099239929589
20
-7.26032173292574
30
0
41
1
10
57.3273767105794
20
-7.2426930541191
30
0
41
1
10
57.3377100144991
20
-7.2323341573061
30
0
41
1
10
57.340849212984
20
-7.22919503688529
30
0
0
SPLINE
5
1BF
100
AcDbEntity
8
1
62
256
6
ByLayer
370
18
48
1
60
0
100
AcDbSpline
70
4
71
3
72
31
73
27
40
0
40
0
40
0
40
0
40
0.041564202868466
40
0.0831295220203072
40
0.124695394932879
40
0.166261262559743
40
0.207826569513629
40
0.249390764249905
40
0.290955022100591
40
0.332520404730063
40
0.374086348320148
40
0.415652290113652
40
0.4572176685971
40
0.498781923683695
40
0.540346186437874
40
0.581911572650955
40
0.623477522175795
40
0.665043473462576
40
0.706608863741725
40
0.748173129206686
40
0.790143314019885
40
0.832114644013953
40
0.87408655132979
40
0.916058464123493
40
0.958029806758969
40
1
40
1
40
1
40
1
41
1
10
58.6562201696177
20
-6.03403222349615
30
0
41
1
10
58.690902915884
20
-6.00291145566655
30
0
41
1
10
58.7601316647422
20
-5.94051218505002
30
0
41
1
10
58.863564146499
20
-5.84644078107809
30
0
41
1
10
58.9665820262961
20
-5.7518993084208
30
0
41
1
10
59.0691810425241
20
-5.65689084911738
30
0
41
1
10
59.1713565140575
20
-5.56141876069228
30
0
41
1
10
59.2731052791475
20
-5.46548500216103
30
0
41
1
10
59.3744254188148
20
-5.36909027974939
30
0
41
1
10
59.475315471044
20
-5.27223580950953
30
0
41
1
10
59.575772530697
20
-5.17492412428825
30
0
41
1
10
59.6757923704893
20
-5.07715901293783
30
0
41
1
10
59.7753707632463
20
-4.97894426469793
30
0
41
1
10
59.8745048251953
20
-4.8802823316704
30
0
41
1
10
59.9731929681791
20
-4.78117431031632
30
0
41
1
10
60.0714340918249
20
-4.68162178522599
30
0
41
1
10
60.1692257278457
20
-4.58162764864376
30
0
41
1
10
60.2665640824413
20
-4.48119612397797
30
0
41
1
10
60.3634453623136
20
-4.38033143401339
30
0
41
1
10
60.4601809630175
20
-4.27870668294992
30
0
41
1
10
60.5567644258806
20
-4.17631839377919
30
0
41
1
10
60.6531897008421
20
-4.07316364902105
30
0
41
1
10
60.7491423441418
20
-3.96957690635219
30
0
41
1
10
60.8446188956809
20
-3.86556298378947
30
0
41
1
10
60.9396161801186
20
-3.76112626755654
30
0
41
1
10
61.0026265218569
20
-3.69122264424349
30
0
41
1
10
61.034051276335
20
-3.6562011167788
30
0
0
SPLINE
5
1C0
100
AcDbEntity
8
1
62
256
6
ByLayer
370
18
48
1
60
0
100
AcDbSpline
70
4
71
3
72
29
73
25
40
0
40
0
40
0
40
0
40
0.0663738860559086
40
0.13274812207181
40
0.199121907206581
40
0.265496833602576
40
0.331872250795804
40
0.398246954834194
40
0.448029766118515
40
0.497813422715738
40
0.547596816957073
40
0.597379270476947
40
0.637348092914666
40
0.67731852002538
40
0.717288982162181
40
0.7572584413091
40
0.797226451875202
40
0.832117177278933
40
0.86700846763316
40
0.901898768998693
40
0.928070570889596
40
0.954243813893605
40
0.98041632938185
40
1
40
1
40
1
40
1
41
1
10
61.034051276335
20
-3.6562011167788
30
0
41
1
10
61.060408288098
20
-3.62682003303027
30
0
41
1
10
61.1130771764721
20
-3.56802606673779
30
0
41
1
10
61.1919304454204
20
-3.47972492850321
30
0
41
1
10
61.2706765664921
20
-3.39135915524886
30
0
41
1
10
61.349341469799
20
-3.30295784705217
30
0
41
1
10
61.4279627222822
20
-3.21456320128385
30
0
41
1
10
61.5000271046213
20
-3.1335801998973
30
0
41
1
10
61.5655615042133
20
-3.06002560971484
30
0
41
1
10
61.6245813621774
20
-2.99390281873227
30
0
41
1
10
61.683661747531
20
-2.92788556065109
30
0
41
1
10
61.7389379469152
20
-2.86633250576674
30
0
41
1
10
61.7904064352997
20
-2.80923312626849
30
0
41
1
10
61.8380670281095
20
-2.75657990634553
30
0
41
1
10
61.8858357499459
20
-2.70408295589464
30
0
41
1
10
61.93373265094
20
-2.65177268200888
30
0
41
1
10
61.9797435328115
20
-2.60188441447974
30
0
41
1
10
62.0238661932441
20
-2.55441498219046
30
0
41
1
10
62.0661084428012
20
-2.50937354321431
30
0
41
1
10
62.1050063890155
20
-2.46833686919
30
0
41
1
10
62.1405249025137
20
-2.43125802571863
30
0
41
1
10
62.1726367944783
20
-2.39809753695654
30
0
41
1
10
62.2022073072523
20
-2.36794971753471
30
0
41
1
10
62.221118546702
20
-2.34892855643061
30
0
41
1
10
62.2292299683986
20
-2.34081427994959
30
0
0
SPLINE
5
1C1
100
AcDbEntity
8
1
62
256
6
ByLayer
370
18
48
1
60
0
100
AcDbSpline
70
4
71
3
72
34
73
30
40
0
40
0
40
0
40
0
40
0.0310025296412151
40
0.0620059695882966
40
0.0930094434577771
40
0.124012019358151
40
0.155042667555867
40
0.186074154456241
40
0.217105675089171
40
0.248136369287066
40
0.283578023063502
40
0.319022274857432
40
0.354468225059054
40
0.389914881943044
40
0.425361163710252
40
0.460805900502893
40
0.496247836391901
40
0.537593432288738
40
0.57894175289629
40
0.62029161602062
40
0.661641689887854
40
0.702990496841712
40
0.74433641699142
40
0.786944798731453
40
0.829555575935752
40
0.872167722361305
40
0.914780069405435
40
0.957391309589127
40
1
40
1
40
1
40
1
41
1
10
61.6383618499676
20
-3.96269796687928
30
0
41
1
10
61.6493774060671
20
-3.94498489250927
30
0
41
1
10
61.6712824958947
20
-3.90949340981893
30
0
41
1
10
61.7037603437028
20
-3.85605906929737
30
0
41
1
10
61.7358609861307
20
-3.80243503592379
30
0
41
1
10
61.7675954693235
20
-3.74861005560549
30
0
41
1
10
61.7989657535379
20
-3.69458852452583
30
0
41
1
10
61.8299741565414
20
-3.64037465438289
30
0
41
1
10
61.8606133459736
20
-3.58599007390028
30
0
41
1
10
61.8923198748822
20
-3.52885534111878
30
0
41
1
10
61.9250340682939
20
-3.46894561083022
30
0
41
1
10
61.9586941838339
20
-3.40623690995803
30
0
41
1
10
61.9918888328769
20
-3.34332846298387
30
0
41
1
10
62.0246213469859
20
-3.28022861056451
30
0
41
1
10
62.0568950691698
20
-3.21694569055077
30
0
41
1
10
62.0887133566193
20
-3.15348803776671
30
0
41
1
10
62.1218223225564
20
-3.08632880285923
30
0
41
1
10
62.1561372711127
20
-3.0154375698602
30
0
41
1
10
62.1915703885066
20
-2.94078519372702
30
0
41
1
10
62.2264144883791
20
-2.86592311259231
30
0
41
1
10
62.26067616427
20
-2.79086240905571
30
0
41
1
10
62.2943620131934
20
-2.71561414722564
30
0
41
1
10
62.3278168912088
20
-2.63941887894348
30
0
41
1
10
62.3610297228948
20
-2.56227596643351
30
0
41
1
10
62.3939900497932
20
-2.48418481899126
30
0
41
1
10
62.4263751763286
20
-2.40592268324344
30
0
41
1
10
62.4581931997707
20
-2.32749959060134
30
0
41
1
10
62.4894510268488
20
-2.24892463868028
30
0
41
1
10
62.5099245163845
20
-2.19644625376281
30
0
41
1
10
62.5200691091015
20
-2.1701832840123
30
0
0
SPLINE
5
1C2
100
AcDbEntity
8
1
62
256
6
ByLayer
370
18
48
1
60
0
100
AcDbSpline
70
4
71
3
72
50
73
46
40
0
40
0
40
0
40
0
40
0.0746712665837198
40
0.149349171319786
40
0.224027854450651
40
0.298703339212974
40
0.373373862814915
40
0.448040208286166
40
0.498536437890533
40
0.549037575879006
40
0.599533971075153
40
0.650023732496251
40
0.675766402759911
40
0.701510064501654
40
0.727250685919865
40
0.750493514482704
40
0.773734038429399
40
0.788957136467159
40
0.804177935895191
40
0.814505097841596
40
0.824829690714322
40
0.831788196587576
40
0.838749864141147
40
0.845693186984964
40
0.849812435453189
40
0.853927843863358
40
0.858104640987876
40
0.862267707918752
40
0.864920387921076
40
0.867571378238768
40
0.870223281802011
40
0.872877470195331
40
0.876610614884784
40
0.880352082320171
40
0.885024004829377
40
0.889714456633384
40
0.894400911935445
40
0.904626751060455
40
0.9148691102296
40
0.925151358098561
40
0.935466577969815
40
0.945785161541931
40
0.956061961442707
40
0.978029848651226
40
1
40
1
40
1
40
1
41
1
10
62.0326243373748
20
-3.67450149665
30
0
41
1
10
62.0209931452095
20
-3.68613934928637
30
0
41
1
10
61.9976699709591
20
-3.70934692998402
30
0
41
1
10
61.9625166630899
20
-3.74396788874775
30
0
41
1
10
61.9271606566441
20
-3.778349110871
30
0
41
1
10
61.8915826932778
20
-3.81245571686032
30
0
41
1
10
61.8557609326552
20
-3.84624920911562
30
0
41
1
10
61.8235656406767
20
-3.87608034108541
30
0
41
1
10
61.7950796742524
20
-3.9020527984973
30
0
41
1
10
61.7703448125804
20
-3.92421297472272
30
0
41
1
10
61.7453987362981
20
-3.94605537455288
30
0
41
1
10
61.7243207561292
20
-3.96399899450915
30
0
41
1
10
61.7072141638543
20
-3.97819195926138
30
0
41
1
10
61.6941611490509
20
-3.9887669098527
30
0
41
1
10
61.6814173181645
20
-3.99878644815088
30
0
41
1
10
61.6689823408425
20
-4.00823257849822
30
0
41
1
10
61.6582276931394
20
-4.01601680965717
30
0
41
1
10
61.6487607686695
20
-4.02251124762658
30
0
41
1
10
61.6414834768634
20
-4.02719689239014
30
0
41
1
10
61.6350091405669
20
-4.03107526841037
30
0
41
1
10
61.629970313701
20
-4.03383154096334
30
0
41
1
10
61.6255083364488
20
-4.03603625574152
30
0
41
1
10
61.621641108146
20
-4.03770621436106
30
0
41
1
10
61.6182867085569
20
-4.03886196773174
30
0
41
1
10
61.6154785571662
20
-4.03956786808118
30
0
41
1
10
61.6132135634871
20
-4.03990826963899
30
0
41
1
10
61.6110170587624
20
-4.03992748862455
30
0
41
1
10
61.6092192972952
20
-4.03955318016644
30
0
41
1
10
61.6078803686635
20
-4.03886855514136
30
0
41
1
10
61.6069287403859
20
-4.03805779807271
30
0
41
1
10
61.6061989423869
20
-4.03701447959923
30
0
41
1
10
61.6056156107768
20
-4.03563043780046
30
0
41
1
10
61.6052816529424
20
-4.03387481593739
30
0
41
1
10
61.6052303385488
20
-4.03161814891953
30
0
41
1
10
61.6054869811877
20
-4.02908612294527
30
0
41
1
10
61.6060352690136
20
-4.02632188318986
30
0
41
1
10
61.6070846362689
20
-4.02244069729789
30
0
41
1
10
61.6087603302803
20
-4.01745238167808
30
0
41
1
10
61.6112190219474
20
-4.01138974201835
30
0
41
1
10
61.6140141324854
20
-4.0053653097702
30
0
41
1
10
61.6170559365538
20
-3.99938509674055
30
0
41
1
10
61.6202647447008
20
-3.99345684362672
30
0
41
1
10
61.6247955580091
20
-3.98533203149935
30
0
41
1
10
61.6307642599934
20
-3.97505184578318
30
0
41
1
10
61.6357955519164
20
-3.96680269695857
30
0
41
1
10
61.6383618499676
20
-3.96269796687928
30
0
0
SPLINE
5
1C3
100
AcDbEntity
8
1
62
256
6
ByLayer
370
18
48
1
60
0
100
AcDbSpline
70
4
71
3
72
47
73
43
40
0
40
0
40
0
40
0
40
0.0248430550255093
40
0.0910993212535936
40
0.157374242908843
40
0.223650948587962
40
0.289918130866342
40
0.356171072785618
40
0.422412682539977
40
0.472057341656091
40
0.521706062619914
40
0.5713435938332
40
0.601459573490405
40
0.631609969816336
40
0.661749372067563
40
0.691855145875963
40
0.721933661850323
40
0.737573634614447
40
0.753267365928223
40
0.768942754229451
40
0.784563912260283
40
0.800142829939223
40
0.81006900071048
40
0.820008882751351
40
0.829908621179182
40
0.838323252313544
40
0.84672958593687
40
0.853199056909319
40
0.859695449891156
40
0.866164094792372
40
0.872573213680111
40
0.879006250677179
40
0.885425106819426
40
0.893583947032575
40
0.901765408975403
40
0.909937510301947
40
0.924858522332845
40
0.939816765923949
40
0.954842455914218
40
0.969920114737005
40
0.984998552587314
40
1
40
1
40
1
40
1
41
1
10
62.2292299683986
20
-2.34081427994958
30
0
41
1
10
62.231958667106
20
-2.33808555243123
30
0
41
1
10
62.2419730448762
20
-2.32809262020894
30
0
41
1
10
62.259320776531
20
-2.31090633954323
30
0
41
1
10
62.2813431696092
20
-2.28936942550273
30
0
41
1
10
62.303501474436
20
-2.2680531465038
30
0
41
1
10
62.3258149721656
20
-2.24700701395333
30
0
41
1
10
62.3483041072671
20
-2.22628239183459
30
0
41
1
10
62.3690930178482
20
-2.20762686500913
30
0
41
1
10
62.3881456921334
20
-2.19098608946212
30
0
41
1
10
62.4054463676365
20
-2.1763423491922
30
0
41
1
10
62.4206458984427
20
-2.16398995123623
30
0
41
1
10
62.433669306522
20
-2.15378010966419
30
0
41
1
10
62.4444693247395
20
-2.14560711914577
30
0
41
1
10
62.455381401558
20
-2.13775612441213
30
0
41
1
10
62.4664115027911
20
-2.13032212602317
30
0
41
1
10
62.4757835151974
20
-2.12451937022424
30
0
41
1
10
62.4834341482485
20
-2.12013064272738
30
0
41
1
10
62.4893282957247
20
-2.11699975969726
30
0
41
1
10
62.4952584204739
20
-2.11419350418877
30
0
41
1
10
62.5011984441174
20
-2.11181973751477
30
0
41
1
10
62.5064049763426
20
-2.11020149768608
30
0
41
1
10
62.5108512438741
20
-2.10922802983778
30
0
41
1
10
62.5145237024929
20
-2.10879467525495
30
0
41
1
10
62.5178999741757
20
-2.1088363328259
30
0
41
1
10
62.5209178955728
20
-2.10937472597041
30
0
41
1
10
62.5233419055914
20
-2.11029973805012
30
0
41
1
10
62.5253098402992
20
-2.11157594747623
30
0
41
1
10
62.5268687124745
20
-2.11305300487206
30
0
41
1
10
62.5281669571931
20
-2.11481871048439
30
0
41
1
10
62.5291760902091
20
-2.11684779569748
30
0
41
1
10
62.5299267403465
20
-2.11907182882801
30
0
41
1
10
62.5304846693302
20
-2.12166973086683
30
0
41
1
10
62.5307978397432
20
-2.12464432203211
30
0
41
1
10
62.5308452342241
20
-2.12797360574169
30
0
41
1
10
62.5305894651474
20
-2.13232888985574
30
0
41
1
10
62.5298808504665
20
-2.13773534302568
30
0
41
1
10
62.5285664014761
20
-2.14419052912635
30
0
41
1
10
62.526846111393
20
-2.15069673987269
30
0
41
1
10
62.5248078067509
20
-2.15721756100683
30
0
41
1
10
62.5225261607352
20
-2.16371755022961
30
0
41
1
10
62.5209067369218
20
-2.1680338413604
30
0
41
1
10
62.5200691091015
20
-2.17018328401232
30
0
0
SPLINE
5
1C4
100
AcDbEntity
8
1
62
256
6
ByLayer
370
18
48
1
60
0
100
AcDbSpline
70
4
71
3
72
29
73
25
40
0
40
0
40
0
40
0
40
0.0184981910465064
40
0.0445761298578555
40
0.0706547975093766
40
0.0967320232588192
40
0.132075305815477
40
0.16741962539932
40
0.202763357748303
40
0.24256163721592
40
0.282361349455857
40
0.322162051885878
40
0.361962718144674
40
0.401761797787483
40
0.451504333017374
40
0.50124780957499
40
0.550991548816162
40
0.600734442257338
40
0.667055330047194
40
0.733376931216028
40
0.799698041598088
40
0.866465173256349
40
0.933232764745206
40
1
40
1
40
1
40
1
41
1
10
57.340849212984
20
-7.22919503688529
30
0
41
1
10
57.3485133735275
20
-7.22153316011772
30
0
41
1
10
57.3670400741519
20
-7.20310752068904
30
0
41
1
10
57.3966428248665
20
-7.17405456243768
30
0
41
1
10
57.4296724513997
20
-7.14205205086147
30
0
41
1
10
57.4668519496627
20
-7.10641914576534
30
0
41
1
10
57.5082262655669
20
-7.06718666638479
30
0
41
1
10
57.5538471671223
20
-7.02439322016638
30
0
41
1
10
57.6016332316058
20
-6.97997426563117
30
0
41
1
10
57.651569683845
20
-6.93391814390535
30
0
41
1
10
57.7036558963443
20
-6.88622441684451
30
0
41
1
10
57.7559274209392
20
-6.83865794190026
30
0
41
1
10
57.8083541987684
20
-6.79119890348748
30
0
41
1
10
57.8652833480636
20
-6.73987994870406
30
0
41
1
10
57.92672308203
20
-6.68470177012373
30
0
41
1
10
57.9926844004166
20
-6.62566822049403
30
0
41
1
10
58.0587516069465
20
-6.5666955253465
30
0
41
1
10
58.1322445600098
20
-6.50121412838787
30
0
41
1
10
58.2131600208603
20
-6.42920874036565
30
0
41
1
10
58.3014814171378
20
-6.35065267312026
30
0
41
1
10
58.3900086674679
20
-6.27187698266217
30
0
41
1
10
58.4786993239846
20
-6.19284347922285
30
0
41
1
10
58.5675234539112
20
-6.11352511291177
30
0
41
1
10
58.6266652977696
20
-6.06054505299053
30
0
41
1
10
58.6562201696177
20
-6.03403222349615
30
0
0
SPLINE
5
1C5
100
AcDbEntity
8
1
62
256
6
ByLayer
370
18
48
1
60
0
100
AcDbSpline
70
4
71
3
72
29
73
25
40
0
40
0
40
0
40
0
40
0.0077973475066705
40
0.0405662793744264
40
0.0750462898468169
40
0.109531297612103
40
0.144013196600527
40
0.186232105784445
40
0.228461425623618
40
0.270697383126506
40
0.312932618847874
40
0.355156491018863
40
0.407897765663211
40
0.460646941808933
40
0.513397637380268
40
0.566140984268157
40
0.61887181886894
40
0.671608314565326
40
0.724345281982459
40
0.77707675990684
40
0.83280460011257
40
0.888538545604846
40
0.944272350939429
40
1
40
1
40
1
40
1
41
1
10
65.6245020201928
20
1.05445777602023
30
0
41
1
10
65.6235458692299
20
1.0535023313566
30
0
41
1
10
65.6185783191046
20
1.04851475872886
30
0
41
1
10
65.6094603860138
20
1.03910674565128
30
0
41
1
10
65.5972338333357
20
1.02604385962217
30
0
41
1
10
65.5849388714432
20
1.01246243799069
30
0
41
1
10
65.571861612287
20
0.997584777140546
30
0
41
1
10
65.5580228720034
20
0.981380582923315
30
0
41
1
10
65.5434495029786
20
0.963813589683525
30
0
41
1
10
65.5290347582647
20
0.945966431490127
30
0
41
1
10
65.514772509708
20
0.927869773097434
30
0
41
1
10
65.4994811955232
20
0.908030539382068
30
0
41
1
10
65.4831924444747
20
0.886406309340039
30
0
41
1
10
65.4659472465241
20
0.862947005279516
30
0
41
1
10
65.4488990656997
20
0.839216777746728
30
0
41
1
10
65.432042873976
20
0.815240167079786
30
0
41
1
10
65.4153710230816
20
0.791035958692461
30
0
41
1
10
65.3988826583246
20
0.76661289425946
30
0
41
1
10
65.3825759259698
20
0.741980491514006
30
0
41
1
10
65.3661449826651
20
0.716679204066814
30
0
41
1
10
65.3495999387964
20
0.6907048011713
30
0
41
1
10
65.3329579644096
20
0.664047890936182
30
0
41
1
10
65.3165263911307
20
0.637187341475759
30
0
41
1
10
65.3057176128984
20
0.61914898177421
30
0
41
1
10
65.3003494374866
20
0.610097044372694
30
0
0
SPLINE
5
1C6
100
AcDbEntity
8
1
62
256
6
ByLayer
370
18
48
1
60
0
100
AcDbSpline
70
4
71
3
72
38
73
34
40
0
40
0
40
0
40
0
40
0.0616115698766097
40
0.117038818417617
40
0.172517176326847
40
0.227989995424709
40
0.283424233598651
40
0.338814446723891
40
0.373747881086833
40
0.408776214709634
40
0.443815634020256
40
0.478808799276408
40
0.513730266449345
40
0.54859229897479
40
0.57172846008725
40
0.594905040040182
40
0.618062327619404
40
0.641172130944423
40
0.66461931635556
40
0.688173975047673
40
0.711689438362551
40
0.735082913701733
40
0.757834235627479
40
0.780660499746627
40
0.803414042612067
40
0.826065629088777
40
0.848782181877222
40
0.871456255956783
40
0.899529333961063
40
0.927697979313531
40
0.955912275998562
40
0.984047798905354
40
1
40
1
40
1
40
1
41
1
10
53.9455329323428
20
-10.6245113085761
30
0
41
1
10
53.9421282163596
20
-10.6279124894535
30
0
41
1
10
53.9357552497779
20
-10.6344073794704
30
0
41
1
10
53.926609350286
20
-10.6440730763677
30
0
41
1
10
53.9180645385394
20
-10.6534871899457
30
0
41
1
10
53.9098511708716
20
-10.6630036613497
30
0
41
1
10
53.9020327400969
20
-10.6726213717615
30
0
41
1
10
53.8955811265919
20
-10.6811454806867
30
0
41
1
10
53.8903501751756
20
-10.6885368026044
30
0
41
1
10
53.8862145775156
20
-10.6947693097268
30
0
41
1
10
53.8823775391754
20
-10.7010461449514
30
0
41
1
10
53.8789015806833
20
-10.7073522525853
30
0
41
1
10
53.8758516063832
20
-10.7136725007862
30
0
41
1
10
53.8735744804598
20
-10.7192844519374
30
0
41
1
10
53.8719509523365
20
-10.7241742264695
30
0
41
1
10
53.8708603072789
20
-10.7283385096417
30
0
41
1
10
53.8701113769585
20
-10.7324635586704
30
0
41
1
10
53.8697458610629
20
-10.7365449755307
30
0
41
1
10
53.8698378600262
20
-10.7405552250884
30
0
41
1
10
53.870443526439
20
-10.7444528046646
30
0
41
1
10
53.8715995609487
20
-10.7481659171758
30
0
41
1
10
53.8733367834527
20
-10.7515982940486
30
0
41
1
10
53.8756863847062
20
-10.7546873116575
30
0
41
1
10
53.8785744527509
20
-10.7574170141389
30
0
41
1
10
53.8819806562247
20
-10.7597804111705
30
0
41
1
10
53.8858643655833
20
-10.7617429583672
30
0
41
1
10
53.8901260875406
20
-10.7633330844969
30
0
41
1
10
53.8950677204673
20
-10.7646671875273
30
0
41
1
10
53.9007053904017
20
-10.7656700384798
30
0
41
1
10
53.9070183103217
20
-10.7662988649039
30
0
41
1
10
53.9135389582643
20
-10.7665391959881
30
0
41
1
10
53.9192414325862
20
-10.76645738165
30
0
41
1
10
53.9227570095158
20
-10.76629291456
30
0
41
1
10
53.9240351375997
20
-10.7662172555142
30
0
0
SPLINE
5
1C7
100
AcDbEntity
8
1
62
256
6
ByLayer
370
18
48
1
60
0
100
AcDbSpline
70
4
71
3
72
27
73
23
40
0
40
0
40
0
40
0
40
0.0003404751262155
40
0.0408926924559315
40
0.0814772949488794
40
0.122086229355733
40
0.162695933935248
40
0.203269222482861
40
0.255050945549239
40
0.306853743500511
40
0.358662382698119
40
0.410452074178419
40
0.469003780441623
40
0.527579743958998
40
0.586167715975905
40
0.64475103181646
40
0.703308907161096
40
0.762633273648725
40
0.821978397010685
40
0.881330465133478
40
0.940675612974445
40
1
40
1
40
1
40
1
41
1
10
52.0406828312652
20
-12.5293614090557
30
0
41
1
10
52.040711100184
20
-12.5293331410555
30
0
41
1
10
52.0441070815853
20
-12.5259382376798
30
0
41
1
10
52.0510645657364
20
-12.5192256109663
30
0
41
1
10
52.0619564716671
20
-12.509352858172
30
0
41
1
10
52.0732887263755
20
-12.4996291141007
30
0
41
1
10
52.0849983770837
20
-12.4900538420086
30
0
41
1
10
52.0981367713867
20
-12.4797502770718
30
0
41
1
10
52.1127629538733
20
-12.4687521498431
30
0
41
1
10
52.1289488371648
20
-12.457104767594
30
0
41
1
10
52.1455089600938
20
-12.4456565430497
30
0
41
1
10
52.1631352661591
20
-12.4339104729036
30
0
41
1
10
52.1818391674494
20
-12.4218831562953
30
0
41
1
10
52.2016450741482
20
-12.4096011588379
30
0
41
1
10
52.2217771963407
20
-12.39754373875
30
0
41
1
10
52.2422051327966
20
-12.3857111406584
30
0
41
1
10
52.2629943288112
20
-12.3740493658414
30
0
41
1
10
52.2841312536673
20
-12.3625564377263
30
0
41
1
10
52.3056142390122
20
-12.3512395370841
30
0
41
1
10
52.3273403647261
20
-12.3401542164283
30
0
41
1
10
52.3492956384956
20
-12.3293080263525
30
0
41
1
10
52.3640763776516
20
-12.3222418334933
30
0
41
1
10
52.3715025269362
20
-12.3187498661777
30
0
0
SPLINE
5
1C8
100
AcDbEntity
8
1
62
256
6
ByLayer
370
18
48
1
60
0
100
AcDbSpline
70
4
71
3
72
35
73
31
40
0
40
0
40
0
40
0
40
0.0230240023043449
40
0.0973236558136146
40
0.146202260710127
40
0.19516640821345
40
0.244124681729076
40
0.293021546724877
40
0.341843628529297
40
0.375664034599067
40
0.40957765737776
40
0.443489097630415
40
0.47733747756605
40
0.511103021293691
40
0.540607492614963
40
0.570201156280743
40
0.599767796320804
40
0.629235299560316
40
0.658973123367112
40
0.688850362139507
40
0.718723436189075
40
0.748455554053989
40
0.77430738076613
40
0.800235091480811
40
0.826178552943662
40
0.852051918565314
40
0.888956565644939
40
0.925973116433533
40
0.963034308092468
40
1
40
1
40
1
40
1
41
1
10
67.5293491313326
20
2.95930488705729
30
0
41
1
10
67.530349506603
20
2.96031298586104
30
0
41
1
10
67.5345892628135
20
2.96452972271305
30
0
41
1
10
67.5410406217007
20
2.97056455121093
30
0
41
1
10
67.5487190249343
20
2.97728131205464
30
0
41
1
10
67.5553336808649
20
2.98266789135928
30
0
41
1
10
67.5620121545805
20
2.9876615850536
30
0
41
1
10
67.5687417749977
20
2.99219018902722
30
0
41
1
10
67.5748182817707
20
2.99577833113079
30
0
41
1
10
67.5802206392631
20
2.9985467830391
30
0
41
1
10
67.5849370051384
20
3.00062116679208
30
0
41
1
10
67.5896472494346
20
3.00231064310913
30
0
41
1
10
67.5943259228239
20
3.00355966752898
30
0
41
1
10
67.5987564249229
20
3.00428581275277
30
0
41
1
10
67.6029245560277
20
3.00449948413951
30
0
41
1
10
67.6068182777134
20
3.00423702820793
30
0
41
1
10
67.6105949927052
20
3.00347521133791
30
0
41
1
10
67.6142271584993
20
3.0021752308386
30
0
41
1
10
67.6176691914127
20
3.00027300746942
30
0
41
1
10
67.6208908863428
20
2.99778082705933
30
0
41
1
10
67.6238505248699
20
2.9947365548039
30
0
41
1
10
67.6263940181368
20
2.9913134733046
30
0
41
1
10
67.6285383338097
20
2.98760875297504
30
0
41
1
10
67.6303437092734
20
2.98374611441898
30
0
41
1
10
67.6319141424722
20
2.97959285283586
30
0
41
1
10
67.6334420763347
20
2.97456382169996
30
0
41
1
10
67.6348116153517
20
2.96856424090551
30
0
41
1
10
67.6359250584009
20
2.96155398158271
30
0
41
1
10
67.636665106719
20
2.95427270550712
30
0
41
1
10
67.6369450592945
20
2.94929636318177
30
0
41
1
10
67.6370286678373
20
2.94677627472348
30
0
0
SPLINE
5
1C9
100
AcDbEntity
8
1
62
256
6
ByLayer
370
18
48
1
60
0
100
AcDbSpline
70
4
71
3
72
26
73
22
40
0
40
0
40
0
40
0
40
0.0052676203949764
40
0.0439533013603224
40
0.082659523436315
40
0.121353187559656
40
0.167795319358946
40
0.214276091518063
40
0.26078220516747
40
0.307286157168115
40
0.353747747075558
40
0.413184611768356
40
0.47265180622245
40
0.532125270599567
40
0.591570689385723
40
0.659588637211875
40
0.727666043030517
40
0.795776460118509
40
0.863890541507202
40
0.931976407206698
40
1
40
1
40
1
40
1
41
1
10
68.9283207665298
20
4.35827652526757
30
0
41
1
10
68.9279878930693
20
4.35794350359913
30
0
41
1
10
68.9252132535569
20
4.35515166229939
30
0
41
1
10
68.9200392257082
20
4.34968187195052
30
0
41
1
10
68.9128874784433
20
4.34153147012724
30
0
41
1
10
68.9053792744888
20
4.33239749980402
30
0
41
1
10
68.8975357631419
20
4.32224881155362
30
0
41
1
10
68.8893835442577
20
4.31104568771261
30
0
41
1
10
68.8813828343314
20
4.2994339880531
30
0
41
1
10
68.8735340386307
20
4.28746592415089
30
0
41
1
10
68.865115330956
20
4.27404343807109
30
0
41
1
10
68.8561671646765
20
4.25909879195279
30
0
41
1
10
68.8467411772185
20
4.24255869730759
30
0
41
1
10
68.8375365590077
20
4.22563967365634
30
0
41
1
10
68.8281186346445
20
4.20755154135202
30
0
41
1
10
68.8185139712301
20
4.18827051726274
30
0
41
1
10
68.8087620049738
20
4.16776277749699
30
0
41
1
10
68.7992890087146
20
4.14689716358586
30
0
41
1
10
68.7901039388318
20
4.12570695925059
30
0
41
1
10
68.7812151719318
20
4.1042224929343
30
0
41
1
10
68.7754905829871
20
4.08972118533256
30
0
41
1
10
68.7726790371758
20
4.082426644062
30
0
0
SPLINE
5
1CA
100
AcDbEntity
8
1
62
256
6
ByLayer
370
18
48
1
60
0
100
AcDbSpline
70
4
71
3
72
34
73
30
40
0
40
0
40
0
40
0
40
0.0100923053728233
40
0.0721133336101562
40
0.124673933339327
40
0.177313434390555
40
0.229916770245194
40
0.282427973521296
40
0.317880271046123
40
0.353495647725716
40
0.389152215257411
40
0.424757361477418
40
0.460253823494527
40
0.495626523508198
40
0.529130407417709
40
0.562747699837297
40
0.596349275865371
40
0.62983165391239
40
0.663380176213315
40
0.697052132860406
40
0.730736863083775
40
0.764302866746947
40
0.797380165882833
40
0.830559208153399
40
0.863801430272262
40
0.897034199660316
40
0.930156704560737
40
0.965077026233046
40
1
40
1
40
1
40
1
41
1
10
50.6417455769184
20
-13.9282986648687
30
0
41
1
10
50.6413729146392
20
-13.9286699048031
30
0
41
1
10
50.6387273561867
20
-13.9313256834891
30
0
41
1
10
50.6343659141971
20
-13.9359603636249
30
0
41
1
10
50.628972256174
20
-13.9422478108761
30
0
41
1
10
50.6243563223061
20
-13.9482424028818
30
0
41
1
10
50.6202883369364
20
-13.9542858070271
30
0
41
1
10
50.6172214000913
20
-13.9597025342196
30
0
41
1
10
50.615005374695
20
-13.9644710761444
30
0
41
1
10
50.6134649695852
20
-13.96858395907
30
0
41
1
10
50.6123289890144
20
-13.9726841005568
30
0
41
1
10
50.6116410906566
20
-13.9767445597158
30
0
41
1
10
50.6114450897069
20
-13.9807381149225
30
0
41
1
10
50.6117766858568
20
-13.984572901021
30
0
41
1
10
50.6126559275869
20
-13.9882299982994
30
0
41
1
10
50.6140568414327
20
-13.9916949853772
30
0
41
1
10
50.6159990132098
20
-13.9950043388691
30
0
41
1
10
50.6184931644391
20
-13.9981260667308
30
0
41
1
10
50.6215590063208
20
-14.0010265220285
30
0
41
1
10
50.6251487547071
20
-14.0036974349654
30
0
41
1
10
50.6292115047307
20
-14.0061240900499
30
0
41
1
10
50.633685118354
20
-14.0082809909906
30
0
41
1
10
50.6385296423159
20
-14.0101642857514
30
0
41
1
10
50.6436839431608
20
-14.0117960256236
30
0
41
1
10
50.6491249859662
20
-14.0131948152177
30
0
41
1
10
50.6547989859091
20
-14.0143696315663
30
0
41
1
10
50.6607728131278
20
-14.015347894686
30
0
41
1
10
50.6670284331333
20
-14.0161282514904
30
0
41
1
10
50.6713666873991
20
-14.0165257487762
30
0
41
1
10
50.6735622927399
20
-14.016690100374
30
0
0
SPLINE
5
1CB
100
AcDbEntity
8
1
62
256
6
ByLayer
370
18
48
1
60
0
100
AcDbSpline
70
4
71
3
72
26
73
22
40
0
40
0
40
0
40
0
40
0.0284599624188235
40
0.0614560633037785
40
0.0944228110556346
40
0.139468844660388
40
0.184540534422992
40
0.229595588546201
40
0.278446051913386
40
0.327338107183382
40
0.376254612172718
40
0.425166392985395
40
0.474033414975629
40
0.53665359626886
40
0.599311047881878
40
0.661974330017458
40
0.724602466620201
40
0.793431653001466
40
0.862299614137709
40
0.931168944900644
40
1
40
1
40
1
40
1
41
1
10
49.5393108978976
20
-15.030733343066
30
0
41
1
10
49.540743990902
20
-15.0293024208696
30
0
41
1
10
49.5439374280668
20
-15.0262299699624
30
0
41
1
10
49.5491900814491
20
-15.0215663302635
30
0
41
1
10
49.5557362728143
20
-15.0161589010685
30
0
41
1
10
49.563434861573
20
-15.0102620913732
30
0
41
1
10
49.5723797661783
20
-15.0039151316851
30
0
41
1
10
49.5820206195879
20
-14.9975214740949
30
0
41
1
10
49.592341492545
20
-14.9910890979779
30
0
41
1
10
49.6033396247075
20
-14.9846288996276
30
0
41
1
10
49.6147017532982
20
-14.978311160387
30
0
41
1
10
49.6263850911184
20
-14.9721370612077
30
0
41
1
10
49.6394766301197
20
-14.9655379667549
30
0
41
1
10
49.6540450534646
20
-14.9585561201059
30
0
41
1
10
49.6701595600565
20
-14.951243937262
30
0
41
1
10
49.6866304624397
20
-14.9441527647459
30
0
41
1
10
49.7039754796384
20
-14.9370555658925
30
0
41
1
10
49.7222034535978
20
-14.9299747986374
30
0
41
1
10
49.7413270799471
20
-14.9229418670358
30
0
41
1
10
49.7607561099939
20
-14.9161820401728
30
0
41
1
10
49.7738893201168
20
-14.9118634096903
30
0
41
1
10
49.7805012981756
20
-14.9097510949383
30
0
0
SPLINE
5
1CC
100
AcDbEntity
8
1
62
256
6
ByLayer
370
18
48
1
60
0
100
AcDbSpline
70
4
71
3
72
32
73
28
40
0
40
0
40
0
40
0
40
0.0234720916718199
40
0.077149009364925
40
0.130753067645078
40
0.179214798605678
40
0.227780811405662
40
0.27630789045792
40
0.324716407811043
40
0.363896559159381
40
0.403258513936374
40
0.442647911093177
40
0.481943551189727
40
0.521067832926867
40
0.555476911685444
40
0.590035123861023
40
0.624649673021769
40
0.659218293423685
40
0.693636139700326
40
0.731595929112716
40
0.769657144710268
40
0.807740162396781
40
0.845729758203133
40
0.884257597759972
40
0.922845874921922
40
0.961450218713873
40
1
40
1
40
1
40
1
41
1
10
70.0307413830411
20
5.46069713917482
30
0
41
1
10
70.031488243037
20
5.46144614333126
30
0
41
1
10
70.0339494358443
20
5.46385677880585
30
0
41
1
10
70.038159179919
20
5.46767099259265
30
0
41
1
10
70.0432254293396
20
5.47170831382017
30
0
41
1
10
70.048163063416
20
5.47508375926417
30
0
41
1
10
70.0529562699909
20
5.47779814245918
30
0
41
1
10
70.0577518757197
20
5.47989667412299
30
0
41
1
10
70.0622204451348
20
5.48121962710675
30
0
41
1
10
70.0663458940935
20
5.48183124553028
30
0
41
1
10
70.0701227173686
20
5.48184922445359
30
0
41
1
10
70.0738256869101
20
5.48129710198311
30
0
41
1
10
70.0774173925169
20
5.48014539685519
30
0
41
1
10
70.0807285675492
20
5.47843570667366
30
0
41
1
10
70.083750327645
20
5.47621628257861
30
0
41
1
10
70.0864979780416
20
5.47359763989411
30
0
41
1
10
70.0890897857125
20
5.47051024347138
30
0
41
1
10
70.0915058805116
20
5.46698538074151
30
0
41
1
10
70.0938063569119
20
5.46290626590336
30
0
41
1
10
70.0959582286692
20
5.45824228712053
30
0
41
1
10
70.0979483233897
20
5.45300937617444
30
0
41
1
10
70.0997096142834
20
5.4474117855727
30
0
41
1
10
70.101252448379
20
5.44147243666082
30
0
41
1
10
70.1025800041799
20
5.43522660373019
30
0
41
1
10
70.1037055302038
20
5.42871237529219
30
0
41
1
10
70.104632557577
20
5.42199537788986
30
0
41
1
10
70.1051293452936
20
5.41741250412131
30
0
41
1
10
70.1053463791102
20
5.41509398599635
30
0
0
SPLINE
5
1CD
100
AcDbEntity
8
1
62
256
6
ByLayer
370
18
48
1
60
0
100
AcDbSpline
70
4
71
3
72
32
73
28
40
0
40
0
40
0
40
0
40
0.0151188494428453
40
0.0621073499832506
40
0.109076077958475
40
0.155972745539487
40
0.194758274794658
40
0.233657018999787
40
0.27257058342755
40
0.311424265710714
40
0.350171894212393
40
0.389272126481507
40
0.428547381115484
40
0.467869003833951
40
0.507118874164503
40
0.54619772213628
40
0.58919937811052
40
0.632350484411782
40
0.675521086871348
40
0.718549418665969
40
0.762681634860092
40
0.806949791043758
40
0.85130095221462
40
0.895638286423243
40
0.93982870870533
40
0.96991404553745
40
1
40
1
40
1
40
1
41
1
10
48.6450262605245
20
-15.9250179814877
30
0
41
1
10
48.644608067719
20
-15.9254358475413
30
0
41
1
10
48.6429200468489
20
-15.9271551140338
30
0
41
1
10
48.6401598813784
20
-15.9301960083151
30
0
41
1
10
48.6370458510516
20
-15.9341557465766
30
0
41
1
10
48.6345784714679
20
-15.9379073172664
30
0
41
1
10
48.6327095308551
20
-15.9414390639017
30
0
41
1
10
48.6313689155451
20
-15.9447425340048
30
0
41
1
10
48.6304617474029
20
-15.9480349475888
30
0
41
1
10
48.6300218117018
20
-15.9512970013288
30
0
41
1
10
48.630078177193
20
-15.9545229328252
30
0
41
1
10
48.6306860810819
20
-15.9576981862166
30
0
41
1
10
48.6318566968246
20
-15.9608075696133
30
0
41
1
10
48.6335833225384
20
-15.9638222732205
30
0
41
1
10
48.6358636401311
20
-15.9667141975035
30
0
41
1
10
48.6387974816519
20
-15.9695522084599
30
0
41
1
10
48.6424602636536
20
-15.9722983729585
30
0
41
1
10
48.6468531376453
20
-15.9749283317916
30
0
41
1
10
48.6518027777445
20
-15.977344538427
30
0
41
1
10
48.6573039681554
20
-15.9795537446466
30
0
41
1
10
48.6633307626907
20
-15.9815430868452
30
0
41
1
10
48.6698301733275
20
-15.9833198456377
30
0
41
1
10
48.6766931799461
20
-15.9848748915472
30
0
41
1
10
48.6838525717399
20
-15.9862148418302
30
0
41
1
10
48.6904726766303
20
-15.9872276066085
30
0
41
1
10
48.6964415454049
20
-15.9879890315806
30
0
41
1
10
48.6999393624827
20
-15.9883719983063
30
0
41
1
10
48.7017032970902
20
-15.9885490960237
30
0
0
SPLINE
5
1CE
100
AcDbEntity
8
1
62
256
6
ByLayer
370
18
48
1
60
0
100
AcDbSpline
70
4
71
3
72
28
73
24
40
0
40
0
40
0
40
0
40
0.000907731346673
40
0.0309269860717533
40
0.0670227425826699
40
0.103154462838549
40
0.139295746645604
40
0.1754045567235
40
0.22478241861632
40
0.274190047616588
40
0.323577418098834
40
0.372926068373249
40
0.422317237478492
40
0.471731411892331
40
0.521139051580315
40
0.570501528162444
40
0.633827726853282
40
0.697195566054659
40
0.760568566909093
40
0.823901808741244
40
0.88259632378266
40
0.941304981108854
40
1
40
1
40
1
40
1
41
1
10
70.925046227276
20
6.3550019869226
30
0
41
1
10
70.9250093141079
20
6.35496469382403
30
0
41
1
10
70.9237518450823
20
6.35369260057685
30
0
41
1
10
70.92103760133
20
6.35084646642635
30
0
41
1
10
70.9169514237302
20
6.34607454593465
30
0
41
1
10
70.9126846515691
20
6.34061948009111
30
0
41
1
10
70.9084858318924
20
6.33479222892382
30
0
41
1
10
70.9038522500971
20
6.3278824115065
30
0
41
1
10
70.8988164989214
20
6.31977961031875
30
0
41
1
10
70.8934187831096
20
6.31038688595616
30
0
41
1
10
70.888155284993
20
6.30056012963772
30
0
41
1
10
70.8830226990868
20
6.29035078113613
30
0
41
1
10
70.878019252078
20
6.27979206533706
30
0
41
1
10
70.873143422842
20
6.26891325537593
30
0
41
1
10
70.8683966435281
20
6.25775006032126
30
0
41
1
10
70.8633420500357
20
6.24525502329536
30
0
41
1
10
70.8580199807805
20
6.23136292069026
30
0
41
1
10
70.8524795092004
20
6.21601124954871
30
0
41
1
10
70.8471440144564
20
6.20033730824616
30
0
41
1
10
70.8421396084128
20
6.18476388810414
30
0
41
1
10
70.8374494126583
20
6.16933936958333
30
0
41
1
10
70.8330590955718
20
6.15409717165966
30
0
41
1
10
70.8302546152557
20
6.14380775302728
30
0
41
1
10
70.8288829243114
20
6.13863053119761
30
0
0
SPLINE
5
1CF
100
AcDbEntity
8
1
62
256
6
ByLayer
370
18
48
1
60
0
100
AcDbSpline
70
4
71
3
72
30
73
26
40
0
40
0
40
0
40
0
40
0.0396566763685476
40
0.0899052433767522
40
0.131548641680555
40
0.173323555199324
40
0.215118231789151
40
0.256845633791895
40
0.298449061430299
40
0.340397787771694
40
0.382535941224383
40
0.424729091409194
40
0.466848931433492
40
0.508782229281339
40
0.55457954890019
40
0.600528423431454
40
0.646498370270464
40
0.692324517483498
40
0.740587920424941
40
0.789000293542742
40
0.837502679030692
40
0.885989103655709
40
0.934314813443179
40
0.967157081282322
40
1
40
1
40
1
40
1
41
1
10
71.6583110357949
20
7.08826679398591
30
0
41
1
10
71.6592586167579
20
7.08921708446805
30
0
41
1
10
71.6614136381371
20
7.09123802930597
30
0
41
1
10
71.6645939795991
20
7.09377743412841
30
0
41
1
10
71.6678401732705
20
7.09585143930886
30
0
41
1
10
71.6708851884898
20
7.09733895788315
30
0
41
1
10
71.6739253267759
20
7.09834560793921
30
0
41
1
10
71.6769418148841
20
7.09883678530125
30
0
41
1
10
71.6799278762786
20
7.09878217364017
30
0
41
1
10
71.6828699473812
20
7.09812533740207
30
0
41
1
10
71.6857543958389
20
7.09686095428371
30
0
41
1
10
71.6885555214241
20
7.09500030316804
30
0
41
1
10
71.6912477920313
20
7.0925507688704
30
0
41
1
10
71.6938893186798
20
7.08941765414568
30
0
41
1
10
71.6964486282982
20
7.08553334284456
30
0
41
1
10
71.6989065024663
20
7.08090365133283
30
0
41
1
10
71.7011787521805
20
7.07570094804197
30
0
41
1
10
71.7032920402251
20
7.06987809182984
30
0
41
1
10
71.705229091155
20
7.06344546986419
30
0
41
1
10
71.7069887973117
20
7.05644398193661
30
0
41
1
10
71.7085442773464
20
7.04904649630654
30
0
41
1
10
71.7099005622479
20
7.0413251889804
30
0
41
1
10
71.7109404313683
20
7.03418485457939
30
0
41
1
10
71.7117340625382
20
7.02774786226994
30
0
41
1
10
71.7121388924384
20
7.02397728242805
30
0
41
1
10
71.7123278825527
20
7.0220754894389
30
0
0
SPLINE
5
1D0
100
AcDbEntity
8
1
62
256
6
ByLayer
370
18
48
1
60
0
100
AcDbSpline
70
4
71
3
72
27
73
23
40
0
40
0
40
0
40
0
40
0.0300151594988794
40
0.0632338243829551
40
0.0963462544717829
40
0.134527401766767
40
0.172746445111774
40
0.210974548484293
40
0.249168062087745
40
0.301429293770234
40
0.353723474783617
40
0.405994346836011
40
0.467267241571905
40
0.528599234297349
40
0.589943297603254
40
0.651232667503606
40
0.714172073409983
40
0.77715557524381
40
0.840143666753433
40
0.903089335610044
40
0.95154462461158
40
1
40
1
40
1
40
1
41
1
10
47.911748030588
20
-16.6582962100926
30
0
41
1
10
47.9127463112991
20
-16.6573033810952
30
0
41
1
10
47.9149591602972
20
-16.655222817312
30
0
41
1
10
47.9186936392673
20
-16.6520858406664
30
0
41
1
10
47.9231224954606
20
-16.648728619782
30
0
41
1
10
47.9281526571656
20
-16.6452650857359
30
0
41
1
10
47.9338089587479
20
-16.6417044615228
30
0
41
1
10
47.9398211923905
20
-16.6382105964693
30
0
41
1
10
47.94693019829
20
-16.6343656499404
30
0
41
1
10
47.955245713439
20
-16.6302016045955
30
0
41
1
10
47.9648640988016
20
-16.6257574658031
30
0
41
1
10
47.9754888465586
20
-16.6211956093606
30
0
41
1
10
47.9871534947424
20
-16.6165401844792
30
0
41
1
10
47.9998881294547
20
-16.6118193147976
30
0
41
1
10
48.0130384895137
20
-16.6072730457259
30
0
41
1
10
48.0266758571133
20
-16.6028614021018
30
0
41
1
10
48.0407736581676
20
-16.5985866304519
30
0
41
1
10
48.0553151185157
20
-16.5944539251172
30
0
41
1
10
48.0701432272883
20
-16.590502521925
30
0
41
1
10
48.0840697751968
20
-16.5870228687282
30
0
41
1
10
48.0970117576272
20
-16.5839702065669
30
0
41
1
10
48.1049422841759
20
-16.5821932079001
30
0
41
1
10
48.1089293912516
20
-16.5813230018623
30
0
0
SPLINE
5
1D1
100
AcDbEntity
8
1
62
256
6
ByLayer
370
18
48
1
60
0
100
AcDbSpline
70
4
71
3
72
30
73
26
40
0
40
0
40
0
40
0
40
0.002203351359314
40
0.0496461686715142
40
0.0921182769225812
40
0.134729531805441
40
0.177365762404796
40
0.219934552725322
40
0.26237093163017
40
0.305081983146166
40
0.347974894729586
40
0.390926117301786
40
0.433812085541922
40
0.476517288885892
40
0.524365409983461
40
0.572363445774321
40
0.62038380336948
40
0.668262456019119
40
0.720303768740202
40
0.772505817345087
40
0.824804399167493
40
0.877085258542789
40
0.929192882578363
40
0.964596101621384
40
1
40
1
40
1
40
1
41
1
10
47.3110617752464
20
-17.2589824651411
30
0
41
1
10
47.3110175359694
20
-17.2590273366443
30
0
41
1
10
47.3100246736193
20
-17.2600385560498
30
0
41
1
10
47.3083082559246
20
-17.2619229567819
30
0
41
1
10
47.306374649114
20
-17.2646496877447
30
0
41
1
10
47.3049843173215
20
-17.2672823534261
30
0
41
1
10
47.3040985211047
20
-17.2699121811912
30
0
41
1
10
47.3037450757781
20
-17.2725223201689
30
0
41
1
10
47.3039523740301
20
-17.2751051305264
30
0
41
1
10
47.3047690855741
20
-17.2776490921661
30
0
41
1
10
47.306191553281
20
-17.2801436397191
30
0
41
1
10
47.3082039746462
20
-17.2825692205864
30
0
41
1
10
47.3107930592497
20
-17.2849056032987
30
0
41
1
10
47.3140815918584
20
-17.2872263426578
30
0
41
1
10
47.3181494840758
20
-17.2895034515182
30
0
41
1
10
47.3230081307133
20
-17.2917170272708
30
0
41
1
10
47.3284450845803
20
-17.2937741469423
30
0
41
1
10
47.3345769261257
20
-17.295721530336
30
0
41
1
10
47.3414129399831
20
-17.2975385052848
30
0
41
1
10
47.3489286334934
20
-17.2992165157594
30
0
41
1
10
47.356869650911
20
-17.3007109917822
30
0
41
1
10
47.3651588922173
20
-17.3020257258378
30
0
41
1
10
47.3728246176067
20
-17.3030447604356
30
0
41
1
10
47.3797353768128
20
-17.3038312392869
30
0
41
1
10
47.3837835218269
20
-17.3042365387805
30
0
41
1
10
47.3858254180533
20
-17.3044269750606
30
0
0
SPLINE
5
1D2
100
AcDbEntity
8
1
62
256
6
ByLayer
370
18
48
1
60
0
100
AcDbSpline
70
4
71
3
72
26
73
22
40
0
40
0
40
0
40
0
40
0.0306795055601343
40
0.0707310307782098
40
0.110649963271386
40
0.159511647543105
40
0.208493511370358
40
0.257574919911632
40
0.306700213899765
40
0.355783498021784
40
0.40471298525266
40
0.460851669811367
40
0.517044753883324
40
0.573248645709027
40
0.629402081875516
40
0.687072879346379
40
0.744783949038709
40
0.80249988489974
40
0.86017732258659
40
0.930088279967729
40
1
40
1
40
1
40
1
41
1
10
72.2589954157964
20
7.6889511736784
30
0
41
1
10
72.2581766648465
20
7.68812461820097
30
0
41
1
10
72.2562984359488
20
7.68609414601684
30
0
41
1
10
72.2533901326557
20
7.68245583560368
30
0
41
1
10
72.2500575605798
20
7.67765368665693
30
0
41
1
10
72.2465633710829
20
7.67191131683799
30
0
41
1
10
72.2429261738115
20
7.66516123348992
30
0
41
1
10
72.2393773360717
20
7.6578379835399
30
0
41
1
10
72.2359238868856
20
7.65001128294703
30
0
41
1
10
72.2325729000007
20
7.64174964353151
30
0
41
1
10
72.229165851515
20
7.63268070313641
30
0
41
1
10
72.2257173427379
20
7.62277718214044
30
0
41
1
10
72.2222429659223
20
7.61201172892932
30
0
41
1
10
72.2188973784436
20
7.60087347244237
30
0
41
1
10
72.2156513922519
20
7.58930210867149
30
0
41
1
10
72.2125068996705
20
7.57732043007412
30
0
41
1
10
72.2094670917029
20
7.56494431234521
30
0
41
1
10
72.206560297152
20
7.55230906783504
30
0
41
1
10
72.2035908492409
20
7.53853377486808
30
0
41
1
10
72.2005932584759
20
7.5235814934713
30
0
41
1
10
72.1986029295238
20
7.5128174331355
30
0
41
1
10
72.1976405515026
20
7.50738815838882
30
0
0
SPLINE
5
1D3
100
AcDbEntity
8
1
62
256
6
ByLayer
370
18
48
1
60
0
100
AcDbSpline
70
4
71
3
72
27
73
23
40
0
40
0
40
0
40
0
40
0.0332943854182615
40
0.075208044679704
40
0.11710487116128
40
0.15886201415347
40
0.208318622204596
40
0.257900185973336
40
0.307581605054127
40
0.357304570455857
40
0.406982150640132
40
0.456502951839175
40
0.511399225076946
40
0.566348589530706
40
0.621307721556132
40
0.676217326657334
40
0.73262683963915
40
0.789076666574112
40
0.845531200491372
40
0.901947136574726
40
0.950973449909621
40
1
40
1
40
1
40
1
41
1
10
46.8245207751931
20
-17.7455234661935
30
0
41
1
10
46.8252331547238
20
-17.7448192243218
30
0
41
1
10
46.8269873352718
20
-17.7432362262201
30
0
41
1
10
46.8302463174891
20
-17.7407951232558
30
0
41
1
10
46.8343125274696
20
-17.7382182952039
30
0
41
1
10
46.8391833755513
20
-17.7355362478783
30
0
41
1
10
46.8449262042772
20
-17.7327630750953
30
0
41
1
10
46.8515877501659
20
-17.7299120755249
30
0
41
1
10
46.8587968641885
20
-17.7271385153538
30
0
41
1
10
46.8664883751913
20
-17.7244479711793
30
0
41
1
10
46.8745981372425
20
-17.721846086357
30
0
41
1
10
46.8833852002032
20
-17.7192429503406
30
0
41
1
10
46.8928605685206
20
-17.7166476466108
30
0
41
1
10
46.903035574225
20
-17.7140690543584
30
0
41
1
10
46.9135493632901
20
-17.7115951416054
30
0
41
1
10
46.9244618540211
20
-17.7092042206254
30
0
41
1
10
46.9357530360508
20
-17.7068981142913
30
0
41
1
10
46.9474078639978
20
-17.7046793075038
30
0
41
1
10
46.9592978220232
20
-17.7025686946433
30
0
41
1
10
46.9708685358813
20
-17.7006537988395
30
0
41
1
10
46.9820718988674
20
-17.6989186890122
30
0
41
1
10
46.9892692781289
20
-17.6978718693725
30
0
41
1
10
46.992890315393
20
-17.6973620777209
30
0
0
SPLINE
5
1D4
100
AcDbEntity
8
1
62
256
6
ByLayer
370
18
48
1
60
0
100
AcDbSpline
70
4
71
3
72
30
73
26
40
0
40
0
40
0
40
0
40
0.0142581537646706
40
0.0570011125123297
40
0.0998869622692025
40
0.142802400517623
40
0.185652202540228
40
0.228364828618588
40
0.271281603841165
40
0.314369880437231
40
0.35751748496066
40
0.400607590895922
40
0.443525906539204
40
0.493011153676149
40
0.54264468927324
40
0.592301520406061
40
0.641818626596689
40
0.68782972937461
40
0.733964071008309
40
0.780190134573978
40
0.826449543439379
40
0.872660952193659
40
0.918723584839061
40
0.9593613188041
40
1
40
1
40
1
40
1
41
1
10
72.7455415805337
20
8.17549733866917
30
0
41
1
10
72.7457835633834
20
8.17573981715591
30
0
41
1
10
72.7467517580516
20
8.17667331701206
30
0
41
1
10
72.7484561297989
20
8.17806332749915
30
0
41
1
10
72.7506547499391
20
8.17935197360626
30
0
41
1
10
72.7528523939357
20
8.1801251232188
30
0
41
1
10
72.755034681179
20
8.18035638074586
30
0
41
1
10
72.7571940035888
20
8.180021525116
30
0
41
1
10
72.7593210684641
20
8.17907965197499
30
0
41
1
10
72.7614080074632
20
8.1775418687622
30
0
41
1
10
72.7634405474093
20
8.17542684115331
30
0
41
1
10
72.7654031877444
20
8.17275210877313
30
0
41
1
10
72.767379816748
20
8.16936147531221
30
0
41
1
10
72.769346078755
20
8.16515983575722
30
0
41
1
10
72.7712822041705
20
8.16011611655536
30
0
41
1
10
72.7730904155856
20
8.15448740835141
30
0
41
1
10
72.7747248851666
20
8.14847620214348
30
0
41
1
10
72.7761936843831
20
8.14216521856284
30
0
41
1
10
72.7775132269166
20
8.13563561348369
30
0
41
1
10
72.7787222109503
20
8.12877153351822
30
0
41
1
10
72.7798220927461
20
8.12162014556277
30
0
41
1
10
72.7808142541771
20
8.11422823822814
30
0
41
1
10
72.7816667313522
20
8.10692587498652
30
0
41
1
10
72.7823965071661
20
8.09976247135518
30
0
41
1
10
72.7828134574576
20
8.09510702988554
30
0
41
1
10
72.7830094585011
20
8.09275706538723
30
0
0
SPLINE
5
1D5
100
AcDbEntity
8
1
62
256
6
ByLayer
370
18
48
1
60
0
100
AcDbSpline
70
4
71
3
72
27
73
23
40
0
40
0
40
0
40
0
40
0.0328989725308533
40
0.0774404924408745
40
0.122005079278834
40
0.166465661491239
40
0.213448693067775
40
0.260554372101848
40
0.307754611125889
40
0.354991738913355
40
0.402182672931036
40
0.449222706522161
40
0.499978773276757
40
0.550784123021857
40
0.601598391793227
40
0.652366632274413
40
0.704524901807051
40
0.75672031392716
40
0.808920520864196
40
0.861085333329739
40
0.930541959502849
40
1
40
1
40
1
40
1
41
1
10
73.130437997914
20
8.56039375662479
30
0
41
1
10
73.1299043938826
20
8.5598560659116
30
0
41
1
10
73.1286536719928
20
8.55844042278486
30
0
41
1
10
73.1266993661098
20
8.55563103250943
30
0
41
1
10
73.1245925441056
20
8.55190492617452
30
0
41
1
10
73.1224871093032
20
8.54749417246732
30
0
41
1
10
73.1203908769407
20
8.54240635281564
30
0
41
1
10
73.1183084543406
20
8.53666150107301
30
0
41
1
10
73.116281097788
20
8.53040320183572
30
0
41
1
10
73.1143135560882
20
8.52368830535891
30
0
41
1
10
73.1124105863235
20
8.51657328978114
30
0
41
1
10
73.110525243321
20
8.50890275340554
30
0
41
1
10
73.1086624763882
20
8.50067633917472
30
0
41
1
10
73.1068262482959
20
8.4918943657234
30
0
41
1
10
73.1050636770413
20
8.48279872487389
30
0
41
1
10
73.1033594179297
20
8.47333812564668
30
0
41
1
10
73.1017148789246
20
8.46353016885473
30
0
41
1
10
73.1001315813199
20
8.453389008641
30
0
41
1
10
73.0986242425721
20
8.44302760358977
30
0
41
1
10
73.0970346073962
20
8.43130424531181
30
0
41
1
10
73.0953939834224
20
8.41815803296295
30
0
41
1
10
73.094289961302
20
8.40842290191476
30
0
41
1
10
73.0937601230677
20
8.40350772995382
30
0
0
SPLINE
5
1D6
100
AcDbEntity
8
1
62
256
6
ByLayer
370
18
48
1
60
0
100
AcDbSpline
70
4
71
3
72
30
73
26
40
0
40
0
40
0
40
0
40
0.0246093289498881
40
0.0674319692533644
40
0.110288223210187
40
0.153081543851501
40
0.195735108062025
40
0.238528291305396
40
0.281482201674187
40
0.324495224411002
40
0.367457621979976
40
0.410257950365281
40
0.45086611181698
40
0.491580610911649
40
0.532345835599306
40
0.573088196453274
40
0.613719788280994
40
0.662028003311167
40
0.710465782160785
40
0.758999609046225
40
0.807568063004691
40
0.856085871385885
40
0.904447597087985
40
0.95222305280671
40
1
40
1
40
1
40
1
41
1
10
46.4396250145465
20
-18.1304192265897
30
0
41
1
10
46.4392908015662
20
-18.1307550896322
30
0
41
1
10
46.4384525294204
20
-18.1316759616339
30
0
41
1
10
46.4374227392796
20
-18.133187017321
30
0
41
1
10
46.4367514601992
20
-18.1349455417943
30
0
41
1
10
46.4366259307956
20
-18.1366929772872
30
0
41
1
10
46.4370677349747
20
-18.138422238153
30
0
41
1
10
46.4381100011139
20
-18.1401262294727
30
0
41
1
10
46.4397356946473
20
-18.1417993104069
30
0
41
1
10
46.4419242122357
20
-18.1434315319186
30
0
41
1
10
46.4446548772698
20
-18.1450114368225
30
0
41
1
10
46.4478606134058
20
-18.1465046209527
30
0
41
1
10
46.4515006353226
20
-18.1479090115075
30
0
41
1
10
46.4555064680246
20
-18.1492291702289
30
0
41
1
10
46.4599108917732
20
-18.1504872269292
30
0
41
1
10
46.4646757948529
20
-18.1516792723681
30
0
41
1
10
46.4700942494063
20
-18.1528736746882
30
0
41
1
10
46.4762204397816
20
-18.1540547356218
30
0
41
1
10
46.4830856541654
20
-18.1552091143455
30
0
41
1
10
46.4903052781037
20
-18.156272630659
30
0
41
1
10
46.4978296963687
20
-18.1572461579102
30
0
41
1
10
46.5056097759119
20
-18.1581305449635
30
0
41
1
10
46.5135793749642
20
-18.1589247354583
30
0
41
1
10
46.5217112093197
20
-18.1596327917319
30
0
41
1
10
46.5272199047668
20
-18.1600520397861
30
0
41
1
10
46.5300037176813
20
-18.1602486754326
30
0
0
SPLINE
5
1D7
100
AcDbEntity
8
1
62
256
6
ByLayer
370
18
48
1
60
0
100
AcDbSpline
70
4
71
3
72
29
73
25
40
0
40
0
40
0
40
0
40
0.0406438103291151
40
0.0839535605520195
40
0.127121504140377
40
0.170427804122157
40
0.213896807317824
40
0.257425359041763
40
0.30090240364212
40
0.344215473463815
40
0.385314718816559
40
0.42652273567159
40
0.467782094293874
40
0.509017580846452
40
0.550139927481514
40
0.598396860892512
40
0.646784352268213
40
0.69526720802161
40
0.743783348854435
40
0.792247768602876
40
0.840556139811698
40
0.893690802226654
40
0.946858146682814
40
1
40
1
40
1
40
1
41
1
10
73.4222944752242
20
8.85225023481183
30
0
41
1
10
73.4227144072616
20
8.85266280939815
30
0
41
1
10
73.4235812766857
20
8.85334937045567
30
0
41
1
10
73.4248948996494
20
8.85389145727527
30
0
41
1
10
73.4262287466714
20
8.85385803153299
30
0
41
1
10
73.4275500872404
20
8.8532128269462
30
0
41
1
10
73.4288542744442
20
8.85196886102631
30
0
41
1
10
73.430133505767
20
8.85014497554747
30
0
41
1
10
73.4313787318902
20
8.84775882578485
30
0
41
1
10
73.432562795164
20
8.84486980635497
30
0
41
1
10
73.433683615707
20
8.84151813008126
30
0
41
1
10
73.4347438683751
20
8.83777370684634
30
0
41
1
10
73.4357608457901
20
8.83360850199935
30
0
41
1
10
73.4367310316344
20
8.82905991455017
30
0
41
1
10
73.4377054809451
20
8.82387178000802
30
0
41
1
10
73.4386735423757
20
8.81799095742905
30
0
41
1
10
73.4396262647461
20
8.81138753645992
30
0
41
1
10
73.4405143215391
20
8.80440811532693
30
0
41
1
10
73.4413376820382
20
8.79710186294574
30
0
41
1
10
73.442096336375
20
8.78951778212277
30
0
41
1
10
73.442814435202
20
8.78142841054101
30
0
41
1
10
73.4434869510065
20
8.77283290218063
30
0
41
1
10
73.4441099465048
20
8.7637323297373
30
0
41
1
10
73.4444804349596
20
8.75753468232343
30
0
41
1
10
73.4446542379992
20
8.75440184488539
30
0
0
SPLINE
5
1D8
100
AcDbEntity
8
1
62
256
6
ByLayer
370
18
48
1
60
0
100
AcDbSpline
70
4
71
3
72
29
73
25
40
0
40
0
40
0
40
0
40
0.0271263542711008
40
0.0642009500636858
40
0.101363390801665
40
0.138569707900059
40
0.175758924193204
40
0.212856031387557
40
0.260077820478815
40
0.30742483023406
40
0.35486608084333
40
0.402342396762595
40
0.449770448136555
40
0.497046423513976
40
0.547019095636256
40
0.597040242632915
40
0.647069759025582
40
0.697053854681335
40
0.74841477329919
40
0.799812730103911
40
0.851215404938633
40
0.902582761765309
40
0.951291178843038
40
1
40
1
40
1
40
1
41
1
10
46.1477693433003
20
-18.4222748973325
30
0
41
1
10
46.1480882595879
20
-18.4219567692713
30
0
41
1
10
46.148947535658
20
-18.4212057941116
30
0
41
1
10
46.1507049703297
20
-18.4200256468965
30
0
41
1
10
46.1531107672469
20
-18.4187412837371
30
0
41
1
10
46.1559621332745
20
-18.4174720062762
30
0
41
1
10
46.159226425872
20
-18.4162231525628
30
0
41
1
10
46.1632100135883
20
-18.414886702093
30
0
41
1
10
46.1680198236524
20
-18.4134719479252
30
0
41
1
10
46.1737399421592
20
-18.4119896599228
30
0
41
1
10
46.1799526648687
20
-18.4105506963841
30
0
41
1
10
46.1866039934617
20
-18.4091584746151
30
0
41
1
10
46.1936402519996
20
-18.4078163834425
30
0
41
1
10
46.2011631323862
20
-18.4065009787444
30
0
41
1
10
46.2091649481239
20
-18.405214943619
30
0
41
1
10
46.2176377227146
20
-18.4039599296146
30
0
41
1
10
46.226401505649
20
-18.4027598327159
30
0
41
1
10
46.2355073119887
20
-18.4016041498044
30
0
41
1
10
46.2449389549566
20
-18.4004939882545
30
0
41
1
10
46.2546828244268
20
-18.3994304134286
30
0
41
1
10
46.2646299138884
20
-18.3984233261449
30
0
41
1
10
46.2745826034715
20
-18.3974889327296
30
0
41
1
10
46.2845139679952
20
-18.3966236051728
30
0
41
1
10
46.2911031350859
20
-18.3960902919666
30
0
41
1
10
46.2944204292113
20
-18.3958319639026
30
0
0
SPLINE
5
1D9
100
AcDbEntity
8
1
62
256
6
ByLayer
370
18
48
1
60
0
100
AcDbSpline
70
4
71
3
72
29
73
25
40
0
40
0
40
0
40
0
40
0.0300825407329084
40
0.0714649231057353
40
0.112747553004777
40
0.153856387807397
40
0.19596663702204
40
0.238216347930118
40
0.280524210443056
40
0.322794428538875
40
0.364921934944167
40
0.40726250621635
40
0.449703458191092
40
0.492194314377631
40
0.534665426434898
40
0.577031354646985
40
0.630641089211416
40
0.684394109461438
40
0.738253518394334
40
0.792151416054449
40
0.84599339043332
40
0.899662602458466
40
0.949830683736598
40
1
40
1
40
1
40
1
41
1
10
45.9430688457933
20
-18.6269753948437
30
0
41
1
10
45.9428755992344
20
-18.6271849738884
30
0
41
1
10
45.9425187731133
20
-18.6276823039722
30
0
41
1
10
45.9423091104106
20
-18.6284663355828
30
0
41
1
10
45.9426313101912
20
-18.6293211704195
30
0
41
1
10
45.9435039211236
20
-18.6301714121115
30
0
41
1
10
45.9449635365501
20
-18.6310137604004
30
0
41
1
10
45.9469897712518
20
-18.6318461104197
30
0
41
1
10
45.949547638819
20
-18.6326583414702
30
0
41
1
10
45.9526082349084
20
-18.6334457766023
30
0
41
1
10
45.9561587779011
20
-18.6342063875836
30
0
41
1
10
45.9601857026984
20
-18.6349380953847
30
0
41
1
10
45.9646515547782
20
-18.6356411771831
30
0
41
1
10
45.9695158464147
20
-18.6363133502375
30
0
41
1
10
45.9747384539261
20
-18.6369529824651
30
0
41
1
10
45.9807802439278
20
-18.6376128274258
30
0
41
1
10
45.9877245860183
20
-18.6382824414445
30
0
41
1
10
45.9956313258832
20
-18.638951595011
30
0
41
1
10
46.003931038035
20
-18.6395710381604
30
0
41
1
10
46.0125675389859
20
-18.6401412344394
30
0
41
1
10
46.0214851789813
20
-18.6406626280639
30
0
41
1
10
46.030446686986
20
-18.6411262053693
30
0
41
1
10
46.0394080862735
20
-18.6415368964989
30
0
41
1
10
46.0453554702642
20
-18.6417792978498
30
0
41
1
10
46.0483582962545
20
-18.6418940968594
30
0
0
SPLINE
5
1DA
100
AcDbEntity
8
1
62
256
6
ByLayer
370
18
48
1
60
0
100
AcDbSpline
70
4
71
3
72
28
73
24
40
0
40
0
40
0
40
0
40
0.0277029670313968
40
0.0656379467123836
40
0.103672244421594
40
0.14175354418019
40
0.179813162758171
40
0.217769436008679
40
0.262531786212567
40
0.307415451527117
40
0.352387420034446
40
0.397389966599538
40
0.442344303888704
40
0.48715390868274
40
0.533529331296033
40
0.579949883121165
40
0.626378074947431
40
0.672763925568052
40
0.736326225705977
40
0.79993299818248
40
0.8635047009839
40
0.931751308227475
40
1
40
1
40
1
40
1
41
1
10
73.6269947465274
20
9.05695050602703
30
0
41
1
10
73.6267847891464
20
9.05674014170766
30
0
41
1
10
73.6262882033762
20
9.05613377908461
30
0
41
1
10
73.6255058442971
20
9.05476352520046
30
0
41
1
10
73.6246522099634
20
9.05276074342878
30
0
41
1
10
73.6238072231038
20
9.05028949242826
30
0
41
1
10
73.6229749885717
20
9.04737941192864
30
0
41
1
10
73.6221093897433
20
9.04385488116426
30
0
41
1
10
73.6212151201952
20
9.03964539128911
30
0
41
1
10
73.620296969511
20
9.03470515195066
30
0
41
1
10
73.6194041870388
20
9.0293003131709
30
0
41
1
10
73.6185392089652
20
9.02347809385836
30
0
41
1
10
73.617704448442
20
9.01728553600606
30
0
41
1
10
73.6168915681144
20
9.01068002719251
30
0
41
1
10
73.6161016845871
20
9.0036755583667
30
0
41
1
10
73.6153349997818
20
8.99628726561485
30
0
41
1
10
73.6146008585674
20
8.9886244995509
30
0
41
1
10
73.6138128534013
20
8.97974015782405
30
0
41
1
10
73.6129860165987
20
8.96954714971372
30
0
41
1
10
73.6121375387062
20
8.95797651727852
30
0
41
1
10
73.6113292616542
20
8.94579236329004
30
0
41
1
10
73.6105659582001
20
8.93300901176816
30
0
41
1
10
73.6100899390499
20
8.92410890828038
30
0
41
1
10
73.609863161274
20
8.91961076816018
30
0
0
SPLINE
5
1DB
100
AcDbEntity
8
1
62
256
6
ByLayer
370
18
48
1
60
0
100
AcDbSpline
70
4
71
3
72
28
73
24
40
0
40
0
40
0
40
0
40
0.0195704098523577
40
0.0614698831479427
40
0.100619567620216
40
0.139877012718067
40
0.179184016066891
40
0.218466190887491
40
0.257636674533612
40
0.3020642047569
40
0.346613542346807
40
0.391249899350913
40
0.43591509487629
40
0.480531084574395
40
0.525003182341057
40
0.585542459732467
40
0.646139959085704
40
0.706693902656957
40
0.768923215844078
40
0.831196339001237
40
0.893434973539181
40
0.946717036082436
40
1
40
1
40
1
40
1
41
1
10
45.8216883925672
20
-18.7483558478578
30
0
41
1
10
45.8217655420604
20
-18.7482836523609
30
0
41
1
10
45.8220746571724
20
-18.7480569025719
30
0
41
1
10
45.8229010867487
20
-18.7476851439031
30
0
41
1
10
45.824483695247
20
-18.7472422889986
30
0
41
1
10
45.8265321863985
20
-18.7468122152551
30
0
41
1
10
45.8290631442751
20
-18.7463864789492
30
0
41
1
10
45.8320448250374
20
-18.7459672600076
30
0
41
1
10
45.8356079412588
20
-18.7455376687655
30
0
41
1
10
45.8398030700186
20
-18.7450998247103
30
0
41
1
10
45.8446559337864
20
-18.7446556901989
30
0
41
1
10
45.8499552240165
20
-18.7442240660571
30
0
41
1
10
45.8556561287815
20
-18.7438062377486
30
0
41
1
10
45.8617139714776
20
-18.7434034709051
30
0
41
1
10
45.8688653540487
20
-18.7429698277797
30
0
41
1
10
45.8772272086419
20
-18.7425123856673
30
0
41
1
10
45.8868878843723
20
-18.7420390808591
30
0
41
1
10
45.897070889515
20
-18.7415903467354
30
0
41
1
10
45.9077345939409
20
-18.74116714139
30
0
41
1
10
45.918841176431
20
-18.7407701701769
30
0
41
1
10
45.9297022718993
20
-18.7404206288927
30
0
41
1
10
45.9402358951258
20
-18.7401136281979
30
0
41
1
10
45.9469955208859
20
-18.7399341295517
30
0
41
1
10
45.9504044219181
20
-18.7398479711958
30
0
0
SPLINE
5
1DC
100
AcDbEntity
8
1
62
256
6
ByLayer
370
18
48
1
60
0
100
AcDbSpline
70
4
71
3
72
28
73
24
40
0
40
0
40
0
40
0
40
0.0418202092425438
40
0.0882252465318568
40
0.134431354821234
40
0.175494650244547
40
0.216682499632185
40
0.257924715169384
40
0.299135563296738
40
0.340218207337514
40
0.38327535907312
40
0.426430581755404
40
0.469635465554993
40
0.512821874593802
40
0.555905243695142
40
0.611857017923797
40
0.667958131707762
40
0.724170165236978
40
0.780422356421897
40
0.836616281339528
40
0.892630111708213
40
0.946314376806344
40
1
40
1
40
1
40
1
41
1
10
73.7483749621388
20
9.17833072182135
30
0
41
1
10
73.7485229851727
20
9.17846366411496
30
0
41
1
10
73.7488338909036
20
9.1785533127487
30
0
41
1
10
73.7493045834667
20
9.17810157038461
30
0
41
1
10
73.749765345115
20
9.17696249186233
30
0
41
1
10
73.7501990469518
20
9.17524580564645
30
0
41
1
10
73.7506064123916
20
9.1730687912731
30
0
41
1
10
73.7510033901093
20
9.17038870731041
30
0
41
1
10
73.7513880090628
20
9.16723544116564
30
0
41
1
10
73.7517648607428
20
9.16357210044152
30
0
41
1
10
73.7521324948964
20
9.15939136206984
30
0
41
1
10
73.7524903832272
20
9.15470909053305
30
0
41
1
10
73.7528324389239
20
9.14962520541909
30
0
41
1
10
73.7531579980314
20
9.14418095630604
30
0
41
1
10
73.7534975056586
20
9.13783290697877
30
0
41
1
10
73.7538452101937
20
9.13048419930121
30
0
41
1
10
73.7541952834471
20
9.12206149777982
30
0
41
1
10
73.754519539775
20
9.11322515740204
30
0
41
1
10
73.7548183405153
20
9.10403470143429
30
0
41
1
10
73.7550920307607
20
9.09454905543593
30
0
41
1
10
73.7553379620144
20
9.08494374440831
30
0
41
1
10
73.7555581141195
20
9.0752583456244
30
0
41
1
10
73.7556893134191
20
9.06877357561359
30
0
41
1
10
73.7557514852106
20
9.06549909209676
30
0
0
SPLINE
5
1DD
100
AcDbEntity
8
1
62
256
6
ByLayer
370
18
48
1
60
0
100
AcDbSpline
70
4
71
2
72
6
73
3
40
0
40
0
40
0
40
1
40
1
40
1
41
0.500005443239456
10
71.1274755194233
20
5.42034968539851
30
0
41
0.499994556760544
10
71.1804417364893
20
5.47331590246449
30
0
41
0.500005443239456
10
71.2324650422119
20
5.52533920818713
30
0
0
SPLINE
5
1DE
100
AcDbEntity
8
1
62
256
6
ByLayer
370
18
48
1
60
0
100
AcDbSpline
70
4
71
2
72
6
73
3
40
0
40
0
40
0
40
1
40
1
40
1
41
0.50000479843448
10
71.8417638562052
20
6.13463802218041
30
0
41
0.49999520156552
10
71.8849223090318
20
6.17779647500695
30
0
41
0.50000479843448
10
71.9271954600213
20
6.2200696259965
30
0
0
SPLINE
5
1DF
100
AcDbEntity
8
1
62
256
6
ByLayer
370
18
48
1
60
0
100
AcDbSpline
70
4
71
2
72
6
73
3
40
0
40
0
40
0
40
1
40
1
40
1
41
0.500004356131372
10
72.4213019888841
20
6.71417615485933
30
0
41
0.499995643868628
10
72.4561617683287
20
6.74903593430394
30
0
41
0.500004356131372
10
72.4901780349664
20
6.78305220094155
30
0
0
SPLINE
5
1E0
100
AcDbEntity
8
1
62
256
6
ByLayer
370
18
48
1
60
0
100
AcDbSpline
70
4
71
2
72
6
73
3
40
0
40
0
40
0
40
1
40
1
40
1
41
0.500004045391814
10
72.8847994714545
20
7.17767363742962
30
0
41
0.499995954608186
10
72.9123588914635
20
7.20523305743867
30
0
41
0.500004045391814
10
72.9391054412355
20
7.23197960721067
30
0
0
SPLINE
5
1E1
100
AcDbEntity
8
1
62
256
6
ByLayer
370
18
48
1
60
0
100
AcDbSpline
70
4
71
2
72
6
73
3
40
0
40
0
40
0
40
1
40
1
40
1
41
0.500003826997353
10
73.2447789530455
20
7.53765311902071
30
0
41
0.499996173002647
10
73.2657152706318
20
7.55858943660699
30
0
41
0.500003826997353
10
73.2858609645383
20
7.5787351305135
30
0
0
SPLINE
5
1E2
100
AcDbEntity
8
1
62
256
6
ByLayer
370
18
48
1
60
0
100
AcDbSpline
70
4
71
2
72
6
73
3
40
0
40
0
40
0
40
1
40
1
40
1
41
0.500003678074472
10
73.509740567896
20
7.80261473387124
30
0
41
0.499996321925528
10
73.5245119475869
20
7.81738611356213
30
0
41
0.500003678074472
10
73.5385082395394
20
7.83138240551463
30
0
0
SPLINE
5
1E3
100
AcDbEntity
8
1
62
256
6
ByLayer
370
18
48
1
60
0
100
AcDbSpline
70
4
71
2
72
6
73
3
40
0
40
0
40
0
40
1
40
1
40
1
41
0.500003585068969
10
73.6853508006065
20
7.97822496658166
30
0
41
0.499996414931031
10
73.6942538995781
20
7.98712806555325
30
0
41
0.500003585068969
10
73.7023917733133
20
7.99526593928849
30
0
0
SPLINE
5
1E4
100
AcDbEntity
8
1
62
256
6
ByLayer
370
18
48
1
60
0
100
AcDbSpline
70
4
71
2
72
6
73
3
40
0
40
0
40
0
40
1
40
1
40
1
41
0.50000354030808
10
73.7751173847005
20
8.06799155067563
30
0
41
0.49999645969192
10
73.7783199772001
20
8.07119414317526
30
0
41
0.50000354030808
10
73.7807621365938
20
8.073636302569
30
0
0
SPLINE
5
1E5
100
AcDbEntity
8
1
62
256
6
ByLayer
370
18
48
1
60
0
100
AcDbSpline
70
4
71
2
72
6
73
3
40
0
40
0
40
0
40
1
40
1
40
1
41
0.50000354030808
10
46.9263827502692
20
-18.7807430837557
30
0
41
0.49999645969192
10
46.928824909663
20
-18.7783009243619
30
0
41
0.50000354030808
10
46.9320275021626
20
-18.7750983318623
30
0
0
SPLINE
5
1E6
100
AcDbEntity
8
1
62
256
6
ByLayer
370
18
48
1
60
0
100
AcDbSpline
70
4
71
2
72
6
73
3
40
0
40
0
40
0
40
1
40
1
40
1
41
0.500003585068969
10
47.0047531135497
20
-18.7023727204752
30
0
41
0.499996414931031
10
47.012890987285
20
-18.6942348467399
30
0
41
0.500003585068969
10
47.0217940862566
20
-18.6853317477684
30
0
0
SPLINE
5
1E7
100
AcDbEntity
8
1
62
256
6
ByLayer
370
18
48
1
60
0
100
AcDbSpline
70
4
71
2
72
6
73
3
40
0
40
0
40
0
40
1
40
1
40
1
41
0.500003678074472
10
47.1686366473236
20
-18.5384891867013
30
0
41
0.499996321925528
10
47.182632939276
20
-18.5244928947489
30
0
41
0.500003678074472
10
47.197404318967
20
-18.5097215150579
30
0
0
SPLINE
5
1E8
100
AcDbEntity
8
1
62
256
6
ByLayer
370
18
48
1
60
0
100
AcDbSpline
70
4
71
2
72
6
73
3
40
0
40
0
40
0
40
1
40
1
40
1
41
0.500003826997353
10
47.4212839223247
20
-18.2858419117002
30
0
41
0.499996173002647
10
47.4414296162312
20
-18.2656962177937
30
0
41
0.500003826997353
10
47.4623659338175
20
-18.2447599002074
30
0
0
SPLINE
5
1E9
100
AcDbEntity
8
1
62
256
6
ByLayer
370
18
48
1
60
0
100
AcDbSpline
70
4
71
2
72
6
73
3
40
0
40
0
40
0
40
1
40
1
40
1
41
0.500004045391814
10
47.7680394456275
20
-17.9390863883974
30
0
41
0.499995954608186
10
47.7947859953997
20
-17.9123398386252
30
0
41
0.500004045391814
10
47.8223454154086
20
-17.8847804186163
30
0
0
SPLINE
5
1EA
100
AcDbEntity
8
1
62
256
6
ByLayer
370
18
48
1
60
0
100
AcDbSpline
70
4
71
2
72
6
73
3
40
0
40
0
40
0
40
1
40
1
40
1
41
0.500004356131372
10
48.2169668518967
20
-17.4901589821283
30
0
41
0.499995643868628
10
48.2509831185344
20
-17.4561427154905
30
0
41
0.500004356131372
10
48.2858428979789
20
-17.421282936046
30
0
0
SPLINE
5
1EB
100
AcDbEntity
8
1
62
256
6
ByLayer
370
18
48
1
60
0
100
AcDbSpline
70
4
71
2
72
6
73
3
40
0
40
0
40
0
40
1
40
1
40
1
41
0.50000479843448
10
48.7799494268417
20
-16.9271764071832
30
0
41
0.49999520156552
10
48.8222225778315
20
-16.8849032561934
30
0
41
0.50000479843448
10
48.8653810306578
20
-16.8417448033671
30
0
0
SPLINE
5
1EC
100
AcDbEntity
8
1
62
256
6
ByLayer
370
18
48
1
60
0
100
AcDbSpline
70
4
71
2
72
6
73
3
40
0
40
0
40
0
40
1
40
1
40
1
41
0.500005443239456
10
49.4746798446511
20
-16.2324459893738
30
0
41
0.499994556760544
10
49.5267031503735
20
-16.1804226836514
30
0
41
0.500005443239456
10
49.5796693674397
20
-16.1274564665852
30
0
0
SPLINE
5
1ED
100
AcDbEntity
8
1
62
256
6
ByLayer
370
18
48
0.05
60
1
100
AcDbSpline
70
4
71
3
72
8
73
4
40
0
40
0
40
0
40
0
40
1
40
1
40
1
40
1
41
1
10
48.2221518312485
20
-167.000000000001
30
0
41
1
10
46.5596853212573
20
-175.59025381982
30
0
41
1
10
45.1691992484993
20
-184.203796226729
30
0
41
1
10
44.6583186059721
20
-192.89265569642
30
0
0
SPLINE
5
1EE
100
AcDbEntity
8
1
62
256
6
ByLayer
370
18
48
0.05
60
1
100
AcDbSpline
70
4
71
3
72
13
73
9
40
0
40
0
40
0
40
0
40
0.098081855372567
40
0.196199316831313
40
0.396806626480363
40
0.597597370151652
40
0.798762783152461
40
1
40
1
40
1
40
1
41
1
10
44.6922421016716
20
-207.107344303397
30
0
41
1
10
44.7428136029181
20
-207.96108243476
30
0
41
1
10
44.8598497019799
20
-209.667588343669
30
0
41
1
10
45.1629831977118
20
-213.114068246299
30
0
41
1
10
45.6592122405578
20
-217.441523310249
30
0
41
1
10
46.4091321190215
20
-222.641694815418
30
0
41
1
10
47.2811909152587
20
-227.828240558035
30
0
41
1
10
47.9202084165593
20
-231.277753760812
30
0
41
1
10
48.2560753269481
20
-232.999999999817
30
0
0
SPLINE
5
1EF
100
AcDbEntity
8
1
62
256
6
ByLayer
370
18
48
1
60
0
100
AcDbSpline
70
4
71
3
72
10
73
6
40
0
40
0
40
0
40
0
40
0.483016599166114
40
0.483016599166114
40
1
40
1
40
1
40
1
41
1
10
14.6254011529794
20
24.4200409500066
30
0
41
1
10
14.8664374580825
20
23.8820271149491
30
0
41
1
10
15.1048367186587
20
23.3428387839249
30
0
41
1
10
15.5921324012273
20
22.2238142002562
30
0
41
1
10
15.8405900934293
20
21.6437863259132
30
0
41
1
10
16.0850134763923
20
21.0620455190216
30
0
0
SPLINE
5
1F0
100
AcDbEntity
8
1
62
256
6
ByLayer
370
18
48
1
60
0
100
AcDbSpline
70
4
71
3
72
10
73
6
40
0
40
0
40
0
40
0
40
0.483016599166114
40
0.483016599166114
40
1
40
1
40
1
40
1
41
1
10
21.3746257998061
20
24.4200409500066
30
0
41
1
10
21.133589494703
20
23.8820271149491
30
0
41
1
10
20.8951902341268
20
23.3428387839249
30
0
41
1
10
20.4078945515582
20
22.2238142002562
30
0
41
1
10
20.1594368593563
20
21.6437863259132
30
0
41
1
10
19.9150134763933
20
21.0620455190216
30
0
0
SPLINE
5
1F1
100
AcDbEntity
8
1
62
256
6
ByLayer
370
18
48
1
60
0
100
AcDbSpline
70
4
71
3
72
8
73
4
40
0
40
0
40
0
40
0
40
1
40
1
40
1
40
1
41
1
10
71.5988375206066
20
12.1053687124265
30
0
41
1
10
71.6048157684846
20
12.1008344769178
30
0
41
1
10
71.6107953370828
20
12.096301982529
30
0
41
1
10
71.6167768015056
20
12.0917719910611
30
0
0
SPLINE
5
1F2
100
AcDbEntity
8
1
62
256
6
ByLayer
370
18
48
1
60
0
100
AcDbSpline
70
2053
71
3
72
87
73
83
40
0
40
0
40
0
40
0
40
0.0312500000000002
40
0.0312500000000002
40
0.0625000000000007
40
0.0625000000000007
40
0.0703125000000006
40
0.0703125000000006
40
0.0781250000000006
40
0.0781250000000006
40
0.0937500000000004
40
0.0937500000000004
40
0.125
40
0.125
40
0.15625
40
0.15625
40
0.1875
40
0.1875
40
0.203125
40
0.203125
40
0.21875
40
0.21875
40
0.25
40
0.25
40
0.28125
40
0.28125
40
0.3125
40
0.3125
40
0.328125
40
0.3359375
40
0.3359375
40
0.34375
40
0.34375
40
0.375
40
0.375
40
0.40625
40
0.40625
40
0.4375
40
0.4375
40
0.46875
40
0.46875
40
0.5
40
0.5
40
0.53125
40
0.5625
40
0.5625
40
0.59375
40
0.59375
40
0.609374999999999
40
0.609374999999999
40
0.624999999999999
40
0.624999999999999
40
0.656249999999999
40
0.656249999999999
40
0.687499999999999
40
0.687499999999999
40
0.718749999999999
40
0.718749999999999
40
0.734374999999999
40
0.734374999999999
40
0.749999999999999
40
0.749999999999999
40
0.781249999999999
40
0.781249999999999
40
0.812499999999999
40
0.812499999999999
40
0.843749999999999
40
0.843749999999999
40
0.859374999999999
40
0.867187499999999
40
0.867187499999999
40
0.874999999999999
40
0.874999999999999
40
0.906249999999999
40
0.906249999999999
40
0.9375
40
0.9375
40
0.96875
40
0.96875
40
0.984375
40
0.984375
40
1
40
1
40
1
40
1
41
1
10
53.6153368454176
20
9.70360757656656
30
0
41
1
10
53.9807915857519
20
10.0933744989616
30
0
41
1
10
54.3174731007453
20
10.4942479334961
30
0
41
1
10
54.9514269081688
20
11.3046459254956
30
0
41
1
10
55.2485538888467
20
11.7142784024509
30
0
41
1
10
55.6018295179908
20
12.2266442693655
30
0
41
1
10
55.6715651397304
20
12.3291424571902
30
0
41
1
10
55.80931835135
20
12.5340893671591
30
0
41
1
10
55.8773903055141
20
12.6366213434212
30
0
41
1
10
56.0787836439344
20
12.9433879537211
30
0
41
1
10
56.209094505538
20
13.1464817389351
30
0
41
1
10
56.5896218602257
20
13.7507878185528
30
0
41
1
10
56.8295084267118
20
14.1469975987004
30
0
41
1
10
57.286989839677
20
14.9232184491993
30
0
41
1
10
57.5045502644651
20
15.3032487511644
30
0
41
1
10
57.9205526021253
20
16.044947020903
30
0
41
1
10
58.1189766538504
20
16.4066265703414
30
0
41
1
10
58.4037030668465
20
16.9339085204607
30
0
41
1
10
58.4964518141824
20
17.1071302756467
30
0
41
1
10
58.6777834804858
20
17.4482457276938
30
0
41
1
10
58.7665214802846
20
17.6164383901386
30
0
41
1
10
59.0247994492572
20
18.1090968693832
30
0
41
1
10
59.1868540803603
20
18.4224367564598
30
0
41
1
10
59.492218567626
20
19.0184628150232
30
0
41
1
10
59.6355221722155
20
19.3011520976505
30
0
41
1
10
59.9042070074288
20
19.835088699187
30
0
41
1
10
60.0295853033905
20
20.0863394977688
30
0
41
1
10
60.2044227592843
20
20.4387164981866
30
0
41
1
10
60.2885280245896
20
20.608774626968
30
0
41
1
10
60.3676510094048
20
20.7694074124856
30
0
41
1
10
60.4192875614153
20
20.8743714038858
30
0
41
1
10
60.4445767565204
20
20.9258460186822
30
0
41
1
10
60.5678026264505
20
21.1769620706014
30
0
41
1
10
60.6561876943661
20
21.3580340186546
30
0
41
1
10
60.8133427859812
20
21.6809998156509
30
0
41
1
10
60.8821106589225
20
21.8228934885523
30
0
41
1
10
61.0003280005455
20
22.067340536246
30
0
41
1
10
61.0497770398091
20
22.1698953844134
30
0
41
1
10
61.1292195950562
20
22.3348611921912
30
0
41
1
10
61.1592142821841
20
22.3972755961581
30
0
41
1
10
61.1991660429044
20
22.480443376199
30
0
41
1
10
61.2088364037059
20
22.5005992010796
30
0
41
1
10
61.2082481845351
20
22.4993737215526
30
0
41
1
10
61.1877319316165
20
22.4566140404831
30
0
41
1
10
61.1278467779873
20
22.3320070050908
30
0
41
1
10
61.0480943857729
20
22.1664048929484
30
0
41
1
10
60.9982860735765
20
22.0631077655444
30
0
41
1
10
60.9082031152482
20
21.8768525217434
30
0
41
1
10
60.8755305903475
20
21.809380195387
30
0
41
1
10
60.8055918498447
20
21.6651904177274
30
0
41
1
10
60.768286957307
20
21.5883925991721
30
0
41
1
10
60.6494565578088
20
21.3442325656342
30
0
41
1
10
60.5610293833198
20
21.16312275069
30
0
41
1
10
60.3658995293349
20
20.7655521662022
30
0
41
1
10
60.259197494998
20
20.5490882443822
30
0
41
1
10
60.0271977602402
20
20.0815523974959
30
0
41
1
10
59.9019027440196
20
19.8304785965882
30
0
41
1
10
59.6993947989862
20
19.4280972569078
30
0
41
1
10
59.6294603896708
20
19.2896713238742
30
0
41
1
10
59.4845677266671
20
19.0042101174649
30
0
41
1
10
59.4094683681873
20
18.8569013648804
30
0
41
1
10
59.1782215568463
20
18.4056847110614
30
0
41
1
10
59.0157415544637
20
18.0916901212241
30
0
41
1
10
58.6734469341438
20
17.4390363655027
30
0
41
1
10
58.4936385879169
20
17.1003710496333
30
0
41
1
10
58.1152600579341
20
16.3998340398967
30
0
41
1
10
57.9167022357215
20
16.0379548346816
30
0
41
1
10
57.6029759266359
20
15.4787996444738
30
0
41
1
10
57.4421270502398
20
15.1951385488005
30
0
41
1
10
57.2748046095688
20
14.9055752346093
30
0
41
1
10
57.1617495081718
20
14.7112490170664
30
0
41
1
10
57.1044363635795
20
14.6133896005049
30
0
41
1
10
56.8150737890711
20
14.1228960546827
30
0
41
1
10
56.5739063935107
20
13.7252409150881
30
0
41
1
10
56.0680501678449
20
12.9231181889435
30
0
41
1
10
55.8034059653979
20
12.5186183628338
30
0
41
1
10
55.2438657392778
20
11.7078674286225
30
0
41
1
10
54.9490566012492
20
11.3015567030298
30
0
41
1
10
54.4757440416121
20
10.6965991157107
30
0
41
1
10
54.3127475240654
20
10.4957242689559
30
0
41
1
10
53.9741744774198
20
10.0969615493044
30
0
41
1
10
53.7986056870491
20
9.89906853107018
30
0
41
1
10
53.6153368454176
20
9.70360757656656
30
0
0
SPLINE
5
1F3
100
AcDbEntity
8
1
62
256
6
ByLayer
370
18
48
1
60
0
100
AcDbSpline
70
4
71
3
72
91
73
87
40
0
40
0
40
0
40
0
40
0.0312500000000017
40
0.0312500000000017
40
0.0625000000000033
40
0.0625000000000033
40
0.093750000000005
40
0.093750000000005
40
0.101562500000005
40
0.101562500000005
40
0.109375000000005
40
0.125000000000006
40
0.125000000000006
40
0.156250000000006
40
0.156250000000006
40
0.187500000000006
40
0.187500000000006
40
0.203125000000007
40
0.203125000000007
40
0.218750000000007
40
0.218750000000007
40
0.250000000000007
40
0.250000000000007
40
0.281250000000007
40
0.281250000000007
40
0.289062500000007
40
0.289062500000007
40
0.296875000000007
40
0.296875000000007
40
0.312500000000007
40
0.312500000000007
40
0.343750000000007
40
0.343750000000007
40
0.375000000000006
40
0.375000000000006
40
0.390625000000006
40
0.390625000000006
40
0.406250000000006
40
0.406250000000006
40
0.437500000000005
40
0.437500000000005
40
0.468750000000005
40
0.468750000000005
40
0.500000000000004
40
0.500000000000004
40
0.531250000000003
40
0.531250000000003
40
0.562500000000003
40
0.562500000000003
40
0.593750000000002
40
0.593750000000002
40
0.609375000000002
40
0.609375000000002
40
0.617187500000002
40
0.617187500000002
40
0.625000000000002
40
0.625000000000002
40
0.656250000000002
40
0.656250000000002
40
0.687500000000001
40
0.687500000000001
40
0.718750000000001
40
0.718750000000001
40
0.734375000000001
40
0.734375000000001
40
0.750000000000001
40
0.750000000000001
40
0.781250000000002
40
0.781250000000002
40
0.812500000000002
40
0.812500000000002
40
0.828125000000002
40
0.828125000000002
40
0.843750000000002
40
0.843750000000002
40
0.875000000000002
40
0.875000000000002
40
0.906250000000002
40
0.906250000000002
40
0.921875000000002
40
0.921875000000002
40
0.937500000000002
40
0.937500000000002
40
0.968750000000001
40
0.968750000000001
40
1
40
1
40
1
40
1
41
1
10
45.0000134763928
20
9.70360757656656
30
0
41
1
10
44.6825533358466
20
9.70360757656657
30
0
41
1
10
44.368085153048
20
9.68785324852242
30
0
41
1
10
43.7449088158373
20
9.62591635919254
30
0
41
1
10
43.4362015392719
20
9.57972911530013
30
0
41
1
10
42.8245326146206
20
9.45671306120478
30
0
41
1
10
42.52157082382
20
9.37988605115551
30
0
41
1
10
42.1465724216393
20
9.26379960494286
30
0
41
1
10
42.0717094668072
20
9.2395564987357
30
0
41
1
10
41.9232704148166
20
9.18934496025374
30
0
41
1
10
41.702210195512
20
9.11134091975116
30
0
41
1
10
41.4858814422624
20
9.02534475966781
30
0
41
1
10
41.0594125195266
20
8.84278664864308
30
0
41
1
10
40.7833370712435
20
8.70702099261036
30
0
41
1
10
40.2473978530015
20
8.40714101174677
30
0
41
1
10
39.9875351332402
20
8.24302613623647
30
0
41
1
10
39.6100406430788
20
7.97476058749535
30
0
41
1
10
39.4861283979411
20
7.88150963049213
30
0
41
1
10
39.2452540125363
20
7.68975155250278
30
0
41
1
10
39.1279278170538
20
7.59100116112701
30
0
41
1
10
38.7850151531196
20
7.28625718726183
30
0
41
1
10
38.5684756240194
20
7.07178819268625
30
0
41
1
10
38.15861369028
20
6.62043326547979
30
0
41
1
10
37.9652928803145
20
6.38354687311195
30
0
41
1
10
37.7379505154602
20
6.07320257155172
30
0
41
1
10
37.6931988857561
20
6.01042053261251
30
0
41
1
10
37.6051299110213
20
5.88341889767848
30
0
41
1
10
37.5618261461238
20
5.8192128382092
30
0
41
1
10
37.4347464402476
20
5.62549113978196
30
0
41
1
10
37.3535579141176
20
5.49452867923952
30
0
41
1
10
37.1201957979235
20
5.09632113658076
30
0
41
1
10
36.9782003595359
20
4.82376730923161
30
0
41
1
10
36.719946275994
20
4.26486357163612
30
0
41
1
10
36.6036892582082
20
3.97851347992543
30
0
41
1
10
36.4481401738248
20
3.53864264064458
30
0
41
1
10
36.3994359231387
20
3.39029192016701
30
0
41
1
10
36.3083146515578
20
3.09010095610686
30
0
41
1
10
36.2660888799444
20
2.93884968096526
30
0
41
1
10
36.1497722205662
20
2.48407726963856
30
0
41
1
10
36.0857091468078
20
2.17855804462554
30
0
41
1
10
35.9832946068191
20
1.56299216924434
30
0
41
1
10
35.9449452046359
20
1.25294530783688
30
0
41
1
10
35.8936578680612
20
0.628334202508609
30
0
41
1
10
35.8807177279805
20
0.313770359027193
30
0
41
1
10
35.8808890831668
20
-0.32000358107298
30
0
41
1
10
35.8940138261098
20
-0.634736043774633
30
0
41
1
10
35.9456129746657
20
-1.25896955130959
30
0
41
1
10
35.9840899822765
20
-1.56864820083754
30
0
41
1
10
36.0866185636129
20
-2.18313402358977
30
0
41
1
10
36.1506685940213
20
-2.48794133972051
30
0
41
1
10
36.2667859342296
20
-2.94139261149137
30
0
41
1
10
36.3088394684067
20
-3.09191526853588
30
0
41
1
10
36.377120776422
20
-3.31673328362007
30
0
41
1
10
36.4007832118188
20
-3.3916136205873
30
0
41
1
10
36.4496539976137
20
-3.54037467550786
30
0
41
1
10
36.4748671638365
20
-3.61428113245028
30
0
41
1
10
36.6048154520971
20
-3.98145989082231
30
0
41
1
10
36.7211682890466
20
-4.26768738615707
30
0
41
1
10
36.9789834615413
20
-4.82528148969333
30
0
41
1
10
37.1204457063311
20
-5.0966475055801
30
0
41
1
10
37.4295496696404
20
-5.62430007273379
30
0
41
1
10
37.597187377643
20
-5.88058803101513
30
0
41
1
10
37.8696820758117
20
-6.25324996003702
30
0
41
1
10
37.9643293268384
20
-6.37585738870711
30
0
41
1
10
38.1588769860006
20
-6.61452758406254
30
0
41
1
10
38.2588605376075
20
-6.73074970311121
30
0
41
1
10
38.5669235844323
20
-7.07023484942453
30
0
41
1
10
38.7830989107928
20
-7.28433534134875
30
0
41
1
10
39.2373602782848
20
-7.68846863768375
30
0
41
1
10
39.4754439620296
20
-7.87850291470173
30
0
41
1
10
39.8496534446677
20
-8.14532473339359
30
0
41
1
10
39.9772418268152
20
-8.2312221440937
30
0
41
1
10
40.2382931657115
20
-8.39683516484997
30
0
41
1
10
40.3720818892789
20
-8.47670899257703
30
0
41
1
10
40.7774794544148
20
-8.70412174578095
30
0
41
1
10
41.0544110608745
20
-8.8404024326415
30
0
41
1
10
41.6213647595418
20
-9.08357925317078
30
0
41
1
10
41.9113861992635
20
-9.19047558512649
30
0
41
1
10
42.3563453692188
20
-9.32897992342755
30
0
41
1
10
42.5063226728537
20
-9.37150018359183
30
0
41
1
10
42.809650857212
20
-9.44917809332303
30
0
41
1
10
42.9631786037605
20
-9.4843714415499
30
0
41
1
10
43.4278196304836
20
-9.57846847225415
30
0
41
1
10
43.7395449718935
20
-9.62527229836095
30
0
41
1
10
44.3668614440032
20
-9.68784141984934
30
0
41
1
10
44.6824524207299
20
-9.70360757656655
30
0
41
1
10
45.0000134763928
20
-9.70360757656655
30
0
0
INSERT
5
203
100
AcDbEntity
8
SK2
62
256
6
ByLayer
370
18
48
1
60
0
100
AcDbBlockReference
2
LABLE3D_1
10
0
20
0
30
0
41
1
42
1
43
1
50
0
210
0
220
0
230
1
0
LINE
5
70
100
AcDbEntity
8
1
62
256
6
ByLayer
370
18
48
1
60
0
100
AcDbLine
10
73.788601
20
9.495689
30
0
11
73.788601
21
9.218466
31
0
39
0
210
0
220
0
230
1
0
LINE
5
72
100
AcDbEntity
8
1
62
256
6
ByLayer
370
18
48
1
60
0
100
AcDbLine
10
45.781553
20
-18.788582
30
0
11
45.50433
21
-18.788582
31
0
39
0
210
0
220
0
230
1
0
LINE
5
73
100
AcDbEntity
8
1
62
256
6
ByLayer
370
18
48
1
60
0
100
AcDbLine
10
62.520069
20
-2.170183
30
0
11
61.034051
21
-3.656201
31
0
39
0
210
0
220
0
230
1
0
LINE
5
74
100
AcDbEntity
8
1
62
256
6
ByLayer
370
18
48
1
60
0
100
AcDbLine
10
58.65622
20
-6.034032
30
0
11
57.170202
21
-7.52005
31
0
39
0
210
0
220
0
230
1
0
LINE
5
75
100
AcDbEntity
8
1
62
256
6
ByLayer
370
18
48
1
60
0
100
AcDbLine
10
61.638362
20
-3.962698
30
0
11
58.962717
21
-6.638343
31
0
39
0
210
0
220
0
230
1
0
LINE
5
76
100
AcDbEntity
8
1
62
256
6
ByLayer
370
18
48
1
60
0
100
AcDbLine
10
65.766236
20
1.075984
30
0
11
65.300349
21
0.610097
31
0
39
0
210
0
220
0
230
1
0
LINE
5
77
100
AcDbEntity
8
1
62
256
6
ByLayer
370
18
48
1
60
0
100
AcDbLine
10
54.389922
20
-10.30033
30
0
11
53.924035
21
-10.766217
31
0
39
0
210
0
220
0
230
1
0
LINE
5
78
100
AcDbEntity
8
1
62
256
6
ByLayer
370
18
48
1
60
0
100
AcDbLine
10
65.698333
20
0.097274
30
0
11
63.533189
21
-2.067871
31
0
39
0
210
0
220
0
230
1
0
LINE
5
79
100
AcDbEntity
8
1
62
256
6
ByLayer
370
18
48
1
60
0
100
AcDbLine
10
57.06789
20
-8.53317
30
0
11
54.902746
21
-10.698314
31
0
39
0
210
0
220
0
230
1
0
LINE
5
7A
100
AcDbEntity
8
1
62
256
6
ByLayer
370
18
48
1
60
0
100
AcDbLine
10
67.637029
20
2.946776
30
0
11
67.318769
21
2.628517
31
0
39
0
210
0
220
0
230
1
0
LINE
5
7B
100
AcDbEntity
8
1
62
256
6
ByLayer
370
18
48
1
60
0
100
AcDbLine
10
52.371503
20
-12.31875
30
0
11
52.053243
21
-12.63701
31
0
39
0
210
0
220
0
230
1
0
LINE
5
7C
100
AcDbEntity
8
1
62
256
6
ByLayer
370
18
48
1
60
0
100
AcDbLine
10
67.664817
20
2.063758
30
0
11
66.391813
21
0.790753
31
0
39
0
210
0
220
0
230
1
0
LINE
5
7D
100
AcDbEntity
8
1
62
256
6
ByLayer
370
18
48
1
60
0
100
AcDbLine
10
54.209266
20
-11.391794
30
0
11
52.936262
21
-12.664798
31
0
39
0
210
0
220
0
230
1
0
LINE
5
7E
100
AcDbEntity
8
1
62
256
6
ByLayer
370
18
48
1
60
0
100
AcDbLine
10
69.016709
20
4.326457
30
0
11
68.772679
21
4.082427
31
0
39
0
210
0
220
0
230
1
0
LINE
5
7F
100
AcDbEntity
8
1
62
256
6
ByLayer
370
18
48
1
60
0
100
AcDbLine
10
50.917592
20
-13.77266
30
0
11
50.673562
21
-14.01669
31
0
39
0
210
0
220
0
230
1
0
LINE
5
80
100
AcDbEntity
8
1
62
256
6
ByLayer
370
18
48
1
60
0
100
AcDbLine
10
69.080004
20
3.478944
30
0
11
68.143192
21
2.542132
31
0
39
0
210
0
220
0
230
1
0
LINE
5
81
100
AcDbEntity
8
1
62
256
6
ByLayer
370
18
48
1
60
0
100
AcDbLine
10
52.457887
20
-13.143173
30
0
11
51.521075
21
-14.079985
31
0
39
0
210
0
220
0
230
1
0
LINE
5
82
100
AcDbEntity
8
1
62
256
6
ByLayer
370
18
48
1
60
0
100
AcDbLine
10
51.153912
20
-14.447148
30
0
11
50.417452
21
-15.183607
31
0
39
0
210
0
220
0
230
1
0
LINE
5
83
100
AcDbEntity
8
1
62
256
6
ByLayer
370
18
48
1
60
0
100
AcDbLine
10
70.183626
20
4.582567
30
0
11
69.447167
21
3.846107
31
0
39
0
210
0
220
0
230
1
0
LINE
5
84
100
AcDbEntity
8
1
62
256
6
ByLayer
370
18
48
1
60
0
100
AcDbLine
10
70.105346
20
5.415094
30
0
11
69.90977
21
5.219518
31
0
39
0
210
0
220
0
230
1
0
LINE
5
85
100
AcDbEntity
8
1
62
256
6
ByLayer
370
18
48
1
60
0
100
AcDbLine
10
49.780501
20
-14.909751
30
0
11
49.584925
21
-15.105327
31
0
39
0
210
0
220
0
230
1
0
LINE
5
86
100
AcDbEntity
8
1
62
256
6
ByLayer
370
18
48
1
60
0
100
AcDbLine
10
48.861389
20
-15.828864
30
0
11
48.701703
21
-15.988549
31
0
39
0
210
0
220
0
230
1
0
LINE
5
87
100
AcDbEntity
8
1
62
256
6
ByLayer
370
18
48
1
60
0
100
AcDbLine
10
70.988568
20
6.298316
30
0
11
70.828883
21
6.138631
31
0
39
0
210
0
220
0
230
1
0
LINE
5
88
100
AcDbEntity
8
1
62
256
6
ByLayer
370
18
48
1
60
0
100
AcDbLine
10
71.071882
20
5.470822
30
0
11
70.477198
21
4.876138
31
0
39
0
210
0
220
0
230
1
0
LINE
5
89
100
AcDbEntity
8
1
62
256
6
ByLayer
370
18
48
1
60
0
100
AcDbLine
10
50.123881
20
-15.477179
30
0
11
49.529197
21
-16.071863
31
0
39
0
210
0
220
0
230
1
0
LINE
5
8A
100
AcDbEntity
8
1
62
256
6
ByLayer
370
18
48
1
60
0
100
AcDbLine
10
71.712328
20
7.022075
30
0
11
71.581342
21
6.89109
31
0
39
0
210
0
220
0
230
1
0
LINE
5
8B
100
AcDbEntity
8
1
62
256
6
ByLayer
370
18
48
1
60
0
100
AcDbLine
10
48.108929
20
-16.581323
30
0
11
47.977944
21
-16.712309
31
0
39
0
210
0
220
0
230
1
0
LINE
5
8C
100
AcDbEntity
8
1
62
256
6
ByLayer
370
18
48
1
60
0
100
AcDbLine
10
49.290636
20
-16.310424
30
0
11
48.80627
21
-16.79479
31
0
39
0
210
0
220
0
230
1
0
LINE
5
8D
100
AcDbEntity
8
1
62
256
6
ByLayer
370
18
48
1
60
0
100
AcDbLine
10
71.794809
20
6.193749
30
0
11
71.310443
21
5.709383
31
0
39
0
210
0
220
0
230
1
0
LINE
5
8E
100
AcDbEntity
8
1
62
256
6
ByLayer
370
18
48
1
60
0
100
AcDbLine
10
49.47468
20
-16.232446
30
0
11
48.865381
21
-16.841745
31
0
39
0
210
0
220
0
230
1
0
LINE
5
8F
100
AcDbEntity
8
1
62
256
6
ByLayer
370
18
48
1
60
0
100
AcDbLine
10
71.841764
20
6.134638
30
0
11
71.232465
21
5.525339
31
0
39
0
210
0
220
0
230
1
0
LINE
5
90
100
AcDbEntity
8
1
62
256
6
ByLayer
370
18
48
1
60
0
100
AcDbLine
10
47.492631
20
-17.197621
30
0
11
47.385825
21
-17.304427
31
0
39
0
210
0
220
0
230
1
0
LINE
5
91
100
AcDbEntity
8
1
62
256
6
ByLayer
370
18
48
1
60
0
100
AcDbLine
10
72.304446
20
7.614194
30
0
11
72.197641
21
7.507388
31
0
39
0
210
0
220
0
230
1
0
LINE
5
92
100
AcDbEntity
8
1
62
256
6
ByLayer
370
18
48
1
60
0
100
AcDbLine
10
72.382122
20
6.781062
30
0
11
71.989062
21
6.388002
31
0
39
0
210
0
220
0
230
1
0
LINE
5
93
100
AcDbEntity
8
1
62
256
6
ByLayer
370
18
48
1
60
0
100
AcDbLine
10
48.612017
20
-16.989043
30
0
11
48.218957
21
-17.382103
31
0
39
0
210
0
220
0
230
1
0
LINE
5
94
100
AcDbEntity
8
1
62
256
6
ByLayer
370
18
48
1
60
0
100
AcDbLine
10
48.779949
20
-16.927176
30
0
11
48.285843
21
-17.421283
31
0
39
0
210
0
220
0
230
1
0
LINE
5
95
100
AcDbEntity
8
1
62
256
6
ByLayer
370
18
48
1
60
0
100
AcDbLine
10
72.421302
20
6.714176
30
0
11
71.927195
21
6.22007
31
0
39
0
210
0
220
0
230
1
0
LINE
5
96
100
AcDbEntity
8
1
62
256
6
ByLayer
370
18
48
1
60
0
100
AcDbLine
10
46.99289
20
-17.697362
30
0
11
46.907262
21
-17.78299
31
0
39
0
210
0
220
0
230
1
0
LINE
5
97
100
AcDbEntity
8
1
62
256
6
ByLayer
370
18
48
1
60
0
100
AcDbLine
10
72.783009
20
8.092757
30
0
11
72.697381
21
8.007129
31
0
39
0
210
0
220
0
230
1
0
LINE
5
98
100
AcDbEntity
8
1
62
256
6
ByLayer
370
18
48
1
60
0
100
AcDbLine
10
72.852872
20
7.251812
30
0
11
72.538805
21
6.937745
31
0
39
0
210
0
220
0
230
1
0
LINE
5
99
100
AcDbEntity
8
1
62
256
6
ByLayer
370
18
48
1
60
0
100
AcDbLine
10
48.062274
20
-17.538786
30
0
11
47.748207
21
-17.852853
31
0
39
0
210
0
220
0
230
1
0
LINE
5
9A
100
AcDbEntity
8
1
62
256
6
ByLayer
370
18
48
1
60
0
100
AcDbLine
10
72.884799
20
7.177674
30
0
11
72.490178
21
6.783052
31
0
39
0
210
0
220
0
230
1
0
LINE
5
9B
100
AcDbEntity
8
1
62
256
6
ByLayer
370
18
48
1
60
0
100
AcDbLine
10
48.216967
20
-17.490159
30
0
11
47.822345
21
-17.88478
31
0
39
0
210
0
220
0
230
1
0
LINE
5
9C
100
AcDbEntity
8
1
62
256
6
ByLayer
370
18
48
1
60
0
100
AcDbLine
10
73.160268
20
8.470015
30
0
11
73.09376
21
8.403508
31
0
39
0
210
0
220
0
230
1
0
LINE
5
9D
100
AcDbEntity
8
1
62
256
6
ByLayer
370
18
48
1
60
0
100
AcDbLine
10
46.596511
20
-18.093741
30
0
11
46.530004
21
-18.160249
31
0
39
0
210
0
220
0
230
1
0
LINE
5
9E
100
AcDbEntity
8
1
62
256
6
ByLayer
370
18
48
1
60
0
100
AcDbLine
10
47.624628
20
-17.976432
30
0
11
47.381272
21
-18.219787
31
0
39
0
210
0
220
0
230
1
0
LINE
5
9F
100
AcDbEntity
8
1
62
256
6
ByLayer
370
18
48
1
60
0
100
AcDbLine
10
73.219806
20
7.618747
30
0
11
72.976451
21
7.375391
31
0
39
0
210
0
220
0
230
1
0
LINE
5
A0
100
AcDbEntity
8
1
62
256
6
ByLayer
370
18
48
1
60
0
100
AcDbLine
10
47.768039
20
-17.939086
30
0
11
47.462366
21
-18.24476
31
0
39
0
210
0
220
0
230
1
0
LINE
5
A1
100
AcDbEntity
8
1
62
256
6
ByLayer
370
18
48
1
60
0
100
AcDbLine
10
73.244779
20
7.537653
30
0
11
72.939105
21
7.23198
31
0
39
0
210
0
220
0
230
1
0
LINE
5
A2
100
AcDbEntity
8
1
62
256
6
ByLayer
370
18
48
1
60
0
100
AcDbLine
10
73.444654
20
8.754402
30
0
11
73.395851
21
8.705599
31
0
39
0
210
0
220
0
230
1
0
LINE
5
A3
100
AcDbEntity
8
1
62
256
6
ByLayer
370
18
48
1
60
0
100
AcDbLine
10
46.29442
20
-18.395832
30
0
11
46.245617
21
-18.444635
31
0
39
0
210
0
220
0
230
1
0
LINE
5
A4
100
AcDbEntity
8
1
62
256
6
ByLayer
370
18
48
1
60
0
100
AcDbLine
10
47.287764
20
-18.313296
30
0
11
47.109487
21
-18.491573
31
0
39
0
210
0
220
0
230
1
0
LINE
5
A5
100
AcDbEntity
8
1
62
256
6
ByLayer
370
18
48
1
60
0
100
AcDbLine
10
73.491592
20
7.890532
30
0
11
73.313315
21
7.712255
31
0
39
0
210
0
220
0
230
1
0
LINE
5
A6
100
AcDbEntity
8
1
62
256
6
ByLayer
370
18
48
1
60
0
100
AcDbLine
10
47.421284
20
-18.285842
30
0
11
47.197404
21
-18.509722
31
0
39
0
210
0
220
0
230
1
0
LINE
5
A7
100
AcDbEntity
8
1
62
256
6
ByLayer
370
18
48
1
60
0
100
AcDbLine
10
73.509741
20
7.802615
30
0
11
73.285861
21
7.578735
31
0
39
0
210
0
220
0
230
1
0
LINE
5
A8
100
AcDbEntity
8
1
62
256
6
ByLayer
370
18
48
1
60
0
100
AcDbLine
10
46.080408
20
-18.609844
30
0
11
46.048358
21
-18.641894
31
0
39
0
210
0
220
0
230
1
0
LINE
5
A9
100
AcDbEntity
8
1
62
256
6
ByLayer
370
18
48
1
60
0
100
AcDbLine
10
73.641913
20
8.951661
30
0
11
73.609863
21
8.919611
31
0
39
0
210
0
220
0
230
1
0
LINE
5
AA
100
AcDbEntity
8
1
62
256
6
ByLayer
370
18
48
1
60
0
100
AcDbLine
10
47.043997
20
-18.557063
30
0
11
46.927048
21
-18.674012
31
0
39
0
210
0
220
0
230
1
0
LINE
5
AB
100
AcDbEntity
8
1
62
256
6
ByLayer
370
18
48
1
60
0
100
AcDbLine
10
73.674031
20
8.072971
30
0
11
73.557082
21
7.956022
31
0
39
0
210
0
220
0
230
1
0
LINE
5
AC
100
AcDbEntity
8
1
62
256
6
ByLayer
370
18
48
1
60
0
100
AcDbLine
10
47.168637
20
-18.538489
30
0
11
47.021794
21
-18.685332
31
0
39
0
210
0
220
0
230
1
0
LINE
5
AD
100
AcDbEntity
8
1
62
256
6
ByLayer
370
18
48
1
60
0
100
AcDbLine
10
73.685351
20
7.978225
30
0
11
73.538508
21
7.831382
31
0
39
0
210
0
220
0
230
1
0
LINE
5
AE
100
AcDbEntity
8
1
62
256
6
ByLayer
370
18
48
1
60
0
100
AcDbLine
10
45.950404
20
-18.739848
30
0
11
45.93452
21
-18.755732
31
0
39
0
210
0
220
0
230
1
0
LINE
5
AF
100
AcDbEntity
8
1
62
256
6
ByLayer
370
18
48
1
60
0
100
AcDbLine
10
73.755751
20
9.065499
30
0
11
73.739867
21
9.049615
31
0
39
0
210
0
220
0
230
1
0
LINE
5
B0
100
AcDbEntity
8
1
62
256
6
ByLayer
370
18
48
1
60
0
100
AcDbLine
10
46.88825
20
-18.71281
30
0
11
46.830324
21
-18.770735
31
0
39
0
210
0
220
0
230
1
0
LINE
5
B1
100
AcDbEntity
8
1
62
256
6
ByLayer
370
18
48
1
60
0
100
AcDbLine
10
73.770754
20
8.169695
30
0
11
73.712829
21
8.111769
31
0
39
0
210
0
220
0
230
1
0
LINE
5
B2
100
AcDbEntity
8
1
62
256
6
ByLayer
370
18
48
1
60
0
100
AcDbLine
10
73.775117
20
8.067992
30
0
11
73.702392
21
7.995266
31
0
39
0
210
0
220
0
230
1
0
LINE
5
B3
100
AcDbEntity
8
1
62
256
6
ByLayer
370
18
48
1
60
0
100
AcDbLine
10
47.004753
20
-18.702373
30
0
11
46.932028
21
-18.775098
31
0
39
0
210
0
220
0
230
1
0
LINE
5
B4
100
AcDbEntity
8
1
62
256
6
ByLayer
370
18
48
1
60
0
100
AcDbLine
10
45.50433
20
-18.788582
30
0
11
73.788601
21
9.495689
31
0
39
0
210
0
220
0
230
1
0
LINE
5
B5
100
AcDbEntity
8
1
62
256
6
ByLayer
370
18
48
1
60
0
100
AcDbLine
10
71.7203
20
-9.084235
30
0
11
78.084262
21
-2.720274
31
0
39
0
210
0
220
0
230
1
0
LINE
5
B6
100
AcDbEntity
8
1
62
256
6
ByLayer
370
18
48
1
60
0
100
AcDbLine
10
71.013194
20
-9.084235
30
0
11
78.084262
21
-2.013167
31
0
39
0
210
0
220
0
230
1
0
LINE
5
B7
100
AcDbEntity
8
1
62
256
6
ByLayer
370
18
48
1
60
0
100
AcDbLine
10
57.013187
20
-23.084242
30
0
11
64.084254
21
-16.013175
31
0
39
0
210
0
220
0
230
1
0
LINE
5
B8
100
AcDbEntity
8
1
62
256
6
ByLayer
370
18
48
1
60
0
100
AcDbLine
10
67.124106
20
-5.195148
30
0
11
74.195174
21
1.87592
31
0
39
0
210
0
220
0
230
1
0
LINE
5
B9
100
AcDbEntity
8
1
62
256
6
ByLayer
370
18
48
1
60
0
100
AcDbLine
10
53.124099
20
-19.195155
30
0
11
60.195167
21
-12.124087
31
0
39
0
210
0
220
0
230
1
0
LINE
5
BA
100
AcDbEntity
8
1
62
256
6
ByLayer
370
18
48
1
60
0
100
AcDbLine
10
57.720293
20
-23.084242
30
0
11
64.084254
21
-16.720281
31
0
39
0
210
0
220
0
230
1
0
LINE
5
BB
100
AcDbEntity
8
1
62
256
6
ByLayer
370
18
48
1
60
0
100
AcDbLine
10
49.579669
20
-16.127456
30
0
11
71.127476
21
5.42035
31
0
39
0
210
0
220
0
230
1
0
LINE
5
BC
100
AcDbEntity
8
1
62
256
6
ByLayer
370
18
48
1
60
0
100
AcDbLine
10
57.013187
20
-23.084242
30
0
11
57.720293
21
-23.084242
31
0
39
0
210
0
220
0
230
1
0
LINE
5
BD
100
AcDbEntity
8
1
62
256
6
ByLayer
370
18
48
1
60
0
100
AcDbLine
10
71.013194
20
-9.084235
30
0
11
71.7203
21
-9.084235
31
0
39
0
210
0
220
0
230
1
0
LINE
5
BE
100
AcDbEntity
8
1
62
256
6
ByLayer
370
18
48
1
60
0
100
AcDbLine
10
51.232249
20
-14.474877
30
0
11
54.538313
21
-17.780942
31
0
39
0
210
0
220
0
230
1
0
LINE
5
BF
100
AcDbEntity
8
1
62
256
6
ByLayer
370
18
48
1
60
0
100
AcDbLine
10
53.124099
20
-19.195155
30
0
11
57.013187
21
-23.084242
31
0
39
0
210
0
220
0
230
1
0
LINE
5
C0
100
AcDbEntity
8
1
62
256
6
ByLayer
370
18
48
1
60
0
100
AcDbLine
10
60.195167
20
-12.124087
30
0
11
64.084254
21
-16.013175
31
0
39
0
210
0
220
0
230
1
0
LINE
5
C1
100
AcDbEntity
8
1
62
256
6
ByLayer
370
18
48
1
60
0
100
AcDbLine
10
69.474896
20
3.767771
30
0
11
72.780961
21
0.461706
31
0
39
0
210
0
220
0
230
1
0
LINE
5
C2
100
AcDbEntity
8
1
62
256
6
ByLayer
370
18
48
1
60
0
100
AcDbLine
10
65.232256
20
-0.47487
30
0
11
68.53832
21
-3.780934
31
0
39
0
210
0
220
0
230
1
0
LINE
5
C3
100
AcDbEntity
8
1
62
256
6
ByLayer
370
18
48
1
60
0
100
AcDbLine
10
67.124106
20
-5.195148
30
0
11
71.013194
21
-9.084235
31
0
39
0
210
0
220
0
230
1
0
LINE
5
C4
100
AcDbEntity
8
1
62
256
6
ByLayer
370
18
48
1
60
0
100
AcDbLine
10
74.195174
20
1.87592
30
0
11
78.084262
21
-2.013167
31
0
39
0
210
0
220
0
230
1
0
LINE
5
C5
100
AcDbEntity
8
1
62
256
6
ByLayer
370
18
48
1
60
0
100
AcDbLine
10
55.474889
20
-10.232237
30
0
11
58.780953
21
-13.538301
31
0
39
0
210
0
220
0
230
1
0
LINE
5
C6
100
AcDbEntity
8
1
62
256
6
ByLayer
370
18
48
1
60
0
100
AcDbLine
10
64.084254
20
-16.013175
30
0
11
64.084254
21
-16.720281
31
0
39
0
210
0
220
0
230
1
0
LINE
5
C7
100
AcDbEntity
8
1
62
256
6
ByLayer
370
18
48
1
60
0
100
AcDbLine
10
78.084262
20
-2.013167
30
0
11
78.084262
21
-2.720274
31
0
39
0
210
0
220
0
230
1
0
LINE
5
C8
100
AcDbEntity
8
1
62
256
6
ByLayer
370
18
48
1
60
0
100
AcDbLine
10
49.226116
20
-15.773903
30
0
11
70.773922
21
5.773903
31
0
39
0
210
0
220
0
230
1
0
LINE
5
C9
100
AcDbEntity
8
81
62
256
6
ByLayer
370
18
48
1
60
0
100
AcDbLine
10
60.000019
20
-5
30
0
11
63.535553
21
-8.535534
31
0
39
0
210
0
220
0
230
1
0
LINE
5
CA
100
AcDbEntity
8
4
62
256
6
ByLayer
370
13
48
0.05
60
1
100
AcDbLine
10
0
20
0
30
0
11
77.824519
21
0
31
0
39
0
210
0
220
0
230
1
0
LINE
5
CC
100
AcDbEntity
8
SK4
62
256
6
ByLayer
370
13
48
0.05
60
1
100
AcDbLine
10
80.714379
20
0
30
0
11
-64.400434
21
0
31
0
39
0
210
0
220
0
230
1
0
LINE
5
CE
100
AcDbEntity
8
SK4
62
256
6
ByLayer
370
13
48
0.05
60
1
100
AcDbLine
10
64.471422
20
-100
30
0
11
-50.689899
21
-100
31
0
39
0
210
0
220
0
230
1
0
LINE
5
CF
100
AcDbEntity
8
4
62
256
6
ByLayer
370
13
48
0.05
60
1
100
AcDbLine
10
0
20
-100
30
0
11
61.824519
21
-100
31
0
39
0
210
0
220
0
230
1
0
LINE
5
D0
100
AcDbEntity
8
1
62
256
6
ByLayer
370
18
48
0.05
60
1
100
AcDbLine
10
42.000888
20
-36.75
30
0
11
42.000888
21
26.25
31
0
39
0
210
0
220
0
230
1
0
LINE
5
D1
100
AcDbEntity
8
1
62
256
6
ByLayer
370
18
48
0.05
60
1
100
AcDbLine
10
48.222152
20
-167
30
0
11
57.5
21
-167
31
0
39
0
210
0
220
0
230
1
0
LINE
5
D2
100
AcDbEntity
8
1
62
256
6
ByLayer
370
18
48
0.05
60
1
100
AcDbLine
10
43.159999
20
-227.139417
30
0
11
46.538995
21
-239.75
31
0
39
0
210
0
220
0
230
1
0
LINE
5
D3
100
AcDbEntity
8
1
62
256
6
ByLayer
370
18
48
0.05
60
1
100
AcDbLine
10
46.538154
20
-160.25
30
0
11
43.159159
21
-172.860583
31
0
39
0
210
0
220
0
230
1
0
LINE
5
D4
100
AcDbEntity
8
1
62
256
6
ByLayer
370
18
48
0.05
60
1
100
AcDbLine
10
46.537314
20
-155
30
0
11
65
21
-155
31
0
39
0
210
0
220
0
230
1
0
LINE
5
D5
100
AcDbEntity
8
1
62
256
6
ByLayer
370
18
48
0.05
60
1
100
AcDbLine
10
57.533923
20
-233
30
0
11
48.256075
21
-233
31
0
39
0
210
0
220
0
230
1
0
LINE
5
D6
100
AcDbEntity
8
1
62
256
6
ByLayer
370
18
48
0.05
60
1
100
AcDbLine
10
46.537971
20
-245
30
0
11
49.216806
21
-245
31
0
39
0
210
0
220
0
230
1
0
LINE
5
D7
100
AcDbEntity
8
1
62
256
6
ByLayer
370
18
48
0.05
60
1
100
AcDbLine
10
43.159159
20
-172.860583
30
0
11
43.159159
21
-237.639417
31
0
39
0
210
0
220
0
230
1
0
LINE
5
D8
100
AcDbEntity
8
1
62
256
6
ByLayer
370
18
48
0.05
60
1
100
AcDbLine
10
47.631403
20
-245
30
0
11
56
21
-245
31
0
39
0
210
0
220
0
230
1
0
LINE
5
D9
100
AcDbEntity
8
SK4
62
256
6
ByLayer
370
13
48
0.05
60
1
100
AcDbLine
10
-40
20
-200
30
0
11
72.854768
21
-200
31
0
39
0
210
0
220
0
230
1
0
LINE
5
DA
100
AcDbEntity
8
4
62
256
6
ByLayer
370
13
48
0.05
60
1
100
AcDbLine
10
3.033923
20
-200
30
0
11
48.033923
21
-200
31
0
39
0
210
0
220
0
230
1
0
LINE
5
DB
100
AcDbEntity
8
SK3
62
256
6
ByLayer
370
13
48
0.05
60
0
100
AcDbLine
10
5.000013
20
-26.5
30
0
11
26.000013
21
-26.5
31
0
39
0
210
0
220
0
230
1
0
LINE
5
DD
100
AcDbEntity
8
SK3
62
256
6
ByLayer
370
13
48
0.05
60
0
100
AcDbLine
10
5.000013
20
26.5
30
0
11
26.000013
21
26.5
31
0
39
0
210
0
220
0
230
1
0
LINE
5
DE
100
AcDbEntity
8
1
62
256
6
ByLayer
370
18
48
1
60
0
100
AcDbLine
10
1.3E-05
20
-31
30
0
11
1.3E-05
21
31
31
0
39
0
210
0
220
0
230
1
0
LINE
5
DF
100
AcDbEntity
8
1
62
256
6
ByLayer
370
18
48
1
60
0
100
AcDbLine
10
26.000013
20
-31
30
0
11
26.000013
21
0
31
0
39
0
210
0
220
0
230
1
0
LINE
5
E0
100
AcDbEntity
8
SK1
62
256
6
ByLayer
370
18
48
1
60
0
100
AcDbLine
10
-0.495072
20
24.015
30
0
11
-1.253571
21
24.015
31
0
39
0
210
0
220
0
230
1
0
LINE
5
E2
100
AcDbEntity
8
SK1
62
256
6
ByLayer
370
18
48
1
60
0
100
AcDbLine
10
-1.253571
20
24.015
30
0
11
-1.999981
21
24.215
31
0
39
0
210
0
220
0
230
1
0
LINE
5
E3
100
AcDbEntity
8
SK1
62
256
6
ByLayer
370
18
48
1
60
0
100
AcDbLine
10
-31.999987
20
-21.573501
30
0
11
-31.999987
21
0
31
0
39
0
210
0
220
0
230
1
0
LINE
5
E4
100
AcDbEntity
8
SK1
62
256
6
ByLayer
370
18
48
1
60
0
100
AcDbLine
10
-1.999981
20
-24.215
30
0
11
-1.999981
21
24.215
31
0
39
0
210
0
220
0
230
1
0
LINE
5
E5
100
AcDbEntity
8
SK1
62
256
6
ByLayer
370
13
48
0.05
60
0
100
AcDbLine
10
-6.299987
20
-25.90625
30
0
11
-6.299987
21
25.385071
31
0
39
0
210
0
220
0
230
1
0
LINE
5
E6
100
AcDbEntity
8
SK1
62
256
6
ByLayer
370
18
48
1
60
0
100
AcDbLine
10
-1.999981
20
24.215
30
0
11
-6.299987
21
24
31
0
39
0
210
0
220
0
230
1
0
LINE
5
E7
100
AcDbEntity
8
SK1
62
256
6
ByLayer
370
18
48
1
60
0
100
AcDbLine
10
-0.495072
20
-24.015
30
0
11
-1.253571
21
-24.015
31
0
39
0
210
0
220
0
230
1
0
LINE
5
E8
100
AcDbEntity
8
SK1
62
256
6
ByLayer
370
18
48
1
60
0
100
AcDbLine
10
-1.253571
20
-24.015
30
0
11
-1.999981
21
-24.215
31
0
39
0
210
0
220
0
230
1
0
LINE
5
E9
100
AcDbEntity
8
SK1
62
256
6
ByLayer
370
18
48
1
60
0
100
AcDbLine
10
-1.999981
20
-24.215
30
0
11
-6.299987
21
-24
31
0
39
0
210
0
220
0
230
1
0
LINE
5
EA
100
AcDbEntity
8
SK1
62
256
6
ByLayer
370
18
48
1
60
0
100
AcDbLine
10
-6.299987
20
24
30
0
11
-30.859912
21
22.772004
31
0
39
0
210
0
220
0
230
1
0
LINE
5
EB
100
AcDbEntity
8
SK1
62
256
6
ByLayer
370
18
48
1
60
0
100
AcDbLine
10
-6.299987
20
-24
30
0
11
-30.859912
21
-22.772004
31
0
39
0
210
0
220
0
230
1
0
LINE
5
EC
100
AcDbEntity
8
1
62
256
6
ByLayer
370
18
48
1
60
0
100
AcDbLine
10
0.500013
20
31.5
30
0
11
14.625401
21
31.5
31
0
39
0
210
0
220
0
230
1
0
LINE
5
ED
100
AcDbEntity
8
1
62
256
6
ByLayer
370
18
48
1
60
0
100
AcDbLine
10
14.622514
20
-31.5
30
0
11
0.500013
21
-31.5
31
0
39
0
210
0
220
0
230
1
0
LINE
5
EE
100
AcDbEntity
8
1
62
256
6
ByLayer
370
18
48
1
60
0
100
AcDbLine
10
14.608081
20
-31.5
30
0
11
14.377513
21
-31.5
31
0
39
0
210
0
220
0
230
1
0
LINE
5
EF
100
AcDbEntity
8
1
62
256
6
ByLayer
370
18
48
1
60
0
100
AcDbLine
10
25.500013
20
31.5
30
0
11
21.374626
21
31.5
31
0
39
0
210
0
220
0
230
1
0
LINE
5
F0
100
AcDbEntity
8
SK1
62
256
6
ByLayer
370
18
48
1
60
0
100
AcDbLine
10
-31.999987
20
21.573501
30
0
11
-31.999987
21
0
31
0
39
0
210
0
220
0
230
1
0
LINE
5
F1
100
AcDbEntity
8
1
62
256
6
ByLayer
370
18
48
1
60
0
100
AcDbLine
10
14.625401
20
31.47
30
0
11
16.085013
21
28.941877
31
0
39
0
210
0
220
0
230
1
0
LINE
5
F2
100
AcDbEntity
8
1
62
256
6
ByLayer
370
18
48
1
60
0
100
AcDbLine
10
16.085013
20
28.941877
30
0
11
16.085013
21
0
31
0
39
0
210
0
220
0
230
1
0
LINE
5
F3
100
AcDbEntity
8
1
62
256
6
ByLayer
370
18
48
1
60
0
100
AcDbLine
10
16.485013
20
27.475
30
0
11
19.515013
21
27.475
31
0
39
0
210
0
220
0
230
1
0
LINE
5
F4
100
AcDbEntity
8
1
62
256
6
ByLayer
370
18
48
1
60
0
100
AcDbLine
10
19.915013
20
0
30
0
11
19.915013
21
28.941877
31
0
39
0
210
0
220
0
230
1
0
LINE
5
F5
100
AcDbEntity
8
1
62
256
6
ByLayer
370
18
48
1
60
0
100
AcDbLine
10
19.915013
20
28.941877
30
0
11
21.374626
21
31.47
31
0
39
0
210
0
220
0
230
1
0
LINE
5
F6
100
AcDbEntity
8
1
62
256
6
ByLayer
370
18
48
1
60
0
100
AcDbLine
10
21.374626
20
31.5
30
0
11
21.374626
21
24.420041
31
0
39
0
210
0
220
0
230
1
0
LINE
5
F7
100
AcDbEntity
8
1
62
256
6
ByLayer
370
18
48
1
60
0
100
AcDbLine
10
14.625401
20
31.5
30
0
11
14.625401
21
24.420041
31
0
39
0
210
0
220
0
230
1
0
LINE
5
F8
100
AcDbEntity
8
1
62
256
6
ByLayer
370
18
48
1
60
0
100
AcDbLine
10
25.350013
20
24.420041
30
0
11
25.850013
21
23.920041
31
0
39
0
210
0
220
0
230
1
0
LINE
5
F9
100
AcDbEntity
8
1
62
256
6
ByLayer
370
18
48
1
60
0
100
AcDbLine
10
0.500013
20
31.5
30
0
11
1.3E-05
21
31
31
0
39
0
210
0
220
0
230
1
0
LINE
5
FA
100
AcDbEntity
8
1
62
256
6
ByLayer
370
18
48
1
60
0
100
AcDbLine
10
25.500013
20
31.5
30
0
11
26.000013
21
31
31
0
39
0
210
0
220
0
230
1
0
LINE
5
FB
100
AcDbEntity
8
1
62
256
6
ByLayer
370
18
48
1
60
0
100
AcDbLine
10
0.500013
20
-31.5
30
0
11
1.3E-05
21
-31
31
0
39
0
210
0
220
0
230
1
0
LINE
5
FC
100
AcDbEntity
8
1
62
256
6
ByLayer
370
18
48
1
60
0
100
AcDbLine
10
21.374626
20
-31.47
30
0
11
21.374626
21
19.85
31
0
39
0
210
0
220
0
230
1
0
LINE
5
FD
100
AcDbEntity
8
1
62
256
6
ByLayer
370
18
48
1
60
0
100
AcDbLine
10
19.915013
20
0
30
0
11
19.915013
21
-28.941877
31
0
39
0
210
0
220
0
230
1
0
LINE
5
FE
100
AcDbEntity
8
1
62
256
6
ByLayer
370
18
48
1
60
0
100
AcDbLine
10
16.085013
20
-28.941877
30
0
11
16.085013
21
0
31
0
39
0
210
0
220
0
230
1
0
LINE
5
FF
100
AcDbEntity
8
1
62
256
6
ByLayer
370
18
48
1
60
0
100
AcDbLine
10
14.625401
20
-31.47
30
0
11
14.625401
21
19.85
31
0
39
0
210
0
220
0
230
1
0
LINE
5
100
100
AcDbEntity
8
1
62
256
6
ByLayer
370
18
48
1
60
0
100
AcDbLine
10
19.915013
20
-28.941877
30
0
11
21.374626
21
-31.47
31
0
39
0
210
0
220
0
230
1
0
LINE
5
101
100
AcDbEntity
8
1
62
256
6
ByLayer
370
18
48
1
60
0
100
AcDbLine
10
16.485013
20
-27.475
30
0
11
19.515013
21
-27.475
31
0
39
0
210
0
220
0
230
1
0
LINE
5
102
100
AcDbEntity
8
1
62
256
6
ByLayer
370
18
48
1
60
0
100
AcDbLine
10
14.625401
20
-31.47
30
0
11
16.085013
21
-28.941877
31
0
39
0
210
0
220
0
230
1
0
LINE
5
103
100
AcDbEntity
8
SK1
62
256
6
ByLayer
370
13
48
1
60
0
100
AcDbLine
10
-1.253571
20
-24.015
30
0
11
-1.253571
21
24.015
31
0
39
0
210
0
220
0
230
1
0
LINE
5
104
100
AcDbEntity
8
1
62
256
6
ByLayer
370
18
48
1
60
0
100
AcDbLine
10
25.500013
20
-31.5
30
0
11
26.000013
21
-31
31
0
39
0
210
0
220
0
230
1
0
LINE
5
105
100
AcDbEntity
8
1
62
256
6
ByLayer
370
18
48
1
60
0
100
AcDbLine
10
25.500013
20
-31.5
30
0
11
21.374626
21
-31.5
31
0
39
0
210
0
220
0
230
1
0
LINE
5
106
100
AcDbEntity
8
1
62
256
6
ByLayer
370
18
48
1
60
0
100
AcDbLine
10
26.000013
20
0
30
0
11
26.000013
21
31
31
0
39
0
210
0
220
0
230
1
0
LINE
5
107
100
AcDbEntity
8
SK3
62
256
6
ByLayer
370
13
48
0.05
60
0
100
AcDbLine
10
5.000013
20
-31.5
30
0
11
5.000013
21
-26.5
31
0
39
0
210
0
220
0
230
1
0
LINE
5
108
100
AcDbEntity
8
SK3
62
256
6
ByLayer
370
13
48
0.05
60
0
100
AcDbLine
10
5.000013
20
31.5
30
0
11
5.000013
21
26.5
31
0
39
0
210
0
220
0
230
1
0
LINE
5
109
100
AcDbEntity
8
1
62
256
6
ByLayer
370
18
48
1
60
0
100
AcDbLine
10
12.177418
20
19.85
30
0
11
16.085013
21
19.85
31
0
39
0
210
0
220
0
230
1
0
LINE
5
10A
100
AcDbEntity
8
1
62
256
6
ByLayer
370
18
48
1
60
0
100
AcDbLine
10
4.950013
20
24.420041
30
0
11
14.625401
21
24.420041
31
0
39
0
210
0
220
0
230
1
0
LINE
5
10B
100
AcDbEntity
8
1
62
256
6
ByLayer
370
18
48
1
60
0
100
AcDbLine
10
25.950013
20
19.85
30
0
11
19.915013
21
19.85
31
0
39
0
210
0
220
0
230
1
0
LINE
5
10C
100
AcDbEntity
8
1
62
256
6
ByLayer
370
18
48
1
60
0
100
AcDbLine
10
25.350013
20
24.420041
30
0
11
21.374626
21
24.420041
31
0
39
0
210
0
220
0
230
1
0
LINE
5
10D
100
AcDbEntity
8
80
62
256
6
ByLayer
370
13
48
1
60
0
100
AcDbLine
10
0
20
0
30
0
11
-8.091354
21
0
31
0
39
0
210
0
220
0
230
1
0
LINE
5
10E
100
AcDbEntity
8
1
62
256
6
ByLayer
370
18
48
0.05
60
1
100
AcDbLine
10
27.000013
20
26.25
30
0
11
42.250013
21
26.25
31
0
39
0
210
0
220
0
230
1
0
LINE
5
10F
100
AcDbEntity
8
1
62
256
6
ByLayer
370
18
48
0.05
60
1
100
AcDbLine
10
27.000013
20
-126.25
30
0
11
42.250013
21
-126.25
31
0
39
0
210
0
220
0
230
1
0
LINE
5
110
100
AcDbEntity
8
1
62
256
6
ByLayer
370
18
48
0.05
60
1
100
AcDbLine
10
35.189416
20
-26.25
30
0
11
26.476783
21
-26.25
31
0
39
0
210
0
220
0
230
1
0
LINE
5
111
100
AcDbEntity
8
1
62
256
6
ByLayer
370
18
48
0.05
60
1
100
AcDbLine
10
26.476783
20
26.25
30
0
11
28.5
21
26.25
31
0
39
0
210
0
220
0
230
1
0
LINE
5
112
100
AcDbEntity
8
1
62
256
6
ByLayer
370
18
48
0.05
60
1
100
AcDbLine
10
26.95
20
-25.431193
30
0
11
26.95
21
25.431193
31
0
39
0
210
0
220
0
230
1
0
LINE
5
113
100
AcDbEntity
8
SK4
62
256
6
ByLayer
370
13
48
0.05
60
1
100
AcDbLine
10
-34.343183
20
-200
30
0
11
72.854768
21
-200
31
0
39
0
210
0
220
0
230
1
0
LINE
5
114
100
AcDbEntity
8
SK4
62
256
6
ByLayer
370
13
48
0.05
60
1
100
AcDbLine
10
-34.183801
20
-100
30
0
11
64.471422
21
-100
31
0
39
0
210
0
220
0
230
1
0
LINE
5
115
100
AcDbEntity
8
1
62
256
6
ByLayer
370
18
48
0.05
60
1
100
AcDbLine
10
26.95
20
-26.25
30
0
11
35.189416
21
-26.25
31
0
39
0
210
0
220
0
230
1
0
LINE
5
116
100
AcDbEntity
8
1
62
256
6
ByLayer
370
18
48
1
60
0
100
AcDbLine
10
59.417
20
-6.290126
30
0
11
71.70264
21
5.995514
31
0
39
0
210
0
220
0
230
1
0
LINE
5
117
100
AcDbEntity
8
SK4
62
256
6
ByLayer
370
13
48
0.05
60
1
100
AcDbLine
10
-34.444671
20
0
30
0
11
80.714379
21
0
31
0
39
0
210
0
220
0
230
1
0
LINE
5
118
100
AcDbEntity
8
SK4
62
256
6
ByLayer
370
13
48
0.05
60
0
100
AcDbLine
10
69.761493
20
0
30
0
11
-34.444671
21
0
31
0
39
0
210
0
220
0
230
1
0
LINE
5
119
100
AcDbEntity
8
1
62
256
6
ByLayer
370
18
48
1
60
0
100
AcDbLine
10
44.938649
20
-18.647157
30
0
11
45.150781
21
-18.435025
31
0
39
0
210
0
220
0
230
1
0
LINE
5
11A
100
AcDbEntity
8
1
62
256
6
ByLayer
370
18
48
1
60
0
100
AcDbLine
10
73.435052
20
9.849246
30
0
11
73.615319
21
10.029514
31
0
39
0
210
0
220
0
230
1
0
LINE
5
11B
100
AcDbEntity
8
1
62
256
6
ByLayer
370
18
48
1
60
0
100
AcDbLine
10
73.435052
20
9.849246
30
0
11
45.150781
21
-18.435025
31
0
39
0
210
0
220
0
230
1
0
LINE
5
11C
100
AcDbEntity
8
1
62
256
6
ByLayer
370
18
48
1
60
0
100
AcDbLine
10
45.38025
20
-18.664495
30
0
11
73.664521
21
9.619777
31
0
39
0
210
0
220
0
230
1
0
LINE
5
11D
100
AcDbEntity
8
1
62
256
6
ByLayer
370
18
48
1
60
0
100
AcDbLine
10
54.498749
20
-9.087057
30
0
11
44.938649
21
-18.647157
31
0
39
0
210
0
220
0
230
1
0
LINE
5
11E
100
AcDbEntity
8
1
62
256
6
ByLayer
370
18
48
1
60
0
100
AcDbLine
10
73.788601
20
9.495689
30
0
11
73.435048
21
9.849242
31
0
39
0
210
0
220
0
230
1
0
LINE
5
11F
100
AcDbEntity
8
1
62
256
6
ByLayer
370
18
48
1
60
0
100
AcDbLine
10
45.50433
20
-18.788582
30
0
11
45.150777
21
-18.435029
31
0
39
0
210
0
220
0
230
1
0
LINE
5
120
100
AcDbEntity
8
4
62
256
6
ByLayer
370
13
48
0.05
60
1
100
AcDbLine
10
60.000019
20
0
30
0
11
0
21
0
31
0
39
0
210
0
220
0
230
1
0
LINE
5
121
100
AcDbEntity
8
4
62
256
6
ByLayer
370
13
48
0.05
60
1
100
AcDbLine
10
55.000019
20
0
30
0
11
0
21
0
31
0
39
0
210
0
220
0
230
1
0
LINE
5
122
100
AcDbEntity
8
1
62
256
6
ByLayer
370
18
48
1
60
0
100
AcDbLine
10
27.950013
20
22.5
30
0
11
61.208549
21
22.5
31
0
39
0
210
0
220
0
230
1
0
LINE
5
123
100
AcDbEntity
8
1
62
256
6
ByLayer
370
18
48
1
60
0
100
AcDbLine
10
41.0858
20
-22.5
30
0
11
27.950013
21
-22.5
31
0
39
0
210
0
220
0
230
1
0
LINE
5
124
100
AcDbEntity
8
1
62
256
6
ByLayer
370
18
48
1
60
0
100
AcDbLine
10
25.950013
20
26.4
30
0
11
25.950013
21
24.5
31
0
39
0
210
0
220
0
230
1
0
LINE
5
125
100
AcDbEntity
8
1
62
256
6
ByLayer
370
18
48
1
60
0
100
AcDbLine
10
25.950013
20
-24.5
30
0
11
25.950013
21
-26.4
31
0
39
0
210
0
220
0
230
1
0
LINE
5
126
100
AcDbEntity
8
1
62
256
6
ByLayer
370
18
48
0.05
60
1
100
AcDbLine
10
61.208549
20
22.5
30
0
11
66.155335
21
17.553214
31
0
39
0
210
0
220
0
230
1
0
LINE
5
127
100
AcDbEntity
8
1
62
256
6
ByLayer
370
18
48
1
60
0
100
AcDbLine
10
71.616777
20
12.091772
30
0
11
73.647174
21
10.061374
31
0
39
0
210
0
220
0
230
1
0
LINE
5
128
100
AcDbEntity
8
1
62
256
6
ByLayer
370
18
48
1
60
0
100
AcDbLine
10
45.150771
20
-18.435029
30
0
11
45.380241
21
-18.664498
31
0
39
0
210
0
220
0
230
1
0
LINE
5
129
100
AcDbEntity
8
1
62
256
6
ByLayer
370
18
48
1
60
0
100
AcDbLine
10
73.664512
20
9.619773
30
0
11
73.435042
21
9.849242
31
0
39
0
210
0
220
0
230
1
0
LINE
5
12A
100
AcDbEntity
8
1
62
256
6
ByLayer
370
18
48
1
60
0
100
AcDbLine
10
45.150771
20
-18.435029
30
0
11
73.435042
21
9.849242
31
0
39
0
210
0
220
0
230
1
0
LINE
5
12B
100
AcDbEntity
8
1
62
256
6
ByLayer
370
18
48
1
60
0
100
AcDbLine
10
45.000013
20
9.703608
30
0
11
53.615337
21
9.703608
31
0
39
0
210
0
220
0
230
1
0
LINE
5
12C
100
AcDbEntity
8
1
62
256
6
ByLayer
370
18
48
1
60
0
100
AcDbLine
10
53.615337
20
9.703608
30
0
11
63.452372
21
-0.133428
31
0
39
0
210
0
220
0
230
1
0
LINE
5
12D
100
AcDbEntity
8
1
62
256
6
ByLayer
370
18
48
1
60
0
100
AcDbLine
10
45.000013
20
-9.703608
30
0
11
53.882192
21
-9.703608
31
0
39
0
210
0
220
0
230
1
0
LINE
5
12E
100
AcDbEntity
8
1
62
256
6
ByLayer
370
18
48
1
60
0
100
AcDbLine
10
53.882192
20
-9.703608
30
0
11
41.0858
21
-22.5
31
0
39
0
210
0
220
0
230
1
0
LINE
5
12F
100
AcDbEntity
8
1
62
256
6
ByLayer
370
18
48
1
60
0
100
AcDbLine
10
53.882192
20
-9.703608
30
0
11
63.452372
21
-0.133428
31
0
39
0
210
0
220
0
230
1
0
LINE
5
130
100
AcDbEntity
8
1
62
256
6
ByLayer
370
18
48
1
60
0
100
AcDbLine
10
63.452372
20
-0.133428
30
0
11
53.615337
21
9.703608
31
0
39
0
210
0
220
0
230
1
0
LINE
5
131
100
AcDbEntity
8
1
62
256
6
ByLayer
370
18
48
1
60
0
100
AcDbLine
10
73.647174
20
10.061374
30
0
11
61.208549
21
22.5
31
0
39
0
210
0
220
0
230
1
0
LINE
5
132
100
AcDbEntity
8
4
62
256
6
ByLayer
370
13
48
0.05
60
0
100
AcDbLine
10
60.000019
20
0
30
0
11
0
21
0
31
0
39
0
210
0
220
0
230
1
0
MTEXT
5
1F4
100
AcDbEntity
8
SK6
62
256
6
ByLayer
370
18
48
1
60
0
100
AcDbMText
10
14.215665
20
-49.884548
30
0
210
0
220
0
230
1
1
\W0.7920;392.T63SL-40RX-045
40
3.5
41
0
44
1.084337
50
0
71
7
72
5
7
iso_b_vert
0
DIMENSION
5
20F
100
AcDbEntity
8
SK2
62
256
6
ByLayer
370
13
48
1
60
0
100
AcDbDimension
2
DimnDraft3D1
10
26.000013
20
45.472457
30
0
11
11.247378
21
45.472457
31
0
70
32
71
5
72
1
41
1
210
0
220
0
230
1
3
Standard
100
AcDbAlignedDimension
13
1.3E-05
23
32.5875
33
0
14
26.000013
24
32.5875
34
0
50
0
100
AcDbRotatedDimension
1001
ACAD
1000
DSTYLE
1002
{
1070
   279
1070
     0
1070
   172
1070
     1
1070
   173
1070
     1
1070
   340
1005
1F5
1070
   271
1070
     0
1070
    77
1070
     1
1070
    73
1070
     0
1070
   171
1070
     3
1070
   274
1070
     4
1070
   177
1070
   254
1070
   176
1070
   254
1070
   178
1070
   254
1070
    78
1070
     8
1070
    41
1041
3.175
1070
   147
1041
1.500003
1070
    42
1041
1.5875
1070
    44
1041
3.175
1070
   140
1041
3.000007
1070
   343
1005
0
1070
   344
1005
0
1002
}
0
DIMENSION
5
21D
100
AcDbEntity
8
SK2
62
256
6
ByLayer
370
13
48
1
60
0
100
AcDbDimension
2
DimnDraft3D2
10
-55.58407
20
31.5
30
0
11
-55.58407
21
-4.073684
31
0
70
32
71
5
72
1
41
1
210
0
220
0
230
1
3
Standard
100
AcDbAlignedDimension
13
-0.999987
23
-31.5
33
0
14
-0.999987
24
31.5
34
0
50
90
100
AcDbRotatedDimension
1001
ACAD
1000
DSTYLE
1002
{
1070
    74
1070
     0
1070
   279
1070
     0
1070
   173
1070
     1
1070
   340
1005
1F5
1070
   271
1070
     0
1070
   272
1070
     2
1070
    77
1070
     1
1070
    73
1070
     0
1070
   171
1070
     4
1070
   274
1070
     4
1070
   177
1070
   254
1070
   176
1070
   254
1070
   178
1070
   254
1070
    41
1041
3.0
1070
   147
1041
1.5
1070
    42
1041
1.5
1070
    44
1041
3.0
1070
   140
1041
3.0
1070
   343
1005
1F9
1070
   344
1005
1F9
1002
}
0
DIMENSION
5
22B
100
AcDbEntity
8
SK2
62
256
6
ByLayer
370
13
48
1
60
0
100
AcDbDimension
2
DimnDraft3D3
10
-42.535949
20
24
30
0
11
-42.535949
21
-4.231579
31
0
70
32
71
5
72
1
41
1
210
0
220
0
230
1
3
Standard
100
AcDbAlignedDimension
13
-7.799987
23
-24
33
0
14
-7.799987
24
24
34
0
50
90
100
AcDbRotatedDimension
1001
ACAD
1000
DSTYLE
1002
{
1070
    74
1070
     0
1070
   279
1070
     0
1070
   173
1070
     1
1070
   340
1005
1F5
1070
   271
1070
     0
1070
   272
1070
     2
1070
    77
1070
     1
1070
    73
1070
     0
1070
   171
1070
     4
1070
   274
1070
     4
1070
   177
1070
   254
1070
   176
1070
   254
1070
   178
1070
   254
1070
    41
1041
3.0
1070
   147
1041
1.5
1070
    42
1041
1.5
1070
    44
1041
3.0
1070
   140
1041
3.0
1070
   343
1005
1F9
1070
   344
1005
1F9
1002
}
0
DIMENSION
5
23A
100
AcDbEntity
8
2
62
256
6
ByLayer
370
18
48
1
60
0
100
AcDbDimension
2
DimnDraft3D4
10
60.000019
20
59.186834
30
0
11
28.247385
21
59.186834
31
0
70
32
71
5
72
1
41
1
210
0
220
0
230
1
3
Standard
100
AcDbAlignedDimension
13
1.3E-05
23
33
33
0
14
60.000019
24
-3
34
0
50
0
100
AcDbRotatedDimension
1001
ACAD
1000
DSTYLE
1002
{
1070
   279
1070
     0
1070
   172
1070
     1
1070
   173
1070
     1
1070
   340
1005
1F5
1070
    77
1070
     1
1070
    73
1070
     0
1070
   171
1070
     3
1070
   274
1070
     4
1070
   177
1070
   254
1070
   176
1070
   254
1070
   178
1070
   254
1070
    78
1070
     8
1070
    41
1041
3.175
1070
   147
1041
1.5
1070
    42
1041
2.0
1070
    44
1041
2.0
1070
   140
1041
3.0
1070
   343
1005
1F9
1070
   344
1005
1F9
1002
}
0
DIMENSION
5
248
100
AcDbEntity
8
SK2
62
256
6
ByLayer
370
18
48
1
60
0
100
AcDbDimension
2
DimnDraft3D5
10
99.195239
20
-5
30
0
11
99.195239
21
-3.151316
31
0
70
32
71
5
72
1
41
1
210
0
220
0
230
1
3
Standard
100
AcDbAlignedDimension
13
71.761493
23
0
33
0
14
62.000019
24
-5
34
0
50
90
100
AcDbRotatedDimension
1001
ACAD
1000
DSTYLE
1002
{
1070
    74
1070
     0
1070
   279
1070
     0
1070
   172
1070
     1
1070
   173
1070
     1
1070
   340
1005
1F5
1070
    77
1070
     1
1070
    73
1070
     0
1070
   171
1070
     3
1070
   274
1070
     4
1070
   177
1070
   254
1070
   176
1070
   254
1070
   178
1070
   254
1070
    78
1070
     8
1070
    41
1041
3.175
1070
   147
1041
1.5
1070
    42
1041
2.0
1070
    44
1041
2.0
1070
   140
1041
3.0
1070
   343
1005
1F9
1070
   344
1005
1F9
1002
}
0
DIMENSION
5
256
100
AcDbEntity
8
SK2
62
256
6
ByLayer
370
18
48
1
60
0
100
AcDbDimension
2
DimnDraft3D6
10
1.3E-05
20
45.544366
30
0
11
-17.752618
21
45.544366
31
0
70
32
71
5
72
1
41
1
210
0
220
0
230
1
3
Standard
100
AcDbAlignedDimension
13
-31.999987
23
23.573501
33
0
14
1.3E-05
24
33
34
0
50
0
100
AcDbRotatedDimension
1001
ACAD
1000
DSTYLE
1002
{
1070
   279
1070
     0
1070
   172
1070
     1
1070
   173
1070
     1
1070
   340
1005
1F5
1070
    77
1070
     1
1070
    73
1070
     0
1070
   171
1070
     3
1070
   274
1070
     4
1070
   177
1070
   254
1070
   176
1070
   254
1070
   178
1070
   254
1070
    78
1070
     8
1070
    41
1041
3.175
1070
   147
1041
1.5
1070
    42
1041
2.0
1070
    44
1041
2.0
1070
   140
1041
3.0
1070
   343
1005
1F9
1070
   344
1005
1F9
1002
}
0
DIMENSION
5
264
100
AcDbEntity
8
SK2
62
256
6
ByLayer
370
18
48
1
60
0
100
AcDbDimension
2
DimnDraft3D7
10
92.557304
20
-9.273014
30
0
11
72.948116
21
-23.932454
31
0
70
33
71
5
72
1
41
1
210
0
220
0
230
1
3
Standard
100
AcDbAlignedDimension
13
46.918544
23
-20.202796
33
0
14
75.202815
24
8.081475
34
0
1001
ACAD
1000
DSTYLE
1002
{
1070
   279
1070
     0
1070
    74
1070
     0
1070
   173
1070
     1
1070
   340
1005
1F5
1070
    77
1070
     1
1070
    73
1070
     0
1070
   171
1070
     3
1070
   274
1070
     4
1070
   177
1070
   254
1070
   176
1070
   254
1070
   178
1070
   254
1070
    78
1070
     8
1070
    41
1041
3.175
1070
   147
1041
1.5
1070
    42
1041
2.0
1070
    44
1041
2.0
1070
   140
1041
3.0
1070
   343
1005
1F9
1070
   344
1005
1F9
1002
}
0
ENDSEC
0
SECTION
2
OBJECTS
0
DICTIONARY
5
2d0
330
0
100
AcDbDictionary
280
0
281
1
3
ACAD_GROUP
350
2d1
3
ACAD_MLINESTYLE
350
2d2
0
DICTIONARY
5
2d1
330
0
100
AcDbDictionary
280
0
281
1
0
DICTIONARY
5
2d2
330
0
100
AcDbDictionary
280
0
281
1
3
Standard
350
18
0
MLINESTYLE
5
18
330
2d2
100
AcDbMlineStyle
2
Standard
70
0
3

62
256
51
90
52
90
71
2
49
-0.5
62
256
6
ByLayer
49
0.5
62
256
6
ByLayer
0
RASTERVARIABLES
5
2bd
330

100
AcDbRasterVariables
90
0
70
1
71
1
72
1
0
ENDSEC
0
EOF
