0
SECTION
2
HEADER
9
$ACADVER
1
AC1015
9
$DWGCODEPAGE
3
ANSI_1252
9
$HANDSEED
5
2e4
9
$ANGBASE
50
0
9
$ANGDIR
70
0
9
$ATTMODE
70
1
9
$AUNITS
70
0
9
$AUPREC
70
0
9
$CECOLOR
62
256
9
$CELTSCALE
40
1
9
$CELTYPE
6
ByLayer
9
$CELWEIGHT
370
18
9
$CLAYER
8
0
9
$CMLJUST
70
0
9
$CMLSCALE
40
1
9
$CMLSTYLE
2
Standard
9
$DIMSTYLE
2
Standard
9
$TEXTSIZE
40
0.2
9
$TEXTSTYLE
7
Standard
9
$LUNITS
70
2
9
$LUPREC
70
4
9
$EXTNAMES
290
1
9
$INSUNITS
70
4
9
$LTSCALE
40
1
9
$LWDISPLAY
290
1
9
$PDMODE
70
0
9
$PDSIZE
40
0
9
$PLINEGEN
70
0
0
ENDSEC
0
SECTION
2
CLASSES
0
CLASS
1
RASTERVARIABLES
2
AcDbRasterVariables
3
ISM
90
0
280
0
281
0
0
ENDSEC
0
SECTION
2
TABLES
0
TABLE
2
VPORT
5
2da
100
AcDbSymbolTable
0
VPORT
5
1
100
AcDbSymbolTableRecord
100
AcDbViewportTableRecord
2
*Active
70
0
10
0
20
0
11
1
21
1
12
-1
22
1
13
0
23
0
14
0.5
24
0.5
15
10
25
10
16
0
26
0
36
1
17
0
27
0
37
0
0
ENDTAB
0
TABLE
2
LTYPE
5
2db
100
AcDbSymbolTable
0
LTYPE
5
14
100
AcDbSymbolTableRecord
100
AcDbLinetypeTableRecord
70
0
2
ByBlock
3

72
65
73
0
40
0
0
LTYPE
5
15
100
AcDbSymbolTableRecord
100
AcDbLinetypeTableRecord
70
0
2
ByLayer
3

72
65
73
0
40
0
0
LTYPE
5
16
100
AcDbSymbolTableRecord
100
AcDbLinetypeTableRecord
70
0
2
CONTINUOUS
3
Solid line
72
65
73
0
40
0
0
LTYPE
5
6A
100
AcDbSymbolTableRecord
100
AcDbLinetypeTableRecord
70
0
2
CENTER
3
____ _ ____ _ ____ _ ____
72
65
73
4
40
47.5
49
22
74
0
49
-8.5
74
0
49
8.5
74
0
49
-8.5
74
0
0
LTYPE
5
6B
100
AcDbSymbolTableRecord
100
AcDbLinetypeTableRecord
70
0
2
DASHED
3
__ __ __ __ __ __ __ __ __
72
65
73
2
40
25.72
49
12.86
74
0
49
-12.86
74
0
0
ENDTAB
0
TABLE
2
LAYER
5
2dc
100
AcDbSymbolTable
0
LAYER
5
10
100
AcDbSymbolTableRecord
100
AcDbLayerTableRecord
2
0
70
0
62
7
6
CONTINUOUS
290
1
370
-3
390
0
0
LAYER
5
6D
100
AcDbSymbolTableRecord
100
AcDbLayerTableRecord
2
81
70
0
62
-3
6
CONTINUOUS
290
1
370
-3
390
0
0
LAYER
5
6F
100
AcDbSymbolTableRecord
100
AcDbLayerTableRecord
2
80
70
0
62
-6
6
CONTINUOUS
290
1
370
-3
390
0
0
LAYER
5
71
100
AcDbSymbolTableRecord
100
AcDbLayerTableRecord
2
1
70
0
62
4
6
CONTINUOUS
290
1
370
-3
390
0
0
LAYER
5
CC
100
AcDbSymbolTableRecord
100
AcDbLayerTableRecord
2
4
70
0
62
-2
6
CENTER
290
1
370
-3
390
0
0
LAYER
5
251
100
AcDbSymbolTableRecord
100
AcDbLayerTableRecord
2
2
70
0
62
7
6
CONTINUOUS
290
1
370
-3
390
0
0
LAYER
5
2c5
100
AcDbSymbolTableRecord
100
AcDbLayerTableRecord
2
SK4
70
0
62
2
6
CENTER
290
1
370
-3
390
0
0
LAYER
5
2c6
100
AcDbSymbolTableRecord
100
AcDbLayerTableRecord
2
SK3
70
0
62
1
6
DASHED
290
1
370
-3
390
0
0
LAYER
5
2c7
100
AcDbSymbolTableRecord
100
AcDbLayerTableRecord
2
SK1
70
0
62
4
6
CONTINUOUS
290
1
370
-3
390
0
0
LAYER
5
2c8
100
AcDbSymbolTableRecord
100
AcDbLayerTableRecord
2
SK6
70
0
62
5
6
CONTINUOUS
290
1
370
-3
390
0
0
LAYER
5
2c9
100
AcDbSymbolTableRecord
100
AcDbLayerTableRecord
2
SK2
70
0
62
7
6
CONTINUOUS
290
1
370
-3
390
0
0
ENDTAB
0
TABLE
2
STYLE
5
2dd
100
AcDbSymbolTable
0
STYLE
5
11
100
AcDbSymbolTableRecord
100
AcDbTextStyleTableRecord
2
Standard
3
txt
70
0
71
0
40
0
41
1
42
0
50
0
0
STYLE
5
1F2
100
AcDbSymbolTableRecord
100
AcDbTextStyleTableRecord
2
iso_b_vert
3
simplex.shx
70
0
71
0
40
0
41
1
42
0
50
0
0
STYLE
5
1F3
100
AcDbSymbolTableRecord
100
AcDbTextStyleTableRecord
2
DWGDirectTextStyle
3
simplex
70
0
71
0
40
0
41
1
42
0
50
0
0
ENDTAB
0
TABLE
2
DIMSTYLE
5
2de
100
AcDbSymbolTable
100
AcDbDimStyleTable
0
DIMSTYLE
105
27
100
AcDbSymbolTableRecord
100
AcDbDimStyleTableRecord
2
Standard
70
0
3
<>
41
0.18
42
0.0625
44
0.18
140
0.18
147
0.09
73
0
74
0
77
1
271
2
275
0
278
52
280
0
340
11
0
ENDTAB
0
TABLE
2
VIEW
5
2df
100
AcDbSymbolTable
0
ENDTAB
0
TABLE
2
UCS
5
2e0
100
AcDbSymbolTable
0
ENDTAB
0
TABLE
2
APPID
5
2e1
100
AcDbSymbolTable
0
APPID
5
12
100
AcDbSymbolTableRecord
100
AcDbRegAppTableRecord
2
ACAD
70
0
0
ENDTAB
0
TABLE
2
BLOCK_RECORD
5
2e2
100
AcDbSymbolTable
0
BLOCK_RECORD
5
1F
100
AcDbSymbolTableRecord
100
AcDbBlockTableRecord
2
*Model_Space
340
0
70
0
0
BLOCK_RECORD
5
1B
100
AcDbSymbolTableRecord
100
AcDbBlockTableRecord
2
*Paper_Space
340
0
70
0
0
BLOCK_RECORD
5
23
100
AcDbSymbolTableRecord
100
AcDbBlockTableRecord
2
*Paper_Space0
340
0
70
0
0
BLOCK_RECORD
5
1F5
100
AcDbSymbolTableRecord
100
AcDbBlockTableRecord
2
LABLE3D_1
340
0
70
0
0
BLOCK_RECORD
5
1F6
100
AcDbSymbolTableRecord
100
AcDbBlockTableRecord
2
_CLOSED
340
0
70
0
0
BLOCK_RECORD
5
203
100
AcDbSymbolTableRecord
100
AcDbBlockTableRecord
2
DimnDraft3D1
340
0
70
0
0
BLOCK_RECORD
5
20D
100
AcDbSymbolTableRecord
100
AcDbBlockTableRecord
2
DimnDraft3D2
340
0
70
0
0
BLOCK_RECORD
5
217
100
AcDbSymbolTableRecord
100
AcDbBlockTableRecord
2
DimnDraft3D3
340
0
70
0
0
BLOCK_RECORD
5
225
100
AcDbSymbolTableRecord
100
AcDbBlockTableRecord
2
DimnDraft3D4
340
0
70
0
0
BLOCK_RECORD
5
233
100
AcDbSymbolTableRecord
100
AcDbBlockTableRecord
2
DimnDraft3D5
340
0
70
0
0
BLOCK_RECORD
5
241
100
AcDbSymbolTableRecord
100
AcDbBlockTableRecord
2
DimnDraft3D6
340
0
70
0
0
BLOCK_RECORD
5
24F
100
AcDbSymbolTableRecord
100
AcDbBlockTableRecord
2
DimnDraft3D7
340
0
70
0
0
BLOCK_RECORD
5
25E
100
AcDbSymbolTableRecord
100
AcDbBlockTableRecord
2
DimnDraft3D8
340
0
70
0
0
ENDTAB
0
ENDSEC
0
SECTION
2
BLOCKS
0
BLOCK
5
20
100
AcDbEntity
8
0
100
AcDbBlockBegin
2
*Model_Space
70
0
10
0
20
0
30
0
3
*Model_Space
0
ENDBLK
5
21
100
AcDbEntity
8
0
100
AcDbBlockEnd
0
BLOCK
5
1C
100
AcDbEntity
8
0
100
AcDbBlockBegin
2
*Paper_Space
70
0
10
0
20
0
30
0
3
*Paper_Space
0
ENDBLK
5
1D
100
AcDbEntity
8
0
100
AcDbBlockEnd
0
BLOCK
5
24
100
AcDbEntity
8
0
100
AcDbBlockBegin
2
*Paper_Space0
70
0
10
0
20
0
30
0
3
*Paper_Space0
0
ENDBLK
5
25
100
AcDbEntity
8
0
100
AcDbBlockEnd
0
BLOCK
5
201
100
AcDbEntity
8
0
100
AcDbBlockBegin
2
LABLE3D_1
70
0
10
0
20
0
30
0
3
LABLE3D_1
0
MTEXT
5
1FF
100
AcDbEntity
8
SK2
62
256
6
ByLayer
370
18
48
1
60
0
100
AcDbMText
10
-37.05087
20
-52.526757
30
0
210
0
220
0
230
1
1
\W0.7886;Combination of\PHSK-A/C/T 63
40
3
41
0
44
1.084337
50
0
71
7
72
5
7
iso_b_vert
0
ENDBLK
5
202
100
AcDbEntity
8
0
100
AcDbBlockEnd
0
BLOCK
5
1F7
100
AcDbEntity
8
0
100
AcDbBlockBegin
2
_CLOSED
70
0
10
0
20
0
30
0
3
_CLOSED
0
LINE
5
1F9
100
AcDbEntity
8
0
62
256
6
ByLayer
370
-2
48
1
60
0
100
AcDbLine
10
-1
20
0.166667
30
0
11
0
21
0
31
0
39
0
210
0
220
0
230
1
0
LINE
5
1FA
100
AcDbEntity
8
0
62
256
6
ByLayer
370
-2
48
1
60
0
100
AcDbLine
10
0
20
0
30
0
11
-1
21
-0.166667
31
0
39
0
210
0
220
0
230
1
0
LINE
5
1FB
100
AcDbEntity
8
0
62
256
6
ByLayer
370
-2
48
1
60
0
100
AcDbLine
10
-1
20
0.166667
30
0
11
-1
21
-0.166667
31
0
39
0
210
0
220
0
230
1
0
LINE
5
1FC
100
AcDbEntity
8
0
62
256
6
ByLayer
370
-2
48
1
60
0
100
AcDbLine
10
0
20
0
30
0
11
-1
21
0
31
0
39
0
210
0
220
0
230
1
0
ENDBLK
5
1F8
100
AcDbEntity
8
0
100
AcDbBlockEnd
0
BLOCK
5
20A
100
AcDbEntity
8
0
100
AcDbBlockBegin
2
DimnDraft3D1
70
0
10
0
20
0
30
0
3
DimnDraft3D1
0
MTEXT
5
204
100
AcDbEntity
8
SK2
62
256
6
ByLayer
370
18
48
1
60
0
100
AcDbMText
10
106.533184
20
8.018413
30
0
210
0
220
0
230
1
1
\W0.8203;%%c 40
40
3.000007
41
0
44
1.084337
50
90
71
7
72
5
7
iso_b_vert
0
LINE
5
205
100
AcDbEntity
8
SK2
62
256
6
ByLayer
370
13
48
1
60
0
100
AcDbLine
10
67.912033
20
31.5
30
0
11
110.458186
21
31.5
31
0
39
0
210
0
220
0
230
1
0
LINE
5
206
100
AcDbEntity
8
SK2
62
256
6
ByLayer
370
13
48
1
60
0
100
AcDbLine
10
67.912033
20
-8.5
30
0
11
110.458186
21
-8.5
31
0
39
0
210
0
220
0
230
1
0
LINE
5
207
100
AcDbEntity
8
SK2
62
256
6
ByLayer
370
13
48
1
60
0
100
AcDbLine
10
107.283186
20
31.5
30
0
11
107.283186
21
-8.5
31
0
39
0
210
0
220
0
230
1
0
SOLID
5
208
100
AcDbEntity
8
SK2
62
256
6
ByLayer
370
13
48
1
60
0
100
AcDbTrace
10
107.283186
20
31.5
30
0
11
107.786056
21
28.325002
31
0
12
106.780315
22
28.324998
32
0
13
107.283186
23
31.5
33
0
39
0
210
0
220
0
230
1
0
SOLID
5
209
100
AcDbEntity
8
SK2
62
256
6
ByLayer
370
13
48
1
60
0
100
AcDbTrace
10
107.283186
20
-8.5
30
0
11
106.780315
21
-5.325002
31
0
12
107.786056
22
-5.324998
32
0
13
107.283186
23
-8.5
33
0
39
0
210
0
220
0
230
1
0
ENDBLK
5
20B
100
AcDbEntity
8
0
100
AcDbBlockEnd
0
BLOCK
5
214
100
AcDbEntity
8
0
100
AcDbBlockBegin
2
DimnDraft3D2
70
0
10
0
20
0
30
0
3
DimnDraft3D2
0
MTEXT
5
20E
100
AcDbEntity
8
SK2
62
256
6
ByLayer
370
18
48
1
60
0
100
AcDbMText
10
11.99738
20
46.222458
30
0
210
0
220
0
230
1
1
\W0.6563;26
40
3.000007
41
0
44
1.084337
50
0
71
7
72
5
7
iso_b_vert
0
LINE
5
20F
100
AcDbEntity
8
SK2
62
256
6
ByLayer
370
13
48
1
60
0
100
AcDbLine
10
1.3E-05
20
32.5875
30
0
11
1.3E-05
21
48.647457
31
0
39
0
210
0
220
0
230
1
0
LINE
5
210
100
AcDbEntity
8
SK2
62
256
6
ByLayer
370
13
48
1
60
0
100
AcDbLine
10
26.000013
20
32.5875
30
0
11
26.000013
21
48.647457
31
0
39
0
210
0
220
0
230
1
0
LINE
5
211
100
AcDbEntity
8
SK2
62
256
6
ByLayer
370
13
48
1
60
0
100
AcDbLine
10
1.3E-05
20
45.472457
30
0
11
26.000013
21
45.472457
31
0
39
0
210
0
220
0
230
1
0
SOLID
5
212
100
AcDbEntity
8
SK2
62
256
6
ByLayer
370
13
48
1
60
0
100
AcDbTrace
10
1.3E-05
20
45.472457
30
0
11
3.175012
21
45.975327
31
0
12
3.175015
22
44.969586
32
0
13
1.3E-05
23
45.472457
33
0
39
0
210
0
220
0
230
1
0
SOLID
5
213
100
AcDbEntity
8
SK2
62
256
6
ByLayer
370
13
48
1
60
0
100
AcDbTrace
10
26.000013
20
45.472457
30
0
11
22.825015
21
44.969586
31
0
12
22.825012
22
45.975327
32
0
13
26.000013
23
45.472457
33
0
39
0
210
0
220
0
230
1
0
ENDBLK
5
215
100
AcDbEntity
8
0
100
AcDbBlockEnd
0
BLOCK
5
222
100
AcDbEntity
8
0
100
AcDbBlockBegin
2
DimnDraft3D3
70
0
10
0
20
0
30
0
3
DimnDraft3D3
0
MTEXT
5
218
100
AcDbEntity
8
SK2
62
256
6
ByLayer
370
18
48
1
60
0
100
AcDbMText
10
-17.002616
20
59.288283
30
0
210
0
220
0
230
1
1
\W0.6563;32
40
2.999994
41
0
44
1.084337
50
0
71
7
72
5
7
iso_b_vert
0
LINE
5
219
100
AcDbEntity
8
SK2
62
256
6
ByLayer
370
13
48
1
60
0
100
AcDbLine
10
1.3E-05
20
32.499997
30
0
11
1.3E-05
21
61.538279
31
0
39
0
210
0
220
0
230
1
0
LINE
5
21A
100
AcDbEntity
8
SK2
62
256
6
ByLayer
370
13
48
1
60
0
100
AcDbLine
10
-31.999987
20
23.073498
30
0
11
-31.999987
21
61.538279
31
0
39
0
210
0
220
0
230
1
0
LINE
5
21B
100
AcDbEntity
8
SK2
62
256
6
ByLayer
370
13
48
1
60
0
100
AcDbLine
10
1.3E-05
20
58.538285
30
0
11
-31.999987
21
58.538285
31
0
39
0
210
0
220
0
230
1
0
LINE
5
21C
100
AcDbEntity
8
SK2
62
256
6
ByLayer
370
13
48
1
60
0
100
AcDbLine
10
1.3E-05
20
58.538285
30
0
11
-2.999979
21
58.038286
31
0
39
0
210
0
220
0
230
1
0
LINE
5
21D
100
AcDbEntity
8
SK2
62
256
6
ByLayer
370
13
48
1
60
0
100
AcDbLine
10
1.3E-05
20
58.538285
30
0
11
-2.999982
21
59.038284
31
0
39
0
210
0
220
0
230
1
0
LINE
5
21E
100
AcDbEntity
8
SK2
62
256
6
ByLayer
370
13
48
1
60
0
100
AcDbLine
10
-2.999979
20
58.038286
30
0
11
-2.999982
21
59.038284
31
0
39
0
210
0
220
0
230
1
0
LINE
5
21F
100
AcDbEntity
8
SK2
62
256
6
ByLayer
370
13
48
1
60
0
100
AcDbLine
10
-31.999987
20
58.538285
30
0
11
-28.999994
21
59.038284
31
0
39
0
210
0
220
0
230
1
0
LINE
5
220
100
AcDbEntity
8
SK2
62
256
6
ByLayer
370
13
48
1
60
0
100
AcDbLine
10
-31.999987
20
58.538285
30
0
11
-28.999991
21
58.038286
31
0
39
0
210
0
220
0
230
1
0
LINE
5
221
100
AcDbEntity
8
SK2
62
256
6
ByLayer
370
13
48
1
60
0
100
AcDbLine
10
-28.999994
20
59.038284
30
0
11
-28.999991
21
58.038286
31
0
39
0
210
0
220
0
230
1
0
ENDBLK
5
223
100
AcDbEntity
8
0
100
AcDbBlockEnd
0
BLOCK
5
230
100
AcDbEntity
8
0
100
AcDbBlockBegin
2
DimnDraft3D4
70
0
10
0
20
0
30
0
3
DimnDraft3D4
0
MTEXT
5
226
100
AcDbEntity
8
SK2
62
256
6
ByLayer
370
18
48
1
60
0
100
AcDbMText
10
-56.33407
20
-3.323684
30
0
210
0
220
0
230
1
1
\W0.7884;%%c 63
40
3
41
0
44
1.084337
50
90
71
7
72
5
7
iso_b_vert
0
LINE
5
227
100
AcDbEntity
8
SK2
62
256
6
ByLayer
370
13
48
1
60
0
100
AcDbLine
10
-0.999987
20
-31.5
30
0
11
-58.58407
21
-31.5
31
0
39
0
210
0
220
0
230
1
0
LINE
5
228
100
AcDbEntity
8
SK2
62
256
6
ByLayer
370
13
48
1
60
0
100
AcDbLine
10
-0.999987
20
31.5
30
0
11
-58.58407
21
31.5
31
0
39
0
210
0
220
0
230
1
0
LINE
5
229
100
AcDbEntity
8
SK2
62
256
6
ByLayer
370
13
48
1
60
0
100
AcDbLine
10
-55.58407
20
-31.5
30
0
11
-55.58407
21
31.5
31
0
39
0
210
0
220
0
230
1
0
LINE
5
22A
100
AcDbEntity
8
SK2
62
256
6
ByLayer
370
13
48
1
60
0
100
AcDbLine
10
-55.58407
20
-31.5
30
0
11
-56.113051
21
-28.500002
31
0
39
0
210
0
220
0
230
1
0
LINE
5
22B
100
AcDbEntity
8
SK2
62
256
6
ByLayer
370
13
48
1
60
0
100
AcDbLine
10
-55.58407
20
-31.5
30
0
11
-55.055089
21
-28.499998
31
0
39
0
210
0
220
0
230
1
0
LINE
5
22C
100
AcDbEntity
8
SK2
62
256
6
ByLayer
370
13
48
1
60
0
100
AcDbLine
10
-56.113051
20
-28.500002
30
0
11
-55.055089
21
-28.499998
31
0
39
0
210
0
220
0
230
1
0
LINE
5
22D
100
AcDbEntity
8
SK2
62
256
6
ByLayer
370
13
48
1
60
0
100
AcDbLine
10
-55.58407
20
31.5
30
0
11
-55.055089
21
28.500002
31
0
39
0
210
0
220
0
230
1
0
LINE
5
22E
100
AcDbEntity
8
SK2
62
256
6
ByLayer
370
13
48
1
60
0
100
AcDbLine
10
-55.58407
20
31.5
30
0
11
-56.113051
21
28.499998
31
0
39
0
210
0
220
0
230
1
0
LINE
5
22F
100
AcDbEntity
8
SK2
62
256
6
ByLayer
370
13
48
1
60
0
100
AcDbLine
10
-55.055089
20
28.500002
30
0
11
-56.113051
21
28.499998
31
0
39
0
210
0
220
0
230
1
0
ENDBLK
5
231
100
AcDbEntity
8
0
100
AcDbBlockEnd
0
BLOCK
5
23E
100
AcDbEntity
8
0
100
AcDbBlockBegin
2
DimnDraft3D5
70
0
10
0
20
0
30
0
3
DimnDraft3D5
0
MTEXT
5
234
100
AcDbEntity
8
SK2
62
256
6
ByLayer
370
18
48
1
60
0
100
AcDbMText
10
-43.285949
20
-3.481579
30
0
210
0
220
0
230
1
1
\W0.8203;%%c 48
40
3
41
0
44
1.084337
50
90
71
7
72
5
7
iso_b_vert
0
LINE
5
235
100
AcDbEntity
8
SK2
62
256
6
ByLayer
370
13
48
1
60
0
100
AcDbLine
10
-7.799987
20
-24
30
0
11
-45.535949
21
-24
31
0
39
0
210
0
220
0
230
1
0
LINE
5
236
100
AcDbEntity
8
SK2
62
256
6
ByLayer
370
13
48
1
60
0
100
AcDbLine
10
-7.799987
20
24
30
0
11
-45.535949
21
24
31
0
39
0
210
0
220
0
230
1
0
LINE
5
237
100
AcDbEntity
8
SK2
62
256
6
ByLayer
370
13
48
1
60
0
100
AcDbLine
10
-42.535949
20
-24
30
0
11
-42.535949
21
24
31
0
39
0
210
0
220
0
230
1
0
LINE
5
238
100
AcDbEntity
8
SK2
62
256
6
ByLayer
370
13
48
1
60
0
100
AcDbLine
10
-42.535949
20
-24
30
0
11
-43.06493
21
-21.000002
31
0
39
0
210
0
220
0
230
1
0
LINE
5
239
100
AcDbEntity
8
SK2
62
256
6
ByLayer
370
13
48
1
60
0
100
AcDbLine
10
-42.535949
20
-24
30
0
11
-42.006968
21
-20.999998
31
0
39
0
210
0
220
0
230
1
0
LINE
5
23A
100
AcDbEntity
8
SK2
62
256
6
ByLayer
370
13
48
1
60
0
100
AcDbLine
10
-43.06493
20
-21.000002
30
0
11
-42.006968
21
-20.999998
31
0
39
0
210
0
220
0
230
1
0
LINE
5
23B
100
AcDbEntity
8
SK2
62
256
6
ByLayer
370
13
48
1
60
0
100
AcDbLine
10
-42.535949
20
24
30
0
11
-42.006968
21
21.000002
31
0
39
0
210
0
220
0
230
1
0
LINE
5
23C
100
AcDbEntity
8
SK2
62
256
6
ByLayer
370
13
48
1
60
0
100
AcDbLine
10
-42.535949
20
24
30
0
11
-43.06493
21
20.999998
31
0
39
0
210
0
220
0
230
1
0
LINE
5
23D
100
AcDbEntity
8
SK2
62
256
6
ByLayer
370
13
48
1
60
0
100
AcDbLine
10
-42.006968
20
21.000002
30
0
11
-43.06493
21
20.999998
31
0
39
0
210
0
220
0
230
1
0
ENDBLK
5
23F
100
AcDbEntity
8
0
100
AcDbBlockEnd
0
BLOCK
5
24C
100
AcDbEntity
8
0
100
AcDbBlockBegin
2
DimnDraft3D6
70
0
10
0
20
0
30
0
3
DimnDraft3D6
0
MTEXT
5
242
100
AcDbEntity
8
SK2
62
256
6
ByLayer
370
18
48
1
60
0
100
AcDbMText
10
19.839925
20
59.288282
30
0
210
0
220
0
230
1
1
\W0.7183;42
40
3
41
0
44
1.084337
50
0
71
7
72
5
7
iso_b_vert
0
LINE
5
243
100
AcDbEntity
8
SK2
62
256
6
ByLayer
370
13
48
1
60
0
100
AcDbLine
10
1.3E-05
20
32.5
30
0
11
1.3E-05
21
61.538282
31
0
39
0
210
0
220
0
230
1
0
LINE
5
244
100
AcDbEntity
8
SK2
62
256
6
ByLayer
370
13
48
1
60
0
100
AcDbLine
10
42.000888
20
27.75
30
0
11
42.000888
21
61.538282
31
0
39
0
210
0
220
0
230
1
0
LINE
5
245
100
AcDbEntity
8
SK2
62
256
6
ByLayer
370
13
48
1
60
0
100
AcDbLine
10
1.3E-05
20
58.538282
30
0
11
42.000888
21
58.538282
31
0
39
0
210
0
220
0
230
1
0
LINE
5
246
100
AcDbEntity
8
SK2
62
256
6
ByLayer
370
13
48
1
60
0
100
AcDbLine
10
1.3E-05
20
58.538282
30
0
11
3.000012
21
59.067263
31
0
39
0
210
0
220
0
230
1
0
LINE
5
247
100
AcDbEntity
8
SK2
62
256
6
ByLayer
370
13
48
1
60
0
100
AcDbLine
10
1.3E-05
20
58.538282
30
0
11
3.000015
21
58.009301
31
0
39
0
210
0
220
0
230
1
0
LINE
5
248
100
AcDbEntity
8
SK2
62
256
6
ByLayer
370
13
48
1
60
0
100
AcDbLine
10
3.000012
20
59.067263
30
0
11
3.000015
21
58.009301
31
0
39
0
210
0
220
0
230
1
0
LINE
5
249
100
AcDbEntity
8
SK2
62
256
6
ByLayer
370
13
48
1
60
0
100
AcDbLine
10
42.000888
20
58.538282
30
0
11
39.00089
21
58.009301
31
0
39
0
210
0
220
0
230
1
0
LINE
5
24A
100
AcDbEntity
8
SK2
62
256
6
ByLayer
370
13
48
1
60
0
100
AcDbLine
10
42.000888
20
58.538282
30
0
11
39.000886
21
59.067263
31
0
39
0
210
0
220
0
230
1
0
LINE
5
24B
100
AcDbEntity
8
SK2
62
256
6
ByLayer
370
13
48
1
60
0
100
AcDbLine
10
39.00089
20
58.009301
30
0
11
39.000886
21
59.067263
31
0
39
0
210
0
220
0
230
1
0
ENDBLK
5
24D
100
AcDbEntity
8
0
100
AcDbBlockEnd
0
BLOCK
5
25B
100
AcDbEntity
8
0
100
AcDbBlockBegin
2
DimnDraft3D7
70
0
10
0
20
0
30
0
3
DimnDraft3D7
0
MTEXT
5
250
100
AcDbEntity
8
2
62
256
6
ByLayer
370
18
48
1
60
0
100
AcDbMText
10
32.497385
20
73.919909
30
0
210
0
220
0
230
1
1
\W0.6562;67
40
3
41
0
44
1.084337
50
0
71
7
72
5
7
iso_b_vert
0
LINE
5
252
100
AcDbEntity
8
2
62
256
6
ByLayer
370
18
48
1
60
0
100
AcDbLine
10
1.3E-05
20
33
30
0
11
1.3E-05
21
75.169908
31
0
39
0
210
0
220
0
230
1
0
LINE
5
253
100
AcDbEntity
8
2
62
256
6
ByLayer
370
18
48
1
60
0
100
AcDbLine
10
67.000019
20
13.5
30
0
11
67.000019
21
75.169908
31
0
39
0
210
0
220
0
230
1
0
LINE
5
254
100
AcDbEntity
8
2
62
256
6
ByLayer
370
18
48
1
60
0
100
AcDbLine
10
1.3E-05
20
73.169909
30
0
11
67.000019
21
73.169909
31
0
39
0
210
0
220
0
230
1
0
LINE
5
255
100
AcDbEntity
8
2
62
256
6
ByLayer
370
18
48
1
60
0
100
AcDbLine
10
1.3E-05
20
73.169909
30
0
11
3.175012
21
73.587905
31
0
39
0
210
0
220
0
230
1
0
LINE
5
256
100
AcDbEntity
8
2
62
256
6
ByLayer
370
18
48
1
60
0
100
AcDbLine
10
1.3E-05
20
73.169909
30
0
11
3.175015
21
72.751912
31
0
39
0
210
0
220
0
230
1
0
LINE
5
257
100
AcDbEntity
8
2
62
256
6
ByLayer
370
18
48
1
60
0
100
AcDbLine
10
3.175012
20
73.587905
30
0
11
3.175015
21
72.751912
31
0
39
0
210
0
220
0
230
1
0
LINE
5
258
100
AcDbEntity
8
2
62
256
6
ByLayer
370
18
48
1
60
0
100
AcDbLine
10
67.000019
20
73.169909
30
0
11
63.825021
21
72.751912
31
0
39
0
210
0
220
0
230
1
0
LINE
5
259
100
AcDbEntity
8
2
62
256
6
ByLayer
370
18
48
1
60
0
100
AcDbLine
10
67.000019
20
73.169909
30
0
11
63.825018
21
73.587905
31
0
39
0
210
0
220
0
230
1
0
LINE
5
25A
100
AcDbEntity
8
2
62
256
6
ByLayer
370
18
48
1
60
0
100
AcDbLine
10
63.825021
20
72.751912
30
0
11
63.825018
21
73.587905
31
0
39
0
210
0
220
0
230
1
0
ENDBLK
5
25C
100
AcDbEntity
8
0
100
AcDbBlockEnd
0
BLOCK
5
269
100
AcDbEntity
8
0
100
AcDbBlockBegin
2
DimnDraft3D8
70
0
10
0
20
0
30
0
3
DimnDraft3D8
0
MTEXT
5
25F
100
AcDbEntity
8
SK2
62
256
6
ByLayer
370
18
48
1
60
0
100
AcDbMText
10
91.474794
20
3.488361
30
0
210
0
220
0
230
1
1
\W0.5583;11.5
40
3
41
0
44
1.084337
50
90
71
7
72
5
7
iso_b_vert
0
LINE
5
260
100
AcDbEntity
8
SK2
62
256
6
ByLayer
370
18
48
1
60
0
100
AcDbLine
10
71.761493
20
0
30
0
11
94.224794
21
0
31
0
39
0
210
0
220
0
230
1
0
LINE
5
261
100
AcDbEntity
8
SK2
62
256
6
ByLayer
370
18
48
1
60
0
100
AcDbLine
10
74.000019
20
11.5
30
0
11
94.224794
21
11.5
31
0
39
0
210
0
220
0
230
1
0
LINE
5
262
100
AcDbEntity
8
SK2
62
256
6
ByLayer
370
18
48
1
60
0
100
AcDbLine
10
92.224794
20
0
30
0
11
92.224794
21
11.5
31
0
39
0
210
0
220
0
230
1
0
LINE
5
263
100
AcDbEntity
8
SK2
62
256
6
ByLayer
370
18
48
1
60
0
100
AcDbLine
10
92.224794
20
0
30
0
11
91.806797
21
3.174998
31
0
39
0
210
0
220
0
230
1
0
LINE
5
264
100
AcDbEntity
8
SK2
62
256
6
ByLayer
370
18
48
1
60
0
100
AcDbLine
10
92.224794
20
0
30
0
11
92.642791
21
3.175002
31
0
39
0
210
0
220
0
230
1
0
LINE
5
265
100
AcDbEntity
8
SK2
62
256
6
ByLayer
370
18
48
1
60
0
100
AcDbLine
10
91.806797
20
3.174998
30
0
11
92.642791
21
3.175002
31
0
39
0
210
0
220
0
230
1
0
LINE
5
266
100
AcDbEntity
8
SK2
62
256
6
ByLayer
370
18
48
1
60
0
100
AcDbLine
10
92.224794
20
11.5
30
0
11
92.642791
21
8.325002
31
0
39
0
210
0
220
0
230
1
0
LINE
5
267
100
AcDbEntity
8
SK2
62
256
6
ByLayer
370
18
48
1
60
0
100
AcDbLine
10
92.224794
20
11.5
30
0
11
91.806797
21
8.324998
31
0
39
0
210
0
220
0
230
1
0
LINE
5
268
100
AcDbEntity
8
SK2
62
256
6
ByLayer
370
18
48
1
60
0
100
AcDbLine
10
92.642791
20
8.325002
30
0
11
91.806797
21
8.324998
31
0
39
0
210
0
220
0
230
1
0
ENDBLK
5
26A
100
AcDbEntity
8
0
100
AcDbBlockEnd
0
ENDSEC
0
SECTION
2
ENTITIES
0
ARC
5
12B
100
AcDbEntity
8
SK1
62
256
6
ByLayer
370
18
48
1
60
0
100
AcDbCircle
39
0
10
0.495072
20
24.615
30
0
40
0.6
210
1.22460635382238E-16
220
0
230
-1
100
AcDbArc
50
214.397094
51
270
0
ARC
5
12C
100
AcDbEntity
8
SK1
62
256
6
ByLayer
370
18
48
1
60
0
100
AcDbCircle
39
0
10
-0.495072
20
-24.615
30
0
40
0.6
210
0
220
0
230
1
100
AcDbArc
50
34.397094
51
90
0
ARC
5
12D
100
AcDbEntity
8
SK1
62
256
6
ByLayer
370
18
48
1
60
0
100
AcDbCircle
39
0
10
-30.799987
20
21.573501
30
0
40
1.2
210
0
220
0
230
1
100
AcDbArc
50
92.862405
51
180
0
ARC
5
12E
100
AcDbEntity
8
SK1
62
256
6
ByLayer
370
18
48
1
60
0
100
AcDbCircle
39
0
10
-30.799987
20
-21.573501
30
0
40
1.2
210
0
220
0
230
1
100
AcDbArc
50
180
51
267.137595
0
ARC
5
12F
100
AcDbEntity
8
1
62
256
6
ByLayer
370
18
48
1
60
0
100
AcDbCircle
39
0
10
-19.515013
20
27.875
30
0
40
0.4
210
1.22460635382238E-16
220
0
230
-1
100
AcDbArc
50
180
51
270
0
ARC
5
130
100
AcDbEntity
8
1
62
256
6
ByLayer
370
18
48
1
60
0
100
AcDbCircle
39
0
10
-16.485013
20
27.875
30
0
40
0.4
210
1.22460635382238E-16
220
0
230
-1
100
AcDbArc
50
270
51
0
0
ARC
5
131
100
AcDbEntity
8
1
62
256
6
ByLayer
370
18
48
1
60
0
100
AcDbCircle
39
0
10
16.485013
20
-27.875
30
0
40
0.4
210
0
220
0
230
1
100
AcDbArc
50
90
51
180
0
ARC
5
132
100
AcDbEntity
8
1
62
256
6
ByLayer
370
18
48
1
60
0
100
AcDbCircle
39
0
10
19.515013
20
-27.875
30
0
40
0.4
210
0
220
0
230
1
100
AcDbArc
50
0
51
90
0
ARC
5
133
100
AcDbEntity
8
1
62
256
6
ByLayer
370
18
48
1
60
0
100
AcDbCircle
39
0
10
27.000013
20
27.25
30
0
40
1
210
0
220
0
230
1
100
AcDbArc
50
180
51
270
0
ARC
5
134
100
AcDbEntity
8
1
62
256
6
ByLayer
370
18
48
1
60
0
100
AcDbCircle
39
0
10
27.000013
20
-27.25
30
0
40
1
210
0
220
0
230
1
100
AcDbArc
50
90
51
180
0
ARC
5
135
100
AcDbEntity
8
1
62
256
6
ByLayer
370
18
48
1
60
0
100
AcDbCircle
39
0
10
-12.177418
20
27.85
30
0
40
8
210
1.22460635382238E-16
220
0
230
-1
100
AcDbArc
50
270
51
334.612067
0
ARC
5
136
100
AcDbEntity
8
1
62
256
6
ByLayer
370
18
48
1
60
0
100
AcDbCircle
39
0
10
-42.043159
20
30.25
30
0
40
4
210
0
220
0
230
-1
100
AcDbArc
50
225
51
270
0
ARC
5
137
100
AcDbEntity
8
1
62
256
6
ByLayer
370
18
48
1
60
0
100
AcDbCircle
39
0
10
-47.000013
20
-14.9
30
0
40
6.4
210
0
220
0
230
-1
100
AcDbArc
50
15
51
90
0
POINT
5
6C
100
AcDbEntity
8
81
62
256
6
ByLayer
370
18
48
1
60
0
100
AcDbPoint
10
67.000019
20
11.5
30
0
39
0
210
0
220
0
230
1
50
360
0
POINT
5
6E
100
AcDbEntity
8
80
62
256
6
ByLayer
370
18
48
1
60
0
100
AcDbPoint
10
0
20
0
30
0
39
0
210
0
220
0
230
1
50
360
0
SPLINE
5
138
100
AcDbEntity
8
1
62
256
6
ByLayer
370
18
48
1
60
0
100
AcDbSpline
70
4
71
3
72
29
73
25
40
0
40
0
40
0
40
0
40
0.0304706643282696
40
0.0739855655105012
40
0.117328475744764
40
0.157480488805096
40
0.197744691296923
40
0.238060034839145
40
0.278349117023815
40
0.318522056239563
40
0.363548681929761
40
0.408699211819965
40
0.45393771856183
40
0.499204946014711
40
0.544421855898574
40
0.589492867437043
40
0.639934461132272
40
0.69043481127683
40
0.740945580222047
40
0.791401397383983
40
0.843524971503266
40
0.895693070806009
40
0.947867621378739
40
1
40
1
40
1
40
1
41
1
10
66.6959809471128
20
31.3040381057259
30
0
41
1
10
66.6959894851182
20
31.3040294705728
30
0
41
1
10
66.6960938856646
20
31.3039241350272
30
0
41
1
10
66.6965650456193
20
31.3034489837127
30
0
41
1
10
66.6975203302388
20
31.3024855610806
30
0
41
1
10
66.6988571734547
20
31.3011373702255
30
0
41
1
10
66.7005170216548
20
31.2994635627644
30
0
41
1
10
66.7025148371996
20
31.2974491368588
30
0
41
1
10
66.7048287462966
20
31.2951162458799
30
0
41
1
10
66.707547760174
20
31.2923752516795
30
0
41
1
10
66.7107023594443
20
31.2891956162844
30
0
41
1
10
66.7143056442886
20
31.2855643656201
30
0
41
1
10
66.7182128606132
20
31.2816275416433
30
0
41
1
10
66.7223925609645
20
31.2774169907814
30
0
41
1
10
66.726813384089
20
31.2729644683554
30
0
41
1
10
66.7316377347887
20
31.2681066234573
30
0
41
1
10
66.7368780479747
20
31.262831281319
30
0
41
1
10
66.7425399675217
20
31.2571330758647
30
0
41
1
10
66.7484054420295
20
31.2512316830464
30
0
41
1
10
66.7545168485709
20
31.2450846680696
30
0
41
1
10
66.7608627226939
20
31.2387038318869
30
0
41
1
10
66.7674320144877
20
31.2321004825825
30
0
41
1
10
66.7741389674608
20
31.2253609622094
30
0
41
1
10
66.7786872307026
20
31.2207921877914
30
0
41
1
10
66.7809809471617
20
31.218488502244
30
0
0
SPLINE
5
139
100
AcDbEntity
8
1
62
256
6
ByLayer
370
18
48
1
60
0
100
AcDbSpline
70
4
71
3
72
25
73
21
40
0
40
0
40
0
40
0
40
0.0569503691896748
40
0.113904080159259
40
0.170858421545269
40
0.227809650442408
40
0.284755836072364
40
0.34170446431612
40
0.39865325380843
40
0.455599659332086
40
0.512905345841287
40
0.570213463609776
40
0.627521399601703
40
0.684826838223107
40
0.737328213009232
40
0.789830661059506
40
0.842331679458511
40
0.894887661280988
40
0.947445212013181
40
1
40
1
40
1
40
1
41
1
10
67.4250190528383
20
16.071656778949
30
0
41
1
10
67.4277421636033
20
16.0539104282997
30
0
41
1
10
67.4330274302266
20
16.0184050702866
30
0
41
1
10
67.4404626154492
20
15.965108108485
30
0
41
1
10
67.4474333676499
20
15.9117827491679
30
0
41
1
10
67.4539580134444
20
15.8584368532896
30
0
41
1
10
67.4600565620299
20
15.8050751746739
30
0
41
1
10
67.4657336459373
20
15.7517012664728
30
0
41
1
10
67.4709955299527
20
15.6983187241809
30
0
41
1
10
67.4758578183244
20
15.6448202087489
30
0
41
1
10
67.4803239834691
20
15.5912088600852
30
0
41
1
10
67.4843840539822
20
15.5374886059578
30
0
41
1
10
67.4880205913298
20
15.4837774765364
30
0
41
1
10
67.4911362718422
20
15.431581910468
30
0
41
1
10
67.4937646503243
20
15.3809052259904
30
0
41
1
10
67.4959244115077
20
15.3317515185881
30
0
41
1
10
67.4976716496901
20
15.2826109152678
30
0
41
1
10
67.4989866404714
20
15.2334912238032
30
0
41
1
10
67.4998244107194
20
15.1844042933231
30
0
41
1
10
67.5000129682097
20
15.1517289649413
30
0
41
1
10
67.5000190528383
20
15.1354027023458
30
0
0
SPLINE
5
13A
100
AcDbEntity
8
1
62
256
6
ByLayer
370
18
48
1
60
0
100
AcDbSpline
70
4
71
3
72
31
73
27
40
0
40
0
40
0
40
0
40
0.0415873295200745
40
0.083175477421993
40
0.124764017350461
40
0.166352536889455
40
0.207940637738295
40
0.249527935889037
40
0.291115553424422
40
0.332704045332782
40
0.37429295754002
40
0.415881849681428
40
0.457470295283544
40
0.49905788194746
40
0.540645780329794
40
0.582234607385998
40
0.623823882552373
40
0.665413138431333
40
0.707001920977624
40
0.748589789686025
40
0.790490676209519
40
0.832392565189226
40
0.874294939797381
40
0.916197295853251
40
0.958099142019491
40
1
40
1
40
1
40
1
41
1
10
66.7809809471617
20
19.2148372207045
30
0
41
1
10
66.7919590541889
20
19.171869559381
30
0
41
1
10
66.8137527290222
20
19.0858789749309
30
0
41
1
10
66.8459567710634
20
18.9567283098046
30
0
41
1
10
66.8776696476352
20
18.8274145748507
30
0
41
1
10
66.9088879266168
20
18.6979404629661
30
0
41
1
10
66.9396077188285
20
18.5683088675417
30
0
41
1
10
66.9698256244148
20
18.4385210781623
30
0
41
1
10
66.999538377847
20
18.308577436338
30
0
41
1
10
67.0287429720249
20
18.1784784818754
30
0
41
1
10
67.0574360129661
20
18.0482264238565
30
0
41
1
10
67.0856138582016
20
17.9178245345288
30
0
41
1
10
67.113272865024
20
17.7872760862504
30
0
41
1
10
67.1404097378137
20
17.6565827094526
30
0
41
1
10
67.1670213413946
20
17.5257449712282
30
0
41
1
10
67.1931048564503
20
17.394763646381
30
0
41
1
10
67.2186571011175
20
17.2636412663654
30
0
41
1
10
67.2436746508511
20
17.1323815258893
30
0
41
1
10
67.268154081083
20
17.0009881191507
30
0
41
1
10
67.2921522880105
20
16.8691333519819
30
0
41
1
10
67.3156615363999
20
16.7368168474985
30
0
41
1
10
67.3386743861257
20
16.6040385158671
30
0
41
1
10
67.3611292617807
20
16.4711312281305
30
0
41
1
10
67.3830228727335
20
16.3380992609423
30
0
41
1
10
67.4043523322408
20
16.2049465308202
30
0
41
1
10
67.418193160592
20
16.1160996661649
30
0
41
1
10
67.4250190528383
20
16.071656778949
30
0
0
SPLINE
5
13B
100
AcDbEntity
8
1
62
256
6
ByLayer
370
18
48
1
60
0
100
AcDbSpline
70
4
71
3
72
38
73
34
40
0
40
0
40
0
40
0
40
0.0280624111240487
40
0.0561907595988438
40
0.0842811520239622
40
0.112291670306769
40
0.131675211058268
40
0.151116325500009
40
0.170538816677485
40
0.18989688209723
40
0.209441815500432
40
0.229079032983711
40
0.248713689885321
40
0.268255115013562
40
0.290834495234439
40
0.313480316085728
40
0.336081665245261
40
0.363249317047849
40
0.390509905786727
40
0.417813721807244
40
0.445040504097153
40
0.47959291902471
40
0.514206740209112
40
0.548895006374315
40
0.583631425910627
40
0.618356507735331
40
0.652983267683273
40
0.707656711922119
40
0.762369682380376
40
0.81710146231747
40
0.871800572776462
40
0.944545393773376
40
1
40
1
40
1
40
1
41
1
10
66.7809809471617
20
19.8737007520068
30
0
41
1
10
66.7794851221917
20
19.8753893650397
30
0
41
1
10
66.7764456846155
20
19.8786665401751
30
0
41
1
10
66.7717546840969
20
19.883301529709
30
0
41
1
10
66.7669319166207
20
19.8875575373773
30
0
41
1
10
66.7624971722055
20
19.8909683493433
30
0
41
1
10
66.7585011456358
20
19.8936102719834
30
0
41
1
10
66.7549806673165
20
19.8956056109766
30
0
41
1
10
66.7514416823603
20
19.8972567468201
30
0
41
1
10
66.7478983168643
20
19.8985254963534
30
0
41
1
10
66.7443755537944
20
19.8993478282222
30
0
41
1
10
66.7409038080724
20
19.8997129590962
30
0
41
1
10
66.7375300606196
20
19.8996198303901
30
0
41
1
10
66.7341263196523
20
19.8990276171817
30
0
41
1
10
66.7307547094078
20
19.8978437472888
30
0
41
1
10
66.7274592951656
20
19.8960627367713
30
0
41
1
10
66.7242050739798
20
19.8936425794594
30
0
41
1
10
66.7210559249291
20
19.8905332892434
30
0
41
1
10
66.7180535785281
20
19.8867327102656
30
0
41
1
10
66.7153619934435
20
19.8825168260082
30
0
41
1
10
66.7127401516597
20
19.8775574447718
30
0
41
1
10
66.7102288978579
20
19.8718357258033
30
0
41
1
10
66.7078726497148
20
19.8653266259082
30
0
41
1
10
66.7058306661171
20
19.8585184345585
30
0
41
1
10
66.7040672599878
20
19.8514696047326
30
0
41
1
10
66.7025488282297
20
19.8442365325873
30
0
41
1
10
66.700983232937
20
19.8354417335058
30
0
41
1
10
66.6994801453433
20
19.8250128246929
30
0
41
1
10
66.6981695507313
20
19.8128758551402
30
0
41
1
10
66.6972074065731
20
19.800535128304
30
0
41
1
10
66.6964693049647
20
19.786661687545
30
0
41
1
10
66.6960585758083
20
19.7725652297033
30
0
41
1
10
66.6959762474748
20
19.7625915758181
30
0
41
1
10
66.6959809498914
20
19.7582581967162
30
0
0
SPLINE
5
13C
100
AcDbEntity
8
1
62
256
6
ByLayer
370
18
48
1
60
0
100
AcDbSpline
70
4
71
3
72
13
73
9
40
0
40
0
40
0
40
0
40
0.166655895385702
40
0.333312293668031
40
0.499968101828385
40
0.666645232266318
40
0.833322980959062
40
1
40
1
40
1
40
1
41
1
10
66.7809809471617
20
19.8737007520068
30
0
41
1
10
66.8171524901801
20
19.8330486174986
30
0
41
1
10
66.8893692283637
20
19.7515954308836
30
0
41
1
10
66.9973216002016
20
19.6289757522045
30
0
41
1
10
67.1048857506616
20
19.5058916537363
30
0
41
1
10
67.2120479896531
20
19.3823304297535
30
0
41
1
10
67.3187928252733
20
19.2582775594113
30
0
41
1
10
67.3896589991134
20
19.1752369902682
30
0
41
1
10
67.4250190528383
20
19.13363333884
30
0
0
SPLINE
5
13D
100
AcDbEntity
8
1
62
256
6
ByLayer
370
18
48
1
60
0
100
AcDbSpline
70
4
71
3
72
36
73
32
40
0
40
0
40
0
40
0
40
0.0267557926030454
40
0.0535713493494635
40
0.0803508341244848
40
0.10705731552017
40
0.131312143067981
40
0.155615025955141
40
0.179832589613737
40
0.204322615872495
40
0.228915829750425
40
0.253396464761162
40
0.274218672101815
40
0.295103847920112
40
0.315946572744745
40
0.340589583261478
40
0.365316925795539
40
0.39008354396639
40
0.41478027956777
40
0.452526679171577
40
0.490359562192801
40
0.52828110125235
40
0.566223292775767
40
0.604061601377055
40
0.653181615147406
40
0.702335527599752
40
0.751505593287599
40
0.800647648075386
40
0.86708941952921
40
0.933549566641457
40
1
40
1
40
1
40
1
41
1
10
67.4250190528383
20
19.13363333884
30
0
41
1
10
67.4262795174971
20
19.132143319949
30
0
41
1
10
67.4288435285414
20
19.1292456101822
30
0
41
1
10
67.4328077060956
20
19.1251290425042
30
0
41
1
10
67.4368952821849
20
19.1213272695921
30
0
41
1
10
67.4409695581354
20
19.1180109397897
30
0
41
1
10
67.4450111615255
20
19.1152238089349
30
0
41
1
10
67.4489866709705
20
19.1129975901352
30
0
41
1
10
67.4530076450282
20
19.1113133893138
30
0
41
1
10
67.4570209468359
20
19.1103054898046
30
0
41
1
10
67.4609550630692
20
19.1099985558351
30
0
41
1
10
67.4645406243009
20
19.1103936900837
30
0
41
1
10
67.4677348631579
20
19.1113904792631
30
0
41
1
10
67.4705668267393
20
19.112794952665
30
0
41
1
10
67.4733595937151
20
19.1147276619525
30
0
41
1
10
67.4760635417484
20
19.1172230707843
30
0
41
1
10
67.4786482203952
20
19.1202757863173
30
0
41
1
10
67.4809837813192
20
19.1236750158671
30
0
41
1
10
67.4834594089901
20
19.1280024724663
30
0
41
1
10
67.4859701547112
20
19.1333571162975
30
0
41
1
10
67.4884076329101
20
19.1398192221442
30
0
41
1
10
67.4904907276351
20
19.1466132439181
30
0
41
1
10
67.4922678693326
20
19.153655670565
30
0
41
1
10
67.4939440020312
20
19.1615970733456
30
0
41
1
10
67.4954829029489
20
19.1704511496466
30
0
41
1
10
67.4968247262883
20
19.1802488248533
30
0
41
1
10
67.4978841271409
20
19.1902129524245
30
0
41
1
10
67.4987964381252
20
19.2014915734838
30
0
41
1
10
67.4995035851827
20
19.2141053918188
30
0
41
1
10
67.4999305205816
20
19.2280786672489
30
0
41
1
10
67.5000236849411
20
19.2374732452115
30
0
41
1
10
67.5000190528383
20
19.2421921583253
30
0
0
SPLINE
5
13E
100
AcDbEntity
8
1
62
256
6
ByLayer
370
18
48
1
60
0
100
AcDbSpline
70
4
71
3
72
26
73
22
40
0
40
0
40
0
40
0
40
0.0413037723571767
40
0.0826256089148604
40
0.123960828470467
40
0.165296343587692
40
0.206611593607472
40
0.258171578617491
40
0.309743169912547
40
0.361317539065945
40
0.412881312880153
40
0.466624104530969
40
0.520375474886116
40
0.574127808310223
40
0.627871913442266
40
0.689786878004104
40
0.751707532871259
40
0.813622561984106
40
0.875746707113747
40
0.937876620178026
40
1
40
1
40
1
40
1
41
1
10
67.5000190528383
20
19.680039359129
30
0
41
1
10
67.5000150057576
20
19.6857850140185
30
0
41
1
10
67.4998772010547
20
19.6973265097942
30
0
41
1
10
67.4992642627116
20
19.7147975772783
30
0
41
1
10
67.498295476087
20
19.7323910432388
30
0
41
1
10
67.4970025440763
20
19.7500821297494
30
0
41
1
10
67.4952929375369
20
19.7693164766145
30
0
41
1
10
67.4931145435805
20
19.7901014082506
30
0
41
1
10
67.4903974601282
20
19.8124457639797
30
0
41
1
10
67.4873234303463
20
19.8348578895711
30
0
41
1
10
67.4838694331109
20
19.8576389469313
30
0
41
1
10
67.4800424320841
20
19.8807805764952
30
0
41
1
10
67.4758360180439
20
19.9042774764805
30
0
41
1
10
67.4713143670594
20
19.9278026740826
30
0
41
1
10
67.4662441810573
20
19.9525399770775
30
0
41
1
10
67.4605803579339
20
19.9784854614487
30
0
41
1
10
67.4542676789136
20
20.0056320682383
30
0
41
1
10
67.447563074111
20
20.0328068836187
30
0
41
1
10
67.4404682132421
20
20.0599998816406
30
0
41
1
10
67.4329759567487
20
20.0872019569451
30
0
41
1
10
67.4277152187203
20
20.1053122222597
30
0
41
1
10
67.4250190528383
20
20.1143615771271
30
0
0
SPLINE
5
13F
100
AcDbEntity
8
1
62
256
6
ByLayer
370
18
48
1
60
0
100
AcDbSpline
70
4
71
3
72
22
73
18
40
0
40
0
40
0
40
0
40
0.066626168426018
40
0.133253277801706
40
0.19988072642288
40
0.266507884266632
40
0.333134093343854
40
0.399759926812783
40
0.466386632296412
40
0.533013653078587
40
0.599640405198328
40
0.666266277781928
40
0.733012460794878
40
0.799759454145963
40
0.866506741265169
40
0.93325377941416
40
1
40
1
40
1
40
1
41
1
10
67.4250190528383
20
20.1143615771271
30
0
41
1
10
67.4119243345696
20
20.1582924515626
30
0
41
1
10
67.385567922842
20
20.2460874379714
30
0
41
1
10
67.345530684381
20
20.377578775916
30
0
41
1
10
67.3049970329242
20
20.5088676593664
30
0
41
1
10
67.2639713263026
20
20.6399519915744
30
0
41
1
10
67.222458258517
20
20.770830358375
30
0
41
1
10
67.1804619500665
20
20.901502664434
30
0
41
1
10
67.1379866232376
20
21.0319689663314
30
0
41
1
10
67.0950366789091
20
21.1622286060574
30
0
41
1
10
67.0516168994925
20
21.2922797651337
30
0
41
1
10
67.007705311342
20
21.4221997630806
30
0
41
1
10
66.9633050635872
20
21.5519882784458
30
0
41
1
10
66.918419307591
20
21.6816451277998
30
0
41
1
10
66.8730792837593
20
21.8110916459419
30
0
41
1
10
66.8272892589513
20
21.9403263991962
30
0
41
1
10
66.7964665621037
20
22.0263414370952
30
0
41
1
10
66.7809809471617
20
22.0693134260413
30
0
0
SPLINE
5
140
100
AcDbEntity
8
1
62
256
6
ByLayer
370
18
48
1
60
0
100
AcDbSpline
70
4
71
3
72
27
73
23
40
0
40
0
40
0
40
0
40
0.0670055616534624
40
0.134031035482076
40
0.201056661843111
40
0.268062431557025
40
0.321675342883947
40
0.375306512387661
40
0.428941619222238
40
0.48256866461488
40
0.536178115853362
40
0.582956595928424
40
0.629766879215681
40
0.676586065019968
40
0.723396673507117
40
0.770187156847153
40
0.816952428912053
40
0.855939444863597
40
0.894987047441213
40
0.934045100918581
40
0.973078310707619
40
1
40
1
40
1
40
1
41
1
10
66.7809809471617
20
22.0693134260414
30
0
41
1
10
66.7778392098572
20
22.0780327351573
30
0
41
1
10
66.7716950140498
20
22.0954794441458
30
0
41
1
10
66.7628974801357
20
22.1216747303068
30
0
41
1
10
66.7545237170578
20
22.1478717387812
30
0
41
1
10
66.7471074657524
20
22.1723096781951
30
0
41
1
10
66.7405568687703
20
22.1949805780197
30
0
41
1
10
66.7347958662346
20
22.2158850788823
30
0
41
1
10
66.7293340005306
20
22.2367547925478
30
0
41
1
10
66.7241849112296
20
22.2575745623407
30
0
41
1
10
66.7195679060544
20
22.2774505787305
30
0
41
1
10
66.7154428663461
20
22.2963861222152
30
0
41
1
10
66.7117828830568
20
22.3143833506625
30
0
41
1
10
66.7084220640043
20
22.3323057730405
30
0
41
1
10
66.7053864775043
20
22.350130763516
30
0
41
1
10
66.7027017118076
20
22.3678358700483
30
0
41
1
10
66.7005239290142
20
22.3844269238206
30
0
41
1
10
66.6987959521788
20
22.3999220743932
30
0
41
1
10
66.6974849355445
20
22.4143302350069
30
0
41
1
10
66.6965373896989
20
22.4285784011353
30
0
41
1
10
66.696041520864
20
22.4411796352958
30
0
41
1
10
66.6959722561412
20
22.4489617715171
30
0
41
1
10
66.695980949964
20
22.4521188154647
30
0
0
SPLINE
5
141
100
AcDbEntity
8
1
62
256
6
ByLayer
370
18
48
1
60
0
100
AcDbSpline
70
4
71
3
72
11
73
7
40
0
40
0
40
0
40
0
40
0.249998546865872
40
0.499997103610211
40
0.749998547678361
40
1
40
1
40
1
40
1
41
1
10
67.4250190528388
20
21.9146616975716
30
0
41
1
10
67.3714995281171
20
21.9652689481708
30
0
41
1
10
67.264384416438
20
22.0663757640078
30
0
41
1
10
67.1034789030682
20
22.2177082736915
30
0
41
1
10
66.9423526729626
20
22.3687287744606
30
0
41
1
10
66.8347951844467
20
22.4692104089359
30
0
41
1
10
66.7809809471617
20
22.5194006791821
30
0
0
SPLINE
5
142
100
AcDbEntity
8
1
62
256
6
ByLayer
370
18
48
1
60
0
100
AcDbSpline
70
4
71
3
72
32
73
28
40
0
40
0
40
0
40
0
40
0.0634399937808602
40
0.126900660383639
40
0.190322652478011
40
0.23909344474569
40
0.287928798075465
40
0.336729212919243
40
0.385452292454899
40
0.417910895569113
40
0.450422370281078
40
0.482911235391859
40
0.515338953054625
40
0.548149165897139
40
0.581087841410279
40
0.61398197542016
40
0.646731196576761
40
0.680448448356674
40
0.714272226700555
40
0.747985334760576
40
0.781600419044212
40
0.815317717894674
40
0.848963685325269
40
0.886628081717265
40
0.924418973031972
40
0.96226296687197
40
1
40
1
40
1
40
1
41
1
10
67.5000190528383
20
21.9759079944298
30
0
41
1
10
67.5000243881623
20
21.9724348440959
30
0
41
1
10
67.4999136278809
20
21.9655592397264
30
0
41
1
10
67.499406249158
20
21.9554404789873
30
0
41
1
10
67.4985592847145
20
21.9463417680487
30
0
41
1
10
67.4974454015544
20
21.9382341509308
30
0
41
1
10
67.4961249358277
20
21.9310911452621
30
0
41
1
10
67.494452012901
20
21.9242345688829
30
0
41
1
10
67.4926142908158
20
21.9184531832396
30
0
41
1
10
67.4907203592943
20
21.9136730340844
30
0
41
1
10
67.4888780178505
20
21.9098006208683
30
0
41
1
10
67.4867975872685
20
21.9061942991091
30
0
41
1
10
67.4844540792553
20
21.9028852613306
30
0
41
1
10
67.4818145519636
20
21.8999356476858
30
0
41
1
10
67.4788642126948
20
21.8974062987793
30
0
41
1
10
67.4756153834604
20
21.8953680390692
30
0
41
1
10
67.4720365225067
20
21.893876785221
30
0
41
1
10
67.4681170349972
20
21.8930378354285
30
0
41
1
10
67.463902633289
20
21.8928707169653
30
0
41
1
10
67.4594846142634
20
21.8933914914482
30
0
41
1
10
67.4549172954443
20
21.8946135096731
30
0
41
1
10
67.4502685463302
20
21.8964469427066
30
0
41
1
10
67.4453972801847
20
21.8989288659626
30
0
41
1
10
67.4403449541568
20
21.9020736743524
30
0
41
1
10
67.4351498947577
20
21.9058484346471
30
0
41
1
10
67.4300280378355
20
21.9100581193069
30
0
41
1
10
67.4266772448252
20
21.9130878916423
30
0
41
1
10
67.4250190528388
20
21.9146616975716
30
0
0
SPLINE
5
143
100
AcDbEntity
8
1
62
256
6
ByLayer
370
18
48
1
60
0
100
AcDbSpline
70
4
71
3
72
24
73
20
40
0
40
0
40
0
40
0
40
0.0686681501438173
40
0.137362263773589
40
0.206057246029935
40
0.274726581109661
40
0.34340467345119
40
0.412110777293248
40
0.480813132552706
40
0.549486111054839
40
0.607623432421423
40
0.66580834660235
40
0.723995832792476
40
0.782155000722837
40
0.840270711547679
40
0.880117297529752
40
0.919962744978416
40
0.959982471299729
40
1
40
1
40
1
40
1
41
1
10
67.4250190528383
20
22.5911859175859
30
0
41
1
10
67.427927505896
20
22.5838329681722
30
0
41
1
10
67.4336032413541
20
22.5691150469985
30
0
41
1
10
67.4416915183641
20
22.5470012007105
30
0
41
1
10
67.4493507916811
20
22.5248749818501
30
0
41
1
10
67.4565776873965
20
22.5027525868296
30
0
41
1
10
67.4633706835043
20
22.4806471555374
30
0
41
1
10
67.4697110409806
20
22.4585735028504
30
0
41
1
10
67.4755762672154
20
22.4365550295873
30
0
41
1
10
67.4806669408262
20
22.4157380673771
30
0
41
1
10
67.4850556363621
20
22.3961228572196
30
0
41
1
10
67.4887935715985
20
22.3777095809841
30
0
41
1
10
67.4920887195602
20
22.3594099388211
30
0
41
1
10
67.494897837375
20
22.3412636748194
30
0
41
1
10
67.4969412763909
20
22.3251863180023
30
0
41
1
10
67.4983602152597
20
22.3111450147608
30
0
41
1
10
67.4992850686408
20
22.2990784183316
30
0
41
1
10
67.4998796715382
20
22.287146077255
30
0
41
1
10
67.5000140889791
20
22.2793158678412
30
0
41
1
10
67.5000190528383
20
22.2754320110877
30
0
0
SPLINE
5
144
100
AcDbEntity
8
1
62
256
6
ByLayer
370
18
48
1
60
0
100
AcDbSpline
70
4
71
3
72
19
73
15
40
0
40
0
40
0
40
0
40
0.083308790128694
40
0.166618115923546
40
0.249927423291662
40
0.333236188292831
40
0.416545174773547
40
0.499854738238998
40
0.583164282056277
40
0.666473241743854
40
0.749854632382875
40
0.833236645636775
40
0.916618637935896
40
1
40
1
40
1
40
1
41
1
10
66.7809809471617
20
24.1254528336146
30
0
41
1
10
66.7996749842147
20
24.0833079721173
30
0
41
1
10
66.8369326552798
20
23.998941565761
30
0
41
1
10
66.8924296790812
20
23.8721628370493
30
0
41
1
10
66.9475310591385
20
23.7451543919056
30
0
41
1
10
67.0022327708426
20
23.6179159692656
30
0
41
1
10
67.0565303732765
20
23.4904468103434
30
0
41
1
10
67.1104194917708
20
23.3627462306953
30
0
41
1
10
67.1638953976339
20
23.2348142632321
30
0
41
1
10
67.216968761082
20
23.106613728845
30
0
41
1
10
67.2696347137122
20
22.9781437732014
30
0
41
1
10
67.3218881284654
20
22.8494036076341
30
0
41
1
10
67.3737094080973
20
22.7204305670553
30
0
41
1
10
67.4079643850121
20
22.6342932513343
30
0
41
1
10
67.4250190528383
20
22.5911859175859
30
0
0
SPLINE
5
145
100
AcDbEntity
8
1
62
256
6
ByLayer
370
18
48
1
60
0
100
AcDbSpline
70
4
71
3
72
33
73
29
40
0
40
0
40
0
40
0
40
0.0391223622133688
40
0.0783217471846426
40
0.117492781546508
40
0.156576402551473
40
0.18845337800925
40
0.220464878271333
40
0.252497629843575
40
0.284462072351403
40
0.316299417953955
40
0.352950312607314
40
0.389766339521498
40
0.426591789484937
40
0.46325559102464
40
0.495952428498324
40
0.528733849719753
40
0.561534925185835
40
0.594258630250998
40
0.638152469109676
40
0.682170716416514
40
0.726282215195497
40
0.770395631172505
40
0.814369528666659
40
0.863003939383215
40
0.911687046757256
40
0.960386484272293
40
1
40
1
40
1
40
1
41
1
10
66.7809809471617
20
24.4705635333407
30
0
41
1
10
66.7791111873853
20
24.472173386227
30
0
41
1
10
66.7753544681731
20
24.4752865458278
30
0
41
1
10
66.7696705477952
20
24.479649510868
30
0
41
1
10
66.7639633902624
20
24.4836368307189
30
0
41
1
10
66.7586091735316
20
24.4869792936384
30
0
41
1
10
66.7536286216251
20
24.4897047172699
30
0
41
1
10
66.7490324210125
20
24.4918787684851
30
0
41
1
10
66.7444994801693
20
24.4936664380403
30
0
41
1
10
66.7400704217025
20
24.4950307559631
30
0
41
1
10
66.7355627160373
20
24.4959841477676
30
0
41
1
10
66.7310384908828
20
24.4963920998274
30
0
41
1
10
66.7265618745236
20
24.4961793070003
30
0
41
1
10
66.7223762803796
20
24.4953479284919
30
0
41
1
10
66.7186620253283
20
24.4939575967624
30
0
41
1
10
66.7154049688744
20
24.4920955783328
30
0
41
1
10
66.7125465837075
20
24.4898859845046
30
0
41
1
10
66.709959473604
20
24.4872948146533
30
0
41
1
10
66.7073773250815
20
24.4840246689816
30
0
41
1
10
66.7049007203814
20
24.4799695958367
30
0
41
1
10
66.7026184540057
20
24.4750568962241
30
0
41
1
10
66.7007291414162
20
24.4697283394919
30
0
41
1
10
66.6992020259648
20
24.4640560990744
30
0
41
1
10
66.6979626349331
20
24.4578859287751
30
0
41
1
10
66.6970156273867
20
24.4512287844699
30
0
41
1
10
66.6963667692345
20
24.4440897769157
30
0
41
1
10
66.6960423538112
20
24.4371810441387
30
0
41
1
10
66.6959787285895
20
24.4326276753953
30
0
41
1
10
66.6959809478335
20
24.4305634774664
30
0
0
SPLINE
5
146
100
AcDbEntity
8
1
62
256
6
ByLayer
370
18
48
1
60
0
100
AcDbSpline
70
4
71
2
72
6
73
3
40
0
40
0
40
0
40
1
40
1
40
1
41
1
10
66.7809809471617
20
24.4705635333407
30
0
41
1
10
67.1032531848467
20
24.1936928186849
30
0
41
1
10
67.4250190528383
20
23.9160379589426
30
0
0
SPLINE
5
147
100
AcDbEntity
8
1
62
256
6
ByLayer
370
18
48
1
60
0
100
AcDbSpline
70
4
71
3
72
31
73
27
40
0
40
0
40
0
40
0
40
0.0387562707940303
40
0.07758852231419
40
0.11639256545354
40
0.15511028969194
40
0.194658259786462
40
0.234369236057531
40
0.274039797757671
40
0.313532419350137
40
0.349847404247765
40
0.386325074478384
40
0.422812744852998
40
0.459141426694657
40
0.491640607514895
40
0.524223118518146
40
0.556825264408749
40
0.589351285732645
40
0.633345724426077
40
0.677464525119186
40
0.721677035689779
40
0.765891873030148
40
0.809967100013136
40
0.873279693727487
40
0.936657670078349
40
1
40
1
40
1
40
1
41
1
10
67.4250190528383
20
23.9160379589426
30
0
41
1
10
67.4266514531953
20
23.9146262153249
30
0
41
1
10
67.4299320497058
20
23.9118959057407
30
0
41
1
10
67.4348977480892
20
23.9080685694946
30
0
41
1
10
67.4398865220786
20
23.904570037839
30
0
41
1
10
67.444911474107
20
23.9014221920408
30
0
41
1
10
67.4499510760317
20
23.8987016835614
30
0
41
1
10
67.4549679519855
20
23.8964676068921
30
0
41
1
10
67.4598755158647
20
23.8947876097429
30
0
41
1
10
67.4644879189254
20
23.8937497250695
30
0
41
1
10
67.4687636669781
20
23.8933630419611
30
0
41
1
10
67.4726989477447
20
23.8935464433921
30
0
41
1
10
67.4763823468068
20
23.8942699565285
30
0
41
1
10
67.4796585296228
20
23.8954819805177
30
0
41
1
10
67.482538716446
20
23.8971071324696
30
0
41
1
10
67.4850726513194
20
23.899038106522
30
0
41
1
10
67.4873697348167
20
23.9013024325428
30
0
41
1
10
67.4896744448004
20
23.9041691821413
30
0
41
1
10
67.4918954520023
20
23.9077342483527
30
0
41
1
10
67.4939509594409
20
23.9120644095821
30
0
41
1
10
67.495656836332
20
23.9167616971922
30
0
41
1
10
67.4970402209732
20
23.9217618114146
30
0
41
1
10
67.4982875406056
20
23.9277782547676
30
0
41
1
10
67.4992783720312
20
23.9348978078145
30
0
41
1
10
67.4998912192304
20
23.9431915080623
30
0
41
1
10
67.5000251070725
20
23.9489082414174
30
0
41
1
10
67.5000190528383
20
23.9518174255441
30
0
0
SPLINE
5
148
100
AcDbEntity
8
1
62
256
6
ByLayer
370
18
48
1
60
0
100
AcDbSpline
70
4
71
3
72
25
73
21
40
0
40
0
40
0
40
0
40
0.044601430958853
40
0.0892510146940773
40
0.1339180505408
40
0.178543303820839
40
0.224298854958845
40
0.270078931228569
40
0.315865106620691
40
0.361628978999427
40
0.424614609648804
40
0.487651118902903
40
0.55071409372863
40
0.613768341836693
40
0.676768862587506
40
0.741385832307081
40
0.806045945979004
40
0.870721032274581
40
0.935382170447077
40
1
40
1
40
1
40
1
41
1
10
67.5000190528383
20
24.180963139062
30
0
41
1
10
67.5000135697821
20
24.1842856237643
30
0
41
1
10
67.4998485213171
20
24.1910256044437
30
0
41
1
10
67.4991156785728
20
24.2014372729931
30
0
41
1
10
67.497964819579
20
24.2120774212046
30
0
41
1
10
67.4964250744385
20
24.2229966958979
30
0
41
1
10
67.494528789828
20
24.2341644488329
30
0
41
1
10
67.4922878652689
20
24.2455664449585
30
0
41
1
10
67.4897436472191
20
24.2570861873094
30
0
41
1
10
67.4865654705429
20
24.2701597647424
30
0
41
1
10
67.4826507571484
20
24.2848147470231
30
0
41
1
10
67.4778862067646
20
24.3010708830753
30
0
41
1
10
67.4726914969747
20
24.3174334102506
30
0
41
1
10
67.4670957294953
20
24.3338708262886
30
0
41
1
10
67.4610739264828
20
24.350502030239
30
0
41
1
10
67.4546349832701
20
24.3673158987977
30
0
41
1
10
67.4477733625201
20
24.3843046213742
30
0
41
1
10
67.44055268386
20
24.4013100857622
30
0
41
1
10
67.4329833217543
20
24.4183114391974
30
0
41
1
10
67.4277113440648
20
24.4296296326843
30
0
41
1
10
67.4250190528383
20
24.4352844860648
30
0
0
SPLINE
5
149
100
AcDbEntity
8
1
62
256
6
ByLayer
370
18
48
1
60
0
100
AcDbSpline
70
4
71
3
72
17
73
13
40
0
40
0
40
0
40
0
40
0.099984300706523
40
0.199969534408379
40
0.299955115323485
40
0.399940417596414
40
0.499924775814688
40
0.599939231561699
40
0.699954526999974
40
0.799970135019512
40
0.899985492346166
40
1
40
1
40
1
40
1
41
1
10
67.4250190528383
20
24.4352844860648
30
0
41
1
10
67.4042133027647
20
24.4789829948914
30
0
41
1
10
67.3624661393213
20
24.5662935744194
30
0
41
1
10
67.2994364583124
20
24.6969987672502
30
0
41
1
10
67.2360048635073
20
24.8274448386493
30
0
41
1
10
67.1721762500081
20
24.9576319801479
30
0
41
1
10
67.1079493907749
20
25.0875742707653
30
0
41
1
10
67.0433288502918
20
25.2172733096429
30
0
41
1
10
66.9783189910743
20
25.3467306996786
30
0
41
1
10
66.9129312355817
20
25.475934553198
30
0
41
1
10
66.8471701916345
20
25.6048852457503
30
0
41
1
10
66.8030849773077
20
25.6906848305584
30
0
41
1
10
66.7809809471617
20
25.73354250388
30
0
0
SPLINE
5
14A
100
AcDbEntity
8
1
62
256
6
ByLayer
370
18
48
1
60
0
100
AcDbSpline
70
4
71
3
72
26
73
22
40
0
40
0
40
0
40
0
40
0.0679374129289707
40
0.135911601291896
40
0.203884525105497
40
0.271820212709627
40
0.327221474866601
40
0.382661821143385
40
0.438109706109891
40
0.493539464708235
40
0.54893184074807
40
0.602015800264798
40
0.655163825299445
40
0.708316284954938
40
0.761431473662243
40
0.814487861153318
40
0.858620597513735
40
0.902771798504783
40
0.946893679845967
40
0.980856771176575
40
1
40
1
40
1
40
1
41
1
10
66.7809809471617
20
25.73354250388
30
0
41
1
10
66.7778407872951
20
25.7396309098142
30
0
41
1
10
66.771687679557
20
25.751810018046
30
0
41
1
10
66.7628386271345
20
25.7700864889406
30
0
41
1
10
66.7543875961506
20
25.7883412589423
30
0
41
1
10
66.746842494275
20
25.8054328189429
30
0
41
1
10
66.7401291051085
20
25.8213549883799
30
0
41
1
10
66.7341812861923
20
25.8361107926845
30
0
41
1
10
66.7285465924195
20
25.8507998173865
30
0
41
1
10
66.7232455194417
20
25.8653988620395
30
0
41
1
10
66.7183667577049
20
25.879687496066
30
0
41
1
10
66.7139079497917
20
25.8936592160804
30
0
41
1
10
66.7098824487621
20
25.9072992614032
30
0
41
1
10
66.7062655382509
20
25.9207739044781
30
0
41
1
10
66.7030996412675
20
25.9340378564668
30
0
41
1
10
66.7005749710112
20
25.9463220902992
30
0
41
1
10
66.6986378459299
20
25.9576365612454
30
0
41
1
10
66.6972417107752
20
25.9679924131061
30
0
41
1
10
66.6963832594367
20
25.9772828263409
30
0
41
1
10
66.6960318937028
20
25.9844488452787
30
0
41
1
10
66.6959816097956
20
25.9882601576699
30
0
41
1
10
66.6959809496749
20
25.9896216629351
30
0
0
SPLINE
5
14B
100
AcDbEntity
8
1
62
256
6
ByLayer
370
18
48
1
60
0
100
AcDbSpline
70
4
71
1
72
4
73
2
40
0
40
0
40
1
40
1
41
1
10
67.4250190528383
20
25.4767957315306
30
0
41
1
10
66.7809809471617
20
26.0101290627099
30
0
0
SPLINE
5
14C
100
AcDbEntity
8
1
62
256
6
ByLayer
370
18
48
1
60
0
100
AcDbSpline
70
4
71
3
72
31
73
27
40
0
40
0
40
0
40
0
40
0.048054652876172
40
0.0962201891174624
40
0.144389045829392
40
0.19248881030218
40
0.240488178422618
40
0.287826997545665
40
0.335311599703284
40
0.382747747798133
40
0.430020277122272
40
0.468845846094819
40
0.507805595128706
40
0.546750544291413
40
0.585555860438559
40
0.624401697788225
40
0.66338659628126
40
0.702387256461751
40
0.74125466233602
40
0.780189429605194
40
0.819244172247678
40
0.858372635477172
40
0.897489288237749
40
0.936476146561239
40
0.968237507399495
40
1
40
1
40
1
40
1
41
1
10
67.5000190528383
20
25.4946727753959
30
0
41
1
10
67.5000216934993
20
25.4927785001705
30
0
41
1
10
67.4999334053293
20
25.4890582879785
30
0
41
1
10
67.4995313647371
20
25.4836789290214
30
0
41
1
10
67.4988243824675
20
25.4785471694497
30
0
41
1
10
67.4977883882831
20
25.4737072414982
30
0
41
1
10
67.4964041979379
20
25.4692228808887
30
0
41
1
10
67.4946413091606
20
25.4651389577687
30
0
41
1
10
67.4924798906331
20
25.4615034157866
30
0
41
1
10
67.4898937028775
20
25.4583600179162
30
0
41
1
10
67.4870445219914
20
25.4559330652813
30
0
41
1
10
67.4839977512425
20
25.4541809146882
30
0
41
1
10
67.4808484936484
20
25.4530017930064
30
0
41
1
10
67.4774105121821
20
25.4522952693435
30
0
41
1
10
67.4736996474688
20
25.4520858170993
30
0
41
1
10
67.4697259787815
20
25.4524030347103
30
0
41
1
10
67.4655290612775
20
25.4532168532113
30
0
41
1
10
67.4611522731571
20
25.4545011913666
30
0
41
1
10
67.4566305428675
20
25.4562374964303
30
0
41
1
10
67.4519914735569
20
25.4584087887535
30
0
41
1
10
67.4472628351946
20
25.4609679434748
30
0
41
1
10
67.4424749120947
20
25.4638755124754
30
0
41
1
10
67.4376607388482
20
25.4670887728937
30
0
41
1
10
67.4331393452627
20
25.4703595173025
30
0
41
1
10
67.4289243107776
20
25.4736089710939
30
0
41
1
10
67.4263198695058
20
25.4757168792002
30
0
41
1
10
67.4250190528383
20
25.4767957315306
30
0
0
SPLINE
5
14D
100
AcDbEntity
8
1
62
256
6
ByLayer
370
18
48
1
60
0
100
AcDbSpline
70
4
71
3
72
25
73
21
40
0
40
0
40
0
40
0
40
0.0703646991320142
40
0.140774586425561
40
0.211183018445129
40
0.281545731830666
40
0.339136509935091
40
0.396775858834641
40
0.454424466470114
40
0.512050423989292
40
0.569629961349864
40
0.622486817297417
40
0.675382614101721
40
0.728267587680806
40
0.78110967325892
40
0.82485762741264
40
0.86868496513954
40
0.912513909352799
40
0.956292772310311
40
1
40
1
40
1
40
1
41
1
10
67.4250190528383
20
25.8919687469227
30
0
41
1
10
67.4279125038174
20
25.8866810029328
30
0
41
1
10
67.433576067342
20
25.8761026395783
30
0
41
1
10
67.4417025988643
20
25.8602258281265
30
0
41
1
10
67.449441025345
20
25.8443692076738
30
0
41
1
10
67.4563326346558
20
25.8295111426563
30
0
41
1
10
67.4624474453132
20
25.8156581077351
30
0
41
1
10
67.4678490125874
20
25.802807736634
30
0
41
1
10
67.4729393115576
20
25.7900239422262
30
0
41
1
10
67.4776967827287
20
25.7773307730986
30
0
41
1
10
67.4819809296897
20
25.7650917624351
30
0
41
1
10
67.4858068524537
20
25.7533119077652
30
0
41
1
10
67.4891803231933
20
25.7419997833664
30
0
41
1
10
67.4921800879012
20
25.7308445542077
30
0
41
1
10
67.4946233231433
20
25.7205086445831
30
0
41
1
10
67.4965626962067
20
25.710978399307
30
0
41
1
10
67.4980444861325
20
25.702240044206
30
0
41
1
10
67.4991544366188
20
25.6937177066534
30
0
41
1
10
67.4998565100886
20
25.6854572059966
30
0
41
1
10
67.5000143092092
20
25.680169628281
30
0
41
1
10
67.5000190528383
20
25.6775779752017
30
0
0
SPLINE
5
14E
100
AcDbEntity
8
1
62
256
6
ByLayer
370
18
48
1
60
0
100
AcDbSpline
70
4
71
3
72
15
73
11
40
0
40
0
40
0
40
0
40
0.124988019727269
40
0.249976734233678
40
0.374965415980309
40
0.499953391034907
40
0.624964679831859
40
0.749976738647141
40
0.874988760968207
40
1
40
1
40
1
40
1
41
1
10
66.7809809471617
20
27.0333642578061
30
0
41
1
10
66.8083687948493
20
26.9862324125538
30
0
41
1
10
66.8630091077157
20
26.891864314586
30
0
41
1
10
66.9445658849395
20
26.7500007512259
30
0
41
1
10
67.0257103559395
20
26.6078224866378
30
0
41
1
10
67.1064418343756
20
26.4653187907114
30
0
41
1
10
67.1867540509179
20
26.3224869005569
30
0
41
1
10
67.2666403890505
20
26.1793239787951
30
0
41
1
10
67.3460898015261
20
26.0358370332234
30
0
41
1
10
67.3987585867591
20
25.9399609870563
30
0
41
1
10
67.4250190528383
20
25.8919687469227
30
0
0
SPLINE
5
14F
100
AcDbEntity
8
1
62
256
6
ByLayer
370
18
48
1
60
0
100
AcDbSpline
70
4
71
3
72
31
73
27
40
0
40
0
40
0
40
0
40
0.0418509702571974
40
0.0838019086694366
40
0.125762404183144
40
0.167666864126102
40
0.209478762733958
40
0.252050360988778
40
0.294817062958815
40
0.337617285852486
40
0.380320728027506
40
0.422839032586043
40
0.460345170371106
40
0.498007818841077
40
0.535729807204652
40
0.573403868615724
40
0.610919618713603
40
0.653083237336767
40
0.695360804398519
40
0.737661735759503
40
0.779857297621756
40
0.82400151245275
40
0.868255985925036
40
0.912601947653693
40
0.95698833177957
40
1
40
1
40
1
40
1
41
1
10
66.7809809471617
20
27.2591932680759
30
0
41
1
10
66.7790710771432
20
27.2607552831172
30
0
41
1
10
66.7752501323264
20
27.2637995257076
30
0
41
1
10
66.7695190306172
20
27.2681299214858
30
0
41
1
10
66.7638097216834
20
27.2721850505281
30
0
41
1
10
66.758149030054
20
27.2759276464124
30
0
41
1
10
66.7525265714125
20
27.2793440281147
30
0
41
1
10
66.7469644485338
20
27.2823800069184
30
0
41
1
10
66.7414926600378
20
27.2849946087804
30
0
41
1
10
66.736181918009
20
27.2871393566906
30
0
41
1
10
66.7310878255776
20
27.2887701748305
30
0
41
1
10
66.7264460117024
20
27.289804464693
30
0
41
1
10
66.7222635313124
20
27.2902730603519
30
0
41
1
10
66.7185082916417
20
27.2902653142244
30
0
41
1
10
66.7150188146351
20
27.2898111291786
30
0
41
1
10
66.7118200790055
20
27.2889193631917
30
0
41
1
10
66.7088136466575
20
27.2875377499989
30
0
41
1
10
66.7060576058753
20
27.2856091782994
30
0
41
1
10
66.7035797527174
20
27.2831235707337
30
0
41
1
10
66.7014778416102
20
27.2801961138497
30
0
41
1
10
66.6997171742694
20
27.2768146937088
30
0
41
1
10
66.6983038686849
20
27.2729916575414
30
0
41
1
10
66.69722812311
20
27.2687502209386
30
0
41
1
10
66.6964890316148
20
27.2641850774236
30
0
41
1
10
66.696071389767
20
27.2593828444103
30
0
41
1
10
66.6959795973738
20
27.2560430121363
30
0
41
1
10
66.6959809471908
20
27.254359705032
30
0
0
SPLINE
5
150
100
AcDbEntity
8
1
62
256
6
ByLayer
370
18
48
1
60
0
100
AcDbSpline
70
4
71
1
72
4
73
2
40
0
40
0
40
1
40
1
41
1
10
66.7809809471617
20
27.2591932680759
30
0
41
1
10
67.4250190528383
20
26.7329786727337
30
0
0
SPLINE
5
151
100
AcDbEntity
8
1
62
256
6
ByLayer
370
18
48
1
60
0
100
AcDbSpline
70
4
71
3
72
28
73
24
40
0
40
0
40
0
40
0
40
0.0524584669507038
40
0.10503624534241
40
0.157573609121797
40
0.209976832033833
40
0.252690110048784
40
0.29559896909632
40
0.338542021410309
40
0.381388608136358
40
0.424049424457435
40
0.471106167505601
40
0.518369573476716
40
0.565643545427843
40
0.612714759300509
40
0.655226222908207
40
0.697852046503927
40
0.740501374512978
40
0.783044972530348
40
0.837193950106235
40
0.89147436585682
40
0.945795445189323
40
1
40
1
40
1
40
1
41
1
10
67.4250190528383
20
26.7329786727337
30
0
41
1
10
67.4271289092409
20
26.7312519781661
30
0
41
1
10
67.4313467236604
20
26.7279141084773
30
0
41
1
10
67.4376673252438
20
26.7232416836132
30
0
41
1
10
67.4439391583672
20
26.718977396953
30
0
41
1
10
67.4497428770359
20
26.7154105153947
30
0
41
1
10
67.4550610876843
20
26.7125106613222
30
0
41
1
10
67.4598963295931
20
26.7102033768067
30
0
41
1
10
67.4645884970014
20
26.7083111852671
30
0
41
1
10
67.4690884901898
20
26.7068724017865
30
0
41
1
10
67.4735015828056
20
26.705889587549
30
0
41
1
10
67.4777540201027
20
26.7054706107586
30
0
41
1
10
67.4817891022597
20
26.7056603194825
30
0
41
1
10
67.4854403469768
20
26.7064538778681
30
0
41
1
10
67.4885675400942
20
26.7077991206586
30
0
41
1
10
67.4911933871107
20
26.7096205271186
30
0
41
1
10
67.49338684531
20
26.7118054699971
30
0
41
1
10
67.4952445012667
20
26.7143799805358
30
0
41
1
10
67.4969123332276
20
26.7175753047528
30
0
41
1
10
67.4982935804559
20
26.7214751793212
30
0
41
1
10
67.4993125790201
20
26.726127950777
30
0
41
1
10
67.4998944338363
20
26.7311757214082
30
0
41
1
10
67.5000225180197
20
26.7347548022513
30
0
41
1
10
67.5000190528383
20
26.7365998497609
30
0
0
SPLINE
5
152
100
AcDbEntity
8
1
62
256
6
ByLayer
370
18
48
1
60
0
100
AcDbSpline
70
4
71
3
72
26
73
22
40
0
40
0
40
0
40
0
40
0.0385565456335216
40
0.0771626152149088
40
0.115782486065641
40
0.154357874549091
40
0.207484417675796
40
0.260651785792157
40
0.313791982419117
40
0.372639292422533
40
0.43154325504208
40
0.490460013651496
40
0.549324788835577
40
0.609734126151536
40
0.670183604340457
40
0.73063808193719
40
0.791054241054393
40
0.843204823629037
40
0.895355596477879
40
0.947677772234533
40
1
40
1
40
1
40
1
41
1
10
67.5000190528383
20
26.8850774567956
30
0
41
1
10
67.5000156988944
20
26.8869213567093
30
0
41
1
10
67.4998922940058
20
26.8906987769201
30
0
41
1
10
67.4993429890506
20
26.8966459640752
30
0
41
1
10
67.4984702724511
20
26.9028220610493
30
0
41
1
10
67.4971513946267
20
26.9099983615648
30
0
41
1
10
67.4952787645747
20
26.9182331744385
30
0
41
1
10
67.4927485418931
20
26.9275696063445
30
0
41
1
10
67.4896879538247
20
26.9374777331721
30
0
41
1
10
67.4860889950432
20
26.9479444718229
30
0
41
1
10
67.4819377465978
20
26.9589592594631
30
0
41
1
10
67.4773901397402
20
26.9701366316938
30
0
41
1
10
67.47243739173
20
26.9815431055506
30
0
41
1
10
67.4670969143937
20
26.9931596593276
30
0
41
1
10
67.4613767954153
20
27.0049729151236
30
0
41
1
10
67.4553435860064
20
27.0168618133042
30
0
41
1
10
67.4493052525893
20
27.0282621967314
30
0
41
1
10
67.4433205420038
20
27.0391517294813
30
0
41
1
10
67.4374290121602
20
27.0495293380165
30
0
41
1
10
67.4313365434734
20
27.059933715096
30
0
41
1
10
67.4271459415652
20
27.0668801470431
30
0
41
1
10
67.4250190528383
20
27.0703546552214
30
0
0
SPLINE
5
153
100
AcDbEntity
8
1
62
256
6
ByLayer
370
18
48
1
60
0
100
AcDbSpline
70
4
71
3
72
14
73
10
40
0
40
0
40
0
40
0
40
0.124991812352006
40
0.249984142995058
40
0.374976497021849
40
0.499968341260913
40
0.666645355677589
40
0.833322943344418
40
1
40
1
40
1
40
1
41
1
10
67.4250190528383
20
27.0703546552213
30
0
41
1
10
67.3986082787948
20
27.1135001163048
30
0
41
1
10
67.3456786053699
20
27.1997024295847
30
0
41
1
10
67.2659578252273
20
27.3287386093975
30
0
41
1
10
67.1859173127903
20
27.4575104822427
30
0
41
1
10
67.0966282805779
20
27.6003059126806
30
0
41
1
10
66.9979630265859
20
27.7570168346806
30
0
41
1
10
66.8897810627519
20
27.9275224292531
30
0
41
1
10
66.8173069367697
20
28.0408926283996
30
0
41
1
10
66.7809809471617
20
28.0975021651337
30
0
0
SPLINE
5
154
100
AcDbEntity
8
1
62
256
6
ByLayer
370
18
48
1
60
0
100
AcDbSpline
70
4
71
3
72
28
73
24
40
0
40
0
40
0
40
0
40
0.0576434457896765
40
0.115334306644699
40
0.173037908391
40
0.230722803630645
40
0.288361241926805
40
0.347864982013694
40
0.407444608523973
40
0.467035889738405
40
0.526589056622697
40
0.58607057724888
40
0.629432430293987
40
0.672876860397839
40
0.716345522842708
40
0.759793015153585
40
0.803188548238531
40
0.846517747276725
40
0.882857009400176
40
0.919313095927711
40
0.955801332844349
40
0.992256510541192
40
1
40
1
40
1
40
1
41
1
10
66.7809809471617
20
28.0975021651337
30
0
41
1
10
66.7783586657032
20
28.101588410504
30
0
41
1
10
66.7731929633319
20
28.1097563335332
30
0
41
1
10
66.7656807566845
20
28.1219931474749
30
0
41
1
10
66.7584205918514
20
28.1341967695732
30
0
41
1
10
66.7514276102828
20
28.1463478472839
30
0
41
1
10
66.7446435840536
20
28.1585603796227
30
0
41
1
10
66.7380893463312
20
28.1708223454782
30
0
41
1
10
66.7317974987432
20
28.1831136879684
30
0
41
1
10
66.7258659668506
20
28.1952780879298
30
0
41
1
10
66.7203289763156
20
28.207277970645
30
0
41
1
10
66.7156797056184
20
28.2180160525706
30
0
41
1
10
66.7118159283356
20
28.2275294757066
30
0
41
1
10
66.7086386689689
20
28.23586405716
30
0
41
1
10
66.7057458942934
20
28.2440450991562
30
0
41
1
10
66.7031651744041
20
28.2520399814694
30
0
41
1
10
66.700924543766
20
28.2598156852559
30
0
41
1
10
66.699150485371
20
28.2669393528771
30
0
41
1
10
66.6978027045053
20
28.2734327865312
30
0
41
1
10
66.6968396118515
20
28.2793198684164
30
0
41
1
10
66.6962041223779
20
28.2849604838867
30
0
41
1
10
66.6960008158607
20
28.2889067003466
30
0
41
1
10
66.6959815518831
20
28.2909900468425
30
0
41
1
10
66.6959809482201
20
28.291352741021
30
0
0
SPLINE
5
155
100
AcDbEntity
8
1
62
256
6
ByLayer
370
18
48
1
60
0
100
AcDbSpline
70
4
71
1
72
4
73
2
40
0
40
0
40
1
40
1
41
1
10
67.4250190528383
20
27.7553517208022
30
0
41
1
10
66.7809809471617
20
28.2827440993611
30
0
0
SPLINE
5
156
100
AcDbEntity
8
1
62
256
6
ByLayer
370
18
48
1
60
0
100
AcDbSpline
70
4
71
3
72
28
73
24
40
0
40
0
40
0
40
0
40
0.0532451984862295
40
0.106623457847048
40
0.159963302157196
40
0.213155978566855
40
0.256375230511595
40
0.299781977204486
40
0.343230315378392
40
0.386594473686035
40
0.429777854094208
40
0.478355662239488
40
0.527125706031224
40
0.575910453560991
40
0.624508390467918
40
0.670814284670918
40
0.717241510031573
40
0.763693860380649
40
0.810034102259581
40
0.857475944539275
40
0.904994787763205
40
0.952532452388734
40
1
40
1
40
1
40
1
41
1
10
67.5000190528383
20
27.7467561030827
30
0
41
1
10
67.5000217377116
20
27.7452023365042
30
0
41
1
10
67.4998846709735
20
27.742219462637
30
0
41
1
10
67.4992640195426
20
27.7381085405537
30
0
41
1
10
67.4981895645569
20
27.7344293321441
30
0
41
1
10
67.4967337198915
20
27.7314329540114
30
0
41
1
10
67.4949587202176
20
27.729078803626
30
0
41
1
10
67.4929593875314
20
27.7272800921892
30
0
41
1
10
67.4906152262651
20
27.7258863578889
30
0
41
1
10
67.4879335091881
20
27.7249242573039
30
0
41
1
10
67.4847909265539
20
27.7243980985439
30
0
41
1
10
67.4811308578603
20
27.7244099509419
30
0
41
1
10
67.4769482877481
20
27.7250064836098
30
0
41
1
10
67.4724319170185
20
27.7261644750352
30
0
41
1
10
67.4676994603874
20
27.7278424768486
30
0
41
1
10
67.4627998861038
20
27.7299963174096
30
0
41
1
10
67.4577881543251
20
27.7325467180678
30
0
41
1
10
67.4526246017472
20
27.7354893947642
30
0
41
1
10
67.4473033879668
20
27.7388138938859
30
0
41
1
10
67.4418477013506
20
27.7424987442879
30
0
41
1
10
67.4362785612787
20
27.7465137994633
30
0
41
1
10
67.4306614212564
20
27.7507988818428
30
0
41
1
10
67.4269022959589
20
27.7538079552808
30
0
41
1
10
67.4250190528383
20
27.7553517208022
30
0
0
SPLINE
5
157
100
AcDbEntity
8
1
62
256
6
ByLayer
370
18
48
1
60
0
100
AcDbSpline
70
4
71
3
72
26
73
22
40
0
40
0
40
0
40
0
40
0.069418385187674
40
0.138894320983783
40
0.208365561373678
40
0.277777538347238
40
0.335062384787066
40
0.392417079551467
40
0.449783723114793
40
0.507116437858222
40
0.564382827527187
40
0.614843611726143
40
0.66532500759759
40
0.715778493470458
40
0.767305989859118
40
0.818866201501411
40
0.870377823882291
40
0.902655409558201
40
0.93493183370036
40
0.96746672124677
40
1
40
1
40
1
40
1
41
1
10
67.4250190528383
20
28.0300672644229
30
0
41
1
10
67.4278146987206
20
28.0259125169863
30
0
41
1
10
67.4333035652913
20
28.017612529303
30
0
41
1
10
67.4412323531875
20
28.0051903865136
30
0
41
1
10
67.4488285297128
20
27.9928267093042
30
0
41
1
10
67.4556488859442
20
27.9812601183487
30
0
41
1
10
67.4617449761125
20
27.9704915819485
30
0
41
1
10
67.4671683557849
20
27.9605139998693
30
0
41
1
10
67.472298449873
20
27.9506385235169
30
0
41
1
10
67.4771085884201
20
27.9408937703097
30
0
41
1
10
67.4813977748833
20
27.9316832053965
30
0
41
1
10
67.4851892843573
20
27.9230073883516
30
0
41
1
10
67.4885050632923
20
27.9148652924634
30
0
41
1
10
67.4915020667026
20
27.9068540479758
30
0
41
1
10
67.4941414202883
20
27.8990088810009
30
0
41
1
10
67.4963732446373
20
27.8913776071072
30
0
41
1
10
67.4979153429554
20
27.8849731243893
30
0
41
1
10
67.4989201028129
20
27.8797100131171
30
0
41
1
10
67.4995411917653
20
27.8754719472038
30
0
41
1
10
67.4999297616955
20
27.8714048696052
30
0
41
1
10
67.500017165836
20
27.8688287432403
30
0
41
1
10
67.5000190528383
20
27.8675746358548
30
0
0
SPLINE
5
158
100
AcDbEntity
8
1
62
256
6
ByLayer
370
18
48
1
60
0
100
AcDbSpline
70
4
71
3
72
13
73
9
40
0
40
0
40
0
40
0
40
0.166659547741856
40
0.333319457245375
40
0.499978977163021
40
0.666652529084657
40
0.833326479068975
40
1
40
1
40
1
40
1
41
1
10
66.7809809471617
20
28.9690798577815
30
0
41
1
10
66.8171694217323
20
28.9172918182931
30
0
41
1
10
66.8894121626003
20
28.8135913895099
30
0
41
1
10
66.9973767810993
20
28.6576701984005
30
0
41
1
10
67.1049347250992
20
28.5013677179474
30
0
41
1
10
67.2120790510041
20
28.3446797774009
30
0
41
1
10
67.3188024610356
20
28.1876019673066
30
0
41
1
10
67.3896614705207
20
28.0826220964942
30
0
41
1
10
67.4250190528383
20
28.0300672644229
30
0
0
SPLINE
5
159
100
AcDbEntity
8
1
62
256
6
ByLayer
370
18
48
1
60
0
100
AcDbSpline
70
4
71
3
72
29
73
25
40
0
40
0
40
0
40
0
40
0.0513526040109111
40
0.102841569296679
40
0.15434442820405
40
0.205771545630417
40
0.257072144405529
40
0.300261560263661
40
0.343596270334637
40
0.386956606325782
40
0.430246059568339
40
0.473397393491534
40
0.516843790503293
40
0.560481543932876
40
0.60418056914422
40
0.647810766239599
40
0.691250797852203
40
0.739113591380791
40
0.787126060887317
40
0.835161054044098
40
0.883054655001951
40
0.935294583898581
40
0.987695556224732
40
1
40
1
40
1
40
1
41
1
10
66.7809809471617
20
29.1201256110366
30
0
41
1
10
66.7786897920279
20
29.1220264966845
30
0
41
1
10
66.7741208068679
20
29.1257398924256
30
0
41
1
10
66.7673113714408
20
29.1310474231574
30
0
41
1
10
66.7605784040441
20
29.1360456315555
30
0
41
1
10
66.7539600843625
20
29.1406890995531
30
0
41
1
10
66.7478312262267
20
29.144710927414
30
0
41
1
10
66.7421944951022
20
29.148138893707
30
0
41
1
10
66.7370385216772
20
29.1510243464897
30
0
41
1
10
66.732060395607
20
29.1535435199145
30
0
41
1
10
66.7273017670316
20
29.1556610621169
30
0
41
1
10
66.7227862219664
20
29.1573508144849
30
0
41
1
10
66.7185526644043
20
29.1585672414434
30
0
41
1
10
66.7146196716208
20
29.1593047011183
30
0
41
1
10
66.7110178126011
20
29.1595604154002
30
0
41
1
10
66.7077796504899
20
29.1593292144109
30
0
41
1
10
66.7048368097312
20
29.1585773193536
30
0
41
1
10
66.7022591855404
20
29.1572374181152
30
0
41
1
10
66.7000763706081
20
29.1552981787098
30
0
41
1
10
66.6983634698191
20
29.1528401939256
30
0
41
1
10
66.6970792143353
20
29.1498071141282
30
0
41
1
10
66.6962582969117
20
29.1461820722069
30
0
41
1
10
66.6960171059439
20
29.143032800962
30
0
41
1
10
66.6959832479814
20
29.1412009238376
30
0
41
1
10
66.6959809484386
20
29.1408487377063
30
0
0
SPLINE
5
15A
100
AcDbEntity
8
1
62
256
6
ByLayer
370
18
48
1
60
0
100
AcDbSpline
70
4
71
1
72
4
73
2
40
0
40
0
40
1
40
1
41
1
10
66.7809809471617
20
29.1201256110366
30
0
41
1
10
67.4250190528383
20
28.5859380746278
30
0
0
SPLINE
5
15B
100
AcDbEntity
8
1
62
256
6
ByLayer
370
18
48
1
60
0
100
AcDbSpline
70
4
71
3
72
28
73
24
40
0
40
0
40
0
40
0
40
0.0517942260672874
40
0.103726841685633
40
0.155673725142633
40
0.207543891744791
40
0.259285606228348
40
0.30284945361383
40
0.346559890877695
40
0.390296549068188
40
0.433962032729016
40
0.477488053254235
40
0.521304715779411
40
0.565313106681366
40
0.609383177759918
40
0.653384565053923
40
0.697195327954682
40
0.745616888346256
40
0.79418983930467
40
0.842785284978115
40
0.891237613235511
40
0.945615412809512
40
1
40
1
40
1
40
1
41
1
10
67.4250190528383
20
28.5859380746278
30
0
41
1
10
67.4270552085959
20
28.5842471951943
30
0
41
1
10
67.4311152319761
20
28.5809439090786
30
0
41
1
10
67.4371648710636
20
28.5762222721569
30
0
41
1
10
67.4431448145404
20
28.5717752520765
30
0
41
1
10
67.4490207416244
20
28.5676431324031
30
0
41
1
10
67.4544597258449
20
28.5640632276201
30
0
41
1
10
67.4594594566322
20
28.5610108042988
30
0
41
1
10
67.4640302867854
20
28.5584398490246
30
0
41
1
10
67.4684405541007
20
28.5561930300948
30
0
41
1
10
67.472653108673
20
28.5543012742929
30
0
41
1
10
67.476646593749
20
28.552787480622
30
0
41
1
10
67.4803863220898
20
28.5516911545557
30
0
41
1
10
67.4838558889808
20
28.5510166204502
30
0
41
1
10
67.4870284585977
20
28.5507660986912
30
0
41
1
10
67.489875310948
20
28.5509438684656
30
0
41
1
10
67.4924590943582
20
28.5515791242757
30
0
41
1
10
67.494715806259
20
28.5527325646898
30
0
41
1
10
67.4966171160249
20
28.5544159160059
30
0
41
1
10
67.4980947609936
20
28.5565583439423
30
0
41
1
10
67.49919614692
20
28.5592341504554
30
0
41
1
10
67.499867722528
20
28.5624777091251
30
0
41
1
10
67.500022249433
20
28.5650064677964
30
0
41
1
10
67.5000190528383
20
28.5663467902296
30
0
0
SPLINE
5
15C
100
AcDbEntity
8
1
62
256
6
ByLayer
370
18
48
1
60
0
100
AcDbSpline
70
4
71
3
72
26
73
22
40
0
40
0
40
0
40
0
40
0.0443326812998323
40
0.0887211730373385
40
0.133070227576349
40
0.178949173651651
40
0.224867580852565
40
0.270757733027398
40
0.31706476785049
40
0.36341766196557
40
0.409780028927915
40
0.456099993578761
40
0.519542340846487
40
0.583027227098108
40
0.64647973319343
40
0.70500878791498
40
0.763561821599917
40
0.822094522947771
40
0.881388960656232
40
0.940703804009748
40
1
40
1
40
1
40
1
41
1
10
67.5000190528383
20
28.6637522287218
30
0
41
1
10
67.5000147722943
20
28.6651174837876
30
0
41
1
10
67.4998562469004
20
28.667976583023
30
0
41
1
10
67.4991515026394
20
28.6726682489988
30
0
41
1
10
67.4980172222811
20
28.6777540993142
30
0
41
1
10
67.4964658419227
20
28.68321055435
30
0
41
1
10
67.4945184350739
20
28.6890068753119
30
0
41
1
10
67.4922163285927
20
28.6950652544798
30
0
41
1
10
67.4895850191107
20
28.701356986226
30
0
41
1
10
67.4866458162525
20
28.7078592035373
30
0
41
1
10
67.4834303236158
20
28.7145276383619
30
0
41
1
10
67.4795336390929
20
28.7221780335794
30
0
41
1
10
67.4748614720955
20
28.7308547582822
30
0
41
1
10
67.4693254862823
20
28.7405876314073
30
0
41
1
10
67.4635754532424
20
28.7502303297014
30
0
41
1
10
67.4576731977035
20
28.7597408707064
30
0
41
1
10
67.4516665979747
20
28.7690896809876
30
0
41
1
10
67.4453858625386
20
28.7785599366722
30
0
41
1
10
67.4388444566962
20
28.7881367424941
30
0
41
1
10
67.4320518009407
20
28.7978082039038
30
0
41
1
10
67.4273864893218
20
28.8042795643182
30
0
41
1
10
67.4250190528383
20
28.8075215858111
30
0
0
SPLINE
5
15D
100
AcDbEntity
8
1
62
256
6
ByLayer
370
18
48
1
60
0
100
AcDbSpline
70
4
71
3
72
13
73
9
40
0
40
0
40
0
40
0
40
0.166661617296802
40
0.333323529256958
40
0.499985167290288
40
0.666656682522076
40
0.833328466119308
40
1
40
1
40
1
40
1
41
1
10
67.4250190528383
20
28.8075215858111
30
0
41
1
10
67.3895651718396
20
28.8560787485684
30
0
41
1
10
67.3185472039753
20
28.9530852706117
30
0
41
1
10
67.2116871383037
20
29.0982694839994
30
0
41
1
10
67.1044999431413
20
29.2431366263208
30
0
41
1
10
66.9969909587304
20
29.3876904443295
30
0
41
1
10
66.8891652592373
20
29.5319344770259
30
0
41
1
10
66.8170767599628
20
29.6278923628918
30
0
41
1
10
66.7809809471617
20
29.6758197623512
30
0
0
SPLINE
5
15E
100
AcDbEntity
8
1
62
256
6
ByLayer
370
18
48
1
60
0
100
AcDbSpline
70
4
71
3
72
27
73
23
40
0
40
0
40
0
40
0
40
0.0633031817516702
40
0.126656597458663
40
0.190004723179249
40
0.253300685478671
40
0.30548822630565
40
0.357737782799681
40
0.409998341319397
40
0.462229147947971
40
0.514400944844318
40
0.560645730728375
40
0.607003506535449
40
0.653396065181477
40
0.699761498386887
40
0.746056606011068
40
0.792259520380573
40
0.836031412555026
40
0.87994440287278
40
0.923872364119695
40
0.96772225425069
40
1
40
1
40
1
40
1
41
1
10
66.7809809471617
20
29.6758197623512
30
0
41
1
10
66.7781394305975
20
29.679592177237
30
0
41
1
10
66.7725406084138
20
29.687117749519
30
0
41
1
10
66.7643921702379
20
29.6983495097622
30
0
41
1
10
66.7565213617605
20
29.7094960159861
30
0
41
1
10
66.7493923387976
20
29.719889414773
30
0
41
1
10
66.7429641871686
20
29.729534005002
30
0
41
1
10
66.7371932065288
20
29.7384415638593
30
0
41
1
10
66.7316735938097
20
29.7472315359797
30
0
41
1
10
66.7264298793864
20
29.7558777226083
30
0
41
1
10
66.7216711517838
20
29.7640372188633
30
0
41
1
10
66.7173768729672
20
29.7717165739884
30
0
41
1
10
66.7135267770438
20
29.7789227858566
30
0
41
1
10
66.7099698458078
20
29.7859450495459
30
0
41
1
10
66.7067370562626
20
29.7927473031054
30
0
41
1
10
66.7038599325574
20
29.7992930313054
30
0
41
1
10
66.7014101345269
20
29.8054416627797
30
0
41
1
10
66.6993974918759
20
29.8111794923375
30
0
41
1
10
66.6978276787034
20
29.816492645071
30
0
41
1
10
66.6966973145757
20
29.8214412184991
30
0
41
1
10
66.6960991259537
20
29.8255784926968
30
0
41
1
10
66.6959840033536
20
29.8279601891787
30
0
41
1
10
66.6959809482594
20
29.8289289227777
30
0
0
SPLINE
5
15F
100
AcDbEntity
8
1
62
256
6
ByLayer
370
18
48
1
60
0
100
AcDbSpline
70
4
71
2
72
6
73
3
40
0
40
0
40
0
40
1
40
1
40
1
41
1
10
67.4250190528383
20
29.25167879985
30
0
41
1
10
67.1031189142756
20
29.5244849354744
30
0
41
1
10
66.7809809471617
20
29.7969165050502
30
0
0
SPLINE
5
160
100
AcDbEntity
8
1
62
256
6
ByLayer
370
18
48
1
60
0
100
AcDbSpline
70
4
71
3
72
27
73
23
40
0
40
0
40
0
40
0
40
0.0523540730095836
40
0.104869956945876
40
0.157358301763362
40
0.209674701685252
40
0.251961335142545
40
0.294408374245541
40
0.336909327401105
40
0.379355196139172
40
0.421640844278745
40
0.471734371756178
40
0.521982215129311
40
0.572252705832984
40
0.622377208574096
40
0.676911374560327
40
0.731615060222849
40
0.78641832752084
40
0.84120099748877
40
0.895801621776819
40
0.947899524010962
40
1
40
1
40
1
40
1
41
1
10
67.5000190528383
20
29.2218312162063
30
0
41
1
10
67.500020003232
20
29.2207729300689
30
0
41
1
10
67.4998641965068
20
29.2188059620586
30
0
41
1
10
67.4991622397905
20
29.2162994400596
30
0
41
1
10
67.4979742286016
20
29.2142825894966
30
0
41
1
10
67.4963935149589
20
29.2128875584052
30
0
41
1
10
67.4945040698604
20
29.2120441019297
30
0
41
1
10
67.4924181877905
20
29.2116381432757
30
0
41
1
10
67.490012787598
20
29.2116059258856
30
0
41
1
10
67.4873054197817
20
29.2119481778459
30
0
41
1
10
67.4841223827954
20
29.2127126546975
30
0
41
1
10
67.4804053819207
20
29.2139889011583
30
0
41
1
10
67.4761348441901
20
29.2158256339416
30
0
41
1
10
67.4715586620233
20
29.2181190522678
30
0
41
1
10
67.466575460229
20
29.2209185718741
30
0
41
1
10
67.4611883114797
20
29.2242437048495
30
0
41
1
10
67.4554165169174
20
29.2280859871202
30
0
41
1
10
67.4494509494293
20
29.2323083944352
30
0
41
1
10
67.443340529511
20
29.2368605839207
30
0
41
1
10
67.4372146359562
20
29.241630363489
30
0
41
1
10
67.4311024994752
20
29.2465736653666
30
0
41
1
10
67.4270542239537
20
29.2499529843074
30
0
41
1
10
67.4250190528383
20
29.25167879985
30
0
0
SPLINE
5
161
100
AcDbEntity
8
1
62
256
6
ByLayer
370
18
48
1
60
0
100
AcDbSpline
70
4
71
3
72
27
73
23
40
0
40
0
40
0
40
0
40
0.0612089722996065
40
0.122465923312058
40
0.183717829296401
40
0.244919916516039
40
0.307972387699494
40
0.371096444866114
40
0.434206222850557
40
0.497239199506105
40
0.543551513765976
40
0.589882652697853
40
0.636189638207726
40
0.683411701386205
40
0.730661455449978
40
0.777873857662641
40
0.814434298748763
40
0.85101356955305
40
0.887568650457919
40
0.925039051967628
40
0.962537542354899
40
1
40
1
40
1
40
1
41
1
10
67.4250190528383
20
29.4264464721899
30
0
41
1
10
67.4274453310322
20
29.4233558725452
30
0
41
1
10
67.4322298370532
20
29.4171928226975
30
0
41
1
10
67.439204940019
20
29.4080018611605
30
0
41
1
10
67.4459546278431
20
29.3988873688358
30
0
41
1
10
67.4525261898479
20
29.389776475459
30
0
41
1
10
67.4588928557891
20
29.3806885008922
30
0
41
1
10
67.465019985208
20
29.371649745311
30
0
41
1
10
67.4708118836746
20
29.362781513446
30
0
41
1
10
67.4757541852712
20
29.3548839838414
30
0
41
1
10
67.4799256231208
20
29.347925098342
30
0
41
1
10
67.4834117325037
20
29.3418594923408
30
0
41
1
10
67.4866622366982
20
29.3359203591787
30
0
41
1
10
67.4896490940478
20
29.3301335902371
30
0
41
1
10
67.4923398468906
20
29.3245308036145
30
0
41
1
10
67.4945103713726
20
29.3195820071636
30
0
41
1
10
67.4962208747347
20
29.3152526067417
30
0
41
1
10
67.4975395458054
20
29.3114959295888
30
0
41
1
10
67.4986106015255
20
29.3079183309698
30
0
41
1
10
67.4994067689828
20
29.3045495115143
30
0
41
1
10
67.4999050557611
20
29.3014165533846
30
0
41
1
10
67.5000168061092
20
29.2995275919724
30
0
41
1
10
67.5000190528383
20
29.2986314551885
30
0
0
SPLINE
5
162
100
AcDbEntity
8
1
62
256
6
ByLayer
370
18
48
1
60
0
100
AcDbSpline
70
4
71
3
72
13
73
9
40
0
40
0
40
0
40
0
40
0.166663274663073
40
0.33332672234509
40
0.499989984415984
40
0.666659931133777
40
0.833330067271027
40
1
40
1
40
1
40
1
41
1
10
66.7809809471617
20
30.2363843093967
30
0
41
1
10
66.8170044809823
20
30.191648722897
30
0
41
1
10
66.8889714654715
20
30.1020918895989
30
0
41
1
10
66.9966834496937
20
29.9675013516936
30
0
41
1
10
67.1041527250742
20
29.8326491185128
30
0
41
1
10
67.2113754650939
20
29.6975321478221
30
0
41
1
10
67.3183476401454
20
29.5621472195247
30
0
41
1
10
67.3894903801908
20
29.4717099628991
30
0
41
1
10
67.4250190528383
20
29.4264464721899
30
0
0
SPLINE
5
163
100
AcDbEntity
8
1
62
256
6
ByLayer
370
18
48
1
60
0
100
AcDbSpline
70
4
71
3
72
29
73
25
40
0
40
0
40
0
40
0
40
0.0501764632483238
40
0.100494749764774
40
0.150858605651004
40
0.201190614206192
40
0.251435309768347
40
0.301562585579434
40
0.349098266937446
40
0.396790482584506
40
0.444508652297237
40
0.492148951594879
40
0.539640950529559
40
0.587520846528859
40
0.635623778069764
40
0.683790031180095
40
0.731868566038874
40
0.7797279057897
40
0.820942835584198
40
0.862288889716683
40
0.903691498706022
40
0.94506042490646
40
0.986294599585741
40
1
40
1
40
1
40
1
41
1
10
66.7809809471617
20
30.3304402666759
30
0
41
1
10
66.778767524658
20
30.3323615849659
30
0
41
1
10
66.7743604313983
20
30.3361429935188
30
0
41
1
10
66.7678147271951
20
30.3416290866704
30
0
41
1
10
66.7613570206374
20
30.3468997915288
30
0
41
1
10
66.7550165067052
20
30.3519234710858
30
0
41
1
10
66.748824849857
20
30.3566653199483
30
0
41
1
10
66.7429109746669
20
30.3610201291027
30
0
41
1
10
66.7372883648333
20
30.364974815567
30
0
41
1
10
66.7319676218624
20
30.3685251499118
30
0
41
1
10
66.7268801651493
20
30.371712233269
30
0
41
1
10
66.7220712827718
20
30.3744956273513
30
0
41
1
10
66.7175656987032
20
30.3768478954403
30
0
41
1
10
66.7134097213218
20
30.3787175342922
30
0
41
1
10
66.7096268939179
20
30.3800893483944
30
0
41
1
10
66.7062522737349
20
30.3809496892995
30
0
41
1
10
66.7033231568682
20
30.381281882907
30
0
41
1
10
66.7009857816288
20
30.381077195791
30
0
41
1
10
66.6991910380258
20
30.3804057405154
30
0
41
1
10
66.6978477771911
20
30.379375073029
30
0
41
1
10
66.6968605681356
20
30.3779666409057
30
0
41
1
10
66.6962256952633
20
30.3761996374755
30
0
41
1
10
66.6960049688669
20
30.3745554028499
30
0
41
1
10
66.6959806466885
20
30.3735193527287
30
0
41
1
10
66.6959809478526
20
30.3732546567526
30
0
0
SPLINE
5
164
100
AcDbEntity
8
1
62
256
6
ByLayer
370
18
48
1
60
0
100
AcDbSpline
70
4
71
2
72
6
73
3
40
0
40
0
40
0
40
1
40
1
40
1
41
1
10
66.7809809471617
20
30.3304402666759
30
0
41
1
10
67.1032069048757
20
30.0508388142639
30
0
41
1
10
67.4250190528383
20
29.7706026319897
30
0
0
SPLINE
5
165
100
AcDbEntity
8
1
62
256
6
ByLayer
370
18
48
1
60
0
100
AcDbSpline
70
4
71
3
72
26
73
22
40
0
40
0
40
0
40
0
40
0.0609799708690302
40
0.122138731643203
40
0.183316444373002
40
0.244395383430533
40
0.305308217626539
40
0.353377817358283
40
0.401605688869018
40
0.449860105055514
40
0.498036068696011
40
0.546061993115738
40
0.594476286300732
40
0.643115560405537
40
0.691818558548676
40
0.740432945553227
40
0.788826269513106
40
0.841514744649828
40
0.894389240658922
40
0.947283914482619
40
1
40
1
40
1
40
1
41
1
10
67.4250190528384
20
29.7706026319897
30
0
41
1
10
67.4273921616701
20
29.7685351532612
30
0
41
1
10
67.4321088687712
20
29.7644815568308
30
0
41
1
10
67.4390918323484
20
29.7586445363345
30
0
41
1
10
67.4459419818643
20
29.753099438411
30
0
41
1
10
67.4526132706563
20
29.7478954728317
30
0
41
1
10
67.4586109389123
20
29.7434174612518
30
0
41
1
10
67.4639512051284
20
29.7396172330641
30
0
41
1
10
67.468671262926
20
29.7364224654801
30
0
41
1
10
67.4731788365635
20
29.7335485092628
30
0
41
1
10
67.4774333684904
20
29.7310309803068
30
0
41
1
10
67.4814123938218
20
29.7288939057962
30
0
41
1
10
67.4850742655372
20
29.7271822349957
30
0
41
1
10
67.4883978800041
20
29.7259091520808
30
0
41
1
10
67.4913521327769
20
29.725087052513
30
0
41
1
10
67.4939038958123
20
29.7247309443896
30
0
41
1
10
67.4960860627197
20
29.724861246084
30
0
41
1
10
67.4978248309381
20
29.7255465897764
30
0
41
1
10
67.4990932359814
20
29.7267992656883
30
0
41
1
10
67.4998505402043
20
29.7285732506471
30
0
41
1
10
67.5000190384621
20
29.7300825606953
30
0
41
1
10
67.5000190528383
20
29.7309190812485
30
0
0
SPLINE
5
166
100
AcDbEntity
8
1
62
256
6
ByLayer
370
18
48
1
60
0
100
AcDbSpline
70
4
71
3
72
26
73
22
40
0
40
0
40
0
40
0
40
0.0407899412378834
40
0.0816280602350318
40
0.122427629684653
40
0.164697739977805
40
0.20700762957624
40
0.249286843221081
40
0.300848332693552
40
0.352460916899861
40
0.404035850653821
40
0.457057510227432
40
0.510116802737914
40
0.563147369821402
40
0.617000469440242
40
0.670903629673976
40
0.724814706148909
40
0.778678610386262
40
0.852432777303159
40
0.926237490189342
40
1
40
1
40
1
40
1
41
1
10
67.5000190528383
20
29.7890178190712
30
0
41
1
10
67.5000165591033
20
29.7897441007583
30
0
41
1
10
67.4998870286567
20
29.7913126443547
30
0
41
1
10
67.4993094145663
20
29.7940238764587
30
0
41
1
10
67.4983657678015
20
29.7970910026598
30
0
41
1
10
67.4970570340174
20
29.8005054786028
30
0
41
1
10
67.4953968469615
20
29.8042468458211
30
0
41
1
10
67.4932791728935
20
29.8085408204657
30
0
41
1
10
67.4906454623087
20
29.8134277014113
30
0
41
1
10
67.4874504510167
20
29.8189324982489
30
0
41
1
10
67.4838641027652
20
29.8247603196789
30
0
41
1
10
67.4799074609676
20
29.8308858960885
30
0
41
1
10
67.4756014055025
20
29.8372855208391
30
0
41
1
10
67.4709863775842
20
29.8439096531842
30
0
41
1
10
67.4660823838892
20
29.850737685137
30
0
41
1
10
67.4609064249887
20
29.8577523217541
30
0
41
1
10
67.4555055396417
20
29.8648972930049
30
0
41
1
10
67.4492103948423
20
29.8730457942231
30
0
41
1
10
67.4419462993496
20
29.882230771257
30
0
41
1
10
67.433644837038
20
29.8924726290933
30
0
41
1
10
67.4279260152709
20
29.8993738745276
30
0
41
1
10
67.4250190528383
20
29.9028438779788
30
0
0
SPLINE
5
167
100
AcDbEntity
8
1
62
256
6
ByLayer
370
18
48
1
60
0
100
AcDbSpline
70
4
71
3
72
11
73
7
40
0
40
0
40
0
40
0
40
0.249996457160472
40
0.499992927971239
40
0.749996457831891
40
1
40
1
40
1
40
1
41
1
10
67.4250190528383
20
29.9028438779788
30
0
41
1
10
67.3716438496582
20
29.966570596633
30
0
41
1
10
67.2647452152458
20
30.0938574813521
30
0
41
1
10
67.1039462674359
20
30.284285688494
30
0
41
1
10
66.9427107225036
20
30.4742245016828
30
0
41
1
10
66.8349382234542
20
30.6005320890339
30
0
41
1
10
66.7809809471617
20
30.6636053482986
30
0
0
SPLINE
5
168
100
AcDbEntity
8
1
62
256
6
ByLayer
370
18
48
1
60
0
100
AcDbSpline
70
4
71
3
72
27
73
23
40
0
40
0
40
0
40
0
40
0.0652383946733501
40
0.130638065483636
40
0.196095139742708
40
0.261523020430143
40
0.326855242582583
40
0.392048568000753
40
0.441734265540953
40
0.491557262235946
40
0.541424335699118
40
0.591260555620651
40
0.641012259885579
40
0.69065030905269
40
0.736729147371955
40
0.782957081442031
40
0.829205779694865
40
0.875376635101879
40
0.92140745072077
40
0.95943544754613
40
0.997592327429511
40
1
40
1
40
1
40
1
41
1
10
66.7809809471617
20
30.6636053482986
30
0
41
1
10
66.7780826745852
20
30.6669929084167
30
0
41
1
10
66.7723600938092
20
30.6737376265745
30
0
41
1
10
66.7640023937609
20
30.6837565278641
30
0
41
1
10
66.7559044390668
20
30.6936457107741
30
0
41
1
10
66.7481039457023
20
30.7033663921387
30
0
41
1
10
66.7406420953991
20
30.7128764580835
30
0
41
1
10
66.7341141943031
20
30.721408756185
30
0
41
1
10
66.7284503717942
20
30.7290022475816
30
0
41
1
10
66.7235729061561
20
30.7357071889656
30
0
41
1
10
66.7189739905291
20
30.7422126997816
30
0
41
1
10
66.7146879676059
20
30.7484814261622
30
0
41
1
10
66.7107496262807
20
30.754475589356
30
0
41
1
10
66.7072741988056
20
30.7600275575548
30
0
41
1
10
66.704264214508
20
30.7651303032796
30
0
41
1
10
66.7017129865267
20
30.769783220612
30
0
41
1
10
66.6995766830611
20
30.7740765797765
30
0
41
1
10
66.6978897032109
20
30.7779656826032
30
0
41
1
10
66.6967738520872
20
30.7811917952307
30
0
41
1
10
66.6961158438119
20
30.7838548272013
30
0
41
1
10
66.696050540155
20
30.7852216852295
30
0
41
1
10
66.6959847429026
20
30.7859584229169
30
0
41
1
10
66.6959809472326
20
30.7860020458511
30
0
0
SPLINE
5
169
100
AcDbEntity
8
1
62
256
6
ByLayer
370
18
48
1
60
0
100
AcDbSpline
70
4
71
2
72
6
73
3
40
0
40
0
40
0
40
1
40
1
40
1
41
1
10
67.4250190528384
20
30.1549655818255
30
0
41
1
10
67.103316513819
20
30.4442650674064
30
0
41
1
10
66.7809809471617
20
30.7326235256898
30
0
0
SPLINE
5
16A
100
AcDbEntity
8
1
62
256
6
ByLayer
370
18
48
1
60
0
100
AcDbSpline
70
4
71
3
72
27
73
23
40
0
40
0
40
0
40
0
40
0.0427036315913673
40
0.0855595082902855
40
0.128460389533829
40
0.171303546444268
40
0.213996472038908
40
0.256919817261442
40
0.299986756155164
40
0.34311452513246
40
0.386204360631197
40
0.429146974497741
40
0.482804710109993
40
0.53660152201423
40
0.590425059292424
40
0.644119329693031
40
0.703228207264679
40
0.762513270821889
40
0.821933485091503
40
0.881405648559675
40
0.940810799077623
40
1
40
1
40
1
40
1
41
1
10
67.5000190528383
20
30.1056313904784
30
0
41
1
10
67.5000184205189
20
30.105139848849
30
0
41
1
10
67.4999013972632
20
30.10427005945
30
0
41
1
10
67.4993757360366
20
30.1033087719554
30
0
41
1
10
67.4985035995955
20
30.102696604954
30
0
41
1
10
67.4972862875905
20
30.1024420342661
30
0
41
1
10
67.4957198099428
20
30.1025545487215
30
0
41
1
10
67.4937961613514
20
30.1030483412308
30
0
41
1
10
67.4915358180533
20
30.1039069590421
30
0
41
1
10
67.4889629812444
20
30.1051147457359
30
0
41
1
10
67.4861021219479
20
30.1066554610117
30
0
41
1
10
67.4827096574941
20
30.1086731972182
30
0
41
1
10
67.4787172242119
20
30.1112559911936
30
0
41
1
10
67.4740883485999
20
30.1144599441563
30
0
41
1
10
67.4691529415718
20
30.1180592659769
30
0
41
1
10
67.4637781236562
20
30.1221482328769
30
0
41
1
10
67.4579636298628
20
30.1267387416118
30
0
41
1
10
67.4517187300996
20
30.1318290153235
30
0
41
1
10
67.4452622251408
20
30.1372363594349
30
0
41
1
10
67.4386373089694
20
30.1429161279068
30
0
41
1
10
67.4318839490947
20
30.1488272694697
30
0
41
1
10
67.4273172470634
20
30.1528983148229
30
0
41
1
10
67.4250190528384
20
30.1549655818255
30
0
0
SPLINE
5
16B
100
AcDbEntity
8
1
62
256
6
ByLayer
370
18
48
1
60
0
100
AcDbSpline
70
4
71
3
72
25
73
21
40
0
40
0
40
0
40
0
40
0.0665348053289725
40
0.133253511038215
40
0.200036318409057
40
0.266784017829262
40
0.333421599346732
40
0.399902183275319
40
0.458180383403303
40
0.516627698393519
40
0.575094322145945
40
0.633468840631344
40
0.691685814423925
40
0.737235158267764
40
0.782931479159575
40
0.828650901543431
40
0.874296056271853
40
0.919802351847693
40
0.959902183276168
40
1
40
1
40
1
40
1
41
1
10
67.4250190528383
20
30.2475823101069
30
0
41
1
10
67.4276270009913
20
30.2446466782893
30
0
41
1
10
67.43277747383
20
30.2388074174155
30
0
41
1
10
67.4403024206905
20
30.230151558913
30
0
41
1
10
67.4475931889821
20
30.2216289643706
30
0
41
1
10
67.4546119508313
20
30.2132771838376
30
0
41
1
10
67.4613174386574
20
30.2051369155219
30
0
41
1
10
67.4674144987708
20
30.1975649194795
30
0
41
1
10
67.472920692168
20
30.1905543518516
30
0
41
1
10
67.4778582393922
20
30.1840943658925
30
0
41
1
10
67.4824344458081
20
30.1779106921654
30
0
41
1
10
67.4865980432707
20
30.1720574989521
30
0
41
1
10
67.4900351454254
20
30.1669783711668
30
0
41
1
10
67.4928129979663
20
30.1626247903557
30
0
41
1
10
67.4950212046097
20
30.1589251079622
30
0
41
1
10
67.4968706464602
20
30.1555392673465
30
0
41
1
10
67.4983303183681
20
30.1525053855778
30
0
41
1
10
67.499327505454
20
30.1499650439843
30
0
41
1
10
67.4998954878609
20
30.1478940608089
30
0
41
1
10
67.5000174294624
20
30.1468036868845
30
0
41
1
10
67.5000190528383
20
30.1463150218744
30
0
0
SPLINE
5
16C
100
AcDbEntity
8
1
62
256
6
ByLayer
370
18
48
1
60
0
100
AcDbSpline
70
4
71
3
72
11
73
7
40
0
40
0
40
0
40
0
40
0.249997648594072
40
0.499995288931463
40
0.749997649039619
40
1
40
1
40
1
40
1
41
1
10
66.7809809471617
20
30.9662642256101
30
0
41
1
10
66.8348740533067
20
30.9066425746535
30
0
41
1
10
66.9425493568559
20
30.7872662587604
30
0
41
1
10
67.1037339929495
20
30.6078049405818
30
0
41
1
10
67.2645801349205
20
30.427936776706
30
0
41
1
10
67.3715779468055
20
30.3077463340019
30
0
41
1
10
67.4250190528383
20
30.2475823101069
30
0
0
SPLINE
5
16D
100
AcDbEntity
8
1
62
256
6
ByLayer
370
18
48
1
60
0
100
AcDbSpline
70
4
71
3
72
28
73
24
40
0
40
0
40
0
40
0
40
0.0573437256041465
40
0.11486321421852
40
0.172439367798242
40
0.229976162081025
40
0.287404691224951
40
0.344687607168112
40
0.395464956591966
40
0.446404523579326
40
0.497368794099874
40
0.548250371124354
40
0.598978932760783
40
0.64194874691881
40
0.68506479874546
40
0.728216744446502
40
0.771306646431131
40
0.814254454861559
40
0.857318040018988
40
0.900540141757127
40
0.943821291483626
40
0.987053217608012
40
1
40
1
40
1
40
1
41
1
10
66.7809809471617
20
31.0115897539126
30
0
41
1
10
66.7784607272766
20
31.0139244259609
30
0
41
1
10
66.7734556984847
20
31.0185339878844
30
0
41
1
10
66.7660609080232
20
31.0252645519417
30
0
41
1
10
66.7588093201838
20
31.0317772674539
30
0
41
1
10
66.7517383125603
20
31.0380335439055
30
0
41
1
10
66.7448884963139
20
31.0439911783256
30
0
41
1
10
66.7385422360122
20
31.0494025220856
30
0
41
1
10
66.7326974622763
20
31.0542760036276
30
0
41
1
10
66.7273425579206
20
31.0586318664163
30
0
41
1
10
66.7222728402231
20
31.0626359327685
30
0
41
1
10
66.7175362303204
20
31.0662427380413
30
0
41
1
10
66.7133957609208
20
31.0692512736405
30
0
41
1
10
66.709826706585
20
31.0716964354502
30
0
41
1
10
66.7067753806832
20
31.0736438083511
30
0
41
1
10
66.7040584369938
20
31.0752173543148
30
0
41
1
10
66.7017033295157
20
31.0763958968684
30
0
41
1
10
66.6997317724554
20
31.0771611301676
30
0
41
1
10
66.6981719927042
20
31.0774872054467
30
0
41
1
10
66.6970201028723
20
31.0773830241591
30
0
41
1
10
66.6962729652582
20
31.0768597827039
30
0
41
1
10
66.6960186864368
20
31.0761347461356
30
0
41
1
10
66.6959831853007
20
31.0756172030453
30
0
41
1
10
66.6959809472948
20
31.0754919456873
30
0
0
SPLINE
5
16E
100
AcDbEntity
8
1
62
256
6
ByLayer
370
18
48
1
60
0
100
AcDbSpline
70
4
71
3
72
11
73
7
40
0
40
0
40
0
40
0
40
0.24999962755804
40
0.499999253843646
40
0.749999627624987
40
1
40
1
40
1
40
1
41
1
10
66.7809809471617
20
31.0115897539126
30
0
41
1
10
66.8347249401346
20
30.9618117060123
30
0
41
1
10
66.9421761100811
20
30.8622027173512
30
0
41
1
10
67.103243619552
20
30.7126317836138
30
0
41
1
10
67.2641987587383
20
30.5628992663572
30
0
41
1
10
67.3714250396029
20
30.4629669237567
30
0
41
1
10
67.4250190528383
20
30.4129733564589
30
0
0
SPLINE
5
16F
100
AcDbEntity
8
1
62
256
6
ByLayer
370
18
48
1
60
0
100
AcDbSpline
70
4
71
3
72
27
73
23
40
0
40
0
40
0
40
0
40
0.0582209871287239
40
0.116622076661776
40
0.175081594148385
40
0.233501213628939
40
0.291810097387369
40
0.349969439886354
40
0.401391546953157
40
0.452977741109842
40
0.504589112899079
40
0.556117017281292
40
0.607490084473349
40
0.650972696389677
40
0.694603197524129
40
0.738269656113461
40
0.781873058481717
40
0.825332866202482
40
0.868943580681222
40
0.912664678531751
40
0.956387258858597
40
1
40
1
40
1
40
1
41
1
10
67.4250190528383
20
30.4129733564589
30
0
41
1
10
67.4272781521482
20
30.4108657475363
30
0
41
1
10
67.4317630735393
20
30.4067031212164
30
0
41
1
10
67.4383849158795
20
30.400621289477
30
0
41
1
10
67.4448730940058
20
30.3947316188818
30
0
41
1
10
67.4511934507626
20
30.3890685918065
30
0
41
1
10
67.4573088449531
20
30.3836698673432
30
0
41
1
10
67.4629622925784
20
30.3787634206282
30
0
41
1
10
67.4681565471984
20
30.3743408865428
30
0
41
1
10
67.4729033157311
20
30.3703831286383
30
0
41
1
10
67.4773885963881
20
30.3667349652672
30
0
41
1
10
67.4815692973003
20
30.3634367292817
30
0
41
1
10
67.4852122506767
20
30.3606724469979
30
0
41
1
10
67.4883406580123
20
30.3584110285635
30
0
41
1
10
67.4910037001428
20
30.3565945805339
30
0
41
1
10
67.4933623730748
20
30.3551078136007
30
0
41
1
10
67.4953923145501
20
30.3539698471354
30
0
41
1
10
67.497073379955
20
30.3531980382206
30
0
41
1
10
67.498382463482
20
30.3528126126166
30
0
41
1
10
67.4993229142105
20
30.3528058992329
30
0
41
1
10
67.4998915074675
20
30.3531750431116
30
0
41
1
10
67.500018253908
20
30.3536714485058
30
0
41
1
10
67.5000190528383
20
30.353981763269
30
0
0
SPLINE
5
170
100
AcDbEntity
8
1
62
256
6
ByLayer
370
18
48
1
60
0
100
AcDbSpline
70
4
71
3
72
26
73
22
40
0
40
0
40
0
40
0
40
0.0466099387316803
40
0.093406611041024
40
0.140292566155822
40
0.187137700185592
40
0.233788450331581
40
0.280251269352914
40
0.326828721739892
40
0.373467415275526
40
0.420087199653217
40
0.466585613060842
40
0.525589209095703
40
0.584749728689278
40
0.644026718446097
40
0.703345818877535
40
0.762603662799941
40
0.821672331908128
40
0.881103005696693
40
0.940564258683367
40
1
40
1
40
1
40
1
41
1
10
67.5000190528383
20
30.378081337987
30
0
41
1
10
67.5000155724576
20
30.378408683041
30
0
41
1
10
67.4998524120677
20
30.3792163364716
30
0
41
1
10
67.4991237244188
20
30.3809016297435
30
0
41
1
10
67.4979486396776
20
30.3830166977954
30
0
41
1
10
67.4963501672867
20
30.3855324130624
30
0
41
1
10
67.4943502021752
20
30.3884209735484
30
0
41
1
10
67.491968944344
20
30.3916598845394
30
0
41
1
10
67.4892441664191
20
30.3952120466625
30
0
41
1
10
67.4861995672307
20
30.3990534494519
30
0
41
1
10
67.4828671091951
20
30.4031500507482
30
0
41
1
10
67.4789489098726
20
30.407864136026
30
0
41
1
10
67.4743792385328
20
30.4132509878433
30
0
41
1
10
67.4691065345248
20
30.4193515095925
30
0
41
1
10
67.4635132322171
20
30.4257219107711
30
0
41
1
10
67.4576403562553
20
30.4323211691246
30
0
41
1
10
67.4515286502116
20
30.439108525921
30
0
41
1
10
67.4451934491126
20
30.4460710096326
30
0
41
1
10
67.4386546820778
20
30.453189980307
30
0
41
1
10
67.4319256892773
20
30.460453563262
30
0
41
1
10
67.4273386531885
20
30.4653667757306
30
0
41
1
10
67.4250190528383
20
30.4678417894922
30
0
0
SPLINE
5
171
100
AcDbEntity
8
1
62
256
6
ByLayer
370
18
48
1
60
0
100
AcDbSpline
70
4
71
3
72
11
73
7
40
0
40
0
40
0
40
0
40
0.249998382316818
40
0.499996770671808
40
0.749998382607667
40
1
40
1
40
1
40
1
41
1
10
67.4250190528383
20
30.4678417894922
30
0
41
1
10
67.3715275741395
20
30.5249213714663
30
0
41
1
10
67.2644548686089
20
30.6389679264481
30
0
41
1
10
67.1035731214069
20
30.8096977328272
30
0
41
1
10
66.9424269482369
20
30.9800962987124
30
0
41
1
10
66.8348250146811
20
31.0934800092824
30
0
41
1
10
66.7809809471617
20
31.1501174514861
30
0
0
SPLINE
5
172
100
AcDbEntity
8
1
62
256
6
ByLayer
370
18
48
1
60
0
100
AcDbSpline
70
4
71
3
72
27
73
23
40
0
40
0
40
0
40
0
40
0.068614776950459
40
0.137269694724174
40
0.205874280414271
40
0.258778950007742
40
0.311740511548783
40
0.364691278036954
40
0.417581210723229
40
0.471159340669774
40
0.524896248799711
40
0.578653792112374
40
0.63232719021947
40
0.685851900780494
40
0.729936997055139
40
0.774170033451613
40
0.818431763715799
40
0.862623738417935
40
0.906674282781181
40
0.951001647585962
40
0.995521556389813
40
1
40
1
40
1
40
1
41
1
10
66.7809809471617
20
31.1501174514861
30
0
41
1
10
66.7779538720851
20
31.153301419373
30
0
41
1
10
66.7719774204944
20
31.1596086371671
30
0
41
1
10
66.7632369523779
20
31.1688956237888
30
0
41
1
10
66.7554124125979
20
31.1772722088632
30
0
41
1
10
66.7484640990536
20
31.1847657048386
30
0
41
1
10
66.7423425141054
20
31.191414416238
30
0
41
1
10
66.7364480731071
20
31.1978669069821
30
0
41
1
10
66.730783538386
20
31.2041227222376
30
0
41
1
10
66.7253790916557
20
31.2101530123807
30
0
41
1
10
66.7202692202905
20
31.2159235821544
30
0
41
1
10
66.7155148540586
20
31.2213696445638
30
0
41
1
10
66.7111663956401
20
31.2264384809336
30
0
41
1
10
66.7074967199734
20
31.2308117157627
30
0
41
1
10
66.7044606993775
20
31.2345285479911
30
0
41
1
10
66.7019860537371
20
31.2376555001079
30
0
41
1
10
66.6998941721984
20
31.2404139174636
30
0
41
1
10
66.698212115949
20
31.2427729339183
30
0
41
1
10
66.696977972142
20
31.2446928966523
30
0
41
1
10
66.696179556888
20
31.2461844492261
30
0
41
1
10
66.6960684017129
20
31.2467827163015
30
0
41
1
10
66.6959878856752
20
31.2471191613276
30
0
41
1
10
66.6959809471654
20
31.247149492938
30
0
0
SPLINE
5
173
100
AcDbEntity
8
1
62
256
6
ByLayer
370
18
48
1
60
0
100
AcDbSpline
70
4
71
3
72
11
73
7
40
0
40
0
40
0
40
0
40
0.249999345204986
40
0.499998692817582
40
0.749999345319608
40
1
40
1
40
1
40
1
41
1
10
67.4250190528384
20
30.5497606679231
30
0
41
1
10
67.3714527024936
20
30.6018045946708
30
0
41
1
10
67.2642679128678
20
30.705820773101
30
0
41
1
10
67.1033326445919
20
30.8616283852828
30
0
41
1
10
66.9422439057562
20
31.0172250417036
30
0
41
1
10
66.8347519691254
20
31.1208190691421
30
0
41
1
10
66.7809809471617
20
31.1725814719131
30
0
0
SPLINE
5
174
100
AcDbEntity
8
1
62
256
6
ByLayer
370
18
48
1
60
0
100
AcDbSpline
70
4
71
3
72
27
73
23
40
0
40
0
40
0
40
0
40
0.0443296814760853
40
0.0888311554311509
40
0.133398792136823
40
0.177914902206928
40
0.222256907019412
40
0.266614023991027
40
0.311099740926245
40
0.355648279389015
40
0.400170332695268
40
0.444558015639007
40
0.494728813327374
40
0.545035503311809
40
0.595440792969644
40
0.645879982746894
40
0.696265022453108
40
0.746488208201094
40
0.809811106303182
40
0.873223979782869
40
0.936653868068015
40
1
40
1
40
1
40
1
41
1
10
67.5000190528383
20
30.4809308839425
30
0
41
1
10
67.5000171259985
20
30.4808163127694
30
0
41
1
10
67.4998789237674
20
30.4807206141675
30
0
41
1
10
67.4992600743283
20
30.4809859236462
30
0
41
1
10
67.4982485648659
20
30.4816438814974
30
0
41
1
10
67.4968555285225
20
30.4826858930913
30
0
41
1
10
67.4950884271316
20
30.4841065139594
30
0
41
1
10
67.4929531540587
20
30.485901269584
30
0
41
1
10
67.4904803844198
20
30.4880402381074
30
0
41
1
10
67.4876947378919
20
30.4905001079383
30
0
41
1
10
67.4846251629769
20
30.4932536104303
30
0
41
1
10
67.4811481745955
20
30.4964121172643
30
0
41
1
10
67.4772400128296
20
30.500001697491
30
0
41
1
10
67.4728908639739
20
30.5040340607838
30
0
41
1
10
67.4682846715143
20
30.5083383655243
30
0
41
1
10
67.4634542885308
20
30.5128824425673
30
0
41
1
10
67.4584323278962
20
30.5176343510228
30
0
41
1
10
67.4527902903402
20
30.5230008409742
30
0
41
1
10
67.4464915689019
20
30.5290235732301
30
0
41
1
10
67.4395127151708
20
30.5357310638269
30
0
41
1
10
67.4323505047555
20
30.5426468725179
30
0
41
1
10
67.4274793090323
20
30.5473701910415
30
0
41
1
10
67.4250190528384
20
30.5497606679231
30
0
0
SPLINE
5
175
100
AcDbEntity
8
1
62
256
6
ByLayer
370
18
48
1
60
0
100
AcDbSpline
70
4
71
3
72
26
73
22
40
0
40
0
40
0
40
0
40
0.0696926540687544
40
0.139429769175721
40
0.209110160538184
40
0.263015242760764
40
0.316985729741809
40
0.370943328853833
40
0.424830814614832
40
0.477070463532583
40
0.529468143298394
40
0.581888412646857
40
0.634226827562683
40
0.68641662451949
40
0.730266483958869
40
0.774264634414777
40
0.818294594410832
40
0.862257436312216
40
0.906077583834664
40
0.95303949156063
40
1
40
1
40
1
40
1
41
1
10
67.4250190528383
20
30.567936485844
30
0
41
1
10
67.4277317184299
20
30.5651803395951
30
0
41
1
10
67.4330890045845
20
30.5597300793046
30
0
41
1
10
67.4409295863722
20
30.5517325429691
30
0
41
1
10
67.4479563313354
20
30.5445432762875
30
0
41
1
10
67.4542009732312
20
30.5381345239821
30
0
41
1
10
67.4597058989227
20
30.5324676641581
30
0
41
1
10
67.4650002669296
20
30.526998502839
30
0
41
1
10
67.4700052979007
20
30.521807343041
30
0
41
1
10
67.47470334047
20
30.5169114946256
30
0
41
1
10
67.4790783541656
20
30.5123270182435
30
0
41
1
10
67.4831474918503
20
30.5080346077139
30
0
41
1
10
67.4868680307603
20
30.5040772135122
30
0
41
1
10
67.4900254661611
20
30.5006826810166
30
0
41
1
10
67.4926518771746
20
30.4978209762246
30
0
41
1
10
67.4948041108919
20
30.4954377281189
30
0
41
1
10
67.4966205335049
20
30.4933813073472
30
0
41
1
10
67.498077093164
20
30.4916769141601
30
0
41
1
10
67.4991746194384
20
30.4903184423742
30
0
41
1
10
67.4998605785039
20
30.4893585627125
30
0
41
1
10
67.5000178142462
20
30.4890111093497
30
0
41
1
10
67.5000190528383
20
30.4889137686264
30
0
0
SPLINE
5
176
100
AcDbEntity
8
1
62
256
6
ByLayer
370
18
48
1
60
0
100
AcDbSpline
70
4
71
3
72
11
73
7
40
0
40
0
40
0
40
0
40
0.249998976029811
40
0.499997948544235
40
0.749998976215789
40
1
40
1
40
1
40
1
41
1
10
66.7809809471617
20
31.218488502244
30
0
41
1
10
66.8347842906494
20
31.1644528185242
30
0
41
1
10
66.9423246727835
20
31.0562937125882
30
0
41
1
10
67.1034387068391
20
30.8937936262374
30
0
41
1
10
67.2643504026013
20
30.731025405428
30
0
41
1
10
67.3714858280641
20
30.6223297320835
30
0
41
1
10
67.4250190528383
20
30.567936485844
30
0
0
SPLINE
5
177
100
AcDbEntity
8
1
62
256
6
ByLayer
370
18
48
1
60
0
100
AcDbSpline
70
4
71
3
72
28
73
24
40
0
40
0
40
0
40
0
40
0.0526668691941245
40
0.105377287432641
40
0.15808096371408
40
0.210738631513092
40
0.265147527994578
40
0.319626666331859
40
0.374091297662741
40
0.428480385355229
40
0.479443471464572
40
0.53056101013921
40
0.581701022481887
40
0.632761401769079
40
0.683676406659442
40
0.72686478740247
40
0.770199684645729
40
0.813567278211185
40
0.856869718642871
40
0.900030786786453
40
0.943373006867333
40
0.986886929312634
40
1
40
1
40
1
40
1
41
1
10
66.7809809471617
20
-8.21848850224399
30
0
41
1
10
66.7786637236578
20
-8.22081579743171
30
0
41
1
10
66.7740692910721
20
-8.22543095743075
30
0
41
1
10
66.7672955584716
20
-8.23223761756722
30
0
41
1
10
66.7606626778705
20
-8.23890494149032
30
0
41
1
10
66.7541168753283
20
-8.24548688221923
30
0
41
1
10
66.74768253584
20
-8.25195887795255
30
0
41
1
10
66.7413897811752
20
-8.25829046881145
30
0
41
1
10
66.7353391022255
20
-8.2643803322789
30
0
41
1
10
66.7296844634553
20
-8.27007325372169
30
0
41
1
10
66.7244367386439
20
-8.27535797648013
30
0
41
1
10
66.7196012386023
20
-8.28022877033082
30
0
41
1
10
66.7150972279133
20
-8.28476668387826
30
0
41
1
10
66.7109710642075
20
-8.2889247746118
30
0
41
1
10
66.7074501916232
20
-8.29247358814284
30
0
41
1
10
66.7045036551544
20
-8.29544397948309
30
0
41
1
10
66.7020727683351
20
-8.29789485258618
30
0
41
1
10
66.7000110152049
20
-8.2999737972536
30
0
41
1
10
66.6983442153701
20
-8.30165466352297
30
0
41
1
10
66.6970971387365
20
-8.30291235763571
30
0
41
1
10
66.696290027016
20
-8.30372637060774
30
0
41
1
10
66.696042167414
20
-8.30397627312487
30
0
41
1
10
66.6959878581837
20
-8.30403111644889
30
0
41
1
10
66.695980826309
20
-8.30403822789997
30
0
0
SPLINE
5
178
100
AcDbEntity
8
1
62
256
6
ByLayer
370
18
48
1
60
0
100
AcDbSpline
70
4
71
3
72
11
73
7
40
0
40
0
40
0
40
0
40
0.249998948294772
40
0.499997900476775
40
0.749998948480631
40
1
40
1
40
1
40
1
41
1
10
67.4250190528384
20
-7.56793648584399
30
0
41
1
10
67.3714862725017
20
-7.62232928052495
30
0
41
1
10
67.2643517370437
20
-7.73102405224223
30
0
41
1
10
67.1034404891471
20
-7.89379182600734
30
0
41
1
10
66.9423260117178
20
-8.05629236533163
30
0
41
1
10
66.8347847373329
20
-8.16445236993011
30
0
41
1
10
66.7809809471617
20
-8.21848850224399
30
0
0
SPLINE
5
179
100
AcDbEntity
8
1
62
256
6
ByLayer
370
18
48
1
60
0
100
AcDbSpline
70
4
71
3
72
26
73
22
40
0
40
0
40
0
40
0
40
0.0453852814136416
40
0.0909504625935201
40
0.136593229314302
40
0.182189318157563
40
0.227600626244408
40
0.272923229169549
40
0.318367314667055
40
0.363873788273136
40
0.409357968941941
40
0.454714292542762
40
0.509099182279826
40
0.563629694264607
40
0.618267486523139
40
0.67294344590828
40
0.727562168634585
40
0.782006038705887
40
0.854644098646468
40
0.927347257785442
40
1
40
1
40
1
40
1
41
1
10
67.5000190528383
20
-7.4889137686264
30
0
41
1
10
67.5000163838119
20
-7.48900928679164
30
0
41
1
10
67.4998662445359
20
-7.4893436467057
30
0
41
1
10
67.4991948666253
20
-7.49028671501435
30
0
41
1
10
67.4981050759304
20
-7.49164188367472
30
0
41
1
10
67.4966136706851
20
-7.49339066219996
30
0
41
1
10
67.4947349324561
20
-7.49551727336592
30
0
41
1
10
67.4924818757775
20
-7.49800801356198
30
0
41
1
10
67.4898891142056
20
-7.50082858252826
30
0
41
1
10
67.4869808965895
20
-7.50395456172233
30
0
41
1
10
67.4837878221908
20
-7.50735484128451
30
0
41
1
10
67.4801035981291
20
-7.5112485095981
30
0
41
1
10
67.4758843680161
20
-7.51567711801697
30
0
41
1
10
67.4711007083175
20
-7.52066807667017
30
0
41
1
10
67.466031050132
20
-7.52593109986964
30
0
41
1
10
67.4607121318906
20
-7.53142968897185
30
0
41
1
10
67.455180449579
20
-7.53712758236593
30
0
41
1
10
67.4488246829755
20
-7.54365363489332
30
0
41
1
10
67.4415886461205
20
-7.55105956544767
30
0
41
1
10
67.4334291819573
20
-7.55938385240943
30
0
41
1
10
67.4278472441089
20
-7.5650629771862
30
0
41
1
10
67.4250190528383
20
-7.56793648584399
30
0
0
SPLINE
5
17A
100
AcDbEntity
8
1
62
256
6
ByLayer
370
18
48
1
60
0
100
AcDbSpline
70
4
71
3
72
26
73
22
40
0
40
0
40
0
40
0
40
0.0712253998987473
40
0.142502138013851
40
0.213711226983086
40
0.26910153547036
40
0.324572925238181
40
0.380026999085763
40
0.435393659032433
40
0.485029663213874
40
0.534819279262444
40
0.584633553660377
40
0.634370753925308
40
0.683962664057103
40
0.733998323815523
40
0.784269706253536
40
0.834598609688394
40
0.884826197385848
40
0.934824955495209
40
0.9674124648193
40
1
40
1
40
1
40
1
41
1
10
67.4250190528383
20
-7.54976066792318
30
0
41
1
10
67.4277862000733
20
-7.54707196397695
30
0
41
1
10
67.4332544553262
20
-7.54177106865281
30
0
41
1
10
67.4412686920229
20
-7.53403886268116
30
0
41
1
10
67.4484675451701
20
-7.52713047804828
30
0
41
1
10
67.4548765658126
20
-7.5210130615135
30
0
41
1
10
67.4605349242775
20
-7.51564055796851
30
0
41
1
10
67.4659687392007
20
-7.51051198440073
30
0
41
1
10
67.4709666039719
20
-7.50582725747438
30
0
41
1
10
67.4755283860363
20
-7.50158456362714
30
0
41
1
10
67.4796643685673
20
-7.49777113465034
30
0
41
1
10
67.4835149443666
20
-7.49425744174702
30
0
41
1
10
67.4870407006643
20
-7.49108141156993
30
0
41
1
10
67.4902185434459
20
-7.48826607807431
30
0
41
1
10
67.4930021800597
20
-7.48585753003997
30
0
41
1
10
67.4953683463292
20
-7.48387742513434
30
0
41
1
10
67.4972887915535
20
-7.48235036121356
30
0
41
1
10
67.4987334371403
20
-7.481302863419
30
0
41
1
10
67.4995620505675
20
-7.48082629285987
30
0
41
1
10
67.4999458538233
20
-7.48074709957567
30
0
41
1
10
67.5000189668516
20
-7.4808454290349
30
0
41
1
10
67.5000190528383
20
-7.48093088394256
30
0
0
SPLINE
5
17B
100
AcDbEntity
8
1
62
256
6
ByLayer
370
18
48
1
60
0
100
AcDbSpline
70
4
71
3
72
11
73
7
40
0
40
0
40
0
40
0
40
0.249999362386756
40
0.499998722595197
40
0.749999362501421
40
1
40
1
40
1
40
1
41
1
10
66.7809809471617
20
-8.1725814719131
30
0
41
1
10
66.8347516911704
20
-8.12081933670543
30
0
41
1
10
66.9422430724162
20
-8.01722584511799
30
0
41
1
10
67.1033315348542
20
-7.86162945841183
30
0
41
1
10
67.2642670816406
20
-7.70582157942859
30
0
41
1
10
67.371452425595
20
-7.60180486369071
30
0
41
1
10
67.4250190528383
20
-7.54976066792318
30
0
0
SPLINE
5
17C
100
AcDbEntity
8
1
62
256
6
ByLayer
370
18
48
1
60
0
100
AcDbSpline
70
4
71
3
72
27
73
23
40
0
40
0
40
0
40
0
40
0.060928387095801
40
0.122050722257571
40
0.183235689929579
40
0.244377286766367
40
0.305399386145976
40
0.36626075478115
40
0.41832034229063
40
0.470542996782548
40
0.522789270908925
40
0.574951315775123
40
0.626959914799033
40
0.670502122257596
40
0.714191885128351
40
0.757915323024146
40
0.801573834114229
40
0.845089743042253
40
0.888772712141131
40
0.93262552713362
40
0.976538126493578
40
1
40
1
40
1
40
1
41
1
10
66.7809809471617
20
-8.1725814719131
30
0
41
1
10
66.778302727348
20
-8.17515992552531
30
0
41
1
10
66.7729912066784
20
-8.18025903070822
30
0
41
1
10
66.7651656453097
20
-8.18772853861404
30
0
41
1
10
66.7575163972106
20
-8.19498212992008
30
0
41
1
10
66.7500853878693
20
-8.2019771046569
30
0
41
1
10
66.7429181971308
20
-8.208666884885
30
0
41
1
10
66.7363826859175
20
-8.21470740272586
30
0
41
1
10
66.7304641276232
20
-8.22011821642878
30
0
41
1
10
66.7251351789486
20
-8.22493233195311
30
0
41
1
10
66.7201161641615
20
-8.22940253113201
30
0
41
1
10
66.7154562285052
20
-8.2334806302371
30
0
41
1
10
66.7114284283345
20
-8.23692728075796
30
0
41
1
10
66.7080006450107
20
-8.23977998553746
30
0
41
1
10
66.7051120211926
20
-8.24210581033777
30
0
41
1
10
66.7025742286227
20
-8.24406012202419
30
0
41
1
10
66.7004159468973
20
-8.24561721965617
30
0
41
1
10
66.6986591546498
20
-8.24675647394833
30
0
41
1
10
66.69733721832
20
-8.24744542124056
30
0
41
1
10
66.6964442387022
20
-8.24769266210269
30
0
41
1
10
66.6960638462348
20
-8.24752003324652
30
0
41
1
10
66.6959877627249
20
-8.24725990647925
30
0
41
1
10
66.6959809472415
20
-8.24714940596871
30
0
0
SPLINE
5
17D
100
AcDbEntity
8
1
62
256
6
ByLayer
370
18
48
1
60
0
100
AcDbSpline
70
4
71
3
72
11
73
7
40
0
40
0
40
0
40
0
40
0.249998425382244
40
0.499996845308296
40
0.749998425673382
40
1
40
1
40
1
40
1
41
1
10
66.7809809471617
20
-8.1501174514861
30
0
41
1
10
66.8348243271848
20
-8.09348073240848
30
0
41
1
10
66.9424248879804
20
-7.98009847090257
30
0
41
1
10
67.103570380272
20
-7.80970063649757
30
0
41
1
10
67.2644528173375
20
-7.6389701099471
30
0
41
1
10
67.3715268911356
20
-7.52492210024658
30
0
41
1
10
67.4250190528383
20
-7.46784178949224
30
0
0
SPLINE
5
17E
100
AcDbEntity
8
1
62
256
6
ByLayer
370
18
48
1
60
0
100
AcDbSpline
70
4
71
3
72
26
73
22
40
0
40
0
40
0
40
0
40
0.0679224551615427
40
0.135883077352617
40
0.203796525139107
40
0.256086039588626
40
0.308427970471709
40
0.360760510740236
40
0.41303720654846
40
0.468136212652667
40
0.523398344928026
40
0.578681298602112
40
0.633877447927657
40
0.688920954836923
40
0.733161416948386
40
0.777545334118888
40
0.821955933079322
40
0.86629788538919
40
0.910503039641061
40
0.95525260229088
40
1
40
1
40
1
40
1
41
1
10
67.4250190528383
20
-7.46784178949224
30
0
41
1
10
67.427670682927
20
-7.46501259027928
30
0
41
1
10
67.4329046274249
20
-7.45940336427314
30
0
41
1
10
67.4405552088861
20
-7.45113056293106
30
0
41
1
10
67.4473984315712
20
-7.44365591776682
30
0
41
1
10
67.4534710611795
20
-7.4369569676778
30
0
41
1
10
67.4588178156212
20
-7.43100208846292
30
0
41
1
10
67.4639673350326
20
-7.42520528992899
30
0
41
1
10
67.4689858654764
20
-7.4194875168796
30
0
41
1
10
67.4738372249243
20
-7.41388046813623
30
0
41
1
10
67.4784771939659
20
-7.40842484408256
30
0
41
1
10
67.4827863873325
20
-7.40325345505479
30
0
41
1
10
67.4867181132596
20
-7.39841467876064
30
0
41
1
10
67.49000178749
20
-7.39424209737625
30
0
41
1
10
67.4926892075163
20
-7.39069312133498
30
0
41
1
10
67.4948557763078
20
-7.38770168258471
30
0
41
1
10
67.4966828537958
20
-7.38502429165156
30
0
41
1
10
67.4981436910019
20
-7.382691812022
30
0
41
1
10
67.4992152499116
20
-7.38072671166759
30
0
41
1
10
67.4998699527603
20
-7.37915906208109
30
0
41
1
10
67.5000173824685
20
-7.37839390489196
30
0
41
1
10
67.5000190528383
20
-7.37808133798701
30
0
0
SPLINE
5
17F
100
AcDbEntity
8
1
62
256
6
ByLayer
370
18
48
1
60
0
100
AcDbSpline
70
4
71
3
72
27
73
23
40
0
40
0
40
0
40
0
40
0.0434344507700895
40
0.0870314178041863
40
0.130683616364593
40
0.174280578198929
40
0.217715024591623
40
0.261271509904557
40
0.304963963160583
40
0.348718781399956
40
0.392441961884933
40
0.436024300288522
40
0.491607135518995
40
0.547364867640293
40
0.603220682232121
40
0.659051244352031
40
0.714695361247936
40
0.771667110377554
40
0.828744163344663
40
0.885877871283055
40
0.942994769041832
40
1
40
1
40
1
40
1
41
1
10
67.5000190528383
20
-7.353981763269
30
0
41
1
10
67.500017804115
20
-7.35367316333009
30
0
41
1
10
67.4998906157673
20
-7.35317936046544
30
0
41
1
10
67.4993202282188
20
-7.35281468855246
30
0
41
1
10
67.4983811012746
20
-7.35282158304279
30
0
41
1
10
67.4970792086463
20
-7.35320047887927
30
0
41
1
10
67.4954159331323
20
-7.35395440228772
30
0
41
1
10
67.4933901391759
20
-7.35508828536509
30
0
41
1
10
67.4910277831698
20
-7.35657817847559
30
0
41
1
10
67.4883535312665
20
-7.35840360610382
30
0
41
1
10
67.485394292735
20
-7.36054222736779
30
0
41
1
10
67.4818735719472
20
-7.36320132662237
30
0
41
1
10
67.4777164198371
20
-7.36646837203477
30
0
41
1
10
67.4728761445266
20
-7.37040284223957
30
0
41
1
10
67.4677184026011
20
-7.37470932659595
30
0
41
1
10
67.4622939493651
20
-7.37933939919012
30
0
41
1
10
67.4565943009877
20
-7.38429664221697
30
0
41
1
10
67.4506405376229
20
-7.38956088570188
30
0
41
1
10
67.4444518200787
20
-7.39511174727068
30
0
41
1
10
67.4381018236951
20
-7.40087999514922
30
0
41
1
10
67.4316205273454
20
-7.40683511200795
30
0
41
1
10
67.4272308874983
20
-7.4109098268581
30
0
41
1
10
67.4250190528383
20
-7.41297335645893
30
0
0
SPLINE
5
180
100
AcDbEntity
8
1
62
256
6
ByLayer
370
18
48
1
60
0
100
AcDbSpline
70
4
71
3
72
11
73
7
40
0
40
0
40
0
40
0
40
0.249999617521803
40
0.49999923644992
40
0.749999617588735
40
1
40
1
40
1
40
1
41
1
10
67.4250190528383
20
-7.41297335645893
30
0
41
1
10
67.3714252014268
20
-7.46296677280797
30
0
41
1
10
67.2641992444381
20
-7.56289881383788
30
0
41
1
10
67.1032442677672
20
-7.71263118113622
30
0
41
1
10
66.9421765966874
20
-7.86220226613239
30
0
41
1
10
66.8347251024118
20
-7.96181155571378
30
0
41
1
10
66.7809809471617
20
-8.01158975391263
30
0
0
SPLINE
5
181
100
AcDbEntity
8
1
62
256
6
ByLayer
370
18
48
1
60
0
100
AcDbSpline
70
4
71
3
72
28
73
24
40
0
40
0
40
0
40
0
40
0.0667693167525056
40
0.133573026522491
40
0.200334884178898
40
0.251602244570726
40
0.302915296681456
40
0.354220493845097
40
0.405477133098623
40
0.452504999334295
40
0.499665141278144
40
0.546868981138355
40
0.594044595942138
40
0.641139517179978
40
0.688123790593281
40
0.733180840401522
40
0.778386786827581
40
0.823617467862736
40
0.868774116069464
40
0.913789685874134
40
0.951605106367255
40
0.989589017314302
40
1
40
1
40
1
40
1
41
1
10
66.7809809471617
20
-7.96626422561011
30
0
41
1
10
66.7780263341513
20
-7.96953259409496
30
0
41
1
10
66.7721955440002
20
-7.97602147272207
30
0
41
1
10
66.7636770444417
20
-7.98561782682591
30
0
41
1
10
66.7560635646331
20
-7.99431071881124
30
0
41
1
10
66.7493107689734
20
-8.00212182446536
30
0
41
1
10
66.7433672874363
20
-8.00908231451317
30
0
41
1
10
66.7376364926994
20
-8.01588578122207
30
0
41
1
10
66.7322918261598
20
-8.022327681739
30
0
41
1
10
66.7273296893616
20
-8.02840788335044
30
0
41
1
10
66.7227441049736
20
-8.03412799461215
30
0
41
1
10
66.7184136858331
20
-8.03964133816108
30
0
41
1
10
66.714369789828
20
-8.04491430616967
30
0
41
1
10
66.7106441601268
20
-8.0499129245192
30
0
41
1
10
66.7073102703571
20
-8.05454443525997
30
0
41
1
10
66.704383044312
20
-8.05879255527933
30
0
41
1
10
66.7018676209177
20
-8.06264840499871
30
0
41
1
10
66.6997495278647
20
-8.06614050955469
30
0
41
1
10
66.6980622856536
20
-8.06922820403933
30
0
41
1
10
66.6969069752665
20
-8.07172936249683
30
0
41
1
10
66.69621860404
20
-8.07370210109637
30
0
41
1
10
66.6960422856332
20
-8.07480073257368
30
0
41
1
10
66.6959889428499
20
-8.07537204962514
30
0
41
1
10
66.6959809473913
20
-8.07549152295925
30
0
0
SPLINE
5
182
100
AcDbEntity
8
1
62
256
6
ByLayer
370
18
48
1
60
0
100
AcDbSpline
70
4
71
3
72
11
73
7
40
0
40
0
40
0
40
0
40
0.249997583387899
40
0.499995175922899
40
0.749997583832794
40
1
40
1
40
1
40
1
41
1
10
67.4250190528383
20
-7.24758231010696
30
0
41
1
10
67.3715789659692
20
-7.30774518670118
30
0
41
1
10
67.2645831967571
20
-7.42793333999088
30
0
41
1
10
67.1037380871456
20
-7.60780037227783
30
0
41
1
10
66.9425524359688
20
-7.78726284268793
30
0
41
1
10
66.8348750811082
20
-7.90664143767372
30
0
41
1
10
66.7809809471617
20
-7.96626422561011
30
0
0
SPLINE
5
183
100
AcDbEntity
8
1
62
256
6
ByLayer
370
18
48
1
60
0
100
AcDbSpline
70
4
71
3
72
25
73
21
40
0
40
0
40
0
40
0
40
0.0480287906659081
40
0.0962498319969113
40
0.144571925880026
40
0.192859908733922
40
0.240945074679732
40
0.288748888486646
40
0.336660780696117
40
0.384632209986992
40
0.432587431534236
40
0.480427670829811
40
0.544525222485376
40
0.608793020581177
40
0.673187022655279
40
0.737626539698102
40
0.801999529701178
40
0.866167414514988
40
0.933082836845787
40
1
40
1
40
1
40
1
41
1
10
67.5000190528383
20
-7.14631502187438
30
0
41
1
10
67.5000146821605
20
-7.14690309886428
30
0
41
1
10
67.4998371532678
20
-7.1482415742623
30
0
41
1
10
67.4990452079304
20
-7.15075486521737
30
0
41
1
10
67.4977760069544
20
-7.15371376113132
30
0
41
1
10
67.4960593932817
20
-7.15707786443599
30
0
41
1
10
67.4939257628195
20
-7.16080582139629
30
0
41
1
10
67.4914025864879
20
-7.1648669748195
30
0
41
1
10
67.4885300192585
20
-7.1692229355215
30
0
41
1
10
67.4853311616816
20
-7.17385142751509
30
0
41
1
10
67.4818391317614
20
-7.17871622240841
30
0
41
1
10
67.4776539370332
20
-7.18436476592243
30
0
41
1
10
67.4726855245155
20
-7.19086422666924
30
0
41
1
10
67.4668567841332
20
-7.19826652113307
30
0
41
1
10
67.4606656851249
20
-7.2059336545953
30
0
41
1
10
67.4541580313662
20
-7.21381967146051
30
0
41
1
10
67.4473790022336
20
-7.22187918417592
30
0
41
1
10
67.4402610986731
20
-7.23019859444373
30
0
41
1
10
67.4328143910337
20
-7.23876545556828
30
0
41
1
10
67.4276420190298
20
-7.24462979512865
30
0
41
1
10
67.4250190528383
20
-7.24758231010696
30
0
0
SPLINE
5
184
100
AcDbEntity
8
1
62
256
6
ByLayer
370
18
48
1
60
0
100
AcDbSpline
70
4
71
3
72
27
73
23
40
0
40
0
40
0
40
0
40
0.0545207602764236
40
0.109203548014588
40
0.163938763882689
40
0.218637977243374
40
0.273237566673326
40
0.327702710528688
40
0.377572237168165
40
0.427603639700615
40
0.477661079877491
40
0.527637268908812
40
0.577460341133527
40
0.627726034603478
40
0.678232849798384
40
0.728802951664713
40
0.779273413575664
40
0.829508472626775
40
0.872077912312138
40
0.914747456312202
40
0.957422729545989
40
1
40
1
40
1
40
1
41
1
10
67.4250190528383
20
-7.15496558182561
30
0
41
1
10
67.4271355757894
20
-7.15306177893519
30
0
41
1
10
67.4313432771799
20
-7.14930800827084
30
0
41
1
10
67.437573450401
20
-7.14384209241265
30
0
41
1
10
67.4436977630076
20
-7.13856881780075
30
0
41
1
10
67.4496860293987
20
-7.13351933593811
30
0
41
1
10
67.4555054535232
20
-7.1287277700772
30
0
41
1
10
67.460971568203
20
-7.12434898897464
30
0
41
1
10
67.4660783203688
20
-7.12038445584514
30
0
41
1
10
67.4708255612213
20
-7.11682617847826
30
0
41
1
10
67.4753355448545
20
-7.11358381983192
30
0
41
1
10
67.4795662127652
20
-7.1106955129772
30
0
41
1
10
67.4834947296647
20
-7.10818551807308
30
0
41
1
10
67.4870758207737
20
-7.10610153048513
30
0
41
1
10
67.4902853146049
20
-7.10446193656039
30
0
41
1
10
67.4930895001237
20
-7.10328577358334
30
0
41
1
10
67.4954527898021
20
-7.1025945306206
30
0
41
1
10
67.4972457865151
20
-7.10242086724566
30
0
41
1
10
67.4985256840571
20
-7.10269369306658
30
0
41
1
10
67.4993872998694
20
-7.10330856793785
30
0
41
1
10
67.4999038829046
20
-7.10427265387377
30
0
41
1
10
67.5000188591984
20
-7.10514090164479
30
0
41
1
10
67.5000190528383
20
-7.1056313904784
30
0
0
SPLINE
5
185
100
AcDbEntity
8
1
62
256
6
ByLayer
370
18
48
1
60
0
100
AcDbSpline
70
4
71
2
72
6
73
3
40
0
40
0
40
0
40
1
40
1
40
1
41
1
10
66.7809809471617
20
-7.73262352568985
30
0
41
1
10
67.1033165138113
20
-7.44426506739605
30
0
41
1
10
67.4250190528383
20
-7.1549655818256
30
0
0
SPLINE
5
186
100
AcDbEntity
8
1
62
256
6
ByLayer
370
18
48
1
60
0
100
AcDbSpline
70
4
71
3
72
29
73
25
40
0
40
0
40
0
40
0
40
0.0537721207398862
40
0.107702665081223
40
0.161684203115863
40
0.215630220963395
40
0.269478682664938
40
0.323195934195393
40
0.372473160733661
40
0.421910427308063
40
0.471373188564692
40
0.520755388011654
40
0.569986283244218
40
0.61135963009256
40
0.652919130180704
40
0.69456213569497
40
0.736190974996063
40
0.777717710793134
40
0.819069119334489
40
0.861311740487595
40
0.903696745409529
40
0.94614079068229
40
0.988546084596908
40
1
40
1
40
1
40
1
41
1
10
66.7809809471617
20
-7.73262352568985
30
0
41
1
10
66.7786151042137
20
-7.73474059741451
30
0
41
1
10
66.7739105015312
20
-7.73891381965892
30
0
41
1
10
66.7669409399842
20
-7.74498758590106
30
0
41
1
10
66.7600853408615
20
-7.75084366047278
30
0
41
1
10
66.7533768519454
20
-7.75644711206761
30
0
41
1
10
66.7468514605637
20
-7.7617596311797
30
0
41
1
10
66.7407119191614
20
-7.76661207367322
30
0
41
1
10
66.7349653906888
20
-7.77100196496217
30
0
41
1
10
66.7296128085138
20
-7.77493712536995
30
0
41
1
10
66.7245198253283
20
-7.77851398383413
30
0
41
1
10
66.7197332891293
20
-7.78168943168835
30
0
41
1
10
66.7155275727543
20
-7.78428195148913
30
0
41
1
10
66.7118802608539
20
-7.786328482528
30
0
41
1
10
66.7087376326116
20
-7.78790049927815
30
0
41
1
10
66.7058960263306
20
-7.78911298787332
30
0
41
1
10
66.7033790038019
20
-7.78995178552833
30
0
41
1
10
66.7012092309119
20
-7.79040380932133
30
0
41
1
10
66.6993947181562
20
-7.79045464216021
30
0
41
1
10
66.6979624969003
20
-7.79008053395302
30
0
41
1
10
66.6969073061353
20
-7.78929311849485
30
0
41
1
10
66.6962318153608
20
-7.78811193632595
30
0
41
1
10
66.6960121366154
20
-7.78692340334447
30
0
41
1
10
66.6959827656335
20
-7.78616664944147
30
0
41
1
10
66.6959809473884
20
-7.78600130315741
30
0
0
SPLINE
5
187
100
AcDbEntity
8
1
62
256
6
ByLayer
370
18
48
1
60
0
100
AcDbSpline
70
4
71
3
72
11
73
7
40
0
40
0
40
0
40
0
40
0.249996554411313
40
0.499993096516559
40
0.749996555084182
40
1
40
1
40
1
40
1
41
1
10
66.7809809471617
20
-7.66360534829859
30
0
41
1
10
66.8349367152475
20
-7.60053385191315
30
0
41
1
10
66.942706205943
20
-7.47422979942908
30
0
41
1
10
67.1039402665441
20
-7.28429277618802
30
0
41
1
10
67.2647407311357
20
-7.09386281572754
30
0
41
1
10
67.3716423576762
20
-6.96657237782603
30
0
41
1
10
67.4250190528383
20
-6.90284387797884
30
0
0
SPLINE
5
188
100
AcDbEntity
8
1
62
256
6
ByLayer
370
18
48
1
60
0
100
AcDbSpline
70
4
71
3
72
26
73
22
40
0
40
0
40
0
40
0
40
0.0641215558835892
40
0.128388446564522
40
0.192708824534188
40
0.257005128912152
40
0.321216405255975
40
0.38530080619359
40
0.43683293324055
40
0.488507841849181
40
0.540228410578318
40
0.591916672726868
40
0.643516931196906
40
0.69499916548818
40
0.742194636784231
40
0.789542862622055
40
0.836910610458403
40
0.884196958560421
40
0.931340369735565
40
0.965670883246786
40
1
40
1
40
1
40
1
41
1
10
67.4250190528383
20
-6.90284387797884
30
0
41
1
10
67.4275452540649
20
-6.89982818899845
30
0
41
1
10
67.4325314711992
20
-6.89381965288552
30
0
41
1
10
67.4398092005098
20
-6.88488123712645
30
0
41
1
10
67.4468576069019
20
-6.87604194527305
30
0
41
1
10
67.4536461350839
20
-6.86733255895158
30
0
41
1
10
67.4601413920525
20
-6.85878646013859
30
0
41
1
10
67.4659133173477
20
-6.85097463019349
30
0
41
1
10
67.4710094987449
20
-6.84387442187863
30
0
41
1
10
67.4754825378728
20
-6.83745628329242
30
0
41
1
10
67.4796905816515
20
-6.83121127117759
30
0
41
1
10
67.4836012853405
20
-6.82517412735345
30
0
41
1
10
67.4871818795803
20
-6.81937997452984
30
0
41
1
10
67.4903143883244
20
-6.81401146359405
30
0
41
1
10
67.4930016547271
20
-6.80907156498048
30
0
41
1
10
67.4952541638165
20
-6.80455863474178
30
0
41
1
10
67.497121439244
20
-6.80036284253003
30
0
41
1
10
67.4985671686376
20
-6.79653076356827
30
0
41
1
10
67.4994651805632
20
-6.79341660613701
30
0
41
1
10
67.4999258708228
20
-6.79093138627155
30
0
41
1
10
67.5000177615761
20
-6.78962800692199
30
0
41
1
10
67.5000190528383
20
-6.78901781907117
30
0
0
SPLINE
5
189
100
AcDbEntity
8
1
62
256
6
ByLayer
370
18
48
1
60
0
100
AcDbSpline
70
4
71
3
72
26
73
22
40
0
40
0
40
0
40
0
40
0.0527252366264783
40
0.105629164814726
40
0.158512902395532
40
0.211210511097558
40
0.253692763122704
40
0.296326615457635
40
0.339018517929497
40
0.381664803375596
40
0.424157520620486
40
0.47578290596418
40
0.527552991990955
40
0.579347979133062
40
0.631007412679912
40
0.691170164400917
40
0.75151856263771
40
0.811977812531001
40
0.872416049135978
40
0.93265439044218
40
1
40
1
40
1
40
1
41
1
10
67.5000190528383
20
-6.73091908124851
30
0
41
1
10
67.5000190378451
20
-6.73008239998192
30
0
41
1
10
67.4998504843591
20
-6.72857282134675
30
0
41
1
10
67.4990928300089
20
-6.72679869713807
30
0
41
1
10
67.4978241205584
20
-6.72554584741734
30
0
41
1
10
67.4961508881763
20
-6.72488772993099
30
0
41
1
10
67.494170017743
20
-6.72473728855727
30
0
41
1
10
67.4920028171695
20
-6.72496879945377
30
0
41
1
10
67.4895208143168
20
-6.72556206598
30
0
41
1
10
67.4867453584251
20
-6.7265084813128
30
0
41
1
10
67.4834717390736
20
-6.72789640571273
30
0
41
1
10
67.4796380058274
20
-6.72981324693884
30
0
41
1
10
67.4752170467801
20
-6.73231051908202
30
0
41
1
10
67.4704933282196
20
-6.73523015696308
30
0
41
1
10
67.465234353326
20
-6.73871856254574
30
0
41
1
10
67.459420354538
20
-6.74282292501232
30
0
41
1
10
67.4530529497177
20
-6.74756273224612
30
0
41
1
10
67.446465967017
20
-6.75268515988633
30
0
41
1
10
67.4397149565
20
-6.75813245521386
30
0
41
1
10
67.4325645469651
20
-6.76409199108481
30
0
41
1
10
67.4276408031089
20
-6.76831793466135
30
0
41
1
10
67.4250190528383
20
-6.77060263198974
30
0
0
SPLINE
5
18A
100
AcDbEntity
8
1
62
256
6
ByLayer
370
18
48
1
60
0
100
AcDbSpline
70
4
71
2
72
6
73
3
40
0
40
0
40
0
40
1
40
1
40
1
41
1
10
67.4250190528383
20
-6.77060263198974
30
0
41
1
10
67.103206904878
20
-7.05083881426716
30
0
41
1
10
66.7809809471617
20
-7.33044026667588
30
0
0
SPLINE
5
18B
100
AcDbEntity
8
1
62
256
6
ByLayer
370
18
48
1
60
0
100
AcDbSpline
70
4
71
3
72
27
73
23
40
0
40
0
40
0
40
0
40
0.059735801161008
40
0.119517622049819
40
0.179294208261305
40
0.239022865612395
40
0.300538487530969
40
0.362123717538993
40
0.423694775493579
40
0.485191049200244
40
0.531609895812164
40
0.578149386366028
40
0.624727063436442
40
0.671277018003947
40
0.717752456034879
40
0.764128499709252
40
0.808191186401201
40
0.852397369618966
40
0.896622318654352
40
0.940771193689112
40
0.984785663798731
40
1
40
1
40
1
40
1
41
1
10
66.7809809471617
20
-7.23638430939673
30
0
41
1
10
66.7783147854177
20
-7.23969487241858
30
0
41
1
10
66.7730522585702
20
-7.24629311278823
30
0
41
1
10
66.7653652544725
20
-7.2561230572861
30
0
41
1
10
66.7579104514182
20
-7.26586034748308
30
0
41
1
10
66.7506356485237
20
-7.27558108607868
30
0
41
1
10
66.7435691412269
20
-7.28526334481446
30
0
41
1
10
66.7367475264813
20
-7.29487749321718
30
0
41
1
10
66.730275154249
20
-7.30429398223428
30
0
41
1
10
66.7246867321359
20
-7.31272492171541
30
0
41
1
10
66.7199070245206
20
-7.32020734214402
30
0
41
1
10
66.7158528761528
20
-7.32679085850488
30
0
41
1
10
66.7120817251196
20
-7.33318112920522
30
0
41
1
10
66.7086245268289
20
-7.339342870819
30
0
41
1
10
66.705512740686
20
-7.34524034575519
30
0
41
1
10
66.7028194815147
20
-7.35075030591725
30
0
41
1
10
66.7005558275273
20
-7.35585855473559
30
0
41
1
10
66.6987259597974
20
-7.36055379732955
30
0
41
1
10
66.6973201262234
20
-7.3648860352905
30
0
41
1
10
66.6963743547522
20
-7.3688044424646
30
0
41
1
10
66.6960221669172
20
-7.37150985346331
30
0
41
1
10
66.6959812004811
20
-7.37290606409235
30
0
41
1
10
66.6959809477443
20
-7.37325505498152
30
0
0
SPLINE
5
18C
100
AcDbEntity
8
1
62
256
6
ByLayer
370
18
48
1
60
0
100
AcDbSpline
70
4
71
3
72
13
73
9
40
0
40
0
40
0
40
0
40
0.16666317602541
40
0.333326555434453
40
0.499989745446436
40
0.666659764221437
40
0.833329968630745
40
1
40
1
40
1
40
1
41
1
10
67.4250190528383
20
-6.42644647218992
30
0
41
1
10
67.3894918205425
20
-6.47170812797296
30
0
41
1
10
67.3183519680574
20
-6.56214172196472
30
0
41
1
10
67.2113841451447
20
-6.69752117818485
30
0
41
1
10
67.1041628794579
20
-6.8326363498418
30
0
41
1
10
66.996692176673
20
-6.96749043181425
30
0
41
1
10
66.888975840326
20
-7.10208644180385
30
0
41
1
10
66.8170059414525
20
-7.19164690929851
30
0
41
1
10
66.7809809471617
20
-7.23638430939673
30
0
0
SPLINE
5
18D
100
AcDbEntity
8
1
62
256
6
ByLayer
370
18
48
1
60
0
100
AcDbSpline
70
4
71
3
72
25
73
21
40
0
40
0
40
0
40
0
40
0.0423991015052763
40
0.084850208209922
40
0.127262133156763
40
0.171179984589322
40
0.215137657739498
40
0.259065774162739
40
0.315230124002285
40
0.371450614767058
40
0.427631074025728
40
0.485360959861771
40
0.543130663306233
40
0.600870141056976
40
0.66673713071451
40
0.73264589293053
40
0.798521243636763
40
0.865668189835163
40
0.932848816562641
40
1
40
1
40
1
40
1
41
1
10
67.5000190528383
20
-6.29863145518854
30
0
41
1
10
67.5000157568121
20
-6.29964671515435
30
0
41
1
10
67.4998730082466
20
-6.30179952538945
30
0
41
1
10
67.4992374288605
20
-6.30540928064869
30
0
41
1
10
67.4982065794353
20
-6.3093943155453
30
0
41
1
10
67.4967864889001
20
-6.31373896385885
30
0
41
1
10
67.494994380345
20
-6.3184175771251
30
0
41
1
10
67.4926765699544
20
-6.3238065837204
30
0
41
1
10
67.4897509405715
20
-6.32995784751969
30
0
41
1
10
67.4861489134213
20
-6.33690493306669
30
0
41
1
10
67.4821053714034
20
-6.34418861667817
30
0
41
1
10
67.4776468798475
20
-6.35177756170856
30
0
41
1
10
67.472796785103
20
-6.35964480196176
30
0
41
1
10
67.467384315218
20
-6.36806907729986
30
0
41
1
10
67.4613874619263
20
-6.37705074945819
30
0
41
1
10
67.4547886867619
20
-6.38658406716332
30
0
41
1
10
67.4478313794226
20
-6.39631772977503
30
0
41
1
10
67.4405372850895
20
-6.40622829146867
30
0
41
1
10
67.4329218555618
20
-6.4162974981575
30
0
41
1
10
67.4276812381222
20
-6.42305549043734
30
0
41
1
10
67.4250190528383
20
-6.42644647218992
30
0
0
SPLINE
5
18E
100
AcDbEntity
8
1
62
256
6
ByLayer
370
18
48
1
60
0
100
AcDbSpline
70
4
71
3
72
27
73
23
40
0
40
0
40
0
40
0
40
0.0564435780060961
40
0.113045374892879
40
0.169663755664412
40
0.22619461644375
40
0.282578538738076
40
0.328561869940768
40
0.374698412495889
40
0.420861590210978
40
0.46694967870378
40
0.512892238947586
40
0.559172171241248
40
0.605660599828809
40
0.652212209590097
40
0.698685531749749
40
0.744952737374604
40
0.795478795043565
40
0.846170985819985
40
0.896884415149197
40
0.947439527442137
40
1
40
1
40
1
40
1
41
1
10
67.4250190528383
20
-6.25167879984997
30
0
41
1
10
67.4272242419369
20
-6.24980882911614
30
0
41
1
10
67.4316142595622
20
-6.24614939110371
30
0
41
1
10
67.4381346468037
20
-6.24090025027268
30
0
41
1
10
67.4445555716732
20
-6.23593595670418
30
0
41
1
10
67.4508370256779
20
-6.23130106116507
30
0
41
1
10
67.4565678361024
20
-6.22729982601856
30
0
41
1
10
67.4617534088678
20
-6.22389588079329
30
0
41
1
10
67.4664160380443
20
-6.22103010876587
30
0
41
1
10
67.4708917008647
20
-6.21848808180007
30
0
41
1
10
67.4751414609599
20
-6.21630299783487
30
0
41
1
10
67.4791433263998
20
-6.21449840821927
30
0
41
1
10
67.4828591811426
20
-6.21311650460584
30
0
41
1
10
67.4862705186018
20
-6.21216575374491
30
0
41
1
10
67.4893485099635
20
-6.21165299085481
30
0
41
1
10
67.4920624007902
20
-6.21158738431495
30
0
41
1
10
67.4944562032618
20
-6.21199286530395
30
0
41
1
10
67.4964635936365
20
-6.21293067487759
30
0
41
1
10
67.4980588281911
20
-6.21441085756562
30
0
41
1
10
67.4991917289114
20
-6.21637388454604
30
0
41
1
10
67.4998715500718
20
-6.21883026403336
30
0
41
1
10
67.5000224924756
20
-6.22076643785037
30
0
41
1
10
67.5000190528383
20
-6.22183121620635
30
0
0
SPLINE
5
18F
100
AcDbEntity
8
1
62
256
6
ByLayer
370
18
48
1
60
0
100
AcDbSpline
70
4
71
2
72
6
73
3
40
0
40
0
40
0
40
1
40
1
40
1
41
1
10
66.7809809471617
20
-6.79691650505021
30
0
41
1
10
67.1031189142752
20
-6.52448493547378
30
0
41
1
10
67.4250190528383
20
-6.25167879984997
30
0
0
SPLINE
5
190
100
AcDbEntity
8
1
62
256
6
ByLayer
370
18
48
1
60
0
100
AcDbSpline
70
4
71
3
72
29
73
25
40
0
40
0
40
0
40
0
40
0.055846909523991
40
0.111849215794351
40
0.167867571137054
40
0.223799751740353
40
0.279587688322372
40
0.325109966761844
40
0.370783901910524
40
0.416483862534251
40
0.462109180152133
40
0.507590550146755
40
0.5534115281981
40
0.599439875773097
40
0.645530967800998
40
0.691544095499843
40
0.73735225104964
40
0.777269354561479
40
0.817306586623946
40
0.857397633433915
40
0.897459647560691
40
0.937397599588524
40
0.989351022603439
40
1
40
1
40
1
40
1
41
1
10
66.7809809471617
20
-6.79691650505021
30
0
41
1
10
66.7785056257043
20
-6.79901120498096
30
0
41
1
10
66.7735769696349
20
-6.80310991353234
30
0
41
1
10
66.7662540781158
20
-6.8089878381203
30
0
41
1
10
66.7590395911089
20
-6.81454490797017
30
0
41
1
10
66.7519777979541
20
-6.8197309771374
30
0
41
1
10
66.7455295472517
20
-6.82420612898524
30
0
41
1
10
66.7396892106348
20
-6.82801098606493
30
0
41
1
10
66.7344325491955
20
-6.83121139741279
30
0
41
1
10
66.7293819855622
20
-6.83404569845508
30
0
41
1
10
66.7245810686786
20
-6.83647606381967
30
0
41
1
10
66.7200540443849
20
-6.83847560214407
30
0
41
1
10
66.7158434718526
20
-6.83999582710598
30
0
41
1
10
66.711970160827
20
-6.84102660954418
30
0
41
1
10
66.7084667619398
20
-6.84156022895972
30
0
41
1
10
66.7053680891048
20
-6.84158620216384
30
0
41
1
10
66.7028183709191
20
-6.84111230719058
30
0
41
1
10
66.700776748562
20
-6.84020402225511
30
0
41
1
10
66.6991639257132
20
-6.83896053957701
30
0
41
1
10
66.6978805263866
20
-6.83735675500048
30
0
41
1
10
66.6969246226803
20
-6.83541235981848
30
0
41
1
10
66.6962268787264
20
-6.83291844348997
30
0
41
1
10
66.6960092450761
20
-6.83066123271729
30
0
41
1
10
66.6959821185985
20
-6.82918471282412
30
0
41
1
10
66.6959809479214
20
-6.82893025035227
30
0
0
SPLINE
5
191
100
AcDbEntity
8
1
62
256
6
ByLayer
370
18
48
1
60
0
100
AcDbSpline
70
4
71
3
72
13
73
9
40
0
40
0
40
0
40
0
40
0.16666176345178
40
0.333323776576039
40
0.499985521383354
40
0.666656929844796
40
0.833328612279889
40
1
40
1
40
1
40
1
41
1
10
66.7809809471617
20
-6.67581976235125
30
0
41
1
10
66.8170746439221
20
-6.627895172387
30
0
41
1
10
66.889158923326
20
-6.53194291769002
30
0
41
1
10
66.9969783292309
20
-6.38770736791533
30
0
41
1
10
67.1044852592094
20
-6.24315642061679
30
0
41
1
10
67.2116745962857
20
-6.09828649410826
30
0
41
1
10
67.318540955573
20
-5.95309379780904
30
0
41
1
10
67.3895630933033
20
-5.85608159514889
30
0
41
1
10
67.4250190528383
20
-5.80752158581114
30
0
0
SPLINE
5
192
100
AcDbEntity
8
1
62
256
6
ByLayer
370
18
48
1
60
0
100
AcDbSpline
70
4
71
3
72
25
73
21
40
0
40
0
40
0
40
0
40
0.0650353956255641
40
0.130123293780633
40
0.195206243102798
40
0.260234884777989
40
0.327281925646017
40
0.394407052782034
40
0.461515859521951
40
0.528540618391165
40
0.576750106864201
40
0.624979171777389
40
0.673182553591563
40
0.722365023672195
40
0.771577207988456
40
0.820747678887647
40
0.865214836551792
40
0.909678309832135
40
0.954841858249314
40
1
40
1
40
1
40
1
41
1
10
67.4250190528383
20
-5.80752158581114
30
0
41
1
10
67.4276159886388
20
-5.80396543712994
30
0
41
1
10
67.4327267758824
20
-5.79686734911114
30
0
41
1
10
67.4401463688595
20
-5.78626212003678
30
0
41
1
10
67.4472934501576
20
-5.77572494427189
30
0
41
1
10
67.4542189440548
20
-5.76516828502042
30
0
41
1
10
67.4608926041486
20
-5.75461306866288
30
0
41
1
10
67.4672736368744
20
-5.7440887057862
30
0
41
1
10
67.4732563038499
20
-5.73373879432096
30
0
41
1
10
67.4782814382983
20
-5.72455146772502
30
0
41
1
10
67.4824501095984
20
-5.71649280422957
30
0
41
1
10
67.4858689381659
20
-5.70951270839717
30
0
41
1
10
67.4890162877196
20
-5.70265998726131
30
0
41
1
10
67.4918597772219
20
-5.69596425476526
30
0
41
1
10
67.4943602806996
20
-5.68946332473256
30
0
41
1
10
67.4963971180762
20
-5.6834375905178
30
0
41
1
10
67.4979787716313
20
-5.67789699479147
30
0
41
1
10
67.4991248764127
20
-5.67281810530779
30
0
41
1
10
67.4998505895924
20
-5.66805597586781
30
0
41
1
10
67.5000146901791
20
-5.66514298293234
30
0
41
1
10
67.5000190528383
20
-5.66375222872178
30
0
0
SPLINE
5
193
100
AcDbEntity
8
1
62
256
6
ByLayer
370
18
48
1
60
0
100
AcDbSpline
70
4
71
3
72
28
73
24
40
0
40
0
40
0
40
0
40
0.0524328969297314
40
0.105011915957119
40
0.157557587827026
40
0.209944879260067
40
0.252398722579679
40
0.295023812034111
40
0.337697316403626
40
0.380303632135921
40
0.422741666777764
40
0.471822933092688
40
0.521073604843117
40
0.570343776507008
40
0.61945172342234
40
0.668638102994034
40
0.717978884366992
40
0.767408177699238
40
0.816816827024629
40
0.866060312907932
40
0.910695698597818
40
0.955358119748223
40
1
40
1
40
1
40
1
41
1
10
67.5000190528383
20
-5.56634679022966
30
0
41
1
10
67.5000208823497
20
-5.56505587838657
30
0
41
1
10
67.4998758750776
20
-5.56261033471854
30
0
41
1
10
67.4992209841126
20
-5.55934287673292
30
0
41
1
10
67.498100349431
20
-5.55653407712808
30
0
41
1
10
67.4965959059711
20
-5.55437409363876
30
0
41
1
10
67.4947800007494
20
-5.552808245841
30
0
41
1
10
67.4927558926498
20
-5.55173566353167
30
0
41
1
10
67.4904035567823
20
-5.55104977712055
30
0
41
1
10
67.4877359190684
20
-5.55076273781153
30
0
41
1
10
67.4846046661631
20
-5.55089412025151
30
0
41
1
10
67.4809527472524
20
-5.55153868296587
30
0
41
1
10
67.4767671393107
20
-5.55274421194799
30
0
41
1
10
67.4722656615329
20
-5.55445133559303
30
0
41
1
10
67.4674866666947
20
-5.55663716894318
30
0
41
1
10
67.4624595329213
20
-5.55928358931644
30
0
41
1
10
67.4572226555593
20
-5.56234424082624
30
0
41
1
10
67.451815669274
20
-5.56577844852639
30
0
41
1
10
67.4462824886526
20
-5.56954178302633
30
0
41
1
10
67.4408285322581
20
-5.57347496915255
30
0
41
1
10
67.4354854192079
20
-5.57751924681081
30
0
41
1
10
67.4302709071178
20
-5.58162731202602
30
0
41
1
10
67.4267735032444
20
-5.58448127479943
30
0
41
1
10
67.4250190528383
20
-5.58593807462778
30
0
0
SPLINE
5
194
100
AcDbEntity
8
1
62
256
6
ByLayer
370
18
48
1
60
0
100
AcDbSpline
70
4
71
1
72
4
73
2
40
0
40
0
40
1
40
1
41
1
10
67.4250190528383
20
-5.58593807462778
30
0
41
1
10
66.7809809471617
20
-6.12012561103662
30
0
0
SPLINE
5
195
100
AcDbEntity
8
1
62
256
6
ByLayer
370
18
48
1
60
0
100
AcDbSpline
70
4
71
3
72
27
73
23
40
0
40
0
40
0
40
0
40
0.0673321232354205
40
0.134719165576338
40
0.202100939995892
40
0.269425873740139
40
0.324980064820235
40
0.380602508459119
40
0.436236404204704
40
0.491836935761896
40
0.547372726965776
40
0.592758825371187
40
0.638245831036222
40
0.683763061968599
40
0.729255093239025
40
0.774683886055334
40
0.820031097840821
40
0.856275057995569
40
0.892632717457024
40
0.929024675463349
40
0.965388233773431
40
1
40
1
40
1
40
1
41
1
10
66.7809809471617
20
-5.96907985778152
30
0
41
1
10
66.7779387474764
20
-5.97343284679076
30
0
41
1
10
66.7719566125226
20
-5.98212379780167
30
0
41
1
10
66.7632871838948
20
-5.9951162718603
30
0
41
1
10
66.7549518484663
20
-6.00803175079746
30
0
41
1
10
66.7474387406518
20
-6.0200981646103
30
0
41
1
10
66.7406971528896
20
-6.03131671136521
30
0
41
1
10
66.7346754457185
20
-6.04169711877785
30
0
41
1
10
66.7289526514075
20
-6.05195656772932
30
0
41
1
10
66.7235572853654
20
-6.06206410773068
30
0
41
1
10
66.7188223213603
20
-6.07138916447796
30
0
41
1
10
66.7146959562128
20
-6.07995084967802
30
0
41
1
10
66.711126557004
20
-6.08777230286768
30
0
41
1
10
66.7078530472669
20
-6.09542215623682
30
0
41
1
10
66.7049055493639
20
-6.1028648749943
30
0
41
1
10
66.7023147268131
20
-6.11006444839061
30
0
41
1
10
66.7002557688067
20
-6.1165271891111
30
0
41
1
10
66.6986706760318
20
-6.12228802863996
30
0
41
1
10
66.6974955459556
20
-6.12739015483518
30
0
41
1
10
66.6966291039353
20
-6.13225075243336
30
0
41
1
10
66.6961024161442
20
-6.13676449537182
30
0
41
1
10
66.6959849938509
20
-6.13954644715828
30
0
41
1
10
66.6959809472149
20
-6.14085736871983
30
0
0
SPLINE
5
196
100
AcDbEntity
8
1
62
256
6
ByLayer
370
18
48
1
60
0
100
AcDbSpline
70
4
71
3
72
13
73
9
40
0
40
0
40
0
40
0
40
0.166659329483101
40
0.333319087910337
40
0.499978448373656
40
0.666652159741751
40
0.833326260798078
40
1
40
1
40
1
40
1
41
1
10
67.4250190528383
20
-5.0300672644229
30
0
41
1
10
67.3896644812
20
-5.08261762178602
30
0
41
1
10
67.3188115173155
20
-5.18758856511911
30
0
41
1
10
67.2120972492648
20
-5.34465305047983
30
0
41
1
10
67.1049560540853
20
-5.50133662548876
30
0
41
1
10
66.997395144969
20
-5.65764362294203
30
0
41
1
10
66.889421384544
20
-5.8135781387978
30
0
41
1
10
66.8171725034115
20
-5.91728740850184
30
0
41
1
10
66.7809809471617
20
-5.96907985778152
30
0
0
SPLINE
5
197
100
AcDbEntity
8
1
62
256
6
ByLayer
370
18
48
1
60
0
100
AcDbSpline
70
4
71
3
72
25
73
21
40
0
40
0
40
0
40
0
40
0.0467115821854371
40
0.0934827546545953
40
0.140214634532838
40
0.188488561364051
40
0.236801190203213
40
0.285087022484337
40
0.33660139264234
40
0.388166292382474
40
0.439742298993363
40
0.491271829142451
40
0.54417603487331
40
0.597115595938363
40
0.650060370608149
40
0.702971690423229
40
0.776936914593443
40
0.850903817925852
40
0.925451547292854
40
1
40
1
40
1
40
1
41
1
10
67.5000190528383
20
-4.86757463585476
30
0
41
1
10
67.5000135299198
20
-4.8693791739928
30
0
41
1
10
67.4998355381364
20
-4.87312320886046
30
0
41
1
10
67.4990454699327
20
-4.87916541914403
30
0
41
1
10
67.4977842669274
20
-4.88562038437215
30
0
41
1
10
67.4960725854318
20
-4.8924557681812
30
0
41
1
10
67.4939356580959
20
-4.89963598490923
30
0
41
1
10
67.4913714620941
20
-4.90721438096872
30
0
41
1
10
67.4883864477686
20
-4.91517346659755
30
0
41
1
10
67.484983403822
20
-4.92349925096185
30
0
41
1
10
67.4812549469405
20
-4.93199182337006
30
0
41
1
10
67.4771927706775
20
-4.94070058456548
30
0
41
1
10
67.4728109228922
20
-4.94960967044582
30
0
41
1
10
67.468117951046
20
-4.95870760523102
30
0
41
1
10
67.4631705659114
20
-4.96789831272675
30
0
41
1
10
67.4572989327459
20
-4.97839352840404
30
0
41
1
10
67.4504014694819
20
-4.99021440422525
30
0
41
1
10
67.4423550943623
20
-5.00340314149693
30
0
41
1
10
67.4339051109937
20
-5.01669648696473
30
0
41
1
10
67.4280215188062
20
-5.0256051227884
30
0
41
1
10
67.4250190528383
20
-5.0300672644229
30
0
0
SPLINE
5
198
100
AcDbEntity
8
1
62
256
6
ByLayer
370
18
48
1
60
0
100
AcDbSpline
70
4
71
3
72
29
73
25
40
0
40
0
40
0
40
0
40
0.0469829904522524
40
0.0940851689066629
40
0.141199311705206
40
0.188247128015369
40
0.235184412892551
40
0.283009930848703
40
0.331067573310641
40
0.379165060978611
40
0.42714716794001
40
0.474909033726711
40
0.515871681415264
40
0.557007095415451
40
0.598206788354216
40
0.639352462739797
40
0.680323752373923
40
0.726170510734816
40
0.772144609490958
40
0.818142819746815
40
0.864022545541315
40
0.909329688477491
40
0.954681035323063
40
1
40
1
40
1
40
1
41
1
10
67.4250190528383
20
-4.75535172080222
30
0
41
1
10
67.4268830433356
20
-4.75382387834928
30
0
41
1
10
67.4306058646271
20
-4.75084339875298
30
0
41
1
10
67.4361711169009
20
-4.74659570567081
30
0
41
1
10
67.4416933290482
20
-4.74260892598008
30
0
41
1
10
67.4471435064563
20
-4.73891973633305
30
0
41
1
10
67.4525299701081
20
-4.73554040169955
30
0
41
1
10
67.4578267919773
20
-4.7325238162266
30
0
41
1
10
67.4630014791433
20
-4.72991001853868
30
0
41
1
10
67.4679824047968
20
-4.7277479182685
30
0
41
1
10
67.4727122934428
20
-4.72608171990075
30
0
41
1
10
67.476933225431
20
-4.72500557045294
30
0
41
1
10
67.4806494885621
20
-4.72447493746323
30
0
41
1
10
67.4839086921077
20
-4.72439029401021
30
0
41
1
10
67.4868909867781
20
-4.72471596753199
30
0
41
1
10
67.4895745449604
20
-4.72544509343858
30
0
41
1
10
67.4920344768899
20
-4.72662120652765
30
0
41
1
10
67.4942143255479
20
-4.7282963140133
30
0
41
1
10
67.4960883934852
20
-4.73047960138936
30
0
41
1
10
67.49758555497
20
-4.73307261576808
30
0
41
1
10
67.4987098066511
20
-4.73602893466494
30
0
41
1
10
67.4994791314366
20
-4.73931197283084
30
0
41
1
10
67.4999231375466
20
-4.74288144302077
30
0
41
1
10
67.5000210243369
20
-4.74543454493474
30
0
41
1
10
67.5000190528383
20
-4.74675610308276
30
0
0
SPLINE
5
199
100
AcDbEntity
8
1
62
256
6
ByLayer
370
18
48
1
60
0
100
AcDbSpline
70
4
71
1
72
4
73
2
40
0
40
0
40
1
40
1
41
1
10
66.7809809471617
20
-5.28274409936108
30
0
41
1
10
67.4250190528383
20
-4.75535172080222
30
0
0
SPLINE
5
19A
100
AcDbEntity
8
1
62
256
6
ByLayer
370
18
48
1
60
0
100
AcDbSpline
70
4
71
3
72
31
73
27
40
0
40
0
40
0
40
0
40
0.0467065332185848
40
0.0935309900908867
40
0.140367186639237
40
0.187137672301702
40
0.233798829168741
40
0.273369845235827
40
0.313124890818805
40
0.352948451993128
40
0.392741129336003
40
0.43242474522113
40
0.471947934104697
40
0.512652594422329
40
0.553530537884241
40
0.594472610679067
40
0.635360176814121
40
0.676072942265232
40
0.721428708511106
40
0.766910657155474
40
0.812416628244141
40
0.857805240284742
40
0.903600363827878
40
0.949512739004885
40
0.995518836505368
40
1
40
1
40
1
40
1
41
1
10
66.7809809471617
20
-5.28274409936108
30
0
41
1
10
66.7788774975968
20
-5.28446793056045
30
0
41
1
10
66.7746762239848
20
-5.28783082060296
30
0
41
1
10
66.7683951959061
20
-5.29262386187437
30
0
41
1
10
66.7621618609182
20
-5.29712270963793
30
0
41
1
10
66.7560087032758
20
-5.3012859806942
30
0
41
1
10
66.7502699267776
20
-5.30488392915134
30
0
41
1
10
66.7449501183721
20
-5.30793796471259
30
0
41
1
10
66.740042579177
20
-5.31049471810603
30
0
41
1
10
66.735270942003
20
-5.31270775786203
30
0
41
1
10
66.7306724373446
20
-5.31454781675851
30
0
41
1
10
66.7262841910755
20
-5.3159862256907
30
0
41
1
10
66.7220954156498
20
-5.31700625896377
30
0
41
1
10
66.7181451192308
20
-5.31755953829702
30
0
41
1
10
66.7144507306069
20
-5.31764237035203
30
0
41
1
10
66.7110670018265
20
-5.31725804528474
30
0
41
1
10
66.7080188776142
20
-5.31641395196501
30
0
41
1
10
66.7052253935629
20
-5.31506161531126
30
0
41
1
10
66.702747892356
20
-5.31314398944182
30
0
41
1
10
66.700612455063
20
-5.31065325195967
30
0
41
1
10
66.6988967839464
20
-5.30769849819102
30
0
41
1
10
66.697585876866
20
-5.30430937629443
30
0
41
1
10
66.6966731565805
20
-5.30051072678144
30
0
41
1
10
66.6961212022997
20
-5.29634982797206
30
0
41
1
10
66.6960032161706
20
-5.29319490982881
30
0
41
1
10
66.6959823415694
20
-5.29150877913476
30
0
41
1
10
66.6959809474221
20
-5.29135871989186
30
0
0
SPLINE
5
19B
100
AcDbEntity
8
1
62
256
6
ByLayer
370
18
48
1
60
0
100
AcDbSpline
70
4
71
3
72
14
73
10
40
0
40
0
40
0
40
0
40
0.166656174020745
40
0.333312878852478
40
0.499969010655765
40
0.624976516828488
40
0.749984532976952
40
0.874992525730106
40
1
40
1
40
1
40
1
41
1
10
66.7809809471617
20
-5.09750216513371
30
0
41
1
10
66.8173023852684
20
-5.04089972075185
30
0
41
1
10
66.8897674532906
20
-4.92754374445251
30
0
41
1
10
66.9979359636712
20
-4.7570595974079
30
0
41
1
10
67.0965957555102
20
-4.60035773225311
30
0
41
1
10
67.185887178115
20
-4.45755885071674
30
0
41
1
10
67.265937819671
20
-4.32877092476932
30
0
41
1
10
67.3456686499964
20
-4.19971862618098
30
0
41
1
10
67.3986049692993
20
-4.11350552253011
30
0
41
1
10
67.4250190528383
20
-4.07035465522136
30
0
0
SPLINE
5
19C
100
AcDbEntity
8
1
62
256
6
ByLayer
370
18
48
1
60
0
100
AcDbSpline
70
4
71
3
72
25
73
21
40
0
40
0
40
0
40
0
40
0.0746466396433318
40
0.149356582436326
40
0.224062290503768
40
0.298703150564247
40
0.360341407284934
40
0.422057061504044
40
0.483784821542765
40
0.545473918125527
40
0.607089873494646
40
0.660265452689482
40
0.713463096130318
40
0.766629419843448
40
0.807415535810473
40
0.848240760451653
40
0.88905451039553
40
0.929824963237808
40
0.964872063256559
40
1
40
1
40
1
40
1
41
1
10
67.4250190528383
20
-4.07035465522137
30
0
41
1
10
67.4280547656539
20
-4.06539614523388
30
0
41
1
10
67.4339978806126
20
-4.05548298940192
30
0
41
1
10
67.4425303098745
20
-4.04062414673561
30
0
41
1
10
67.4506504337712
20
-4.0258129354395
30
0
41
1
10
67.4578888036763
20
-4.01193274658997
30
0
41
1
10
67.4643118252802
20
-3.99898843054888
30
0
41
1
10
67.4699818212167
20
-3.98697547206125
30
0
41
1
10
67.4752930448751
20
-3.97506890982872
30
0
41
1
10
67.4802131928173
20
-3.96330379999128
30
0
41
1
10
67.4845073174461
20
-3.95223843966412
30
0
41
1
10
67.4882119784189
20
-3.94187265809393
30
0
41
1
10
67.4913596519972
20
-3.93220462735055
30
0
41
1
10
67.4938888236648
20
-3.92348091266175
30
0
41
1
10
67.4958741852007
20
-3.91567708254507
30
0
41
1
10
67.4973931933987
20
-3.90875821823408
30
0
41
1
10
67.498601945633
20
-3.90203697088746
30
0
41
1
10
67.4994317015074
20
-3.8958504217152
30
0
41
1
10
67.4999135468079
20
-3.89018495976763
30
0
41
1
10
67.5000163606674
20
-3.88675681527259
30
0
41
1
10
67.5000190528383
20
-3.88507745679562
30
0
0
SPLINE
5
19D
100
AcDbEntity
8
1
62
256
6
ByLayer
370
18
48
1
60
0
100
AcDbSpline
70
4
71
3
72
29
73
25
40
0
40
0
40
0
40
0
40
0.0553728329638819
40
0.110870851377201
40
0.16632424139787
40
0.221636070799767
40
0.266713700944841
40
0.312010219068195
40
0.357339760169938
40
0.402556251642938
40
0.447566445881486
40
0.486286014672351
40
0.525176231429096
40
0.564129211320059
40
0.603028082287963
40
0.641754941564002
40
0.684165696906332
40
0.72669345422714
40
0.769244523758088
40
0.811687152937311
40
0.85870419106407
40
0.905813616976686
40
0.952948365971917
40
1
40
1
40
1
40
1
41
1
10
67.5000190528383
20
-3.73659984976087
30
0
41
1
10
67.5000227295194
20
-3.73471476952704
30
0
41
1
10
67.4998888521804
20
-3.73106082335266
30
0
41
1
10
67.4992808586987
20
-3.72591539721016
30
0
41
1
10
67.4982145480348
20
-3.72118540562588
30
0
41
1
10
67.4967548653675
20
-3.71719295913014
30
0
41
1
10
67.4949552029094
20
-3.71391072869686
30
0
41
1
10
67.4929033846868
20
-3.71126661939618
30
0
41
1
10
67.4904723339876
20
-3.70906281328032
30
0
41
1
10
67.4876621692151
20
-3.70734676280207
30
0
41
1
10
67.484617304879
20
-3.70621677494101
30
0
41
1
10
67.4813874136881
20
-3.70563493209682
30
0
41
1
10
67.4780510008984
20
-3.70550530533062
30
0
41
1
10
67.474468753932
20
-3.70579046704631
30
0
41
1
10
67.4706735306211
20
-3.70648452426476
30
0
41
1
10
67.4665608352873
20
-3.70762236099056
30
0
41
1
10
67.4621285308587
20
-3.70924502613263
30
0
41
1
10
67.4573962556123
20
-3.71134932634556
30
0
41
1
10
67.4525336209608
20
-3.71385074852333
30
0
41
1
10
67.4473970877148
20
-3.7168179264354
30
0
41
1
10
67.4420007153213
20
-3.72026546755198
30
0
41
1
10
67.4363637021496
20
-3.72418689613273
30
0
41
1
10
67.430693464739
20
-3.72842680787934
30
0
41
1
10
67.4269109026762
20
-3.7314308230013
30
0
41
1
10
67.4250190528383
20
-3.73297867273371
30
0
0
SPLINE
5
19E
100
AcDbEntity
8
1
62
256
6
ByLayer
370
18
48
1
60
0
100
AcDbSpline
70
4
71
1
72
4
73
2
40
0
40
0
40
1
40
1
41
1
10
67.4250190528383
20
-3.73297867273371
30
0
41
1
10
66.7809809471617
20
-4.2591932680759
30
0
0
SPLINE
5
19F
100
AcDbEntity
8
1
62
256
6
ByLayer
370
18
48
1
60
0
100
AcDbSpline
70
4
71
3
72
26
73
22
40
0
40
0
40
0
40
0
40
0.0597478977288489
40
0.119541610895688
40
0.179348213568401
40
0.239137275337012
40
0.298881268926089
40
0.36041149024457
40
0.422013856838479
40
0.483626964653896
40
0.545203544571104
40
0.606712113717958
40
0.656297560441388
40
0.705958910509915
40
0.755625284844854
40
0.805247200657751
40
0.854799524950073
40
0.895994989736983
40
0.937212261344129
40
0.978396200430777
40
1
40
1
40
1
40
1
41
1
10
66.7809809471617
20
-4.03336425780609
30
0
41
1
10
66.7782418184659
20
-4.03807778724139
30
0
41
1
10
66.772854505676
20
-4.04750438771169
30
0
41
1
10
66.7650462883905
20
-4.0616414665826
30
0
41
1
10
66.7575256465839
20
-4.07575638976644
30
0
41
1
10
66.7503069193499
20
-4.08982860153252
30
0
41
1
10
66.7433348101412
20
-4.10398057496566
30
0
41
1
10
66.7366293425476
20
-4.11820077309365
30
0
41
1
10
66.730224978503
20
-4.1324694474483
30
0
41
1
10
66.7242180145071
20
-4.1466197310753
30
0
41
1
10
66.7186441721606
20
-4.16061230658997
30
0
41
1
10
66.7138670420558
20
-4.17352269731622
30
0
41
1
10
66.7098124843994
20
-4.18536885011406
30
0
41
1
10
66.706413651768
20
-4.1961722531445
30
0
41
1
10
66.7034075905606
20
-4.20677537580581
30
0
41
1
10
66.7008363893899
20
-4.21712988607634
30
0
41
1
10
66.6988579653882
20
-4.22662734442941
30
0
41
1
10
66.6974207351507
20
-4.23528282287034
30
0
41
1
10
66.6964755785473
20
-4.2431140203284
30
0
41
1
10
66.6960490203555
20
-4.2494359149163
30
0
41
1
10
66.6959823067387
20
-4.25310187581604
30
0
41
1
10
66.6959809483638
20
-4.25434670306432
30
0
0
SPLINE
5
1A0
100
AcDbEntity
8
1
62
256
6
ByLayer
370
18
48
1
60
0
100
AcDbSpline
70
4
71
3
72
15
73
11
40
0
40
0
40
0
40
0
40
0.124987626519733
40
0.249976035891166
40
0.374964481729617
40
0.499952157977412
40
0.624963745559764
40
0.749976040242815
40
0.874988367710743
40
1
40
1
40
1
40
1
41
1
10
67.4250190528383
20
-2.89196874692274
30
0
41
1
10
67.3987635471988
20
-2.93995192221873
30
0
41
1
10
67.3461047382407
20
-3.03580987944501
30
0
41
1
10
67.2666704578688
20
-3.17926981482835
30
0
41
1
10
67.1867994143036
20
-3.32240584787897
30
0
41
1
10
67.1064925377436
20
-3.46522895648568
30
0
41
1
10
67.0257562538174
20
-3.60774183613932
30
0
41
1
10
66.9445966487265
20
-3.74994711009548
30
0
41
1
10
66.8630245791585
20
-3.89183756294845
30
0
41
1
10
66.8083739691877
20
-3.9862235085686
30
0
41
1
10
66.7809809471617
20
-4.03336425780609
30
0
0
SPLINE
5
1A1
100
AcDbEntity
8
1
62
256
6
ByLayer
370
18
48
1
60
0
100
AcDbSpline
70
4
71
3
72
27
73
23
40
0
40
0
40
0
40
0
40
0.0352049245813073
40
0.0704420347158452
40
0.105688215493663
40
0.140905519858998
40
0.188945502706599
40
0.237011272674305
40
0.285059674552988
40
0.336555269018634
40
0.388095031461773
40
0.439659149239474
40
0.491216872863635
40
0.542727544886144
40
0.608798282372549
40
0.674912092446973
40
0.741030905589011
40
0.807108469793581
40
0.855273701185154
40
0.903438992974472
40
0.951719508429886
40
1
40
1
40
1
40
1
41
1
10
67.5000190528383
20
-2.67757797520173
30
0
41
1
10
67.500016301294
20
-2.67966395601768
30
0
41
1
10
67.499912275029
20
-2.68390535496024
30
0
41
1
10
67.4994491255572
20
-2.69048503986019
30
0
41
1
10
67.4987125628071
20
-2.69724168342042
30
0
41
1
10
67.4976033704949
20
-2.70499003502674
30
0
41
1
10
67.4960349087548
20
-2.71377207417223
30
0
41
1
10
67.4939202078043
20
-2.72362022732724
30
0
41
1
10
67.4913883395316
20
-2.73388313639385
30
0
41
1
10
67.4884454751985
20
-2.74454512085326
30
0
41
1
10
67.4850884572865
20
-2.75559639311667
30
0
41
1
10
67.4814074038628
20
-2.7667715582841
30
0
41
1
10
67.4774266888005
20
-2.77804463900698
30
0
41
1
10
67.4727672087543
20
-2.79046579314237
30
0
41
1
10
67.4673525775175
20
-2.80404912693054
30
0
41
1
10
67.4611000458359
20
-2.8188012734854
30
0
41
1
10
67.45446190749
20
-2.83362084511526
30
0
41
1
10
67.4480925758811
20
-2.84714207351207
30
0
41
1
10
67.442111115762
20
-2.85933762345825
30
0
41
1
10
67.4366038266872
20
-2.87020584929436
30
0
41
1
10
67.4309148737237
20
-2.88108597244736
30
0
41
1
10
67.4270037363578
20
-2.88834144858781
30
0
41
1
10
67.4250190528383
20
-2.89196874692274
30
0
0
SPLINE
5
1A2
100
AcDbEntity
8
1
62
256
6
ByLayer
370
18
48
1
60
0
100
AcDbSpline
70
4
71
3
72
30
73
26
40
0
40
0
40
0
40
0
40
0.0458139173897863
40
0.0917251722306436
40
0.137602333357694
40
0.183369654145268
40
0.220697124387368
40
0.258187271127479
40
0.295705369488761
40
0.333142892432213
40
0.370426039033309
40
0.412579124511612
40
0.454916864320766
40
0.497265603641261
40
0.539433753423918
40
0.577580670686348
40
0.615827391321109
40
0.654096197561752
40
0.692273307123563
40
0.742168981719829
40
0.792208918485505
40
0.842351941499948
40
0.892492978583983
40
0.942473705573705
40
1
40
1
40
1
40
1
41
1
10
67.4250190528383
20
-2.47679573153061
30
0
41
1
10
67.4268965639941
20
-2.47523720861617
30
0
41
1
10
67.4306590797058
20
-2.47222569661437
30
0
41
1
10
67.4363238770844
20
-2.4680132145478
30
0
41
1
10
67.4419774983855
20
-2.464172464411
30
0
41
1
10
67.4472449746572
20
-2.46096300974538
30
0
41
1
10
67.4521081785012
20
-2.45835690712758
30
0
41
1
10
67.4565630687734
20
-2.45628717801153
30
0
41
1
10
67.4609214474559
20
-2.45459492556061
30
0
41
1
10
67.4651413667775
20
-2.45331441226045
30
0
41
1
10
67.4693640040682
20
-2.45244046795547
30
0
41
1
10
67.4735238898128
20
-2.45208751859251
30
0
41
1
10
67.4775624135164
20
-2.45231264784646
30
0
41
1
10
67.4812824422482
20
-2.45311056951812
30
0
41
1
10
67.484541398238
20
-2.45442959235266
30
0
41
1
10
67.4873547573212
20
-2.45619696916531
30
0
41
1
10
67.4897800516648
20
-2.45830527087816
30
0
41
1
10
67.491916157613
20
-2.4607784305645
30
0
41
1
10
67.4939571603225
20
-2.46386899393319
30
0
41
1
10
67.4958084721228
20
-2.46766631143056
30
0
41
1
10
67.4973899096861
20
-2.47222949496537
30
0
41
1
10
67.4985750356688
20
-2.47717746371691
30
0
41
1
10
67.499395667439
20
-2.48244446277667
30
0
41
1
10
67.4999040614402
20
-2.48826283086966
30
0
41
1
10
67.5000232223862
20
-2.49240371634107
30
0
41
1
10
67.5000190528383
20
-2.49467277539591
30
0
0
SPLINE
5
1A3
100
AcDbEntity
8
1
62
256
6
ByLayer
370
18
48
1
60
0
100
AcDbSpline
70
4
71
1
72
4
73
2
40
0
40
0
40
1
40
1
41
1
10
66.7809809471617
20
-3.01012906270992
30
0
41
1
10
67.4250190528383
20
-2.47679573153061
30
0
0
SPLINE
5
1A4
100
AcDbEntity
8
1
62
256
6
ByLayer
370
18
48
1
60
0
100
AcDbSpline
70
4
71
3
72
32
73
28
40
0
40
0
40
0
40
0
40
0.0459218700537469
40
0.0919412983441606
40
0.137926633199012
40
0.18380190705464
40
0.221177790209669
40
0.25871665825674
40
0.296283157324996
40
0.333768578969097
40
0.371099445576524
40
0.404854704099234
40
0.438750058778335
40
0.472699415785485
40
0.506606669360615
40
0.540371949293346
40
0.57839152463489
40
0.616511286090432
40
0.654653020522243
40
0.692702634761376
40
0.74217833198586
40
0.791797116015276
40
0.841518166333254
40
0.891237263078346
40
0.94079735018631
40
0.992848991402334
40
1
40
1
40
1
40
1
41
1
10
66.7809809471617
20
-3.01012906270992
30
0
41
1
10
66.7788445836057
20
-3.01190058975666
30
0
41
1
10
66.7745638107941
20
-3.01532386365413
30
0
41
1
10
66.7681201193879
20
-3.02011281289215
30
0
41
1
10
66.7616906809791
20
-3.02447987227261
30
0
41
1
10
66.7557037402098
20
-3.02812883306253
30
0
41
1
10
66.7501796281279
20
-3.03109205965793
30
0
41
1
10
66.7451223789008
20
-3.03344567837113
30
0
41
1
10
66.740175616815
20
-3.03537104371357
30
0
41
1
10
66.7353870109528
20
-3.03682876601941
30
0
41
1
10
66.7309421172182
20
-3.03775257725618
30
0
41
1
10
66.7268553727177
20
-3.03815738559818
30
0
41
1
10
66.7231110086611
20
-3.03811304761322
30
0
41
1
10
66.7195869437446
20
-3.03764392139402
30
0
41
1
10
66.7163084652208
20
-3.03675947044977
30
0
41
1
10
66.7131696081504
20
-3.03540844954679
30
0
41
1
10
66.7102220565266
20
-3.03353742081336
30
0
41
1
10
66.7074914675753
20
-3.03113796447109
30
0
41
1
10
66.7050874898857
20
-3.02832330269075
30
0
41
1
10
66.7027964284656
20
-3.02481258944176
30
0
41
1
10
66.7007220720834
20
-3.02050644279811
30
0
41
1
10
66.6989513611898
20
-3.01533993525893
30
0
41
1
10
66.6976223458646
20
-3.0097383167398
30
0
41
1
10
66.6966993697284
20
-3.00377473708816
30
0
41
1
10
66.6961401749012
20
-2.99739919613062
30
0
41
1
10
66.6959866385552
20
-2.99261874289105
30
0
41
1
10
66.6959805445044
20
-2.98995933922565
30
0
41
1
10
66.6959809476223
20
-2.98963723952789
30
0
0
SPLINE
5
1A5
100
AcDbEntity
8
1
62
256
6
ByLayer
370
18
48
1
60
0
100
AcDbSpline
70
4
71
3
72
17
73
13
40
0
40
0
40
0
40
0
40
0.0999848181261503
40
0.199970485153554
40
0.299956402655765
40
0.399942007869222
40
0.499926774150962
40
0.599940821861996
40
0.6999558144559
40
0.799971085925807
40
0.899986009868202
40
1
40
1
40
1
40
1
41
1
10
66.7809809471617
20
-2.73354250387999
30
0
41
1
10
66.8030784153601
20
-2.69069755287848
30
0
41
1
10
66.8471505791883
20
-2.60492346297511
30
0
41
1
10
66.9128922660065
20
-2.47601116230993
30
0
41
1
10
66.9782608888322
20
-2.34684585185062
30
0
41
1
10
67.043251844002
20
-2.2174271563426
30
0
41
1
10
67.1078665032597
20
-2.08774129440021
30
0
41
1
10
67.1721002403686
20
-1.95778648622237
30
0
41
1
10
67.2359482181107
20
-1.82756095446794
30
0
41
1
10
67.2993989458003
20
-1.69707633989188
30
0
41
1
10
67.3624475240188
20
-1.56633245077159
30
0
41
1
10
67.4042071243476
20
-1.47899597071023
30
0
41
1
10
67.4250190528383
20
-1.4352844860648
30
0
0
SPLINE
5
1A6
100
AcDbEntity
8
1
62
256
6
ByLayer
370
18
48
1
60
0
100
AcDbSpline
70
4
71
3
72
26
73
22
40
0
40
0
40
0
40
0
40
0.0580730029314667
40
0.116166760220995
40
0.174260701745645
40
0.232333955996443
40
0.290415009857753
40
0.348518488932925
40
0.406619751807316
40
0.464697782388812
40
0.525872905049396
40
0.587084988198347
40
0.648287777568061
40
0.709450218884666
40
0.757500391424857
40
0.805563410673959
40
0.853607271501152
40
0.890198207742889
40
0.926814005449846
40
0.963421032455607
40
1
40
1
40
1
40
1
41
1
10
67.4250190528383
20
-1.4352844860648
30
0
41
1
10
67.4274383975909
20
-1.4302026846657
30
0
41
1
10
67.4321856301797
20
-1.42003301681343
30
0
41
1
10
67.4390317954682
20
-1.40475985381154
30
0
41
1
10
67.4455970578667
20
-1.38948389052212
30
0
41
1
10
67.4518767594785
20
-1.3742157699243
30
0
41
1
10
67.4578669394922
20
-1.35896440310952
30
0
41
1
10
67.4635568735318
20
-1.34373957729772
30
0
41
1
10
67.4689331281616
20
-1.32855644670185
30
0
41
1
10
67.474071197228
20
-1.31316171550538
30
0
41
1
10
67.4789386342394
20
-1.2975702964669
30
0
41
1
10
67.4834846502652
20
-1.28180722182291
30
0
41
1
10
67.4875906862655
20
-1.26616976228295
30
0
41
1
10
67.490961963306
20
-1.25179664333939
30
0
41
1
10
67.4936805833899
20
-1.23867750078863
30
0
41
1
10
67.4958227348842
20
-1.22679507568081
30
0
41
1
10
67.497441363607
20
-1.21601537411091
30
0
41
1
10
67.4986112429595
20
-1.20631771090907
30
0
41
1
10
67.4994033710056
20
-1.19767595738422
30
0
41
1
10
67.4999034347772
20
-1.18919904324639
30
0
41
1
10
67.5000158501612
20
-1.18368641213127
30
0
41
1
10
67.5000190528383
20
-1.18096313906203
30
0
0
SPLINE
5
1A7
100
AcDbEntity
8
1
62
256
6
ByLayer
370
18
48
1
60
0
100
AcDbSpline
70
4
71
3
72
31
73
27
40
0
40
0
40
0
40
0
40
0.0563219054507003
40
0.112785940741386
40
0.169242296545837
40
0.22559832423247
40
0.281829427724963
40
0.325519937861193
40
0.369321330400892
40
0.413076623495584
40
0.456704098904755
40
0.491696827162189
40
0.526804823199035
40
0.561888074354211
40
0.596846943989923
40
0.631990566741662
40
0.667282182457733
40
0.702580572689821
40
0.737733471986001
40
0.770125447852953
40
0.802603111555529
40
0.835100282348842
40
0.867518926193567
40
0.911646085698385
40
0.955844096395913
40
1
40
1
40
1
40
1
41
1
10
67.5000190528383
20
-0.951817425544107
30
0
41
1
10
67.5000236190411
20
-0.949231786106445
30
0
41
1
10
67.499919568913
20
-0.944133126874597
30
0
41
1
10
67.4994432045485
20
-0.936697731361356
30
0
41
1
10
67.4985863119845
20
-0.929543723821791
30
0
41
1
10
67.497308353495
20
-0.922737906688841
30
0
41
1
10
67.4956948763153
20
-0.916821661186564
30
0
41
1
10
67.4938174424253
20
-0.911755631318734
30
0
41
1
10
67.4917547062514
20
-0.907485837524732
30
0
41
1
10
67.4893172886062
20
-0.903635477250386
30
0
41
1
10
67.4866675455301
20
-0.900498342059535
30
0
41
1
10
67.4838652081118
20
-0.898038277831414
30
0
41
1
10
67.4809934854185
20
-0.896171612260254
30
0
41
1
10
67.477848456092
20
-0.894745492737005
30
0
41
1
10
67.4744326649381
20
-0.893797928697872
30
0
41
1
10
67.4707440135039
20
-0.893383192734895
30
0
41
1
10
67.4668173910318
20
-0.893491157114791
30
0
41
1
10
67.4627021857835
20
-0.894107723376013
30
0
41
1
10
67.4585479041326
20
-0.895199388989184
30
0
41
1
10
67.4543979883489
20
-0.896712890823338
30
0
41
1
10
67.4502896484902
20
-0.89855876267616
30
0
41
1
10
67.4461365118788
20
-0.90074503080502
30
0
41
1
10
67.4414616856001
20
-0.903540362546163
30
0
41
1
10
67.4362784463588
20
-0.907046259271478
30
0
41
1
10
67.4306174649905
20
-0.911333236273151
30
0
41
1
10
67.4268794764249
20
-0.91442776744104
30
0
41
1
10
67.4250190528383
20
-0.916037958942656
30
0
0
SPLINE
5
1A8
100
AcDbEntity
8
1
62
256
6
ByLayer
370
18
48
1
60
0
100
AcDbSpline
70
4
71
2
72
6
73
3
40
0
40
0
40
0
40
1
40
1
40
1
41
1
10
67.4250190528383
20
-0.916037958942656
30
0
41
1
10
67.1032531848528
20
-1.1936928186939
30
0
41
1
10
66.7809809471617
20
-1.47056353334075
30
0
0
SPLINE
5
1A9
100
AcDbEntity
8
1
62
256
6
ByLayer
370
18
48
1
60
0
100
AcDbSpline
70
4
71
3
72
26
73
22
40
0
40
0
40
0
40
0
40
0.0617812411722286
40
0.123584401537422
40
0.185387442501668
40
0.247168520796568
40
0.308964159613157
40
0.370784730348291
40
0.432601933675257
40
0.494392978673307
40
0.546580377784936
40
0.59880653336191
40
0.651036683467097
40
0.703245593930962
40
0.755418519040666
40
0.802745295696896
40
0.850085885570239
40
0.897404473857066
40
0.933545780577073
40
0.969717783905008
40
1
40
1
40
1
40
1
41
1
10
66.7809809471617
20
-1.12545283361463
30
0
41
1
10
66.7781024580855
20
-1.13194271353171
30
0
41
1
10
66.7724575298456
20
-1.1449279096218
30
0
41
1
10
66.7643264515164
20
-1.16442276280998
30
0
41
1
10
66.7565397020357
20
-1.18391397064947
30
0
41
1
10
66.749103128547
20
-1.20338810410389
30
0
41
1
10
66.7420218379189
20
-1.2228332451782
30
0
41
1
10
66.7353124229218
20
-1.2422358507856
30
0
41
1
10
66.7289953415759
20
-1.26157423910736
30
0
41
1
10
66.7233979739834
20
-1.27982934073777
30
0
41
1
10
66.7184624288853
20
-1.29700257062615
30
0
41
1
10
66.7141420424979
20
-1.31309766151265
30
0
41
1
10
66.7101811572814
20
-1.32908441865518
30
0
41
1
10
66.7066110350888
20
-1.34493210307623
30
0
41
1
10
66.7035590756724
20
-1.36012873821301
30
0
41
1
10
66.7010109022798
20
-1.37466678360209
30
0
41
1
10
66.6989677326299
20
-1.38853132766576
30
0
41
1
10
66.6975167111461
20
-1.40108827506306
30
0
41
1
10
66.696573984095
20
-1.41236188706512
30
0
41
1
10
66.6960803273262
20
-1.42184783131364
30
0
41
1
10
66.6959821671574
20
-1.42785070388834
30
0
41
1
10
66.6959809482046
20
-1.43055916540851
30
0
0
SPLINE
5
1AA
100
AcDbEntity
8
1
62
256
6
ByLayer
370
18
48
1
60
0
100
AcDbSpline
70
4
71
3
72
19
73
15
40
0
40
0
40
0
40
0
40
0.083307683119905
40
0.166615994822271
40
0.249924327405994
40
0.33323203900069
40
0.41653951113898
40
0.499847567414118
40
0.583155643337119
40
0.666463142268137
40
0.749847073843918
40
0.833231549277587
40
0.91661604320513
40
1
40
1
40
1
40
1
41
1
10
67.4250190528384
20
0.408814082414096
30
0
41
1
10
67.4079794561165
20
0.365744839964432
30
0
41
1
10
67.3737548771831
20
0.27968357053021
30
0
41
1
10
67.3219799668437
20
0.150824188137999
30
0
41
1
10
67.2697736760714
20
0.022197269722092
30
0
41
1
10
67.2171403869821
20
-0.106196936968573
30
0
41
1
10
67.1640847865738
20
-0.234358985384215
30
0
41
1
10
67.11061131656
20
-0.362289493935379
30
0
41
1
10
67.0567246323509
20
-0.489988621700537
30
0
41
1
10
67.0024128096497
20
-0.617495431274328
30
0
41
1
10
66.9476797885684
20
-0.744810360385742
30
0
41
1
10
66.892529588508
20
-0.871933920976787
30
0
41
1
10
66.8369830221084
20
-0.998827349493673
30
0
41
1
10
66.7996918521025
20
-1.08326994632001
30
0
41
1
10
66.7809809471617
20
-1.12545283361463
30
0
0
SPLINE
5
1AB
100
AcDbEntity
8
1
62
256
6
ByLayer
370
18
48
1
60
0
100
AcDbSpline
70
4
71
3
72
25
73
21
40
0
40
0
40
0
40
0
40
0.0412179254494832
40
0.0824688676623762
40
0.123743819850299
40
0.16501889758638
40
0.206257082895226
40
0.258911270442612
40
0.311588120793461
40
0.364270721466129
40
0.416932753580266
40
0.474795466780723
40
0.532684250980921
40
0.590585055346994
40
0.648480079943366
40
0.706348029428039
40
0.779745917538393
40
0.853175138819619
40
0.926603409170061
40
1
40
1
40
1
40
1
41
1
10
67.5000190528383
20
0.724567988912263
30
0
41
1
10
67.5000148964844
20
0.720568057356743
30
0
41
1
10
67.4998748249892
20
0.712499211999379
30
0
41
1
10
67.4992517685093
20
0.700177930449485
30
0
41
1
10
67.4982670922435
20
0.687686418883594
30
0
41
1
10
67.4969530791956
20
0.675057208548079
30
0
41
1
10
67.4951992791165
20
0.661144895047833
30
0
41
1
10
67.4929423362783
20
0.6459338432912
30
0
41
1
10
67.4901049346002
20
0.629408584237446
30
0
41
1
10
67.4868945048687
20
0.61277924940898
30
0
41
1
10
67.4832231245715
20
0.595517981598519
30
0
41
1
10
67.4790800569442
20
0.577631328166685
30
0
41
1
10
67.4744409533932
20
0.559123061012986
30
0
41
1
10
67.4694492926873
20
0.540560242701051
30
0
41
1
10
67.4641212572499
20
0.521961363030499
30
0
41
1
10
67.4579664328718
20
0.501674050031198
30
0
41
1
10
67.4508913713945
20
0.479698685468413
30
0
41
1
10
67.4427834019518
20
0.45604681278639
30
0
41
1
10
67.4341843719291
20
0.432406375380872
30
0
41
1
10
67.4281279078429
20
0.416673697240437
30
0
41
1
10
67.4250190528383
20
0.408814082414096
30
0
0
SPLINE
5
1AC
100
AcDbEntity
8
1
62
256
6
ByLayer
370
18
48
1
60
0
100
AcDbSpline
70
4
71
3
72
34
73
30
40
0
40
0
40
0
40
0
40
0.0314979272066992
40
0.0630529807233557
40
0.0945842147944357
40
0.126049597498186
40
0.158290661280731
40
0.190668796908668
40
0.223005872076869
40
0.25519069287444
40
0.284294860608101
40
0.313538078674984
40
0.342789183428434
40
0.371904156567851
40
0.405532778425159
40
0.43924976839629
40
0.472910394126248
40
0.508147028303987
40
0.543480852885982
40
0.578891995400363
40
0.61430833371884
40
0.649614376517539
40
0.692864483892796
40
0.736160500589383
40
0.779474614609176
40
0.822749424456578
40
0.881818722174077
40
0.940917708038333
40
1
40
1
40
1
40
1
41
1
10
67.4250190528383
20
1.08533830242781
30
0
41
1
10
67.426402693979
20
1.08665015516193
30
0
41
1
10
67.4291937624163
20
1.08919409660979
30
0
41
1
10
67.4334476002257
20
1.09278205001802
30
0
41
1
10
67.4377576139714
20
1.0960850536102
30
0
41
1
10
67.4421447094214
20
1.09908650230386
30
0
41
1
10
67.4465990931157
20
1.10171325458981
30
0
41
1
10
67.4510922195678
20
1.10390196040024
30
0
41
1
10
67.455543859353
20
1.10557847083411
30
0
41
1
10
67.4597634102871
20
1.10664400537956
30
0
41
1
10
67.4637105310791
20
1.10709082509909
30
0
41
1
10
67.4673739827556
20
1.10700325413715
30
0
41
1
10
67.4708541639229
20
1.10641389112653
30
0
41
1
10
67.4742816264797
20
1.10527113517152
30
0
41
1
10
67.4775856844278
20
1.10349717411184
30
0
41
1
10
67.4807271967636
20
1.1010960464415
30
0
41
1
10
67.4835970307319
20
1.09816860245275
30
0
41
1
10
67.4861896984611
20
1.09475664057408
30
0
41
1
10
67.4885162026727
20
1.09090653154662
30
0
41
1
10
67.4905583903549
20
1.08672552518991
30
0
41
1
10
67.4923378318749
20
1.08227371993042
30
0
41
1
10
67.4939940866029
20
1.07724818720055
30
0
41
1
10
67.4954943164304
20
1.0716315935972
30
0
41
1
10
67.496804747236
20
1.06540599015594
30
0
41
1
10
67.4978550485158
20
1.05897758116929
30
0
41
1
10
67.4987730614025
20
1.05158077978879
30
0
41
1
10
67.4994895250713
20
1.0431778034978
30
0
41
1
10
67.4999275297495
20
1.03373358530656
30
0
41
1
10
67.500023265858
20
1.02732595476062
30
0
41
1
10
67.5000190528383
20
1.02409200557017
30
0
0
SPLINE
5
1AD
100
AcDbEntity
8
1
62
256
6
ByLayer
370
18
48
1
60
0
100
AcDbSpline
70
4
71
3
72
11
73
7
40
0
40
0
40
0
40
0
40
0.249998614661779
40
0.499997221070453
40
0.749998615474676
40
1
40
1
40
1
40
1
41
1
10
66.7809809471617
20
0.480599320817898
30
0
41
1
10
66.8347945736024
20
0.530789021404026
30
0
41
1
10
66.9423508420799
20
0.6312695142135
30
0
41
1
10
67.1034764661932
20
0.782289438412452
30
0
41
1
10
67.2643825922296
20
0.933622515188389
30
0
41
1
10
67.3714989206092
20
1.03473047743036
30
0
41
1
10
67.4250190528383
20
1.08533830242781
30
0
0
SPLINE
5
1AE
100
AcDbEntity
8
1
62
256
6
ByLayer
370
18
48
1
60
0
100
AcDbSpline
70
4
71
3
72
35
73
31
40
0
40
0
40
0
40
0
40
0.0320594963848524
40
0.0641773954634246
40
0.0962715242242497
40
0.128298543056865
40
0.161049729106354
40
0.19393756684727
40
0.226785423566298
40
0.259481850060708
40
0.289333148596254
40
0.319326804665438
40
0.349327855468944
40
0.37918928535103
40
0.405066201883427
40
0.431009259606017
40
0.456968484507359
40
0.482867500992187
40
0.518576281578952
40
0.554384129001391
40
0.590269870160494
40
0.626160150902868
40
0.661938273396412
40
0.703770796829263
40
0.745645197908139
40
0.787535414963859
40
0.829389525735439
40
0.886462970145513
40
0.943564250503746
40
1
40
1
40
1
40
1
41
1
10
66.7809809471617
20
0.480599320817898
30
0
41
1
10
66.7793850179248
20
0.479107033021478
30
0
41
1
10
66.7761672673466
20
0.476214289118154
30
0
41
1
10
66.7712672961702
20
0.472138020033007
30
0
41
1
10
66.7663080410049
20
0.468388745678752
30
0
41
1
10
66.7612695657274
20
0.464987388540877
30
0
41
1
10
66.7561646740201
20
0.462015015715593
30
0
41
1
10
66.7510262883388
20
0.459540828612077
30
0
41
1
10
66.745942368022
20
0.457645600519974
30
0
41
1
10
66.741115321069
20
0.456435714454322
30
0
41
1
10
66.7365911445581
20
0.455925924587945
30
0
41
1
10
66.7323836748992
20
0.456028567597222
30
0
41
1
10
66.7283926651365
20
0.456708950491063
30
0
41
1
10
66.7248264410161
20
0.457906650635906
30
0
41
1
10
66.7216736163985
20
0.459524441628666
30
0
41
1
10
66.7188814699662
20
0.461432767799472
30
0
41
1
10
66.716298374124
20
0.463676417135417
30
0
41
1
10
66.7136248971365
20
0.466543766426788
30
0
41
1
10
66.7109496805586
20
0.470139473433857
30
0
41
1
10
66.7083544885178
20
0.474537644015513
30
0
41
1
10
66.7060840941807
20
0.479313649397227
30
0
41
1
10
66.7041139305081
20
0.484399704328915
30
0
41
1
10
66.7023208325052
20
0.490043678344918
30
0
41
1
10
66.7007253312236
20
0.496250566523852
30
0
41
1
10
66.6993494595974
20
0.503029208753041
30
0
41
1
10
66.6982460736638
20
0.510024503282033
30
0
41
1
10
66.6972822541929
20
0.518068797078346
30
0
41
1
10
66.6965314169989
20
0.527204838592041
30
0
41
1
10
66.6960756294978
20
0.537432734569151
30
0
41
1
10
66.6959766029437
20
0.54436039191571
30
0
41
1
10
66.6959809471678
20
0.547836873634466
30
0
0
SPLINE
5
1AF
100
AcDbEntity
8
1
62
256
6
ByLayer
370
18
48
1
60
0
100
AcDbSpline
70
4
71
3
72
22
73
18
40
0
40
0
40
0
40
0
40
0.0666280003630594
40
0.133256813888511
40
0.199885875084635
40
0.266514644130731
40
0.333142607188063
40
0.399770926113889
40
0.466400124553711
40
0.533029591646854
40
0.599658743447257
40
0.666287023255628
40
0.733029005905243
40
0.799771942221462
40
0.86651517077179
40
0.933258058283657
40
1
40
1
40
1
40
1
41
1
10
66.7809809471617
20
0.930686573958639
30
0
41
1
10
66.7964391324212
20
0.973582451108896
30
0
41
1
10
66.8272074981915
20
1.0594450131882
30
0
41
1
10
66.8729176029211
20
1.18845030130589
30
0
41
1
10
66.9181793149622
20
1.31766660536714
30
0
41
1
10
66.9629883901919
20
1.44709249964998
30
0
41
1
10
67.0073403845329
20
1.57672758133621
30
0
41
1
10
67.0512311939446
20
1.7065721122521
30
0
41
1
10
67.094656692535
20
1.83662620999343
30
0
41
1
10
67.1376123602337
20
1.96688880937777
30
0
41
1
10
67.1800934142119
20
2.09735809239049
30
0
41
1
10
67.2221192666428
20
2.22810748878197
30
0
41
1
10
67.263684736397
20
2.35913746809453
30
0
41
1
10
67.304784720047
20
2.49044834004636
30
0
41
1
10
67.345390960455
20
2.62196448057294
30
0
41
1
10
67.3854990770466
20
2.75368378226811
30
0
41
1
10
67.4119015786773
20
2.84163121122289
30
0
41
1
10
67.4250190528383
20
2.88563842287289
30
0
0
SPLINE
5
1B0
100
AcDbEntity
8
1
62
256
6
ByLayer
370
18
48
1
60
0
100
AcDbSpline
70
4
71
3
72
24
73
20
40
0
40
0
40
0
40
0
40
0.0648727688634462
40
0.129765695406955
40
0.194666583497675
40
0.259561839398825
40
0.324436562529728
40
0.390014492912354
40
0.455616537639356
40
0.521223199778014
40
0.58681867396162
40
0.652391091583808
40
0.710112394779612
40
0.767840770916008
40
0.825558371599438
40
0.86916532689822
40
0.912787185175925
40
0.95640227619543
40
1
40
1
40
1
40
1
41
1
10
67.4250190528383
20
2.88563842287289
30
0
41
1
10
67.4278349200161
20
2.8950883280307
30
0
41
1
10
67.4333240396325
20
2.91400244375995
30
0
41
1
10
67.4411263210364
20
2.94241619145147
30
0
41
1
10
67.4485019558262
20
2.97085568853055
30
0
41
1
10
67.455452389149
20
2.99930459400817
30
0
41
1
10
67.4620037034417
20
3.02785289277973
30
0
41
1
10
67.4681563176507
20
3.05649444873472
30
0
41
1
10
67.4738877249214
20
3.08522042621455
30
0
41
1
10
67.4791542956574
20
3.11391234425756
30
0
41
1
10
67.4839333354547
20
3.14254756154263
30
0
41
1
10
67.4880333338016
20
3.16996842536599
30
0
41
1
10
67.4915008990774
20
3.19616951673485
30
0
41
1
10
67.4943600699234
20
3.22114290992841
30
0
41
1
10
67.4965245595489
20
3.24397390998357
30
0
41
1
10
67.4981005121167
20
3.26467391713841
30
0
41
1
10
67.4991750127212
20
3.28325616839198
30
0
41
1
10
67.4998596813534
20
3.30170971315367
30
0
41
1
10
67.500013921902
20
3.31389532715097
30
0
41
1
10
67.5000190528383
20
3.31996064087103
30
0
0
SPLINE
5
1B1
100
AcDbEntity
8
1
62
256
6
ByLayer
370
18
48
1
60
0
100
AcDbSpline
70
4
71
3
72
35
73
31
40
0
40
0
40
0
40
0
40
0.0726161532907293
40
0.14527435341946
40
0.217905835483458
40
0.290485531504262
40
0.339228016867149
40
0.387984499616815
40
0.436709764990553
40
0.474295117551547
40
0.511945525735068
40
0.54954885876542
40
0.587069891991122
40
0.610643955146604
40
0.634278488099881
40
0.657880538968844
40
0.681410183423409
40
0.703944880076251
40
0.726532245591439
40
0.749039105710653
40
0.771693916891314
40
0.794437869994455
40
0.81709944516
40
0.837809596815976
40
0.858574980628101
40
0.879305679354957
40
0.909383246267662
40
0.939577481213228
40
0.969835353097355
40
1
40
1
40
1
40
1
41
1
10
67.5000190528383
20
3.75780784167463
30
0
41
1
10
67.5000263534905
20
3.76296579994991
30
0
41
1
10
67.4999168533436
20
3.77323098500149
30
0
41
1
10
67.4994111694627
20
3.78848832565494
30
0
41
1
10
67.4984712455832
20
3.80353961726369
30
0
41
1
10
67.4971951093548
20
3.8167120098193
30
0
41
1
10
67.4957061938121
20
3.82804894582495
30
0
41
1
10
67.4941153244756
20
3.83760193856206
30
0
41
1
10
67.4923081065813
20
3.84619538588704
30
0
41
1
10
67.4903417773493
20
3.85385017648528
30
0
41
1
10
67.4882576937736
20
3.86057858190235
30
0
41
1
10
67.4858212697183
20
3.86698567323098
30
0
41
1
10
67.4833331745898
20
3.8722385665402
30
0
41
1
10
67.4809141109512
20
3.87642628178987
30
0
41
1
10
67.4786833288648
20
3.87966801275349
30
0
41
1
10
67.4762255106174
20
3.88259485446867
30
0
41
1
10
67.4735649109385
20
3.88510629523444
30
0
41
1
10
67.4706942799542
20
3.88714199196718
30
0
41
1
10
67.4676329702645
20
3.8886638929864
30
0
41
1
10
67.4643476633727
20
3.88964465165287
30
0
41
1
10
67.4608553859966
20
3.88998886370893
30
0
41
1
10
67.4572185142063
20
3.88971381257316
30
0
41
1
10
67.4536046669131
20
3.88885741218402
30
0
41
1
10
67.4500743236811
20
3.88749001132235
30
0
41
1
10
67.4466640578997
20
3.88574542713934
30
0
41
1
10
67.4427860928163
20
3.88331290807488
30
0
41
1
10
67.4384877048411
20
3.88005392141171
30
0
41
1
10
67.433834615036
20
3.87589155008965
30
0
41
1
10
67.4293375286891
20
3.87130487190886
30
0
41
1
10
67.4264399395463
20
3.86804850805519
30
0
41
1
10
67.4250190528383
20
3.86636666115998
30
0
0
SPLINE
5
1B2
100
AcDbEntity
8
1
62
256
6
ByLayer
370
18
48
1
60
0
100
AcDbSpline
70
4
71
3
72
13
73
9
40
0
40
0
40
0
40
0
40
0.166655161444303
40
0.333311052255976
40
0.499966325040631
40
0.666643990813468
40
0.833322246954642
40
1
40
1
40
1
40
1
41
1
10
67.4250190528384
20
3.86636666115997
30
0
41
1
10
67.3896636366297
20
3.82476846510113
30
0
41
1
10
67.3188067752917
20
3.74173876377211
30
0
41
1
10
67.2120760236896
20
3.61770206333594
30
0
41
1
10
67.1049186058028
20
3.49414608310075
30
0
41
1
10
66.9973498834594
20
3.37105645163005
30
0
41
1
10
66.8893834279931
20
3.2484206027789
30
0
41
1
10
66.8171572346799
20
3.16695671378713
30
0
41
1
10
66.7809809471617
20
3.12629924798545
30
0
0
SPLINE
5
1B3
100
AcDbEntity
8
1
62
256
6
ByLayer
370
18
48
1
60
0
100
AcDbSpline
70
4
71
3
72
28
73
24
40
0
40
0
40
0
40
0
40
0.0593229462183258
40
0.118657017418845
40
0.177994844057704
40
0.237328997602797
40
0.296652012897298
40
0.356375156842579
40
0.416112864416739
40
0.475853119182519
40
0.535586398819273
40
0.595305828127173
40
0.646749836861101
40
0.698197888707863
40
0.749640113082028
40
0.788388333245543
40
0.827143754442393
40
0.865896677772892
40
0.904641491082033
40
0.935414830525238
40
0.966196113205824
40
0.996974048457432
40
1
40
1
40
1
40
1
41
1
10
66.7809809471617
20
3.7851627792955
30
0
41
1
10
66.7782076782167
20
3.77430745411431
30
0
41
1
10
66.7727712874494
20
3.7525907052583
30
0
41
1
10
66.764947902235
20
3.71999780803589
30
0
41
1
10
66.7574569817116
20
3.68739842393417
30
0
41
1
10
66.7503003412422
20
3.65480404504859
30
0
41
1
10
66.7434644008214
20
3.6221506713135
30
0
41
1
10
66.7369508531077
20
3.5894432193571
30
0
41
1
10
66.7307797578791
20
3.55668857973861
30
0
41
1
10
66.7249863757362
20
3.52397189735246
30
0
41
1
10
66.7195921815421
20
3.49131042922185
30
0
41
1
10
66.7148470352824
20
3.46022331047314
30
0
41
1
10
66.7107061685294
20
3.43071168497185
30
0
41
1
10
66.7071389212715
20
3.4027763998911
30
0
41
1
10
66.7042280002626
20
3.37722229150755
30
0
41
1
10
66.7018896014947
20
3.35403848676942
30
0
41
1
10
66.7000481664367
20
3.33321006671716
30
0
41
1
10
66.6985021189881
20
3.31247090709385
30
0
41
1
10
66.6973647969898
20
3.29325424604519
30
0
41
1
10
66.6965816369828
20
3.27554825905049
30
0
41
1
10
66.696116480419
20
3.25934526242882
30
0
41
1
10
66.6959764847794
20
3.24808582569739
30
0
41
1
10
66.6959800981985
20
3.24222603717794
30
0
41
1
10
66.6959809475907
20
3.24170172044332
30
0
0
SPLINE
5
1B4
100
AcDbEntity
8
1
62
256
6
ByLayer
370
18
48
1
60
0
100
AcDbSpline
70
4
71
3
72
31
73
27
40
0
40
0
40
0
40
0
40
0.0415829731963885
40
0.0831669125061018
40
0.124751350189752
40
0.166335805863362
40
0.207919786688859
40
0.249502787563088
40
0.291085497424857
40
0.332669121199681
40
0.374253218329941
40
0.415837334730158
40
0.457421002974613
40
0.499003742483463
40
0.540586173764139
40
0.582169464100994
40
0.623753201024075
40
0.665336957998775
40
0.706920294609084
40
0.748502756739376
40
0.790418255975891
40
0.832334577229568
40
0.874251327387073
40
0.916168098584719
40
0.958084468393064
40
1
40
1
40
1
40
1
41
1
10
67.4250190528383
20
6.92834322105093
30
0
41
1
10
67.4182449511733
20
6.88423750905196
30
0
41
1
10
67.4045105546174
20
6.79606440641346
30
0
41
1
10
67.3833493201351
20
6.66392053545235
30
0
41
1
10
67.3616324177308
20
6.53189557234257
30
0
41
1
10
67.3393626679518
20
6.39999334669093
30
0
41
1
10
67.3165432856243
20
6.26821803985804
30
0
41
1
10
67.2931771481671
20
6.13657246737839
30
0
41
1
10
67.2692668286329
20
6.0050576428172
30
0
41
1
10
67.244815277163
20
5.87367436680032
30
0
41
1
10
67.2198255969325
20
5.74242461716262
30
0
41
1
10
67.1943012091579
20
5.61131209029626
30
0
41
1
10
67.1682455351881
20
5.48034048266772
30
0
41
1
10
67.1416617531119
20
5.34951232381603
30
0
41
1
10
67.1145526794631
20
5.21882839006982
30
0
41
1
10
67.0869214470061
20
5.08828925014732
30
0
41
1
10
67.0587713495829
20
4.95789653992163
30
0
41
1
10
67.0301060271521
20
4.82765353391549
30
0
41
1
10
67.0009291192294
20
4.69756350623259
30
0
41
1
10
66.9711646920476
20
4.56728145163062
30
0
41
1
10
66.9408110067449
20
4.43680934424046
30
0
41
1
10
66.9098666581998
20
4.30614902268172
30
0
41
1
10
66.8784158106078
20
4.17564861605489
30
0
41
1
10
66.8464624453774
20
4.04531108881887
30
0
41
1
10
66.8140100761556
20
3.91513919966097
30
0
41
1
10
66.7920456981525
20
3.82846953942851
30
0
41
1
10
66.7809809471617
20
3.7851627792955
30
0
0
SPLINE
5
1B5
100
AcDbEntity
8
1
62
256
6
ByLayer
370
18
48
1
60
0
100
AcDbSpline
70
4
71
3
72
25
73
21
40
0
40
0
40
0
40
0
40
0.0524961946048218
40
0.10499514314852
40
0.157492527064303
40
0.210052141272883
40
0.262613190558663
40
0.315173162988611
40
0.372133479089207
40
0.429096248482606
40
0.486059196503375
40
0.543019756197099
40
0.599979774415892
40
0.656942176560285
40
0.713904419247518
40
0.770864220015515
40
0.82814696341027
40
0.885432870246967
40
0.942718133825588
40
1
40
1
40
1
40
1
41
1
10
67.5000190528383
20
7.86459729765417
30
0
41
1
10
67.5000129856058
20
7.84828924147137
30
0
41
1
10
67.499824833778
20
7.81565037036299
30
0
41
1
10
67.498988859735
20
7.76661827437269
30
0
41
1
10
67.4976756505613
20
7.71751697444241
30
0
41
1
10
67.4959289420223
20
7.66835818697809
30
0
41
1
10
67.4937674307582
20
7.61914965943342
30
0
41
1
10
67.491142956375
20
7.56854414634929
30
0
41
1
10
67.4880403123146
20
7.51654593773736
30
0
41
1
10
67.4844294789555
20
7.46315841330248
30
0
41
1
10
67.4804001400047
20
7.40976181651515
30
0
41
1
10
67.4759602861825
20
7.35636197694049
30
0
41
1
10
67.4711168595629
20
7.30296274484511
30
0
41
1
10
67.4658635232135
20
7.24956728703923
30
0
41
1
10
67.4601949242667
20
7.19618036514351
30
0
41
1
10
67.4540935293232
20
7.14270628184579
30
0
41
1
10
67.4475520369053
20
7.08914867811808
30
0
41
1
10
67.4405473873134
20
7.03551250912444
30
0
41
1
10
67.4330730912002
20
6.98190499174682
30
0
41
1
10
67.4277579936737
20
6.94619288016964
30
0
41
1
10
67.4250190528383
20
6.92834322105094
30
0
0
SPLINE
5
1B6
100
AcDbEntity
8
1
62
256
6
ByLayer
370
18
48
1
60
0
100
AcDbSpline
70
4
71
3
72
50
73
46
40
0
40
0
40
0
40
0
40
0.0219701513487708
40
0.0439380385572926
40
0.0542148384580792
40
0.0645334220301941
40
0.0748486419014384
40
0.0851308897704116
40
0.0953732489395508
40
0.10559908806456
40
0.110285543366632
40
0.114975995170635
40
0.119647917679831
40
0.123389385115221
40
0.127122529804673
40
0.129776718197993
40
0.132428621761236
40
0.13507961207892
40
0.137732292081251
40
0.141895359012127
40
0.146072156136642
40
0.150187564546815
40
0.15430681301504
40
0.161250135858854
40
0.168211803412413
40
0.175170309285683
40
0.185494902158409
40
0.195822064104814
40
0.211042863532832
40
0.226265961570606
40
0.249506485517301
40
0.272749314080139
40
0.298489935498341
40
0.324233597240082
40
0.349976267503752
40
0.400466028924845
40
0.450962424120997
40
0.501463562109463
40
0.55195979171383
40
0.626626137185075
40
0.701296660787025
40
0.775972145549348
40
0.850650828680206
40
0.925328733416271
40
1
40
1
40
1
40
1
41
1
10
67.4250190528383
20
9.60803339648338
30
0
41
1
10
67.4261068885578
20
9.61275052571183
30
0
41
1
10
67.4283822569939
20
9.62214121542174
30
0
41
1
10
67.4314309363776
20
9.63363091410149
30
0
41
1
10
67.4339722773141
20
9.64257979266722
30
0
41
1
10
67.4358952152913
20
9.64904067064482
30
0
41
1
10
67.4379729841936
20
9.65542020011486
30
0
41
1
10
67.4402564594735
20
9.6616565586259
30
0
41
1
10
67.4428048355381
20
9.66768204979185
30
0
41
1
10
67.445147212741
20
9.67239421619195
30
0
41
1
10
67.4471496109021
20
9.6758806437574
30
0
41
1
10
67.4487165255382
20
9.67822295447302
30
0
41
1
10
67.4503254645244
20
9.68019484095986
30
0
41
1
10
67.4519574538313
20
9.68175426075539
30
0
41
1
10
67.4534350098052
20
9.68275952903065
30
0
41
1
10
67.4548261528838
20
9.68332571663477
30
0
41
1
10
67.4560799355653
20
9.68354740908833
30
0
41
1
10
67.4573261301946
20
9.68344779810124
30
0
41
1
10
67.4587569987075
20
9.68298513558405
30
0
41
1
10
67.4602928840809
20
9.6819786023086
30
0
41
1
10
67.4618324575916
20
9.68041184904785
30
0
41
1
10
67.4631933497316
20
9.6785695564081
30
0
41
1
10
67.4646798656987
20
9.67608474659322
30
0
41
1
10
67.4662345433491
20
9.67289558685122
30
0
41
1
10
67.4677882476421
20
9.66898020442975
30
0
41
1
10
67.4693843732446
20
9.66426614128696
30
0
41
1
10
67.4709983828776
20
9.65875417362785
30
0
41
1
10
67.4728340039926
20
9.65143370054503
30
0
41
1
10
67.4746665751909
20
9.64297462697367
30
0
41
1
10
67.4767684405523
20
9.63168823935593
30
0
41
1
10
67.4788688422337
20
9.61857927239692
30
0
41
1
10
67.4809822761974
20
9.60310699278408
30
0
41
1
10
67.4829086419605
20
9.58701086007098
30
0
41
1
10
67.484660897969
20
9.57030336551479
30
0
41
1
10
67.4867211437482
20
9.54817123649275
30
0
41
1
10
67.4889374711092
20
9.52057879843148
30
0
41
1
10
67.4911321017752
20
9.48749434969099
30
0
41
1
10
67.4929526793138
20
9.45433455038968
30
0
41
1
10
67.4947299985811
20
9.41582662960239
30
0
41
1
10
67.496401712155
20
9.37196732461582
30
0
41
1
10
67.4978359144716
20
9.32274190723186
30
0
41
1
10
67.4988763212505
20
9.27346747569639
30
0
41
1
10
67.4995655978551
20
9.22415580847411
30
0
41
1
10
67.4999420255176
20
9.17481795138562
30
0
41
1
10
67.5000237625026
20
9.14191573902807
30
0
41
1
10
67.5000190528383
20
9.1254620396571
30
0
0
SPLINE
5
1B7
100
AcDbEntity
8
1
62
256
6
ByLayer
370
18
48
1
60
0
100
AcDbSpline
70
4
71
3
72
34
73
30
40
0
40
0
40
0
40
0
40
0.0414029011800066
40
0.0828081321713283
40
0.124214378625764
40
0.165620446702531
40
0.20702526604181
40
0.248427892772126
40
0.289833518261538
40
0.331242026226957
40
0.372651798667526
40
0.414061360037258
40
0.455469380899617
40
0.496874681631686
40
0.53236770112404
40
0.567863519473056
40
0.603360881137724
40
0.638858616921806
40
0.674355645967487
40
0.709850977776965
40
0.74534371426053
40
0.77716051547914
40
0.808978204230478
40
0.840795855730891
40
0.872612606151357
40
0.904458990915098
40
0.936306347712602
40
0.968153666741071
40
1
40
1
40
1
40
1
41
1
10
66.7809809471617
20
7.71707292692209
30
0
41
1
10
66.7920557548545
20
7.7420884321388
30
0
41
1
10
66.8140506640032
20
7.79221068432848
30
0
41
1
10
66.8465823887479
20
7.86766437280593
30
0
41
1
10
66.8786393192697
20
7.94339056565777
30
0
41
1
10
66.9102110890148
20
8.01938786411724
30
0
41
1
10
66.9412859548984
20
8.09565503879318
30
0
41
1
10
66.9718540594931
20
8.17219449499496
30
0
41
1
10
67.0019053144333
20
8.24900914216378
30
0
41
1
10
67.0314292597227
20
8.32610128795512
30
0
41
1
10
67.0604138099531
20
8.40346880951511
30
0
41
1
10
67.0888464479911
20
8.48110859333539
30
0
41
1
10
67.1167146463366
20
8.55901751303858
30
0
41
1
10
67.1427077857334
20
8.63347391849425
30
0
41
1
10
67.1669084989489
20
8.7044362016597
30
0
41
1
10
67.1893981156421
20
8.77186585472055
30
0
41
1
10
67.2114423002219
20
8.83949477990578
30
0
41
1
10
67.2330327551228
20
8.90731948867505
30
0
41
1
10
67.2541611906302
20
8.97533647984434
30
0
41
1
10
67.2748193231018
20
9.04354224396601
30
0
41
1
10
67.2943028200099
20
9.10957442554282
30
0
41
1
10
67.3126612238442
20
9.17341055716617
30
0
41
1
10
67.3299440081765
20
9.23502961515405
30
0
41
1
10
67.346826279187
20
9.29679651650546
30
0
41
1
10
67.3633074590218
20
9.35872806227484
30
0
41
1
10
67.3793816730638
20
9.42082314362295
30
0
41
1
10
67.3950431512164
20
9.48308021183716
30
0
41
1
10
67.4102819562529
20
9.54547731544605
30
0
41
1
10
67.4201542619257
20
9.58716627299514
30
0
41
1
10
67.4250190528383
20
9.60803339648338
30
0
0
SPLINE
5
1B8
100
AcDbEntity
8
1
62
256
6
ByLayer
370
18
48
1
60
0
100
AcDbSpline
70
4
71
3
72
47
73
43
40
0
40
0
40
0
40
0
40
0.0150007344488304
40
0.0300784556764394
40
0.045155397913417
40
0.0601803737873218
40
0.0751379064671814
40
0.0900582093563867
40
0.0982299222887025
40
0.106410995392438
40
0.114569447841631
40
0.120987998915871
40
0.127420730170973
40
0.133829544453492
40
0.140297881920393
40
0.146793966149164
40
0.153263129648044
40
0.161669063744832
40
0.170083294958296
40
0.179982562882773
40
0.189921972512382
40
0.199847671524025
40
0.215425848786127
40
0.231046264392545
40
0.246720907691972
40
0.262413893132184
40
0.27805312257768
40
0.307707164193872
40
0.337387634322014
40
0.367100481509877
40
0.396823818710745
40
0.426513849545459
40
0.476855835954765
40
0.527209702331972
40
0.577559340929005
40
0.643183526385562
40
0.708818820487507
40
0.774468004282459
40
0.840126449763675
40
0.905783119537935
40
0.971421558627887
40
1
40
1
40
1
40
1
41
1
10
66.7809809471617
20
7.7170729269221
30
0
41
1
10
66.780053353998
20
7.71496074913415
30
0
41
1
10
66.7781463808297
20
7.71076356484351
30
0
41
1
10
66.775163561743
20
7.70455401101187
30
0
41
1
10
66.7719939439356
20
7.6985017951295
30
0
41
1
10
66.7686097869812
20
7.69268478060264
30
0
41
1
10
66.7649747369103
20
7.68719081893798
30
0
41
1
10
66.7616528634571
20
7.68286681299097
30
0
41
1
10
66.7587540685738
20
7.67960630601079
30
0
41
1
10
66.7563663965275
20
7.67728565988204
30
0
41
1
10
66.7540415980206
20
7.67540375122053
30
0
41
1
10
66.7518100885042
20
7.67396127243985
30
0
41
1
10
66.7497066697937
20
7.67291943333409
30
0
41
1
10
66.7475583250811
20
7.67219821821901
30
0
41
1
10
66.745391785025
20
7.67186767345115
30
0
41
1
10
66.7432450586379
20
7.67192552523649
30
0
41
1
10
66.7409511023218
20
7.6724146488739
30
0
41
1
10
66.7385829860857
20
7.67347460048156
30
0
41
1
10
66.7360682919569
20
7.67522789172282
30
0
41
1
10
66.7336514510058
20
7.67758581997508
30
0
41
1
10
66.7313610585698
20
7.68048906832799
30
0
41
1
10
66.7289054183962
20
7.68432139998611
30
0
41
1
10
66.7263681123211
20
7.68914724247416
30
0
41
1
10
66.7238463885963
20
7.69502598043466
30
0
41
1
10
66.7216374766286
20
7.70120353247927
30
0
41
1
10
66.7196835642191
20
7.70758519901806
30
0
41
1
10
66.7173928868301
20
7.71603963592408
30
0
41
1
10
66.7148946375266
20
7.72664817298897
30
0
41
1
10
66.7123797948817
20
7.73951590122982
30
0
41
1
10
66.7102344906929
20
7.75259053557342
30
0
41
1
10
66.7083896603984
20
7.76581100378128
30
0
41
1
10
66.706385553428
20
7.78221054014672
30
0
41
1
10
66.7043423467991
20
7.80183604724493
30
0
41
1
10
66.7024290884657
20
7.82474321255071
30
0
41
1
10
66.7007135735244
20
7.85010379276569
30
0
41
1
10
66.6992075662282
20
7.87791475794584
30
0
41
1
10
66.6979667812481
20
7.90818667062713
30
0
41
1
10
66.6970718994041
20
7.93856015576385
30
0
41
1
10
66.6964732934141
20
7.9690138174687
30
0
41
1
10
66.6961234189763
20
7.99952671610779
30
0
41
1
10
66.6959989956283
20
8.02433300941493
30
0
41
1
10
66.6959808987199
20
8.03896460487069
30
0
41
1
10
66.6959809539196
20
8.04340404674339
30
0
0
SPLINE
5
1B9
100
AcDbEntity
8
1
62
256
6
ByLayer
370
18
48
1
60
0
100
AcDbSpline
70
4
71
3
72
31
73
27
40
0
40
0
40
0
40
0
40
0.041564202868466
40
0.0831295220203072
40
0.124695394932879
40
0.166261262559743
40
0.207826569513629
40
0.249390764249905
40
0.290955022100591
40
0.332520404730063
40
0.374086348320148
40
0.415652290113652
40
0.4572176685971
40
0.498781923683695
40
0.540346186437874
40
0.581911572650955
40
0.623477522175795
40
0.665043473462576
40
0.706608863741725
40
0.748173129206686
40
0.790143314019885
40
0.832114644013953
40
0.87408655132979
40
0.916058464123493
40
0.958029806758969
40
1
40
1
40
1
40
1
41
1
10
66.7809809471617
20
9.81861949992436
30
0
41
1
10
66.7834996462687
20
9.86514961096747
30
0
41
1
10
66.7883288166454
20
9.95822467613221
30
0
41
1
10
66.7949480982263
20
10.0978810130417
30
0
41
1
10
66.8009418231948
20
10.237576570849
30
0
41
1
10
66.8063091574692
20
10.3773061568104
30
0
41
1
10
66.811049165122
20
10.517064086742
30
0
41
1
10
66.8151609956924
20
10.6568467397167
30
0
41
1
10
66.818643791634
20
10.7966522594341
30
0
41
1
10
66.8214973790247
20
10.9364787522145
30
0
41
1
10
66.8237214946148
20
11.0763223728218
30
0
41
1
10
66.8253158283857
20
11.2161774529915
30
0
41
1
10
66.8262800706709
20
11.3560383242626
30
0
41
1
10
66.8266139162328
20
11.495901213602
30
0
41
1
10
66.82631701739
20
11.635764222698
30
0
41
1
10
66.8253897165357
20
11.775625452995
30
0
41
1
10
66.8238323134531
20
11.9154811140248
30
0
41
1
10
66.8216451119211
20
12.055325536765
30
0
41
1
10
66.8188284156327
20
12.195153052989
30
0
41
1
10
66.8153712642591
20
12.3354150028422
30
0
41
1
10
66.8112666322134
20
12.4761092779699
30
0
41
1
10
66.8065081784864
20
12.617233663303
30
0
41
1
10
66.8011100550542
20
12.7583293162352
30
0
41
1
10
66.7950732221099
20
12.8993903832547
30
0
41
1
10
66.788398535877
20
13.040411517528
30
0
41
1
10
66.7835242497308
20
13.1343958835302
30
0
41
1
10
66.7809809471617
20
13.1813805000766
30
0
0
SPLINE
5
1BA
100
AcDbEntity
8
1
62
256
6
ByLayer
370
18
48
1
60
0
100
AcDbSpline
70
4
71
3
72
29
73
25
40
0
40
0
40
0
40
0
40
0.0663738860559086
40
0.13274812207181
40
0.199121907206581
40
0.265496833602576
40
0.331872250795804
40
0.398246954834194
40
0.448029766118515
40
0.497813422715738
40
0.547596816957073
40
0.597379270476947
40
0.637348092914666
40
0.67731852002538
40
0.717288982162181
40
0.7572584413091
40
0.797226451875202
40
0.832117177278933
40
0.86700846763316
40
0.901898768998693
40
0.928070570889596
40
0.954243813893605
40
0.98041632938185
40
1
40
1
40
1
40
1
41
1
10
66.7809809471617
20
13.1813805000766
30
0
41
1
10
66.7788426053539
20
13.2207932853832
30
0
41
1
10
66.7745115212225
20
13.2996094257684
30
0
41
1
10
66.7678308687824
20
13.4178054405926
30
0
41
1
10
66.7610287474914
20
13.5359713942875
30
0
41
1
10
66.7541440695695
20
13.6541050453489
30
0
41
1
10
66.7472332369023
20
13.7722031195685
30
0
41
1
10
66.740926820895
20
13.8804239624437
30
0
41
1
10
66.7352556897421
20
13.9787747303016
30
0
41
1
10
66.7302331576384
20
14.0672639459874
30
0
41
1
10
66.7253280478926
20
14.1557213379707
30
0
41
1
10
66.7208896408039
20
14.2383320959049
30
0
41
1
10
66.7169079995132
20
14.3151011715038
30
0
41
1
10
66.7133776790256
20
14.3860337487338
30
0
41
1
10
66.7100343165093
20
14.4569322855283
30
0
41
1
10
66.7069135906097
20
14.5277894584094
30
0
41
1
10
66.7041718649179
20
14.5956003972607
30
0
41
1
10
66.7018053398429
20
14.6603657871274
30
0
41
1
10
66.6998260140229
20
14.7220846751762
30
0
41
1
10
66.6983137050853
20
14.7786069871985
30
0
41
1
10
66.6972103851804
20
14.8299410706079
30
0
41
1
10
66.6964689152742
20
14.876095613644
30
0
41
1
10
66.6960606978287
20
14.9183228513008
30
0
41
1
10
66.6959829714815
20
14.945145108959
30
0
41
1
10
66.695980952844
20
14.9566184101699
30
0
0
SPLINE
5
1BB
100
AcDbEntity
8
1
62
256
6
ByLayer
370
18
48
1
60
0
100
AcDbSpline
70
4
71
3
72
34
73
30
40
0
40
0
40
0
40
0
40
0.0310025296412151
40
0.0620059695882966
40
0.0930094434577771
40
0.124012019358151
40
0.155042667555867
40
0.186074154456241
40
0.217105675089171
40
0.248136369287066
40
0.283578023063502
40
0.319022274857432
40
0.354468225059054
40
0.389914881943044
40
0.425361163710252
40
0.460805900502893
40
0.496247836391901
40
0.537593432288738
40
0.57894175289629
40
0.62029161602062
40
0.661641689887854
40
0.702990496841712
40
0.74433641699142
40
0.786944798731453
40
0.829555575935752
40
0.872167722361305
40
0.914780069405435
40
0.957391309589127
40
1
40
1
40
1
40
1
41
1
10
67.4250190528383
20
13.3919666035166
30
0
41
1
10
67.4202831922521
20
13.4122808129358
30
0
41
1
10
67.410676161727
20
13.4528663185801
30
0
41
1
10
67.3958576836195
20
13.5136154095346
30
0
41
1
10
67.3806383479276
20
13.5742319091088
30
0
41
1
10
67.3650180076104
20
13.6347315859522
30
0
41
1
10
67.3490011573496
20
13.6951127176044
30
0
41
1
10
67.3325924141747
20
13.7553739648544
30
0
41
1
10
67.3158018871411
20
13.8154948491232
30
0
41
1
10
67.2978214317491
20
13.8783151077134
30
0
41
1
10
67.2785912832055
20
13.943810112262
30
0
41
1
10
67.2580508315333
20
14.011953155842
30
0
41
1
10
67.2370400035213
20
14.0799083067288
30
0
41
1
10
67.2155670526755
20
14.1476720229581
30
0
41
1
10
67.1936402386109
20
14.2152407726435
30
0
41
1
10
67.1712678288304
20
14.2826110360666
30
0
41
1
10
67.1471906527402
20
14.3535113608212
30
0
41
1
10
67.1213273139801
20
14.4279033652217
30
0
41
1
10
67.0935951101725
20
14.505745564205
30
0
41
1
10
67.0652981242525
20
14.5833195487332
30
0
41
1
10
67.0364488551384
20
14.6606221445618
30
0
41
1
10
67.0070597911296
20
14.7376501929781
30
0
41
1
10
66.9768377713415
20
14.8151845549832
30
0
41
1
10
66.9457745132928
20
14.8932178500471
30
0
41
1
10
66.9138622040457
20
14.9717431006141
30
0
41
1
10
66.881422259731
20
15.0499825300943
30
0
41
1
10
66.8484674992621
20
15.127934770843
30
0
41
1
10
66.8150092394193
20
15.2055982736699
30
0
41
1
10
66.7923783608638
20
15.257183038796
30
0
41
1
10
66.7809809471617
20
15.2829270731033
30
0
0
SPLINE
5
1BC
100
AcDbEntity
8
1
62
256
6
ByLayer
370
18
48
1
60
0
100
AcDbSpline
70
4
71
3
72
50
73
46
40
0
40
0
40
0
40
0
40
0.0746712665837198
40
0.149349171319786
40
0.224027854450651
40
0.298703339212974
40
0.373373862814915
40
0.448040208286166
40
0.498536437890533
40
0.549037575879006
40
0.599533971075153
40
0.650023732496251
40
0.675766402759911
40
0.701510064501654
40
0.727250685919865
40
0.750493514482704
40
0.773734038429399
40
0.788957136467159
40
0.804177935895191
40
0.814505097841596
40
0.824829690714322
40
0.831788196587576
40
0.838749864141147
40
0.845693186984964
40
0.849812435453189
40
0.853927843863358
40
0.858104640987876
40
0.862267707918752
40
0.864920387921076
40
0.867571378238768
40
0.870223281802011
40
0.872877470195331
40
0.876610614884784
40
0.880352082320171
40
0.885024004829377
40
0.889714456633384
40
0.894400911935445
40
0.904626751060455
40
0.9148691102296
40
0.925151358098561
40
0.935466577969815
40
0.945785161541931
40
0.956061961442707
40
0.978029848651226
40
1
40
1
40
1
40
1
41
1
10
67.5000190528383
20
13.8745379603429
30
0
41
1
10
67.5000237625026
20
13.8580842609719
30
0
41
1
10
67.4999420255176
20
13.8251820486144
30
0
41
1
10
67.4995655978551
20
13.7758441915259
30
0
41
1
10
67.4988763212504
20
13.7265325243036
30
0
41
1
10
67.4978359144716
20
13.6772580927681
30
0
41
1
10
67.496401712155
20
13.6280326753841
30
0
41
1
10
67.4947299985811
20
13.5841733703976
30
0
41
1
10
67.4929526793138
20
13.5456654496103
30
0
41
1
10
67.4911321017751
20
13.512505650309
30
0
41
1
10
67.4889374711092
20
13.4794212015685
30
0
41
1
10
67.4867211437482
20
13.4518287635072
30
0
41
1
10
67.484660897969
20
13.4296966344852
30
0
41
1
10
67.4829086419605
20
13.412989139929
30
0
41
1
10
67.4809822761974
20
13.3968930072159
30
0
41
1
10
67.4788688422337
20
13.3814207276031
30
0
41
1
10
67.4767684405523
20
13.3683117606441
30
0
41
1
10
67.4746665751909
20
13.3570253730263
30
0
41
1
10
67.4728340039926
20
13.3485662994549
30
0
41
1
10
67.4709983828776
20
13.3412458263721
30
0
41
1
10
67.4693843732445
20
13.335733858713
30
0
41
1
10
67.4677882476422
20
13.3310197955702
30
0
41
1
10
67.4662345433491
20
13.3271044131488
30
0
41
1
10
67.4646798656987
20
13.3239152534068
30
0
41
1
10
67.4631933497316
20
13.3214304435919
30
0
41
1
10
67.4618324575916
20
13.3195881509521
30
0
41
1
10
67.4602928840809
20
13.3180213976914
30
0
41
1
10
67.4587569987075
20
13.317014864416
30
0
41
1
10
67.4573261301946
20
13.3165522018987
30
0
41
1
10
67.4560799355653
20
13.3164525909117
30
0
41
1
10
67.4548261528838
20
13.3166742833652
30
0
41
1
10
67.4534350098052
20
13.3172404709693
30
0
41
1
10
67.4519574538313
20
13.3182457392446
30
0
41
1
10
67.4503254645244
20
13.3198051590401
30
0
41
1
10
67.4487165255382
20
13.321777045527
30
0
41
1
10
67.447149610902
20
13.3241193562426
30
0
41
1
10
67.445147212741
20
13.327605783808
30
0
41
1
10
67.4428048355381
20
13.3323179502081
30
0
41
1
10
67.4402564594735
20
13.3383434413741
30
0
41
1
10
67.4379729841936
20
13.3445797998851
30
0
41
1
10
67.4358952152913
20
13.3509593293552
30
0
41
1
10
67.4339722773141
20
13.3574202073328
30
0
41
1
10
67.4314309363776
20
13.3663690858985
30
0
41
1
10
67.4283822569938
20
13.3778587845783
30
0
41
1
10
67.4261068885578
20
13.3872494742881
30
0
41
1
10
67.4250190528383
20
13.3919666035166
30
0
0
SPLINE
5
1BD
100
AcDbEntity
8
1
62
256
6
ByLayer
370
18
48
1
60
0
100
AcDbSpline
70
4
71
3
72
47
73
43
40
0
40
0
40
0
40
0
40
0.0248430550255093
40
0.0910993212535936
40
0.157374242908843
40
0.223650948587962
40
0.289918130866342
40
0.356171072785618
40
0.422412682539977
40
0.472057341656091
40
0.521706062619914
40
0.5713435938332
40
0.601459573490405
40
0.631609969816336
40
0.661749372067563
40
0.691855145875963
40
0.721933661850323
40
0.737573634614447
40
0.753267365928223
40
0.768942754229451
40
0.784563912260283
40
0.800142829939223
40
0.81006900071048
40
0.820008882751351
40
0.829908621179182
40
0.838323252313544
40
0.84672958593687
40
0.853199056909319
40
0.859695449891156
40
0.866164094792372
40
0.872573213680111
40
0.879006250677179
40
0.885425106819426
40
0.893583947032575
40
0.901765408975403
40
0.909937510301947
40
0.924858522332845
40
0.939816765923949
40
0.954842455914218
40
0.969920114737005
40
0.984998552587314
40
1
40
1
40
1
40
1
41
1
10
66.695980952844
20
14.9566184101699
30
0
41
1
10
66.6959809324716
20
14.960477393262
30
0
41
1
10
66.6959960967639
20
14.974624697831
30
0
41
1
10
66.6961102598531
20
14.9990439321243
30
0
41
1
10
66.6964535453729
20
15.0298450135718
30
0
41
1
10
66.6970489475457
20
15.0605861866042
30
0
41
1
10
66.697945110058
20
15.091246075205
30
0
41
1
10
66.6991928091537
20
15.121802815976
30
0
41
1
10
66.7007013392741
20
15.1496942451462
30
0
41
1
10
66.7024068092275
20
15.1749333255666
30
0
41
1
10
66.704285546148
20
15.1975214385807
30
0
41
1
10
66.7062987730934
20
15.2170035942432
30
0
41
1
10
66.7082882650499
20
15.2334319826206
30
0
41
1
10
66.7101458541504
20
15.2468479257574
30
0
41
1
10
66.7123103660503
20
15.2601154208877
30
0
41
1
10
66.7148531947573
20
15.273171510939
30
0
41
1
10
66.7173770403081
20
15.2839016924399
30
0
41
1
10
66.7196835558451
20
15.2924148059245
30
0
41
1
10
66.7216374788731
20
15.2987964661959
30
0
41
1
10
66.7238463879968
20
15.3049740199192
30
0
41
1
10
66.7263681124834
20
15.3108527574301
30
0
41
1
10
66.7289054183699
20
15.3156786000294
30
0
41
1
10
66.7313610585755
20
15.3195109316686
30
0
41
1
10
66.7336514510043
20
15.3224141800258
30
0
41
1
10
66.7360682919573
20
15.3247721082769
30
0
41
1
10
66.7385829860856
20
15.3265253995185
30
0
41
1
10
66.7409511023217
20
15.3275853511261
30
0
41
1
10
66.743245058638
20
15.3280744747635
30
0
41
1
10
66.7453917850249
20
15.3281323265488
30
0
41
1
10
66.7475583250812
20
15.327801781781
30
0
41
1
10
66.7497066697937
20
15.3270805666659
30
0
41
1
10
66.7518100885043
20
15.3260387275601
30
0
41
1
10
66.7540415980206
20
15.3245962487794
30
0
41
1
10
66.7563663965275
20
15.3227143401179
30
0
41
1
10
66.7587540685739
20
15.3203936939892
30
0
41
1
10
66.7616528634564
20
15.3171331870097
30
0
41
1
10
66.7649747369089
20
15.3128091810649
30
0
41
1
10
66.7686097869799
20
15.3073152194046
30
0
41
1
10
66.7719939439351
20
15.3014982048827
30
0
41
1
10
66.7751635617434
20
15.2954459890053
30
0
41
1
10
66.7781463808305
20
15.2892364351783
30
0
41
1
10
66.7800533539986
20
15.2850392508901
30
0
41
1
10
66.7809809471617
20
15.2829270731033
30
0
0
SPLINE
5
1BE
100
AcDbEntity
8
1
62
256
6
ByLayer
370
18
48
1
60
0
100
AcDbSpline
70
4
71
3
72
29
73
25
40
0
40
0
40
0
40
0
40
0.0184981910465064
40
0.0445761298578555
40
0.0706547975093766
40
0.0967320232588192
40
0.132075305815477
40
0.16741962539932
40
0.202763357748303
40
0.24256163721592
40
0.282361349455857
40
0.322162051885878
40
0.361962718144674
40
0.401761797787483
40
0.451504333017374
40
0.50124780957499
40
0.550991548816162
40
0.600734442257338
40
0.667055330047194
40
0.733376931216028
40
0.799698041598088
40
0.866465173256349
40
0.933232764745206
40
1
40
1
40
1
40
1
41
1
10
66.6959809539196
20
8.04340404674339
30
0
41
1
10
66.695982568793
20
8.05424119165475
30
0
41
1
10
66.6960540298498
20
8.08037044188696
30
0
41
1
10
66.6964427918288
20
8.1218462914521
30
0
41
1
10
66.69716907178
20
8.16783095730433
30
0
41
1
10
66.698262678296
20
8.21931710147406
30
0
41
1
10
66.6997771854261
20
8.27631471302968
30
0
41
1
10
66.7017764982684
20
8.33883309789472
30
0
41
1
10
66.7041574045458
20
8.40403189210225
30
0
41
1
10
66.7069012125651
20
8.47190889209648
30
0
41
1
10
66.7100071688049
20
8.54246396398585
30
0
41
1
10
66.7133341413187
20
8.61306009048007
30
0
41
1
10
66.7168468635471
20
8.68369002848911
30
0
41
1
10
66.7208138701302
20
8.76023299693367
30
0
41
1
10
66.7252414584045
20
8.84269431370332
30
0
41
1
10
66.7301401306709
20
8.93107903249111
30
0
41
1
10
66.7351567077787
20
9.01949559488616
30
0
41
1
10
66.7408217334281
20
9.11776530019763
30
0
41
1
10
66.7471221063459
20
9.22589666942035
30
0
41
1
10
66.754027236725
20
9.34389685550462
30
0
41
1
10
66.7609226308377
20
9.46219789944841
30
0
41
1
10
66.7677512692656
20
9.58079679032208
30
0
41
1
10
66.7744728591785
20
9.69969148961741
30
0
41
1
10
66.7788298983846
20
9.7789736480995
30
0
41
1
10
66.7809809471617
20
9.81861949992436
30
0
0
SPLINE
5
1BF
100
AcDbEntity
8
1
62
256
6
ByLayer
370
18
48
1
60
0
100
AcDbSpline
70
4
71
3
72
29
73
25
40
0
40
0
40
0
40
0
40
0.0077973475066705
40
0.0405662793744264
40
0.0750462898468169
40
0.109531297612103
40
0.144013196600527
40
0.186232105784445
40
0.228461425623618
40
0.270697383126506
40
0.312932618847874
40
0.355156491018863
40
0.407897765663211
40
0.460646941808933
40
0.513397637380268
40
0.566140984268157
40
0.61887181886894
40
0.671608314565326
40
0.724345281982459
40
0.77707675990684
40
0.83280460011257
40
0.888538545604846
40
0.944272350939429
40
1
40
1
40
1
40
1
41
1
10
66.6959809498914
20
19.7582581967162
30
0
41
1
10
66.6959804504624
20
19.7569064944858
30
0
41
1
10
66.6959946085096
20
19.7498671596796
30
0
41
1
10
66.6961997260354
20
19.736767337516
30
0
41
1
10
66.6967911030192
20
19.7188850039137
30
0
41
1
10
66.6977007674244
20
19.7005876376514
30
0
41
1
10
66.698973843671
20
19.6808205241473
30
0
41
1
10
66.7006464721881
20
19.6595769614351
30
0
41
1
10
66.7027632841708
20
19.6368502933279
30
0
41
1
10
66.705190367018
20
19.6140376830083
30
0
41
1
10
66.7079017042149
20
19.5911564804726
30
0
41
1
10
66.7111175689553
20
19.5663154318256
30
0
41
1
10
66.7148903223325
20
19.5395069058014
30
0
41
1
10
66.7192843589018
20
19.5107244764046
30
0
41
1
10
66.7240092794415
20
19.4818897873292
30
0
41
1
10
66.7290441759612
20
19.4530166358639
30
0
41
1
10
66.7343703570227
20
19.4241128971576
30
0
41
1
10
66.7399810369703
20
19.3951841481493
30
0
41
1
10
66.7458681749615
20
19.366235808104
30
0
41
1
10
66.7521404554561
20
19.3367266647454
30
0
41
1
10
66.7588080191662
20
19.3066608756061
30
0
41
1
10
66.7658896482176
20
19.2760439406721
30
0
41
1
10
66.7732640479964
20
19.2454317871111
30
0
41
1
10
66.7783761340785
20
19.2250337802603
30
0
41
1
10
66.7809809471617
20
19.2148372207045
30
0
0
SPLINE
5
1C0
100
AcDbEntity
8
1
62
256
6
ByLayer
370
18
48
1
60
0
100
AcDbSpline
70
4
71
3
72
38
73
34
40
0
40
0
40
0
40
0
40
0.0616115698766097
40
0.117038818417617
40
0.172517176326847
40
0.227989995424709
40
0.283424233598651
40
0.338814446723891
40
0.373747881086833
40
0.408776214709634
40
0.443815634020256
40
0.478808799276408
40
0.513730266449345
40
0.54859229897479
40
0.57172846008725
40
0.594905040040182
40
0.618062327619404
40
0.641172130944423
40
0.66461931635556
40
0.688173975047673
40
0.711689438362551
40
0.735082913701733
40
0.757834235627479
40
0.780660499746627
40
0.803414042612067
40
0.826065629088777
40
0.848782181877222
40
0.871456255956783
40
0.899529333961063
40
0.927697979313531
40
0.955912275998562
40
0.984047798905354
40
1
40
1
40
1
40
1
41
1
10
66.6959809475907
20
3.24170172044332
30
0
41
1
10
66.6959784478934
20
3.23688922462108
30
0
41
1
10
66.6960646607812
20
3.22779027596095
30
0
41
1
10
66.6964322130514
20
3.21448846858915
30
0
41
1
10
66.6970469022713
20
3.20178959070927
30
0
41
1
10
66.6979683357597
20
3.18925270127232
30
0
41
1
10
66.6992406185924
20
3.17692348760162
30
0
41
1
10
66.700706094158
20
3.16633405271805
30
0
41
1
10
66.7022337067895
20
3.15740875764961
30
0
41
1
10
66.7037164456898
20
3.1500774004499
30
0
41
1
10
66.7054416426114
20
3.14292581186814
30
0
41
1
10
66.7074428602614
20
3.13600884657641
30
0
41
1
10
66.709755293113
20
3.12938309870478
30
0
41
1
10
66.7121133706456
20
3.12380467880803
30
0
41
1
10
66.7144229556304
20
3.11919907833243
30
0
41
1
10
66.7165963459841
20
3.11548328294646
30
0
41
1
10
66.7189836224169
20
3.11203685909735
30
0
41
1
10
66.7216111611872
20
3.10889240279024
30
0
41
1
10
66.7245118889345
20
3.10612178122455
30
0
41
1
10
66.7276961647107
20
3.10379404710363
30
0
41
1
10
66.7311391715877
20
3.10198591990874
30
0
41
1
10
66.7347946303631
20
3.10078726475938
30
0
41
1
10
66.738640314641
20
3.10026441844038
30
0
41
1
10
66.7426126782751
20
3.10037639980408
30
0
41
1
10
66.7466924019173
20
3.10111377531083
30
0
41
1
10
66.7508263295721
20
3.10247224210327
30
0
41
1
10
66.7549642110369
20
3.10436134562957
30
0
41
1
10
66.7594018264891
20
3.10691225448257
30
0
41
1
10
66.7640973838388
20
3.11018956641429
30
0
41
1
10
66.769005939752
20
3.11420882747006
30
0
41
1
10
66.7737866738693
20
3.11864968210869
30
0
41
1
10
66.7777610806586
20
3.12273979184451
30
0
41
1
10
66.7801306731507
20
3.12534197592584
30
0
41
1
10
66.7809809471617
20
3.12629924798545
30
0
0
SPLINE
5
1C1
100
AcDbEntity
8
1
62
256
6
ByLayer
370
18
48
1
60
0
100
AcDbSpline
70
4
71
3
72
27
73
23
40
0
40
0
40
0
40
0
40
0.0003404751262155
40
0.0408926924559315
40
0.0814772949488794
40
0.122086229355733
40
0.162695933935248
40
0.203269222482861
40
0.255050945549239
40
0.306853743500511
40
0.358662382698119
40
0.410452074178419
40
0.469003780441623
40
0.527579743958998
40
0.586167715975905
40
0.64475103181646
40
0.703308907161096
40
0.762633273648725
40
0.821978397010685
40
0.881330465133478
40
0.940675612974445
40
1
40
1
40
1
40
1
41
1
10
66.6959809471678
20
0.547836873634466
30
0
41
1
10
66.6959809478174
20
0.547876851273287
30
0
41
1
10
66.6959817100966
20
0.552678731949335
30
0
41
1
10
66.6961548504512
20
0.562344960041223
30
0
41
1
10
66.696875500545
20
0.577027791034723
30
0
41
1
10
66.698012889324
20
0.591916630556547
30
0
41
1
10
66.6995221229171
20
0.606967343805621
30
0
41
1
10
66.7015266499855
20
0.623543312148414
30
0
41
1
10
66.7040920724609
20
0.641662435311339
30
0
41
1
10
66.7073012773243
20
0.661343526117655
30
0
41
1
10
66.7109159353369
20
0.681148418545853
30
0
41
1
10
66.7150738900303
20
0.701917824944474
30
0
41
1
10
66.7197949483342
20
0.723648077514742
30
0
41
1
10
66.7251151555798
20
0.746337652137647
30
0
41
1
10
66.730824832194
20
0.76909909576743
30
0
41
1
10
66.736902654238
20
0.791910738510602
30
0
41
1
10
66.7433567156615
20
0.814857040041677
30
0
41
1
10
66.7501760511549
20
0.837929830346795
30
0
41
1
10
66.7573645585863
20
0.861122852150416
30
0
41
1
10
66.7648887440001
20
0.884324048378964
30
0
41
1
10
66.7727440524127
20
0.907518185896848
30
0
41
1
10
66.778199060413
20
0.922966299672893
30
0
41
1
10
66.7809809471617
20
0.930686573958639
30
0
0
SPLINE
5
1C2
100
AcDbEntity
8
1
62
256
6
ByLayer
370
18
48
1
60
0
100
AcDbSpline
70
4
71
3
72
35
73
31
40
0
40
0
40
0
40
0
40
0.0230240023043449
40
0.0973236558136146
40
0.146202260710127
40
0.19516640821345
40
0.244124681729076
40
0.293021546724877
40
0.341843628529297
40
0.375664034599067
40
0.40957765737776
40
0.443489097630415
40
0.47733747756605
40
0.511103021293691
40
0.540607492614963
40
0.570201156280743
40
0.599767796320804
40
0.629235299560316
40
0.658973123367112
40
0.688850362139507
40
0.718723436189075
40
0.748455554053989
40
0.77430738076613
40
0.800235091480811
40
0.826178552943662
40
0.852051918565314
40
0.888956565644939
40
0.925973116433533
40
0.963034308092468
40
1
40
1
40
1
40
1
41
1
10
66.6959809499641
20
22.4521188154647
30
0
41
1
10
66.6959754886012
20
22.4535390211023
30
0
41
1
10
66.6959917657457
20
22.4595186646919
30
0
41
1
10
66.6962862972086
20
22.4683477324631
30
0
41
1
10
66.6969662810636
20
22.4785266505985
30
0
41
1
10
66.6978346623736
20
22.4870128054159
30
0
41
1
10
66.6990259817515
20
22.4952662741426
30
0
41
1
10
66.7005823354042
20
22.5032270409534
30
0
41
1
10
66.702341874936
20
22.5100609797118
30
0
41
1
10
66.7042043274356
20
22.5158386144469
30
0
41
1
10
66.70607249091
20
22.5206403995583
30
0
41
1
10
66.7082084964325
20
22.5251656854017
30
0
41
1
10
66.7106336244759
20
22.5293572007194
30
0
41
1
10
66.7132530003423
20
22.5330035010095
30
0
41
1
10
66.7160492256248
20
22.5361019032651
30
0
41
1
10
66.7189880870018
20
22.5386695959041
30
0
41
1
10
66.7221973136579
20
22.5408014508106
30
0
41
1
10
66.7256848677478
20
22.5424505548476
30
0
41
1
10
66.7294638276056
20
22.543539364618
30
0
41
1
10
66.7335041476055
20
22.5440552092821
30
0
41
1
10
66.7377495536335
20
22.5439953641989
30
0
41
1
10
66.7419685591111
20
22.5433734013951
30
0
41
1
10
66.7461044521318
20
22.5422700286809
30
0
41
1
10
66.7501123432811
20
22.5408153239977
30
0
41
1
10
66.7541596066748
20
22.5389889885325
30
0
41
1
10
66.7587960810892
20
22.5365133389089
30
0
41
1
10
66.7640068356792
20
22.5332394049708
30
0
41
1
10
66.7697511607148
20
22.5290697261964
30
0
41
1
10
66.7754230935877
20
22.5244443796917
30
0
41
1
10
66.779139855356
20
22.5211235306525
30
0
41
1
10
66.7809809471617
20
22.5194006791821
30
0
0
SPLINE
5
1C3
100
AcDbEntity
8
1
62
256
6
ByLayer
370
18
48
1
60
0
100
AcDbSpline
70
4
71
3
72
26
73
22
40
0
40
0
40
0
40
0
40
0.0052676203949764
40
0.0439533013603224
40
0.082659523436315
40
0.121353187559656
40
0.167795319358946
40
0.214276091518063
40
0.26078220516747
40
0.307286157168115
40
0.353747747075558
40
0.413184611768356
40
0.47265180622245
40
0.532125270599567
40
0.591570689385723
40
0.659588637211875
40
0.727666043030517
40
0.795776460118509
40
0.863890541507202
40
0.931976407206698
40
1
40
1
40
1
40
1
41
1
10
66.6959809478335
20
24.4305634774664
30
0
41
1
10
66.6959810526324
20
24.4300926185052
30
0
41
1
10
66.6959932161328
20
24.4261565221755
30
0
41
1
10
66.6962023518023
20
24.4186302061503
30
0
41
1
10
66.6969085072126
20
24.4078099527633
30
0
41
1
10
66.6980580976365
20
24.3960421584779
30
0
41
1
10
66.6996881038569
20
24.3833197521342
30
0
41
1
10
66.7018454194405
20
24.369633458041
30
0
41
1
10
66.7043987747677
20
24.3557653902275
30
0
41
1
10
66.7073115372465
20
24.3417527544204
30
0
41
1
10
66.7108497428883
20
24.3263086982074
30
0
41
1
10
66.7150898944456
20
24.3094139285393
30
0
41
1
10
66.7201203278797
20
24.2910531358032
30
0
41
1
10
66.7255752362795
20
24.2725809314933
30
0
41
1
10
66.731705999109
20
24.2531312123001
30
0
41
1
10
66.7385482193594
20
24.2327059467869
30
0
41
1
10
66.7461536997449
20
24.2113091034621
30
0
41
1
10
66.7542094969419
20
24.1898564664788
30
0
41
1
10
66.7626984089224
20
24.1683779040988
30
0
41
1
10
66.7716049133934
20
24.146900784925
30
0
41
1
10
66.7778109906724
20
24.1325989163214
30
0
41
1
10
66.7809809471617
20
24.1254528336146
30
0
0
SPLINE
5
1C4
100
AcDbEntity
8
1
62
256
6
ByLayer
370
18
48
1
60
0
100
AcDbSpline
70
4
71
3
72
34
73
30
40
0
40
0
40
0
40
0
40
0.0100923053728233
40
0.0721133336101562
40
0.124673933339327
40
0.177313434390555
40
0.229916770245194
40
0.282427973521296
40
0.317880271046123
40
0.353495647725716
40
0.389152215257411
40
0.424757361477418
40
0.460253823494527
40
0.495626523508198
40
0.529130407417709
40
0.562747699837297
40
0.596349275865371
40
0.62983165391239
40
0.663380176213315
40
0.697052132860406
40
0.730736863083775
40
0.764302866746947
40
0.797380165882833
40
0.830559208153399
40
0.863801430272262
40
0.897034199660316
40
0.930156704560737
40
0.965077026233046
40
1
40
1
40
1
40
1
41
1
10
66.6959809482046
20
-1.43055916540851
30
0
41
1
10
66.695979942455
20
-1.43108518370834
30
0
41
1
10
66.6959871692513
20
-1.43483379514832
30
0
41
1
10
66.6961803777974
20
-1.44119501410754
30
0
41
1
10
66.6968123822215
20
-1.44945480285882
30
0
41
1
10
66.6977872407397
20
-1.45695757765598
30
0
41
1
10
66.6991840727516
20
-1.4641074097492
30
0
41
1
10
66.7008456254406
20
-1.47010626611949
30
0
41
1
10
66.7026505271871
20
-1.47504510103587
30
0
41
1
10
66.704469543695
20
-1.47904257934176
30
0
41
1
10
66.7065655219793
20
-1.48274507675576
30
0
41
1
10
66.7089502825918
20
-1.48610267255544
30
0
41
1
10
66.7116355589588
20
-1.48906513612374
30
0
41
1
10
66.7145816360997
20
-1.49154226549228
30
0
41
1
10
66.7177893121743
20
-1.49350650598757
30
0
41
1
10
66.721230023714
20
-1.4949660261668
30
0
41
1
10
66.7249434128433
20
-1.49593276962847
30
0
41
1
10
66.7289144390308
20
-1.49637653332092
30
0
41
1
10
66.7331332482249
20
-1.49625958734587
30
0
41
1
10
66.7375602043014
20
-1.49560987256877
30
0
41
1
10
66.7421489066591
20
-1.49445297874275
30
0
41
1
10
66.7468373884701
20
-1.49281481549477
30
0
41
1
10
66.7515946747115
20
-1.49072091024607
30
0
41
1
10
66.75639313012
20
-1.4882300834951
30
0
41
1
10
66.7612296219918
20
-1.48537177883812
30
0
41
1
10
66.7660724664347
20
-1.4821903756088
30
0
41
1
10
66.7709883366563
20
-1.4786579783585
30
0
41
1
10
66.7759635235709
20
-1.47478638262018
30
0
41
1
10
66.7793122056071
20
-1.47199984663664
30
0
41
1
10
66.7809809471617
20
-1.47056353334075
30
0
0
SPLINE
5
1C5
100
AcDbEntity
8
1
62
256
6
ByLayer
370
18
48
1
60
0
100
AcDbSpline
70
4
71
3
72
26
73
22
40
0
40
0
40
0
40
0
40
0.0284599624188235
40
0.0614560633037785
40
0.0944228110556346
40
0.139468844660388
40
0.184540534422992
40
0.229595588546201
40
0.278446051913386
40
0.327338107183382
40
0.376254612172718
40
0.425166392985395
40
0.474033414975629
40
0.53665359626886
40
0.599311047881878
40
0.661974330017458
40
0.724602466620201
40
0.793431653001466
40
0.862299614137709
40
0.931168944900644
40
1
40
1
40
1
40
1
41
1
10
66.6959809476223
20
-2.98963723952789
30
0
41
1
10
66.6959824826153
20
-2.98761207495803
30
0
41
1
10
66.6960680328185
20
-2.98318142301211
30
0
41
1
10
66.6964845283883
20
-2.97616954493012
30
0
41
1
10
66.697289754841
20
-2.96771705877229
30
0
41
1
10
66.6985638050349
20
-2.9581036603326
30
0
41
1
10
66.700400829503
20
-2.94729067939378
30
0
41
1
10
66.7026969436867
20
-2.93595256793275
30
0
41
1
10
66.705446526171
20
-2.92410623190552
30
0
41
1
10
66.7086553299422
20
-2.91176132801176
30
0
41
1
10
66.7122222518586
20
-2.89925977357772
30
0
41
1
10
66.7161178718607
20
-2.88663265878077
30
0
41
1
10
66.7207087234275
20
-2.87270927833954
30
0
41
1
10
66.7260732432551
20
-2.8574709362904
30
0
41
1
10
66.7322974260675
20
-2.8409057653296
30
0
41
1
10
66.7389298966623
20
-2.82424486238949
30
0
41
1
10
66.7461761985066
20
-2.80696160567182
30
0
41
1
10
66.7540584639585
20
-2.78906562313582
30
0
41
1
10
66.7626078762038
20
-2.77057014363624
30
0
41
1
10
66.7715663556873
20
-2.75205182532372
30
0
41
1
10
66.7777992047244
20
-2.73971151048747
30
0
41
1
10
66.7809809471617
20
-2.73354250387999
30
0
0
SPLINE
5
1C6
100
AcDbEntity
8
1
62
256
6
ByLayer
370
18
48
1
60
0
100
AcDbSpline
70
4
71
3
72
32
73
28
40
0
40
0
40
0
40
0
40
0.0234720916718199
40
0.077149009364925
40
0.130753067645078
40
0.179214798605678
40
0.227780811405662
40
0.27630789045792
40
0.324716407811043
40
0.363896559159381
40
0.403258513936374
40
0.442647911093177
40
0.481943551189727
40
0.521067832926867
40
0.555476911685444
40
0.590035123861023
40
0.624649673021769
40
0.659218293423685
40
0.693636139700326
40
0.731595929112716
40
0.769657144710268
40
0.807740162396781
40
0.845729758203133
40
0.884257597759972
40
0.922845874921922
40
0.961450218713873
40
1
40
1
40
1
40
1
41
1
10
66.6959809496749
20
25.9896216629351
30
0
41
1
10
66.6959794335244
20
25.9906793986209
30
0
41
1
10
66.6960151829572
20
25.9941243014358
30
0
41
1
10
66.6962948651059
20
25.9997980964516
30
0
41
1
10
66.6970224272086
20
26.0062352929899
30
0
41
1
10
66.698127061384
20
26.0121135278913
30
0
41
1
10
66.6995970114929
20
26.017422195528
30
0
41
1
10
66.7015041308536
20
26.0222970868288
30
0
41
1
10
66.7037284175632
20
26.0263923115903
30
0
41
1
10
66.7062130709626
20
26.0297419240593
30
0
41
1
10
66.7088709752932
20
26.0324252544271
30
0
41
1
10
66.7118797797094
20
26.0346532397574
30
0
41
1
10
66.7152338776059
20
26.0363785806422
30
0
41
1
10
66.718784165446
20
26.0375110014401
30
0
41
1
10
66.7224902423288
20
26.038078338667
30
0
41
1
10
66.7262847845562
20
26.0381695608951
30
0
41
1
10
66.7303005882826
20
26.037819126728
30
0
41
1
10
66.7345014796381
20
26.0370351094053
30
0
41
1
10
66.739012531864
20
26.0357774221047
30
0
41
1
10
66.7438320660005
20
26.0340010941919
30
0
41
1
10
66.7489395022879
20
26.0317080768486
30
0
41
1
10
66.7541430172952
20
26.0289954033104
30
0
41
1
10
66.7594337196379
20
26.0258865978702
30
0
41
1
10
66.7647889141665
20
26.02240885076
30
0
41
1
10
66.7701910363531
20
26.0185984627412
30
0
41
1
10
66.7755961781075
20
26.0145043356707
30
0
41
1
10
66.7791880411898
20
26.0116150365149
30
0
41
1
10
66.7809809471617
20
26.0101290627099
30
0
0
SPLINE
5
1C7
100
AcDbEntity
8
1
62
256
6
ByLayer
370
18
48
1
60
0
100
AcDbSpline
70
4
71
3
72
32
73
28
40
0
40
0
40
0
40
0
40
0.0151188494428453
40
0.0621073499832506
40
0.109076077958475
40
0.155972745539487
40
0.194758274794658
40
0.233657018999787
40
0.27257058342755
40
0.311424265710714
40
0.350171894212393
40
0.389272126481507
40
0.428547381115484
40
0.467869003833951
40
0.507118874164503
40
0.54619772213628
40
0.58919937811052
40
0.632350484411782
40
0.675521086871348
40
0.718549418665969
40
0.762681634860092
40
0.806949791043758
40
0.85130095221462
40
0.895638286423243
40
0.93982870870533
40
0.96991404553745
40
1
40
1
40
1
40
1
41
1
10
66.6959809483638
20
-4.25434670306432
30
0
41
1
10
66.6959807173152
20
-4.25493788595303
30
0
41
1
10
66.6960028113068
20
-4.25734720195257
30
0
41
1
10
66.6962013165525
20
-4.26144917064115
30
0
41
1
10
66.696799322368
20
-4.2664510803785
30
0
41
1
10
66.6977073826075
20
-4.2708485422887
30
0
41
1
10
66.6988831640219
20
-4.27466740486491
30
0
41
1
10
66.7002711119565
20
-4.27795126915296
30
0
41
1
10
66.7019577351832
20
-4.28092082186969
30
0
41
1
10
66.7039532739858
20
-4.2835385237074
30
0
41
1
10
66.7062742084437
20
-4.2857797453231
30
0
41
1
10
66.7089493046109
20
-4.28759513556596
30
0
41
1
10
66.7119757210258
20
-4.28896605132127
30
0
41
1
10
66.7153283471405
20
-4.28987685993438
30
0
41
1
10
66.7189856744448
20
-4.29030933117254
30
0
41
1
10
66.7230669904714
20
-4.29024156873057
30
0
41
1
10
66.727598800002
20
-4.28959342227839
30
0
41
1
10
66.7325646927155
20
-4.28834685301511
30
0
41
1
10
66.7377731328908
20
-4.28655544503313
30
0
41
1
10
66.7432252066338
20
-4.28422766068786
30
0
41
1
10
66.7488934712773
20
-4.28137275076191
30
0
41
1
10
66.7547456068031
20
-4.27803333161761
30
0
41
1
10
66.76069806883
20
-4.27428003660592
30
0
41
1
10
66.7667080112481
20
-4.27016507005096
30
0
41
1
10
66.7721052651508
20
-4.26620008183328
30
0
41
1
10
66.7768643014985
20
-4.26251786300788
30
0
41
1
10
66.7796084300422
20
-4.26031533120157
30
0
41
1
10
66.7809809471617
20
-4.2591932680759
30
0
0
SPLINE
5
1C8
100
AcDbEntity
8
1
62
256
6
ByLayer
370
18
48
1
60
0
100
AcDbSpline
70
4
71
3
72
28
73
24
40
0
40
0
40
0
40
0
40
0.000907731346673
40
0.0309269860717533
40
0.0670227425826699
40
0.103154462838549
40
0.139295746645604
40
0.1754045567235
40
0.22478241861632
40
0.274190047616588
40
0.323577418098834
40
0.372926068373249
40
0.422317237478492
40
0.471731411892331
40
0.521139051580315
40
0.570501528162444
40
0.633827726853282
40
0.697195566054659
40
0.760568566909093
40
0.823901808741244
40
0.88259632378266
40
0.941304981108854
40
1
40
1
40
1
40
1
41
1
10
66.6959809471908
20
27.254359705032
30
0
41
1
10
66.6959812158423
20
27.2543072332776
30
0
41
1
10
66.6959915567286
20
27.2525185626411
30
0
41
1
10
66.6960848173235
20
27.2485867817201
30
0
41
1
10
66.6965697107725
20
27.2423231604911
30
0
41
1
10
66.6974099612934
20
27.2354487829125
30
0
41
1
10
66.6985614362431
20
27.22835928023
30
0
41
1
10
66.700170977887
20
27.2201968643688
30
0
41
1
10
66.7023397097487
20
27.2109065048976
30
0
41
1
10
66.7051646073859
20
27.2004480843536
30
0
41
1
10
66.7083913182047
20
27.1897776631128
30
0
41
1
10
66.7119811314624
20
27.1789292772565
30
0
41
1
10
66.7159092996953
20
27.1679251664051
30
0
41
1
10
66.7201540480734
20
27.1567849541937
30
0
41
1
10
66.7246911391546
20
27.1455349034292
30
0
41
1
10
66.7299523272322
20
27.1331254406824
30
0
41
1
10
66.7360122559289
20
27.1195389694651
30
0
41
1
10
66.7429498216704
20
27.1047659936731
30
0
41
1
10
66.7502602073389
20
27.0899100789757
30
0
41
1
10
66.7577336288783
20
27.0753593585377
30
0
41
1
10
66.7653239412978
20
27.061136107672
30
0
41
1
10
66.7729973798264
20
27.0472538231766
30
0
41
1
10
66.7782900304666
20
27.037995038438
30
0
41
1
10
66.7809809471617
20
27.0333642578061
30
0
0
SPLINE
5
1C9
100
AcDbEntity
8
1
62
256
6
ByLayer
370
18
48
1
60
0
100
AcDbSpline
70
4
71
3
72
30
73
26
40
0
40
0
40
0
40
0
40
0.0396566763685476
40
0.0899052433767522
40
0.131548641680555
40
0.173323555199324
40
0.215118231789151
40
0.256845633791895
40
0.298449061430299
40
0.340397787771694
40
0.382535941224383
40
0.424729091409194
40
0.466848931433492
40
0.508782229281339
40
0.55457954890019
40
0.600528423431454
40
0.646498370270464
40
0.692324517483498
40
0.740587920424941
40
0.789000293542742
40
0.837502679030692
40
0.885989103655709
40
0.934314813443179
40
0.967157081282322
40
1
40
1
40
1
40
1
41
1
10
66.6959809482201
20
28.291352741021
30
0
41
1
10
66.6959790323008
20
28.2926947387897
30
0
41
1
10
66.6960738387323
20
28.2956475928199
30
0
41
1
10
66.6965270493764
20
28.2996920642043
30
0
41
1
10
66.6973559118072
20
28.3034540128896
30
0
41
1
10
66.6984572282466
20
28.3066589982711
30
0
41
1
10
66.6998951215635
20
28.3095205097499
30
0
41
1
10
66.7016807859168
20
28.31200080379
30
0
41
1
10
66.7038308664537
20
28.3140736517752
30
0
41
1
10
66.7063756782392
20
28.3156895568445
30
0
41
1
10
66.7093093451806
20
28.3168351160319
30
0
41
1
10
66.7126057190982
20
28.3175001319068
30
0
41
1
10
66.7162415242139
20
28.3176717723973
30
0
41
1
10
66.7203248122879
20
28.3173241671351
30
0
41
1
10
66.7248811403354
20
28.3163872494602
30
0
41
1
10
66.7298928060898
20
28.314851542689
30
0
41
1
10
66.7351783960487
20
28.312779399093
30
0
41
1
10
66.740790097469
20
28.3101563382864
30
0
41
1
10
66.7467083499298
20
28.3069774895217
30
0
41
1
10
66.7529034496781
20
28.3032709900861
30
0
41
1
10
66.7592341524114
20
28.2991400683138
30
0
41
1
10
66.7656529794324
20
28.294639317795
30
0
41
1
10
66.7714372568139
20
28.2903256374267
30
0
41
1
10
66.7765500797084
20
28.2863351784962
30
0
41
1
10
66.7795025402512
20
28.2839552338887
30
0
41
1
10
66.7809809471617
20
28.2827440993611
30
0
0
SPLINE
5
1CA
100
AcDbEntity
8
1
62
256
6
ByLayer
370
18
48
1
60
0
100
AcDbSpline
70
4
71
3
72
27
73
23
40
0
40
0
40
0
40
0
40
0.0300151594988794
40
0.0632338243829551
40
0.0963462544717829
40
0.134527401766767
40
0.172746445111774
40
0.210974548484293
40
0.249168062087745
40
0.301429293770234
40
0.353723474783617
40
0.405994346836011
40
0.467267241571905
40
0.528599234297349
40
0.589943297603254
40
0.651232667503606
40
0.714172073409983
40
0.77715557524381
40
0.840143666753433
40
0.903089335610044
40
0.95154462461158
40
1
40
1
40
1
40
1
41
1
10
66.6959809474221
20
-5.29135871989186
30
0
41
1
10
66.6959848023658
20
-5.28995079271491
30
0
41
1
10
66.6960783421384
20
-5.2869148914228
30
0
41
1
10
66.6965008400838
20
-5.28205603856033
30
0
41
1
10
66.6972586006777
20
-5.2765504506598
30
0
41
1
10
66.6983663737189
20
-5.27054450079682
30
0
41
1
10
66.6998482413979
20
-5.26402715006531
30
0
41
1
10
66.7016289969047
20
-5.25730532321464
30
0
41
1
10
66.7039370354199
20
-5.24955970917164
30
0
41
1
10
66.7068725678703
20
-5.24073532732023
30
0
41
1
10
66.7105313127076
20
-5.23079162112966
30
0
41
1
10
66.7148184242696
20
-5.22005307031695
30
0
41
1
10
66.7197746935977
20
-5.20851303598313
30
0
41
1
10
66.7254412811937
20
-5.19617013045719
30
0
41
1
10
66.7315252922767
20
-5.18365672399471
30
0
41
1
10
66.7380488642612
20
-5.17089414576472
30
0
41
1
10
66.7449947949648
20
-5.15790277501777
30
0
41
1
10
66.7523548962185
20
-5.1446981458304
30
0
41
1
10
66.7600458884914
20
-5.13141902557268
30
0
41
1
10
66.7674329585844
20
-5.11911098273651
30
0
41
1
10
66.7744257640079
20
-5.10780106108304
30
0
41
1
10
66.7787769653014
20
-5.1009368041746
30
0
41
1
10
66.7809809471617
20
-5.09750216513371
30
0
0
SPLINE
5
1CB
100
AcDbEntity
8
1
62
256
6
ByLayer
370
18
48
1
60
0
100
AcDbSpline
70
4
71
3
72
30
73
26
40
0
40
0
40
0
40
0
40
0.002203351359314
40
0.0496461686715142
40
0.0921182769225812
40
0.134729531805441
40
0.177365762404796
40
0.219934552725322
40
0.26237093163017
40
0.305081983146166
40
0.347974894729586
40
0.390926117301786
40
0.433812085541922
40
0.476517288885892
40
0.524365409983461
40
0.572363445774321
40
0.62038380336948
40
0.668262456019119
40
0.720303768740202
40
0.772505817345087
40
0.824804399167493
40
0.877085258542789
40
0.929192882578363
40
0.964596101621384
40
1
40
1
40
1
40
1
41
1
10
66.6959809472149
20
-6.14085736871983
30
0
41
1
10
66.6959813942663
20
-6.14092037955674
30
0
41
1
10
66.6959943746647
20
-6.14233747935618
30
0
41
1
10
66.6961131566096
20
-6.14488364248365
30
0
41
1
10
66.6966739800759
20
-6.14817899892575
30
0
41
1
10
66.6975524427933
20
-6.15102368772031
30
0
41
1
10
66.6987856593276
20
-6.15350960927799
30
0
41
1
10
66.7003813827114
20
-6.1556051798362
30
0
41
1
10
66.7023542874294
20
-6.1572849205548
30
0
41
1
10
66.704730642227
20
-6.15850627081019
30
0
41
1
10
66.7075003902793
20
-6.15926434573942
30
0
41
1
10
66.7106385317528
20
-6.15955649362505
30
0
41
1
10
66.7141213630923
20
-6.1593778064042
30
0
41
1
10
66.7180877173382
20
-6.15869347323456
30
0
41
1
10
66.722574310627
20
-6.15742719817922
30
0
41
1
10
66.7275751270371
20
-6.15555685061978
30
0
41
1
10
66.7328742372549
20
-6.15316694694082
30
0
41
1
10
66.7385871119961
20
-6.15020808820623
30
0
41
1
10
66.7447056990584
20
-6.14665909175888
30
0
41
1
10
66.7512066294904
20
-6.14253122649791
30
0
41
1
10
66.757878530886
20
-6.13797283336245
30
0
41
1
10
66.7646695669907
20
-6.13304111199003
30
0
41
1
10
66.7708106196706
20
-6.12834119185886
30
0
41
1
10
66.7762533888974
20
-6.12401067169007
30
0
41
1
10
66.7794024497084
20
-6.12143479091973
30
0
41
1
10
66.7809809471617
20
-6.12012561103662
30
0
0
SPLINE
5
1CC
100
AcDbEntity
8
1
62
256
6
ByLayer
370
18
48
1
60
0
100
AcDbSpline
70
4
71
3
72
26
73
22
40
0
40
0
40
0
40
0
40
0.0306795055601343
40
0.0707310307782098
40
0.110649963271386
40
0.159511647543105
40
0.208493511370358
40
0.257574919911632
40
0.306700213899765
40
0.355783498021784
40
0.40471298525266
40
0.460851669811367
40
0.517044753883324
40
0.573248645709027
40
0.629402081875516
40
0.687072879346379
40
0.744783949038709
40
0.80249988489974
40
0.86017732258659
40
0.930088279967729
40
1
40
1
40
1
40
1
41
1
10
66.6959809484386
20
29.1408487377063
30
0
41
1
10
66.695986467073
20
29.1396853303745
30
0
41
1
10
66.6960941193332
20
29.1369214613338
30
0
41
1
10
66.6966103123181
20
29.1322923063884
30
0
41
1
10
66.697649460089
20
29.1265401899902
30
0
41
1
10
66.69923916364
20
29.1200089562631
30
0
41
1
10
66.7014403064939
20
29.112664039699
30
0
41
1
10
66.7041092189627
20
29.1049763127679
30
0
41
1
10
66.7072015746883
20
29.0970000423664
30
0
41
1
10
66.7106739303927
20
29.088788675562
30
0
41
1
10
66.7146774925562
20
29.0799668192223
30
0
41
1
10
66.7192418754688
20
29.0705255084272
30
0
41
1
10
66.7243974450303
20
29.0604564280524
30
0
41
1
10
66.7299076941295
20
29.0502148037666
30
0
41
1
10
66.7357946250717
20
29.0397373551289
30
0
41
1
10
66.7420434592302
20
29.0290415369149
30
0
41
1
10
66.7486452271737
20
29.0181408313167
30
0
41
1
10
66.7555242801103
20
29.0071509501031
30
0
41
1
10
66.7631651664257
20
28.995310630279
30
0
41
1
10
66.7716184092385
20
28.982618153952
30
0
41
1
10
66.7778223741962
20
28.9735994387966
30
0
41
1
10
66.7809809471617
20
28.9690798577815
30
0
0
SPLINE
5
1CD
100
AcDbEntity
8
1
62
256
6
ByLayer
370
18
48
1
60
0
100
AcDbSpline
70
4
71
3
72
27
73
23
40
0
40
0
40
0
40
0
40
0.0332943854182615
40
0.075208044679704
40
0.11710487116128
40
0.15886201415347
40
0.208318622204596
40
0.257900185973336
40
0.307581605054127
40
0.357304570455857
40
0.406982150640132
40
0.456502951839175
40
0.511399225076946
40
0.566348589530706
40
0.621307721556132
40
0.676217326657334
40
0.73262683963915
40
0.789076666574112
40
0.845531200491372
40
0.901947136574726
40
0.950973449909621
40
1
40
1
40
1
40
1
41
1
10
66.6959809479214
20
-6.82893025035227
30
0
41
1
10
66.6959867021153
20
-6.82792854775224
30
0
41
1
10
66.6961077463838
20
-6.82556880609899
30
0
41
1
10
66.6966860743498
20
-6.82153823721373
30
0
41
1
10
66.6977392264114
20
-6.81684089997332
30
0
41
1
10
66.6992869422686
20
-6.81150019641324
30
0
41
1
10
66.7013868061237
20
-6.80547847399768
30
0
41
1
10
66.7040812692653
20
-6.79875208859715
30
0
41
1
10
66.7072176794721
20
-6.79169327198041
30
0
41
1
10
66.7107538970289
20
-6.78435205036192
30
0
41
1
10
66.7146485543673
20
-6.77677777222008
30
0
41
1
10
66.719021251044
20
-6.76872368528429
30
0
41
1
10
66.7238861913689
20
-6.76018843122627
30
0
41
1
10
66.7292576668335
20
-6.75117027562639
30
0
41
1
10
66.7349427178937
20
-6.74198658359882
30
0
41
1
10
66.740968377651
20
-6.73257965096508
30
0
41
1
10
66.7473217856049
20
-6.72296491615728
30
0
41
1
10
66.7539940601541
20
-6.71315477495676
30
0
41
1
10
66.7609091014358
20
-6.70325487634287
30
0
41
1
10
66.7677367958599
20
-6.69371911030251
30
0
41
1
10
66.7744318618745
20
-6.68457022843799
30
0
41
1
10
66.7787809642912
20
-6.67874069948951
30
0
41
1
10
66.7809809471617
20
-6.67581976235125
30
0
0
SPLINE
5
1CE
100
AcDbEntity
8
1
62
256
6
ByLayer
370
18
48
1
60
0
100
AcDbSpline
70
4
71
3
72
30
73
26
40
0
40
0
40
0
40
0
40
0.0142581537646706
40
0.0570011125123297
40
0.0998869622692025
40
0.142802400517623
40
0.185652202540228
40
0.228364828618588
40
0.271281603841165
40
0.314369880437231
40
0.35751748496066
40
0.400607590895922
40
0.443525906539204
40
0.493011153676149
40
0.54264468927324
40
0.592301520406061
40
0.641818626596689
40
0.68782972937461
40
0.733964071008309
40
0.780190134573978
40
0.826449543439379
40
0.872660952193659
40
0.918723584839061
40
0.9593613188041
40
1
40
1
40
1
40
1
41
1
10
66.6959809482594
20
29.8289289227777
30
0
41
1
10
66.695980597791
20
29.8292714886739
30
0
41
1
10
66.6960051307279
20
29.8306161897678
30
0
41
1
10
66.6962274177068
20
29.8328042484293
30
0
41
1
10
66.6968708665163
20
29.8352701180406
30
0
41
1
10
66.697878136155
20
29.8373707863471
30
0
41
1
10
66.6992577224976
20
29.8390774202209
30
0
41
1
10
66.701021372703
20
29.8403675130531
30
0
41
1
10
66.7031914395854
20
29.8412055701654
30
0
41
1
10
66.7057545052413
20
29.8415938819459
30
0
41
1
10
66.7086872783849
20
29.8415355543601
30
0
41
1
10
66.7119663960788
20
29.8410320292462
30
0
41
1
10
66.7157616237639
20
29.8400321771059
30
0
41
1
10
66.720122988784
20
29.8384515264831
30
0
41
1
10
66.7250584842446
20
29.8362541258437
30
0
41
1
10
66.7303171805383
20
29.8335526266567
30
0
41
1
10
66.7357234897354
20
29.8304578065083
30
0
41
1
10
66.7412246269074
20
29.8270338651087
30
0
41
1
10
66.7467748124109
20
29.8233497945523
30
0
41
1
10
66.7524833307097
20
29.8193510378707
30
0
41
1
10
66.7583178595042
20
29.8150719768288
30
0
41
1
10
66.7642462913823
20
29.8105466731025
30
0
41
1
10
66.7700126343405
20
29.805985914927
30
0
41
1
10
66.7755939550513
20
29.8014366530696
30
0
41
1
10
66.7791806776624
20
29.7984395872155
30
0
41
1
10
66.7809809471617
20
29.7969165050502
30
0
0
SPLINE
5
1CF
100
AcDbEntity
8
1
62
256
6
ByLayer
370
18
48
1
60
0
100
AcDbSpline
70
4
71
3
72
27
73
23
40
0
40
0
40
0
40
0
40
0.0328989725308533
40
0.0774404924408745
40
0.122005079278834
40
0.166465661491239
40
0.213448693067775
40
0.260554372101848
40
0.307754611125889
40
0.354991738913355
40
0.402182672931036
40
0.449222706522161
40
0.499978773276757
40
0.550784123021857
40
0.601598391793227
40
0.652366632274413
40
0.704524901807051
40
0.75672031392716
40
0.808920520864196
40
0.861085333329739
40
0.930541959502849
40
1
40
1
40
1
40
1
41
1
10
66.6959809478526
20
30.3732546567526
30
0
41
1
10
66.695983837573
20
30.372497136974
30
0
41
1
10
66.696100454498
20
30.3706117321897
30
0
41
1
10
66.6967050904704
20
30.3672432903326
30
0
41
1
10
66.6978500974013
20
30.3631187871498
30
0
41
1
10
66.6994802040317
20
30.3585111460672
30
0
41
1
10
66.7015955756904
20
30.3534312541716
30
0
41
1
10
66.7041853041727
20
30.3478965354056
30
0
41
1
10
66.7071770324358
20
30.34203769201
30
0
41
1
10
66.7105339191913
20
30.335898281098
30
0
41
1
10
66.7142193921296
20
30.3295216025097
30
0
41
1
10
66.7183101415942
20
30.3227645754013
30
0
41
1
10
66.7228099197517
20
30.3156304469839
30
0
41
1
10
66.7277213033955
20
30.3081222446684
30
0
41
1
10
66.7329065666329
20
30.300444329258
30
0
41
1
10
66.7383911273259
20
30.2925495822156
30
0
41
1
10
66.7441635354006
20
30.284451444776
30
0
41
1
10
66.750214858084
20
30.2761610011469
30
0
41
1
10
66.7564756284082
20
30.2677685319224
30
0
41
1
10
66.7636412527323
20
30.2583548239733
30
0
41
1
10
66.7717769322938
20
30.2478989517372
30
0
41
1
10
66.7778800479458
20
30.2402345130294
30
0
41
1
10
66.7809809471617
20
30.2363843093967
30
0
0
SPLINE
5
1D0
100
AcDbEntity
8
1
62
256
6
ByLayer
370
18
48
1
60
0
100
AcDbSpline
70
4
71
3
72
30
73
26
40
0
40
0
40
0
40
0
40
0.0246093289498881
40
0.0674319692533644
40
0.110288223210187
40
0.153081543851501
40
0.195735108062025
40
0.238528291305396
40
0.281482201674187
40
0.324495224411002
40
0.367457621979976
40
0.410257950365281
40
0.45086611181698
40
0.491580610911649
40
0.532345835599306
40
0.573088196453274
40
0.613719788280994
40
0.662028003311167
40
0.710465782160785
40
0.758999609046225
40
0.807568063004691
40
0.856085871385885
40
0.904447597087985
40
0.95222305280671
40
1
40
1
40
1
40
1
41
1
10
66.6959809477443
20
-7.37325505498152
30
0
41
1
10
66.6959821145144
20
-7.37372887028112
30
0
41
1
10
66.6960405214327
20
-7.37497277303694
30
0
41
1
10
66.6963808275641
20
-7.37676942235179
30
0
41
1
10
66.6971496261542
20
-7.37848755292151
30
0
41
1
10
66.6982964869483
20
-7.37981193910077
30
0
41
1
10
66.699831661764
20
-7.38072230845443
30
0
41
1
10
66.7017735590361
20
-7.38119021881685
30
0
41
1
10
66.7041061448318
20
-7.38122372676925
30
0
41
1
10
66.7068078153586
20
-7.38083036604112
30
0
41
1
10
66.7098558485925
20
-7.38001665574949
30
0
41
1
10
66.713178486977
20
-7.37880569861311
30
0
41
1
10
66.7167454252428
20
-7.37722486851683
30
0
41
1
10
66.7205114698948
20
-7.37532581023304
30
0
41
1
10
66.7245154482185
20
-7.37310099275713
30
0
41
1
10
66.7287276469113
20
-7.37057460089102
30
0
41
1
10
66.7334036428495
20
-7.36758774491278
30
0
41
1
10
66.7385706498018
20
-7.36409101035075
30
0
41
1
10
66.7442413584706
20
-7.36005283972924
30
0
41
1
10
66.7500984231121
20
-7.35569981428202
30
0
41
1
10
66.7561073780128
20
-7.3510676348234
30
0
41
1
10
66.7622340810985
20
-7.34619164390278
30
0
41
1
10
66.7684310161161
20
-7.34111786385397
30
0
41
1
10
66.7746817627249
20
-7.33586846003022
30
0
41
1
10
66.7788734517732
20
-7.33226967726625
30
0
41
1
10
66.7809809471617
20
-7.33044026667588
30
0
0
SPLINE
5
1D1
100
AcDbEntity
8
1
62
256
6
ByLayer
370
18
48
1
60
0
100
AcDbSpline
70
4
71
3
72
29
73
25
40
0
40
0
40
0
40
0
40
0.0406438103291151
40
0.0839535605520195
40
0.127121504140377
40
0.170427804122157
40
0.213896807317824
40
0.257425359041763
40
0.30090240364212
40
0.344215473463815
40
0.385314718816559
40
0.42652273567159
40
0.467782094293874
40
0.509017580846452
40
0.550139927481514
40
0.598396860892512
40
0.646784352268213
40
0.69526720802161
40
0.743783348854435
40
0.792247768602876
40
0.840556139811698
40
0.893690802226654
40
0.946858146682814
40
1
40
1
40
1
40
1
41
1
10
66.6959809472326
20
30.7860020458511
30
0
41
1
10
66.6959861497361
20
30.7865907169301
30
0
41
1
10
66.6961136470048
20
30.7876891581578
30
0
41
1
10
66.6966592054442
20
30.7890013431294
30
0
41
1
10
66.6976260132876
20
30.7899208798347
30
0
41
1
10
66.6990165707028
20
30.7903989801728
30
0
41
1
10
66.700818387056
20
30.790441563051
30
0
41
1
10
66.7030126219893
20
30.7900564344038
30
0
41
1
10
66.7055803925032
20
30.7892496795616
30
0
41
1
10
66.7084604969033
20
30.788044093502
30
0
41
1
10
66.7116230297312
20
30.7864666402869
30
0
41
1
10
66.7150204486437
20
30.7845686450773
30
0
41
1
10
66.7186848048625
20
30.7823425121114
30
0
41
1
10
66.7225871668821
20
30.7798122000708
30
0
41
1
10
66.7269447717141
20
30.7768326746698
30
0
41
1
10
66.7317876640408
20
30.7733588279475
30
0
41
1
10
66.7371306642358
20
30.7693631806499
30
0
41
1
10
66.7426938112281
20
30.7650559356184
30
0
41
1
10
66.7484423156242
20
30.7604718388068
30
0
41
1
10
66.7543415202293
20
30.755645533454
30
0
41
1
10
66.7605693422804
20
30.7504332565031
30
0
41
1
10
66.7671228250156
20
30.7448308547396
30
0
41
1
10
66.7739984258445
20
30.7388363025938
30
0
41
1
10
66.7786427992569
20
30.7347158789787
30
0
41
1
10
66.7809809471617
20
30.7326235256898
30
0
0
SPLINE
5
1D2
100
AcDbEntity
8
1
62
256
6
ByLayer
370
18
48
1
60
0
100
AcDbSpline
70
4
71
3
72
29
73
25
40
0
40
0
40
0
40
0
40
0.0271263542711008
40
0.0642009500636858
40
0.101363390801665
40
0.138569707900059
40
0.175758924193204
40
0.212856031387557
40
0.260077820478815
40
0.30742483023406
40
0.35486608084333
40
0.402342396762595
40
0.449770448136555
40
0.497046423513976
40
0.547019095636256
40
0.597040242632915
40
0.647069759025582
40
0.697053854681335
40
0.74841477329919
40
0.799812730103911
40
0.851215404938633
40
0.902582761765309
40
0.951291178843038
40
1
40
1
40
1
40
1
41
1
10
66.6959809473884
20
-7.78600130315741
30
0
41
1
10
66.6959815047485
20
-7.78555084477848
30
0
41
1
10
66.6960580850567
20
-7.78441222521452
30
0
41
1
10
66.696466288932
20
-7.78233504114202
30
0
41
1
10
66.6972592623468
20
-7.77972570392818
30
0
41
1
10
66.6983779679007
20
-7.77681196897458
30
0
41
1
10
66.6998030984028
20
-7.77362069261373
30
0
41
1
10
66.7016749071005
20
-7.76985885753613
30
0
41
1
10
66.7040755741473
20
-7.7654574259578
30
0
41
1
10
66.7070721728345
20
-7.76036455547436
30
0
41
1
10
66.7104477303159
20
-7.75495399624067
30
0
41
1
10
66.7141664804141
20
-7.74926634723488
30
0
41
1
10
66.7181928647713
20
-7.74334195933945
30
0
41
1
10
66.7225822129247
20
-7.73709234802197
30
0
41
1
10
66.7273309869367
20
-7.73052484569406
30
0
41
1
10
66.7324347143922
20
-7.72364626041253
30
0
41
1
10
66.7377830480788
20
-7.71660073341561
30
0
41
1
10
66.7434046342662
20
-7.70934476478093
30
0
41
1
10
66.7492888102063
20
-7.70189058332052
30
0
41
1
10
66.755426705412
20
-7.69424856617147
30
0
41
1
10
66.7617482415758
20
-7.68650279351256
30
0
41
1
10
66.7681251399508
20
-7.67880446329704
30
0
41
1
10
66.7745357961686
20
-7.67117004911255
30
0
41
1
10
66.7788179315162
20
-7.66613369499573
30
0
41
1
10
66.7809809471617
20
-7.66360534829859
30
0
0
SPLINE
5
1D3
100
AcDbEntity
8
1
62
256
6
ByLayer
370
18
48
1
60
0
100
AcDbSpline
70
4
71
3
72
29
73
25
40
0
40
0
40
0
40
0
40
0.0300825407329084
40
0.0714649231057353
40
0.112747553004777
40
0.153856387807397
40
0.19596663702204
40
0.238216347930118
40
0.280524210443056
40
0.322794428538875
40
0.364921934944167
40
0.40726250621635
40
0.449703458191092
40
0.492194314377631
40
0.534665426434898
40
0.577031354646985
40
0.630641089211416
40
0.684394109461438
40
0.738253518394334
40
0.792151416054449
40
0.84599339043332
40
0.899662602458466
40
0.949830683736598
40
1
40
1
40
1
40
1
41
1
10
66.6959809473913
20
-8.07549152295925
30
0
41
1
10
66.6959924962028
20
-8.07577636367522
30
0
41
1
10
66.6960918475076
20
-8.07638034331988
30
0
41
1
10
66.6964979876573
20
-8.07708299130725
30
0
41
1
10
66.6973302768169
20
-8.07745962116741
30
0
41
1
10
66.6985485175906
20
-8.07744380372577
30
0
41
1
10
66.7001762517438
20
-8.07700732994699
30
0
41
1
10
66.7021975763846
20
-8.0761631259921
30
0
41
1
10
66.7045805959704
20
-8.07492877457367
30
0
41
1
10
66.7073015649414
20
-8.07332140704603
30
0
41
1
10
66.7103500111512
20
-8.07134862720171
30
0
41
1
10
66.7137148725306
20
-8.06901855691816
30
0
41
1
10
66.7173698607274
20
-8.06635787653615
30
0
41
1
10
66.7212847324541
20
-8.0633936010592
30
0
41
1
10
66.7254299619265
20
-8.06015294815809
30
0
41
1
10
66.7301687334534
20
-8.05634733832357
30
0
41
1
10
66.7355526134499
20
-8.05191043555392
30
0
41
1
10
66.74161668585
20
-8.04679268920292
30
0
41
1
10
66.7479234810459
20
-8.04136191890995
30
0
41
1
10
66.7544335990896
20
-8.03565818017734
30
0
41
1
10
66.76110800377
20
-8.02972113743198
30
0
41
1
10
66.7677725455061
20
-8.02371219300837
30
0
41
1
10
66.7743996141939
20
-8.01766592928605
30
0
41
1
10
66.778776453383
20
-8.01363189737487
30
0
41
1
10
66.7809809471617
20
-8.01158975391263
30
0
0
SPLINE
5
1D4
100
AcDbEntity
8
1
62
256
6
ByLayer
370
18
48
1
60
0
100
AcDbSpline
70
4
71
3
72
28
73
24
40
0
40
0
40
0
40
0
40
0.0277029670313968
40
0.0656379467123836
40
0.103672244421594
40
0.14175354418019
40
0.179813162758171
40
0.217769436008679
40
0.262531786212567
40
0.307415451527117
40
0.352387420034446
40
0.397389966599538
40
0.442344303888704
40
0.48715390868274
40
0.533529331296033
40
0.579949883121165
40
0.626378074947431
40
0.672763925568052
40
0.736326225705977
40
0.79993299818248
40
0.8635047009839
40
0.931751308227475
40
1
40
1
40
1
40
1
41
1
10
66.6959809472948
20
31.0754919456873
30
0
41
1
10
66.6959812350437
20
31.0751947333627
30
0
41
1
10
66.6960588590007
20
31.0744148310745
30
0
41
1
10
66.696474563404
20
31.0728927038509
30
0
41
1
10
66.69728713335
20
31.0708729126529
30
0
41
1
10
66.698437075752
20
31.068527978374
30
0
41
1
10
66.699906334726
20
31.0658817620378
30
0
41
1
10
66.7017864835286
20
31.0627774716324
30
0
41
1
10
66.7041306983029
20
31.0591685687346
30
0
41
1
10
66.7069747444649
20
31.0550260614228
30
0
41
1
10
66.7101652500771
20
31.0505729707302
30
0
41
1
10
66.7136705489731
20
31.0458444081113
30
0
41
1
10
66.7174590837967
20
31.0408753436344
30
0
41
1
10
66.7215550906801
20
31.0356297503673
30
0
41
1
10
66.7259494660869
20
31.0301183109635
30
0
41
1
10
66.7306316499682
20
31.0243518710323
30
0
41
1
10
66.7355309275837
20
31.0184143609549
30
0
41
1
10
66.7412559020685
20
31.0115749788768
30
0
41
1
10
66.747878785314
20
31.0037827718113
30
0
41
1
10
66.7554604935001
20
30.9950011346823
30
0
41
1
10
66.7635044532238
20
30.9858140985894
30
0
41
1
10
66.7720039107227
20
30.9762351669936
30
0
41
1
10
66.7779606378831
20
30.969605247095
30
0
41
1
10
66.7809809471617
20
30.9662642256101
30
0
0
SPLINE
5
1D5
100
AcDbEntity
8
1
62
256
6
ByLayer
370
18
48
1
60
0
100
AcDbSpline
70
4
71
3
72
28
73
24
40
0
40
0
40
0
40
0
40
0.0195704098523577
40
0.0614698831479427
40
0.100619567620216
40
0.139877012718067
40
0.179184016066891
40
0.218466190887491
40
0.257636674533612
40
0.3020642047569
40
0.346613542346807
40
0.391249899350913
40
0.43591509487629
40
0.480531084574395
40
0.525003182341057
40
0.585542459732467
40
0.646139959085704
40
0.706693902656957
40
0.768923215844078
40
0.831196339001237
40
0.893434973539181
40
0.946717036082436
40
1
40
1
40
1
40
1
41
1
10
66.6959809472415
20
-8.24714940596871
30
0
41
1
10
66.6959844502458
20
-8.24704380311348
30
0
41
1
10
66.6960426913243
20
-8.24666488940819
30
0
41
1
10
66.6963641922062
20
-8.24581764237495
30
0
41
1
10
66.6971701197012
20
-8.24438542346784
30
0
41
1
10
66.6983145136252
20
-8.24263281342298
30
0
41
1
10
66.6998031300737
20
-8.2405421149166
30
0
41
1
10
66.7016150642037
20
-8.23813731567385
30
0
41
1
10
66.7038308009655
20
-8.2353140451511
30
0
41
1
10
66.706487602459
20
-8.23203803865654
30
0
41
1
10
66.7096050448126
20
-8.22829249525343
30
0
41
1
10
66.7130470045122
20
-8.2242401268386
30
0
41
1
10
66.7167827037001
20
-8.21991352919007
30
0
41
1
10
66.7207814461837
20
-8.21534518837404
30
0
41
1
10
66.7255316052999
20
-8.20998176526853
30
0
41
1
10
66.7311208689665
20
-8.20374558076272
30
0
41
1
10
66.7376173212468
20
-8.19657977440346
30
0
41
1
10
66.7445004902942
20
-8.18906199947244
30
0
41
1
10
66.7517416166368
20
-8.18122237039072
30
0
41
1
10
66.7593144553946
20
-8.17308812955942
30
0
41
1
10
66.766747246639
20
-8.16516101229027
30
0
41
1
10
66.7739785607798
20
-8.15749553360327
30
0
41
1
10
66.7786314132831
20
-8.15258883168008
30
0
41
1
10
66.7809809471617
20
-8.1501174514861
30
0
0
SPLINE
5
1D6
100
AcDbEntity
8
1
62
256
6
ByLayer
370
18
48
1
60
0
100
AcDbSpline
70
4
71
3
72
28
73
24
40
0
40
0
40
0
40
0
40
0.0418202092425438
40
0.0882252465318568
40
0.134431354821234
40
0.175494650244547
40
0.216682499632185
40
0.257924715169384
40
0.299135563296738
40
0.340218207337514
40
0.38327535907312
40
0.426430581755404
40
0.469635465554993
40
0.512821874593802
40
0.555905243695142
40
0.611857017923797
40
0.667958131707762
40
0.724170165236978
40
0.780422356421897
40
0.836616281339528
40
0.892630111708213
40
0.946314376806344
40
1
40
1
40
1
40
1
41
1
10
66.6959809471654
20
31.247149492938
30
0
41
1
10
66.6959916108592
20
31.2473481654264
30
0
41
1
10
66.696148063253
20
31.2476314001339
30
0
41
1
10
66.6968003232452
20
31.2476447999481
30
0
41
1
10
66.6979315810786
20
31.2471651574867
30
0
41
1
10
66.6994521350528
20
31.2462579505321
30
0
41
1
10
66.7012795675439
20
31.2450066197709
30
0
41
1
10
66.7034553787242
20
31.2433922198629
30
0
41
1
10
66.7059570412683
20
31.2414344906592
30
0
41
1
10
66.7088138887145
20
31.2391105919699
30
0
41
1
10
66.7120300737705
20
31.2364143201198
30
0
41
1
10
66.7155940049911
20
31.2333565194304
30
0
41
1
10
66.7194307245327
20
31.2300035396943
30
0
41
1
10
66.7235105950516
20
31.2263840792805
30
0
41
1
10
66.7282394119237
20
31.2221353986994
30
0
41
1
10
66.7336815971901
20
31.2171849419023
30
0
41
1
10
66.7398848857231
20
31.2114767317119
30
0
41
1
10
66.7463624057734
20
31.2054577793583
30
0
41
1
10
66.7530723235401
20
31.1991704296509
30
0
41
1
10
66.7599732163779
20
31.19265659327
30
0
41
1
10
66.7669390965981
20
31.1860385123642
30
0
41
1
10
66.7739433788032
20
31.179345572252
30
0
41
1
10
66.7786215755667
20
31.1748529193174
30
0
41
1
10
66.7809809471617
20
31.1725814719131
30
0
0
SPLINE
5
1D7
100
AcDbEntity
8
1
62
256
6
ByLayer
370
18
48
1
60
0
100
AcDbSpline
70
4
71
2
72
6
73
3
40
0
40
0
40
0
40
1
40
1
40
1
41
0.500005443239456
10
67.5000190528383
20
26.7365998497609
30
0
41
0.499994556760544
10
67.5000190528383
20
26.8115053922832
30
0
41
0.500005443239456
10
67.5000190528383
20
26.8850774567956
30
0
0
SPLINE
5
1D8
100
AcDbEntity
8
1
62
256
6
ByLayer
370
18
48
1
60
0
100
AcDbSpline
70
4
71
2
72
6
73
3
40
0
40
0
40
0
40
1
40
1
40
1
41
0.50000479843448
10
67.5000190528383
20
27.7467561030827
30
0
41
0.49999520156552
10
67.5000190528383
20
27.8077913724011
30
0
41
0.50000479843448
10
67.5000190528383
20
27.8675746358548
30
0
0
SPLINE
5
1D9
100
AcDbEntity
8
1
62
256
6
ByLayer
370
18
48
1
60
0
100
AcDbSpline
70
4
71
2
72
6
73
3
40
0
40
0
40
0
40
1
40
1
40
1
41
0.500004356131372
10
67.5000190528383
20
28.5663467902296
30
0
41
0.499995643868628
10
67.5000190528383
20
28.6156459631015
30
0
41
0.500004356131372
10
67.5000190528383
20
28.6637522287218
30
0
0
SPLINE
5
1DA
100
AcDbEntity
8
1
62
256
6
ByLayer
370
18
48
1
60
0
100
AcDbSpline
70
4
71
2
72
6
73
3
40
0
40
0
40
0
40
1
40
1
40
1
41
0.500004045391814
10
67.5000190528383
20
29.2218312162063
30
0
41
0.499995954608186
10
67.5000190528384
20
29.2608061217543
30
0
41
0.500004045391814
10
67.5000190528383
20
29.2986314551885
30
0
0
SPLINE
5
1DB
100
AcDbEntity
8
1
62
256
6
ByLayer
370
18
48
1
60
0
100
AcDbSpline
70
4
71
2
72
6
73
3
40
0
40
0
40
0
40
1
40
1
40
1
41
0.500003826997353
10
67.5000190528383
20
29.7309190812485
30
0
41
0.499996173002647
10
67.5000190528383
20
29.7605275055252
30
0
41
0.500003826997353
10
67.5000190528383
20
29.7890178190711
30
0
0
SPLINE
5
1DC
100
AcDbEntity
8
1
62
256
6
ByLayer
370
18
48
1
60
0
100
AcDbSpline
70
4
71
2
72
6
73
3
40
0
40
0
40
0
40
1
40
1
40
1
41
0.500003678074472
10
67.5000190528383
20
30.1056313904784
30
0
41
0.499996321925528
10
67.5000190528383
20
30.1265212759722
30
0
41
0.500003678074472
10
67.5000190528383
20
30.1463150218744
30
0
0
SPLINE
5
1DD
100
AcDbEntity
8
1
62
256
6
ByLayer
370
18
48
1
60
0
100
AcDbSpline
70
4
71
2
72
6
73
3
40
0
40
0
40
0
40
1
40
1
40
1
41
0.500003585068969
10
67.5000190528383
20
30.353981763269
30
0
41
0.499996414931031
10
67.5000190528383
20
30.3665726465817
30
0
41
0.500003585068969
10
67.5000190528383
20
30.378081337987
30
0
0
SPLINE
5
1DE
100
AcDbEntity
8
1
62
256
6
ByLayer
370
18
48
1
60
0
100
AcDbSpline
70
4
71
2
72
6
73
3
40
0
40
0
40
0
40
1
40
1
40
1
41
0.50000354030808
10
67.5000190528383
20
30.4809308839425
30
0
41
0.49999645969192
10
67.5000190528383
20
30.4854600336903
30
0
41
0.50000354030808
10
67.5000190528383
20
30.4889137686264
30
0
0
SPLINE
5
1DF
100
AcDbEntity
8
1
62
256
6
ByLayer
370
18
48
1
60
0
100
AcDbSpline
70
4
71
2
72
6
73
3
40
0
40
0
40
0
40
1
40
1
40
1
41
0.50000354030808
10
67.5000190528383
20
-7.48891376862639
30
0
41
0.49999645969192
10
67.5000190528383
20
-7.48546003369029
30
0
41
0.50000354030808
10
67.5000190528383
20
-7.48093088394255
30
0
0
SPLINE
5
1E0
100
AcDbEntity
8
1
62
256
6
ByLayer
370
18
48
1
60
0
100
AcDbSpline
70
4
71
2
72
6
73
3
40
0
40
0
40
0
40
1
40
1
40
1
41
0.500003585068969
10
67.5000190528383
20
-7.37808133798702
30
0
41
0.499996414931031
10
67.5000190528383
20
-7.36657264658164
30
0
41
0.500003585068969
10
67.5000190528383
20
-7.353981763269
30
0
0
SPLINE
5
1E1
100
AcDbEntity
8
1
62
256
6
ByLayer
370
18
48
1
60
0
100
AcDbSpline
70
4
71
2
72
6
73
3
40
0
40
0
40
0
40
1
40
1
40
1
41
0.500003678074472
10
67.5000190528383
20
-7.14631502187438
30
0
41
0.499996321925528
10
67.5000190528383
20
-7.12652127597232
30
0
41
0.500003678074472
10
67.5000190528383
20
-7.10563139047841
30
0
0
SPLINE
5
1E2
100
AcDbEntity
8
1
62
256
6
ByLayer
370
18
48
1
60
0
100
AcDbSpline
70
4
71
2
72
6
73
3
40
0
40
0
40
0
40
1
40
1
40
1
41
0.500003826997353
10
67.5000190528383
20
-6.78901781907117
30
0
41
0.499996173002647
10
67.5000190528383
20
-6.76052750552516
30
0
41
0.500003826997353
10
67.5000190528383
20
-6.73091908124851
30
0
0
SPLINE
5
1E3
100
AcDbEntity
8
1
62
256
6
ByLayer
370
18
48
1
60
0
100
AcDbSpline
70
4
71
2
72
6
73
3
40
0
40
0
40
0
40
1
40
1
40
1
41
0.500004045391814
10
67.5000190528383
20
-6.29863145518855
30
0
41
0.499995954608186
10
67.5000190528384
20
-6.26080612175407
30
0
41
0.500004045391814
10
67.5000190528383
20
-6.22183121620636
30
0
0
SPLINE
5
1E4
100
AcDbEntity
8
1
62
256
6
ByLayer
370
18
48
1
60
0
100
AcDbSpline
70
4
71
2
72
6
73
3
40
0
40
0
40
0
40
1
40
1
40
1
41
0.500004356131372
10
67.5000190528383
20
-5.66375222872178
30
0
41
0.499995643868628
10
67.5000190528383
20
-5.61564596310135
30
0
41
0.500004356131372
10
67.5000190528383
20
-5.56634679022965
30
0
0
SPLINE
5
1E5
100
AcDbEntity
8
1
62
256
6
ByLayer
370
18
48
1
60
0
100
AcDbSpline
70
4
71
2
72
6
73
3
40
0
40
0
40
0
40
1
40
1
40
1
41
0.50000479843448
10
67.5000190528383
20
-4.86757463585476
30
0
41
0.49999520156552
10
67.5000190528383
20
-4.80779137240072
30
0
41
0.50000479843448
10
67.5000190528383
20
-4.74675610308276
30
0
0
SPLINE
5
1E6
100
AcDbEntity
8
1
62
256
6
ByLayer
370
18
48
1
60
0
100
AcDbSpline
70
4
71
2
72
6
73
3
40
0
40
0
40
0
40
1
40
1
40
1
41
0.500005443239456
10
67.5000190528383
20
-3.88507745679562
30
0
41
0.499994556760544
10
67.5000190528383
20
-3.81150539228351
30
0
41
0.500005443239456
10
67.5000190528383
20
-3.73659984976087
30
0
0
SPLINE
5
1E7
100
AcDbEntity
8
1
62
256
6
ByLayer
370
18
48
0.05
60
1
100
AcDbSpline
70
4
71
3
72
8
73
4
40
0
40
0
40
0
40
0
40
1
40
1
40
1
40
1
41
1
10
48.2221518312485
20
-167.000000000001
30
0
41
1
10
46.5596853212573
20
-175.59025381982
30
0
41
1
10
45.1691992484993
20
-184.203796226729
30
0
41
1
10
44.6583186059721
20
-192.89265569642
30
0
0
SPLINE
5
1E8
100
AcDbEntity
8
1
62
256
6
ByLayer
370
18
48
0.05
60
1
100
AcDbSpline
70
4
71
3
72
13
73
9
40
0
40
0
40
0
40
0
40
0.098081855372567
40
0.196199316831313
40
0.396806626480363
40
0.597597370151652
40
0.798762783152461
40
1
40
1
40
1
40
1
41
1
10
44.6922421016716
20
-207.107344303397
30
0
41
1
10
44.7428136029181
20
-207.96108243476
30
0
41
1
10
44.8598497019799
20
-209.667588343669
30
0
41
1
10
45.1629831977118
20
-213.114068246299
30
0
41
1
10
45.6592122405578
20
-217.441523310249
30
0
41
1
10
46.4091321190215
20
-222.641694815418
30
0
41
1
10
47.2811909152587
20
-227.828240558035
30
0
41
1
10
47.9202084165593
20
-231.277753760812
30
0
41
1
10
48.2560753269481
20
-232.999999999817
30
0
0
SPLINE
5
1E9
100
AcDbEntity
8
1
62
256
6
ByLayer
370
18
48
1
60
0
100
AcDbSpline
70
4
71
3
72
10
73
6
40
0
40
0
40
0
40
0
40
0.483016599166114
40
0.483016599166114
40
1
40
1
40
1
40
1
41
1
10
14.6254011529794
20
24.4200409500066
30
0
41
1
10
14.8664374580825
20
23.8820271149491
30
0
41
1
10
15.1048367186587
20
23.3428387839249
30
0
41
1
10
15.5921324012273
20
22.2238142002562
30
0
41
1
10
15.8405900934293
20
21.6437863259132
30
0
41
1
10
16.0850134763923
20
21.0620455190216
30
0
0
SPLINE
5
1EA
100
AcDbEntity
8
1
62
256
6
ByLayer
370
18
48
1
60
0
100
AcDbSpline
70
4
71
3
72
10
73
6
40
0
40
0
40
0
40
0
40
0.483016599166114
40
0.483016599166114
40
1
40
1
40
1
40
1
41
1
10
21.3746257998061
20
24.4200409500066
30
0
41
1
10
21.133589494703
20
23.8820271149491
30
0
41
1
10
20.8951902341268
20
23.3428387839249
30
0
41
1
10
20.4078945515582
20
22.2238142002562
30
0
41
1
10
20.1594368593563
20
21.6437863259132
30
0
41
1
10
19.9150134763933
20
21.0620455190216
30
0
0
SPLINE
5
1EB
100
AcDbEntity
8
1
62
256
6
ByLayer
370
18
48
1
60
0
100
AcDbSpline
70
2053
71
3
72
124
73
120
40
0
40
0
40
0
40
0
40
0.0312500000000002
40
0.0312500000000002
40
0.0625000000000003
40
0.0625000000000003
40
0.0781250000000004
40
0.0781250000000004
40
0.0859375000000004
40
0.0859375000000004
40
0.0898437500000004
40
0.0898437500000004
40
0.0937500000000004
40
0.0937500000000004
40
0.125000000000001
40
0.125000000000001
40
0.156250000000001
40
0.156250000000001
40
0.171875000000001
40
0.171875000000001
40
0.175781250000001
40
0.175781250000001
40
0.179687500000001
40
0.179687500000001
40
0.187500000000001
40
0.187500000000001
40
0.21875
40
0.21875
40
0.25
40
0.25
40
0.2578125
40
0.2578125
40
0.265625000000001
40
0.265625000000001
40
0.281250000000001
40
0.281250000000001
40
0.312500000000001
40
0.312500000000001
40
0.343750000000001
40
0.343750000000001
40
0.351562500000001
40
0.351562500000001
40
0.355468750000001
40
0.355468750000001
40
0.359375000000001
40
0.359375000000001
40
0.375
40
0.375
40
0.406250000000001
40
0.406250000000001
40
0.437500000000001
40
0.437500000000001
40
0.445312500000001
40
0.445312500000001
40
0.453125
40
0.453125
40
0.46875
40
0.46875
40
0.5
40
0.5
40
0.515625
40
0.515625
40
0.5234375
40
0.5234375
40
0.531250000000001
40
0.531250000000001
40
0.5625
40
0.5625
40
0.59375
40
0.59375
40
0.609375
40
0.609375
40
0.61328125
40
0.61328125
40
0.6171875
40
0.6171875
40
0.625
40
0.625
40
0.65625
40
0.65625
40
0.6875
40
0.6875
40
0.6953125
40
0.69921875
40
0.69921875
40
0.703125
40
0.703125
40
0.71875
40
0.71875
40
0.75
40
0.75
40
0.78125
40
0.78125
40
0.7890625
40
0.7890625
40
0.796875
40
0.796875
40
0.8125
40
0.8125
40
0.84375
40
0.84375
40
0.875
40
0.875
40
0.87890625
40
0.87890625
40
0.8828125
40
0.890625
40
0.890625
40
0.90625
40
0.90625
40
0.9375
40
0.9375
40
0.953125
40
0.953125
40
0.9609375
40
0.9609375
40
0.96875
40
0.96875
40
1
40
1
40
1
40
1
41
1
10
40.8180881881427
20
9.08994921698037
30
0
41
1
10
40.6944719992525
20
8.0973196472516
30
0
41
1
10
40.5728090047941
20
7.09265426662773
30
0
41
1
10
40.3329139310376
20
5.06019711555063
30
0
41
1
10
40.2146817152401
20
4.03240250486061
30
0
41
1
10
40.0395466624885
20
2.47332292762419
30
0
41
1
10
39.9815371753746
20
1.95072433894142
30
0
41
1
10
39.8950306927481
20
1.1623936077233
30
0
41
1
10
39.8662798165912
20
0.898877387065605
30
0
41
1
10
39.8232746508447
20
0.502480003213669
30
0
41
1
10
39.808947578129
20
0.370046955789417
30
0
41
1
10
39.7804063865598
20
0.105486253601091
30
0
41
1
10
39.7661920528804
20
-0.0266425314014025
30
0
41
1
10
39.6387600963339
20
-1.21444632636189
30
0
41
1
10
39.5290096620102
20
-2.26066953482402
30
0
41
1
10
39.315669341502
20
-4.33442069729969
30
0
41
1
10
39.2120817968976
20
-5.36194761868132
30
0
41
1
10
39.0608472281466
20
-6.88898651137804
30
0
41
1
10
39.0111285393293
20
-7.39561802626965
30
0
41
1
10
38.9498083546416
20
-8.0258571865415
30
0
41
1
10
38.9375857552347
20
-8.15175236795136
30
0
41
1
10
38.9132225984791
20
-8.40323502334436
30
0
41
1
10
38.9010824791129
20
-8.52881857557663
30
0
41
1
10
38.8649081277226
20
-8.90381325468948
30
0
41
1
10
38.8410777013518
20
-9.15190311261877
30
0
41
1
10
38.7233082263974
20
-10.3829370226379
30
0
41
1
10
38.6335001690834
20
-11.3377371836637
30
0
41
1
10
38.4618022855743
20
-13.1886004062295
30
0
41
1
10
38.3799149791188
20
-14.084663028983
30
0
41
1
10
38.2821867679972
20
-15.1672581712584
30
0
41
1
10
38.2628735228768
20
-15.3818966891568
30
0
41
1
10
38.224707164532
20
-15.8073671526979
30
0
41
1
10
38.2058461821498
20
-16.0182873911929
30
0
41
1
10
38.149997310278
20
-16.6447045831204
30
0
41
1
10
38.1140628068151
20
-17.0502689109209
30
0
41
1
10
38.0099454306789
20
-18.2316826251213
30
0
41
1
10
37.9454337795032
20
-18.9723762952974
30
0
41
1
10
37.8255056437517
20
-20.3613560377244
30
0
41
1
10
37.7700907016615
20
-21.0096463625527
30
0
41
1
10
37.7063583944449
20
-21.7606206850034
30
0
41
1
10
37.693889847908
20
-21.9078358377988
30
0
41
1
10
37.6756044215217
20
-22.1241261553176
30
0
41
1
10
37.6695771390394
20
-22.1954878884695
30
0
41
1
10
37.6577022966363
20
-22.336209949829
30
0
41
1
10
37.6518495896711
20
-22.4056311047395
30
0
41
1
10
37.6230046606254
20
-22.7480695299408
30
0
41
1
10
37.6012667664022
20
-23.0070982316681
30
0
41
1
10
37.5399133874359
20
-23.7403170239446
30
0
41
1
10
37.5041421475749
20
-24.1707941681382
30
0
41
1
10
37.4424599987092
20
-24.9159740134038
30
0
41
1
10
37.4165490420792
20
-25.2306887177593
30
0
41
1
10
37.390396972883
20
-25.5490911736081
30
0
41
1
10
37.3854780820392
20
-25.6090285753462
30
0
41
1
10
37.3763320345092
20
-25.7205451408747
30
0
41
1
10
37.3720955880381
20
-25.7722373418123
30
0
41
1
10
37.3603799679757
20
-25.9152647833506
30
0
41
1
10
37.3538934002726
20
-25.9945620078653
30
0
41
1
10
37.3383191919089
20
-26.1850637364612
30
0
41
1
10
37.3331004278665
20
-26.2490463906027
30
0
41
1
10
37.3329849584018
20
-26.2504609910096
30
0
41
1
10
37.3342360770766
20
-26.2351306198962
30
0
41
1
10
37.3380816038797
20
-26.1880371922435
30
0
41
1
10
37.3396918626569
20
-26.1683202783033
30
0
41
1
10
37.3435784032432
20
-26.1207473450064
30
0
41
1
10
37.3458594416663
20
-26.0928331549434
30
0
41
1
10
37.358872868732
20
-25.9336507956495
30
0
41
1
10
37.3744184313761
20
-25.7436466011096
30
0
41
1
10
37.4155664776167
20
-25.2426359009331
30
0
41
1
10
37.4411693215666
20
-24.9316176599115
30
0
41
1
10
37.4873585017081
20
-24.3735329141431
30
0
41
1
10
37.5040564822848
20
-24.1722046812685
30
0
41
1
10
37.5266143065851
20
-23.9010177125558
30
0
41
1
10
37.5312102327588
20
-23.8458030988459
30
0
41
1
10
37.5405726532692
20
-23.7334057594516
30
0
41
1
10
37.545341482622
20
-23.6761951111672
30
0
41
1
10
37.5598570059653
20
-23.5021851560982
30
0
41
1
10
37.5698269911489
20
-23.382836426819
30
0
41
1
10
37.6211362362352
20
-22.7696073853122
30
0
41
1
10
37.666834724572
20
-22.2264527134477
30
0
41
1
10
37.7676972603502
20
-21.0377386333315
30
0
41
1
10
37.8228599325891
20
-20.3921756983247
30
0
41
1
10
37.8981367804899
20
-19.5201190297674
30
0
41
1
10
37.9211960257809
20
-19.2536027005739
30
0
41
1
10
37.9449871649497
20
-18.9796551414717
30
0
41
1
10
37.9610128061384
20
-18.7953606206578
30
0
41
1
10
37.9691146408074
20
-18.7023065515547
30
0
41
1
10
38.0099566293588
20
-18.2338257606268
30
0
41
1
10
38.0436263152584
20
-17.8495525431973
30
0
41
1
10
38.1476574323265
20
-16.6689848473895
30
0
41
1
10
38.2210286468915
20
-15.8450392922168
30
0
41
1
10
38.3762779596508
20
-14.1246687764632
30
0
41
1
10
38.4581534283868
20
-13.2282457352067
30
0
41
1
10
38.5663739193284
20
-12.0612711187766
30
0
41
1
10
38.5883130030566
20
-11.8255459353423
30
0
41
1
10
38.632800241367
20
-11.3493732430836
30
0
41
1
10
38.6552600205372
20
-11.1098729606017
30
0
41
1
10
38.7231829791778
20
-10.3883942423271
30
0
41
1
10
38.7692380674175
20
-9.90291879616863
30
0
41
1
10
38.9098078518208
20
-8.43331195421972
30
0
41
1
10
39.0067181537768
20
-7.43604580758116
30
0
41
1
10
39.207587836678
20
-5.40683461003281
30
0
41
1
10
39.311544294072
20
-4.3748925017195
30
0
41
1
10
39.4330066347701
20
-3.19381503019295
30
0
41
1
10
39.446575804504
20
-3.06220263198761
30
0
41
1
10
39.4737600634914
20
-2.7992064966092
30
0
41
1
10
39.5146237137429
20
-2.40487500079444
30
0
41
1
10
39.5557534730824
20
-2.01102867451502
30
0
41
1
10
39.6383797015885
20
-1.22397678220359
30
0
41
1
10
39.6939526416935
20
-0.700129304015262
30
0
41
1
10
39.8622382772559
20
0.868879607583308
30
0
41
1
10
39.9765144542291
20
1.91151610927895
30
0
41
1
10
40.1515110745665
20
3.47036927005181
30
0
41
1
10
40.2104411195901
20
3.98913458258173
30
0
41
1
10
40.2997978347185
20
4.76597800102239
30
0
41
1
10
40.3297437441187
20
5.0247082388772
30
0
41
1
10
40.3899678663345
20
5.54172745668898
30
0
41
1
10
40.4202778135438
20
5.8002829708231
30
0
41
1
10
40.5720417529966
20
7.08647892620714
30
0
41
1
10
40.6944701431769
20
8.09730474309103
30
0
41
1
10
40.8180881881427
20
9.08994921698037
30
0
0
SPLINE
5
1EC
100
AcDbEntity
8
1
62
256
6
ByLayer
370
18
48
1
60
0
100
AcDbSpline
70
4
71
3
72
22
73
18
40
0
40
0
40
0
40
0
40
0.125
40
0.125
40
0.25
40
0.25
40
0.375
40
0.375
40
0.5
40
0.5
40
0.625
40
0.625
40
0.75
40
0.75
40
0.875
40
0.875
40
1
40
1
40
1
40
1
41
1
10
44.8715863516465
20
20.4125374389954
30
0
41
1
10
44.7801852377153
20
20.1375169181105
30
0
41
1
10
44.6828946789133
20
19.8628197302129
30
0
41
1
10
44.4773579868833
20
19.3151758196934
30
0
41
1
10
44.3691082291088
20
19.0422345197461
30
0
41
1
10
44.1432364629062
20
18.498922888122
30
0
41
1
10
44.0256145190982
20
18.2285580387452
30
0
41
1
10
43.7834133776778
20
17.690759557809
30
0
41
1
10
43.6588393978057
20
17.4233298648648
30
0
41
1
10
43.4059062832393
20
16.8911537835594
30
0
41
1
10
43.2775575075352
20
16.6264081658513
30
0
41
1
10
43.0207683975063
20
16.0986676158349
30
0
41
1
10
42.8923415636769
20
15.8356694652668
30
0
41
1
10
42.6392439060099
20
15.3098412412575
30
0
41
1
10
42.5145863227119
20
15.0470045085518
30
0
41
1
10
42.2726136971496
20
14.5194182080287
30
0
41
1
10
42.1553083052268
20
14.2546602963175
30
0
41
1
10
42.0431592269003
20
13.9877727046538
30
0
0
SPLINE
5
1ED
100
AcDbEntity
8
1
62
256
6
ByLayer
370
18
48
1
60
0
100
AcDbSpline
70
4
71
3
72
18
73
14
40
0
40
0
40
0
40
0
40
0.0624999999999989
40
0.0624999999999989
40
0.124999999999998
40
0.124999999999998
40
0.249999999999997
40
0.249999999999997
40
0.499999999999998
40
0.499999999999998
40
0.749999999999999
40
0.749999999999999
40
1
40
1
40
1
40
1
41
1
10
42.0431592269003
20
13.9877727046539
30
0
41
1
10
42.0036806151769
20
13.8938231888636
30
0
41
1
10
41.9651640975652
20
13.7990460992555
30
0
41
1
10
41.8902865912281
20
13.6086715607452
30
0
41
1
10
41.8538823736126
20
13.5129733798818
30
0
41
1
10
41.7476181628893
20
13.2243674331348
30
0
41
1
10
41.6807014716503
20
13.0299492012794
30
0
41
1
10
41.4907047053388
20
12.4407839107286
30
0
41
1
10
41.3783265010863
20
12.0401368214825
30
0
41
1
10
41.1783249650593
20
11.2234939201549
30
0
41
1
10
41.0907235483487
20
10.8074952451118
30
0
41
1
10
40.9379350704924
20
9.96022355250912
30
0
41
1
10
40.8727586843738
20
9.52894957476439
30
0
41
1
10
40.8180881881427
20
9.08994921698045
30
0
0
SPLINE
5
1EE
100
AcDbEntity
8
1
62
256
6
ByLayer
370
18
48
1
60
0
100
AcDbSpline
70
4
71
3
72
12
73
8
40
0
40
0
40
0
40
0
40
0.5
40
0.5
40
0.75
40
0.75
40
1
40
1
40
1
40
1
41
1
10
44.8715863516396
20
20.4125374389563
30
0
41
1
10
45.2343854670852
20
21.5041784202856
30
0
41
1
10
45.5965069714612
20
22.5441974493887
30
0
41
1
10
46.1310872101923
20
24.0240145259381
30
0
41
1
10
46.3078612413515
20
24.5038648298317
30
0
41
1
10
46.6573335490121
20
25.4354825982785
30
0
41
1
10
46.8300376162535
20
25.8872576811201
30
0
41
1
10
47.0000134763928
20
26.3240217391303
30
0
0
SPLINE
5
1EF
100
AcDbEntity
8
1
62
256
6
ByLayer
370
18
48
1
60
0
100
AcDbSpline
70
2053
71
3
72
49
73
45
40
0
40
0
40
0
40
0
40
0.0625000000000001
40
0.0625000000000001
40
0.125
40
0.125
40
0.15625
40
0.15625
40
0.1875
40
0.1875
40
0.25
40
0.25
40
0.3125
40
0.3125
40
0.328125
40
0.328125
40
0.34375
40
0.34375
40
0.375
40
0.375
40
0.4375
40
0.5
40
0.5
40
0.53125
40
0.546875
40
0.546875
40
0.5625
40
0.5625
40
0.625
40
0.625
40
0.6875
40
0.75
40
0.75
40
0.765625
40
0.765625
40
0.78125
40
0.78125
40
0.8125
40
0.8125
40
0.875
40
0.875
40
0.9375
40
0.9375
40
1
40
1
40
1
40
1
41
1
10
47.0000134763928
20
26.3240217391304
30
0
41
1
10
47.1581534344481
20
26.730372674829
30
0
41
1
10
47.3070170708222
20
27.1161342906081
30
0
41
1
10
47.5868381120658
20
27.8460271377184
30
0
41
1
10
47.7177955800346
20
28.1901622467499
30
0
41
1
10
47.9009049630772
20
28.6740463862719
30
0
41
1
10
47.9593933330724
20
28.8290926827748
30
0
41
1
10
48.0712420763423
20
29.1263701493486
30
0
41
1
10
48.1246307383676
20
29.2686762154769
30
0
41
1
10
48.2773426044784
20
29.6766894052444
30
0
41
1
10
48.3692299526539
20
29.923530390599
30
0
41
1
10
48.5335287307056
20
30.3664422627383
30
0
41
1
10
48.6059410722472
20
30.5625178596738
30
0
41
1
10
48.6841393941048
20
30.7747990106256
30
0
41
1
10
48.699161683361
20
30.8156111435762
30
0
41
1
10
48.7279616007141
20
30.8939057177792
30
0
41
1
10
48.7417565905437
20
30.9314354349553
30
0
41
1
10
48.7811147195338
20
31.0385746363394
30
0
41
1
10
48.8046317527725
20
31.1026805298502
30
0
41
1
10
48.8672068144844
20
31.2734042156224
30
0
41
1
10
48.9294122716787
20
31.4435432454698
30
0
41
1
10
48.9501228097357
20
31.5002994782787
30
0
41
1
10
48.9499575076287
20
31.499846694259
30
0
41
1
10
48.9459427128439
20
31.4888482739452
30
0
41
1
10
48.9359316685279
20
31.4614360135068
30
0
41
1
10
48.9279089102514
20
31.4394732545119
30
0
41
1
10
48.9232158107282
20
31.4266276786924
30
0
41
1
10
48.8964912486638
20
31.353500312718
30
0
41
1
10
48.864670399539
20
31.2664743200973
30
0
41
1
10
48.7807600487817
20
31.037561762892
30
0
41
1
10
48.6765768570363
20
30.7537758201409
30
0
41
1
10
48.5317649228123
20
30.361669579859
30
0
41
1
10
48.428138186968
20
30.0823383062579
30
0
41
1
10
48.4067552434625
20
30.0247554203553
30
0
41
1
10
48.3626569502302
20
29.9061321902486
30
0
41
1
10
48.3399120707688
20
29.8450126121674
30
0
41
1
10
48.2698705200349
20
29.6570177315918
30
0
41
1
10
48.2208748783953
20
29.5257949138883
30
0
41
1
10
48.0670710542082
20
29.1149435267829
30
0
41
1
10
47.9554624491633
20
28.8181677411358
30
0
41
1
10
47.7141412177636
20
28.1805595200797
30
0
41
1
10
47.584427980203
20
27.8397223716397
30
0
41
1
10
47.3064140256573
20
27.1145796007997
30
0
41
1
10
47.15811486091
20
26.7302735576073
30
0
41
1
10
47.0000134763928
20
26.3240217391304
30
0
0
SPLINE
5
1F0
100
AcDbEntity
8
1
62
256
6
ByLayer
370
18
48
1
60
0
100
AcDbSpline
70
4
71
3
72
14
73
10
40
0
40
0
40
0
40
0
40
0.125
40
0.125
40
0.25
40
0.25
40
0.5
40
0.5
40
1
40
1
40
1
40
1
41
1
10
47.0000134763928
20
26.3240217391304
30
0
41
1
10
46.9151046608572
20
26.1058430000802
30
0
41
1
10
46.8292857272917
20
25.8833278676408
30
0
41
1
10
46.656002006739
20
25.4298101678472
30
0
41
1
10
46.5684543491882
20
25.1985827797259
30
0
41
1
10
46.3048411542399
20
24.49574688082
30
0
41
1
10
46.1274723922119
20
24.0141418650563
30
0
41
1
10
45.5923470678811
20
22.5324100989628
30
0
41
1
10
45.231524681467
20
21.4955704863435
30
0
41
1
10
44.8715863516545
20
20.4125374390012
30
0
0
INSERT
5
200
100
AcDbEntity
8
SK2
62
256
6
ByLayer
370
18
48
1
60
0
100
AcDbBlockReference
2
LABLE3D_1
10
0
20
0
30
0
41
1
42
1
43
1
50
0
210
0
220
0
230
1
0
LINE
5
70
100
AcDbEntity
8
1
62
256
6
ByLayer
370
18
48
1
60
0
100
AcDbLine
10
66.500019
20
31.5
30
0
11
66.696045
21
31.303974
31
0
39
0
210
0
220
0
230
1
0
LINE
5
72
100
AcDbEntity
8
1
62
256
6
ByLayer
370
18
48
1
60
0
100
AcDbLine
10
66.696045
20
-8.303974
30
0
11
66.500019
21
-8.5
31
0
39
0
210
0
220
0
230
1
0
LINE
5
73
100
AcDbEntity
8
1
62
256
6
ByLayer
370
18
48
1
60
0
100
AcDbLine
10
66.780981
20
15.282927
30
0
11
66.780981
21
13.181381
31
0
39
0
210
0
220
0
230
1
0
LINE
5
74
100
AcDbEntity
8
1
62
256
6
ByLayer
370
18
48
1
60
0
100
AcDbLine
10
66.780981
20
9.818619
30
0
11
66.780981
21
7.717073
31
0
39
0
210
0
220
0
230
1
0
LINE
5
75
100
AcDbEntity
8
1
62
256
6
ByLayer
370
18
48
1
60
0
100
AcDbLine
10
67.425019
20
13.391967
30
0
11
67.425019
21
9.608033
31
0
39
0
210
0
220
0
230
1
0
LINE
5
76
100
AcDbEntity
8
1
62
256
6
ByLayer
370
18
48
1
60
0
100
AcDbLine
10
66.780981
20
19.873701
30
0
11
66.780981
21
19.214837
31
0
39
0
210
0
220
0
230
1
0
LINE
5
77
100
AcDbEntity
8
1
62
256
6
ByLayer
370
18
48
1
60
0
100
AcDbLine
10
66.780981
20
3.785163
30
0
11
66.780981
21
3.126299
31
0
39
0
210
0
220
0
230
1
0
LINE
5
78
100
AcDbEntity
8
1
62
256
6
ByLayer
370
18
48
1
60
0
100
AcDbLine
10
67.425019
20
19.133633
30
0
11
67.425019
21
16.071657
31
0
39
0
210
0
220
0
230
1
0
LINE
5
79
100
AcDbEntity
8
1
62
256
6
ByLayer
370
18
48
1
60
0
100
AcDbLine
10
67.425019
20
6.928343
30
0
11
67.425019
21
3.866367
31
0
39
0
210
0
220
0
230
1
0
LINE
5
7A
100
AcDbEntity
8
1
62
256
6
ByLayer
370
18
48
1
60
0
100
AcDbLine
10
66.780981
20
22.519401
30
0
11
66.780981
21
22.069313
31
0
39
0
210
0
220
0
230
1
0
LINE
5
7B
100
AcDbEntity
8
1
62
256
6
ByLayer
370
18
48
1
60
0
100
AcDbLine
10
66.780981
20
0.930687
30
0
11
66.780981
21
0.480599
31
0
39
0
210
0
220
0
230
1
0
LINE
5
7C
100
AcDbEntity
8
1
62
256
6
ByLayer
370
18
48
1
60
0
100
AcDbLine
10
67.425019
20
21.914662
30
0
11
67.425019
21
20.114362
31
0
39
0
210
0
220
0
230
1
0
LINE
5
7D
100
AcDbEntity
8
1
62
256
6
ByLayer
370
18
48
1
60
0
100
AcDbLine
10
67.425019
20
2.885638
30
0
11
67.425019
21
1.085338
31
0
39
0
210
0
220
0
230
1
0
LINE
5
7E
100
AcDbEntity
8
1
62
256
6
ByLayer
370
18
48
1
60
0
100
AcDbLine
10
66.780981
20
24.470564
30
0
11
66.780981
21
24.125453
31
0
39
0
210
0
220
0
230
1
0
LINE
5
7F
100
AcDbEntity
8
1
62
256
6
ByLayer
370
18
48
1
60
0
100
AcDbLine
10
66.780981
20
-1.125453
30
0
11
66.780981
21
-1.470564
31
0
39
0
210
0
220
0
230
1
0
LINE
5
80
100
AcDbEntity
8
1
62
256
6
ByLayer
370
18
48
1
60
0
100
AcDbLine
10
67.425019
20
23.916038
30
0
11
67.425019
21
22.591186
31
0
39
0
210
0
220
0
230
1
0
LINE
5
81
100
AcDbEntity
8
1
62
256
6
ByLayer
370
18
48
1
60
0
100
AcDbLine
10
67.425019
20
0.408814
30
0
11
67.425019
21
-0.916038
31
0
39
0
210
0
220
0
230
1
0
LINE
5
82
100
AcDbEntity
8
1
62
256
6
ByLayer
370
18
48
1
60
0
100
AcDbLine
10
67.425019
20
-1.435284
30
0
11
67.425019
21
-2.476796
31
0
39
0
210
0
220
0
230
1
0
LINE
5
83
100
AcDbEntity
8
1
62
256
6
ByLayer
370
18
48
1
60
0
100
AcDbLine
10
67.425019
20
25.476796
30
0
11
67.425019
21
24.435284
31
0
39
0
210
0
220
0
230
1
0
LINE
5
84
100
AcDbEntity
8
1
62
256
6
ByLayer
370
18
48
1
60
0
100
AcDbLine
10
66.780981
20
26.010129
30
0
11
66.780981
21
25.733543
31
0
39
0
210
0
220
0
230
1
0
LINE
5
85
100
AcDbEntity
8
1
62
256
6
ByLayer
370
18
48
1
60
0
100
AcDbLine
10
66.780981
20
-2.733543
30
0
11
66.780981
21
-3.010129
31
0
39
0
210
0
220
0
230
1
0
LINE
5
86
100
AcDbEntity
8
1
62
256
6
ByLayer
370
18
48
1
60
0
100
AcDbLine
10
66.780981
20
-4.033364
30
0
11
66.780981
21
-4.259193
31
0
39
0
210
0
220
0
230
1
0
LINE
5
87
100
AcDbEntity
8
1
62
256
6
ByLayer
370
18
48
1
60
0
100
AcDbLine
10
66.780981
20
27.259193
30
0
11
66.780981
21
27.033364
31
0
39
0
210
0
220
0
230
1
0
LINE
5
88
100
AcDbEntity
8
1
62
256
6
ByLayer
370
18
48
1
60
0
100
AcDbLine
10
67.425019
20
26.732979
30
0
11
67.425019
21
25.891969
31
0
39
0
210
0
220
0
230
1
0
LINE
5
89
100
AcDbEntity
8
1
62
256
6
ByLayer
370
18
48
1
60
0
100
AcDbLine
10
67.425019
20
-2.891969
30
0
11
67.425019
21
-3.732979
31
0
39
0
210
0
220
0
230
1
0
LINE
5
8A
100
AcDbEntity
8
1
62
256
6
ByLayer
370
18
48
1
60
0
100
AcDbLine
10
66.780981
20
28.282744
30
0
11
66.780981
21
28.097502
31
0
39
0
210
0
220
0
230
1
0
LINE
5
8B
100
AcDbEntity
8
1
62
256
6
ByLayer
370
18
48
1
60
0
100
AcDbLine
10
66.780981
20
-5.097502
30
0
11
66.780981
21
-5.282744
31
0
39
0
210
0
220
0
230
1
0
LINE
5
8C
100
AcDbEntity
8
1
62
256
6
ByLayer
370
18
48
1
60
0
100
AcDbLine
10
67.425019
20
-4.070355
30
0
11
67.425019
21
-4.755352
31
0
39
0
210
0
220
0
230
1
0
LINE
5
8D
100
AcDbEntity
8
1
62
256
6
ByLayer
370
18
48
1
60
0
100
AcDbLine
10
67.425019
20
27.755352
30
0
11
67.425019
21
27.070355
31
0
39
0
210
0
220
0
230
1
0
LINE
5
8E
100
AcDbEntity
8
1
62
256
6
ByLayer
370
18
48
1
60
0
100
AcDbLine
10
67.500019
20
-3.885077
30
0
11
67.500019
21
-4.746756
31
0
39
0
210
0
220
0
230
1
0
LINE
5
8F
100
AcDbEntity
8
1
62
256
6
ByLayer
370
18
48
1
60
0
100
AcDbLine
10
67.500019
20
27.746756
30
0
11
67.500019
21
26.885077
31
0
39
0
210
0
220
0
230
1
0
LINE
5
90
100
AcDbEntity
8
1
62
256
6
ByLayer
370
18
48
1
60
0
100
AcDbLine
10
66.780981
20
-5.96908
30
0
11
66.780981
21
-6.120126
31
0
39
0
210
0
220
0
230
1
0
LINE
5
91
100
AcDbEntity
8
1
62
256
6
ByLayer
370
18
48
1
60
0
100
AcDbLine
10
66.780981
20
29.120126
30
0
11
66.780981
21
28.96908
31
0
39
0
210
0
220
0
230
1
0
LINE
5
92
100
AcDbEntity
8
1
62
256
6
ByLayer
370
18
48
1
60
0
100
AcDbLine
10
67.425019
20
28.585938
30
0
11
67.425019
21
28.030067
31
0
39
0
210
0
220
0
230
1
0
LINE
5
93
100
AcDbEntity
8
1
62
256
6
ByLayer
370
18
48
1
60
0
100
AcDbLine
10
67.425019
20
-5.030067
30
0
11
67.425019
21
-5.585938
31
0
39
0
210
0
220
0
230
1
0
LINE
5
94
100
AcDbEntity
8
1
62
256
6
ByLayer
370
18
48
1
60
0
100
AcDbLine
10
67.500019
20
-4.867575
30
0
11
67.500019
21
-5.566347
31
0
39
0
210
0
220
0
230
1
0
LINE
5
95
100
AcDbEntity
8
1
62
256
6
ByLayer
370
18
48
1
60
0
100
AcDbLine
10
67.500019
20
28.566347
30
0
11
67.500019
21
27.867575
31
0
39
0
210
0
220
0
230
1
0
LINE
5
96
100
AcDbEntity
8
1
62
256
6
ByLayer
370
18
48
1
60
0
100
AcDbLine
10
66.780981
20
-6.67582
30
0
11
66.780981
21
-6.796917
31
0
39
0
210
0
220
0
230
1
0
LINE
5
97
100
AcDbEntity
8
1
62
256
6
ByLayer
370
18
48
1
60
0
100
AcDbLine
10
66.780981
20
29.796917
30
0
11
66.780981
21
29.67582
31
0
39
0
210
0
220
0
230
1
0
LINE
5
98
100
AcDbEntity
8
1
62
256
6
ByLayer
370
18
48
1
60
0
100
AcDbLine
10
67.425019
20
29.251679
30
0
11
67.425019
21
28.807522
31
0
39
0
210
0
220
0
230
1
0
LINE
5
99
100
AcDbEntity
8
1
62
256
6
ByLayer
370
18
48
1
60
0
100
AcDbLine
10
67.425019
20
-5.807522
30
0
11
67.425019
21
-6.251679
31
0
39
0
210
0
220
0
230
1
0
LINE
5
9A
100
AcDbEntity
8
1
62
256
6
ByLayer
370
18
48
1
60
0
100
AcDbLine
10
67.500019
20
29.221831
30
0
11
67.500019
21
28.663752
31
0
39
0
210
0
220
0
230
1
0
LINE
5
9B
100
AcDbEntity
8
1
62
256
6
ByLayer
370
18
48
1
60
0
100
AcDbLine
10
67.500019
20
-5.663752
30
0
11
67.500019
21
-6.221831
31
0
39
0
210
0
220
0
230
1
0
LINE
5
9C
100
AcDbEntity
8
1
62
256
6
ByLayer
370
18
48
1
60
0
100
AcDbLine
10
66.780981
20
30.33044
30
0
11
66.780981
21
30.236384
31
0
39
0
210
0
220
0
230
1
0
LINE
5
9D
100
AcDbEntity
8
1
62
256
6
ByLayer
370
18
48
1
60
0
100
AcDbLine
10
66.780981
20
-7.236384
30
0
11
66.780981
21
-7.33044
31
0
39
0
210
0
220
0
230
1
0
LINE
5
9E
100
AcDbEntity
8
1
62
256
6
ByLayer
370
18
48
1
60
0
100
AcDbLine
10
67.425019
20
-6.426446
30
0
11
67.425019
21
-6.770603
31
0
39
0
210
0
220
0
230
1
0
LINE
5
9F
100
AcDbEntity
8
1
62
256
6
ByLayer
370
18
48
1
60
0
100
AcDbLine
10
67.425019
20
29.770603
30
0
11
67.425019
21
29.426446
31
0
39
0
210
0
220
0
230
1
0
LINE
5
A0
100
AcDbEntity
8
1
62
256
6
ByLayer
370
18
48
1
60
0
100
AcDbLine
10
67.500019
20
-6.298631
30
0
11
67.500019
21
-6.730919
31
0
39
0
210
0
220
0
230
1
0
LINE
5
A1
100
AcDbEntity
8
1
62
256
6
ByLayer
370
18
48
1
60
0
100
AcDbLine
10
67.500019
20
29.730919
30
0
11
67.500019
21
29.298631
31
0
39
0
210
0
220
0
230
1
0
LINE
5
A2
100
AcDbEntity
8
1
62
256
6
ByLayer
370
18
48
1
60
0
100
AcDbLine
10
66.780981
20
30.732624
30
0
11
66.780981
21
30.663605
31
0
39
0
210
0
220
0
230
1
0
LINE
5
A3
100
AcDbEntity
8
1
62
256
6
ByLayer
370
18
48
1
60
0
100
AcDbLine
10
66.780981
20
-7.663605
30
0
11
66.780981
21
-7.732624
31
0
39
0
210
0
220
0
230
1
0
LINE
5
A4
100
AcDbEntity
8
1
62
256
6
ByLayer
370
18
48
1
60
0
100
AcDbLine
10
67.425019
20
-6.902844
30
0
11
67.425019
21
-7.154966
31
0
39
0
210
0
220
0
230
1
0
LINE
5
A5
100
AcDbEntity
8
1
62
256
6
ByLayer
370
18
48
1
60
0
100
AcDbLine
10
67.425019
20
30.154966
30
0
11
67.425019
21
29.902844
31
0
39
0
210
0
220
0
230
1
0
LINE
5
A6
100
AcDbEntity
8
1
62
256
6
ByLayer
370
18
48
1
60
0
100
AcDbLine
10
67.500019
20
-6.789018
30
0
11
67.500019
21
-7.105631
31
0
39
0
210
0
220
0
230
1
0
LINE
5
A7
100
AcDbEntity
8
1
62
256
6
ByLayer
370
18
48
1
60
0
100
AcDbLine
10
67.500019
20
30.105631
30
0
11
67.500019
21
29.789018
31
0
39
0
210
0
220
0
230
1
0
LINE
5
A8
100
AcDbEntity
8
1
62
256
6
ByLayer
370
18
48
1
60
0
100
AcDbLine
10
66.780981
20
-7.966264
30
0
11
66.780981
21
-8.01159
31
0
39
0
210
0
220
0
230
1
0
LINE
5
A9
100
AcDbEntity
8
1
62
256
6
ByLayer
370
18
48
1
60
0
100
AcDbLine
10
66.780981
20
31.01159
30
0
11
66.780981
21
30.966264
31
0
39
0
210
0
220
0
230
1
0
LINE
5
AA
100
AcDbEntity
8
1
62
256
6
ByLayer
370
18
48
1
60
0
100
AcDbLine
10
67.425019
20
-7.247582
30
0
11
67.425019
21
-7.412973
31
0
39
0
210
0
220
0
230
1
0
LINE
5
AB
100
AcDbEntity
8
1
62
256
6
ByLayer
370
18
48
1
60
0
100
AcDbLine
10
67.425019
20
30.412973
30
0
11
67.425019
21
30.247582
31
0
39
0
210
0
220
0
230
1
0
LINE
5
AC
100
AcDbEntity
8
1
62
256
6
ByLayer
370
18
48
1
60
0
100
AcDbLine
10
67.500019
20
-7.146315
30
0
11
67.500019
21
-7.353982
31
0
39
0
210
0
220
0
230
1
0
LINE
5
AD
100
AcDbEntity
8
1
62
256
6
ByLayer
370
18
48
1
60
0
100
AcDbLine
10
67.500019
20
30.353982
30
0
11
67.500019
21
30.146315
31
0
39
0
210
0
220
0
230
1
0
LINE
5
AE
100
AcDbEntity
8
1
62
256
6
ByLayer
370
18
48
1
60
0
100
AcDbLine
10
66.780981
20
-8.150117
30
0
11
66.780981
21
-8.172581
31
0
39
0
210
0
220
0
230
1
0
LINE
5
AF
100
AcDbEntity
8
1
62
256
6
ByLayer
370
18
48
1
60
0
100
AcDbLine
10
66.780981
20
31.172581
30
0
11
66.780981
21
31.150117
31
0
39
0
210
0
220
0
230
1
0
LINE
5
B0
100
AcDbEntity
8
1
62
256
6
ByLayer
370
18
48
1
60
0
100
AcDbLine
10
67.425019
20
-7.467842
30
0
11
67.425019
21
-7.549761
31
0
39
0
210
0
220
0
230
1
0
LINE
5
B1
100
AcDbEntity
8
1
62
256
6
ByLayer
370
18
48
1
60
0
100
AcDbLine
10
67.425019
20
30.549761
30
0
11
67.425019
21
30.467842
31
0
39
0
210
0
220
0
230
1
0
LINE
5
B2
100
AcDbEntity
8
1
62
256
6
ByLayer
370
18
48
1
60
0
100
AcDbLine
10
67.500019
20
30.480931
30
0
11
67.500019
21
30.378081
31
0
39
0
210
0
220
0
230
1
0
LINE
5
B3
100
AcDbEntity
8
1
62
256
6
ByLayer
370
18
48
1
60
0
100
AcDbLine
10
67.500019
20
-7.378081
30
0
11
67.500019
21
-7.480931
31
0
39
0
210
0
220
0
230
1
0
LINE
5
B4
100
AcDbEntity
8
1
62
256
6
ByLayer
370
18
48
1
60
0
100
AcDbLine
10
66.695981
20
-8.695962
30
0
11
66.69781
21
-8.697807
31
0
39
0
210
0
220
0
230
1
0
LINE
5
B5
100
AcDbEntity
8
1
62
256
6
ByLayer
370
18
48
1
60
0
100
AcDbLine
10
66.500019
20
-8.5
30
0
11
66.500019
21
31.5
31
0
39
0
210
0
220
0
230
1
0
LINE
5
B6
100
AcDbEntity
8
1
62
256
6
ByLayer
370
18
48
1
60
0
100
AcDbLine
10
78.1755
20
16.8995
30
0
11
78.1755
21
25.8995
31
0
39
0
210
0
220
0
230
1
0
LINE
5
B7
100
AcDbEntity
8
1
62
256
6
ByLayer
370
18
48
1
60
0
100
AcDbLine
10
77.6755
20
16.3995
30
0
11
77.6755
21
26.3995
31
0
39
0
210
0
220
0
230
1
0
LINE
5
B8
100
AcDbEntity
8
1
62
256
6
ByLayer
370
18
48
1
60
0
100
AcDbLine
10
77.6755
20
-3.3995
30
0
11
77.6755
21
6.6005
31
0
39
0
210
0
220
0
230
1
0
LINE
5
B9
100
AcDbEntity
8
1
62
256
6
ByLayer
370
18
48
1
60
0
100
AcDbLine
10
72.1755
20
16.3995
30
0
11
72.1755
21
26.3995
31
0
39
0
210
0
220
0
230
1
0
LINE
5
BA
100
AcDbEntity
8
1
62
256
6
ByLayer
370
18
48
1
60
0
100
AcDbLine
10
72.1755
20
-3.3995
30
0
11
72.1755
21
6.6005
31
0
39
0
210
0
220
0
230
1
0
LINE
5
BB
100
AcDbEntity
8
1
62
256
6
ByLayer
370
18
48
1
60
0
100
AcDbLine
10
78.1755
20
-2.8995
30
0
11
78.1755
21
6.1005
31
0
39
0
210
0
220
0
230
1
0
LINE
5
BC
100
AcDbEntity
8
1
62
256
6
ByLayer
370
18
48
1
60
0
100
AcDbLine
10
67.500019
20
-3.7366
30
0
11
67.500019
21
26.7366
31
0
39
0
210
0
220
0
230
1
0
LINE
5
BD
100
AcDbEntity
8
1
62
256
6
ByLayer
370
18
48
1
60
0
100
AcDbLine
10
77.6755
20
-3.3995
30
0
11
78.1755
21
-2.8995
31
0
39
0
210
0
220
0
230
1
0
LINE
5
BE
100
AcDbEntity
8
1
62
256
6
ByLayer
370
18
48
1
60
0
100
AcDbLine
10
77.6755
20
16.3995
30
0
11
78.1755
21
16.8995
31
0
39
0
210
0
220
0
230
1
0
LINE
5
BF
100
AcDbEntity
8
1
62
256
6
ByLayer
370
18
48
1
60
0
100
AcDbLine
10
67.500019
20
-1.3995
30
0
11
72.1755
21
-1.3995
31
0
39
0
210
0
220
0
230
1
0
LINE
5
C0
100
AcDbEntity
8
1
62
256
6
ByLayer
370
18
48
1
60
0
100
AcDbLine
10
72.1755
20
-3.3995
30
0
11
77.6755
21
-3.3995
31
0
39
0
210
0
220
0
230
1
0
LINE
5
C1
100
AcDbEntity
8
1
62
256
6
ByLayer
370
18
48
1
60
0
100
AcDbLine
10
72.1755
20
6.6005
30
0
11
77.6755
21
6.6005
31
0
39
0
210
0
220
0
230
1
0
LINE
5
C2
100
AcDbEntity
8
1
62
256
6
ByLayer
370
18
48
1
60
0
100
AcDbLine
10
67.500019
20
24.3995
30
0
11
72.1755
21
24.3995
31
0
39
0
210
0
220
0
230
1
0
LINE
5
C3
100
AcDbEntity
8
1
62
256
6
ByLayer
370
18
48
1
60
0
100
AcDbLine
10
67.500019
20
18.3995
30
0
11
72.1755
21
18.3995
31
0
39
0
210
0
220
0
230
1
0
LINE
5
C4
100
AcDbEntity
8
1
62
256
6
ByLayer
370
18
48
1
60
0
100
AcDbLine
10
72.1755
20
16.3995
30
0
11
77.6755
21
16.3995
31
0
39
0
210
0
220
0
230
1
0
LINE
5
C5
100
AcDbEntity
8
1
62
256
6
ByLayer
370
18
48
1
60
0
100
AcDbLine
10
72.1755
20
26.3995
30
0
11
77.6755
21
26.3995
31
0
39
0
210
0
220
0
230
1
0
LINE
5
C6
100
AcDbEntity
8
1
62
256
6
ByLayer
370
18
48
1
60
0
100
AcDbLine
10
67.500019
20
4.6005
30
0
11
72.1755
21
4.6005
31
0
39
0
210
0
220
0
230
1
0
LINE
5
C7
100
AcDbEntity
8
1
62
256
6
ByLayer
370
18
48
1
60
0
100
AcDbLine
10
77.6755
20
6.6005
30
0
11
78.1755
21
6.1005
31
0
39
0
210
0
220
0
230
1
0
LINE
5
C8
100
AcDbEntity
8
1
62
256
6
ByLayer
370
18
48
1
60
0
100
AcDbLine
10
77.6755
20
26.3995
30
0
11
78.1755
21
25.8995
31
0
39
0
210
0
220
0
230
1
0
LINE
5
C9
100
AcDbEntity
8
1
62
256
6
ByLayer
370
18
48
1
60
0
100
AcDbLine
10
67.000019
20
-3.7366
30
0
11
67.000019
21
26.7366
31
0
39
0
210
0
220
0
230
1
0
LINE
5
CA
100
AcDbEntity
8
81
62
256
6
ByLayer
370
18
48
1
60
0
100
AcDbLine
10
67.000019
20
11.5
30
0
11
72.000019
21
11.5
31
0
39
0
210
0
220
0
230
1
0
LINE
5
CB
100
AcDbEntity
8
4
62
256
6
ByLayer
370
13
48
0.05
60
1
100
AcDbLine
10
0
20
0
30
0
11
77.824519
21
0
31
0
39
0
210
0
220
0
230
1
0
LINE
5
CD
100
AcDbEntity
8
SK4
62
256
6
ByLayer
370
13
48
0.05
60
1
100
AcDbLine
10
80.714379
20
0
30
0
11
-64.400434
21
0
31
0
39
0
210
0
220
0
230
1
0
LINE
5
CF
100
AcDbEntity
8
SK4
62
256
6
ByLayer
370
13
48
0.05
60
1
100
AcDbLine
10
64.471422
20
-100
30
0
11
-50.689899
21
-100
31
0
39
0
210
0
220
0
230
1
0
LINE
5
D0
100
AcDbEntity
8
4
62
256
6
ByLayer
370
13
48
0.05
60
1
100
AcDbLine
10
0
20
-100
30
0
11
61.824519
21
-100
31
0
39
0
210
0
220
0
230
1
0
LINE
5
D1
100
AcDbEntity
8
1
62
256
6
ByLayer
370
18
48
0.05
60
1
100
AcDbLine
10
42.000888
20
-36.75
30
0
11
42.000888
21
26.25
31
0
39
0
210
0
220
0
230
1
0
LINE
5
D2
100
AcDbEntity
8
1
62
256
6
ByLayer
370
18
48
0.05
60
1
100
AcDbLine
10
48.222152
20
-167
30
0
11
57.5
21
-167
31
0
39
0
210
0
220
0
230
1
0
LINE
5
D3
100
AcDbEntity
8
1
62
256
6
ByLayer
370
18
48
0.05
60
1
100
AcDbLine
10
43.159999
20
-227.139417
30
0
11
46.538995
21
-239.75
31
0
39
0
210
0
220
0
230
1
0
LINE
5
D4
100
AcDbEntity
8
1
62
256
6
ByLayer
370
18
48
0.05
60
1
100
AcDbLine
10
46.538154
20
-160.25
30
0
11
43.159159
21
-172.860583
31
0
39
0
210
0
220
0
230
1
0
LINE
5
D5
100
AcDbEntity
8
1
62
256
6
ByLayer
370
18
48
0.05
60
1
100
AcDbLine
10
46.537314
20
-155
30
0
11
65
21
-155
31
0
39
0
210
0
220
0
230
1
0
LINE
5
D6
100
AcDbEntity
8
1
62
256
6
ByLayer
370
18
48
0.05
60
1
100
AcDbLine
10
57.533923
20
-233
30
0
11
48.256075
21
-233
31
0
39
0
210
0
220
0
230
1
0
LINE
5
D7
100
AcDbEntity
8
1
62
256
6
ByLayer
370
18
48
0.05
60
1
100
AcDbLine
10
46.537971
20
-245
30
0
11
49.216806
21
-245
31
0
39
0
210
0
220
0
230
1
0
LINE
5
D8
100
AcDbEntity
8
1
62
256
6
ByLayer
370
18
48
0.05
60
1
100
AcDbLine
10
43.159159
20
-172.860583
30
0
11
43.159159
21
-237.639417
31
0
39
0
210
0
220
0
230
1
0
LINE
5
D9
100
AcDbEntity
8
1
62
256
6
ByLayer
370
18
48
0.05
60
1
100
AcDbLine
10
47.631403
20
-245
30
0
11
56
21
-245
31
0
39
0
210
0
220
0
230
1
0
LINE
5
DA
100
AcDbEntity
8
SK4
62
256
6
ByLayer
370
13
48
0.05
60
1
100
AcDbLine
10
-40
20
-200
30
0
11
72.854768
21
-200
31
0
39
0
210
0
220
0
230
1
0
LINE
5
DB
100
AcDbEntity
8
4
62
256
6
ByLayer
370
13
48
0.05
60
1
100
AcDbLine
10
3.033923
20
-200
30
0
11
48.033923
21
-200
31
0
39
0
210
0
220
0
230
1
0
LINE
5
DC
100
AcDbEntity
8
SK3
62
256
6
ByLayer
370
13
48
0.05
60
0
100
AcDbLine
10
5.000013
20
-26.5
30
0
11
26.000013
21
-26.5
31
0
39
0
210
0
220
0
230
1
0
LINE
5
DE
100
AcDbEntity
8
SK3
62
256
6
ByLayer
370
13
48
0.05
60
0
100
AcDbLine
10
5.000013
20
26.5
30
0
11
26.000013
21
26.5
31
0
39
0
210
0
220
0
230
1
0
LINE
5
DF
100
AcDbEntity
8
1
62
256
6
ByLayer
370
18
48
1
60
0
100
AcDbLine
10
1.3E-05
20
-31
30
0
11
1.3E-05
21
31
31
0
39
0
210
0
220
0
230
1
0
LINE
5
E0
100
AcDbEntity
8
1
62
256
6
ByLayer
370
18
48
1
60
0
100
AcDbLine
10
26.000013
20
-31
30
0
11
26.000013
21
0
31
0
39
0
210
0
220
0
230
1
0
LINE
5
E1
100
AcDbEntity
8
SK1
62
256
6
ByLayer
370
18
48
1
60
0
100
AcDbLine
10
-0.495072
20
24.015
30
0
11
-1.253571
21
24.015
31
0
39
0
210
0
220
0
230
1
0
LINE
5
E3
100
AcDbEntity
8
SK1
62
256
6
ByLayer
370
18
48
1
60
0
100
AcDbLine
10
-1.253571
20
24.015
30
0
11
-1.999981
21
24.215
31
0
39
0
210
0
220
0
230
1
0
LINE
5
E4
100
AcDbEntity
8
SK1
62
256
6
ByLayer
370
18
48
1
60
0
100
AcDbLine
10
-31.999987
20
-21.573501
30
0
11
-31.999987
21
0
31
0
39
0
210
0
220
0
230
1
0
LINE
5
E5
100
AcDbEntity
8
SK1
62
256
6
ByLayer
370
18
48
1
60
0
100
AcDbLine
10
-1.999981
20
-24.215
30
0
11
-1.999981
21
24.215
31
0
39
0
210
0
220
0
230
1
0
LINE
5
E6
100
AcDbEntity
8
SK1
62
256
6
ByLayer
370
13
48
0.05
60
0
100
AcDbLine
10
-6.299987
20
-25.90625
30
0
11
-6.299987
21
25.385071
31
0
39
0
210
0
220
0
230
1
0
LINE
5
E7
100
AcDbEntity
8
SK1
62
256
6
ByLayer
370
18
48
1
60
0
100
AcDbLine
10
-1.999981
20
24.215
30
0
11
-6.299987
21
24
31
0
39
0
210
0
220
0
230
1
0
LINE
5
E8
100
AcDbEntity
8
SK1
62
256
6
ByLayer
370
18
48
1
60
0
100
AcDbLine
10
-0.495072
20
-24.015
30
0
11
-1.253571
21
-24.015
31
0
39
0
210
0
220
0
230
1
0
LINE
5
E9
100
AcDbEntity
8
SK1
62
256
6
ByLayer
370
18
48
1
60
0
100
AcDbLine
10
-1.253571
20
-24.015
30
0
11
-1.999981
21
-24.215
31
0
39
0
210
0
220
0
230
1
0
LINE
5
EA
100
AcDbEntity
8
SK1
62
256
6
ByLayer
370
18
48
1
60
0
100
AcDbLine
10
-1.999981
20
-24.215
30
0
11
-6.299987
21
-24
31
0
39
0
210
0
220
0
230
1
0
LINE
5
EB
100
AcDbEntity
8
SK1
62
256
6
ByLayer
370
18
48
1
60
0
100
AcDbLine
10
-6.299987
20
24
30
0
11
-30.859912
21
22.772004
31
0
39
0
210
0
220
0
230
1
0
LINE
5
EC
100
AcDbEntity
8
SK1
62
256
6
ByLayer
370
18
48
1
60
0
100
AcDbLine
10
-6.299987
20
-24
30
0
11
-30.859912
21
-22.772004
31
0
39
0
210
0
220
0
230
1
0
LINE
5
ED
100
AcDbEntity
8
1
62
256
6
ByLayer
370
18
48
1
60
0
100
AcDbLine
10
0.500013
20
31.5
30
0
11
14.625401
21
31.5
31
0
39
0
210
0
220
0
230
1
0
LINE
5
EE
100
AcDbEntity
8
1
62
256
6
ByLayer
370
18
48
1
60
0
100
AcDbLine
10
14.622514
20
-31.5
30
0
11
0.500013
21
-31.5
31
0
39
0
210
0
220
0
230
1
0
LINE
5
EF
100
AcDbEntity
8
1
62
256
6
ByLayer
370
18
48
1
60
0
100
AcDbLine
10
14.608081
20
-31.5
30
0
11
14.377513
21
-31.5
31
0
39
0
210
0
220
0
230
1
0
LINE
5
F0
100
AcDbEntity
8
1
62
256
6
ByLayer
370
18
48
1
60
0
100
AcDbLine
10
25.500013
20
31.5
30
0
11
21.374626
21
31.5
31
0
39
0
210
0
220
0
230
1
0
LINE
5
F1
100
AcDbEntity
8
SK1
62
256
6
ByLayer
370
18
48
1
60
0
100
AcDbLine
10
-31.999987
20
21.573501
30
0
11
-31.999987
21
0
31
0
39
0
210
0
220
0
230
1
0
LINE
5
F2
100
AcDbEntity
8
1
62
256
6
ByLayer
370
18
48
1
60
0
100
AcDbLine
10
14.625401
20
31.47
30
0
11
16.085013
21
28.941877
31
0
39
0
210
0
220
0
230
1
0
LINE
5
F3
100
AcDbEntity
8
1
62
256
6
ByLayer
370
18
48
1
60
0
100
AcDbLine
10
16.085013
20
28.941877
30
0
11
16.085013
21
0
31
0
39
0
210
0
220
0
230
1
0
LINE
5
F4
100
AcDbEntity
8
1
62
256
6
ByLayer
370
18
48
1
60
0
100
AcDbLine
10
16.485013
20
27.475
30
0
11
19.515013
21
27.475
31
0
39
0
210
0
220
0
230
1
0
LINE
5
F5
100
AcDbEntity
8
1
62
256
6
ByLayer
370
18
48
1
60
0
100
AcDbLine
10
19.915013
20
0
30
0
11
19.915013
21
28.941877
31
0
39
0
210
0
220
0
230
1
0
LINE
5
F6
100
AcDbEntity
8
1
62
256
6
ByLayer
370
18
48
1
60
0
100
AcDbLine
10
19.915013
20
28.941877
30
0
11
21.374626
21
31.47
31
0
39
0
210
0
220
0
230
1
0
LINE
5
F7
100
AcDbEntity
8
1
62
256
6
ByLayer
370
18
48
1
60
0
100
AcDbLine
10
21.374626
20
31.5
30
0
11
21.374626
21
24.420041
31
0
39
0
210
0
220
0
230
1
0
LINE
5
F8
100
AcDbEntity
8
1
62
256
6
ByLayer
370
18
48
1
60
0
100
AcDbLine
10
14.625401
20
31.5
30
0
11
14.625401
21
24.420041
31
0
39
0
210
0
220
0
230
1
0
LINE
5
F9
100
AcDbEntity
8
1
62
256
6
ByLayer
370
18
48
1
60
0
100
AcDbLine
10
25.350013
20
24.420041
30
0
11
25.850013
21
23.920041
31
0
39
0
210
0
220
0
230
1
0
LINE
5
FA
100
AcDbEntity
8
1
62
256
6
ByLayer
370
18
48
1
60
0
100
AcDbLine
10
0.500013
20
31.5
30
0
11
1.3E-05
21
31
31
0
39
0
210
0
220
0
230
1
0
LINE
5
FB
100
AcDbEntity
8
1
62
256
6
ByLayer
370
18
48
1
60
0
100
AcDbLine
10
25.500013
20
31.5
30
0
11
26.000013
21
31
31
0
39
0
210
0
220
0
230
1
0
LINE
5
FC
100
AcDbEntity
8
1
62
256
6
ByLayer
370
18
48
1
60
0
100
AcDbLine
10
0.500013
20
-31.5
30
0
11
1.3E-05
21
-31
31
0
39
0
210
0
220
0
230
1
0
LINE
5
FD
100
AcDbEntity
8
1
62
256
6
ByLayer
370
18
48
1
60
0
100
AcDbLine
10
21.374626
20
-31.47
30
0
11
21.374626
21
19.85
31
0
39
0
210
0
220
0
230
1
0
LINE
5
FE
100
AcDbEntity
8
1
62
256
6
ByLayer
370
18
48
1
60
0
100
AcDbLine
10
19.915013
20
0
30
0
11
19.915013
21
-28.941877
31
0
39
0
210
0
220
0
230
1
0
LINE
5
FF
100
AcDbEntity
8
1
62
256
6
ByLayer
370
18
48
1
60
0
100
AcDbLine
10
16.085013
20
-28.941877
30
0
11
16.085013
21
0
31
0
39
0
210
0
220
0
230
1
0
LINE
5
100
100
AcDbEntity
8
1
62
256
6
ByLayer
370
18
48
1
60
0
100
AcDbLine
10
14.625401
20
-31.47
30
0
11
14.625401
21
19.85
31
0
39
0
210
0
220
0
230
1
0
LINE
5
101
100
AcDbEntity
8
1
62
256
6
ByLayer
370
18
48
1
60
0
100
AcDbLine
10
19.915013
20
-28.941877
30
0
11
21.374626
21
-31.47
31
0
39
0
210
0
220
0
230
1
0
LINE
5
102
100
AcDbEntity
8
1
62
256
6
ByLayer
370
18
48
1
60
0
100
AcDbLine
10
16.485013
20
-27.475
30
0
11
19.515013
21
-27.475
31
0
39
0
210
0
220
0
230
1
0
LINE
5
103
100
AcDbEntity
8
1
62
256
6
ByLayer
370
18
48
1
60
0
100
AcDbLine
10
14.625401
20
-31.47
30
0
11
16.085013
21
-28.941877
31
0
39
0
210
0
220
0
230
1
0
LINE
5
104
100
AcDbEntity
8
SK1
62
256
6
ByLayer
370
13
48
1
60
0
100
AcDbLine
10
-1.253571
20
-24.015
30
0
11
-1.253571
21
24.015
31
0
39
0
210
0
220
0
230
1
0
LINE
5
105
100
AcDbEntity
8
1
62
256
6
ByLayer
370
18
48
1
60
0
100
AcDbLine
10
25.500013
20
-31.5
30
0
11
26.000013
21
-31
31
0
39
0
210
0
220
0
230
1
0
LINE
5
106
100
AcDbEntity
8
1
62
256
6
ByLayer
370
18
48
1
60
0
100
AcDbLine
10
25.500013
20
-31.5
30
0
11
21.374626
21
-31.5
31
0
39
0
210
0
220
0
230
1
0
LINE
5
107
100
AcDbEntity
8
1
62
256
6
ByLayer
370
18
48
1
60
0
100
AcDbLine
10
26.000013
20
0
30
0
11
26.000013
21
31
31
0
39
0
210
0
220
0
230
1
0
LINE
5
108
100
AcDbEntity
8
SK3
62
256
6
ByLayer
370
13
48
0.05
60
0
100
AcDbLine
10
5.000013
20
-31.5
30
0
11
5.000013
21
-26.5
31
0
39
0
210
0
220
0
230
1
0
LINE
5
109
100
AcDbEntity
8
SK3
62
256
6
ByLayer
370
13
48
0.05
60
0
100
AcDbLine
10
5.000013
20
31.5
30
0
11
5.000013
21
26.5
31
0
39
0
210
0
220
0
230
1
0
LINE
5
10A
100
AcDbEntity
8
1
62
256
6
ByLayer
370
18
48
1
60
0
100
AcDbLine
10
12.177418
20
19.85
30
0
11
16.085013
21
19.85
31
0
39
0
210
0
220
0
230
1
0
LINE
5
10B
100
AcDbEntity
8
1
62
256
6
ByLayer
370
18
48
1
60
0
100
AcDbLine
10
4.950013
20
24.420041
30
0
11
14.625401
21
24.420041
31
0
39
0
210
0
220
0
230
1
0
LINE
5
10C
100
AcDbEntity
8
1
62
256
6
ByLayer
370
18
48
1
60
0
100
AcDbLine
10
25.950013
20
19.85
30
0
11
19.915013
21
19.85
31
0
39
0
210
0
220
0
230
1
0
LINE
5
10D
100
AcDbEntity
8
1
62
256
6
ByLayer
370
18
48
1
60
0
100
AcDbLine
10
25.350013
20
24.420041
30
0
11
21.374626
21
24.420041
31
0
39
0
210
0
220
0
230
1
0
LINE
5
10E
100
AcDbEntity
8
80
62
256
6
ByLayer
370
13
48
1
60
0
100
AcDbLine
10
0
20
0
30
0
11
-8.091354
21
0
31
0
39
0
210
0
220
0
230
1
0
LINE
5
10F
100
AcDbEntity
8
1
62
256
6
ByLayer
370
18
48
0.05
60
1
100
AcDbLine
10
27.000013
20
26.25
30
0
11
42.250013
21
26.25
31
0
39
0
210
0
220
0
230
1
0
LINE
5
110
100
AcDbEntity
8
1
62
256
6
ByLayer
370
18
48
0.05
60
1
100
AcDbLine
10
27.000013
20
-126.25
30
0
11
42.250013
21
-126.25
31
0
39
0
210
0
220
0
230
1
0
LINE
5
111
100
AcDbEntity
8
1
62
256
6
ByLayer
370
18
48
0.05
60
1
100
AcDbLine
10
35.189416
20
-26.25
30
0
11
26.476783
21
-26.25
31
0
39
0
210
0
220
0
230
1
0
LINE
5
112
100
AcDbEntity
8
1
62
256
6
ByLayer
370
18
48
0.05
60
1
100
AcDbLine
10
26.476783
20
26.25
30
0
11
28.5
21
26.25
31
0
39
0
210
0
220
0
230
1
0
LINE
5
113
100
AcDbEntity
8
1
62
256
6
ByLayer
370
18
48
0.05
60
1
100
AcDbLine
10
26.95
20
-25.431193
30
0
11
26.95
21
25.431193
31
0
39
0
210
0
220
0
230
1
0
LINE
5
114
100
AcDbEntity
8
1
62
256
6
ByLayer
370
18
48
1
60
0
100
AcDbLine
10
26.95
20
25.431193
30
0
11
26.95
21
-25.431193
31
0
39
0
210
0
220
0
230
1
0
LINE
5
115
100
AcDbEntity
8
SK4
62
256
6
ByLayer
370
13
48
0.05
60
1
100
AcDbLine
10
-34.343183
20
-200
30
0
11
72.854768
21
-200
31
0
39
0
210
0
220
0
230
1
0
LINE
5
116
100
AcDbEntity
8
SK4
62
256
6
ByLayer
370
13
48
0.05
60
1
100
AcDbLine
10
-34.183801
20
-100
30
0
11
64.471422
21
-100
31
0
39
0
210
0
220
0
230
1
0
LINE
5
117
100
AcDbEntity
8
1
62
256
6
ByLayer
370
18
48
1
60
0
100
AcDbLine
10
42.000888
20
26.25
30
0
11
27.000013
21
26.25
31
0
39
0
210
0
220
0
230
1
0
LINE
5
118
100
AcDbEntity
8
1
62
256
6
ByLayer
370
18
48
1
60
0
100
AcDbLine
10
26.95
20
-26.25
30
0
11
35.189416
21
-26.25
31
0
39
0
210
0
220
0
230
1
0
LINE
5
119
100
AcDbEntity
8
1
62
256
6
ByLayer
370
18
48
1
60
0
100
AcDbLine
10
26.95
20
26.25
30
0
11
28.5
21
26.25
31
0
39
0
210
0
220
0
230
1
0
LINE
5
11A
100
AcDbEntity
8
1
62
256
6
ByLayer
370
18
48
1
60
0
100
AcDbLine
10
26.95
20
-26.25
30
0
11
26.95
21
26.25
31
0
39
0
210
0
220
0
230
1
0
LINE
5
11B
100
AcDbEntity
8
1
62
256
6
ByLayer
370
18
48
1
60
0
100
AcDbLine
10
37.333023
20
-26.25
30
0
11
26.476796
21
-26.25
31
0
39
0
210
0
220
0
230
1
0
LINE
5
11C
100
AcDbEntity
8
1
62
256
6
ByLayer
370
18
48
1
60
0
100
AcDbLine
10
35.500013
20
26.25
30
0
11
42.043159
21
26.25
31
0
39
0
210
0
220
0
230
1
0
LINE
5
11D
100
AcDbEntity
8
1
62
256
6
ByLayer
370
18
48
1
60
0
100
AcDbLine
10
44.871586
20
27.421573
30
0
11
48.950013
21
31.5
31
0
39
0
210
0
220
0
230
1
0
LINE
5
11E
100
AcDbEntity
8
1
62
256
6
ByLayer
370
18
48
1
60
0
100
AcDbLine
10
47.000013
20
-8.5
30
0
11
66.324533
21
-8.5
31
0
39
0
210
0
220
0
230
1
0
LINE
5
11F
100
AcDbEntity
8
1
62
256
6
ByLayer
370
18
48
1
60
0
100
AcDbLine
10
66.324533
20
31.5
30
0
11
48.950013
21
31.5
31
0
39
0
210
0
220
0
230
1
0
LINE
5
120
100
AcDbEntity
8
1
62
256
6
ByLayer
370
18
48
1
60
0
100
AcDbLine
10
37.333023
20
-26.25
30
0
11
40.818088
21
-13.243558
31
0
39
0
210
0
220
0
230
1
0
LINE
5
121
100
AcDbEntity
8
1
62
256
6
ByLayer
370
18
48
1
60
0
100
AcDbLine
10
66.324533
20
31.5
30
0
11
66.324533
21
-8.5
31
0
39
0
210
0
220
0
230
1
0
LINE
5
122
100
AcDbEntity
8
1
62
256
6
ByLayer
370
18
48
1
60
0
100
AcDbLine
10
26.950013
20
-25.431193
30
0
11
26.950013
21
25.431193
31
0
39
0
210
0
220
0
230
1
0
LINE
5
123
100
AcDbEntity
8
1
62
256
6
ByLayer
370
18
48
1
60
0
100
AcDbLine
10
26.950013
20
25.431193
30
0
11
26.950013
21
-25.431193
31
0
39
0
210
0
220
0
230
1
0
LINE
5
124
100
AcDbEntity
8
1
62
256
6
ByLayer
370
18
48
1
60
0
100
AcDbLine
10
40.818088
20
-13.243558
30
0
11
40.818088
21
9.089949
31
0
39
0
210
0
220
0
230
1
0
LINE
5
125
100
AcDbEntity
8
1
62
256
6
ByLayer
370
18
48
1
60
0
100
AcDbLine
10
47.000013
20
-8.5
30
0
11
47.000013
21
26.324022
31
0
39
0
210
0
220
0
230
1
0
LINE
5
126
100
AcDbEntity
8
1
62
256
6
ByLayer
370
18
48
1
60
0
100
AcDbLine
10
42.043159
20
13.987773
30
0
11
42.043159
21
26.25
31
0
39
0
210
0
220
0
230
1
0
LINE
5
127
100
AcDbEntity
8
1
62
256
6
ByLayer
370
18
48
1
60
0
100
AcDbLine
10
44.871586
20
27.421573
30
0
11
44.871586
21
20.412537
31
0
39
0
210
0
220
0
230
1
0
LINE
5
128
100
AcDbEntity
8
SK4
62
256
6
ByLayer
370
13
48
0.05
60
1
100
AcDbLine
10
-34.444671
20
0
30
0
11
80.714379
21
0
31
0
39
0
210
0
220
0
230
1
0
LINE
5
129
100
AcDbEntity
8
4
62
256
6
ByLayer
370
13
48
0.05
60
0
100
AcDbLine
10
67.000019
20
0
30
0
11
0
21
0
31
0
39
0
210
0
220
0
230
1
0
LINE
5
12A
100
AcDbEntity
8
SK4
62
256
6
ByLayer
370
13
48
0.05
60
0
100
AcDbLine
10
69.761493
20
0
30
0
11
-34.444671
21
0
31
0
39
0
210
0
220
0
230
1
0
MTEXT
5
1F1
100
AcDbEntity
8
SK6
62
256
6
ByLayer
370
18
48
1
60
0
100
AcDbMText
10
14.215665
20
-49.884548
30
0
210
0
220
0
230
1
1
\W0.7958;392.T63SL-40RG
40
3.5
41
0
44
1.084337
50
0
71
7
72
5
7
iso_b_vert
0
DIMENSION
5
20C
100
AcDbEntity
8
SK2
62
256
6
ByLayer
370
13
48
1
60
0
100
AcDbDimension
2
DimnDraft3D1
10
107.283186
20
-8.5
30
0
11
107.283186
21
7.268412
31
0
70
32
71
5
72
1
41
1
210
0
220
0
230
1
3
Standard
100
AcDbAlignedDimension
13
67.912033
23
31.5
33
0
14
67.912033
24
-8.5
34
0
50
90
100
AcDbRotatedDimension
1001
ACAD
1000
DSTYLE
1002
{
1070
    74
1070
     0
1070
   279
1070
     0
1070
   172
1070
     1
1070
   173
1070
     1
1070
   340
1005
1F2
1070
    77
1070
     1
1070
    73
1070
     0
1070
   171
1070
     3
1070
   274
1070
     4
1070
   177
1070
   254
1070
   176
1070
   254
1070
   178
1070
   254
1070
    78
1070
     8
1070
    41
1041
3.175
1070
   147
1041
1.500003
1070
    42
1041
1.5875
1070
    44
1041
3.175
1070
   140
1041
3.000007
1070
   343
1005
0
1070
   344
1005
0
1002
}
0
DIMENSION
5
216
100
AcDbEntity
8
SK2
62
256
6
ByLayer
370
13
48
1
60
0
100
AcDbDimension
2
DimnDraft3D2
10
26.000013
20
45.472457
30
0
11
11.247378
21
45.472457
31
0
70
32
71
5
72
1
41
1
210
0
220
0
230
1
3
Standard
100
AcDbAlignedDimension
13
1.3E-05
23
32.5875
33
0
14
26.000013
24
32.5875
34
0
50
0
100
AcDbRotatedDimension
1001
ACAD
1000
DSTYLE
1002
{
1070
   279
1070
     0
1070
   172
1070
     1
1070
   173
1070
     1
1070
   340
1005
1F2
1070
   271
1070
     0
1070
    77
1070
     1
1070
    73
1070
     0
1070
   171
1070
     3
1070
   274
1070
     4
1070
   177
1070
   254
1070
   176
1070
   254
1070
   178
1070
   254
1070
    78
1070
     8
1070
    41
1041
3.175
1070
   147
1041
1.500003
1070
    42
1041
1.5875
1070
    44
1041
3.175
1070
   140
1041
3.000007
1070
   343
1005
0
1070
   344
1005
0
1002
}
0
DIMENSION
5
224
100
AcDbEntity
8
SK2
62
256
6
ByLayer
370
13
48
1
60
0
100
AcDbDimension
2
DimnDraft3D3
10
-31.999987
20
58.538285
30
0
11
-17.752615
21
58.538285
31
0
70
32
71
5
72
1
41
1
210
0
220
0
230
1
3
Standard
100
AcDbAlignedDimension
13
1.3E-05
23
32.499997
33
0
14
-31.999987
24
23.073498
34
0
50
0
100
AcDbRotatedDimension
1001
ACAD
1000
DSTYLE
1002
{
1070
   279
1070
     0
1070
   173
1070
     1
1070
   340
1005
1F2
1070
   271
1070
     0
1070
   272
1070
     2
1070
    77
1070
     1
1070
    73
1070
     0
1070
   171
1070
     4
1070
   274
1070
     4
1070
   177
1070
   254
1070
   176
1070
   254
1070
   178
1070
   254
1070
    41
1041
2.999994
1070
   147
1041
1.499997
1070
    42
1041
1.499997
1070
    44
1041
2.999994
1070
   140
1041
2.999994
1070
   343
1005
1F6
1070
   344
1005
1F6
1002
}
0
DIMENSION
5
232
100
AcDbEntity
8
SK2
62
256
6
ByLayer
370
13
48
1
60
0
100
AcDbDimension
2
DimnDraft3D4
10
-55.58407
20
31.5
30
0
11
-55.58407
21
-4.073684
31
0
70
32
71
5
72
1
41
1
210
0
220
0
230
1
3
Standard
100
AcDbAlignedDimension
13
-0.999987
23
-31.5
33
0
14
-0.999987
24
31.5
34
0
50
90
100
AcDbRotatedDimension
1001
ACAD
1000
DSTYLE
1002
{
1070
    74
1070
     0
1070
   279
1070
     0
1070
   173
1070
     1
1070
   340
1005
1F2
1070
   271
1070
     0
1070
   272
1070
     2
1070
    77
1070
     1
1070
    73
1070
     0
1070
   171
1070
     4
1070
   274
1070
     4
1070
   177
1070
   254
1070
   176
1070
   254
1070
   178
1070
   254
1070
    41
1041
3.0
1070
   147
1041
1.5
1070
    42
1041
1.5
1070
    44
1041
3.0
1070
   140
1041
3.0
1070
   343
1005
1F6
1070
   344
1005
1F6
1002
}
0
DIMENSION
5
240
100
AcDbEntity
8
SK2
62
256
6
ByLayer
370
13
48
1
60
0
100
AcDbDimension
2
DimnDraft3D5
10
-42.535949
20
24
30
0
11
-42.535949
21
-4.231579
31
0
70
32
71
5
72
1
41
1
210
0
220
0
230
1
3
Standard
100
AcDbAlignedDimension
13
-7.799987
23
-24
33
0
14
-7.799987
24
24
34
0
50
90
100
AcDbRotatedDimension
1001
ACAD
1000
DSTYLE
1002
{
1070
    74
1070
     0
1070
   279
1070
     0
1070
   173
1070
     1
1070
   340
1005
1F2
1070
   271
1070
     0
1070
   272
1070
     2
1070
    77
1070
     1
1070
    73
1070
     0
1070
   171
1070
     4
1070
   274
1070
     4
1070
   177
1070
   254
1070
   176
1070
   254
1070
   178
1070
   254
1070
    41
1041
3.0
1070
   147
1041
1.5
1070
    42
1041
1.5
1070
    44
1041
3.0
1070
   140
1041
3.0
1070
   343
1005
1F6
1070
   344
1005
1F6
1002
}
0
DIMENSION
5
24E
100
AcDbEntity
8
SK2
62
256
6
ByLayer
370
13
48
1
60
0
100
AcDbDimension
2
DimnDraft3D6
10
42.000888
20
58.538282
30
0
11
19.089925
21
58.538282
31
0
70
32
71
5
72
1
41
1
210
0
220
0
230
1
3
Standard
100
AcDbAlignedDimension
13
1.3E-05
23
32.5
33
0
14
42.000888
24
27.75
34
0
50
0
100
AcDbRotatedDimension
1001
ACAD
1000
DSTYLE
1002
{
1070
   279
1070
     0
1070
   173
1070
     1
1070
   340
1005
1F2
1070
   271
1070
     0
1070
   272
1070
     2
1070
    77
1070
     1
1070
    73
1070
     0
1070
   171
1070
     4
1070
   274
1070
     4
1070
   177
1070
   254
1070
   176
1070
   254
1070
   178
1070
   254
1070
    41
1041
3.0
1070
   147
1041
1.5
1070
    42
1041
1.5
1070
    44
1041
3.0
1070
   140
1041
3.0
1070
   343
1005
1F6
1070
   344
1005
1F6
1002
}
0
DIMENSION
5
25D
100
AcDbEntity
8
2
62
256
6
ByLayer
370
18
48
1
60
0
100
AcDbDimension
2
DimnDraft3D7
10
67.000019
20
73.169909
30
0
11
31.747385
21
73.169909
31
0
70
32
71
5
72
1
41
1
210
0
220
0
230
1
3
Standard
100
AcDbAlignedDimension
13
1.3E-05
23
33
33
0
14
67.000019
24
13.5
34
0
50
0
100
AcDbRotatedDimension
1001
ACAD
1000
DSTYLE
1002
{
1070
   279
1070
     0
1070
   172
1070
     1
1070
   173
1070
     1
1070
   340
1005
1F2
1070
    77
1070
     1
1070
    73
1070
     0
1070
   171
1070
     3
1070
   274
1070
     4
1070
   177
1070
   254
1070
   176
1070
   254
1070
   178
1070
   254
1070
    78
1070
     8
1070
    41
1041
3.175
1070
   147
1041
1.5
1070
    42
1041
2.0
1070
    44
1041
2.0
1070
   140
1041
3.0
1070
   343
1005
1F6
1070
   344
1005
1F6
1002
}
0
DIMENSION
5
26B
100
AcDbEntity
8
SK2
62
256
6
ByLayer
370
18
48
1
60
0
100
AcDbDimension
2
DimnDraft3D8
10
92.224794
20
11.5
30
0
11
92.224794
21
2.738361
31
0
70
32
71
5
72
1
41
1
210
0
220
0
230
1
3
Standard
100
AcDbAlignedDimension
13
71.761493
23
0
33
0
14
74.000019
24
11.5
34
0
50
90
100
AcDbRotatedDimension
1001
ACAD
1000
DSTYLE
1002
{
1070
    74
1070
     0
1070
   279
1070
     0
1070
   172
1070
     1
1070
   173
1070
     1
1070
   340
1005
1F2
1070
    77
1070
     1
1070
    73
1070
     0
1070
   171
1070
     3
1070
   274
1070
     4
1070
   177
1070
   254
1070
   176
1070
   254
1070
   178
1070
   254
1070
    78
1070
     8
1070
    41
1041
3.175
1070
   147
1041
1.5
1070
    42
1041
2.0
1070
    44
1041
2.0
1070
   140
1041
3.0
1070
   343
1005
1F6
1070
   344
1005
1F6
1002
}
0
ENDSEC
0
SECTION
2
OBJECTS
0
DICTIONARY
5
2d7
330
0
100
AcDbDictionary
280
0
281
1
3
ACAD_GROUP
350
2d8
3
ACAD_MLINESTYLE
350
2d9
0
DICTIONARY
5
2d8
330
0
100
AcDbDictionary
280
0
281
1
0
DICTIONARY
5
2d9
330
0
100
AcDbDictionary
280
0
281
1
3
Standard
350
18
0
MLINESTYLE
5
18
330
2d9
100
AcDbMlineStyle
2
Standard
70
0
3

62
256
51
90
52
90
71
2
49
-0.5
62
256
6
ByLayer
49
0.5
62
256
6
ByLayer
0
RASTERVARIABLES
5
2c4
330

100
AcDbRasterVariables
90
0
70
1
71
1
72
1
0
ENDSEC
0
EOF
