0
SECTION
2
HEADER
9
$ACADVER
1
AC1015
9
$DWGCODEPAGE
3
ANSI_1252
9
$HANDSEED
5
307
9
$ANGBASE
50
0
9
$ANGDIR
70
0
9
$ATTMODE
70
1
9
$AUNITS
70
0
9
$AUPREC
70
0
9
$CECOLOR
62
256
9
$CELTSCALE
40
1
9
$CELTYPE
6
ByLayer
9
$CELWEIGHT
370
18
9
$CLAYER
8
0
9
$CMLJUST
70
0
9
$CMLSCALE
40
1
9
$CMLSTYLE
2
Standard
9
$DIMSTYLE
2
Standard
9
$TEXTSIZE
40
0.2
9
$TEXTSTYLE
7
Standard
9
$LUNITS
70
2
9
$LUPREC
70
4
9
$EXTNAMES
290
1
9
$INSUNITS
70
4
9
$LTSCALE
40
1
9
$LWDISPLAY
290
1
9
$PDMODE
70
0
9
$PDSIZE
40
0
9
$PLINEGEN
70
0
0
ENDSEC
0
SECTION
2
CLASSES
0
CLASS
1
RASTERVARIABLES
2
AcDbRasterVariables
3
ISM
90
0
280
0
281
0
0
ENDSEC
0
SECTION
2
TABLES
0
TABLE
2
VPORT
5
2fd
100
AcDbSymbolTable
0
VPORT
5
1
100
AcDbSymbolTableRecord
100
AcDbViewportTableRecord
2
*Active
70
0
10
0
20
0
11
1
21
1
12
-1
22
1
13
0
23
0
14
0.5
24
0.5
15
10
25
10
16
0
26
0
36
1
17
0
27
0
37
0
0
ENDTAB
0
TABLE
2
LTYPE
5
2fe
100
AcDbSymbolTable
0
LTYPE
5
14
100
AcDbSymbolTableRecord
100
AcDbLinetypeTableRecord
70
0
2
ByBlock
3

72
65
73
0
40
0
0
LTYPE
5
15
100
AcDbSymbolTableRecord
100
AcDbLinetypeTableRecord
70
0
2
ByLayer
3

72
65
73
0
40
0
0
LTYPE
5
16
100
AcDbSymbolTableRecord
100
AcDbLinetypeTableRecord
70
0
2
CONTINUOUS
3
Solid line
72
65
73
0
40
0
0
LTYPE
5
6A
100
AcDbSymbolTableRecord
100
AcDbLinetypeTableRecord
70
0
2
CENTER
3
____ _ ____ _ ____ _ ____
72
65
73
4
40
47.5
49
22
74
0
49
-8.5
74
0
49
8.5
74
0
49
-8.5
74
0
0
LTYPE
5
6B
100
AcDbSymbolTableRecord
100
AcDbLinetypeTableRecord
70
0
2
DASHED
3
__ __ __ __ __ __ __ __ __
72
65
73
2
40
25.72
49
12.86
74
0
49
-12.86
74
0
0
ENDTAB
0
TABLE
2
LAYER
5
2ff
100
AcDbSymbolTable
0
LAYER
5
10
100
AcDbSymbolTableRecord
100
AcDbLayerTableRecord
2
0
70
0
62
7
6
CONTINUOUS
290
1
370
-3
390
0
0
LAYER
5
6D
100
AcDbSymbolTableRecord
100
AcDbLayerTableRecord
2
81
70
0
62
-3
6
CONTINUOUS
290
1
370
-3
390
0
0
LAYER
5
6F
100
AcDbSymbolTableRecord
100
AcDbLayerTableRecord
2
80
70
0
62
-6
6
CONTINUOUS
290
1
370
-3
390
0
0
LAYER
5
71
100
AcDbSymbolTableRecord
100
AcDbLayerTableRecord
2
1
70
0
62
4
6
CONTINUOUS
290
1
370
-3
390
0
0
LAYER
5
CC
100
AcDbSymbolTableRecord
100
AcDbLayerTableRecord
2
4
70
0
62
-2
6
CENTER
290
1
370
-3
390
0
0
LAYER
5
266
100
AcDbSymbolTableRecord
100
AcDbLayerTableRecord
2
2
70
0
62
7
6
CONTINUOUS
290
1
370
-3
390
0
0
LAYER
5
2e8
100
AcDbSymbolTableRecord
100
AcDbLayerTableRecord
2
SK4
70
0
62
2
6
CENTER
290
1
370
-3
390
0
0
LAYER
5
2e9
100
AcDbSymbolTableRecord
100
AcDbLayerTableRecord
2
SK3
70
0
62
1
6
DASHED
290
1
370
-3
390
0
0
LAYER
5
2ea
100
AcDbSymbolTableRecord
100
AcDbLayerTableRecord
2
SK1
70
0
62
4
6
CONTINUOUS
290
1
370
-3
390
0
0
LAYER
5
2eb
100
AcDbSymbolTableRecord
100
AcDbLayerTableRecord
2
SK6
70
0
62
5
6
CONTINUOUS
290
1
370
-3
390
0
0
LAYER
5
2ec
100
AcDbSymbolTableRecord
100
AcDbLayerTableRecord
2
SK2
70
0
62
7
6
CONTINUOUS
290
1
370
-3
390
0
0
ENDTAB
0
TABLE
2
STYLE
5
300
100
AcDbSymbolTable
0
STYLE
5
11
100
AcDbSymbolTableRecord
100
AcDbTextStyleTableRecord
2
Standard
3
txt
70
0
71
0
40
0
41
1
42
0
50
0
0
STYLE
5
211
100
AcDbSymbolTableRecord
100
AcDbTextStyleTableRecord
2
iso_b_vert
3
simplex.shx
70
0
71
0
40
0
41
1
42
0
50
0
0
STYLE
5
212
100
AcDbSymbolTableRecord
100
AcDbTextStyleTableRecord
2
DWGDirectTextStyle
3
simplex
70
0
71
0
40
0
41
1
42
0
50
0
0
ENDTAB
0
TABLE
2
DIMSTYLE
5
301
100
AcDbSymbolTable
100
AcDbDimStyleTable
0
DIMSTYLE
105
27
100
AcDbSymbolTableRecord
100
AcDbDimStyleTableRecord
2
Standard
70
0
3
<>
41
0.18
42
0.0625
44
0.18
140
0.18
147
0.09
73
0
74
0
77
1
271
2
275
0
278
52
280
0
340
11
0
ENDTAB
0
TABLE
2
VIEW
5
302
100
AcDbSymbolTable
0
ENDTAB
0
TABLE
2
UCS
5
303
100
AcDbSymbolTable
0
ENDTAB
0
TABLE
2
APPID
5
304
100
AcDbSymbolTable
0
APPID
5
12
100
AcDbSymbolTableRecord
100
AcDbRegAppTableRecord
2
ACAD
70
0
0
ENDTAB
0
TABLE
2
BLOCK_RECORD
5
305
100
AcDbSymbolTable
0
BLOCK_RECORD
5
1F
100
AcDbSymbolTableRecord
100
AcDbBlockTableRecord
2
*Model_Space
340
0
70
0
0
BLOCK_RECORD
5
1B
100
AcDbSymbolTableRecord
100
AcDbBlockTableRecord
2
*Paper_Space
340
0
70
0
0
BLOCK_RECORD
5
23
100
AcDbSymbolTableRecord
100
AcDbBlockTableRecord
2
*Paper_Space0
340
0
70
0
0
BLOCK_RECORD
5
214
100
AcDbSymbolTableRecord
100
AcDbBlockTableRecord
2
LABLE3D_1
340
0
70
0
0
BLOCK_RECORD
5
215
100
AcDbSymbolTableRecord
100
AcDbBlockTableRecord
2
_CLOSED
340
0
70
0
0
BLOCK_RECORD
5
222
100
AcDbSymbolTableRecord
100
AcDbBlockTableRecord
2
DimnDraft3D1
340
0
70
0
0
BLOCK_RECORD
5
22C
100
AcDbSymbolTableRecord
100
AcDbBlockTableRecord
2
DimnDraft3D2
340
0
70
0
0
BLOCK_RECORD
5
23A
100
AcDbSymbolTableRecord
100
AcDbBlockTableRecord
2
DimnDraft3D3
340
0
70
0
0
BLOCK_RECORD
5
248
100
AcDbSymbolTableRecord
100
AcDbBlockTableRecord
2
DimnDraft3D4
340
0
70
0
0
BLOCK_RECORD
5
256
100
AcDbSymbolTableRecord
100
AcDbBlockTableRecord
2
DimnDraft3D5
340
0
70
0
0
BLOCK_RECORD
5
264
100
AcDbSymbolTableRecord
100
AcDbBlockTableRecord
2
DimnDraft3D6
340
0
70
0
0
BLOCK_RECORD
5
273
100
AcDbSymbolTableRecord
100
AcDbBlockTableRecord
2
DimnDraft3D7
340
0
70
0
0
BLOCK_RECORD
5
281
100
AcDbSymbolTableRecord
100
AcDbBlockTableRecord
2
DimnDraft3D8
340
0
70
0
0
ENDTAB
0
ENDSEC
0
SECTION
2
BLOCKS
0
BLOCK
5
20
100
AcDbEntity
8
0
100
AcDbBlockBegin
2
*Model_Space
70
0
10
0
20
0
30
0
3
*Model_Space
0
ENDBLK
5
21
100
AcDbEntity
8
0
100
AcDbBlockEnd
0
BLOCK
5
1C
100
AcDbEntity
8
0
100
AcDbBlockBegin
2
*Paper_Space
70
0
10
0
20
0
30
0
3
*Paper_Space
0
ENDBLK
5
1D
100
AcDbEntity
8
0
100
AcDbBlockEnd
0
BLOCK
5
24
100
AcDbEntity
8
0
100
AcDbBlockBegin
2
*Paper_Space0
70
0
10
0
20
0
30
0
3
*Paper_Space0
0
ENDBLK
5
25
100
AcDbEntity
8
0
100
AcDbBlockEnd
0
BLOCK
5
220
100
AcDbEntity
8
0
100
AcDbBlockBegin
2
LABLE3D_1
70
0
10
0
20
0
30
0
3
LABLE3D_1
0
MTEXT
5
21E
100
AcDbEntity
8
SK2
62
256
6
ByLayer
370
18
48
1
60
0
100
AcDbMText
10
-37.05087
20
-52.526757
30
0
210
0
220
0
230
1
1
\W0.7886;Combination of\PHSK-A/C/T 63
40
3
41
0
44
1.084337
50
0
71
7
72
5
7
iso_b_vert
0
ENDBLK
5
221
100
AcDbEntity
8
0
100
AcDbBlockEnd
0
BLOCK
5
216
100
AcDbEntity
8
0
100
AcDbBlockBegin
2
_CLOSED
70
0
10
0
20
0
30
0
3
_CLOSED
0
LINE
5
218
100
AcDbEntity
8
0
62
256
6
ByLayer
370
-2
48
1
60
0
100
AcDbLine
10
-1
20
0.166667
30
0
11
0
21
0
31
0
39
0
210
0
220
0
230
1
0
LINE
5
219
100
AcDbEntity
8
0
62
256
6
ByLayer
370
-2
48
1
60
0
100
AcDbLine
10
0
20
0
30
0
11
-1
21
-0.166667
31
0
39
0
210
0
220
0
230
1
0
LINE
5
21A
100
AcDbEntity
8
0
62
256
6
ByLayer
370
-2
48
1
60
0
100
AcDbLine
10
-1
20
0.166667
30
0
11
-1
21
-0.166667
31
0
39
0
210
0
220
0
230
1
0
LINE
5
21B
100
AcDbEntity
8
0
62
256
6
ByLayer
370
-2
48
1
60
0
100
AcDbLine
10
0
20
0
30
0
11
-1
21
0
31
0
39
0
210
0
220
0
230
1
0
ENDBLK
5
217
100
AcDbEntity
8
0
100
AcDbBlockEnd
0
BLOCK
5
229
100
AcDbEntity
8
0
100
AcDbBlockBegin
2
DimnDraft3D1
70
0
10
0
20
0
30
0
3
DimnDraft3D1
0
MTEXT
5
223
100
AcDbEntity
8
SK2
62
256
6
ByLayer
370
18
48
1
60
0
100
AcDbMText
10
11.99738
20
46.222458
30
0
210
0
220
0
230
1
1
\W0.6563;26
40
3.000007
41
0
44
1.084337
50
0
71
7
72
5
7
iso_b_vert
0
LINE
5
224
100
AcDbEntity
8
SK2
62
256
6
ByLayer
370
13
48
1
60
0
100
AcDbLine
10
1.3E-05
20
32.5875
30
0
11
1.3E-05
21
48.647457
31
0
39
0
210
0
220
0
230
1
0
LINE
5
225
100
AcDbEntity
8
SK2
62
256
6
ByLayer
370
13
48
1
60
0
100
AcDbLine
10
26.000013
20
32.5875
30
0
11
26.000013
21
48.647457
31
0
39
0
210
0
220
0
230
1
0
LINE
5
226
100
AcDbEntity
8
SK2
62
256
6
ByLayer
370
13
48
1
60
0
100
AcDbLine
10
1.3E-05
20
45.472457
30
0
11
26.000013
21
45.472457
31
0
39
0
210
0
220
0
230
1
0
SOLID
5
227
100
AcDbEntity
8
SK2
62
256
6
ByLayer
370
13
48
1
60
0
100
AcDbTrace
10
1.3E-05
20
45.472457
30
0
11
3.175012
21
45.975327
31
0
12
3.175015
22
44.969586
32
0
13
1.3E-05
23
45.472457
33
0
39
0
210
0
220
0
230
1
0
SOLID
5
228
100
AcDbEntity
8
SK2
62
256
6
ByLayer
370
13
48
1
60
0
100
AcDbTrace
10
26.000013
20
45.472457
30
0
11
22.825015
21
44.969586
31
0
12
22.825012
22
45.975327
32
0
13
26.000013
23
45.472457
33
0
39
0
210
0
220
0
230
1
0
ENDBLK
5
22A
100
AcDbEntity
8
0
100
AcDbBlockEnd
0
BLOCK
5
237
100
AcDbEntity
8
0
100
AcDbBlockBegin
2
DimnDraft3D2
70
0
10
0
20
0
30
0
3
DimnDraft3D2
0
MTEXT
5
22D
100
AcDbEntity
8
SK2
62
256
6
ByLayer
370
18
48
1
60
0
100
AcDbMText
10
-17.002616
20
59.288283
30
0
210
0
220
0
230
1
1
\W0.6563;32
40
2.999994
41
0
44
1.084337
50
0
71
7
72
5
7
iso_b_vert
0
LINE
5
22E
100
AcDbEntity
8
SK2
62
256
6
ByLayer
370
13
48
1
60
0
100
AcDbLine
10
1.3E-05
20
32.499997
30
0
11
1.3E-05
21
61.538279
31
0
39
0
210
0
220
0
230
1
0
LINE
5
22F
100
AcDbEntity
8
SK2
62
256
6
ByLayer
370
13
48
1
60
0
100
AcDbLine
10
-31.999987
20
23.073498
30
0
11
-31.999987
21
61.538279
31
0
39
0
210
0
220
0
230
1
0
LINE
5
230
100
AcDbEntity
8
SK2
62
256
6
ByLayer
370
13
48
1
60
0
100
AcDbLine
10
1.3E-05
20
58.538285
30
0
11
-31.999987
21
58.538285
31
0
39
0
210
0
220
0
230
1
0
LINE
5
231
100
AcDbEntity
8
SK2
62
256
6
ByLayer
370
13
48
1
60
0
100
AcDbLine
10
1.3E-05
20
58.538285
30
0
11
-2.999979
21
58.038286
31
0
39
0
210
0
220
0
230
1
0
LINE
5
232
100
AcDbEntity
8
SK2
62
256
6
ByLayer
370
13
48
1
60
0
100
AcDbLine
10
1.3E-05
20
58.538285
30
0
11
-2.999982
21
59.038284
31
0
39
0
210
0
220
0
230
1
0
LINE
5
233
100
AcDbEntity
8
SK2
62
256
6
ByLayer
370
13
48
1
60
0
100
AcDbLine
10
-2.999979
20
58.038286
30
0
11
-2.999982
21
59.038284
31
0
39
0
210
0
220
0
230
1
0
LINE
5
234
100
AcDbEntity
8
SK2
62
256
6
ByLayer
370
13
48
1
60
0
100
AcDbLine
10
-31.999987
20
58.538285
30
0
11
-28.999994
21
59.038284
31
0
39
0
210
0
220
0
230
1
0
LINE
5
235
100
AcDbEntity
8
SK2
62
256
6
ByLayer
370
13
48
1
60
0
100
AcDbLine
10
-31.999987
20
58.538285
30
0
11
-28.999991
21
58.038286
31
0
39
0
210
0
220
0
230
1
0
LINE
5
236
100
AcDbEntity
8
SK2
62
256
6
ByLayer
370
13
48
1
60
0
100
AcDbLine
10
-28.999994
20
59.038284
30
0
11
-28.999991
21
58.038286
31
0
39
0
210
0
220
0
230
1
0
ENDBLK
5
238
100
AcDbEntity
8
0
100
AcDbBlockEnd
0
BLOCK
5
245
100
AcDbEntity
8
0
100
AcDbBlockBegin
2
DimnDraft3D3
70
0
10
0
20
0
30
0
3
DimnDraft3D3
0
MTEXT
5
23B
100
AcDbEntity
8
SK2
62
256
6
ByLayer
370
18
48
1
60
0
100
AcDbMText
10
-56.33407
20
-3.323684
30
0
210
0
220
0
230
1
1
\W0.7884;%%c 63
40
3
41
0
44
1.084337
50
90
71
7
72
5
7
iso_b_vert
0
LINE
5
23C
100
AcDbEntity
8
SK2
62
256
6
ByLayer
370
13
48
1
60
0
100
AcDbLine
10
-0.999987
20
-31.5
30
0
11
-58.58407
21
-31.5
31
0
39
0
210
0
220
0
230
1
0
LINE
5
23D
100
AcDbEntity
8
SK2
62
256
6
ByLayer
370
13
48
1
60
0
100
AcDbLine
10
-0.999987
20
31.5
30
0
11
-58.58407
21
31.5
31
0
39
0
210
0
220
0
230
1
0
LINE
5
23E
100
AcDbEntity
8
SK2
62
256
6
ByLayer
370
13
48
1
60
0
100
AcDbLine
10
-55.58407
20
-31.5
30
0
11
-55.58407
21
31.5
31
0
39
0
210
0
220
0
230
1
0
LINE
5
23F
100
AcDbEntity
8
SK2
62
256
6
ByLayer
370
13
48
1
60
0
100
AcDbLine
10
-55.58407
20
-31.5
30
0
11
-56.113051
21
-28.500002
31
0
39
0
210
0
220
0
230
1
0
LINE
5
240
100
AcDbEntity
8
SK2
62
256
6
ByLayer
370
13
48
1
60
0
100
AcDbLine
10
-55.58407
20
-31.5
30
0
11
-55.055089
21
-28.499998
31
0
39
0
210
0
220
0
230
1
0
LINE
5
241
100
AcDbEntity
8
SK2
62
256
6
ByLayer
370
13
48
1
60
0
100
AcDbLine
10
-56.113051
20
-28.500002
30
0
11
-55.055089
21
-28.499998
31
0
39
0
210
0
220
0
230
1
0
LINE
5
242
100
AcDbEntity
8
SK2
62
256
6
ByLayer
370
13
48
1
60
0
100
AcDbLine
10
-55.58407
20
31.5
30
0
11
-55.055089
21
28.500002
31
0
39
0
210
0
220
0
230
1
0
LINE
5
243
100
AcDbEntity
8
SK2
62
256
6
ByLayer
370
13
48
1
60
0
100
AcDbLine
10
-55.58407
20
31.5
30
0
11
-56.113051
21
28.499998
31
0
39
0
210
0
220
0
230
1
0
LINE
5
244
100
AcDbEntity
8
SK2
62
256
6
ByLayer
370
13
48
1
60
0
100
AcDbLine
10
-55.055089
20
28.500002
30
0
11
-56.113051
21
28.499998
31
0
39
0
210
0
220
0
230
1
0
ENDBLK
5
246
100
AcDbEntity
8
0
100
AcDbBlockEnd
0
BLOCK
5
253
100
AcDbEntity
8
0
100
AcDbBlockBegin
2
DimnDraft3D4
70
0
10
0
20
0
30
0
3
DimnDraft3D4
0
MTEXT
5
249
100
AcDbEntity
8
SK2
62
256
6
ByLayer
370
18
48
1
60
0
100
AcDbMText
10
-43.285949
20
-3.481579
30
0
210
0
220
0
230
1
1
\W0.8203;%%c 48
40
3
41
0
44
1.084337
50
90
71
7
72
5
7
iso_b_vert
0
LINE
5
24A
100
AcDbEntity
8
SK2
62
256
6
ByLayer
370
13
48
1
60
0
100
AcDbLine
10
-7.799987
20
-24
30
0
11
-45.535949
21
-24
31
0
39
0
210
0
220
0
230
1
0
LINE
5
24B
100
AcDbEntity
8
SK2
62
256
6
ByLayer
370
13
48
1
60
0
100
AcDbLine
10
-7.799987
20
24
30
0
11
-45.535949
21
24
31
0
39
0
210
0
220
0
230
1
0
LINE
5
24C
100
AcDbEntity
8
SK2
62
256
6
ByLayer
370
13
48
1
60
0
100
AcDbLine
10
-42.535949
20
-24
30
0
11
-42.535949
21
24
31
0
39
0
210
0
220
0
230
1
0
LINE
5
24D
100
AcDbEntity
8
SK2
62
256
6
ByLayer
370
13
48
1
60
0
100
AcDbLine
10
-42.535949
20
-24
30
0
11
-43.06493
21
-21.000002
31
0
39
0
210
0
220
0
230
1
0
LINE
5
24E
100
AcDbEntity
8
SK2
62
256
6
ByLayer
370
13
48
1
60
0
100
AcDbLine
10
-42.535949
20
-24
30
0
11
-42.006968
21
-20.999998
31
0
39
0
210
0
220
0
230
1
0
LINE
5
24F
100
AcDbEntity
8
SK2
62
256
6
ByLayer
370
13
48
1
60
0
100
AcDbLine
10
-43.06493
20
-21.000002
30
0
11
-42.006968
21
-20.999998
31
0
39
0
210
0
220
0
230
1
0
LINE
5
250
100
AcDbEntity
8
SK2
62
256
6
ByLayer
370
13
48
1
60
0
100
AcDbLine
10
-42.535949
20
24
30
0
11
-42.006968
21
21.000002
31
0
39
0
210
0
220
0
230
1
0
LINE
5
251
100
AcDbEntity
8
SK2
62
256
6
ByLayer
370
13
48
1
60
0
100
AcDbLine
10
-42.535949
20
24
30
0
11
-43.06493
21
20.999998
31
0
39
0
210
0
220
0
230
1
0
LINE
5
252
100
AcDbEntity
8
SK2
62
256
6
ByLayer
370
13
48
1
60
0
100
AcDbLine
10
-42.006968
20
21.000002
30
0
11
-43.06493
21
20.999998
31
0
39
0
210
0
220
0
230
1
0
ENDBLK
5
254
100
AcDbEntity
8
0
100
AcDbBlockEnd
0
BLOCK
5
261
100
AcDbEntity
8
0
100
AcDbBlockBegin
2
DimnDraft3D5
70
0
10
0
20
0
30
0
3
DimnDraft3D5
0
MTEXT
5
257
100
AcDbEntity
8
SK2
62
256
6
ByLayer
370
18
48
1
60
0
100
AcDbMText
10
19.839925
20
59.288282
30
0
210
0
220
0
230
1
1
\W0.7183;42
40
3
41
0
44
1.084337
50
0
71
7
72
5
7
iso_b_vert
0
LINE
5
258
100
AcDbEntity
8
SK2
62
256
6
ByLayer
370
13
48
1
60
0
100
AcDbLine
10
1.3E-05
20
32.5
30
0
11
1.3E-05
21
61.538282
31
0
39
0
210
0
220
0
230
1
0
LINE
5
259
100
AcDbEntity
8
SK2
62
256
6
ByLayer
370
13
48
1
60
0
100
AcDbLine
10
42.000888
20
27.75
30
0
11
42.000888
21
61.538282
31
0
39
0
210
0
220
0
230
1
0
LINE
5
25A
100
AcDbEntity
8
SK2
62
256
6
ByLayer
370
13
48
1
60
0
100
AcDbLine
10
1.3E-05
20
58.538282
30
0
11
42.000888
21
58.538282
31
0
39
0
210
0
220
0
230
1
0
LINE
5
25B
100
AcDbEntity
8
SK2
62
256
6
ByLayer
370
13
48
1
60
0
100
AcDbLine
10
1.3E-05
20
58.538282
30
0
11
3.000012
21
59.067263
31
0
39
0
210
0
220
0
230
1
0
LINE
5
25C
100
AcDbEntity
8
SK2
62
256
6
ByLayer
370
13
48
1
60
0
100
AcDbLine
10
1.3E-05
20
58.538282
30
0
11
3.000015
21
58.009301
31
0
39
0
210
0
220
0
230
1
0
LINE
5
25D
100
AcDbEntity
8
SK2
62
256
6
ByLayer
370
13
48
1
60
0
100
AcDbLine
10
3.000012
20
59.067263
30
0
11
3.000015
21
58.009301
31
0
39
0
210
0
220
0
230
1
0
LINE
5
25E
100
AcDbEntity
8
SK2
62
256
6
ByLayer
370
13
48
1
60
0
100
AcDbLine
10
42.000888
20
58.538282
30
0
11
39.00089
21
58.009301
31
0
39
0
210
0
220
0
230
1
0
LINE
5
25F
100
AcDbEntity
8
SK2
62
256
6
ByLayer
370
13
48
1
60
0
100
AcDbLine
10
42.000888
20
58.538282
30
0
11
39.000886
21
59.067263
31
0
39
0
210
0
220
0
230
1
0
LINE
5
260
100
AcDbEntity
8
SK2
62
256
6
ByLayer
370
13
48
1
60
0
100
AcDbLine
10
39.00089
20
58.009301
30
0
11
39.000886
21
59.067263
31
0
39
0
210
0
220
0
230
1
0
ENDBLK
5
262
100
AcDbEntity
8
0
100
AcDbBlockEnd
0
BLOCK
5
270
100
AcDbEntity
8
0
100
AcDbBlockBegin
2
DimnDraft3D6
70
0
10
0
20
0
30
0
3
DimnDraft3D6
0
MTEXT
5
265
100
AcDbEntity
8
2
62
256
6
ByLayer
370
18
48
1
60
0
100
AcDbMText
10
31.497385
20
73.919909
30
0
210
0
220
0
230
1
1
\W0.6562;65
40
3
41
0
44
1.084337
50
0
71
7
72
5
7
iso_b_vert
0
LINE
5
267
100
AcDbEntity
8
2
62
256
6
ByLayer
370
18
48
1
60
0
100
AcDbLine
10
1.3E-05
20
33
30
0
11
1.3E-05
21
75.169908
31
0
39
0
210
0
220
0
230
1
0
LINE
5
268
100
AcDbEntity
8
2
62
256
6
ByLayer
370
18
48
1
60
0
100
AcDbLine
10
65.000019
20
38
30
0
11
65.000019
21
75.169908
31
0
39
0
210
0
220
0
230
1
0
LINE
5
269
100
AcDbEntity
8
2
62
256
6
ByLayer
370
18
48
1
60
0
100
AcDbLine
10
1.3E-05
20
73.169909
30
0
11
65.000019
21
73.169909
31
0
39
0
210
0
220
0
230
1
0
LINE
5
26A
100
AcDbEntity
8
2
62
256
6
ByLayer
370
18
48
1
60
0
100
AcDbLine
10
1.3E-05
20
73.169909
30
0
11
3.175012
21
73.587905
31
0
39
0
210
0
220
0
230
1
0
LINE
5
26B
100
AcDbEntity
8
2
62
256
6
ByLayer
370
18
48
1
60
0
100
AcDbLine
10
1.3E-05
20
73.169909
30
0
11
3.175015
21
72.751912
31
0
39
0
210
0
220
0
230
1
0
LINE
5
26C
100
AcDbEntity
8
2
62
256
6
ByLayer
370
18
48
1
60
0
100
AcDbLine
10
3.175012
20
73.587905
30
0
11
3.175015
21
72.751912
31
0
39
0
210
0
220
0
230
1
0
LINE
5
26D
100
AcDbEntity
8
2
62
256
6
ByLayer
370
18
48
1
60
0
100
AcDbLine
10
65.000019
20
73.169909
30
0
11
61.825021
21
72.751912
31
0
39
0
210
0
220
0
230
1
0
LINE
5
26E
100
AcDbEntity
8
2
62
256
6
ByLayer
370
18
48
1
60
0
100
AcDbLine
10
65.000019
20
73.169909
30
0
11
61.825018
21
73.587905
31
0
39
0
210
0
220
0
230
1
0
LINE
5
26F
100
AcDbEntity
8
2
62
256
6
ByLayer
370
18
48
1
60
0
100
AcDbLine
10
61.825021
20
72.751912
30
0
11
61.825018
21
73.587905
31
0
39
0
210
0
220
0
230
1
0
ENDBLK
5
271
100
AcDbEntity
8
0
100
AcDbBlockEnd
0
BLOCK
5
27E
100
AcDbEntity
8
0
100
AcDbBlockBegin
2
DimnDraft3D7
70
0
10
0
20
0
30
0
3
DimnDraft3D7
0
MTEXT
5
274
100
AcDbEntity
8
SK2
62
256
6
ByLayer
370
18
48
1
60
0
100
AcDbMText
10
98.445239
20
14.872368
30
0
210
0
220
0
230
1
1
\W0.6139;31
40
3
41
0
44
1.084337
50
90
71
7
72
5
7
iso_b_vert
0
LINE
5
275
100
AcDbEntity
8
SK2
62
256
6
ByLayer
370
18
48
1
60
0
100
AcDbLine
10
71.761493
20
0
30
0
11
101.195239
21
0
31
0
39
0
210
0
220
0
230
1
0
LINE
5
276
100
AcDbEntity
8
SK2
62
256
6
ByLayer
370
18
48
1
60
0
100
AcDbLine
10
67.000019
20
31
30
0
11
101.195239
21
31
31
0
39
0
210
0
220
0
230
1
0
LINE
5
277
100
AcDbEntity
8
SK2
62
256
6
ByLayer
370
18
48
1
60
0
100
AcDbLine
10
99.195239
20
0
30
0
11
99.195239
21
31
31
0
39
0
210
0
220
0
230
1
0
LINE
5
278
100
AcDbEntity
8
SK2
62
256
6
ByLayer
370
18
48
1
60
0
100
AcDbLine
10
99.195239
20
0
30
0
11
98.777242
21
3.174998
31
0
39
0
210
0
220
0
230
1
0
LINE
5
279
100
AcDbEntity
8
SK2
62
256
6
ByLayer
370
18
48
1
60
0
100
AcDbLine
10
99.195239
20
0
30
0
11
99.613235
21
3.175002
31
0
39
0
210
0
220
0
230
1
0
LINE
5
27A
100
AcDbEntity
8
SK2
62
256
6
ByLayer
370
18
48
1
60
0
100
AcDbLine
10
98.777242
20
3.174998
30
0
11
99.613235
21
3.175002
31
0
39
0
210
0
220
0
230
1
0
LINE
5
27B
100
AcDbEntity
8
SK2
62
256
6
ByLayer
370
18
48
1
60
0
100
AcDbLine
10
99.195239
20
31
30
0
11
99.613235
21
27.825002
31
0
39
0
210
0
220
0
230
1
0
LINE
5
27C
100
AcDbEntity
8
SK2
62
256
6
ByLayer
370
18
48
1
60
0
100
AcDbLine
10
99.195239
20
31
30
0
11
98.777242
21
27.824998
31
0
39
0
210
0
220
0
230
1
0
LINE
5
27D
100
AcDbEntity
8
SK2
62
256
6
ByLayer
370
18
48
1
60
0
100
AcDbLine
10
99.613235
20
27.825002
30
0
11
98.777242
21
27.824998
31
0
39
0
210
0
220
0
230
1
0
ENDBLK
5
27F
100
AcDbEntity
8
0
100
AcDbBlockEnd
0
BLOCK
5
28C
100
AcDbEntity
8
0
100
AcDbBlockBegin
2
DimnDraft3D8
70
0
10
0
20
0
30
0
3
DimnDraft3D8
0
MTEXT
5
282
100
AcDbEntity
8
SK2
62
256
6
ByLayer
370
18
48
1
60
0
100
AcDbMText
10
70.509215
20
53.914076
30
0
210
0
220
0
230
1
1
\W0.8203;%%c 40
40
3
41
0
44
1.084337
50
0
71
7
72
5
7
iso_b_vert
0
LINE
5
283
100
AcDbEntity
8
SK2
62
256
6
ByLayer
370
18
48
1
60
0
100
AcDbLine
10
45.000019
20
32.5
30
0
11
45.000019
21
55.164076
31
0
39
0
210
0
220
0
230
1
0
LINE
5
284
100
AcDbEntity
8
SK2
62
256
6
ByLayer
370
18
48
1
60
0
100
AcDbLine
10
85.000019
20
32.5
30
0
11
85.000019
21
55.164076
31
0
39
0
210
0
220
0
230
1
0
LINE
5
285
100
AcDbEntity
8
SK2
62
256
6
ByLayer
370
18
48
1
60
0
100
AcDbLine
10
45.000019
20
53.164076
30
0
11
85.000019
21
53.164076
31
0
39
0
210
0
220
0
230
1
0
LINE
5
286
100
AcDbEntity
8
SK2
62
256
6
ByLayer
370
18
48
1
60
0
100
AcDbLine
10
45.000019
20
53.164076
30
0
11
48.175018
21
53.582073
31
0
39
0
210
0
220
0
230
1
0
LINE
5
287
100
AcDbEntity
8
SK2
62
256
6
ByLayer
370
18
48
1
60
0
100
AcDbLine
10
45.000019
20
53.164076
30
0
11
48.175021
21
52.746079
31
0
39
0
210
0
220
0
230
1
0
LINE
5
288
100
AcDbEntity
8
SK2
62
256
6
ByLayer
370
18
48
1
60
0
100
AcDbLine
10
48.175018
20
53.582073
30
0
11
48.175021
21
52.746079
31
0
39
0
210
0
220
0
230
1
0
LINE
5
289
100
AcDbEntity
8
SK2
62
256
6
ByLayer
370
18
48
1
60
0
100
AcDbLine
10
85.000019
20
53.164076
30
0
11
81.825021
21
52.746079
31
0
39
0
210
0
220
0
230
1
0
LINE
5
28A
100
AcDbEntity
8
SK2
62
256
6
ByLayer
370
18
48
1
60
0
100
AcDbLine
10
85.000019
20
53.164076
30
0
11
81.825018
21
53.582073
31
0
39
0
210
0
220
0
230
1
0
LINE
5
28B
100
AcDbEntity
8
SK2
62
256
6
ByLayer
370
18
48
1
60
0
100
AcDbLine
10
81.825021
20
52.746079
30
0
11
81.825018
21
53.582073
31
0
39
0
210
0
220
0
230
1
0
ENDBLK
5
28D
100
AcDbEntity
8
0
100
AcDbBlockEnd
0
ENDSEC
0
SECTION
2
ENTITIES
0
ARC
5
13C
100
AcDbEntity
8
SK1
62
256
6
ByLayer
370
18
48
1
60
0
100
AcDbCircle
39
0
10
0.495072
20
24.615
30
0
40
0.6
210
1.22460635382238E-16
220
0
230
-1
100
AcDbArc
50
214.397094
51
270
0
ARC
5
13D
100
AcDbEntity
8
SK1
62
256
6
ByLayer
370
18
48
1
60
0
100
AcDbCircle
39
0
10
-0.495072
20
-24.615
30
0
40
0.6
210
0
220
0
230
1
100
AcDbArc
50
34.397094
51
90
0
ARC
5
13E
100
AcDbEntity
8
SK1
62
256
6
ByLayer
370
18
48
1
60
0
100
AcDbCircle
39
0
10
-30.799987
20
21.573501
30
0
40
1.2
210
0
220
0
230
1
100
AcDbArc
50
92.862405
51
180
0
ARC
5
13F
100
AcDbEntity
8
SK1
62
256
6
ByLayer
370
18
48
1
60
0
100
AcDbCircle
39
0
10
-30.799987
20
-21.573501
30
0
40
1.2
210
0
220
0
230
1
100
AcDbArc
50
180
51
267.137595
0
ARC
5
140
100
AcDbEntity
8
1
62
256
6
ByLayer
370
18
48
1
60
0
100
AcDbCircle
39
0
10
-19.515013
20
27.875
30
0
40
0.4
210
1.22460635382238E-16
220
0
230
-1
100
AcDbArc
50
180
51
270
0
ARC
5
141
100
AcDbEntity
8
1
62
256
6
ByLayer
370
18
48
1
60
0
100
AcDbCircle
39
0
10
-16.485013
20
27.875
30
0
40
0.4
210
1.22460635382238E-16
220
0
230
-1
100
AcDbArc
50
270
51
0
0
ARC
5
142
100
AcDbEntity
8
1
62
256
6
ByLayer
370
18
48
1
60
0
100
AcDbCircle
39
0
10
16.485013
20
-27.875
30
0
40
0.4
210
0
220
0
230
1
100
AcDbArc
50
90
51
180
0
ARC
5
143
100
AcDbEntity
8
1
62
256
6
ByLayer
370
18
48
1
60
0
100
AcDbCircle
39
0
10
19.515013
20
-27.875
30
0
40
0.4
210
0
220
0
230
1
100
AcDbArc
50
0
51
90
0
ARC
5
144
100
AcDbEntity
8
1
62
256
6
ByLayer
370
18
48
1
60
0
100
AcDbCircle
39
0
10
27.000013
20
27.25
30
0
40
1
210
0
220
0
230
1
100
AcDbArc
50
180
51
270
0
ARC
5
145
100
AcDbEntity
8
1
62
256
6
ByLayer
370
18
48
1
60
0
100
AcDbCircle
39
0
10
27.000013
20
-27.25
30
0
40
1
210
0
220
0
230
1
100
AcDbArc
50
90
51
180
0
ARC
5
146
100
AcDbEntity
8
1
62
256
6
ByLayer
370
18
48
1
60
0
100
AcDbCircle
39
0
10
-12.177418
20
27.85
30
0
40
8
210
1.22460635382238E-16
220
0
230
-1
100
AcDbArc
50
270
51
334.612067
0
ARC
5
147
100
AcDbEntity
8
1
62
256
6
ByLayer
370
18
48
1
60
0
100
AcDbCircle
39
0
10
-42.002686
20
27.25
30
0
40
1
210
0
220
0
230
-1
100
AcDbArc
50
209.636163
51
270
0
ELLIPSE
5
148
100
AcDbEntity
8
1
62
256
6
ByLayer
370
18
48
1
60
0
100
AcDbEllipse
10
55.454827
20
-25.641105
30
0
11
-7.09539657896034
21
14.3406889718096
31
0
210
0
220
0
230
1
40
1
41
-0.0231255681928258
42
0.0252227812617726
0
ELLIPSE
5
149
100
AcDbEntity
8
1
62
256
6
ByLayer
370
18
48
1
60
0
100
AcDbEllipse
10
63.300013
20
-23.423745
30
0
11
17.2323185488298
21
21.7125996987671
31
0
210
0
220
0
230
1
40
0.629889
41
0.443324852458797
42
0.504236909227579
0
ELLIPSE
5
14A
100
AcDbEntity
8
1
62
256
6
ByLayer
370
18
48
1
60
0
100
AcDbEllipse
10
51.914561
20
-27.047179
30
0
11
-3.24722796401976E-15
21
-17.6776695296637
31
0
210
9.51055152141265E-17
220
-1.3684555315672E-48
230
1
40
0.707107
41
-2.82307006510083
42
-2.62942928016361
0
ELLIPSE
5
14B
100
AcDbEntity
8
1
62
256
6
ByLayer
370
18
48
1
60
0
100
AcDbEllipse
10
63.300013
20
-23.423745
30
0
11
17.2323185400887
21
21.7125996620237
31
0
210
0
220
0
230
1
40
0.629889
41
0.443324853082013
42
0.504236909892641
0
ELLIPSE
5
14C
100
AcDbEntity
8
1
62
256
6
ByLayer
370
18
48
1
60
0
100
AcDbEllipse
10
51.914561
20
-27.047179
30
0
11
3.24722796401976E-15
21
-17.6776695296637
31
-3.08829288535818E-31
210
-9.51055152141265E-17
220
1.3684555315672E-48
230
-1
40
0.707107
41
2.62942928016361
42
2.82307006510083
0
POINT
5
6C
100
AcDbEntity
8
81
62
256
6
ByLayer
370
18
48
1
60
0
100
AcDbPoint
10
65.000019
20
31
30
0
39
0
210
0
220
0
230
1
50
360
0
POINT
5
6E
100
AcDbEntity
8
80
62
256
6
ByLayer
370
18
48
1
60
0
100
AcDbPoint
10
0
20
0
30
0
39
0
210
0
220
0
230
1
50
360
0
SPLINE
5
14D
100
AcDbEntity
8
1
62
256
6
ByLayer
370
18
48
1
60
0
100
AcDbSpline
70
4
71
3
72
29
73
25
40
0
40
0
40
0
40
0
40
0.0304706643282696
40
0.0739855655105012
40
0.117328475744764
40
0.157480488805096
40
0.197744691296923
40
0.238060034839145
40
0.278349117023815
40
0.318522056239563
40
0.363548681929761
40
0.408699211819965
40
0.45393771856183
40
0.499204946014711
40
0.544421855898574
40
0.589492867437043
40
0.639934461132272
40
0.69043481127683
40
0.740945580222047
40
0.791401397383983
40
0.843524971503266
40
0.895693070806009
40
0.947867621378739
40
1
40
1
40
1
40
1
41
1
10
45.1959809471123
20
30.6959618942744
30
0
41
1
10
45.1959895822654
20
30.6959704322799
30
0
41
1
10
45.1960949178111
20
30.6960748328262
30
0
41
1
10
45.1965700691255
20
30.6965459927809
30
0
41
1
10
45.1975334917576
20
30.6975012774004
30
0
41
1
10
45.1988816826127
20
30.6988381206163
30
0
41
1
10
45.2005554900739
20
30.7004979688164
30
0
41
1
10
45.2025699159794
20
30.7024957843612
30
0
41
1
10
45.2049028069584
20
30.7048096934582
30
0
41
1
10
45.2076438011587
20
30.7075287073356
30
0
41
1
10
45.2108234365539
20
30.7106833066059
30
0
41
1
10
45.2144546872181
20
30.7142865914502
30
0
41
1
10
45.218391511195
20
30.7181938077748
30
0
41
1
10
45.2226020620568
20
30.7223735081262
30
0
41
1
10
45.2270545844829
20
30.7267943312507
30
0
41
1
10
45.2319124293809
20
30.7316186819504
30
0
41
1
10
45.2371877715193
20
30.7368589951363
30
0
41
1
10
45.2428859769735
20
30.7425209146833
30
0
41
1
10
45.2487873697918
20
30.7483863891911
30
0
41
1
10
45.2549343847687
20
30.7544977957325
30
0
41
1
10
45.2613152209513
20
30.7608436698556
30
0
41
1
10
45.2679185702557
20
30.7674129616493
30
0
41
1
10
45.2746580906289
20
30.7741199146224
30
0
41
1
10
45.2792268650469
20
30.7786681778642
30
0
41
1
10
45.2815305505943
20
30.7809618943233
30
0
0
SPLINE
5
14E
100
AcDbEntity
8
1
62
256
6
ByLayer
370
18
48
1
60
0
100
AcDbSpline
70
4
71
3
72
25
73
21
40
0
40
0
40
0
40
0
40
0.0569503691896748
40
0.113904080159259
40
0.170858421545269
40
0.227809650442408
40
0.284755836072364
40
0.34170446431612
40
0.39865325380843
40
0.455599659332086
40
0.512905345841287
40
0.570213463609776
40
0.627521399601703
40
0.684826838223107
40
0.737328213009232
40
0.789830661059506
40
0.842331679458511
40
0.894887661280988
40
0.947445212013181
40
1
40
1
40
1
40
1
41
1
10
60.4283622738892
20
31.425
30
0
41
1
10
60.4461086245385
20
31.4277231107649
30
0
41
1
10
60.4816139825517
20
31.4330083773882
30
0
41
1
10
60.5349109443533
20
31.4404435626108
30
0
41
1
10
60.5882363036704
20
31.4474143148115
30
0
41
1
10
60.6415821995486
20
31.4539389606061
30
0
41
1
10
60.6949438781644
20
31.4600375091915
30
0
41
1
10
60.7483177863655
20
31.4657145930989
30
0
41
1
10
60.8017003286573
20
31.4709764771143
30
0
41
1
10
60.8551988440894
20
31.475838765486
30
0
41
1
10
60.9088101927531
20
31.4803049306307
30
0
41
1
10
60.9625304468804
20
31.4843650011438
30
0
41
1
10
61.0162415763019
20
31.4880015384914
30
0
41
1
10
61.0684371423703
20
31.4911172190039
30
0
41
1
10
61.1191138268478
20
31.4937455974859
30
0
41
1
10
61.1682675342501
20
31.4959053586693
30
0
41
1
10
61.2174081375705
20
31.4976525968518
30
0
41
1
10
61.266527829035
20
31.498967587633
30
0
41
1
10
61.3156147595152
20
31.4998053578811
30
0
41
1
10
61.3482900878969
20
31.4999939153713
30
0
41
1
10
61.3646163504924
20
31.5
30
0
0
SPLINE
5
14F
100
AcDbEntity
8
1
62
256
6
ByLayer
370
18
48
1
60
0
100
AcDbSpline
70
4
71
3
72
31
73
27
40
0
40
0
40
0
40
0
40
0.0415873295200745
40
0.083175477421993
40
0.124764017350461
40
0.166352536889455
40
0.207940637738295
40
0.249527935889037
40
0.291115553424422
40
0.332704045332782
40
0.37429295754002
40
0.415881849681428
40
0.457470295283544
40
0.49905788194746
40
0.540645780329794
40
0.582234607385998
40
0.623823882552373
40
0.665413138431333
40
0.707001920977624
40
0.748589789686025
40
0.790490676209519
40
0.832392565189226
40
0.874294939797381
40
0.916197295853251
40
0.958099142019491
40
1
40
1
40
1
40
1
41
1
10
57.2851818321337
20
30.7809618943233
30
0
41
1
10
57.3281494934572
20
30.7919400013505
30
0
41
1
10
57.4141400779073
20
30.8137336761839
30
0
41
1
10
57.5432907430336
20
30.845937718225
30
0
41
1
10
57.6726044779875
20
30.8776505947968
30
0
41
1
10
57.8020785898721
20
30.9088688737784
30
0
41
1
10
57.9317101852966
20
30.9395886659902
30
0
41
1
10
58.061497974676
20
30.9698065715764
30
0
41
1
10
58.1914416165002
20
30.9995193250086
30
0
41
1
10
58.3215405709628
20
31.0287239191865
30
0
41
1
10
58.4517926289817
20
31.0574169601277
30
0
41
1
10
58.5821945183094
20
31.0855948053632
30
0
41
1
10
58.7127429665878
20
31.1132538121857
30
0
41
1
10
58.8434363433857
20
31.1403906849754
30
0
41
1
10
58.9742740816101
20
31.1670022885563
30
0
41
1
10
59.1052554064573
20
31.1930858036119
30
0
41
1
10
59.2363777864729
20
31.2186380482791
30
0
41
1
10
59.367637526949
20
31.2436555980128
30
0
41
1
10
59.4990309336875
20
31.2681350282447
30
0
41
1
10
59.6308857008563
20
31.2921332351721
30
0
41
1
10
59.7632022053397
20
31.3156424835615
30
0
41
1
10
59.8959805369712
20
31.3386553332873
30
0
41
1
10
60.0288878247077
20
31.3611102089424
30
0
41
1
10
60.161919791896
20
31.3830038198951
30
0
41
1
10
60.2950725220181
20
31.4043332794024
30
0
41
1
10
60.3839193866734
20
31.4181741077536
30
0
41
1
10
60.4283622738892
20
31.425
30
0
0
SPLINE
5
150
100
AcDbEntity
8
1
62
256
6
ByLayer
370
18
48
1
60
0
100
AcDbSpline
70
4
71
3
72
38
73
34
40
0
40
0
40
0
40
0
40
0.0280624111240487
40
0.0561907595988438
40
0.0842811520239622
40
0.112291670306769
40
0.131675211058268
40
0.151116325500009
40
0.170538816677485
40
0.18989688209723
40
0.209441815500432
40
0.229079032983711
40
0.248713689885321
40
0.268255115013562
40
0.290834495234439
40
0.313480316085728
40
0.336081665245261
40
0.363249317047849
40
0.390509905786727
40
0.417813721807244
40
0.445040504097153
40
0.47959291902471
40
0.514206740209112
40
0.548895006374315
40
0.583631425910627
40
0.618356507735331
40
0.652983267683273
40
0.707656711922119
40
0.762369682380376
40
0.81710146231747
40
0.871800572776462
40
0.944545393773376
40
1
40
1
40
1
40
1
41
1
10
56.6263183008314
20
30.7809618943233
30
0
41
1
10
56.6246296877986
20
30.7794660693533
30
0
41
1
10
56.6213525126631
20
30.7764266317772
30
0
41
1
10
56.6167175231293
20
30.7717356312585
30
0
41
1
10
56.612461515461
20
30.7669128637823
30
0
41
1
10
56.609050703495
20
30.7624781193671
30
0
41
1
10
56.6064087808548
20
30.7584820927974
30
0
41
1
10
56.6044134418617
20
30.7549616144781
30
0
41
1
10
56.6027623060182
20
30.751422629522
30
0
41
1
10
56.6014935564848
20
30.7478792640259
30
0
41
1
10
56.6006712246161
20
30.744356500956
30
0
41
1
10
56.600306093742
20
30.740884755234
30
0
41
1
10
56.6003992224481
20
30.7375110077812
30
0
41
1
10
56.6009914356565
20
30.7341072668139
30
0
41
1
10
56.6021753055494
20
30.7307356565694
30
0
41
1
10
56.6039563160669
20
30.7274402423272
30
0
41
1
10
56.6063764733788
20
30.7241860211414
30
0
41
1
10
56.6094857635948
20
30.7210368720907
30
0
41
1
10
56.6132863425727
20
30.7180345256897
30
0
41
1
10
56.61750222683
20
30.7153429406051
30
0
41
1
10
56.6224616080665
20
30.7127210988213
30
0
41
1
10
56.6281833270349
20
30.7102098450195
30
0
41
1
10
56.6346924269301
20
30.7078535968764
30
0
41
1
10
56.6415006182798
20
30.7058116132787
30
0
41
1
10
56.6485494481057
20
30.7040482071494
30
0
41
1
10
56.655782520251
20
30.7025297753913
30
0
41
1
10
56.6645773193324
20
30.7009641800987
30
0
41
1
10
56.6750062281453
20
30.699461092505
30
0
41
1
10
56.687143197698
20
30.698150497893
30
0
41
1
10
56.6994839245342
20
30.6971883537347
30
0
41
1
10
56.7133573652932
20
30.6964502521264
30
0
41
1
10
56.7274538231349
20
30.69603952297
30
0
41
1
10
56.7374274770201
20
30.6959571946364
30
0
41
1
10
56.741760856122
20
30.695961897053
30
0
0
SPLINE
5
151
100
AcDbEntity
8
1
62
256
6
ByLayer
370
18
48
1
60
0
100
AcDbSpline
70
4
71
3
72
13
73
9
40
0
40
0
40
0
40
0
40
0.166655895385702
40
0.333312293668031
40
0.499968101828385
40
0.666645232266318
40
0.833322980959062
40
1
40
1
40
1
40
1
41
1
10
56.6263183008314
20
30.7809618943233
30
0
41
1
10
56.6669704353396
20
30.8171334373417
30
0
41
1
10
56.7484236219546
20
30.8893501755254
30
0
41
1
10
56.8710433006338
20
30.9973025473632
30
0
41
1
10
56.994127399102
20
31.1048666978233
30
0
41
1
10
57.1176886230847
20
31.2120289368147
30
0
41
1
10
57.2417414934269
20
31.3187737724349
30
0
41
1
10
57.3247820625701
20
31.389639946275
30
0
41
1
10
57.3663857139982
20
31.425
30
0
0
SPLINE
5
152
100
AcDbEntity
8
1
62
256
6
ByLayer
370
18
48
1
60
0
100
AcDbSpline
70
4
71
3
72
36
73
32
40
0
40
0
40
0
40
0
40
0.0267557926030454
40
0.0535713493494635
40
0.0803508341244848
40
0.10705731552017
40
0.131312143067981
40
0.155615025955141
40
0.179832589613737
40
0.204322615872495
40
0.228915829750425
40
0.253396464761162
40
0.274218672101815
40
0.295103847920112
40
0.315946572744745
40
0.340589583261478
40
0.365316925795539
40
0.39008354396639
40
0.41478027956777
40
0.452526679171577
40
0.490359562192801
40
0.52828110125235
40
0.566223292775767
40
0.604061601377055
40
0.653181615147406
40
0.702335527599752
40
0.751505593287599
40
0.800647648075386
40
0.86708941952921
40
0.933549566641457
40
1
40
1
40
1
40
1
41
1
10
57.3663857139982
20
31.425
30
0
41
1
10
57.3678757328892
20
31.4262604646588
30
0
41
1
10
57.3707734426561
20
31.428824475703
30
0
41
1
10
57.3748900103341
20
31.4327886532572
30
0
41
1
10
57.3786917832461
20
31.4368762293465
30
0
41
1
10
57.3820081130486
20
31.440950505297
30
0
41
1
10
57.3847952439033
20
31.4449921086871
30
0
41
1
10
57.387021462703
20
31.4489676181321
30
0
41
1
10
57.3887056635245
20
31.4529885921898
30
0
41
1
10
57.3897135630336
20
31.4570018939975
30
0
41
1
10
57.3900204970031
20
31.4609360102308
30
0
41
1
10
57.3896253627546
20
31.4645215714626
30
0
41
1
10
57.3886285735751
20
31.4677158103195
30
0
41
1
10
57.3872241001732
20
31.4705477739009
30
0
41
1
10
57.3852913908858
20
31.4733405408767
30
0
41
1
10
57.382795982054
20
31.47604448891
30
0
41
1
10
57.379743266521
20
31.4786291675568
30
0
41
1
10
57.3763440369712
20
31.4809647284808
30
0
41
1
10
57.3720165803719
20
31.4834403561517
30
0
41
1
10
57.3666619365408
20
31.4859511018728
30
0
41
1
10
57.3601998306941
20
31.4883885800718
30
0
41
1
10
57.3534058089202
20
31.4904716747967
30
0
41
1
10
57.3463633822732
20
31.4922488164942
30
0
41
1
10
57.3384219794926
20
31.4939249491929
30
0
41
1
10
57.3295679031916
20
31.4954638501106
30
0
41
1
10
57.3197702279849
20
31.4968056734499
30
0
41
1
10
57.3098061004137
20
31.4978650743025
30
0
41
1
10
57.2985274793545
20
31.4987773852868
30
0
41
1
10
57.2859136610195
20
31.4994845323443
30
0
41
1
10
57.2719403855893
20
31.4999114677432
30
0
41
1
10
57.2625458076268
20
31.5000046321027
30
0
41
1
10
57.2578268945129
20
31.5
30
0
0
SPLINE
5
153
100
AcDbEntity
8
1
62
256
6
ByLayer
370
18
48
1
60
0
100
AcDbSpline
70
4
71
3
72
26
73
22
40
0
40
0
40
0
40
0
40
0.0413037723571767
40
0.0826256089148604
40
0.123960828470467
40
0.165296343587692
40
0.206611593607472
40
0.258171578617491
40
0.309743169912547
40
0.361317539065945
40
0.412881312880153
40
0.466624104530969
40
0.520375474886116
40
0.574127808310223
40
0.627871913442266
40
0.689786878004104
40
0.751707532871259
40
0.813622561984106
40
0.875746707113747
40
0.937876620178026
40
1
40
1
40
1
40
1
41
1
10
56.8199796937093
20
31.5
30
0
41
1
10
56.8142340388197
20
31.4999959529192
30
0
41
1
10
56.802692543044
20
31.4998581482164
30
0
41
1
10
56.7852214755599
20
31.4992452098732
30
0
41
1
10
56.7676280095994
20
31.4982764232486
30
0
41
1
10
56.7499369230889
20
31.4969834912379
30
0
41
1
10
56.7307025762237
20
31.4952738846985
30
0
41
1
10
56.7099176445876
20
31.4930954907422
30
0
41
1
10
56.6875732888585
20
31.4903784072899
30
0
41
1
10
56.6651611632671
20
31.4873043775079
30
0
41
1
10
56.6423801059069
20
31.4838503802726
30
0
41
1
10
56.6192384763431
20
31.4800233792458
30
0
41
1
10
56.5957415763577
20
31.4758169652055
30
0
41
1
10
56.5722163787556
20
31.4712953142211
30
0
41
1
10
56.5474790757607
20
31.4662251282189
30
0
41
1
10
56.5215335913895
20
31.4605613050955
30
0
41
1
10
56.4943869845999
20
31.4542486260752
30
0
41
1
10
56.4672121692196
20
31.4475440212726
30
0
41
1
10
56.4400191711976
20
31.4404491604038
30
0
41
1
10
56.4128170958932
20
31.4329569039103
30
0
41
1
10
56.3947068305785
20
31.427696165882
30
0
41
1
10
56.3856574757111
20
31.425
30
0
0
SPLINE
5
154
100
AcDbEntity
8
1
62
256
6
ByLayer
370
18
48
1
60
0
100
AcDbSpline
70
4
71
3
72
22
73
18
40
0
40
0
40
0
40
0
40
0.066626168426018
40
0.133253277801706
40
0.19988072642288
40
0.266507884266632
40
0.333134093343854
40
0.399759926812783
40
0.466386632296412
40
0.533013653078587
40
0.599640405198328
40
0.666266277781928
40
0.733012460794878
40
0.799759454145963
40
0.866506741265169
40
0.93325377941416
40
1
40
1
40
1
40
1
41
1
10
56.3856574757111
20
31.425
30
0
41
1
10
56.3417266012757
20
31.4119052817312
30
0
41
1
10
56.2539316148669
20
31.3855488700036
30
0
41
1
10
56.1224402769223
20
31.3455116315426
30
0
41
1
10
55.9911513934718
20
31.3049779800858
30
0
41
1
10
55.8600670612638
20
31.2639522734642
30
0
41
1
10
55.7291886944632
20
31.2224392056787
30
0
41
1
10
55.5985163884042
20
31.1804428972282
30
0
41
1
10
55.4680500865068
20
31.1379675703993
30
0
41
1
10
55.3377904467808
20
31.0950176260707
30
0
41
1
10
55.2077392877045
20
31.0515978466541
30
0
41
1
10
55.0778192897576
20
31.0076862585036
30
0
41
1
10
54.9480307743925
20
30.9632860107488
30
0
41
1
10
54.8183739250384
20
30.9184002547526
30
0
41
1
10
54.6889274068963
20
30.873060230921
30
0
41
1
10
54.559692653642
20
30.8272702061129
30
0
41
1
10
54.4736776157431
20
30.7964475092653
30
0
41
1
10
54.4307056267969
20
30.7809618943233
30
0
0
SPLINE
5
155
100
AcDbEntity
8
1
62
256
6
ByLayer
370
18
48
1
60
0
100
AcDbSpline
70
4
71
3
72
27
73
23
40
0
40
0
40
0
40
0
40
0.0670055616534624
40
0.134031035482076
40
0.201056661843111
40
0.268062431557025
40
0.321675342883947
40
0.375306512387661
40
0.428941619222238
40
0.48256866461488
40
0.536178115853362
40
0.582956595928424
40
0.629766879215681
40
0.676586065019968
40
0.723396673507117
40
0.770187156847153
40
0.816952428912053
40
0.855939444863597
40
0.894987047441213
40
0.934045100918581
40
0.973078310707619
40
1
40
1
40
1
40
1
41
1
10
54.4307056267969
20
30.7809618943233
30
0
41
1
10
54.421986317681
20
30.7778201570189
30
0
41
1
10
54.4045396086925
20
30.7716759612114
30
0
41
1
10
54.3783443225315
20
30.7628784272974
30
0
41
1
10
54.352147314057
20
30.7545046642194
30
0
41
1
10
54.3277093746431
20
30.747088412914
30
0
41
1
10
54.3050384748185
20
30.740537815932
30
0
41
1
10
54.284133973956
20
30.7347768133962
30
0
41
1
10
54.2632642602905
20
30.7293149476922
30
0
41
1
10
54.2424444904975
20
30.7241658583912
30
0
41
1
10
54.2225684741078
20
30.719548853216
30
0
41
1
10
54.203632930623
20
30.7154238135077
30
0
41
1
10
54.1856357021758
20
30.7117638302185
30
0
41
1
10
54.1677132797977
20
30.7084030111659
30
0
41
1
10
54.1498882893222
20
30.7053674246659
30
0
41
1
10
54.13218318279
20
30.7026826589692
30
0
41
1
10
54.1155921290176
20
30.7005048761758
30
0
41
1
10
54.100096978445
20
30.6987768993404
30
0
41
1
10
54.0856888178313
20
30.6974658827061
30
0
41
1
10
54.071440651703
20
30.6965183368606
30
0
41
1
10
54.0588394175424
20
30.6960224680257
30
0
41
1
10
54.0510572813212
20
30.6959532033029
30
0
41
1
10
54.0479002373736
20
30.6959618971257
30
0
0
SPLINE
5
156
100
AcDbEntity
8
1
62
256
6
ByLayer
370
18
48
1
60
0
100
AcDbSpline
70
4
71
3
72
11
73
7
40
0
40
0
40
0
40
0
40
0.249998546865872
40
0.499997103610211
40
0.749998547678361
40
1
40
1
40
1
40
1
41
1
10
54.5853573552667
20
31.4250000000004
30
0
41
1
10
54.5347501046675
20
31.3714804752787
30
0
41
1
10
54.4336432888305
20
31.2643653635996
30
0
41
1
10
54.2823107791467
20
31.1034598502298
30
0
41
1
10
54.1312902783776
20
30.9423336201242
30
0
41
1
10
54.0308086439024
20
30.8347761316083
30
0
41
1
10
53.9806183736562
20
30.7809618943233
30
0
0
SPLINE
5
157
100
AcDbEntity
8
1
62
256
6
ByLayer
370
18
48
1
60
0
100
AcDbSpline
70
4
71
3
72
32
73
28
40
0
40
0
40
0
40
0
40
0.0634399937808602
40
0.126900660383639
40
0.190322652478011
40
0.23909344474569
40
0.287928798075465
40
0.336729212919243
40
0.385452292454899
40
0.417910895569113
40
0.450422370281078
40
0.482911235391859
40
0.515338953054625
40
0.548149165897139
40
0.581087841410279
40
0.61398197542016
40
0.646731196576761
40
0.680448448356674
40
0.714272226700555
40
0.747985334760576
40
0.781600419044212
40
0.815317717894674
40
0.848963685325269
40
0.886628081717265
40
0.924418973031972
40
0.96226296687197
40
1
40
1
40
1
40
1
41
1
10
54.5241110584084
20
31.5
30
0
41
1
10
54.5275842087423
20
31.500005335324
30
0
41
1
10
54.5344598131118
20
31.4998945750425
30
0
41
1
10
54.5445785738509
20
31.4993871963196
30
0
41
1
10
54.5536772847896
20
31.4985402318762
30
0
41
1
10
54.5617849019075
20
31.497426348716
30
0
41
1
10
54.5689279075761
20
31.4961058829893
30
0
41
1
10
54.5757844839554
20
31.4944329600627
30
0
41
1
10
54.5815658695986
20
31.4925952379774
30
0
41
1
10
54.5863460187538
20
31.490701306456
30
0
41
1
10
54.59021843197
20
31.4888589650121
30
0
41
1
10
54.5938247537292
20
31.4867785344302
30
0
41
1
10
54.5971337915077
20
31.4844350264169
30
0
41
1
10
54.6000834051524
20
31.4817954991252
30
0
41
1
10
54.6026127540589
20
31.4788451598564
30
0
41
1
10
54.604651013769
20
31.4755963306221
30
0
41
1
10
54.6061422676172
20
31.4720174696683
30
0
41
1
10
54.6069812174097
20
31.4680979821588
30
0
41
1
10
54.6071483358729
20
31.4638835804507
30
0
41
1
10
54.60662756139
20
31.4594655614251
30
0
41
1
10
54.6054055431652
20
31.4548982426059
30
0
41
1
10
54.6035721101316
20
31.4502494934918
30
0
41
1
10
54.6010901868756
20
31.4453782273464
30
0
41
1
10
54.5979453784859
20
31.4403259013184
30
0
41
1
10
54.5941706181911
20
31.4351308419193
30
0
41
1
10
54.5899609335313
20
31.4300089849971
30
0
41
1
10
54.5869311611959
20
31.4266581919868
30
0
41
1
10
54.5853573552667
20
31.4250000000004
30
0
0
SPLINE
5
158
100
AcDbEntity
8
1
62
256
6
ByLayer
370
18
48
1
60
0
100
AcDbSpline
70
4
71
3
72
24
73
20
40
0
40
0
40
0
40
0
40
0.0686681501438173
40
0.137362263773589
40
0.206057246029935
40
0.274726581109661
40
0.34340467345119
40
0.412110777293248
40
0.480813132552706
40
0.549486111054839
40
0.607623432421423
40
0.66580834660235
40
0.723995832792476
40
0.782155000722837
40
0.840270711547679
40
0.880117297529752
40
0.919962744978416
40
0.959982471299729
40
1
40
1
40
1
40
1
41
1
10
53.9088331352524
20
31.425
30
0
41
1
10
53.9161860846661
20
31.4279084530576
30
0
41
1
10
53.9309040058398
20
31.4335841885158
30
0
41
1
10
53.9530178521277
20
31.4416724655257
30
0
41
1
10
53.9751440709881
20
31.4493317388427
30
0
41
1
10
53.9972664660087
20
31.4565586345581
30
0
41
1
10
54.0193718973009
20
31.4633516306659
30
0
41
1
10
54.0414455499879
20
31.4696919881423
30
0
41
1
10
54.0634640232509
20
31.475557214377
30
0
41
1
10
54.0842809854611
20
31.4806478879878
30
0
41
1
10
54.1038961956186
20
31.4850365835237
30
0
41
1
10
54.1223094718541
20
31.4887745187601
30
0
41
1
10
54.1406091140171
20
31.4920696667218
30
0
41
1
10
54.1587553780188
20
31.4948787845367
30
0
41
1
10
54.1748327348359
20
31.4969222235526
30
0
41
1
10
54.1888740380774
20
31.4983411624213
30
0
41
1
10
54.2009406345066
20
31.4992660158025
30
0
41
1
10
54.2128729755833
20
31.4998606186998
30
0
41
1
10
54.220703184997
20
31.4999950361408
30
0
41
1
10
54.2245870417505
20
31.5
30
0
0
SPLINE
5
159
100
AcDbEntity
8
1
62
256
6
ByLayer
370
18
48
1
60
0
100
AcDbSpline
70
4
71
3
72
19
73
15
40
0
40
0
40
0
40
0
40
0.083308790128694
40
0.166618115923546
40
0.249927423291662
40
0.333236188292831
40
0.416545174773547
40
0.499854738238998
40
0.583164282056277
40
0.666473241743854
40
0.749854632382875
40
0.833236645636775
40
0.916618637935896
40
1
40
1
40
1
40
1
41
1
10
52.3745662192236
20
30.7809618943233
30
0
41
1
10
52.4167110807209
20
30.7996559313763
30
0
41
1
10
52.5010774870773
20
30.8369136024415
30
0
41
1
10
52.6278562157889
20
30.8924106262428
30
0
41
1
10
52.7548646609326
20
30.9475120063001
30
0
41
1
10
52.8821030835726
20
31.0022137180042
30
0
41
1
10
53.0095722424948
20
31.0565113204382
30
0
41
1
10
53.137272822143
20
31.1104004389325
30
0
41
1
10
53.2652047896061
20
31.1638763447955
30
0
41
1
10
53.3934053239932
20
31.2169497082436
30
0
41
1
10
53.5218752796368
20
31.2696156608738
30
0
41
1
10
53.6506154452042
20
31.321869075627
30
0
41
1
10
53.779588485783
20
31.3736903552589
30
0
41
1
10
53.8657258015039
20
31.4079453321737
30
0
41
1
10
53.9088331352524
20
31.425
30
0
0
SPLINE
5
15A
100
AcDbEntity
8
1
62
256
6
ByLayer
370
18
48
1
60
0
100
AcDbSpline
70
4
71
3
72
33
73
29
40
0
40
0
40
0
40
0
40
0.0391223622133688
40
0.0783217471846426
40
0.117492781546508
40
0.156576402551473
40
0.18845337800925
40
0.220464878271333
40
0.252497629843575
40
0.284462072351403
40
0.316299417953955
40
0.352950312607314
40
0.389766339521498
40
0.426591789484937
40
0.46325559102464
40
0.495952428498324
40
0.528733849719753
40
0.561534925185835
40
0.594258630250998
40
0.638152469109676
40
0.682170716416514
40
0.726282215195497
40
0.770395631172505
40
0.814369528666659
40
0.863003939383215
40
0.911687046757256
40
0.960386484272293
40
1
40
1
40
1
40
1
41
1
10
52.0294555194975
20
30.7809618943233
30
0
41
1
10
52.0278456666112
20
30.7790921345469
30
0
41
1
10
52.0247325070104
20
30.7753354153348
30
0
41
1
10
52.0203695419702
20
30.7696514949569
30
0
41
1
10
52.0163822221194
20
30.763944337424
30
0
41
1
10
52.0130397591998
20
30.7585901206932
30
0
41
1
10
52.0103143355684
20
30.7536095687867
30
0
41
1
10
52.0081402843531
20
30.7490133681741
30
0
41
1
10
52.006352614798
20
30.7444804273309
30
0
41
1
10
52.0049882968751
20
30.7400513688642
30
0
41
1
10
52.0040349050706
20
30.7355436631989
30
0
41
1
10
52.0036269530109
20
30.7310194380444
30
0
41
1
10
52.0038397458379
20
30.7265428216852
30
0
41
1
10
52.0046711243463
20
30.7223572275412
30
0
41
1
10
52.0060614560759
20
30.71864297249
30
0
41
1
10
52.0079234745055
20
30.715385916036
30
0
41
1
10
52.0101330683337
20
30.7125275308691
30
0
41
1
10
52.0127242381849
20
30.7099404207656
30
0
41
1
10
52.0159943838567
20
30.7073582722431
30
0
41
1
10
52.0200494570016
20
30.704881667543
30
0
41
1
10
52.0249621566141
20
30.7025994011673
30
0
41
1
10
52.0302907133463
20
30.7007100885779
30
0
41
1
10
52.0359629537638
20
30.6991829731264
30
0
41
1
10
52.0421331240631
20
30.6979435820948
30
0
41
1
10
52.0487902683684
20
30.6969965745484
30
0
41
1
10
52.0559292759225
20
30.6963477163962
30
0
41
1
10
52.0628380086996
20
30.6960233009729
30
0
41
1
10
52.067391377443
20
30.6959596757512
30
0
41
1
10
52.0694555753718
20
30.6959618949952
30
0
0
SPLINE
5
15B
100
AcDbEntity
8
1
62
256
6
ByLayer
370
18
48
1
60
0
100
AcDbSpline
70
4
71
2
72
6
73
3
40
0
40
0
40
0
40
1
40
1
40
1
41
1
10
52.0294555194975
20
30.7809618943233
30
0
41
1
10
52.3063262341534
20
31.1032341320084
30
0
41
1
10
52.5839810938956
20
31.425
30
0
0
SPLINE
5
15C
100
AcDbEntity
8
1
62
256
6
ByLayer
370
18
48
1
60
0
100
AcDbSpline
70
4
71
3
72
31
73
27
40
0
40
0
40
0
40
0
40
0.0387562707940303
40
0.07758852231419
40
0.11639256545354
40
0.15511028969194
40
0.194658259786462
40
0.234369236057531
40
0.274039797757671
40
0.313532419350137
40
0.349847404247765
40
0.386325074478384
40
0.422812744852998
40
0.459141426694657
40
0.491640607514895
40
0.524223118518146
40
0.556825264408749
40
0.589351285732645
40
0.633345724426077
40
0.677464525119186
40
0.721677035689779
40
0.765891873030148
40
0.809967100013136
40
0.873279693727487
40
0.936657670078349
40
1
40
1
40
1
40
1
41
1
10
52.5839810938956
20
31.425
30
0
41
1
10
52.5853928375134
20
31.4266324003569
30
0
41
1
10
52.5881231470975
20
31.4299129968674
30
0
41
1
10
52.5919504833436
20
31.4348786952509
30
0
41
1
10
52.5954490149992
20
31.4398674692402
30
0
41
1
10
52.5985968607975
20
31.4448924212686
30
0
41
1
10
52.6013173692768
20
31.4499320231933
30
0
41
1
10
52.6035514459462
20
31.4549488991471
30
0
41
1
10
52.6052314430953
20
31.4598564630263
30
0
41
1
10
52.6062693277687
20
31.464468866087
30
0
41
1
10
52.6066560108771
20
31.4687446141397
30
0
41
1
10
52.6064726094462
20
31.4726798949064
30
0
41
1
10
52.6057490963098
20
31.4763632939684
30
0
41
1
10
52.6045370723206
20
31.4796394767845
30
0
41
1
10
52.6029119203687
20
31.4825196636076
30
0
41
1
10
52.6009809463162
20
31.485053598481
30
0
41
1
10
52.5987166202954
20
31.4873506819783
30
0
41
1
10
52.5958498706969
20
31.489655391962
30
0
41
1
10
52.5922848044856
20
31.4918763991639
30
0
41
1
10
52.5879546432561
20
31.4939319066026
30
0
41
1
10
52.583257355646
20
31.4956377834937
30
0
41
1
10
52.5782572414236
20
31.4970211681348
30
0
41
1
10
52.5722407980706
20
31.4982684877672
30
0
41
1
10
52.5651212450238
20
31.4992593191928
30
0
41
1
10
52.5568275447759
20
31.4998721663921
30
0
41
1
10
52.5511108114209
20
31.5000060542341
30
0
41
1
10
52.5482016272941
20
31.5
30
0
0
SPLINE
5
15D
100
AcDbEntity
8
1
62
256
6
ByLayer
370
18
48
1
60
0
100
AcDbSpline
70
4
71
3
72
25
73
21
40
0
40
0
40
0
40
0
40
0.044601430958853
40
0.0892510146940773
40
0.1339180505408
40
0.178543303820839
40
0.224298854958845
40
0.270078931228569
40
0.315865106620691
40
0.361628978999427
40
0.424614609648804
40
0.487651118902903
40
0.55071409372863
40
0.613768341836693
40
0.676768862587506
40
0.741385832307081
40
0.806045945979004
40
0.870721032274581
40
0.935382170447077
40
1
40
1
40
1
40
1
41
1
10
52.3190559137762
20
31.5
30
0
41
1
10
52.315733429074
20
31.4999945169437
30
0
41
1
10
52.3089934483945
20
31.4998294684788
30
0
41
1
10
52.2985817798451
20
31.4990966257344
30
0
41
1
10
52.2879416316337
20
31.4979457667406
30
0
41
1
10
52.2770223569403
20
31.4964060216002
30
0
41
1
10
52.2658546040054
20
31.4945097369896
30
0
41
1
10
52.2544526078797
20
31.4922688124305
30
0
41
1
10
52.2429328655289
20
31.4897245943808
30
0
41
1
10
52.2298592880958
20
31.4865464177045
30
0
41
1
10
52.2152043058152
20
31.48263170431
30
0
41
1
10
52.1989481697629
20
31.4778671539262
30
0
41
1
10
52.1825856425876
20
31.4726724441364
30
0
41
1
10
52.1661482265496
20
31.467076676657
30
0
41
1
10
52.1495170225992
20
31.4610548736444
30
0
41
1
10
52.1327031540405
20
31.4546159304317
30
0
41
1
10
52.115714431464
20
31.4477543096817
30
0
41
1
10
52.098708967076
20
31.4405336310216
30
0
41
1
10
52.0817076136409
20
31.4329642689159
30
0
41
1
10
52.0703894201539
20
31.4276922912264
30
0
41
1
10
52.0647345667735
20
31.425
30
0
0
SPLINE
5
15E
100
AcDbEntity
8
1
62
256
6
ByLayer
370
18
48
1
60
0
100
AcDbSpline
70
4
71
3
72
17
73
13
40
0
40
0
40
0
40
0
40
0.099984300706523
40
0.199969534408379
40
0.299955115323485
40
0.399940417596414
40
0.499924775814688
40
0.599939231561699
40
0.699954526999974
40
0.799970135019512
40
0.899985492346166
40
1
40
1
40
1
40
1
41
1
10
52.0647345667735
20
31.425
30
0
41
1
10
52.0210360579468
20
31.4041942499263
30
0
41
1
10
51.9337254784188
20
31.3624470864829
30
0
41
1
10
51.803020285588
20
31.299417405474
30
0
41
1
10
51.6725742141889
20
31.2359858106689
30
0
41
1
10
51.5423870726903
20
31.1721571971697
30
0
41
1
10
51.4124447820729
20
31.1079303379366
30
0
41
1
10
51.2827457431953
20
31.0433097974535
30
0
41
1
10
51.1532883531597
20
30.9782999382359
30
0
41
1
10
51.0240844996403
20
30.9129121827433
30
0
41
1
10
50.8951338070879
20
30.8471511387961
30
0
41
1
10
50.8093342222798
20
30.8030659244693
30
0
41
1
10
50.7664765489583
20
30.7809618943233
30
0
0
SPLINE
5
15F
100
AcDbEntity
8
1
62
256
6
ByLayer
370
18
48
1
60
0
100
AcDbSpline
70
4
71
3
72
26
73
22
40
0
40
0
40
0
40
0
40
0.0679374129289707
40
0.135911601291896
40
0.203884525105497
40
0.271820212709627
40
0.327221474866601
40
0.382661821143385
40
0.438109706109891
40
0.493539464708235
40
0.54893184074807
40
0.602015800264798
40
0.655163825299445
40
0.708316284954938
40
0.761431473662243
40
0.814487861153318
40
0.858620597513735
40
0.902771798504783
40
0.946893679845967
40
0.980856771176575
40
1
40
1
40
1
40
1
41
1
10
50.7664765489583
20
30.7809618943233
30
0
41
1
10
50.7603881430241
20
30.7778217344568
30
0
41
1
10
50.7482090347922
20
30.7716686267186
30
0
41
1
10
50.7299325638976
20
30.7628195742961
30
0
41
1
10
50.7116777938959
20
30.7543685433123
30
0
41
1
10
50.6945862338953
20
30.7468234414366
30
0
41
1
10
50.6786640644583
20
30.7401100522701
30
0
41
1
10
50.6639082601538
20
30.7341622333539
30
0
41
1
10
50.6492192354517
20
30.7285275395811
30
0
41
1
10
50.6346201907987
20
30.7232264666033
30
0
41
1
10
50.6203315567723
20
30.7183477048665
30
0
41
1
10
50.6063598367578
20
30.7138888969533
30
0
41
1
10
50.5927197914351
20
30.7098633959237
30
0
41
1
10
50.5792451483602
20
30.7062464854126
30
0
41
1
10
50.5659811963714
20
30.7030805884291
30
0
41
1
10
50.553696962539
20
30.7005559181728
30
0
41
1
10
50.5423824915929
20
30.6986187930915
30
0
41
1
10
50.5320266397321
20
30.6972226579368
30
0
41
1
10
50.5227362264973
20
30.6963642065983
30
0
41
1
10
50.5155702075596
20
30.6960128408644
30
0
41
1
10
50.5117588951683
20
30.6959625569572
30
0
41
1
10
50.5103973899032
20
30.6959618968365
30
0
0
SPLINE
5
160
100
AcDbEntity
8
1
62
256
6
ByLayer
370
18
48
1
60
0
100
AcDbSpline
70
4
71
1
72
4
73
2
40
0
40
0
40
1
40
1
41
1
10
51.0232233213076
20
31.425
30
0
41
1
10
50.4898899901283
20
30.7809618943233
30
0
0
SPLINE
5
161
100
AcDbEntity
8
1
62
256
6
ByLayer
370
18
48
1
60
0
100
AcDbSpline
70
4
71
3
72
31
73
27
40
0
40
0
40
0
40
0
40
0.048054652876172
40
0.0962201891174624
40
0.144389045829392
40
0.19248881030218
40
0.240488178422618
40
0.287826997545665
40
0.335311599703284
40
0.382747747798133
40
0.430020277122272
40
0.468845846094819
40
0.507805595128706
40
0.546750544291413
40
0.585555860438559
40
0.624401697788225
40
0.66338659628126
40
0.702387256461751
40
0.74125466233602
40
0.780189429605194
40
0.819244172247678
40
0.858372635477172
40
0.897489288237749
40
0.936476146561239
40
0.968237507399495
40
1
40
1
40
1
40
1
41
1
10
51.0053462774423
20
31.5
30
0
41
1
10
51.0072405526677
20
31.500002640661
30
0
41
1
10
51.0109607648598
20
31.499914352491
30
0
41
1
10
51.0163401238168
20
31.4995123118988
30
0
41
1
10
51.0214718833886
20
31.4988053296291
30
0
41
1
10
51.02631181134
20
31.4977693354448
30
0
41
1
10
51.0307961719496
20
31.4963851450995
30
0
41
1
10
51.0348800950696
20
31.4946222563223
30
0
41
1
10
51.0385156370516
20
31.4924608377947
30
0
41
1
10
51.041659034922
20
31.4898746500391
30
0
41
1
10
51.0440859875569
20
31.487025469153
30
0
41
1
10
51.0458381381501
20
31.4839786984041
30
0
41
1
10
51.0470172598319
20
31.48082944081
30
0
41
1
10
51.0477237834947
20
31.4773914593438
30
0
41
1
10
51.047933235739
20
31.4736805946304
30
0
41
1
10
51.0476160181279
20
31.4697069259431
30
0
41
1
10
51.0468021996269
20
31.4655100084391
30
0
41
1
10
51.0455178614716
20
31.4611332203187
30
0
41
1
10
51.043781556408
20
31.4566114900291
30
0
41
1
10
51.0416102640848
20
31.4519724207185
30
0
41
1
10
51.0390511093634
20
31.4472437823563
30
0
41
1
10
51.0361435403628
20
31.4424558592563
30
0
41
1
10
51.0329302799446
20
31.4376416860098
30
0
41
1
10
51.0296595355357
20
31.4331202924244
30
0
41
1
10
51.0264100817443
20
31.4289052579392
30
0
41
1
10
51.0243021736381
20
31.4263008166674
30
0
41
1
10
51.0232233213076
20
31.425
30
0
0
SPLINE
5
162
100
AcDbEntity
8
1
62
256
6
ByLayer
370
18
48
1
60
0
100
AcDbSpline
70
4
71
3
72
25
73
21
40
0
40
0
40
0
40
0
40
0.0703646991320142
40
0.140774586425561
40
0.211183018445129
40
0.281545731830666
40
0.339136509935091
40
0.396775858834641
40
0.454424466470114
40
0.512050423989292
40
0.569629961349864
40
0.622486817297417
40
0.675382614101721
40
0.728267587680806
40
0.78110967325892
40
0.82485762741264
40
0.86868496513954
40
0.912513909352799
40
0.956292772310311
40
1
40
1
40
1
40
1
41
1
10
50.6080503059155
20
31.425
30
0
41
1
10
50.6133380499055
20
31.427893450979
30
0
41
1
10
50.6239164132599
20
31.4335570145037
30
0
41
1
10
50.6397932247118
20
31.4416835460259
30
0
41
1
10
50.6556498451645
20
31.4494219725066
30
0
41
1
10
50.670507910182
20
31.4563135818174
30
0
41
1
10
50.6843609451032
20
31.4624283924748
30
0
41
1
10
50.6972113162042
20
31.467829959749
30
0
41
1
10
50.7099951106121
20
31.4729202587192
30
0
41
1
10
50.7226882797397
20
31.4776777298903
30
0
41
1
10
50.7349272904031
20
31.4819618768514
30
0
41
1
10
50.746707145073
20
31.4857877996153
30
0
41
1
10
50.7580192694719
20
31.4891612703549
30
0
41
1
10
50.7691744986305
20
31.4921610350628
30
0
41
1
10
50.7795104082551
20
31.4946042703049
30
0
41
1
10
50.7890406535313
20
31.4965436433684
30
0
41
1
10
50.7977790086322
20
31.4980254332941
30
0
41
1
10
50.8063013461848
20
31.4991353837805
30
0
41
1
10
50.8145618468417
20
31.4998374572502
30
0
41
1
10
50.8198494245572
20
31.4999952563708
30
0
41
1
10
50.8224410776365
20
31.5
30
0
0
SPLINE
5
163
100
AcDbEntity
8
1
62
256
6
ByLayer
370
18
48
1
60
0
100
AcDbSpline
70
4
71
3
72
15
73
11
40
0
40
0
40
0
40
0
40
0.124988019727269
40
0.249976734233678
40
0.374965415980309
40
0.499953391034907
40
0.624964679831859
40
0.749976738647141
40
0.874988760968207
40
1
40
1
40
1
40
1
41
1
10
49.4666547950322
20
30.7809618943233
30
0
41
1
10
49.5137866402845
20
30.8083497420109
30
0
41
1
10
49.6081547382523
20
30.8629900548773
30
0
41
1
10
49.7500183016124
20
30.9445468321011
30
0
41
1
10
49.8921965662004
20
31.0256913031011
30
0
41
1
10
50.0347002621268
20
31.1064227815372
30
0
41
1
10
50.1775321522814
20
31.1867349980795
30
0
41
1
10
50.3206950740431
20
31.2666213362121
30
0
41
1
10
50.4641820196148
20
31.3460707486878
30
0
41
1
10
50.5600580657819
20
31.3987395339207
30
0
41
1
10
50.6080503059155
20
31.425
30
0
0
SPLINE
5
164
100
AcDbEntity
8
1
62
256
6
ByLayer
370
18
48
1
60
0
100
AcDbSpline
70
4
71
3
72
31
73
27
40
0
40
0
40
0
40
0
40
0.0418509702571974
40
0.0838019086694366
40
0.125762404183144
40
0.167666864126102
40
0.209478762733958
40
0.252050360988778
40
0.294817062958815
40
0.337617285852486
40
0.380320728027506
40
0.422839032586043
40
0.460345170371106
40
0.498007818841077
40
0.535729807204652
40
0.573403868615724
40
0.610919618713603
40
0.653083237336767
40
0.695360804398519
40
0.737661735759503
40
0.779857297621756
40
0.82400151245275
40
0.868255985925036
40
0.912601947653693
40
0.95698833177957
40
1
40
1
40
1
40
1
41
1
10
49.2408257847624
20
30.7809618943233
30
0
41
1
10
49.239263769721
20
30.7790520243048
30
0
41
1
10
49.2362195271307
20
30.7752310794881
30
0
41
1
10
49.2318891313524
20
30.7694999777789
30
0
41
1
10
49.2278340023101
20
30.7637906688451
30
0
41
1
10
49.2240914064258
20
30.7581299772156
30
0
41
1
10
49.2206750247236
20
30.7525075185742
30
0
41
1
10
49.2176390459199
20
30.7469453956955
30
0
41
1
10
49.2150244440578
20
30.7414736071994
30
0
41
1
10
49.2128796961477
20
30.7361628651706
30
0
41
1
10
49.2112488780078
20
30.7310687727393
30
0
41
1
10
49.2102145881453
20
30.726426958864
30
0
41
1
10
49.2097459924864
20
30.722244478474
30
0
41
1
10
49.2097537386139
20
30.7184892388033
30
0
41
1
10
49.2102079236596
20
30.7149997617968
30
0
41
1
10
49.2110996896465
20
30.7118010261671
30
0
41
1
10
49.2124813028393
20
30.7087945938191
30
0
41
1
10
49.2144098745388
20
30.7060385530369
30
0
41
1
10
49.2168954821045
20
30.703560699879
30
0
41
1
10
49.2198229389885
20
30.7014587887718
30
0
41
1
10
49.2232043591295
20
30.699698121431
30
0
41
1
10
49.2270273952969
20
30.6982848158465
30
0
41
1
10
49.2312688318996
20
30.6972090702716
30
0
41
1
10
49.2358339754147
20
30.6964699787765
30
0
41
1
10
49.240636208428
20
30.6960523369286
30
0
41
1
10
49.2439760407019
20
30.6959605445355
30
0
41
1
10
49.2456593478063
20
30.6959618943525
30
0
0
SPLINE
5
165
100
AcDbEntity
8
1
62
256
6
ByLayer
370
18
48
1
60
0
100
AcDbSpline
70
4
71
1
72
4
73
2
40
0
40
0
40
1
40
1
41
1
10
49.2408257847624
20
30.7809618943233
30
0
41
1
10
49.7670403801045
20
31.425
30
0
0
SPLINE
5
166
100
AcDbEntity
8
1
62
256
6
ByLayer
370
18
48
1
60
0
100
AcDbSpline
70
4
71
3
72
28
73
24
40
0
40
0
40
0
40
0
40
0.0524584669507038
40
0.10503624534241
40
0.157573609121797
40
0.209976832033833
40
0.252690110048784
40
0.29559896909632
40
0.338542021410309
40
0.381388608136358
40
0.424049424457435
40
0.471106167505601
40
0.518369573476716
40
0.565643545427843
40
0.612714759300509
40
0.655226222908207
40
0.697852046503927
40
0.740501374512978
40
0.783044972530348
40
0.837193950106235
40
0.89147436585682
40
0.945795445189323
40
1
40
1
40
1
40
1
41
1
10
49.7670403801045
20
31.425
30
0
41
1
10
49.7687670746722
20
31.4271098564026
30
0
41
1
10
49.7721049443609
20
31.431327670822
30
0
41
1
10
49.776777369225
20
31.4376482724055
30
0
41
1
10
49.7810416558852
20
31.4439201055288
30
0
41
1
10
49.7846085374436
20
31.4497238241975
30
0
41
1
10
49.787508391516
20
31.4550420348459
30
0
41
1
10
49.7898156760315
20
31.4598772767548
30
0
41
1
10
49.7917078675712
20
31.4645694441631
30
0
41
1
10
49.7931466510517
20
31.4690694373515
30
0
41
1
10
49.7941294652893
20
31.4734825299672
30
0
41
1
10
49.7945484420796
20
31.4777349672643
30
0
41
1
10
49.7943587333557
20
31.4817700494213
30
0
41
1
10
49.7935651749701
20
31.4854212941384
30
0
41
1
10
49.7922199321797
20
31.4885484872558
30
0
41
1
10
49.7903985257197
20
31.4911743342723
30
0
41
1
10
49.7882135828411
20
31.4933677924717
30
0
41
1
10
49.7856390723024
20
31.4952254484284
30
0
41
1
10
49.7824437480854
20
31.4968932803892
30
0
41
1
10
49.7785438735171
20
31.4982745276175
30
0
41
1
10
49.7738911020613
20
31.4992935261818
30
0
41
1
10
49.7688433314301
20
31.499875380998
30
0
41
1
10
49.765264250587
20
31.5000034651813
30
0
41
1
10
49.7634192030774
20
31.5
30
0
0
SPLINE
5
167
100
AcDbEntity
8
1
62
256
6
ByLayer
370
18
48
1
60
0
100
AcDbSpline
70
4
71
3
72
26
73
22
40
0
40
0
40
0
40
0
40
0.0385565456335216
40
0.0771626152149088
40
0.115782486065641
40
0.154357874549091
40
0.207484417675796
40
0.260651785792157
40
0.313791982419117
40
0.372639292422533
40
0.43154325504208
40
0.490460013651496
40
0.549324788835577
40
0.609734126151536
40
0.670183604340457
40
0.73063808193719
40
0.791054241054393
40
0.843204823629037
40
0.895355596477879
40
0.947677772234533
40
1
40
1
40
1
40
1
41
1
10
49.6149415960426
20
31.5
30
0
41
1
10
49.6130976961289
20
31.499996646056
30
0
41
1
10
49.6093202759182
20
31.4998732411674
30
0
41
1
10
49.6033730887631
20
31.4993239362122
30
0
41
1
10
49.597196991789
20
31.4984512196128
30
0
41
1
10
49.5900206912734
20
31.4971323417883
30
0
41
1
10
49.5817858783997
20
31.4952597117363
30
0
41
1
10
49.5724494464938
20
31.4927294890547
30
0
41
1
10
49.5625413196661
20
31.4896689009863
30
0
41
1
10
49.5520745810154
20
31.4860699422048
30
0
41
1
10
49.5410597933751
20
31.4819186937594
30
0
41
1
10
49.5298824211445
20
31.4773710869018
30
0
41
1
10
49.5184759472876
20
31.4724183388916
30
0
41
1
10
49.5068593935107
20
31.4670778615553
30
0
41
1
10
49.4950461377146
20
31.4613577425769
30
0
41
1
10
49.483157239534
20
31.455324533168
30
0
41
1
10
49.4717568561069
20
31.449286199751
30
0
41
1
10
49.4608673233569
20
31.4433014891654
30
0
41
1
10
49.4504897148218
20
31.4374099593218
30
0
41
1
10
49.4400853377422
20
31.431317490635
30
0
41
1
10
49.4331389057951
20
31.4271268887268
30
0
41
1
10
49.4296643976169
20
31.425
30
0
0
SPLINE
5
168
100
AcDbEntity
8
1
62
256
6
ByLayer
370
18
48
1
60
0
100
AcDbSpline
70
4
71
3
72
14
73
10
40
0
40
0
40
0
40
0
40
0.124991812352006
40
0.249984142995058
40
0.374976497021849
40
0.499968341260913
40
0.666645355677589
40
0.833322943344418
40
1
40
1
40
1
40
1
41
1
10
49.4296643976169
20
31.425
30
0
41
1
10
49.3865189365334
20
31.3985892259565
30
0
41
1
10
49.3003166232535
20
31.3456595525315
30
0
41
1
10
49.1712804434407
20
31.2659387723889
30
0
41
1
10
49.0425085705956
20
31.185898259952
30
0
41
1
10
48.8997131401576
20
31.0966092277396
30
0
41
1
10
48.7430022181576
20
30.9979439737475
30
0
41
1
10
48.5724966235851
20
30.8897620099136
30
0
41
1
10
48.4591264244386
20
30.8172878839313
30
0
41
1
10
48.4025168877045
20
30.7809618943233
30
0
0
SPLINE
5
169
100
AcDbEntity
8
1
62
256
6
ByLayer
370
18
48
1
60
0
100
AcDbSpline
70
4
71
3
72
28
73
24
40
0
40
0
40
0
40
0
40
0.0576434457896765
40
0.115334306644699
40
0.173037908391
40
0.230722803630645
40
0.288361241926805
40
0.347864982013694
40
0.407444608523973
40
0.467035889738405
40
0.526589056622697
40
0.58607057724888
40
0.629432430293987
40
0.672876860397839
40
0.716345522842708
40
0.759793015153585
40
0.803188548238531
40
0.846517747276725
40
0.882857009400176
40
0.919313095927711
40
0.955801332844349
40
0.992256510541192
40
1
40
1
40
1
40
1
41
1
10
48.4025168877045
20
30.7809618943233
30
0
41
1
10
48.3984306423342
20
30.7783396128648
30
0
41
1
10
48.390262719305
20
30.7731739104935
30
0
41
1
10
48.3780259053633
20
30.7656617038461
30
0
41
1
10
48.3658222832651
20
30.7584015390131
30
0
41
1
10
48.3536712055543
20
30.7514085574444
30
0
41
1
10
48.3414586732156
20
30.7446245312152
30
0
41
1
10
48.3291967073601
20
30.7380702934929
30
0
41
1
10
48.3169053648699
20
30.7317784459048
30
0
41
1
10
48.3047409649084
20
30.7258469140122
30
0
41
1
10
48.2927410821932
20
30.7203099234772
30
0
41
1
10
48.2820030002677
20
30.71566065278
30
0
41
1
10
48.2724895771316
20
30.7117968754972
30
0
41
1
10
48.2641549956782
20
30.7086196161305
30
0
41
1
10
48.255973953682
20
30.705726841455
30
0
41
1
10
48.2479790713689
20
30.7031461215657
30
0
41
1
10
48.2402033675824
20
30.7009054909276
30
0
41
1
10
48.2330796999611
20
30.6991314325327
30
0
41
1
10
48.2265862663071
20
30.6977836516669
30
0
41
1
10
48.2206991844219
20
30.6968205590131
30
0
41
1
10
48.2150585689515
20
30.6961850695395
30
0
41
1
10
48.2111123524917
20
30.6959817630223
30
0
41
1
10
48.2090290059957
20
30.6959624990447
30
0
41
1
10
48.2086663118172
20
30.6959618953817
30
0
0
SPLINE
5
16A
100
AcDbEntity
8
1
62
256
6
ByLayer
370
18
48
1
60
0
100
AcDbSpline
70
4
71
1
72
4
73
2
40
0
40
0
40
1
40
1
41
1
10
48.744667332036
20
31.425
30
0
41
1
10
48.2172749534772
20
30.7809618943233
30
0
0
SPLINE
5
16B
100
AcDbEntity
8
1
62
256
6
ByLayer
370
18
48
1
60
0
100
AcDbSpline
70
4
71
3
72
28
73
24
40
0
40
0
40
0
40
0
40
0.0532451984862295
40
0.106623457847048
40
0.159963302157196
40
0.213155978566855
40
0.256375230511595
40
0.299781977204486
40
0.343230315378392
40
0.386594473686035
40
0.429777854094208
40
0.478355662239488
40
0.527125706031224
40
0.575910453560991
40
0.624508390467918
40
0.670814284670918
40
0.717241510031573
40
0.763693860380649
40
0.810034102259581
40
0.857475944539275
40
0.904994787763205
40
0.952532452388734
40
1
40
1
40
1
40
1
41
1
10
48.7532629497555
20
31.5
30
0
41
1
10
48.754816716334
20
31.5000026848732
30
0
41
1
10
48.7577995902012
20
31.4998656181351
30
0
41
1
10
48.7619105122846
20
31.4992449667043
30
0
41
1
10
48.7655897206942
20
31.4981705117185
30
0
41
1
10
48.7685860988268
20
31.4967146670531
30
0
41
1
10
48.7709402492123
20
31.4949396673792
30
0
41
1
10
48.7727389606491
20
31.492940334693
30
0
41
1
10
48.7741326949494
20
31.4905961734267
30
0
41
1
10
48.7750947955344
20
31.4879144563498
30
0
41
1
10
48.7756209542943
20
31.4847718737155
30
0
41
1
10
48.7756091018963
20
31.481111805022
30
0
41
1
10
48.7750125692285
20
31.4769292349098
30
0
41
1
10
48.7738545778031
20
31.4724128641801
30
0
41
1
10
48.7721765759897
20
31.467680407549
30
0
41
1
10
48.7700227354287
20
31.4627808332654
30
0
41
1
10
48.7674723347705
20
31.4577691014867
30
0
41
1
10
48.764529658074
20
31.4526055489089
30
0
41
1
10
48.7612051589523
20
31.4472843351285
30
0
41
1
10
48.7575203085504
20
31.4418286485122
30
0
41
1
10
48.753505253375
20
31.4362595084403
30
0
41
1
10
48.7492201709955
20
31.4306423684181
30
0
41
1
10
48.7462110975574
20
31.4268832431206
30
0
41
1
10
48.744667332036
20
31.425
30
0
0
SPLINE
5
16C
100
AcDbEntity
8
1
62
256
6
ByLayer
370
18
48
1
60
0
100
AcDbSpline
70
4
71
3
72
26
73
22
40
0
40
0
40
0
40
0
40
0.069418385187674
40
0.138894320983783
40
0.208365561373678
40
0.277777538347238
40
0.335062384787066
40
0.392417079551467
40
0.449783723114793
40
0.507116437858222
40
0.564382827527187
40
0.614843611726143
40
0.66532500759759
40
0.715778493470458
40
0.767305989859118
40
0.818866201501411
40
0.870377823882291
40
0.902655409558201
40
0.93493183370036
40
0.96746672124677
40
1
40
1
40
1
40
1
41
1
10
48.4699517884154
20
31.425
30
0
41
1
10
48.4741065358519
20
31.4277956458822
30
0
41
1
10
48.4824065235353
20
31.433284512453
30
0
41
1
10
48.4948286663247
20
31.4412133003491
30
0
41
1
10
48.507192343534
20
31.4488094768744
30
0
41
1
10
48.5187589344896
20
31.4556298331058
30
0
41
1
10
48.5295274708898
20
31.4617259232742
30
0
41
1
10
48.5395050529689
20
31.4671493029465
30
0
41
1
10
48.5493805293214
20
31.4722793970346
30
0
41
1
10
48.5591252825286
20
31.4770895355818
30
0
41
1
10
48.5683358474418
20
31.4813787220449
30
0
41
1
10
48.5770116644866
20
31.4851702315189
30
0
41
1
10
48.5851537603748
20
31.4884860104539
30
0
41
1
10
48.5931650048624
20
31.4914830138643
30
0
41
1
10
48.6010101718374
20
31.4941223674499
30
0
41
1
10
48.6086414457311
20
31.4963541917989
30
0
41
1
10
48.615045928449
20
31.497896290117
30
0
41
1
10
48.6203090397211
20
31.4989010499746
30
0
41
1
10
48.6245471056344
20
31.4995221389269
30
0
41
1
10
48.6286141832331
20
31.4999107088571
30
0
41
1
10
48.631190309598
20
31.4999981129976
30
0
41
1
10
48.6324444169835
20
31.5
30
0
0
SPLINE
5
16D
100
AcDbEntity
8
1
62
256
6
ByLayer
370
18
48
1
60
0
100
AcDbSpline
70
4
71
3
72
13
73
9
40
0
40
0
40
0
40
0
40
0.166659547741856
40
0.333319457245375
40
0.499978977163021
40
0.666652529084657
40
0.833326479068975
40
1
40
1
40
1
40
1
41
1
10
47.5309391950567
20
30.7809618943233
30
0
41
1
10
47.5827272345452
20
30.8171503688939
30
0
41
1
10
47.6864276633283
20
30.889393109762
30
0
41
1
10
47.8423488544378
20
30.9973577282609
30
0
41
1
10
47.9986513348908
20
31.1049156722608
30
0
41
1
10
48.1553392754373
20
31.2120599981657
30
0
41
1
10
48.3124170855317
20
31.3187834081973
30
0
41
1
10
48.417396956344
20
31.3896424176823
30
0
41
1
10
48.4699517884154
20
31.425
30
0
0
SPLINE
5
16E
100
AcDbEntity
8
1
62
256
6
ByLayer
370
18
48
1
60
0
100
AcDbSpline
70
4
71
3
72
29
73
25
40
0
40
0
40
0
40
0
40
0.0513526040109111
40
0.102841569296679
40
0.15434442820405
40
0.205771545630417
40
0.257072144405529
40
0.300261560263661
40
0.343596270334637
40
0.386956606325782
40
0.430246059568339
40
0.473397393491534
40
0.516843790503293
40
0.560481543932876
40
0.60418056914422
40
0.647810766239599
40
0.691250797852203
40
0.739113591380791
40
0.787126060887317
40
0.835161054044098
40
0.883054655001951
40
0.935294583898581
40
0.987695556224732
40
1
40
1
40
1
40
1
41
1
10
47.3798934418016
20
30.7809618943233
30
0
41
1
10
47.3779925561538
20
30.7786707391896
30
0
41
1
10
47.3742791604126
20
30.7741017540295
30
0
41
1
10
47.3689716296809
20
30.7672923186024
30
0
41
1
10
47.3639734212828
20
30.7605593512058
30
0
41
1
10
47.3593299532851
20
30.7539410315241
30
0
41
1
10
47.3553081254242
20
30.7478121733883
30
0
41
1
10
47.3518801591313
20
30.7421754422638
30
0
41
1
10
47.3489947063486
20
30.7370194688388
30
0
41
1
10
47.3464755329237
20
30.7320413427686
30
0
41
1
10
47.3443579907213
20
30.7272827141932
30
0
41
1
10
47.3426682383534
20
30.722767169128
30
0
41
1
10
47.3414518113949
20
30.718533611566
30
0
41
1
10
47.3407143517199
20
30.7146006187824
30
0
41
1
10
47.3404586374381
20
30.7109987597627
30
0
41
1
10
47.3406898384273
20
30.7077605976516
30
0
41
1
10
47.3414417334847
20
30.7048177568929
30
0
41
1
10
47.3427816347231
20
30.702240132702
30
0
41
1
10
47.3447208741284
20
30.7000573177697
30
0
41
1
10
47.3471788589127
20
30.6983444169807
30
0
41
1
10
47.35021193871
20
30.6970601614969
30
0
41
1
10
47.3538369806314
20
30.6962392440733
30
0
41
1
10
47.3569862518763
20
30.6959980531055
30
0
41
1
10
47.3588181290007
20
30.695964195143
30
0
41
1
10
47.3591703151319
20
30.6959618956002
30
0
0
SPLINE
5
16F
100
AcDbEntity
8
1
62
256
6
ByLayer
370
18
48
1
60
0
100
AcDbSpline
70
4
71
1
72
4
73
2
40
0
40
0
40
1
40
1
41
1
10
47.3798934418016
20
30.7809618943233
30
0
41
1
10
47.9140809782105
20
31.425
30
0
0
SPLINE
5
170
100
AcDbEntity
8
1
62
256
6
ByLayer
370
18
48
1
60
0
100
AcDbSpline
70
4
71
3
72
28
73
24
40
0
40
0
40
0
40
0
40
0.0517942260672874
40
0.103726841685633
40
0.155673725142633
40
0.207543891744791
40
0.259285606228348
40
0.30284945361383
40
0.346559890877695
40
0.390296549068188
40
0.433962032729016
40
0.477488053254235
40
0.521304715779411
40
0.565313106681366
40
0.609383177759918
40
0.653384565053923
40
0.697195327954682
40
0.745616888346256
40
0.79418983930467
40
0.842785284978115
40
0.891237613235511
40
0.945615412809512
40
1
40
1
40
1
40
1
41
1
10
47.9140809782105
20
31.425
30
0
41
1
10
47.915771857644
20
31.4270361557575
30
0
41
1
10
47.9190751437596
20
31.4310961791377
30
0
41
1
10
47.9237967806813
20
31.4371458182252
30
0
41
1
10
47.9282438007618
20
31.443125761702
30
0
41
1
10
47.9323759204352
20
31.449001688786
30
0
41
1
10
47.9359558252182
20
31.4544406730065
30
0
41
1
10
47.9390082485394
20
31.4594404037939
30
0
41
1
10
47.9415792038136
20
31.464011233947
30
0
41
1
10
47.9438260227434
20
31.4684215012623
30
0
41
1
10
47.9457177785454
20
31.4726340558346
30
0
41
1
10
47.9472315722163
20
31.4766275409106
30
0
41
1
10
47.9483278982826
20
31.4803672692514
30
0
41
1
10
47.9490024323881
20
31.4838368361425
30
0
41
1
10
47.9492529541471
20
31.4870094057593
30
0
41
1
10
47.9490751843727
20
31.4898562581097
30
0
41
1
10
47.9484399285626
20
31.4924400415198
30
0
41
1
10
47.9472864881484
20
31.4946967534206
30
0
41
1
10
47.9456031368323
20
31.4965980631865
30
0
41
1
10
47.9434607088959
20
31.4980757081552
30
0
41
1
10
47.9407849023828
20
31.4991770940817
30
0
41
1
10
47.9375413437132
20
31.4998486696897
30
0
41
1
10
47.9350125850419
20
31.5000031965946
30
0
41
1
10
47.9336722626086
20
31.5
30
0
0
SPLINE
5
171
100
AcDbEntity
8
1
62
256
6
ByLayer
370
18
48
1
60
0
100
AcDbSpline
70
4
71
3
72
26
73
22
40
0
40
0
40
0
40
0
40
0.0443326812998323
40
0.0887211730373385
40
0.133070227576349
40
0.178949173651651
40
0.224867580852565
40
0.270757733027398
40
0.31706476785049
40
0.36341766196557
40
0.409780028927915
40
0.456099993578761
40
0.519542340846487
40
0.583027227098108
40
0.64647973319343
40
0.70500878791498
40
0.763561821599917
40
0.822094522947771
40
0.881388960656232
40
0.940703804009748
40
1
40
1
40
1
40
1
41
1
10
47.8362668241165
20
31.5
30
0
41
1
10
47.8349015690506
20
31.4999957194559
30
0
41
1
10
47.8320424698152
20
31.499837194062
30
0
41
1
10
47.8273508038394
20
31.499132449801
30
0
41
1
10
47.822264953524
20
31.4979981694428
30
0
41
1
10
47.8168084984883
20
31.4964467890843
30
0
41
1
10
47.8110121775263
20
31.4944993822355
30
0
41
1
10
47.8049537983585
20
31.4921972757543
30
0
41
1
10
47.7986620666122
20
31.4895659662723
30
0
41
1
10
47.792159849301
20
31.4866267634141
30
0
41
1
10
47.7854914144764
20
31.4834112707774
30
0
41
1
10
47.7778410192588
20
31.4795145862546
30
0
41
1
10
47.769164294556
20
31.4748424192571
30
0
41
1
10
47.7594314214309
20
31.4693064334439
30
0
41
1
10
47.7497887231369
20
31.463556400404
30
0
41
1
10
47.7402781821318
20
31.4576541448652
30
0
41
1
10
47.7309293718507
20
31.4516475451363
30
0
41
1
10
47.721459116166
20
31.4453668097002
30
0
41
1
10
47.7118823103441
20
31.4388254038578
30
0
41
1
10
47.7022108489344
20
31.4320327481023
30
0
41
1
10
47.6957394885201
20
31.4273674364834
30
0
41
1
10
47.6924974670271
20
31.425
30
0
0
SPLINE
5
172
100
AcDbEntity
8
1
62
256
6
ByLayer
370
18
48
1
60
0
100
AcDbSpline
70
4
71
3
72
13
73
9
40
0
40
0
40
0
40
0
40
0.166661617296802
40
0.333323529256958
40
0.499985167290288
40
0.666656682522076
40
0.833328466119308
40
1
40
1
40
1
40
1
41
1
10
47.6924974670271
20
31.425
30
0
41
1
10
47.6439403042698
20
31.3895461190013
30
0
41
1
10
47.5469337822266
20
31.3185281511369
30
0
41
1
10
47.4017495688388
20
31.2116680854654
30
0
41
1
10
47.2568824265175
20
31.1044808903029
30
0
41
1
10
47.1123286085087
20
30.996971905892
30
0
41
1
10
46.9680845758124
20
30.8891462063989
30
0
41
1
10
46.8721266899464
20
30.8170577071245
30
0
41
1
10
46.824199290487
20
30.7809618943233
30
0
0
SPLINE
5
173
100
AcDbEntity
8
1
62
256
6
ByLayer
370
18
48
1
60
0
100
AcDbSpline
70
4
71
3
72
27
73
23
40
0
40
0
40
0
40
0
40
0.0633031817516702
40
0.126656597458663
40
0.190004723179249
40
0.253300685478671
40
0.30548822630565
40
0.357737782799681
40
0.409998341319397
40
0.462229147947971
40
0.514400944844318
40
0.560645730728375
40
0.607003506535449
40
0.653396065181477
40
0.699761498386887
40
0.746056606011068
40
0.792259520380573
40
0.836031412555026
40
0.87994440287278
40
0.923872364119695
40
0.96772225425069
40
1
40
1
40
1
40
1
41
1
10
46.824199290487
20
30.7809618943233
30
0
41
1
10
46.8204268756012
20
30.7781203777591
30
0
41
1
10
46.8129013033192
20
30.7725215555754
30
0
41
1
10
46.801669543076
20
30.7643731173995
30
0
41
1
10
46.7905230368521
20
30.7565023089222
30
0
41
1
10
46.7801296380653
20
30.7493732859592
30
0
41
1
10
46.7704850478363
20
30.7429451343302
30
0
41
1
10
46.7615774889789
20
30.7371741536904
30
0
41
1
10
46.7527875168585
20
30.7316545409713
30
0
41
1
10
46.74414133023
20
30.726410826548
30
0
41
1
10
46.735981833975
20
30.7216520989455
30
0
41
1
10
46.7283024788498
20
30.7173578201288
30
0
41
1
10
46.7210962669816
20
30.7135077242054
30
0
41
1
10
46.7140740032924
20
30.7099507929694
30
0
41
1
10
46.7072717497328
20
30.7067180034243
30
0
41
1
10
46.7007260215329
20
30.7038408797191
30
0
41
1
10
46.6945773900585
20
30.7013910816885
30
0
41
1
10
46.6888395605008
20
30.6993784390375
30
0
41
1
10
46.6835264077673
20
30.697808625865
30
0
41
1
10
46.6785778343392
20
30.6966782617373
30
0
41
1
10
46.6744405601414
20
30.6960800731153
30
0
41
1
10
46.6720588636596
20
30.6959649505152
30
0
41
1
10
46.6710901300606
20
30.695961895421
30
0
0
SPLINE
5
174
100
AcDbEntity
8
1
62
256
6
ByLayer
370
18
48
1
60
0
100
AcDbSpline
70
4
71
2
72
6
73
3
40
0
40
0
40
0
40
1
40
1
40
1
41
1
10
47.2483402529883
20
31.425
30
0
41
1
10
46.9755341173638
20
31.1030998614373
30
0
41
1
10
46.703102547788
20
30.7809618943233
30
0
0
SPLINE
5
175
100
AcDbEntity
8
1
62
256
6
ByLayer
370
18
48
1
60
0
100
AcDbSpline
70
4
71
3
72
27
73
23
40
0
40
0
40
0
40
0
40
0.0523540730095836
40
0.104869956945876
40
0.157358301763362
40
0.209674701685252
40
0.251961335142545
40
0.294408374245541
40
0.336909327401105
40
0.379355196139172
40
0.421640844278745
40
0.471734371756178
40
0.521982215129311
40
0.572252705832984
40
0.622377208574096
40
0.676911374560327
40
0.731615060222849
40
0.78641832752084
40
0.84120099748877
40
0.895801621776819
40
0.947899524010962
40
1
40
1
40
1
40
1
41
1
10
47.2781878366319
20
31.5
30
0
41
1
10
47.2792461227693
20
31.5000009503937
30
0
41
1
10
47.2812130907796
20
31.4998451436684
30
0
41
1
10
47.2837196127787
20
31.4991431869522
30
0
41
1
10
47.2857364633417
20
31.4979551757632
30
0
41
1
10
47.287131494433
20
31.4963744621205
30
0
41
1
10
47.2879749509085
20
31.494485017022
30
0
41
1
10
47.2883809095626
20
31.4923991349521
30
0
41
1
10
47.2884131269526
20
31.4899937347597
30
0
41
1
10
47.2880708749924
20
31.4872863669433
30
0
41
1
10
47.2873063981407
20
31.4841033299571
30
0
41
1
10
47.2860301516799
20
31.4803863290824
30
0
41
1
10
47.2841934188967
20
31.4761157913517
30
0
41
1
10
47.2819000005704
20
31.4715396091849
30
0
41
1
10
47.2791004809642
20
31.4665564073906
30
0
41
1
10
47.2757753479887
20
31.4611692586413
30
0
41
1
10
47.2719330657181
20
31.455397464079
30
0
41
1
10
47.2677106584031
20
31.449431896591
30
0
41
1
10
47.2631584689175
20
31.4433214766726
30
0
41
1
10
47.2583886893493
20
31.4371955831178
30
0
41
1
10
47.2534453874717
20
31.4310834466369
30
0
41
1
10
47.2500660685308
20
31.4270351711154
30
0
41
1
10
47.2483402529883
20
31.425
30
0
0
SPLINE
5
176
100
AcDbEntity
8
1
62
256
6
ByLayer
370
18
48
1
60
0
100
AcDbSpline
70
4
71
3
72
27
73
23
40
0
40
0
40
0
40
0
40
0.0612089722996065
40
0.122465923312058
40
0.183717829296401
40
0.244919916516039
40
0.307972387699494
40
0.371096444866114
40
0.434206222850557
40
0.497239199506105
40
0.543551513765976
40
0.589882652697853
40
0.636189638207726
40
0.683411701386205
40
0.730661455449978
40
0.777873857662641
40
0.814434298748763
40
0.85101356955305
40
0.887568650457919
40
0.925039051967628
40
0.962537542354899
40
1
40
1
40
1
40
1
41
1
10
47.0735725806483
20
31.425
30
0
41
1
10
47.076663180293
20
31.4274262781938
30
0
41
1
10
47.0828262301407
20
31.4322107842148
30
0
41
1
10
47.0920171916778
20
31.4391858871806
30
0
41
1
10
47.1011316840025
20
31.4459355750047
30
0
41
1
10
47.1102425773793
20
31.4525071370095
30
0
41
1
10
47.1193305519461
20
31.4588738029507
30
0
41
1
10
47.1283693075272
20
31.4650009323697
30
0
41
1
10
47.1372375393922
20
31.4707928308362
30
0
41
1
10
47.1451350689968
20
31.4757351324328
30
0
41
1
10
47.1520939544962
20
31.4799065702824
30
0
41
1
10
47.1581595604975
20
31.4833926796654
30
0
41
1
10
47.1640986936595
20
31.4866431838598
30
0
41
1
10
47.1698854626012
20
31.4896300412094
30
0
41
1
10
47.1754882492238
20
31.4923207940522
30
0
41
1
10
47.1804370456746
20
31.4944913185342
30
0
41
1
10
47.1847664460965
20
31.4962018218963
30
0
41
1
10
47.1885231232494
20
31.4975204929671
30
0
41
1
10
47.1921007218685
20
31.4985915486871
30
0
41
1
10
47.1954695413239
20
31.4993877161444
30
0
41
1
10
47.1986024994537
20
31.4998860029227
30
0
41
1
10
47.2004914608659
20
31.4999977532709
30
0
41
1
10
47.2013875976497
20
31.5
30
0
0
SPLINE
5
177
100
AcDbEntity
8
1
62
256
6
ByLayer
370
18
48
1
60
0
100
AcDbSpline
70
4
71
3
72
13
73
9
40
0
40
0
40
0
40
0
40
0.166663274663073
40
0.33332672234509
40
0.499989984415984
40
0.666659931133777
40
0.833330067271027
40
1
40
1
40
1
40
1
41
1
10
46.2636347434415
20
30.7809618943233
30
0
41
1
10
46.3083703299412
20
30.8169854281439
30
0
41
1
10
46.3979271632393
20
30.8889524126332
30
0
41
1
10
46.5325177011446
20
30.9966643968554
30
0
41
1
10
46.6673699343255
20
31.1041336722358
30
0
41
1
10
46.8024869050162
20
31.2113564122555
30
0
41
1
10
46.9378718333136
20
31.318328587307
30
0
41
1
10
47.0283090899391
20
31.3894713273524
30
0
41
1
10
47.0735725806483
20
31.425
30
0
0
SPLINE
5
178
100
AcDbEntity
8
1
62
256
6
ByLayer
370
18
48
1
60
0
100
AcDbSpline
70
4
71
3
72
29
73
25
40
0
40
0
40
0
40
0
40
0.0501764632483238
40
0.100494749764774
40
0.150858605651004
40
0.201190614206192
40
0.251435309768347
40
0.301562585579434
40
0.349098266937446
40
0.396790482584506
40
0.444508652297237
40
0.492148951594879
40
0.539640950529559
40
0.587520846528859
40
0.635623778069764
40
0.683790031180095
40
0.731868566038874
40
0.7797279057897
40
0.820942835584198
40
0.862288889716683
40
0.903691498706022
40
0.94506042490646
40
0.986294599585741
40
1
40
1
40
1
40
1
41
1
10
46.1695787861624
20
30.7809618943233
30
0
41
1
10
46.1676574678723
20
30.7787484718196
30
0
41
1
10
46.1638760593194
20
30.7743413785599
30
0
41
1
10
46.1583899661678
20
30.7677956743568
30
0
41
1
10
46.1531192613094
20
30.761337967799
30
0
41
1
10
46.1480955817525
20
30.7549974538669
30
0
41
1
10
46.1433537328899
20
30.7488057970186
30
0
41
1
10
46.1389989237355
20
30.7428919218285
30
0
41
1
10
46.1350442372712
20
30.737269311995
30
0
41
1
10
46.1314939029264
20
30.731948569024
30
0
41
1
10
46.1283068195692
20
30.7268611123109
30
0
41
1
10
46.125523425487
20
30.7220522299335
30
0
41
1
10
46.1231711573979
20
30.7175466458648
30
0
41
1
10
46.1213015185461
20
30.7133906684834
30
0
41
1
10
46.1199297044439
20
30.7096078410795
30
0
41
1
10
46.1190693635388
20
30.7062332208965
30
0
41
1
10
46.1187371699313
20
30.7033041040299
30
0
41
1
10
46.1189418570472
20
30.7009667287904
30
0
41
1
10
46.1196133123229
20
30.6991719851875
30
0
41
1
10
46.1206439798093
20
30.6978287243527
30
0
41
1
10
46.1220524119326
20
30.6968415152972
30
0
41
1
10
46.1238194153628
20
30.6962066424249
30
0
41
1
10
46.1254636499883
20
30.6959859160285
30
0
41
1
10
46.1264997001096
20
30.6959615938501
30
0
41
1
10
46.1267643960857
20
30.6959618950142
30
0
0
SPLINE
5
179
100
AcDbEntity
8
1
62
256
6
ByLayer
370
18
48
1
60
0
100
AcDbSpline
70
4
71
2
72
6
73
3
40
0
40
0
40
0
40
1
40
1
40
1
41
1
10
46.1695787861624
20
30.7809618943233
30
0
41
1
10
46.4491802385744
20
31.1031878520373
30
0
41
1
10
46.7294164208485
20
31.425
30
0
0
SPLINE
5
17A
100
AcDbEntity
8
1
62
256
6
ByLayer
370
18
48
1
60
0
100
AcDbSpline
70
4
71
3
72
26
73
22
40
0
40
0
40
0
40
0
40
0.0609799708690302
40
0.122138731643203
40
0.183316444373002
40
0.244395383430533
40
0.305308217626539
40
0.353377817358283
40
0.401605688869018
40
0.449860105055514
40
0.498036068696011
40
0.546061993115738
40
0.594476286300732
40
0.643115560405537
40
0.691818558548676
40
0.740432945553227
40
0.788826269513106
40
0.841514744649828
40
0.894389240658922
40
0.947283914482619
40
1
40
1
40
1
40
1
41
1
10
46.7294164208485
20
31.425
30
0
41
1
10
46.7314838995771
20
31.4273731088317
30
0
41
1
10
46.7355374960075
20
31.4320898159328
30
0
41
1
10
46.7413745165037
20
31.43907277951
30
0
41
1
10
46.7469196144273
20
31.4459229290259
30
0
41
1
10
46.7521235800065
20
31.4525942178179
30
0
41
1
10
46.7566015915865
20
31.4585918860739
30
0
41
1
10
46.7604018197742
20
31.46393215229
30
0
41
1
10
46.7635965873582
20
31.4686522100876
30
0
41
1
10
46.7664705435754
20
31.4731597837251
30
0
41
1
10
46.7689880725314
20
31.477414315652
30
0
41
1
10
46.771125147042
20
31.4813933409835
30
0
41
1
10
46.7728368178425
20
31.4850552126989
30
0
41
1
10
46.7741099007575
20
31.4883788271657
30
0
41
1
10
46.7749320003252
20
31.4913330799385
30
0
41
1
10
46.7752881084486
20
31.4938848429739
30
0
41
1
10
46.7751578067543
20
31.4960670098813
30
0
41
1
10
46.7744724630619
20
31.4978057780997
30
0
41
1
10
46.7732197871499
20
31.499074183143
30
0
41
1
10
46.7714458021912
20
31.4998314873659
30
0
41
1
10
46.7699364921429
20
31.4999999856237
30
0
41
1
10
46.7690999715898
20
31.5
30
0
0
SPLINE
5
17B
100
AcDbEntity
8
1
62
256
6
ByLayer
370
18
48
1
60
0
100
AcDbSpline
70
4
71
3
72
26
73
22
40
0
40
0
40
0
40
0
40
0.0407899412378834
40
0.0816280602350318
40
0.122427629684653
40
0.164697739977805
40
0.20700762957624
40
0.249286843221081
40
0.300848332693552
40
0.352460916899861
40
0.404035850653821
40
0.457057510227432
40
0.510116802737914
40
0.563147369821402
40
0.617000469440242
40
0.670903629673976
40
0.724814706148909
40
0.778678610386262
40
0.852432777303159
40
0.926237490189342
40
1
40
1
40
1
40
1
41
1
10
46.7110012337671
20
31.5
30
0
41
1
10
46.71027495208
20
31.4999975062649
30
0
41
1
10
46.7087064084835
20
31.4998679758184
30
0
41
1
10
46.7059951763795
20
31.4992903617279
30
0
41
1
10
46.7029280501785
20
31.4983467149632
30
0
41
1
10
46.6995135742354
20
31.497037981179
30
0
41
1
10
46.6957722070172
20
31.4953777941232
30
0
41
1
10
46.6914782323726
20
31.4932601200552
30
0
41
1
10
46.6865913514269
20
31.4906264094703
30
0
41
1
10
46.6810865545893
20
31.4874313981784
30
0
41
1
10
46.6752587331594
20
31.4838450499268
30
0
41
1
10
46.6691331567497
20
31.4798884081292
30
0
41
1
10
46.6627335319992
20
31.4755823526642
30
0
41
1
10
46.656109399654
20
31.4709673247458
30
0
41
1
10
46.6492813677012
20
31.4660633310509
30
0
41
1
10
46.6422667310842
20
31.4608873721503
30
0
41
1
10
46.6351217598334
20
31.4554864868033
30
0
41
1
10
46.6269732586151
20
31.4491913420039
30
0
41
1
10
46.6177882815812
20
31.4419272465113
30
0
41
1
10
46.6075464237449
20
31.4336257841996
30
0
41
1
10
46.6006451783106
20
31.4279069624325
30
0
41
1
10
46.5971751748594
20
31.425
30
0
0
SPLINE
5
17C
100
AcDbEntity
8
1
62
256
6
ByLayer
370
18
48
1
60
0
100
AcDbSpline
70
4
71
3
72
11
73
7
40
0
40
0
40
0
40
0
40
0.249996457160472
40
0.499992927971239
40
0.749996457831891
40
1
40
1
40
1
40
1
41
1
10
46.5971751748594
20
31.425
30
0
41
1
10
46.5334484562052
20
31.3716247968199
30
0
41
1
10
46.4061615714861
20
31.2647261624074
30
0
41
1
10
46.2157333643443
20
31.1039272145975
30
0
41
1
10
46.0257945511555
20
30.9426916696652
30
0
41
1
10
45.8994869638043
20
30.8349191706159
30
0
41
1
10
45.8364137045397
20
30.7809618943233
30
0
0
SPLINE
5
17D
100
AcDbEntity
8
1
62
256
6
ByLayer
370
18
48
1
60
0
100
AcDbSpline
70
4
71
3
72
27
73
23
40
0
40
0
40
0
40
0
40
0.0652383946733501
40
0.130638065483636
40
0.196095139742708
40
0.261523020430143
40
0.326855242582583
40
0.392048568000753
40
0.441734265540953
40
0.491557262235946
40
0.541424335699118
40
0.591260555620651
40
0.641012259885579
40
0.69065030905269
40
0.736729147371955
40
0.782957081442031
40
0.829205779694865
40
0.875376635101879
40
0.92140745072077
40
0.95943544754613
40
0.997592327429511
40
1
40
1
40
1
40
1
41
1
10
45.8364137045397
20
30.7809618943233
30
0
41
1
10
45.8330261444215
20
30.7780636217468
30
0
41
1
10
45.8262814262638
20
30.7723410409709
30
0
41
1
10
45.8162625249741
20
30.7639833409225
30
0
41
1
10
45.8063733420641
20
30.7558853862284
30
0
41
1
10
45.7966526606996
20
30.7480848928639
30
0
41
1
10
45.7871425947547
20
30.7406230425607
30
0
41
1
10
45.7786102966532
20
30.7340951414648
30
0
41
1
10
45.7710168052567
20
30.7284313189558
30
0
41
1
10
45.7643118638726
20
30.7235538533177
30
0
41
1
10
45.7578063530567
20
30.7189549376907
30
0
41
1
10
45.751537626676
20
30.7146689147675
30
0
41
1
10
45.7455434634823
20
30.7107305734423
30
0
41
1
10
45.7399914952834
20
30.7072551459672
30
0
41
1
10
45.7348887495587
20
30.7042451616696
30
0
41
1
10
45.7302358322262
20
30.7016939336883
30
0
41
1
10
45.7259424730617
20
30.6995576302228
30
0
41
1
10
45.7220533702351
20
30.6978706503726
30
0
41
1
10
45.7188272576076
20
30.6967547992488
30
0
41
1
10
45.7161642256369
20
30.6960967909735
30
0
41
1
10
45.7147973676087
20
30.6960314873166
30
0
41
1
10
45.7140606299213
20
30.6959656900642
30
0
41
1
10
45.7140170069872
20
30.6959618943942
30
0
0
SPLINE
5
17E
100
AcDbEntity
8
1
62
256
6
ByLayer
370
18
48
1
60
0
100
AcDbSpline
70
4
71
2
72
6
73
3
40
0
40
0
40
0
40
1
40
1
40
1
41
1
10
46.3450534710127
20
31.425
30
0
41
1
10
46.0557539854319
20
31.1032974609806
30
0
41
1
10
45.7673955271484
20
30.7809618943233
30
0
0
SPLINE
5
17F
100
AcDbEntity
8
1
62
256
6
ByLayer
370
18
48
1
60
0
100
AcDbSpline
70
4
71
3
72
27
73
23
40
0
40
0
40
0
40
0
40
0.0427036315913673
40
0.0855595082902855
40
0.128460389533829
40
0.171303546444268
40
0.213996472038908
40
0.256919817261442
40
0.299986756155164
40
0.34311452513246
40
0.386204360631197
40
0.429146974497741
40
0.482804710109993
40
0.53660152201423
40
0.590425059292424
40
0.644119329693031
40
0.703228207264679
40
0.762513270821889
40
0.821933485091503
40
0.881405648559675
40
0.940810799077623
40
1
40
1
40
1
40
1
41
1
10
46.3943876623598
20
31.5
30
0
41
1
10
46.3948792039893
20
31.4999993676805
30
0
41
1
10
46.3957489933883
20
31.4998823444248
30
0
41
1
10
46.3967102808828
20
31.4993566831983
30
0
41
1
10
46.3973224478843
20
31.4984845467571
30
0
41
1
10
46.3975770185722
20
31.4972672347522
30
0
41
1
10
46.3974645041167
20
31.4957007571045
30
0
41
1
10
46.3969707116075
20
31.493777108513
30
0
41
1
10
46.3961120937962
20
31.4915167652149
30
0
41
1
10
46.3949043071024
20
31.488943928406
30
0
41
1
10
46.3933635918265
20
31.4860830691095
30
0
41
1
10
46.3913458556201
20
31.4826906046557
30
0
41
1
10
46.3887630616447
20
31.4786981713735
30
0
41
1
10
46.385559108682
20
31.4740692957616
30
0
41
1
10
46.3819597868614
20
31.4691338887334
30
0
41
1
10
46.3778708199613
20
31.4637590708178
30
0
41
1
10
46.3732803112265
20
31.4579445770245
30
0
41
1
10
46.3681900375147
20
31.4516996772612
30
0
41
1
10
46.3627826934033
20
31.4452431723024
30
0
41
1
10
46.3571029249315
20
31.438618256131
30
0
41
1
10
46.3511917833686
20
31.4318648962563
30
0
41
1
10
46.3471207380153
20
31.427298194225
30
0
41
1
10
46.3450534710127
20
31.425
30
0
0
SPLINE
5
180
100
AcDbEntity
8
1
62
256
6
ByLayer
370
18
48
1
60
0
100
AcDbSpline
70
4
71
3
72
25
73
21
40
0
40
0
40
0
40
0
40
0.0665348053289725
40
0.133253511038215
40
0.200036318409057
40
0.266784017829262
40
0.333421599346732
40
0.399902183275319
40
0.458180383403303
40
0.516627698393519
40
0.575094322145945
40
0.633468840631344
40
0.691685814423925
40
0.737235158267764
40
0.782931479159575
40
0.828650901543431
40
0.874296056271853
40
0.919802351847693
40
0.959902183276168
40
1
40
1
40
1
40
1
41
1
10
46.2524367427313
20
31.425
30
0
41
1
10
46.2553723745489
20
31.4276079481529
30
0
41
1
10
46.2612116354228
20
31.4327584209916
30
0
41
1
10
46.2698674939253
20
31.4402833678521
30
0
41
1
10
46.2783900884676
20
31.4475741361437
30
0
41
1
10
46.2867418690007
20
31.4545928979929
30
0
41
1
10
46.2948821373164
20
31.461298385819
30
0
41
1
10
46.3024541333587
20
31.4673954459324
30
0
41
1
10
46.3094647009866
20
31.4729016393296
30
0
41
1
10
46.3159246869457
20
31.4778391865539
30
0
41
1
10
46.3221083606729
20
31.4824153929697
30
0
41
1
10
46.3279615538861
20
31.4865789904323
30
0
41
1
10
46.3330406816714
20
31.490016092587
30
0
41
1
10
46.3373942624825
20
31.4927939451279
30
0
41
1
10
46.3410939448761
20
31.4950021517714
30
0
41
1
10
46.3444797854917
20
31.4968515936218
30
0
41
1
10
46.3475136672604
20
31.4983112655297
30
0
41
1
10
46.3500540088539
20
31.4993084526156
30
0
41
1
10
46.3521249920293
20
31.4998764350225
30
0
41
1
10
46.3532153659537
20
31.4999983766241
30
0
41
1
10
46.3537040309639
20
31.5
30
0
0
SPLINE
5
181
100
AcDbEntity
8
1
62
256
6
ByLayer
370
18
48
1
60
0
100
AcDbSpline
70
4
71
3
72
11
73
7
40
0
40
0
40
0
40
0
40
0.249997648594072
40
0.499995288931463
40
0.749997649039619
40
1
40
1
40
1
40
1
41
1
10
45.5337548272281
20
30.7809618943233
30
0
41
1
10
45.5933764781847
20
30.8348550004684
30
0
41
1
10
45.7127527940779
20
30.9425303040175
30
0
41
1
10
45.8922141122564
20
31.1037149401111
30
0
41
1
10
46.0720822761322
20
31.2645610820821
30
0
41
1
10
46.1922727188364
20
31.3715588939671
30
0
41
1
10
46.2524367427313
20
31.425
30
0
0
SPLINE
5
182
100
AcDbEntity
8
1
62
256
6
ByLayer
370
18
48
1
60
0
100
AcDbSpline
70
4
71
3
72
28
73
24
40
0
40
0
40
0
40
0
40
0.0573437256041465
40
0.11486321421852
40
0.172439367798242
40
0.229976162081025
40
0.287404691224951
40
0.344687607168112
40
0.395464956591966
40
0.446404523579326
40
0.497368794099874
40
0.548250371124354
40
0.598978932760783
40
0.64194874691881
40
0.68506479874546
40
0.728216744446502
40
0.771306646431131
40
0.814254454861559
40
0.857318040018988
40
0.900540141757127
40
0.943821291483626
40
0.987053217608012
40
1
40
1
40
1
40
1
41
1
10
45.4884292989256
20
30.7809618943233
30
0
41
1
10
45.4860946268773
20
30.7784416744382
30
0
41
1
10
45.4814850649538
20
30.7734366456463
30
0
41
1
10
45.4747545008966
20
30.7660418551848
30
0
41
1
10
45.4682417853844
20
30.7587902673455
30
0
41
1
10
45.4619855089328
20
30.751719259722
30
0
41
1
10
45.4560278745126
20
30.7448694434755
30
0
41
1
10
45.4506165307527
20
30.7385231831738
30
0
41
1
10
45.4457430492106
20
30.7326784094379
30
0
41
1
10
45.441387186422
20
30.7273235050822
30
0
41
1
10
45.4373831200698
20
30.7222537873848
30
0
41
1
10
45.4337763147969
20
30.7175171774821
30
0
41
1
10
45.4307677791978
20
30.7133767080825
30
0
41
1
10
45.428322617388
20
30.7098076537466
30
0
41
1
10
45.4263752444871
20
30.7067563278448
30
0
41
1
10
45.4248016985234
20
30.7040393841554
30
0
41
1
10
45.4236231559698
20
30.7016842766774
30
0
41
1
10
45.4228579226707
20
30.699712719617
30
0
41
1
10
45.4225318473915
20
30.6981529398658
30
0
41
1
10
45.4226360286791
20
30.6970010500339
30
0
41
1
10
45.4231592701343
20
30.6962539124198
30
0
41
1
10
45.4238843067027
20
30.6959996335984
30
0
41
1
10
45.4244018497929
20
30.6959641324623
30
0
41
1
10
45.4245271071509
20
30.6959618944564
30
0
0
SPLINE
5
183
100
AcDbEntity
8
1
62
256
6
ByLayer
370
18
48
1
60
0
100
AcDbSpline
70
4
71
3
72
11
73
7
40
0
40
0
40
0
40
0
40
0.24999962755804
40
0.499999253843646
40
0.749999627624987
40
1
40
1
40
1
40
1
41
1
10
45.4884292989256
20
30.7809618943233
30
0
41
1
10
45.5382073468259
20
30.8347058872962
30
0
41
1
10
45.637816335487
20
30.9421570572427
30
0
41
1
10
45.7873872692244
20
31.1032245667136
30
0
41
1
10
45.937119786481
20
31.2641797058999
30
0
41
1
10
46.0370521290815
20
31.3714059867645
30
0
41
1
10
46.0870456963793
20
31.425
30
0
0
SPLINE
5
184
100
AcDbEntity
8
1
62
256
6
ByLayer
370
18
48
1
60
0
100
AcDbSpline
70
4
71
3
72
27
73
23
40
0
40
0
40
0
40
0
40
0.0582209871287239
40
0.116622076661776
40
0.175081594148385
40
0.233501213628939
40
0.291810097387369
40
0.349969439886354
40
0.401391546953157
40
0.452977741109842
40
0.504589112899079
40
0.556117017281292
40
0.607490084473349
40
0.650972696389677
40
0.694603197524129
40
0.738269656113461
40
0.781873058481717
40
0.825332866202482
40
0.868943580681222
40
0.912664678531751
40
0.956387258858597
40
1
40
1
40
1
40
1
41
1
10
46.0870456963793
20
31.425
30
0
41
1
10
46.089153305302
20
31.4272590993098
30
0
41
1
10
46.0933159316218
20
31.4317440207009
30
0
41
1
10
46.0993977633612
20
31.4383658630411
30
0
41
1
10
46.1052874339565
20
31.4448540411674
30
0
41
1
10
46.1109504610318
20
31.4511743979242
30
0
41
1
10
46.116349185495
20
31.4572897921147
30
0
41
1
10
46.12125563221
20
31.46294323974
30
0
41
1
10
46.1256781662955
20
31.46813749436
30
0
41
1
10
46.1296359242
20
31.4728842628928
30
0
41
1
10
46.1332840875711
20
31.4773695435497
30
0
41
1
10
46.1365823235566
20
31.4815502444619
30
0
41
1
10
46.1393466058404
20
31.4851931978384
30
0
41
1
10
46.1416080242748
20
31.4883216051739
30
0
41
1
10
46.1434244723044
20
31.4909846473044
30
0
41
1
10
46.1449112392375
20
31.4933433202365
30
0
41
1
10
46.1460492057029
20
31.4953732617117
30
0
41
1
10
46.1468210146177
20
31.4970543271166
30
0
41
1
10
46.1472064402216
20
31.4983634106436
30
0
41
1
10
46.1472131536054
20
31.4993038613721
30
0
41
1
10
46.1468440097267
20
31.4998724546292
30
0
41
1
10
46.1463476043324
20
31.4999992010696
30
0
41
1
10
46.1460372895693
20
31.5
30
0
0
SPLINE
5
185
100
AcDbEntity
8
1
62
256
6
ByLayer
370
18
48
1
60
0
100
AcDbSpline
70
4
71
3
72
26
73
22
40
0
40
0
40
0
40
0
40
0.0466099387316803
40
0.093406611041024
40
0.140292566155822
40
0.187137700185592
40
0.233788450331581
40
0.280251269352914
40
0.326828721739892
40
0.373467415275526
40
0.420087199653217
40
0.466585613060842
40
0.525589209095703
40
0.584749728689278
40
0.644026718446097
40
0.703345818877535
40
0.762603662799941
40
0.821672331908128
40
0.881103005696693
40
0.940564258683367
40
1
40
1
40
1
40
1
41
1
10
46.1219377148512
20
31.5
30
0
41
1
10
46.1216103697972
20
31.4999965196192
30
0
41
1
10
46.1208027163666
20
31.4998333592293
30
0
41
1
10
46.1191174230947
20
31.4991046715804
30
0
41
1
10
46.1170023550428
20
31.4979295868392
30
0
41
1
10
46.1144866397758
20
31.4963311144483
30
0
41
1
10
46.1115980792899
20
31.4943311493369
30
0
41
1
10
46.1083591682988
20
31.4919498915057
30
0
41
1
10
46.1048070061758
20
31.4892251135807
30
0
41
1
10
46.1009656033863
20
31.4861805143923
30
0
41
1
10
46.09686900209
20
31.4828480563568
30
0
41
1
10
46.0921549168122
20
31.4789298570342
30
0
41
1
10
46.086768064995
20
31.4743601856944
30
0
41
1
10
46.0806675432457
20
31.4690874816864
30
0
41
1
10
46.0742971420671
20
31.4634941793787
30
0
41
1
10
46.0676978837136
20
31.457621303417
30
0
41
1
10
46.0609105269172
20
31.4515095973732
30
0
41
1
10
46.0539480432056
20
31.4451743962743
30
0
41
1
10
46.0468290725313
20
31.4386356292394
30
0
41
1
10
46.0395654895762
20
31.431906636439
30
0
41
1
10
46.0346522771076
20
31.4273196003502
30
0
41
1
10
46.032177263346
20
31.425
30
0
0
SPLINE
5
186
100
AcDbEntity
8
1
62
256
6
ByLayer
370
18
48
1
60
0
100
AcDbSpline
70
4
71
3
72
11
73
7
40
0
40
0
40
0
40
0
40
0.249998382316818
40
0.499996770671808
40
0.749998382607667
40
1
40
1
40
1
40
1
41
1
10
46.032177263346
20
31.425
30
0
41
1
10
45.9750976813719
20
31.3715085213011
30
0
41
1
10
45.8610511263902
20
31.2644358157705
30
0
41
1
10
45.6903213200111
20
31.1035540685685
30
0
41
1
10
45.5199227541259
20
30.9424078953985
30
0
41
1
10
45.4065390435559
20
30.8348059618427
30
0
41
1
10
45.3499016013522
20
30.7809618943233
30
0
0
SPLINE
5
187
100
AcDbEntity
8
1
62
256
6
ByLayer
370
18
48
1
60
0
100
AcDbSpline
70
4
71
3
72
27
73
23
40
0
40
0
40
0
40
0
40
0.068614776950459
40
0.137269694724174
40
0.205874280414271
40
0.258778950007742
40
0.311740511548783
40
0.364691278036954
40
0.417581210723229
40
0.471159340669774
40
0.524896248799711
40
0.578653792112374
40
0.63232719021947
40
0.685851900780494
40
0.729936997055139
40
0.774170033451613
40
0.818431763715799
40
0.862623738417935
40
0.906674282781181
40
0.951001647585962
40
0.995521556389813
40
1
40
1
40
1
40
1
41
1
10
45.3499016013522
20
30.7809618943233
30
0
41
1
10
45.3467176334652
20
30.7779348192468
30
0
41
1
10
45.3404104156711
20
30.771958367656
30
0
41
1
10
45.3311234290495
20
30.7632178995395
30
0
41
1
10
45.3227468439751
20
30.7553933597595
30
0
41
1
10
45.3152533479997
20
30.7484450462152
30
0
41
1
10
45.3086046366002
20
30.742323461267
30
0
41
1
10
45.3021521458561
20
30.7364290202688
30
0
41
1
10
45.2958963306006
20
30.7307644855477
30
0
41
1
10
45.2898660404575
20
30.7253600388174
30
0
41
1
10
45.2840954706839
20
30.7202501674522
30
0
41
1
10
45.2786494082744
20
30.7154958012202
30
0
41
1
10
45.2735805719046
20
30.7111473428017
30
0
41
1
10
45.2692073370755
20
30.7074776671351
30
0
41
1
10
45.2654905048471
20
30.7044416465391
30
0
41
1
10
45.2623635527303
20
30.7019670008988
30
0
41
1
10
45.2596051353746
20
30.69987511936
30
0
41
1
10
45.25724611892
20
30.6981930631106
30
0
41
1
10
45.2553261561859
20
30.6969589193036
30
0
41
1
10
45.2538346036121
20
30.6961605040496
30
0
41
1
10
45.2532363365367
20
30.6960493488745
30
0
41
1
10
45.2528998915106
20
30.6959688328369
30
0
41
1
10
45.2528695599002
20
30.695961894327
30
0
0
SPLINE
5
188
100
AcDbEntity
8
1
62
256
6
ByLayer
370
18
48
1
60
0
100
AcDbSpline
70
4
71
3
72
11
73
7
40
0
40
0
40
0
40
0
40
0.249999345204986
40
0.499998692817582
40
0.749999345319608
40
1
40
1
40
1
40
1
41
1
10
45.9502583849151
20
31.425
30
0
41
1
10
45.8982144581674
20
31.3714336496552
30
0
41
1
10
45.7941982797372
20
31.2642488600294
30
0
41
1
10
45.6383906675555
20
31.1033135917535
30
0
41
1
10
45.4827940111347
20
30.9422248529178
30
0
41
1
10
45.3791999836962
20
30.834732916287
30
0
41
1
10
45.3274375809252
20
30.7809618943233
30
0
0
SPLINE
5
189
100
AcDbEntity
8
1
62
256
6
ByLayer
370
18
48
1
60
0
100
AcDbSpline
70
4
71
3
72
27
73
23
40
0
40
0
40
0
40
0
40
0.0443296814760853
40
0.0888311554311509
40
0.133398792136823
40
0.177914902206928
40
0.222256907019412
40
0.266614023991027
40
0.311099740926245
40
0.355648279389015
40
0.400170332695268
40
0.444558015639007
40
0.494728813327374
40
0.545035503311809
40
0.595440792969644
40
0.645879982746894
40
0.696265022453108
40
0.746488208201094
40
0.809811106303182
40
0.873223979782869
40
0.936653868068015
40
1
40
1
40
1
40
1
41
1
10
46.0190881688957
20
31.5
30
0
41
1
10
46.0192027400689
20
31.4999980731601
30
0
41
1
10
46.0192984386708
20
31.499859870929
30
0
41
1
10
46.019033129192
20
31.4992410214899
30
0
41
1
10
46.0183751713408
20
31.4982295120275
30
0
41
1
10
46.0173331597469
20
31.4968364756842
30
0
41
1
10
46.0159125388789
20
31.4950693742932
30
0
41
1
10
46.0141177832542
20
31.4929341012204
30
0
41
1
10
46.0119788147308
20
31.4904613315814
30
0
41
1
10
46.0095189448999
20
31.4876756850536
30
0
41
1
10
46.006765442408
20
31.4846061101386
30
0
41
1
10
46.0036069355739
20
31.4811291217572
30
0
41
1
10
46.0000173553472
20
31.4772209599912
30
0
41
1
10
45.9959849920544
20
31.4728718111356
30
0
41
1
10
45.991680687314
20
31.4682656186759
30
0
41
1
10
45.9871366102709
20
31.4634352356925
30
0
41
1
10
45.9823847018155
20
31.4584132750578
30
0
41
1
10
45.9770182118641
20
31.4527712375019
30
0
41
1
10
45.9709954796081
20
31.4464725160636
30
0
41
1
10
45.9642879890114
20
31.4394936623325
30
0
41
1
10
45.9573721803203
20
31.4323314519171
30
0
41
1
10
45.9526488617967
20
31.427460256194
30
0
41
1
10
45.9502583849151
20
31.425
30
0
0
SPLINE
5
18A
100
AcDbEntity
8
1
62
256
6
ByLayer
370
18
48
1
60
0
100
AcDbSpline
70
4
71
3
72
26
73
22
40
0
40
0
40
0
40
0
40
0.0696926540687544
40
0.139429769175721
40
0.209110160538184
40
0.263015242760764
40
0.316985729741809
40
0.370943328853833
40
0.424830814614832
40
0.477070463532583
40
0.529468143298394
40
0.581888412646857
40
0.634226827562683
40
0.68641662451949
40
0.730266483958869
40
0.774264634414777
40
0.818294594410832
40
0.862257436312216
40
0.906077583834664
40
0.95303949156063
40
1
40
1
40
1
40
1
41
1
10
45.9320825669943
20
31.425
30
0
41
1
10
45.9348387132431
20
31.4277126655915
30
0
41
1
10
45.9402889735336
20
31.4330699517462
30
0
41
1
10
45.9482865098691
20
31.4409105335339
30
0
41
1
10
45.9554757765507
20
31.4479372784971
30
0
41
1
10
45.9618845288562
20
31.4541819203928
30
0
41
1
10
45.9675513886802
20
31.4596868460843
30
0
41
1
10
45.9730205499992
20
31.4649812140912
30
0
41
1
10
45.9782117097972
20
31.4699862450623
30
0
41
1
10
45.9831075582127
20
31.4746842876316
30
0
41
1
10
45.9876920345948
20
31.4790593013272
30
0
41
1
10
45.9919844451243
20
31.483128439012
30
0
41
1
10
45.995941839326
20
31.4868489779219
30
0
41
1
10
45.9993363718216
20
31.4900064133227
30
0
41
1
10
46.0021980766136
20
31.4926328243362
30
0
41
1
10
46.0045813247193
20
31.4947850580536
30
0
41
1
10
46.006637745491
20
31.4966014806665
30
0
41
1
10
46.0083421386782
20
31.4980580403256
30
0
41
1
10
46.009700610464
20
31.4991555666
30
0
41
1
10
46.0106604901258
20
31.4998415256655
30
0
41
1
10
46.0110079434885
20
31.4999987614078
30
0
41
1
10
46.0111052842119
20
31.5
30
0
0
SPLINE
5
18B
100
AcDbEntity
8
1
62
256
6
ByLayer
370
18
48
1
60
0
100
AcDbSpline
70
4
71
3
72
11
73
7
40
0
40
0
40
0
40
0
40
0.249998976029811
40
0.499997948544235
40
0.749998976215789
40
1
40
1
40
1
40
1
41
1
10
45.2815305505943
20
30.7809618943233
30
0
41
1
10
45.3355662343141
20
30.834765237811
30
0
41
1
10
45.4437253402501
20
30.9423056199451
30
0
41
1
10
45.6062254266009
20
31.1034196540007
30
0
41
1
10
45.7689936474102
20
31.2643313497629
30
0
41
1
10
45.8776893207547
20
31.3714667752257
30
0
41
1
10
45.9320825669943
20
31.425
30
0
0
SPLINE
5
18C
100
AcDbEntity
8
1
62
256
6
ByLayer
370
18
48
1
60
0
100
AcDbSpline
70
4
71
3
72
28
73
24
40
0
40
0
40
0
40
0
40
0.0526668691941245
40
0.105377287432641
40
0.15808096371408
40
0.210738631513092
40
0.265147527994578
40
0.319626666331859
40
0.374091297662741
40
0.428480385355229
40
0.479443471464572
40
0.53056101013921
40
0.581701022481887
40
0.632761401769079
40
0.683676406659442
40
0.72686478740247
40
0.770199684645729
40
0.813567278211185
40
0.856869718642871
40
0.900030786786453
40
0.943373006867333
40
0.986886929312634
40
1
40
1
40
1
40
1
41
1
10
84.7185075550822
20
30.7809618943233
30
0
41
1
10
84.72083485027
20
30.7786446708194
30
0
41
1
10
84.725450010269
20
30.7740502382337
30
0
41
1
10
84.7322566704055
20
30.7672765056332
30
0
41
1
10
84.7389239943286
20
30.7606436250321
30
0
41
1
10
84.7455059350575
20
30.75409782249
30
0
41
1
10
84.7519779307908
20
30.7476634830017
30
0
41
1
10
84.7583095216497
20
30.7413707283369
30
0
41
1
10
84.7643993851171
20
30.7353200493871
30
0
41
1
10
84.7700923065599
20
30.7296654106169
30
0
41
1
10
84.7753770293184
20
30.7244176858056
30
0
41
1
10
84.780247823169
20
30.7195821857639
30
0
41
1
10
84.7847857367165
20
30.7150781750749
30
0
41
1
10
84.78894382745
20
30.7109520113691
30
0
41
1
10
84.7924926409811
20
30.7074311387848
30
0
41
1
10
84.7954630323213
20
30.7044846023161
30
0
41
1
10
84.7979139054244
20
30.7020537154967
30
0
41
1
10
84.7999928500918
20
30.6999919623665
30
0
41
1
10
84.8016737163612
20
30.6983251625317
30
0
41
1
10
84.8029314104739
20
30.6970780858981
30
0
41
1
10
84.803745423446
20
30.6962709741776
30
0
41
1
10
84.8039953259631
20
30.6960231145756
30
0
41
1
10
84.8040501692871
20
30.6959688053454
30
0
41
1
10
84.8040572807382
20
30.6959617734706
30
0
0
SPLINE
5
18D
100
AcDbEntity
8
1
62
256
6
ByLayer
370
18
48
1
60
0
100
AcDbSpline
70
4
71
3
72
11
73
7
40
0
40
0
40
0
40
0
40
0.249998948294772
40
0.499997900476775
40
0.749998948480631
40
1
40
1
40
1
40
1
41
1
10
84.0679555386822
20
31.425
30
0
41
1
10
84.1223483333632
20
31.3714672196633
30
0
41
1
10
84.2310431050805
20
31.2643326842053
30
0
41
1
10
84.3938108788456
20
31.1034214363087
30
0
41
1
10
84.5563114181699
20
30.9423069588794
30
0
41
1
10
84.6644714227683
20
30.8347656844945
30
0
41
1
10
84.7185075550822
20
30.7809618943233
30
0
0
SPLINE
5
18E
100
AcDbEntity
8
1
62
256
6
ByLayer
370
18
48
1
60
0
100
AcDbSpline
70
4
71
3
72
26
73
22
40
0
40
0
40
0
40
0
40
0.0453852814136416
40
0.0909504625935201
40
0.136593229314302
40
0.182189318157563
40
0.227600626244408
40
0.272923229169549
40
0.318367314667055
40
0.363873788273136
40
0.409357968941941
40
0.454714292542762
40
0.509099182279826
40
0.563629694264607
40
0.618267486523139
40
0.67294344590828
40
0.727562168634585
40
0.782006038705887
40
0.854644098646468
40
0.927347257785442
40
1
40
1
40
1
40
1
41
1
10
83.9889328214646
20
31.5
30
0
41
1
10
83.9890283396299
20
31.4999973309736
30
0
41
1
10
83.9893626995439
20
31.4998471916975
30
0
41
1
10
83.9903057678526
20
31.499175813787
30
0
41
1
10
83.991660936513
20
31.498086023092
30
0
41
1
10
83.9934097150382
20
31.4965946178467
30
0
41
1
10
83.9955363262042
20
31.4947158796177
30
0
41
1
10
83.9980270664002
20
31.4924628229392
30
0
41
1
10
84.0008476353665
20
31.4898700613672
30
0
41
1
10
84.0039736145606
20
31.4869618437512
30
0
41
1
10
84.0073738941228
20
31.4837687693524
30
0
41
1
10
84.0112675624363
20
31.4800845452908
30
0
41
1
10
84.0156961708552
20
31.4758653151777
30
0
41
1
10
84.0206871295084
20
31.4710816554792
30
0
41
1
10
84.0259501527079
20
31.4660119972936
30
0
41
1
10
84.0314487418101
20
31.4606930790522
30
0
41
1
10
84.0371466352042
20
31.4551613967407
30
0
41
1
10
84.0436726877316
20
31.4488056301371
30
0
41
1
10
84.0510786182859
20
31.4415695932821
30
0
41
1
10
84.0594029052477
20
31.4334101291189
30
0
41
1
10
84.0650820300244
20
31.4278281912705
30
0
41
1
10
84.0679555386822
20
31.425
30
0
0
SPLINE
5
18F
100
AcDbEntity
8
1
62
256
6
ByLayer
370
18
48
1
60
0
100
AcDbSpline
70
4
71
3
72
26
73
22
40
0
40
0
40
0
40
0
40
0.0712253998987473
40
0.142502138013851
40
0.213711226983086
40
0.26910153547036
40
0.324572925238181
40
0.380026999085763
40
0.435393659032433
40
0.485029663213874
40
0.534819279262444
40
0.584633553660377
40
0.634370753925308
40
0.683962664057103
40
0.733998323815523
40
0.784269706253536
40
0.834598609688394
40
0.884826197385848
40
0.934824955495209
40
0.9674124648193
40
1
40
1
40
1
40
1
41
1
10
84.0497797207614
20
31.425
30
0
41
1
10
84.0470910168152
20
31.4277671472349
30
0
41
1
10
84.041790121491
20
31.4332354024878
30
0
41
1
10
84.0340579155194
20
31.4412496391846
30
0
41
1
10
84.0271495308865
20
31.4484484923318
30
0
41
1
10
84.0210321143517
20
31.4548575129742
30
0
41
1
10
84.0156596108068
20
31.4605158714391
30
0
41
1
10
84.010531037239
20
31.4659496863624
30
0
41
1
10
84.0058463103126
20
31.4709475511335
30
0
41
1
10
84.0016036164654
20
31.4755093331979
30
0
41
1
10
83.9977901874886
20
31.4796453157289
30
0
41
1
10
83.9942764945853
20
31.4834958915283
30
0
41
1
10
83.9911004644082
20
31.4870216478259
30
0
41
1
10
83.9882851309126
20
31.4901994906075
30
0
41
1
10
83.9858765828782
20
31.4929831272214
30
0
41
1
10
83.9838964779726
20
31.4953492934908
30
0
41
1
10
83.9823694140518
20
31.4972697387152
30
0
41
1
10
83.9813219162572
20
31.4987143843019
30
0
41
1
10
83.9808453456981
20
31.4995429977291
30
0
41
1
10
83.9807661524139
20
31.499926800985
30
0
41
1
10
83.9808644818731
20
31.4999999140132
30
0
41
1
10
83.9809499367808
20
31.5
30
0
0
SPLINE
5
190
100
AcDbEntity
8
1
62
256
6
ByLayer
370
18
48
1
60
0
100
AcDbSpline
70
4
71
3
72
11
73
7
40
0
40
0
40
0
40
0
40
0.249999362386756
40
0.499998722595197
40
0.749999362501421
40
1
40
1
40
1
40
1
41
1
10
84.6726005247513
20
30.7809618943233
30
0
41
1
10
84.6208383895437
20
30.834732638332
30
0
41
1
10
84.5172448979562
20
30.9422240195778
30
0
41
1
10
84.3616485112501
20
31.1033124820158
30
0
41
1
10
84.2058406322668
20
31.2642480288022
30
0
41
1
10
84.1018239165289
20
31.3714333727566
30
0
41
1
10
84.0497797207614
20
31.425
30
0
0
SPLINE
5
191
100
AcDbEntity
8
1
62
256
6
ByLayer
370
18
48
1
60
0
100
AcDbSpline
70
4
71
3
72
27
73
23
40
0
40
0
40
0
40
0
40
0.060928387095801
40
0.122050722257571
40
0.183235689929579
40
0.244377286766367
40
0.305399386145976
40
0.36626075478115
40
0.41832034229063
40
0.470542996782548
40
0.522789270908925
40
0.574951315775123
40
0.626959914799033
40
0.670502122257596
40
0.714191885128351
40
0.757915323024146
40
0.801573834114229
40
0.845089743042253
40
0.888772712141131
40
0.93262552713362
40
0.976538126493578
40
1
40
1
40
1
40
1
41
1
10
84.6726005247513
20
30.7809618943233
30
0
41
1
10
84.6751789783635
20
30.7782836745096
30
0
41
1
10
84.6802780835465
20
30.77297215384
30
0
41
1
10
84.6877475914523
20
30.7651465924713
30
0
41
1
10
84.6950011827583
20
30.7574973443723
30
0
41
1
10
84.7019961574951
20
30.7500663350309
30
0
41
1
10
84.7086859377232
20
30.7428991442925
30
0
41
1
10
84.7147264555641
20
30.7363636330791
30
0
41
1
10
84.720137269267
20
30.7304450747848
30
0
41
1
10
84.7249513847914
20
30.7251161261102
30
0
41
1
10
84.7294215839703
20
30.7200971113231
30
0
41
1
10
84.7334996830753
20
30.7154371756669
30
0
41
1
10
84.7369463335962
20
30.7114093754961
30
0
41
1
10
84.7397990383757
20
30.7079815921723
30
0
41
1
10
84.742124863176
20
30.7050929683542
30
0
41
1
10
84.7440791748624
20
30.7025551757843
30
0
41
1
10
84.7456362724944
20
30.7003968940589
30
0
41
1
10
84.7467755267866
20
30.6986401018114
30
0
41
1
10
84.7474644740788
20
30.6973181654817
30
0
41
1
10
84.7477117149409
20
30.6964251858638
30
0
41
1
10
84.7475390860848
20
30.6960447933964
30
0
41
1
10
84.7472789593175
20
30.6959687098866
30
0
41
1
10
84.747168458807
20
30.6959618944031
30
0
0
SPLINE
5
192
100
AcDbEntity
8
1
62
256
6
ByLayer
370
18
48
1
60
0
100
AcDbSpline
70
4
71
3
72
11
73
7
40
0
40
0
40
0
40
0
40
0.249998425382244
40
0.499996845308296
40
0.749998425673382
40
1
40
1
40
1
40
1
41
1
10
84.6501365043243
20
30.7809618943233
30
0
41
1
10
84.5934997852467
20
30.8348052743464
30
0
41
1
10
84.4801175237408
20
30.942405835142
30
0
41
1
10
84.3097196893358
20
31.1035513274336
30
0
41
1
10
84.1389891627854
20
31.2644337644991
30
0
41
1
10
84.0249411530848
20
31.3715078382972
30
0
41
1
10
83.9678608423305
20
31.425
30
0
0
SPLINE
5
193
100
AcDbEntity
8
1
62
256
6
ByLayer
370
18
48
1
60
0
100
AcDbSpline
70
4
71
3
72
26
73
22
40
0
40
0
40
0
40
0
40
0.0679224551615427
40
0.135883077352617
40
0.203796525139107
40
0.256086039588626
40
0.308427970471709
40
0.360760510740236
40
0.41303720654846
40
0.468136212652667
40
0.523398344928026
40
0.578681298602112
40
0.633877447927657
40
0.688920954836923
40
0.733161416948386
40
0.777545334118888
40
0.821955933079322
40
0.86629788538919
40
0.910503039641061
40
0.95525260229088
40
1
40
1
40
1
40
1
41
1
10
83.9678608423305
20
31.425
30
0
41
1
10
83.9650316431175
20
31.4276516300887
30
0
41
1
10
83.9594224171114
20
31.4328855745866
30
0
41
1
10
83.9511496157693
20
31.4405361560477
30
0
41
1
10
83.9436749706051
20
31.4473793787329
30
0
41
1
10
83.936976020516
20
31.4534520083412
30
0
41
1
10
83.9310211413012
20
31.4587987627828
30
0
41
1
10
83.9252243427672
20
31.4639482821942
30
0
41
1
10
83.9195065697178
20
31.4689668126381
30
0
41
1
10
83.9138995209745
20
31.4738181720859
30
0
41
1
10
83.9084438969208
20
31.4784581411275
30
0
41
1
10
83.903272507893
20
31.4827673344941
30
0
41
1
10
83.8984337315989
20
31.4866990604212
30
0
41
1
10
83.8942611502145
20
31.4899827346516
30
0
41
1
10
83.8907121741732
20
31.4926701546779
30
0
41
1
10
83.8877207354229
20
31.4948367234694
30
0
41
1
10
83.8850433444898
20
31.4966638009574
30
0
41
1
10
83.8827108648602
20
31.4981246381635
30
0
41
1
10
83.8807457645058
20
31.4991961970732
30
0
41
1
10
83.8791781149193
20
31.4998508999219
30
0
41
1
10
83.8784129577302
20
31.4999983296302
30
0
41
1
10
83.8781003908253
20
31.5
30
0
0
SPLINE
5
194
100
AcDbEntity
8
1
62
256
6
ByLayer
370
18
48
1
60
0
100
AcDbSpline
70
4
71
3
72
27
73
23
40
0
40
0
40
0
40
0
40
0.0434344507700895
40
0.0870314178041863
40
0.130683616364593
40
0.174280578198929
40
0.217715024591623
40
0.261271509904557
40
0.304963963160583
40
0.348718781399956
40
0.392441961884933
40
0.436024300288522
40
0.491607135518995
40
0.547364867640293
40
0.603220682232121
40
0.659051244352031
40
0.714695361247936
40
0.771667110377554
40
0.828744163344663
40
0.885877871283055
40
0.942994769041832
40
1
40
1
40
1
40
1
41
1
10
83.8540008161072
20
31.5
30
0
41
1
10
83.8536922161683
20
31.4999987512767
30
0
41
1
10
83.8531984133037
20
31.4998715629289
30
0
41
1
10
83.8528337413907
20
31.4993011753805
30
0
41
1
10
83.852840635881
20
31.4983620484362
30
0
41
1
10
83.8532195317175
20
31.4970601558079
30
0
41
1
10
83.853973455126
20
31.4953968802939
30
0
41
1
10
83.8551073382033
20
31.4933710863375
30
0
41
1
10
83.8565972313138
20
31.4910087303314
30
0
41
1
10
83.8584226589421
20
31.4883344784281
30
0
41
1
10
83.860561280206
20
31.4853752398966
30
0
41
1
10
83.8632203794606
20
31.4818545191089
30
0
41
1
10
83.866487424873
20
31.4776973669987
30
0
41
1
10
83.8704218950778
20
31.4728570916883
30
0
41
1
10
83.8747283794342
20
31.4676993497627
30
0
41
1
10
83.8793584520284
20
31.4622748965268
30
0
41
1
10
83.8843156950552
20
31.4565752481494
30
0
41
1
10
83.8895799385401
20
31.4506214847845
30
0
41
1
10
83.8951308001089
20
31.4444327672403
30
0
41
1
10
83.9008990479875
20
31.4380827708568
30
0
41
1
10
83.9068541648462
20
31.431601474507
30
0
41
1
10
83.9109288796963
20
31.4272118346599
30
0
41
1
10
83.9129924092972
20
31.425
30
0
0
SPLINE
5
195
100
AcDbEntity
8
1
62
256
6
ByLayer
370
18
48
1
60
0
100
AcDbSpline
70
4
71
3
72
11
73
7
40
0
40
0
40
0
40
0
40
0.249999617521803
40
0.49999923644992
40
0.749999617588735
40
1
40
1
40
1
40
1
41
1
10
83.9129924092972
20
31.425
30
0
41
1
10
83.9629858256462
20
31.3714061485885
30
0
41
1
10
84.0629178666761
20
31.2641801915997
30
0
41
1
10
84.2126502339745
20
31.1032252149288
30
0
41
1
10
84.3622213189706
20
30.9421575438491
30
0
41
1
10
84.461830608552
20
30.8347060495735
30
0
41
1
10
84.5116088067509
20
30.7809618943233
30
0
0
SPLINE
5
196
100
AcDbEntity
8
1
62
256
6
ByLayer
370
18
48
1
60
0
100
AcDbSpline
70
4
71
3
72
28
73
24
40
0
40
0
40
0
40
0
40
0.0667693167525056
40
0.133573026522491
40
0.200334884178898
40
0.251602244570726
40
0.302915296681456
40
0.354220493845097
40
0.405477133098623
40
0.452504999334295
40
0.499665141278144
40
0.546868981138355
40
0.594044595942138
40
0.641139517179978
40
0.688123790593281
40
0.733180840401522
40
0.778386786827581
40
0.823617467862736
40
0.868774116069464
40
0.913789685874134
40
0.951605106367255
40
0.989589017314302
40
1
40
1
40
1
40
1
41
1
10
84.4662832784484
20
30.7809618943233
30
0
41
1
10
84.4695516469332
20
30.7780072813129
30
0
41
1
10
84.4760405255603
20
30.7721764911618
30
0
41
1
10
84.4856368796642
20
30.7636579916033
30
0
41
1
10
84.4943297716495
20
30.7560445117947
30
0
41
1
10
84.5021408773036
20
30.749291716135
30
0
41
1
10
84.5091013673514
20
30.7433482345979
30
0
41
1
10
84.5159048340603
20
30.737617439861
30
0
41
1
10
84.5223467345772
20
30.7322727733214
30
0
41
1
10
84.5284269361887
20
30.7273106365232
30
0
41
1
10
84.5341470474504
20
30.7227250521352
30
0
41
1
10
84.5396603909993
20
30.7183946329947
30
0
41
1
10
84.5449333590079
20
30.7143507369896
30
0
41
1
10
84.5499319773574
20
30.7106251072884
30
0
41
1
10
84.5545634880982
20
30.7072912175188
30
0
41
1
10
84.5588116081176
20
30.7043639914737
30
0
41
1
10
84.562667457837
20
30.7018485680794
30
0
41
1
10
84.5661595623929
20
30.6997304750263
30
0
41
1
10
84.5692472568776
20
30.6980432328152
30
0
41
1
10
84.5717484153351
20
30.6968879224282
30
0
41
1
10
84.5737211539346
20
30.6961995512016
30
0
41
1
10
84.5748197854119
20
30.6960232327948
30
0
41
1
10
84.5753911024634
20
30.6959698900115
30
0
41
1
10
84.5755105757975
20
30.6959618945529
30
0
0
SPLINE
5
197
100
AcDbEntity
8
1
62
256
6
ByLayer
370
18
48
1
60
0
100
AcDbSpline
70
4
71
3
72
11
73
7
40
0
40
0
40
0
40
0
40
0.249997583387899
40
0.499995175922899
40
0.749997583832794
40
1
40
1
40
1
40
1
41
1
10
83.7476013629452
20
31.425
30
0
41
1
10
83.8077642395394
20
31.3715599131308
30
0
41
1
10
83.9279523928291
20
31.2645641439187
30
0
41
1
10
84.1078194251161
20
31.1037190343072
30
0
41
1
10
84.2872818955262
20
30.9425333831304
30
0
41
1
10
84.406660490512
20
30.8348560282698
30
0
41
1
10
84.4662832784484
20
30.7809618943233
30
0
0
SPLINE
5
198
100
AcDbEntity
8
1
62
256
6
ByLayer
370
18
48
1
60
0
100
AcDbSpline
70
4
71
3
72
25
73
21
40
0
40
0
40
0
40
0
40
0.0480287906659081
40
0.0962498319969113
40
0.144571925880026
40
0.192859908733922
40
0.240945074679732
40
0.288748888486646
40
0.336660780696117
40
0.384632209986992
40
0.432587431534236
40
0.480427670829811
40
0.544525222485376
40
0.608793020581177
40
0.673187022655279
40
0.737626539698102
40
0.801999529701178
40
0.866167414514988
40
0.933082836845787
40
1
40
1
40
1
40
1
41
1
10
83.6463340747126
20
31.5
30
0
41
1
10
83.6469221517025
20
31.4999956293221
30
0
41
1
10
83.6482606271005
20
31.4998181004294
30
0
41
1
10
83.6507739180556
20
31.499026155092
30
0
41
1
10
83.6537328139696
20
31.497756954116
30
0
41
1
10
83.6570969172742
20
31.4960403404434
30
0
41
1
10
83.6608248742345
20
31.4939067099811
30
0
41
1
10
83.6648860276577
20
31.4913835336495
30
0
41
1
10
83.6692419883597
20
31.4885109664201
30
0
41
1
10
83.6738704803533
20
31.4853121088433
30
0
41
1
10
83.6787352752467
20
31.4818200789231
30
0
41
1
10
83.6843838187607
20
31.4776348841948
30
0
41
1
10
83.6908832795075
20
31.4726664716771
30
0
41
1
10
83.6982855739713
20
31.4668377312948
30
0
41
1
10
83.7059527074335
20
31.4606466322866
30
0
41
1
10
83.7138387242987
20
31.4541389785279
30
0
41
1
10
83.7218982370142
20
31.4473599493953
30
0
41
1
10
83.730217647282
20
31.4402420458347
30
0
41
1
10
83.7387845084065
20
31.4327953381954
30
0
41
1
10
83.7446488479669
20
31.4276229661914
30
0
41
1
10
83.7476013629452
20
31.425
30
0
0
SPLINE
5
199
100
AcDbEntity
8
1
62
256
6
ByLayer
370
18
48
1
60
0
100
AcDbSpline
70
4
71
3
72
27
73
23
40
0
40
0
40
0
40
0
40
0.0545207602764236
40
0.109203548014588
40
0.163938763882689
40
0.218637977243374
40
0.273237566673326
40
0.327702710528688
40
0.377572237168165
40
0.427603639700615
40
0.477661079877491
40
0.527637268908812
40
0.577460341133527
40
0.627726034603478
40
0.678232849798384
40
0.728802951664713
40
0.779273413575664
40
0.829508472626775
40
0.872077912312138
40
0.914747456312202
40
0.957422729545989
40
1
40
1
40
1
40
1
41
1
10
83.6549846346638
20
31.425
30
0
41
1
10
83.6530808317734
20
31.427116522951
30
0
41
1
10
83.6493270611091
20
31.4313242243415
30
0
41
1
10
83.6438611452509
20
31.4375543975626
30
0
41
1
10
83.638587870639
20
31.4436787101692
30
0
41
1
10
83.6335383887764
20
31.4496669765603
30
0
41
1
10
83.6287468229154
20
31.4554864006848
30
0
41
1
10
83.6243680418129
20
31.4609525153646
30
0
41
1
10
83.6204035086834
20
31.4660592675304
30
0
41
1
10
83.6168452313165
20
31.470806508383
30
0
41
1
10
83.6136028726702
20
31.4753164920161
30
0
41
1
10
83.6107145658154
20
31.4795471599269
30
0
41
1
10
83.6082045709113
20
31.4834756768263
30
0
41
1
10
83.6061205833234
20
31.4870567679353
30
0
41
1
10
83.6044809893986
20
31.4902662617665
30
0
41
1
10
83.6033048264216
20
31.4930704472853
30
0
41
1
10
83.6026135834588
20
31.4954337369638
30
0
41
1
10
83.6024399200839
20
31.4972267336767
30
0
41
1
10
83.6027127459048
20
31.4985066312187
30
0
41
1
10
83.6033276207761
20
31.499368247031
30
0
41
1
10
83.604291706712
20
31.4998848300663
30
0
41
1
10
83.605159954483
20
31.4999998063601
30
0
41
1
10
83.6056504433166
20
31.5
30
0
0
SPLINE
5
19A
100
AcDbEntity
8
1
62
256
6
ByLayer
370
18
48
1
60
0
100
AcDbSpline
70
4
71
2
72
6
73
3
40
0
40
0
40
0
40
1
40
1
40
1
41
1
10
84.2326425785281
20
30.7809618943233
30
0
41
1
10
83.9442841202343
20
31.1032974609729
30
0
41
1
10
83.6549846346638
20
31.425
30
0
0
SPLINE
5
19B
100
AcDbEntity
8
1
62
256
6
ByLayer
370
18
48
1
60
0
100
AcDbSpline
70
4
71
3
72
29
73
25
40
0
40
0
40
0
40
0
40
0.0537721207398862
40
0.107702665081223
40
0.161684203115863
40
0.215630220963395
40
0.269478682664938
40
0.323195934195393
40
0.372473160733661
40
0.421910427308063
40
0.471373188564692
40
0.520755388011654
40
0.569986283244218
40
0.61135963009256
40
0.652919130180704
40
0.69456213569497
40
0.736190974996063
40
0.777717710793134
40
0.819069119334489
40
0.861311740487595
40
0.903696745409529
40
0.94614079068229
40
0.988546084596908
40
1
40
1
40
1
40
1
41
1
10
84.2326425785281
20
30.7809618943233
30
0
41
1
10
84.2347596502528
20
30.7785960513753
30
0
41
1
10
84.2389328724972
20
30.7738914486929
30
0
41
1
10
84.2450066387393
20
30.7669218871459
30
0
41
1
10
84.250862713311
20
30.7600662880231
30
0
41
1
10
84.2564661649058
20
30.7533577991071
30
0
41
1
10
84.2617786840179
20
30.7468324077254
30
0
41
1
10
84.2666311265115
20
30.7406928663231
30
0
41
1
10
84.2710210178004
20
30.7349463378505
30
0
41
1
10
84.2749561782082
20
30.7295937556754
30
0
41
1
10
84.2785330366724
20
30.7245007724899
30
0
41
1
10
84.2817084845266
20
30.7197142362909
30
0
41
1
10
84.2843010043274
20
30.7155085199159
30
0
41
1
10
84.2863475353662
20
30.7118612080155
30
0
41
1
10
84.2879195521164
20
30.7087185797733
30
0
41
1
10
84.2891320407116
20
30.7058769734923
30
0
41
1
10
84.2899708383666
20
30.7033599509635
30
0
41
1
10
84.2904228621596
20
30.7011901780735
30
0
41
1
10
84.2904736949985
20
30.6993756653179
30
0
41
1
10
84.2900995867913
20
30.6979434440619
30
0
41
1
10
84.2893121713331
20
30.6968882532969
30
0
41
1
10
84.2881309891642
20
30.6962127625225
30
0
41
1
10
84.2869424561827
20
30.6959930837771
30
0
41
1
10
84.2861857022797
20
30.6959637127952
30
0
41
1
10
84.2860203559956
20
30.69596189455
30
0
0
SPLINE
5
19C
100
AcDbEntity
8
1
62
256
6
ByLayer
370
18
48
1
60
0
100
AcDbSpline
70
4
71
3
72
11
73
7
40
0
40
0
40
0
40
0
40
0.249996554411313
40
0.499993096516559
40
0.749996555084182
40
1
40
1
40
1
40
1
41
1
10
84.1636244011368
20
30.7809618943233
30
0
41
1
10
84.1005529047514
20
30.8349176624092
30
0
41
1
10
83.9742488522673
20
30.9426871531046
30
0
41
1
10
83.7843118290263
20
31.1039212137058
30
0
41
1
10
83.5938818685658
20
31.2647216782973
30
0
41
1
10
83.4665914306643
20
31.3716233048379
30
0
41
1
10
83.4028629308171
20
31.425
30
0
0
SPLINE
5
19D
100
AcDbEntity
8
1
62
256
6
ByLayer
370
18
48
1
60
0
100
AcDbSpline
70
4
71
3
72
26
73
22
40
0
40
0
40
0
40
0
40
0.0641215558835892
40
0.128388446564522
40
0.192708824534188
40
0.257005128912152
40
0.321216405255975
40
0.38530080619359
40
0.43683293324055
40
0.488507841849181
40
0.540228410578318
40
0.591916672726868
40
0.643516931196906
40
0.69499916548818
40
0.742194636784231
40
0.789542862622055
40
0.836910610458403
40
0.884196958560421
40
0.931340369735565
40
0.965670883246786
40
1
40
1
40
1
40
1
41
1
10
83.4028629308171
20
31.425
30
0
41
1
10
83.3998472418367
20
31.4275262012265
30
0
41
1
10
83.3938387057238
20
31.4325124183608
30
0
41
1
10
83.3849002899647
20
31.4397901476714
30
0
41
1
10
83.3760609981113
20
31.4468385540635
30
0
41
1
10
83.3673516117898
20
31.4536270822455
30
0
41
1
10
83.3588055129768
20
31.4601223392141
30
0
41
1
10
83.3509936830317
20
31.4658942645093
30
0
41
1
10
83.3438934747169
20
31.4709904459065
30
0
41
1
10
83.3374753361307
20
31.4754634850344
30
0
41
1
10
83.3312303240158
20
31.4796715288131
30
0
41
1
10
83.3251931801917
20
31.4835822325021
30
0
41
1
10
83.3193990273681
20
31.4871628267419
30
0
41
1
10
83.3140305164323
20
31.490295335486
30
0
41
1
10
83.3090906178187
20
31.4929826018887
30
0
41
1
10
83.30457768758
20
31.4952351109781
30
0
41
1
10
83.3003818953683
20
31.4971023864056
30
0
41
1
10
83.2965498164065
20
31.4985481157993
30
0
41
1
10
83.2934356589753
20
31.4994461277248
30
0
41
1
10
83.2909504391098
20
31.4999068179844
30
0
41
1
10
83.2896470597602
20
31.4999987087377
30
0
41
1
10
83.2890368719094
20
31.5
30
0
0
SPLINE
5
19E
100
AcDbEntity
8
1
62
256
6
ByLayer
370
18
48
1
60
0
100
AcDbSpline
70
4
71
3
72
26
73
22
40
0
40
0
40
0
40
0
40
0.0527252366264783
40
0.105629164814726
40
0.158512902395532
40
0.211210511097558
40
0.253692763122704
40
0.296326615457635
40
0.339018517929497
40
0.381664803375596
40
0.424157520620486
40
0.47578290596418
40
0.527552991990955
40
0.579347979133062
40
0.631007412679912
40
0.691170164400917
40
0.75151856263771
40
0.811977812531001
40
0.872416049135978
40
0.93265439044218
40
1
40
1
40
1
40
1
41
1
10
83.2309381340868
20
31.5
30
0
41
1
10
83.2301014528202
20
31.4999999850067
30
0
41
1
10
83.228591874185
20
31.4998314315208
30
0
41
1
10
83.2268177499763
20
31.4990737771705
30
0
41
1
10
83.2255649002556
20
31.49780506772
30
0
41
1
10
83.2249067827692
20
31.496131835338
30
0
41
1
10
83.2247563413955
20
31.4941509649047
30
0
41
1
10
83.224987852292
20
31.4919837643311
30
0
41
1
10
83.2255811188182
20
31.4895017614784
30
0
41
1
10
83.226527534151
20
31.4867263055868
30
0
41
1
10
83.227915458551
20
31.4834526862353
30
0
41
1
10
83.2298322997771
20
31.479618952989
30
0
41
1
10
83.2323295719203
20
31.4751979939417
30
0
41
1
10
83.2352492098013
20
31.4704742753812
30
0
41
1
10
83.238737615384
20
31.4652153004876
30
0
41
1
10
83.2428419778506
20
31.4594013016996
30
0
41
1
10
83.2475817850844
20
31.4530338968793
30
0
41
1
10
83.2527042127246
20
31.4464469141786
30
0
41
1
10
83.2581515080521
20
31.4396959036617
30
0
41
1
10
83.2641110439231
20
31.4325454941267
30
0
41
1
10
83.2683369874996
20
31.4276217502705
30
0
41
1
10
83.270621684828
20
31.425
30
0
0
SPLINE
5
19F
100
AcDbEntity
8
1
62
256
6
ByLayer
370
18
48
1
60
0
100
AcDbSpline
70
4
71
2
72
6
73
3
40
0
40
0
40
0
40
1
40
1
40
1
41
1
10
83.270621684828
20
31.425
30
0
41
1
10
83.5508578671054
20
31.1031878520396
30
0
41
1
10
83.8304593195141
20
30.7809618943233
30
0
0
SPLINE
5
1A0
100
AcDbEntity
8
1
62
256
6
ByLayer
370
18
48
1
60
0
100
AcDbSpline
70
4
71
3
72
27
73
23
40
0
40
0
40
0
40
0
40
0.059735801161008
40
0.119517622049819
40
0.179294208261305
40
0.239022865612395
40
0.300538487530969
40
0.362123717538993
40
0.423694775493579
40
0.485191049200244
40
0.531609895812164
40
0.578149386366028
40
0.624727063436442
40
0.671277018003947
40
0.717752456034879
40
0.764128499709252
40
0.808191186401201
40
0.852397369618966
40
0.896622318654352
40
0.940771193689112
40
0.984785663798731
40
1
40
1
40
1
40
1
41
1
10
83.736403362235
20
30.7809618943233
30
0
41
1
10
83.7397139252568
20
30.7782957325793
30
0
41
1
10
83.7463121656265
20
30.7730332057318
30
0
41
1
10
83.7561421101243
20
30.7653462016341
30
0
41
1
10
83.7658794003213
20
30.7578913985799
30
0
41
1
10
83.7756001389169
20
30.7506165956854
30
0
41
1
10
83.7852823976527
20
30.7435500883885
30
0
41
1
10
83.7948965460554
20
30.736728473643
30
0
41
1
10
83.8043130350725
20
30.7302561014106
30
0
41
1
10
83.8127439745537
20
30.7246676792976
30
0
41
1
10
83.8202263949823
20
30.7198879716822
30
0
41
1
10
83.8268099113431
20
30.7158338233144
30
0
41
1
10
83.8332001820435
20
30.7120626722812
30
0
41
1
10
83.8393619236572
20
30.7086054739905
30
0
41
1
10
83.8452593985934
20
30.7054936878477
30
0
41
1
10
83.8507693587555
20
30.7028004286764
30
0
41
1
10
83.8558776075738
20
30.7005367746889
30
0
41
1
10
83.8605728501678
20
30.698706906959
30
0
41
1
10
83.8649050881287
20
30.697301073385
30
0
41
1
10
83.8688234953028
20
30.6963553019138
30
0
41
1
10
83.8715289063015
20
30.6960031140788
30
0
41
1
10
83.8729251169306
20
30.6959621476427
30
0
41
1
10
83.8732741078198
20
30.6959618949059
30
0
0
SPLINE
5
1A1
100
AcDbEntity
8
1
62
256
6
ByLayer
370
18
48
1
60
0
100
AcDbSpline
70
4
71
3
72
13
73
9
40
0
40
0
40
0
40
0
40
0.16666317602541
40
0.333326555434453
40
0.499989745446436
40
0.666659764221437
40
0.833329968630745
40
1
40
1
40
1
40
1
41
1
10
82.9264655250282
20
31.425
30
0
41
1
10
82.9717271808112
20
31.3894727677041
30
0
41
1
10
83.062160774803
20
31.318332915219
30
0
41
1
10
83.1975402310231
20
31.2113650923063
30
0
41
1
10
83.33265540268
20
31.1041438266195
30
0
41
1
10
83.4675094846525
20
30.9966731238346
30
0
41
1
10
83.6021054946421
20
30.8889567874876
30
0
41
1
10
83.6916659621367
20
30.8169868886141
30
0
41
1
10
83.736403362235
20
30.7809618943233
30
0
0
SPLINE
5
1A2
100
AcDbEntity
8
1
62
256
6
ByLayer
370
18
48
1
60
0
100
AcDbSpline
70
4
71
3
72
25
73
21
40
0
40
0
40
0
40
0
40
0.0423991015052763
40
0.084850208209922
40
0.127262133156763
40
0.171179984589322
40
0.215137657739498
40
0.259065774162739
40
0.315230124002285
40
0.371450614767058
40
0.427631074025728
40
0.485360959861771
40
0.543130663306233
40
0.600870141056976
40
0.66673713071451
40
0.73264589293053
40
0.798521243636763
40
0.865668189835163
40
0.932848816562641
40
1
40
1
40
1
40
1
41
1
10
82.7986505080268
20
31.5
30
0
41
1
10
82.7996657679926
20
31.4999967039737
30
0
41
1
10
82.8018185782277
20
31.4998539554083
30
0
41
1
10
82.8054283334869
20
31.4992183760221
30
0
41
1
10
82.8094133683835
20
31.498187526597
30
0
41
1
10
82.8137580166971
20
31.4967674360617
30
0
41
1
10
82.8184366299633
20
31.4949753275066
30
0
41
1
10
82.8238256365586
20
31.492657517116
30
0
41
1
10
82.8299769003579
20
31.4897318877332
30
0
41
1
10
82.8369239859049
20
31.4861298605829
30
0
41
1
10
82.8442076695164
20
31.482086318565
30
0
41
1
10
82.8517966145468
20
31.4776278270091
30
0
41
1
10
82.8596638548
20
31.4727777322647
30
0
41
1
10
82.8680881301381
20
31.4673652623797
30
0
41
1
10
82.8770698022964
20
31.461368409088
30
0
41
1
10
82.8866031200016
20
31.4547696339235
30
0
41
1
10
82.8963367826133
20
31.4478123265842
30
0
41
1
10
82.9062473443069
20
31.4405182322511
30
0
41
1
10
82.9163165509957
20
31.4329028027234
30
0
41
1
10
82.9230745432756
20
31.4276621852838
30
0
41
1
10
82.9264655250282
20
31.425
30
0
0
SPLINE
5
1A3
100
AcDbEntity
8
1
62
256
6
ByLayer
370
18
48
1
60
0
100
AcDbSpline
70
4
71
3
72
27
73
23
40
0
40
0
40
0
40
0
40
0.0564435780060961
40
0.113045374892879
40
0.169663755664412
40
0.22619461644375
40
0.282578538738076
40
0.328561869940768
40
0.374698412495889
40
0.420861590210978
40
0.46694967870378
40
0.512892238947586
40
0.559172171241248
40
0.605660599828809
40
0.652212209590097
40
0.698685531749749
40
0.744952737374604
40
0.795478795043565
40
0.846170985819985
40
0.896884415149197
40
0.947439527442137
40
1
40
1
40
1
40
1
41
1
10
82.7516978526882
20
31.425
30
0
41
1
10
82.7498278819544
20
31.4272051890985
30
0
41
1
10
82.746168443942
20
31.4315952067238
30
0
41
1
10
82.7409193031109
20
31.4381155939653
30
0
41
1
10
82.7359550095424
20
31.4445365188348
30
0
41
1
10
82.7313201140033
20
31.4508179728395
30
0
41
1
10
82.7273188788568
20
31.456548783264
30
0
41
1
10
82.7239149336315
20
31.4617343560294
30
0
41
1
10
82.7210491616041
20
31.4663969852059
30
0
41
1
10
82.7185071346383
20
31.4708726480263
30
0
41
1
10
82.7163220506731
20
31.4751224081216
30
0
41
1
10
82.7145174610575
20
31.4791242735615
30
0
41
1
10
82.7131355574441
20
31.4828401283043
30
0
41
1
10
82.7121848065832
20
31.4862514657634
30
0
41
1
10
82.7116720436931
20
31.4893294571251
30
0
41
1
10
82.7116064371532
20
31.4920433479518
30
0
41
1
10
82.7120119181422
20
31.4944371504235
30
0
41
1
10
82.7129497277158
20
31.4964445407981
30
0
41
1
10
82.7144299104039
20
31.4980397753527
30
0
41
1
10
82.7163929373843
20
31.4991726760731
30
0
41
1
10
82.7188493168716
20
31.4998524972334
30
0
41
1
10
82.7207854906886
20
31.5000034396372
30
0
41
1
10
82.7218502690446
20
31.5
30
0
0
SPLINE
5
1A4
100
AcDbEntity
8
1
62
256
6
ByLayer
370
18
48
1
60
0
100
AcDbSpline
70
4
71
2
72
6
73
3
40
0
40
0
40
0
40
1
40
1
40
1
41
1
10
83.2969355578884
20
30.7809618943233
30
0
41
1
10
83.024503988312
20
31.1030998614368
30
0
41
1
10
82.7516978526882
20
31.425
30
0
0
SPLINE
5
1A5
100
AcDbEntity
8
1
62
256
6
ByLayer
370
18
48
1
60
0
100
AcDbSpline
70
4
71
3
72
29
73
25
40
0
40
0
40
0
40
0
40
0.055846909523991
40
0.111849215794351
40
0.167867571137054
40
0.223799751740353
40
0.279587688322372
40
0.325109966761844
40
0.370783901910524
40
0.416483862534251
40
0.462109180152133
40
0.507590550146755
40
0.5534115281981
40
0.599439875773097
40
0.645530967800998
40
0.691544095499843
40
0.73735225104964
40
0.777269354561479
40
0.817306586623946
40
0.857397633433915
40
0.897459647560691
40
0.937397599588524
40
0.989351022603439
40
1
40
1
40
1
40
1
41
1
10
83.2969355578884
20
30.7809618943233
30
0
41
1
10
83.2990302578192
20
30.7784865728659
30
0
41
1
10
83.3031289663706
20
30.7735579167965
30
0
41
1
10
83.3090068909585
20
30.7662350252774
30
0
41
1
10
83.3145639608084
20
30.7590205382706
30
0
41
1
10
83.3197500299756
20
30.7519587451158
30
0
41
1
10
83.3242251818235
20
30.7455104944134
30
0
41
1
10
83.3280300389032
20
30.7396701577964
30
0
41
1
10
83.331230450251
20
30.7344134963572
30
0
41
1
10
83.3340647512933
20
30.7293629327238
30
0
41
1
10
83.3364951166579
20
30.7245620158402
30
0
41
1
10
83.3384946549823
20
30.7200349915465
30
0
41
1
10
83.3400148799442
20
30.7158244190142
30
0
41
1
10
83.3410456623824
20
30.7119511079886
30
0
41
1
10
83.341579281798
20
30.7084477091014
30
0
41
1
10
83.3416052550021
20
30.7053490362664
30
0
41
1
10
83.3411313600288
20
30.7027993180807
30
0
41
1
10
83.3402230750933
20
30.7007576957236
30
0
41
1
10
83.3389795924153
20
30.6991448728748
30
0
41
1
10
83.3373758078387
20
30.6978614735482
30
0
41
1
10
83.3354314126567
20
30.6969055698419
30
0
41
1
10
83.3329374963282
20
30.696207825888
30
0
41
1
10
83.3306802855555
20
30.6959901922377
30
0
41
1
10
83.3292037656624
20
30.6959630657602
30
0
41
1
10
83.3289493031905
20
30.695961895083
30
0
0
SPLINE
5
1A6
100
AcDbEntity
8
1
62
256
6
ByLayer
370
18
48
1
60
0
100
AcDbSpline
70
4
71
3
72
13
73
9
40
0
40
0
40
0
40
0
40
0.16666176345178
40
0.333323776576039
40
0.499985521383354
40
0.666656929844796
40
0.833328612279889
40
1
40
1
40
1
40
1
41
1
10
83.1758388151895
20
30.7809618943233
30
0
41
1
10
83.1279142252252
20
30.8170555910837
30
0
41
1
10
83.0319619705283
20
30.8891398704876
30
0
41
1
10
82.8877264207536
20
30.9969592763925
30
0
41
1
10
82.743175473455
20
31.104466206371
30
0
41
1
10
82.5983055469465
20
31.2116555434473
30
0
41
1
10
82.4531128506473
20
31.3185219027346
30
0
41
1
10
82.3561006479871
20
31.3895440404649
30
0
41
1
10
82.3075406386494
20
31.425
30
0
0
SPLINE
5
1A7
100
AcDbEntity
8
1
62
256
6
ByLayer
370
18
48
1
60
0
100
AcDbSpline
70
4
71
3
72
25
73
21
40
0
40
0
40
0
40
0
40
0.0650353956255641
40
0.130123293780633
40
0.195206243102798
40
0.260234884777989
40
0.327281925646017
40
0.394407052782034
40
0.461515859521951
40
0.528540618391165
40
0.576750106864201
40
0.624979171777389
40
0.673182553591563
40
0.722365023672195
40
0.771577207988456
40
0.820747678887647
40
0.865214836551792
40
0.909678309832135
40
0.954841858249314
40
1
40
1
40
1
40
1
41
1
10
82.3075406386494
20
31.425
30
0
41
1
10
82.3039844899682
20
31.4275969358004
30
0
41
1
10
82.2968864019494
20
31.4327077230441
30
0
41
1
10
82.286281172875
20
31.4401273160211
30
0
41
1
10
82.2757439971101
20
31.4472743973192
30
0
41
1
10
82.2651873378587
20
31.4541998912164
30
0
41
1
10
82.2546321215011
20
31.4608735513102
30
0
41
1
10
82.2441077586244
20
31.467254584036
30
0
41
1
10
82.2337578471592
20
31.4732372510115
30
0
41
1
10
82.2245705205633
20
31.4782623854599
30
0
41
1
10
82.2165118570678
20
31.4824310567601
30
0
41
1
10
82.2095317612354
20
31.4858498853276
30
0
41
1
10
82.2026790400996
20
31.4889972348812
30
0
41
1
10
82.1959833076035
20
31.4918407243835
30
0
41
1
10
82.1894823775708
20
31.4943412278612
30
0
41
1
10
82.183456643356
20
31.4963780652379
30
0
41
1
10
82.1779160476297
20
31.4979597187929
30
0
41
1
10
82.172837158146
20
31.4991058235743
30
0
41
1
10
82.1680750287061
20
31.4998315367541
30
0
41
1
10
82.1651620357706
20
31.4999956373407
30
0
41
1
10
82.16377128156
20
31.5
30
0
0
SPLINE
5
1A8
100
AcDbEntity
8
1
62
256
6
ByLayer
370
18
48
1
60
0
100
AcDbSpline
70
4
71
3
72
28
73
24
40
0
40
0
40
0
40
0
40
0.0524328969297314
40
0.105011915957119
40
0.157557587827026
40
0.209944879260067
40
0.252398722579679
40
0.295023812034111
40
0.337697316403626
40
0.380303632135921
40
0.422741666777764
40
0.471822933092688
40
0.521073604843117
40
0.570343776507008
40
0.61945172342234
40
0.668638102994034
40
0.717978884366992
40
0.767408177699238
40
0.816816827024629
40
0.866060312907932
40
0.910695698597818
40
0.955358119748223
40
1
40
1
40
1
40
1
41
1
10
82.0663658430679
20
31.5
30
0
41
1
10
82.0650749312248
20
31.5000018295113
30
0
41
1
10
82.0626293875568
20
31.4998568222392
30
0
41
1
10
82.0593619295712
20
31.4992019312742
30
0
41
1
10
82.0565531299663
20
31.4980812965926
30
0
41
1
10
82.054393146477
20
31.4965768531327
30
0
41
1
10
82.0528272986792
20
31.494760947911
30
0
41
1
10
82.0517547163699
20
31.4927368398114
30
0
41
1
10
82.0510688299588
20
31.490384503944
30
0
41
1
10
82.0507817906498
20
31.48771686623
30
0
41
1
10
82.0509131730898
20
31.4845856133247
30
0
41
1
10
82.0515577358041
20
31.480933694414
30
0
41
1
10
82.0527632647862
20
31.4767480864723
30
0
41
1
10
82.0544703884313
20
31.4722466086946
30
0
41
1
10
82.0566562217814
20
31.4674676138563
30
0
41
1
10
82.0593026421547
20
31.4624404800829
30
0
41
1
10
82.0623632936645
20
31.457203602721
30
0
41
1
10
82.0657975013646
20
31.4517966164356
30
0
41
1
10
82.0695608358646
20
31.4462634358142
30
0
41
1
10
82.0734940219908
20
31.4408094794198
30
0
41
1
10
82.077538299649
20
31.4354663663695
30
0
41
1
10
82.0816463648643
20
31.4302518542795
30
0
41
1
10
82.0845003276377
20
31.426754450406
30
0
41
1
10
82.085957127466
20
31.425
30
0
0
SPLINE
5
1A9
100
AcDbEntity
8
1
62
256
6
ByLayer
370
18
48
1
60
0
100
AcDbSpline
70
4
71
1
72
4
73
2
40
0
40
0
40
1
40
1
41
1
10
82.085957127466
20
31.425
30
0
41
1
10
82.6201446638749
20
30.7809618943233
30
0
0
SPLINE
5
1AA
100
AcDbEntity
8
1
62
256
6
ByLayer
370
18
48
1
60
0
100
AcDbSpline
70
4
71
3
72
27
73
23
40
0
40
0
40
0
40
0
40
0.0673321232354205
40
0.134719165576338
40
0.202100939995892
40
0.269425873740139
40
0.324980064820235
40
0.380602508459119
40
0.436236404204704
40
0.491836935761896
40
0.547372726965776
40
0.592758825371187
40
0.638245831036222
40
0.683763061968599
40
0.729255093239025
40
0.774683886055334
40
0.820031097840821
40
0.856275057995569
40
0.892632717457024
40
0.929024675463349
40
0.965388233773431
40
1
40
1
40
1
40
1
41
1
10
82.4690989106198
20
30.7809618943233
30
0
41
1
10
82.473451899629
20
30.777919694638
30
0
41
1
10
82.4821428506399
20
30.7719375596842
30
0
41
1
10
82.4951353246985
20
30.7632681310565
30
0
41
1
10
82.5080508036357
20
30.754932795628
30
0
41
1
10
82.5201172174485
20
30.7474196878134
30
0
41
1
10
82.5313357642034
20
30.7406781000512
30
0
41
1
10
82.5417161716161
20
30.7346563928801
30
0
41
1
10
82.5519756205676
20
30.7289335985691
30
0
41
1
10
82.5620831605689
20
30.723538232527
30
0
41
1
10
82.5714082173162
20
30.7188032685219
30
0
41
1
10
82.5799699025163
20
30.7146769033744
30
0
41
1
10
82.5877913557059
20
30.7111075041656
30
0
41
1
10
82.5954412090751
20
30.7078339944285
30
0
41
1
10
82.6028839278326
20
30.7048864965255
30
0
41
1
10
82.6100835012288
20
30.7022956739747
30
0
41
1
10
82.6165462419494
20
30.7002367159683
30
0
41
1
10
82.6223070814782
20
30.6986516231934
30
0
41
1
10
82.6274092076734
20
30.6974764931172
30
0
41
1
10
82.6322698052716
20
30.6966100510969
30
0
41
1
10
82.6367835482101
20
30.6960833633059
30
0
41
1
10
82.6395654999965
20
30.6959659410125
30
0
41
1
10
82.6408764215581
20
30.6959618943765
30
0
0
SPLINE
5
1AB
100
AcDbEntity
8
1
62
256
6
ByLayer
370
18
48
1
60
0
100
AcDbSpline
70
4
71
3
72
13
73
9
40
0
40
0
40
0
40
0
40
0.166659329483101
40
0.333319087910337
40
0.499978448373656
40
0.666652159741751
40
0.833326260798078
40
1
40
1
40
1
40
1
41
1
10
81.5300863172612
20
31.425
30
0
41
1
10
81.5826366746243
20
31.3896454283616
30
0
41
1
10
81.6876076179574
20
31.3187924644771
30
0
41
1
10
81.8446721033181
20
31.2120781964264
30
0
41
1
10
82.001355678327
20
31.104937001247
30
0
41
1
10
82.1576626757803
20
30.9973760921306
30
0
41
1
10
82.313597191636
20
30.8894023317056
30
0
41
1
10
82.4173064613401
20
30.8171534505731
30
0
41
1
10
82.4690989106198
20
30.7809618943233
30
0
0
SPLINE
5
1AC
100
AcDbEntity
8
1
62
256
6
ByLayer
370
18
48
1
60
0
100
AcDbSpline
70
4
71
3
72
25
73
21
40
0
40
0
40
0
40
0
40
0.0467115821854371
40
0.0934827546545953
40
0.140214634532838
40
0.188488561364051
40
0.236801190203213
40
0.285087022484337
40
0.33660139264234
40
0.388166292382474
40
0.439742298993363
40
0.491271829142451
40
0.54417603487331
40
0.597115595938363
40
0.650060370608149
40
0.702971690423229
40
0.776936914593443
40
0.850903817925852
40
0.925451547292854
40
1
40
1
40
1
40
1
41
1
10
81.367593688693
20
31.5
30
0
41
1
10
81.369398226831
20
31.4999944770814
30
0
41
1
10
81.3731422616987
20
31.4998164852981
30
0
41
1
10
81.3791844719823
20
31.4990264170943
30
0
41
1
10
81.3856394372104
20
31.4977652140891
30
0
41
1
10
81.3924748210194
20
31.4960535325934
30
0
41
1
10
81.3996550377475
20
31.4939166052575
30
0
41
1
10
81.407233433807
20
31.4913524092557
30
0
41
1
10
81.4151925194358
20
31.4883673949302
30
0
41
1
10
81.4235183038001
20
31.4849643509836
30
0
41
1
10
81.4320108762083
20
31.4812358941021
30
0
41
1
10
81.4407196374037
20
31.4771737178392
30
0
41
1
10
81.4496287232841
20
31.4727918700538
30
0
41
1
10
81.4587266580693
20
31.4680988982076
30
0
41
1
10
81.467917365565
20
31.463151513073
30
0
41
1
10
81.4784125812423
20
31.4572798799075
30
0
41
1
10
81.4902334570635
20
31.4503824166435
30
0
41
1
10
81.5034221943352
20
31.4423360415239
30
0
41
1
10
81.516715539803
20
31.4338860581553
30
0
41
1
10
81.5256241756266
20
31.4280024659678
30
0
41
1
10
81.5300863172612
20
31.425
30
0
0
SPLINE
5
1AD
100
AcDbEntity
8
1
62
256
6
ByLayer
370
18
48
1
60
0
100
AcDbSpline
70
4
71
3
72
29
73
25
40
0
40
0
40
0
40
0
40
0.0469829904522524
40
0.0940851689066629
40
0.141199311705206
40
0.188247128015369
40
0.235184412892551
40
0.283009930848703
40
0.331067573310641
40
0.379165060978611
40
0.42714716794001
40
0.474909033726711
40
0.515871681415264
40
0.557007095415451
40
0.598206788354216
40
0.639352462739797
40
0.680323752373923
40
0.726170510734816
40
0.772144609490958
40
0.818142819746815
40
0.864022545541315
40
0.909329688477491
40
0.954681035323063
40
1
40
1
40
1
40
1
41
1
10
81.2553707736405
20
31.425
30
0
41
1
10
81.2538429311875
20
31.4268639904972
30
0
41
1
10
81.2508624515912
20
31.4305868117888
30
0
41
1
10
81.2466147585091
20
31.4361520640625
30
0
41
1
10
81.2426279788183
20
31.4416742762098
30
0
41
1
10
81.2389387891713
20
31.4471244536179
30
0
41
1
10
81.2355594545378
20
31.4525109172697
30
0
41
1
10
81.2325428690648
20
31.4578077391389
30
0
41
1
10
81.2299290713769
20
31.4629824263049
30
0
41
1
10
81.2277669711067
20
31.4679633519584
30
0
41
1
10
81.226100772739
20
31.4726932406045
30
0
41
1
10
81.2250246232912
20
31.4769141725927
30
0
41
1
10
81.2244939903015
20
31.4806304357238
30
0
41
1
10
81.2244093468484
20
31.4838896392693
30
0
41
1
10
81.2247350203702
20
31.4868719339397
30
0
41
1
10
81.2254641462768
20
31.489555492122
30
0
41
1
10
81.2266402593659
20
31.4920154240515
30
0
41
1
10
81.2283153668515
20
31.4941952727096
30
0
41
1
10
81.2304986542276
20
31.4960693406468
30
0
41
1
10
81.2330916686063
20
31.4975665021316
30
0
41
1
10
81.2360479875032
20
31.4986907538127
30
0
41
1
10
81.2393310256691
20
31.4994600785982
30
0
41
1
10
81.242900495859
20
31.4999040847082
30
0
41
1
10
81.245453597773
20
31.5000019714985
30
0
41
1
10
81.246775155921
20
31.5
30
0
0
SPLINE
5
1AE
100
AcDbEntity
8
1
62
256
6
ByLayer
370
18
48
1
60
0
100
AcDbSpline
70
4
71
1
72
4
73
2
40
0
40
0
40
1
40
1
41
1
10
81.7827631521993
20
30.7809618943233
30
0
41
1
10
81.2553707736405
20
31.425
30
0
0
SPLINE
5
1AF
100
AcDbEntity
8
1
62
256
6
ByLayer
370
18
48
1
60
0
100
AcDbSpline
70
4
71
3
72
31
73
27
40
0
40
0
40
0
40
0
40
0.0467065332185848
40
0.0935309900908867
40
0.140367186639237
40
0.187137672301702
40
0.233798829168741
40
0.273369845235827
40
0.313124890818805
40
0.352948451993128
40
0.392741129336003
40
0.43242474522113
40
0.471947934104697
40
0.512652594422329
40
0.553530537884241
40
0.594472610679067
40
0.635360176814121
40
0.676072942265232
40
0.721428708511106
40
0.766910657155474
40
0.812416628244141
40
0.857805240284742
40
0.903600363827878
40
0.949512739004885
40
0.995518836505368
40
1
40
1
40
1
40
1
41
1
10
81.7827631521993
20
30.7809618943233
30
0
41
1
10
81.7844869833987
20
30.7788584447584
30
0
41
1
10
81.7878498734412
20
30.7746571711464
30
0
41
1
10
81.7926429147126
20
30.7683761430677
30
0
41
1
10
81.7971417624762
20
30.7621428080798
30
0
41
1
10
81.8013050335324
20
30.7559896504375
30
0
41
1
10
81.8049029819896
20
30.7502508739392
30
0
41
1
10
81.8079570175508
20
30.7449310655337
30
0
41
1
10
81.8105137709443
20
30.7400235263386
30
0
41
1
10
81.8127268107003
20
30.7352518891647
30
0
41
1
10
81.8145668695967
20
30.7306533845062
30
0
41
1
10
81.8160052785289
20
30.7262651382371
30
0
41
1
10
81.817025311802
20
30.7220763628114
30
0
41
1
10
81.8175785911353
20
30.7181260663924
30
0
41
1
10
81.8176614231903
20
30.7144316777686
30
0
41
1
10
81.817277098123
20
30.7110479489881
30
0
41
1
10
81.8164330048032
20
30.7079998247758
30
0
41
1
10
81.8150806681495
20
30.7052063407245
30
0
41
1
10
81.8131630422801
20
30.7027288395176
30
0
41
1
10
81.8106723047979
20
30.7005934022247
30
0
41
1
10
81.8077175510293
20
30.698877731108
30
0
41
1
10
81.8043284291327
20
30.6975668240276
30
0
41
1
10
81.8005297796197
20
30.6966541037421
30
0
41
1
10
81.7963688808103
20
30.6961021494614
30
0
41
1
10
81.7932139626671
20
30.6959841633322
30
0
41
1
10
81.791527831973
20
30.695963288731
30
0
41
1
10
81.7913777727301
20
30.6959618945838
30
0
0
SPLINE
5
1B0
100
AcDbEntity
8
1
62
256
6
ByLayer
370
18
48
1
60
0
100
AcDbSpline
70
4
71
3
72
14
73
10
40
0
40
0
40
0
40
0
40
0.166656174020745
40
0.333312878852478
40
0.499969010655765
40
0.624976516828488
40
0.749984532976952
40
0.874992525730106
40
1
40
1
40
1
40
1
41
1
10
81.5975212179719
20
30.7809618943233
30
0
41
1
10
81.5409187735901
20
30.8172833324301
30
0
41
1
10
81.4275627972908
20
30.8897484004522
30
0
41
1
10
81.2570786502461
20
30.9979169108328
30
0
41
1
10
81.1003767850914
20
31.0965767026718
30
0
41
1
10
80.957577903555
20
31.1858681252766
30
0
41
1
10
80.8287899776076
20
31.2659187668326
30
0
41
1
10
80.6997376790192
20
31.345649597158
30
0
41
1
10
80.6135245753684
20
31.398585916461
30
0
41
1
10
80.5703737080596
20
31.425
30
0
0
SPLINE
5
1B1
100
AcDbEntity
8
1
62
256
6
ByLayer
370
18
48
1
60
0
100
AcDbSpline
70
4
71
3
72
25
73
21
40
0
40
0
40
0
40
0
40
0.0746466396433318
40
0.149356582436326
40
0.224062290503768
40
0.298703150564247
40
0.360341407284934
40
0.422057061504044
40
0.483784821542765
40
0.545473918125527
40
0.607089873494646
40
0.660265452689482
40
0.713463096130318
40
0.766629419843448
40
0.807415535810473
40
0.848240760451653
40
0.88905451039553
40
0.929824963237808
40
0.964872063256559
40
1
40
1
40
1
40
1
41
1
10
80.5703737080596
20
31.425
30
0
41
1
10
80.5654151980721
20
31.4280357128156
30
0
41
1
10
80.5555020422402
20
31.4339788277742
30
0
41
1
10
80.5406431995739
20
31.4425112570361
30
0
41
1
10
80.5258319882777
20
31.4506313809328
30
0
41
1
10
80.5119517994282
20
31.457869750838
30
0
41
1
10
80.4990074833871
20
31.4642927724418
30
0
41
1
10
80.4869945248995
20
31.4699627683783
30
0
41
1
10
80.475087962667
20
31.4752739920367
30
0
41
1
10
80.4633228528295
20
31.4801941399789
30
0
41
1
10
80.4522574925024
20
31.4844882646077
30
0
41
1
10
80.4418917109322
20
31.4881929255806
30
0
41
1
10
80.4322236801888
20
31.4913405991588
30
0
41
1
10
80.4234999655
20
31.4938697708264
30
0
41
1
10
80.4156961353833
20
31.4958551323623
30
0
41
1
10
80.4087772710723
20
31.4973741405603
30
0
41
1
10
80.4020560237257
20
31.4985828927946
30
0
41
1
10
80.3958694745534
20
31.4994126486691
30
0
41
1
10
80.3902040126059
20
31.4998944939695
30
0
41
1
10
80.3867758681108
20
31.499997307829
30
0
41
1
10
80.3850965096339
20
31.5
30
0
0
SPLINE
5
1B2
100
AcDbEntity
8
1
62
256
6
ByLayer
370
18
48
1
60
0
100
AcDbSpline
70
4
71
3
72
29
73
25
40
0
40
0
40
0
40
0
40
0.0553728329638819
40
0.110870851377201
40
0.16632424139787
40
0.221636070799767
40
0.266713700944841
40
0.312010219068195
40
0.357339760169938
40
0.402556251642938
40
0.447566445881486
40
0.486286014672351
40
0.525176231429096
40
0.564129211320059
40
0.603028082287963
40
0.641754941564002
40
0.684165696906332
40
0.72669345422714
40
0.769244523758088
40
0.811687152937311
40
0.85870419106407
40
0.905813616976686
40
0.952948365971917
40
1
40
1
40
1
40
1
41
1
10
80.2366189025991
20
31.5
30
0
41
1
10
80.2347338223653
20
31.500003676681
30
0
41
1
10
80.2310798761909
20
31.4998697993421
30
0
41
1
10
80.2259344500484
20
31.4992618058603
30
0
41
1
10
80.2212044584641
20
31.4981954951964
30
0
41
1
10
80.2172120119684
20
31.4967358125291
30
0
41
1
10
80.2139297815351
20
31.4949361500711
30
0
41
1
10
80.2112856722344
20
31.4928843318484
30
0
41
1
10
80.2090818661186
20
31.4904532811492
30
0
41
1
10
80.2073658156403
20
31.4876431163767
30
0
41
1
10
80.2062358277792
20
31.4845982520406
30
0
41
1
10
80.2056539849351
20
31.4813683608497
30
0
41
1
10
80.2055243581689
20
31.47803194806
30
0
41
1
10
80.2058095198846
20
31.4744497010937
30
0
41
1
10
80.206503577103
20
31.4706544777827
30
0
41
1
10
80.2076414138288
20
31.466541782449
30
0
41
1
10
80.2092640789709
20
31.4621094780203
30
0
41
1
10
80.2113683791838
20
31.4573772027739
30
0
41
1
10
80.2138698013616
20
31.4525145681224
30
0
41
1
10
80.2168369792736
20
31.4473780348765
30
0
41
1
10
80.2202845203902
20
31.4419816624829
30
0
41
1
10
80.224205948971
20
31.4363446493112
30
0
41
1
10
80.2284458607176
20
31.4306744119007
30
0
41
1
10
80.2314498758395
20
31.4268918498378
30
0
41
1
10
80.2329977255719
20
31.425
30
0
0
SPLINE
5
1B3
100
AcDbEntity
8
1
62
256
6
ByLayer
370
18
48
1
60
0
100
AcDbSpline
70
4
71
1
72
4
73
2
40
0
40
0
40
1
40
1
41
1
10
80.2329977255719
20
31.425
30
0
41
1
10
80.7592123209141
20
30.7809618943233
30
0
0
SPLINE
5
1B4
100
AcDbEntity
8
1
62
256
6
ByLayer
370
18
48
1
60
0
100
AcDbSpline
70
4
71
3
72
26
73
22
40
0
40
0
40
0
40
0
40
0.0597478977288489
40
0.119541610895688
40
0.179348213568401
40
0.239137275337012
40
0.298881268926089
40
0.36041149024457
40
0.422013856838479
40
0.483626964653896
40
0.545203544571104
40
0.606712113717958
40
0.656297560441388
40
0.705958910509915
40
0.755625284844854
40
0.805247200657751
40
0.854799524950073
40
0.895994989736983
40
0.937212261344129
40
0.978396200430777
40
1
40
1
40
1
40
1
41
1
10
80.5333833106443
20
30.7809618943233
30
0
41
1
10
80.5380968400796
20
30.7782227656276
30
0
41
1
10
80.5475234405499
20
30.7728354528376
30
0
41
1
10
80.5616605194208
20
30.7650272355521
30
0
41
1
10
80.5757754426047
20
30.7575065937455
30
0
41
1
10
80.5898476543708
20
30.7502878665116
30
0
41
1
10
80.6039996278039
20
30.7433157573029
30
0
41
1
10
80.6182198259319
20
30.7366102897092
30
0
41
1
10
80.6324885002865
20
30.7302059256646
30
0
41
1
10
80.6466387839135
20
30.7241989616687
30
0
41
1
10
80.6606313594282
20
30.7186251193222
30
0
41
1
10
80.6735417501545
20
30.7138479892174
30
0
41
1
10
80.6853879029523
20
30.709793431561
30
0
41
1
10
80.6961913059828
20
30.7063945989297
30
0
41
1
10
80.7067944286441
20
30.7033885377222
30
0
41
1
10
80.7171489389146
20
30.7008173365516
30
0
41
1
10
80.7266463972676
20
30.6988389125498
30
0
41
1
10
80.7353018757086
20
30.6974016823124
30
0
41
1
10
80.7431330731666
20
30.6964565257089
30
0
41
1
10
80.7494549677545
20
30.6960299675171
30
0
41
1
10
80.7531209286543
20
30.6959632539003
30
0
41
1
10
80.7543657559026
20
30.6959618955254
30
0
0
SPLINE
5
1B5
100
AcDbEntity
8
1
62
256
6
ByLayer
370
18
48
1
60
0
100
AcDbSpline
70
4
71
3
72
15
73
11
40
0
40
0
40
0
40
0
40
0.124987626519733
40
0.249976035891166
40
0.374964481729617
40
0.499952157977412
40
0.624963745559764
40
0.749976040242815
40
0.874988367710743
40
1
40
1
40
1
40
1
41
1
10
79.391987799761
20
31.425
30
0
41
1
10
79.439970975057
20
31.3987444943605
30
0
41
1
10
79.5358289322833
20
31.3460856854023
30
0
41
1
10
79.6792888676666
20
31.2666514050304
30
0
41
1
10
79.8224249007172
20
31.1867803614653
30
0
41
1
10
79.9652480093239
20
31.1064734849053
30
0
41
1
10
80.1077608889776
20
31.025737200979
30
0
41
1
10
80.2499661629337
20
30.9445775958881
30
0
41
1
10
80.3918566157867
20
30.8630055263201
30
0
41
1
10
80.4862425614068
20
30.8083549163494
30
0
41
1
10
80.5333833106443
20
30.7809618943233
30
0
0
SPLINE
5
1B6
100
AcDbEntity
8
1
62
256
6
ByLayer
370
18
48
1
60
0
100
AcDbSpline
70
4
71
3
72
27
73
23
40
0
40
0
40
0
40
0
40
0.0352049245813073
40
0.0704420347158452
40
0.105688215493663
40
0.140905519858998
40
0.188945502706599
40
0.237011272674305
40
0.285059674552988
40
0.336555269018634
40
0.388095031461773
40
0.439659149239474
40
0.491216872863635
40
0.542727544886144
40
0.608798282372549
40
0.674912092446973
40
0.741030905589011
40
0.807108469793581
40
0.855273701185154
40
0.903438992974472
40
0.951719508429886
40
1
40
1
40
1
40
1
41
1
10
79.17759702804
20
31.5
30
0
41
1
10
79.1796830088559
20
31.4999972484556
30
0
41
1
10
79.1839244077985
20
31.4998932221906
30
0
41
1
10
79.1905040926984
20
31.4994300727189
30
0
41
1
10
79.1972607362587
20
31.4986935099687
30
0
41
1
10
79.205009087865
20
31.4975843176565
30
0
41
1
10
79.2137911270105
20
31.4960158559164
30
0
41
1
10
79.2236392801655
20
31.4939011549659
30
0
41
1
10
79.2339021892321
20
31.4913692866932
30
0
41
1
10
79.2445641736915
20
31.4884264223601
30
0
41
1
10
79.2556154459549
20
31.4850694044482
30
0
41
1
10
79.2667906111223
20
31.4813883510244
30
0
41
1
10
79.2780636918452
20
31.4774076359621
30
0
41
1
10
79.2904848459806
20
31.472748155916
30
0
41
1
10
79.3040681797688
20
31.4673335246791
30
0
41
1
10
79.3188203263236
20
31.4610809929975
30
0
41
1
10
79.3336398979535
20
31.4544428546516
30
0
41
1
10
79.3471611263503
20
31.4480735230427
30
0
41
1
10
79.3593566762965
20
31.4420920629236
30
0
41
1
10
79.3702249021326
20
31.4365847738488
30
0
41
1
10
79.3811050252856
20
31.4308958208853
30
0
41
1
10
79.3883605014261
20
31.4269846835195
30
0
41
1
10
79.391987799761
20
31.425
30
0
0
SPLINE
5
1B7
100
AcDbEntity
8
1
62
256
6
ByLayer
370
18
48
1
60
0
100
AcDbSpline
70
4
71
3
72
30
73
26
40
0
40
0
40
0
40
0
40
0.0458139173897863
40
0.0917251722306436
40
0.137602333357694
40
0.183369654145268
40
0.220697124387368
40
0.258187271127479
40
0.295705369488761
40
0.333142892432213
40
0.370426039033309
40
0.412579124511612
40
0.454916864320766
40
0.497265603641261
40
0.539433753423918
40
0.577580670686348
40
0.615827391321109
40
0.654096197561752
40
0.692273307123563
40
0.742168981719829
40
0.792208918485505
40
0.842351941499948
40
0.892492978583983
40
0.942473705573705
40
1
40
1
40
1
40
1
41
1
10
78.9768147843689
20
31.425
30
0
41
1
10
78.9752562614544
20
31.4268775111558
30
0
41
1
10
78.9722447494526
20
31.4306400268674
30
0
41
1
10
78.968032267386
20
31.4363048242461
30
0
41
1
10
78.9641915172492
20
31.4419584455471
30
0
41
1
10
78.9609820625836
20
31.4472259218188
30
0
41
1
10
78.9583759599658
20
31.4520891256628
30
0
41
1
10
78.9563062308498
20
31.456544015935
30
0
41
1
10
78.9546139783989
20
31.4609023946175
30
0
41
1
10
78.9533334650987
20
31.4651223139392
30
0
41
1
10
78.9524595207937
20
31.4693449512298
30
0
41
1
10
78.9521065714307
20
31.4735048369745
30
0
41
1
10
78.9523317006847
20
31.477543360678
30
0
41
1
10
78.9531296223564
20
31.4812633894098
30
0
41
1
10
78.9544486451909
20
31.4845223453996
30
0
41
1
10
78.9562160220035
20
31.4873357044828
30
0
41
1
10
78.9583243237164
20
31.4897609988265
30
0
41
1
10
78.9607974834027
20
31.4918971047747
30
0
41
1
10
78.9638880467714
20
31.4939381074841
30
0
41
1
10
78.9676853642688
20
31.4957894192844
30
0
41
1
10
78.9722485478036
20
31.4973708568478
30
0
41
1
10
78.9771965165552
20
31.4985559828304
30
0
41
1
10
78.9824635156149
20
31.4993766146007
30
0
41
1
10
78.9882818837079
20
31.4998850086018
30
0
41
1
10
78.9924227691793
20
31.5000041695479
30
0
41
1
10
78.9946918282342
20
31.5
30
0
0
SPLINE
5
1B8
100
AcDbEntity
8
1
62
256
6
ByLayer
370
18
48
1
60
0
100
AcDbSpline
70
4
71
1
72
4
73
2
40
0
40
0
40
1
40
1
41
1
10
79.5101481155482
20
30.7809618943233
30
0
41
1
10
78.9768147843689
20
31.425
30
0
0
SPLINE
5
1B9
100
AcDbEntity
8
1
62
256
6
ByLayer
370
18
48
1
60
0
100
AcDbSpline
70
4
71
3
72
32
73
28
40
0
40
0
40
0
40
0
40
0.0459218700537469
40
0.0919412983441606
40
0.137926633199012
40
0.18380190705464
40
0.221177790209669
40
0.25871665825674
40
0.296283157324996
40
0.333768578969097
40
0.371099445576524
40
0.404854704099234
40
0.438750058778335
40
0.472699415785485
40
0.506606669360615
40
0.540371949293346
40
0.57839152463489
40
0.616511286090432
40
0.654653020522243
40
0.692702634761376
40
0.74217833198586
40
0.791797116015276
40
0.841518166333254
40
0.891237263078346
40
0.94079735018631
40
0.992848991402334
40
1
40
1
40
1
40
1
41
1
10
79.5101481155482
20
30.7809618943233
30
0
41
1
10
79.5119196425949
20
30.7788255307673
30
0
41
1
10
79.5153429164924
20
30.7745447579557
30
0
41
1
10
79.5201318657304
20
30.7681010665495
30
0
41
1
10
79.5244989251109
20
30.7616716281408
30
0
41
1
10
79.5281478859008
20
30.7556846873714
30
0
41
1
10
79.5311111124962
20
30.7501605752895
30
0
41
1
10
79.5334647312094
20
30.7451033260624
30
0
41
1
10
79.5353900965518
20
30.7401565639766
30
0
41
1
10
79.5368478188577
20
30.7353679581144
30
0
41
1
10
79.5377716300944
20
30.7309230643798
30
0
41
1
10
79.5381764384364
20
30.7268363198794
30
0
41
1
10
79.5381321004515
20
30.7230919558227
30
0
41
1
10
79.5376629742323
20
30.7195678909062
30
0
41
1
10
79.536778523288
20
30.7162894123824
30
0
41
1
10
79.535427502385
20
30.713150555312
30
0
41
1
10
79.5335564736516
20
30.7102030036883
30
0
41
1
10
79.5311570173093
20
30.7074724147369
30
0
41
1
10
79.528342355529
20
30.7050684370473
30
0
41
1
10
79.52483164228
20
30.7027773756272
30
0
41
1
10
79.5205254956363
20
30.700703019245
30
0
41
1
10
79.5153589880972
20
30.6989323083514
30
0
41
1
10
79.509757369578
20
30.6976032930263
30
0
41
1
10
79.5037937899264
20
30.6966803168901
30
0
41
1
10
79.4974182489689
20
30.6961211220628
30
0
41
1
10
79.4926377957293
20
30.6959675857168
30
0
41
1
10
79.4899783920639
20
30.6959614916661
30
0
41
1
10
79.4896562923661
20
30.695961894784
30
0
0
SPLINE
5
1BA
100
AcDbEntity
8
1
62
256
6
ByLayer
370
18
48
1
60
0
100
AcDbSpline
70
4
71
3
72
17
73
13
40
0
40
0
40
0
40
0
40
0.0999848181261503
40
0.199970485153554
40
0.299956402655765
40
0.399942007869222
40
0.499926774150962
40
0.599940821861996
40
0.6999558144559
40
0.799971085925807
40
0.899986009868202
40
1
40
1
40
1
40
1
41
1
10
79.2335615567182
20
30.7809618943233
30
0
41
1
10
79.1907166057167
20
30.8030593625217
30
0
41
1
10
79.1049425158133
20
30.8471315263499
30
0
41
1
10
78.9760302151482
20
30.9128732131681
30
0
41
1
10
78.8468649046889
20
30.9782418359938
30
0
41
1
10
78.7174462091808
20
31.0432327911636
30
0
41
1
10
78.5877603472384
20
31.1078474504213
30
0
41
1
10
78.4578055390606
20
31.1720811875302
30
0
41
1
10
78.3275800073062
20
31.2359291652723
30
0
41
1
10
78.1970953927301
20
31.299379892962
30
0
41
1
10
78.0663515036098
20
31.3624284711805
30
0
41
1
10
77.9790150235485
20
31.4041880715092
30
0
41
1
10
77.935303538903
20
31.425
30
0
0
SPLINE
5
1BB
100
AcDbEntity
8
1
62
256
6
ByLayer
370
18
48
1
60
0
100
AcDbSpline
70
4
71
3
72
26
73
22
40
0
40
0
40
0
40
0
40
0.0580730029314667
40
0.116166760220995
40
0.174260701745645
40
0.232333955996443
40
0.290415009857753
40
0.348518488932925
40
0.406619751807316
40
0.464697782388812
40
0.525872905049396
40
0.587084988198347
40
0.648287777568061
40
0.709450218884666
40
0.757500391424857
40
0.805563410673959
40
0.853607271501152
40
0.890198207742889
40
0.926814005449846
40
0.963421032455607
40
1
40
1
40
1
40
1
41
1
10
77.935303538903
20
31.425
30
0
41
1
10
77.9302217375039
20
31.4274193447526
30
0
41
1
10
77.9200520696517
20
31.4321665773413
30
0
41
1
10
77.9047789066498
20
31.4390127426298
30
0
41
1
10
77.8895029433604
20
31.4455780050283
30
0
41
1
10
77.8742348227625
20
31.4518577066401
30
0
41
1
10
77.8589834559478
20
31.4578478866538
30
0
41
1
10
77.843758630136
20
31.4635378206934
30
0
41
1
10
77.8285754995401
20
31.4689140753233
30
0
41
1
10
77.8131807683436
20
31.4740521443896
30
0
41
1
10
77.7975893493051
20
31.478919581401
30
0
41
1
10
77.7818262746611
20
31.4834655974268
30
0
41
1
10
77.7661888151212
20
31.4875716334271
30
0
41
1
10
77.7518156961776
20
31.4909429104676
30
0
41
1
10
77.7386965536269
20
31.4936615305516
30
0
41
1
10
77.726814128519
20
31.4958036820459
30
0
41
1
10
77.7160344269492
20
31.4974223107686
30
0
41
1
10
77.7063367637473
20
31.4985921901211
30
0
41
1
10
77.6976950102225
20
31.4993843181673
30
0
41
1
10
77.6892180960846
20
31.4998843819388
30
0
41
1
10
77.6837054649695
20
31.4999967973228
30
0
41
1
10
77.6809821919003
20
31.5
30
0
0
SPLINE
5
1BC
100
AcDbEntity
8
1
62
256
6
ByLayer
370
18
48
1
60
0
100
AcDbSpline
70
4
71
3
72
31
73
27
40
0
40
0
40
0
40
0
40
0.0563219054507003
40
0.112785940741386
40
0.169242296545837
40
0.22559832423247
40
0.281829427724963
40
0.325519937861193
40
0.369321330400892
40
0.413076623495584
40
0.456704098904755
40
0.491696827162189
40
0.526804823199035
40
0.561888074354211
40
0.596846943989923
40
0.631990566741662
40
0.667282182457733
40
0.702580572689821
40
0.737733471986001
40
0.770125447852953
40
0.802603111555529
40
0.835100282348842
40
0.867518926193567
40
0.911646085698385
40
0.955844096395913
40
1
40
1
40
1
40
1
41
1
10
77.4518364783823
20
31.5
30
0
41
1
10
77.4492508389447
20
31.5000045662028
30
0
41
1
10
77.4441521797128
20
31.4999005160746
30
0
41
1
10
77.4367167841996
20
31.4994241517101
30
0
41
1
10
77.42956277666
20
31.4985672591461
30
0
41
1
10
77.4227569595271
20
31.4972893006566
30
0
41
1
10
77.4168407140248
20
31.495675823477
30
0
41
1
10
77.411774684157
20
31.4937983895869
30
0
41
1
10
77.407504890363
20
31.491735653413
30
0
41
1
10
77.4036545300886
20
31.4892982357678
30
0
41
1
10
77.4005173948978
20
31.4866484926918
30
0
41
1
10
77.3980573306697
20
31.4838461552734
30
0
41
1
10
77.3961906650985
20
31.4809744325802
30
0
41
1
10
77.3947645455752
20
31.4778294032536
30
0
41
1
10
77.3938169815361
20
31.4744136120997
30
0
41
1
10
77.3934022455731
20
31.4707249606655
30
0
41
1
10
77.393510209953
20
31.4667983381934
30
0
41
1
10
77.3941267762143
20
31.4626831329451
30
0
41
1
10
77.3952184418274
20
31.4585288512942
30
0
41
1
10
77.3967319436616
20
31.4543789355105
30
0
41
1
10
77.3985778155144
20
31.4502705956518
30
0
41
1
10
77.4007640836433
20
31.4461174590404
30
0
41
1
10
77.4035594153844
20
31.4414426327617
30
0
41
1
10
77.4070653121097
20
31.4362593935204
30
0
41
1
10
77.4113522891114
20
31.4305984121521
30
0
41
1
10
77.4144468202793
20
31.4268604235866
30
0
41
1
10
77.4160570117809
20
31.425
30
0
0
SPLINE
5
1BD
100
AcDbEntity
8
1
62
256
6
ByLayer
370
18
48
1
60
0
100
AcDbSpline
70
4
71
2
72
6
73
3
40
0
40
0
40
0
40
1
40
1
40
1
41
1
10
77.4160570117809
20
31.425
30
0
41
1
10
77.6937118715321
20
31.1032341320145
30
0
41
1
10
77.970582586179
20
30.7809618943233
30
0
0
SPLINE
5
1BE
100
AcDbEntity
8
1
62
256
6
ByLayer
370
18
48
1
60
0
100
AcDbSpline
70
4
71
3
72
26
73
22
40
0
40
0
40
0
40
0
40
0.0617812411722286
40
0.123584401537422
40
0.185387442501668
40
0.247168520796568
40
0.308964159613157
40
0.370784730348291
40
0.432601933675257
40
0.494392978673307
40
0.546580377784936
40
0.59880653336191
40
0.651036683467097
40
0.703245593930962
40
0.755418519040666
40
0.802745295696896
40
0.850085885570239
40
0.897404473857066
40
0.933545780577073
40
0.969717783905008
40
1
40
1
40
1
40
1
41
1
10
77.6254718864529
20
30.7809618943233
30
0
41
1
10
77.63196176637
20
30.7780834052471
30
0
41
1
10
77.64494696246
20
30.7724384770072
30
0
41
1
10
77.6644418156482
20
30.764307398678
30
0
41
1
10
77.6839330234877
20
30.7565206491973
30
0
41
1
10
77.7034071569421
20
30.7490840757087
30
0
41
1
10
77.7228522980164
20
30.7420027850806
30
0
41
1
10
77.7422549036238
20
30.7352933700834
30
0
41
1
10
77.7615932919456
20
30.7289762887376
30
0
41
1
10
77.779848393576
20
30.723378921145
30
0
41
1
10
77.7970216234644
20
30.7184433760469
30
0
41
1
10
77.8131167143509
20
30.7141229896595
30
0
41
1
10
77.8291034714934
20
30.710162104443
30
0
41
1
10
77.8449511559145
20
30.7065919822504
30
0
41
1
10
77.8601477910512
20
30.703540022834
30
0
41
1
10
77.8746858364403
20
30.7009918494415
30
0
41
1
10
77.888550380504
20
30.6989486797915
30
0
41
1
10
77.9011073279013
20
30.6974976583077
30
0
41
1
10
77.9123809399034
20
30.6965549312566
30
0
41
1
10
77.9218668841519
20
30.6960612744878
30
0
41
1
10
77.9278697567266
20
30.695963114319
30
0
41
1
10
77.9305782182468
20
30.6959618953662
30
0
0
SPLINE
5
1BF
100
AcDbEntity
8
1
62
256
6
ByLayer
370
18
48
1
60
0
100
AcDbSpline
70
4
71
3
72
19
73
15
40
0
40
0
40
0
40
0
40
0.083307683119905
40
0.166615994822271
40
0.249924327405994
40
0.33323203900069
40
0.41653951113898
40
0.499847567414118
40
0.583155643337119
40
0.666463142268137
40
0.749847073843918
40
0.833231549277587
40
0.91661604320513
40
1
40
1
40
1
40
1
41
1
10
76.0912049704241
20
31.425
30
0
41
1
10
76.1342742128738
20
31.4079604032781
30
0
41
1
10
76.220335482308
20
31.3737358243447
30
0
41
1
10
76.3491948647002
20
31.3219609140054
30
0
41
1
10
76.4778217831162
20
31.269754623233
30
0
41
1
10
76.6062159898068
20
31.2171213341438
30
0
41
1
10
76.7343780382225
20
31.1640657337354
30
0
41
1
10
76.8623085467736
20
31.1105922637216
30
0
41
1
10
76.9900076745388
20
31.0567055795126
30
0
41
1
10
77.1175144841126
20
31.0023937568114
30
0
41
1
10
77.244829413224
20
30.94766073573
30
0
41
1
10
77.371952973815
20
30.8925105356696
30
0
41
1
10
77.4988464023319
20
30.83696396927
30
0
41
1
10
77.5832889991582
20
30.7996727992641
30
0
41
1
10
77.6254718864529
20
30.7809618943233
30
0
0
SPLINE
5
1C0
100
AcDbEntity
8
1
62
256
6
ByLayer
370
18
48
1
60
0
100
AcDbSpline
70
4
71
3
72
25
73
21
40
0
40
0
40
0
40
0
40
0.0412179254494832
40
0.0824688676623762
40
0.123743819850299
40
0.16501889758638
40
0.206257082895226
40
0.258911270442612
40
0.311588120793461
40
0.364270721466129
40
0.416932753580266
40
0.474795466780723
40
0.532684250980921
40
0.590585055346994
40
0.648480079943366
40
0.706348029428039
40
0.779745917538393
40
0.853175138819619
40
0.926603409170061
40
1
40
1
40
1
40
1
41
1
10
75.775451063926
20
31.5
30
0
41
1
10
75.7794509954815
20
31.4999958436461
30
0
41
1
10
75.7875198408389
20
31.4998557721508
30
0
41
1
10
75.7998411223888
20
31.4992327156709
30
0
41
1
10
75.8123326339546
20
31.4982480394051
30
0
41
1
10
75.8249618442902
20
31.4969340263573
30
0
41
1
10
75.8388741577904
20
31.4951802262781
30
0
41
1
10
75.854085209547
20
31.4929232834399
30
0
41
1
10
75.8706104686008
20
31.4900858817618
30
0
41
1
10
75.8872398034293
20
31.4868754520304
30
0
41
1
10
75.9045010712397
20
31.4832040717331
30
0
41
1
10
75.9223877246716
20
31.4790610041058
30
0
41
1
10
75.9408959918253
20
31.4744219005548
30
0
41
1
10
75.9594588101372
20
31.469430239849
30
0
41
1
10
75.9780576898077
20
31.4641022044115
30
0
41
1
10
75.998345002807
20
31.4579473800335
30
0
41
1
10
76.0203203673698
20
31.4508723185561
30
0
41
1
10
76.0439722400519
20
31.4427643491134
30
0
41
1
10
76.0676126774574
20
31.4341653190907
30
0
41
1
10
76.0833453555978
20
31.4281088550045
30
0
41
1
10
76.0912049704241
20
31.425
30
0
0
SPLINE
5
1C1
100
AcDbEntity
8
1
62
256
6
ByLayer
370
18
48
1
60
0
100
AcDbSpline
70
4
71
3
72
34
73
30
40
0
40
0
40
0
40
0
40
0.0314979272066992
40
0.0630529807233557
40
0.0945842147944357
40
0.126049597498186
40
0.158290661280731
40
0.190668796908668
40
0.223005872076869
40
0.25519069287444
40
0.284294860608101
40
0.313538078674984
40
0.342789183428434
40
0.371904156567851
40
0.405532778425159
40
0.43924976839629
40
0.472910394126248
40
0.508147028303987
40
0.543480852885982
40
0.578891995400363
40
0.61430833371884
40
0.649614376517539
40
0.692864483892796
40
0.736160500589383
40
0.779474614609176
40
0.822749424456578
40
0.881818722174077
40
0.940917708038333
40
1
40
1
40
1
40
1
41
1
10
75.4146807504104
20
31.425
30
0
41
1
10
75.4133688976763
20
31.4263836411406
30
0
41
1
10
75.4108249562285
20
31.4291747095779
30
0
41
1
10
75.4072370028202
20
31.4334285473873
30
0
41
1
10
75.403933999228
20
31.437738561133
30
0
41
1
10
75.4009325505344
20
31.442125656583
30
0
41
1
10
75.3983057982484
20
31.4465800402773
30
0
41
1
10
75.396117092438
20
31.4510731667294
30
0
41
1
10
75.3944405820041
20
31.4555248065146
30
0
41
1
10
75.3933750474587
20
31.4597443574487
30
0
41
1
10
75.3929282277391
20
31.4636914782408
30
0
41
1
10
75.3930157987011
20
31.4673549299172
30
0
41
1
10
75.3936051617117
20
31.4708351110846
30
0
41
1
10
75.3947479176667
20
31.4742625736414
30
0
41
1
10
75.3965218787264
20
31.4775666315894
30
0
41
1
10
75.3989230063967
20
31.4807081439253
30
0
41
1
10
75.4018504503855
20
31.4835779778936
30
0
41
1
10
75.4052624122642
20
31.4861706456227
30
0
41
1
10
75.4091125212916
20
31.4884971498343
30
0
41
1
10
75.4132935276483
20
31.4905393375165
30
0
41
1
10
75.4177453329078
20
31.4923187790365
30
0
41
1
10
75.4227708656377
20
31.4939750337645
30
0
41
1
10
75.428387459241
20
31.495475263592
30
0
41
1
10
75.4346130626823
20
31.4967856943976
30
0
41
1
10
75.441041471669
20
31.4978359956774
30
0
41
1
10
75.4484382730494
20
31.4987540085641
30
0
41
1
10
75.4568412493404
20
31.4994704722329
30
0
41
1
10
75.4662854675317
20
31.4999084769112
30
0
41
1
10
75.4726930980776
20
31.5000042130196
30
0
41
1
10
75.4759270472681
20
31.5
30
0
0
SPLINE
5
1C2
100
AcDbEntity
8
1
62
256
6
ByLayer
370
18
48
1
60
0
100
AcDbSpline
70
4
71
3
72
11
73
7
40
0
40
0
40
0
40
0
40
0.249998614661779
40
0.499997221070453
40
0.749998615474676
40
1
40
1
40
1
40
1
41
1
10
76.0194197320203
20
30.7809618943233
30
0
41
1
10
75.9692300314342
20
30.834775520764
30
0
41
1
10
75.8687495386247
20
30.9423317892416
30
0
41
1
10
75.7177296144258
20
31.1034574133549
30
0
41
1
10
75.5663965376499
20
31.2643635393912
30
0
41
1
10
75.4652885754079
20
31.3714798677708
30
0
41
1
10
75.4146807504104
20
31.425
30
0
0
SPLINE
5
1C3
100
AcDbEntity
8
1
62
256
6
ByLayer
370
18
48
1
60
0
100
AcDbSpline
70
4
71
3
72
35
73
31
40
0
40
0
40
0
40
0
40
0.0320594963848524
40
0.0641773954634246
40
0.0962715242242497
40
0.128298543056865
40
0.161049729106354
40
0.19393756684727
40
0.226785423566298
40
0.259481850060708
40
0.289333148596254
40
0.319326804665438
40
0.349327855468944
40
0.37918928535103
40
0.405066201883427
40
0.431009259606017
40
0.456968484507359
40
0.482867500992187
40
0.518576281578952
40
0.554384129001391
40
0.590269870160494
40
0.626160150902868
40
0.661938273396412
40
0.703770796829263
40
0.745645197908139
40
0.787535414963859
40
0.829389525735439
40
0.886462970145513
40
0.943564250503746
40
1
40
1
40
1
40
1
41
1
10
76.0194197320203
20
30.7809618943233
30
0
41
1
10
76.0209120198168
20
30.7793659650864
30
0
41
1
10
76.0238047637201
20
30.7761482145082
30
0
41
1
10
76.0278810328052
20
30.7712482433319
30
0
41
1
10
76.0316303071595
20
30.7662889881666
30
0
41
1
10
76.0350316642974
20
30.761250512889
30
0
41
1
10
76.0380040371226
20
30.7561456211817
30
0
41
1
10
76.0404782242262
20
30.7510072355004
30
0
41
1
10
76.0423734523183
20
30.7459233151836
30
0
41
1
10
76.0435833383839
20
30.7410962682307
30
0
41
1
10
76.0440931282503
20
30.7365720917198
30
0
41
1
10
76.043990485241
20
30.7323646220608
30
0
41
1
10
76.0433101023472
20
30.7283736122981
30
0
41
1
10
76.0421124022023
20
30.7248073881777
30
0
41
1
10
76.0404946112096
20
30.7216545635602
30
0
41
1
10
76.0385862850388
20
30.7188624171279
30
0
41
1
10
76.0363426357028
20
30.7162793212856
30
0
41
1
10
76.0334752864115
20
30.7136058442981
30
0
41
1
10
76.0298795794044
20
30.7109306277202
30
0
41
1
10
76.0254814088227
20
30.7083354356794
30
0
41
1
10
76.020705403441
20
30.7060650413423
30
0
41
1
10
76.0156193485093
20
30.7040948776697
30
0
41
1
10
76.0099753744933
20
30.7023017796668
30
0
41
1
10
76.0037684863144
20
30.7007062783853
30
0
41
1
10
75.9969898440852
20
30.699330406759
30
0
41
1
10
75.9899945495562
20
30.6982270208254
30
0
41
1
10
75.9819502557599
20
30.6972632013545
30
0
41
1
10
75.9728142142462
20
30.6965123641605
30
0
41
1
10
75.9625863182691
20
30.6960565766594
30
0
41
1
10
75.9556586609225
20
30.6959575501053
30
0
41
1
10
75.9521821792038
20
30.6959618943295
30
0
0
SPLINE
5
1C4
100
AcDbEntity
8
1
62
256
6
ByLayer
370
18
48
1
60
0
100
AcDbSpline
70
4
71
3
72
22
73
18
40
0
40
0
40
0
40
0
40
0.0666280003630594
40
0.133256813888511
40
0.199885875084635
40
0.266514644130731
40
0.333142607188063
40
0.399770926113889
40
0.466400124553711
40
0.533029591646854
40
0.599658743447257
40
0.666287023255628
40
0.733029005905243
40
0.799771942221462
40
0.86651517077179
40
0.933258058283657
40
1
40
1
40
1
40
1
41
1
10
75.5693324788796
20
30.7809618943233
30
0
41
1
10
75.5264366017293
20
30.7964200795828
30
0
41
1
10
75.44057403965
20
30.8271884453532
30
0
41
1
10
75.3115687515323
20
30.8728985500827
30
0
41
1
10
75.1823524474711
20
30.9181602621238
30
0
41
1
10
75.0529265531883
20
30.9629693373535
30
0
41
1
10
74.923291471502
20
31.0073213316945
30
0
41
1
10
74.7934469405861
20
31.0512121411062
30
0
41
1
10
74.6633928428448
20
31.0946376396967
30
0
41
1
10
74.5331302434605
20
31.1375933073953
30
0
41
1
10
74.4026609604477
20
31.1800743613735
30
0
41
1
10
74.2719115640563
20
31.2221002138045
30
0
41
1
10
74.1408815847437
20
31.2636656835586
30
0
41
1
10
74.0095707127919
20
31.3047656672086
30
0
41
1
10
73.8780545722653
20
31.3453719076166
30
0
41
1
10
73.7463352705701
20
31.3854800242082
30
0
41
1
10
73.6583878416154
20
31.411882525839
30
0
41
1
10
73.6143806299654
20
31.425
30
0
0
SPLINE
5
1C5
100
AcDbEntity
8
1
62
256
6
ByLayer
370
18
48
1
60
0
100
AcDbSpline
70
4
71
3
72
24
73
20
40
0
40
0
40
0
40
0
40
0.0648727688634462
40
0.129765695406955
40
0.194666583497675
40
0.259561839398825
40
0.324436562529728
40
0.390014492912354
40
0.455616537639356
40
0.521223199778014
40
0.58681867396162
40
0.652391091583808
40
0.710112394779612
40
0.767840770916008
40
0.825558371599438
40
0.86916532689822
40
0.912787185175925
40
0.95640227619543
40
1
40
1
40
1
40
1
41
1
10
73.6143806299654
20
31.425
30
0
41
1
10
73.6049307248075
20
31.4278158671777
30
0
41
1
10
73.5860166090783
20
31.4333049867941
30
0
41
1
10
73.5576028613868
20
31.441107268198
30
0
41
1
10
73.5291633643077
20
31.4484829029878
30
0
41
1
10
73.5007144588301
20
31.4554333363106
30
0
41
1
10
73.4721661600585
20
31.4619846506034
30
0
41
1
10
73.4435246041035
20
31.4681372648124
30
0
41
1
10
73.4147986266237
20
31.473868672083
30
0
41
1
10
73.3861067085807
20
31.479135242819
30
0
41
1
10
73.3574714912956
20
31.4839142826163
30
0
41
1
10
73.3300506274722
20
31.4880142809632
30
0
41
1
10
73.3038495361034
20
31.4914818462391
30
0
41
1
10
73.2788761429098
20
31.494341017085
30
0
41
1
10
73.2560451428547
20
31.4965055067105
30
0
41
1
10
73.2353451356998
20
31.4980814592783
30
0
41
1
10
73.2167628844463
20
31.4991559598828
30
0
41
1
10
73.1983093396846
20
31.499840628515
30
0
41
1
10
73.1861237256873
20
31.4999948690637
30
0
41
1
10
73.1800584119672
20
31.5
30
0
0
SPLINE
5
1C6
100
AcDbEntity
8
1
62
256
6
ByLayer
370
18
48
1
60
0
100
AcDbSpline
70
4
71
3
72
35
73
31
40
0
40
0
40
0
40
0
40
0.0726161532907293
40
0.14527435341946
40
0.217905835483458
40
0.290485531504262
40
0.339228016867149
40
0.387984499616815
40
0.436709764990553
40
0.474295117551547
40
0.511945525735068
40
0.54954885876542
40
0.587069891991122
40
0.610643955146604
40
0.634278488099881
40
0.657880538968844
40
0.681410183423409
40
0.703944880076251
40
0.726532245591439
40
0.749039105710653
40
0.771693916891314
40
0.794437869994455
40
0.81709944516
40
0.837809596815976
40
0.858574980628101
40
0.879305679354957
40
0.909383246267662
40
0.939577481213228
40
0.969835353097355
40
1
40
1
40
1
40
1
41
1
10
72.7422112111636
20
31.5
30
0
41
1
10
72.7370532528883
20
31.5000073006521
30
0
41
1
10
72.7267880678368
20
31.4998978005053
30
0
41
1
10
72.7115307271833
20
31.4993921166244
30
0
41
1
10
72.6964794355746
20
31.4984521927449
30
0
41
1
10
72.6833070430189
20
31.4971760565164
30
0
41
1
10
72.6719701070133
20
31.4956871409738
30
0
41
1
10
72.6624171142762
20
31.4940962716373
30
0
41
1
10
72.6538236669512
20
31.4922890537429
30
0
41
1
10
72.646168876353
20
31.490322724511
30
0
41
1
10
72.6394404709359
20
31.4882386409352
30
0
41
1
10
72.6330333796073
20
31.48580221688
30
0
41
1
10
72.627780486298
20
31.4833141217514
30
0
41
1
10
72.6235927710484
20
31.4808950581128
30
0
41
1
10
72.6203510400848
20
31.4786642760264
30
0
41
1
10
72.6174241983696
20
31.476206457779
30
0
41
1
10
72.6149127576038
20
31.4735458581001
30
0
41
1
10
72.6128770608711
20
31.4706752271159
30
0
41
1
10
72.6113551598518
20
31.4676139174261
30
0
41
1
10
72.6103744011854
20
31.4643286105343
30
0
41
1
10
72.6100301891293
20
31.4608363331583
30
0
41
1
10
72.6103052402651
20
31.457199461368
30
0
41
1
10
72.6111616406542
20
31.4535856140748
30
0
41
1
10
72.6125290415159
20
31.4500552708428
30
0
41
1
10
72.6142736256989
20
31.4466450050613
30
0
41
1
10
72.6167061447634
20
31.4427670399779
30
0
41
1
10
72.6199651314265
20
31.4384686520028
30
0
41
1
10
72.6241275027486
20
31.4338155621976
30
0
41
1
10
72.6287141809294
20
31.4293184758507
30
0
41
1
10
72.631970544783
20
31.426420886708
30
0
41
1
10
72.6336523916783
20
31.425
30
0
0
SPLINE
5
1C7
100
AcDbEntity
8
1
62
256
6
ByLayer
370
18
48
1
60
0
100
AcDbSpline
70
4
71
3
72
13
73
9
40
0
40
0
40
0
40
0
40
0.166655161444303
40
0.333311052255976
40
0.499966325040631
40
0.666643990813468
40
0.833322246954642
40
1
40
1
40
1
40
1
41
1
10
72.6336523916783
20
31.425
30
0
41
1
10
72.6752505877371
20
31.3896445837913
30
0
41
1
10
72.7582802890661
20
31.3187877224533
30
0
41
1
10
72.8823169895023
20
31.2120569708513
30
0
41
1
10
73.0058729697375
20
31.1048995529644
30
0
41
1
10
73.1289626012082
20
30.997330830621
30
0
41
1
10
73.2515984500593
20
30.8893643751547
30
0
41
1
10
73.3330623390511
20
30.8171381818415
30
0
41
1
10
73.3737198048528
20
30.7809618943233
30
0
0
SPLINE
5
1C8
100
AcDbEntity
8
1
62
256
6
ByLayer
370
18
48
1
60
0
100
AcDbSpline
70
4
71
3
72
28
73
24
40
0
40
0
40
0
40
0
40
0.0593229462183258
40
0.118657017418845
40
0.177994844057704
40
0.237328997602797
40
0.296652012897298
40
0.356375156842579
40
0.416112864416739
40
0.475853119182519
40
0.535586398819273
40
0.595305828127173
40
0.646749836861101
40
0.698197888707863
40
0.749640113082028
40
0.788388333245543
40
0.827143754442393
40
0.865896677772892
40
0.904641491082033
40
0.935414830525238
40
0.966196113205824
40
0.996974048457432
40
1
40
1
40
1
40
1
41
1
10
72.7148562735428
20
30.7809618943233
30
0
41
1
10
72.7257115987239
20
30.7781886253783
30
0
41
1
10
72.7474283475799
20
30.7727522346111
30
0
41
1
10
72.7800212448024
20
30.7649288493966
30
0
41
1
10
72.8126206289041
20
30.7574379288732
30
0
41
1
10
72.8452150077896
20
30.7502812884038
30
0
41
1
10
72.8778683815247
20
30.743445347983
30
0
41
1
10
72.9105758334811
20
30.7369318002694
30
0
41
1
10
72.9433304730996
20
30.7307607050407
30
0
41
1
10
72.9760471554858
20
30.7249673228979
30
0
41
1
10
73.0087086236164
20
30.7195731287037
30
0
41
1
10
73.0397957423651
20
30.714827982444
30
0
41
1
10
73.0693073678664
20
30.710687115691
30
0
41
1
10
73.0972426529471
20
30.7071198684331
30
0
41
1
10
73.1227967613307
20
30.7042089474242
30
0
41
1
10
73.1459805660688
20
30.7018705486564
30
0
41
1
10
73.1668089861211
20
30.7000291135983
30
0
41
1
10
73.1875481457444
20
30.6984830661497
30
0
41
1
10
73.206764806793
20
30.6973457441514
30
0
41
1
10
73.2244707937878
20
30.6965625841444
30
0
41
1
10
73.2406737904094
20
30.6960974275806
30
0
41
1
10
73.2519332271409
20
30.695957431941
30
0
41
1
10
73.2577930156603
20
30.6959610453601
30
0
41
1
10
73.2583173323949
20
30.6959618947523
30
0
0
SPLINE
5
1C9
100
AcDbEntity
8
1
62
256
6
ByLayer
370
18
48
1
60
0
100
AcDbSpline
70
4
71
3
72
31
73
27
40
0
40
0
40
0
40
0
40
0.0415829731963885
40
0.0831669125061018
40
0.124751350189752
40
0.166335805863362
40
0.207919786688859
40
0.249502787563088
40
0.291085497424857
40
0.332669121199681
40
0.374253218329941
40
0.415837334730158
40
0.457421002974613
40
0.499003742483463
40
0.540586173764139
40
0.582169464100994
40
0.623753201024075
40
0.665336957998775
40
0.706920294609084
40
0.748502756739376
40
0.790418255975891
40
0.832334577229568
40
0.874251327387073
40
0.916168098584719
40
0.958084468393064
40
1
40
1
40
1
40
1
41
1
10
69.5716758317873
20
31.425
30
0
41
1
10
69.6157815437863
20
31.4182258983349
30
0
41
1
10
69.7039546464248
20
31.404491501779
30
0
41
1
10
69.8360985173859
20
31.3833302672967
30
0
41
1
10
69.9681234804957
20
31.3616133648924
30
0
41
1
10
70.1000257061473
20
31.3393436151134
30
0
41
1
10
70.2318010129802
20
31.3165242327859
30
0
41
1
10
70.3634465854599
20
31.2931580953287
30
0
41
1
10
70.494961410021
20
31.2692477757945
30
0
41
1
10
70.6263446860379
20
31.2447962243246
30
0
41
1
10
70.7575944356756
20
31.2198065440941
30
0
41
1
10
70.888706962542
20
31.1942821563195
30
0
41
1
10
71.0196785701705
20
31.1682264823497
30
0
41
1
10
71.1505067290222
20
31.1416427002735
30
0
41
1
10
71.2811906627684
20
31.1145336266247
30
0
41
1
10
71.4117298026909
20
31.0869023941678
30
0
41
1
10
71.5421225129166
20
31.0587522967445
30
0
41
1
10
71.6723655189227
20
31.0300869743137
30
0
41
1
10
71.8024555466057
20
31.000910066391
30
0
41
1
10
71.9327376012076
20
30.9711456392092
30
0
41
1
10
72.0632097085978
20
30.9407919539065
30
0
41
1
10
72.1938700301565
20
30.9098476053615
30
0
41
1
10
72.3243704367834
20
30.8783967577694
30
0
41
1
10
72.4547079640194
20
30.846443392539
30
0
41
1
10
72.5848798531773
20
30.8139910233173
30
0
41
1
10
72.6715495134097
20
30.7920266453142
30
0
41
1
10
72.7148562735428
20
30.7809618943233
30
0
0
SPLINE
5
1CA
100
AcDbEntity
8
1
62
256
6
ByLayer
370
18
48
1
60
0
100
AcDbSpline
70
4
71
3
72
25
73
21
40
0
40
0
40
0
40
0
40
0.0524961946048218
40
0.10499514314852
40
0.157492527064303
40
0.210052141272883
40
0.262613190558663
40
0.315173162988611
40
0.372133479089207
40
0.429096248482606
40
0.486059196503375
40
0.543019756197099
40
0.599979774415892
40
0.656942176560285
40
0.713904419247518
40
0.770864220015515
40
0.82814696341027
40
0.885432870246967
40
0.942718133825588
40
1
40
1
40
1
40
1
41
1
10
68.6354217551841
20
31.5
30
0
41
1
10
68.6517298113669
20
31.4999939327674
30
0
41
1
10
68.6843686824753
20
31.4998057809397
30
0
41
1
10
68.7334007784656
20
31.4989698068967
30
0
41
1
10
68.7825020783958
20
31.497656597723
30
0
41
1
10
68.8316608658602
20
31.4959098891839
30
0
41
1
10
68.8808693934048
20
31.4937483779198
30
0
41
1
10
68.931474906489
20
31.4911239035367
30
0
41
1
10
68.9834731151009
20
31.4880212594762
30
0
41
1
10
69.0368606395358
20
31.4844104261171
30
0
41
1
10
69.0902572363231
20
31.4803810871663
30
0
41
1
10
69.1436570758978
20
31.4759412333441
30
0
41
1
10
69.1970563079931
20
31.4710978067246
30
0
41
1
10
69.250451765799
20
31.4658444703751
30
0
41
1
10
69.3038386876947
20
31.4601758714283
30
0
41
1
10
69.3573127709925
20
31.4540744764848
30
0
41
1
10
69.4108703747202
20
31.447532984067
30
0
41
1
10
69.4645065437138
20
31.4405283344751
30
0
41
1
10
69.5181140610914
20
31.4330540383618
30
0
41
1
10
69.5538261726686
20
31.4277389408353
30
0
41
1
10
69.5716758317873
20
31.425
30
0
0
SPLINE
5
1CB
100
AcDbEntity
8
1
62
256
6
ByLayer
370
18
48
1
60
0
100
AcDbSpline
70
4
71
3
72
50
73
46
40
0
40
0
40
0
40
0
40
0.0219701513487708
40
0.0439380385572926
40
0.0542148384580792
40
0.0645334220301941
40
0.0748486419014384
40
0.0851308897704116
40
0.0953732489395508
40
0.10559908806456
40
0.110285543366632
40
0.114975995170635
40
0.119647917679831
40
0.123389385115221
40
0.127122529804673
40
0.129776718197993
40
0.132428621761236
40
0.13507961207892
40
0.137732292081251
40
0.141895359012127
40
0.146072156136642
40
0.150187564546815
40
0.15430681301504
40
0.161250135858854
40
0.168211803412413
40
0.175170309285683
40
0.185494902158409
40
0.195822064104814
40
0.211042863532832
40
0.226265961570606
40
0.249506485517301
40
0.272749314080139
40
0.298489935498341
40
0.324233597240082
40
0.349976267503752
40
0.400466028924845
40
0.450962424120997
40
0.501463562109463
40
0.55195979171383
40
0.626626137185075
40
0.701296660787025
40
0.775972145549348
40
0.850650828680206
40
0.925328733416271
40
1
40
1
40
1
40
1
41
1
10
66.8919856563549
20
31.425
30
0
41
1
10
66.8872685271264
20
31.4260878357194
30
0
41
1
10
66.8778778374165
20
31.4283632041555
30
0
41
1
10
66.8663881387368
20
31.4314118835392
30
0
41
1
10
66.857439260171
20
31.4339532244757
30
0
41
1
10
66.8509783821934
20
31.4358761624529
30
0
41
1
10
66.8445988527234
20
31.4379539313553
30
0
41
1
10
66.8383624942123
20
31.4402374066352
30
0
41
1
10
66.8323370030464
20
31.4427857826998
30
0
41
1
10
66.8276248366463
20
31.4451281599026
30
0
41
1
10
66.8241384090808
20
31.4471305580637
30
0
41
1
10
66.8217960983652
20
31.4486974726998
30
0
41
1
10
66.8198242118784
20
31.450306411686
30
0
41
1
10
66.8182647920829
20
31.4519384009929
30
0
41
1
10
66.8172595238076
20
31.4534159569668
30
0
41
1
10
66.8166933362035
20
31.4548071000454
30
0
41
1
10
66.8164716437499
20
31.4560608827269
30
0
41
1
10
66.816571254737
20
31.4573070773562
30
0
41
1
10
66.8170339172542
20
31.4587379458691
30
0
41
1
10
66.8180404505297
20
31.4602738312425
30
0
41
1
10
66.8196072037904
20
31.4618134047532
30
0
41
1
10
66.8214494964301
20
31.4631742968933
30
0
41
1
10
66.823934306245
20
31.4646608128603
30
0
41
1
10
66.827123465987
20
31.4662154905108
30
0
41
1
10
66.8310388484085
20
31.4677691948038
30
0
41
1
10
66.8357529115513
20
31.4693653204062
30
0
41
1
10
66.8412648792104
20
31.4709793300392
30
0
41
1
10
66.8485853522932
20
31.4728149511543
30
0
41
1
10
66.8570444258646
20
31.4746475223525
30
0
41
1
10
66.8683308134823
20
31.4767493877139
30
0
41
1
10
66.8814397804413
20
31.4788497893953
30
0
41
1
10
66.8969120600542
20
31.480963223359
30
0
41
1
10
66.9130081927673
20
31.4828895891221
30
0
41
1
10
66.9297156873235
20
31.4846418451306
30
0
41
1
10
66.9518478163455
20
31.4867020909098
30
0
41
1
10
66.9794402544068
20
31.4889184182708
30
0
41
1
10
67.0125247031473
20
31.4911130489368
30
0
41
1
10
67.0456845024486
20
31.4929336264755
30
0
41
1
10
67.0841924232358
20
31.4947109457427
30
0
41
1
10
67.1280517282224
20
31.4963826593166
30
0
41
1
10
67.1772771456064
20
31.4978168616333
30
0
41
1
10
67.2265515771418
20
31.4988572684121
30
0
41
1
10
67.2758632443641
20
31.4995465450167
30
0
41
1
10
67.3252011014526
20
31.4999229726792
30
0
41
1
10
67.3581033138102
20
31.5000047096642
30
0
41
1
10
67.3745570131811
20
31.5
30
0
0
SPLINE
5
1CC
100
AcDbEntity
8
1
62
256
6
ByLayer
370
18
48
1
60
0
100
AcDbSpline
70
4
71
3
72
34
73
30
40
0
40
0
40
0
40
0
40
0.0414029011800066
40
0.0828081321713283
40
0.124214378625764
40
0.165620446702531
40
0.20702526604181
40
0.248427892772126
40
0.289833518261538
40
0.331242026226957
40
0.372651798667526
40
0.414061360037258
40
0.455469380899617
40
0.496874681631686
40
0.53236770112404
40
0.567863519473056
40
0.603360881137724
40
0.638858616921806
40
0.674355645967487
40
0.709850977776965
40
0.74534371426053
40
0.77716051547914
40
0.808978204230478
40
0.840795855730891
40
0.872612606151357
40
0.904458990915098
40
0.936306347712602
40
0.968153666741071
40
1
40
1
40
1
40
1
41
1
10
68.7829461259162
20
30.7809618943233
30
0
41
1
10
68.7579306206994
20
30.7920367020161
30
0
41
1
10
68.7078083685098
20
30.8140316111648
30
0
41
1
10
68.6323546800323
20
30.8465633359095
30
0
41
1
10
68.5566284871805
20
30.8786202664313
30
0
41
1
10
68.480631188721
20
30.9101920361765
30
0
41
1
10
68.4043640140451
20
30.94126690206
30
0
41
1
10
68.3278245578433
20
30.9718350066547
30
0
41
1
10
68.2510099106745
20
31.001886261595
30
0
41
1
10
68.1739177648831
20
31.0314102068843
30
0
41
1
10
68.0965502433231
20
31.0603947571147
30
0
41
1
10
68.0189104595028
20
31.0888273951527
30
0
41
1
10
67.9410015397997
20
31.1166955934982
30
0
41
1
10
67.866545134344
20
31.1426887328951
30
0
41
1
10
67.7955828511786
20
31.1668894461105
30
0
41
1
10
67.7281531981177
20
31.1893790628037
30
0
41
1
10
67.6605242729325
20
31.2114232473835
30
0
41
1
10
67.5926995641632
20
31.2330137022845
30
0
41
1
10
67.5246825729939
20
31.2541421377918
30
0
41
1
10
67.4564768088722
20
31.2748002702634
30
0
41
1
10
67.3904446272954
20
31.2942837671715
30
0
41
1
10
67.3266084956721
20
31.3126421710059
30
0
41
1
10
67.2649894376842
20
31.3299249553381
30
0
41
1
10
67.2032225363328
20
31.3468072263486
30
0
41
1
10
67.1412909905634
20
31.3632884061834
30
0
41
1
10
67.0791959092153
20
31.3793626202255
30
0
41
1
10
67.0169388410011
20
31.395024098378
30
0
41
1
10
66.9545417373922
20
31.4102629034145
30
0
41
1
10
66.9128527798431
20
31.4201352090874
30
0
41
1
10
66.8919856563549
20
31.425
30
0
0
SPLINE
5
1CD
100
AcDbEntity
8
1
62
256
6
ByLayer
370
18
48
1
60
0
100
AcDbSpline
70
4
71
3
72
47
73
43
40
0
40
0
40
0
40
0
40
0.0150007344488304
40
0.0300784556764394
40
0.045155397913417
40
0.0601803737873218
40
0.0751379064671814
40
0.0900582093563867
40
0.0982299222887025
40
0.106410995392438
40
0.114569447841631
40
0.120987998915871
40
0.127420730170973
40
0.133829544453492
40
0.140297881920393
40
0.146793966149164
40
0.153263129648044
40
0.161669063744832
40
0.170083294958296
40
0.179982562882773
40
0.189921972512382
40
0.199847671524025
40
0.215425848786127
40
0.231046264392545
40
0.246720907691972
40
0.262413893132184
40
0.27805312257768
40
0.307707164193872
40
0.337387634322014
40
0.367100481509877
40
0.396823818710745
40
0.426513849545459
40
0.476855835954765
40
0.527209702331972
40
0.577559340929005
40
0.643183526385562
40
0.708818820487507
40
0.774468004282459
40
0.840126449763675
40
0.905783119537935
40
0.971421558627887
40
1
40
1
40
1
40
1
41
1
10
68.7829461259161
20
30.7809618943233
30
0
41
1
10
68.7850583037041
20
30.7800343011596
30
0
41
1
10
68.7892554879947
20
30.7781273279913
30
0
41
1
10
68.7954650418264
20
30.7751445089046
30
0
41
1
10
68.8015172577088
20
30.7719748910972
30
0
41
1
10
68.8073342722356
20
30.7685907341428
30
0
41
1
10
68.8128282339003
20
30.764955684072
30
0
41
1
10
68.8171522398473
20
30.7616338106187
30
0
41
1
10
68.8204127468274
20
30.7587350157355
30
0
41
1
10
68.8227333929562
20
30.7563473436892
30
0
41
1
10
68.8246153016177
20
30.7540225451822
30
0
41
1
10
68.8260577803984
20
30.7517910356659
30
0
41
1
10
68.8270996195042
20
30.7496876169553
30
0
41
1
10
68.8278208346192
20
30.7475392722428
30
0
41
1
10
68.8281513793871
20
30.7453727321866
30
0
41
1
10
68.8280935276018
20
30.7432260057996
30
0
41
1
10
68.8276044039643
20
30.7409320494834
30
0
41
1
10
68.8265444523567
20
30.7385639332474
30
0
41
1
10
68.8247911611154
20
30.7360492391186
30
0
41
1
10
68.8224332328632
20
30.7336323981675
30
0
41
1
10
68.8195299845102
20
30.7313420057314
30
0
41
1
10
68.8156976528521
20
30.7288863655578
30
0
41
1
10
68.8108718103641
20
30.7263490594828
30
0
41
1
10
68.8049930724036
20
30.7238273357579
30
0
41
1
10
68.798815520359
20
30.7216184237902
30
0
41
1
10
68.7924338538202
20
30.7196645113807
30
0
41
1
10
68.7839794169142
20
30.7173738339918
30
0
41
1
10
68.7733708798493
20
30.7148755846882
30
0
41
1
10
68.7605031516084
20
30.7123607420434
30
0
41
1
10
68.7474285172648
20
30.7102154378546
30
0
41
1
10
68.734208049057
20
30.70837060756
30
0
41
1
10
68.7178085126915
20
30.7063665005896
30
0
41
1
10
68.6981830055933
20
30.7043232939607
30
0
41
1
10
68.6752758402875
20
30.7024100356273
30
0
41
1
10
68.6499152600725
20
30.700694520686
30
0
41
1
10
68.6221042948924
20
30.6991885133898
30
0
41
1
10
68.5918323822111
20
30.6979477284098
30
0
41
1
10
68.5614588970744
20
30.6970528465657
30
0
41
1
10
68.5310052353695
20
30.6964542405758
30
0
41
1
10
68.5004923367304
20
30.6961043661379
30
0
41
1
10
68.4756860434233
20
30.69597994279
30
0
41
1
10
68.4610544479676
20
30.6959618458815
30
0
41
1
10
68.4566150060949
20
30.6959619010812
30
0
0
SPLINE
5
1CE
100
AcDbEntity
8
1
62
256
6
ByLayer
370
18
48
1
60
0
100
AcDbSpline
70
4
71
3
72
31
73
27
40
0
40
0
40
0
40
0
40
0.041564202868466
40
0.0831295220203072
40
0.124695394932879
40
0.166261262559743
40
0.207826569513629
40
0.249390764249905
40
0.290955022100591
40
0.332520404730063
40
0.374086348320148
40
0.415652290113652
40
0.4572176685971
40
0.498781923683695
40
0.540346186437874
40
0.581911572650955
40
0.623477522175795
40
0.665043473462576
40
0.706608863741725
40
0.748173129206686
40
0.790143314019885
40
0.832114644013953
40
0.87408655132979
40
0.916058464123493
40
0.958029806758969
40
1
40
1
40
1
40
1
41
1
10
66.6813995529139
20
30.7809618943233
30
0
41
1
10
66.6348694418708
20
30.7834805934303
30
0
41
1
10
66.541794376706
20
30.788309763807
30
0
41
1
10
66.4021380397965
20
30.7949290453879
30
0
41
1
10
66.2624424819893
20
30.8009227703565
30
0
41
1
10
66.1227128960278
20
30.8062901046309
30
0
41
1
10
65.9829549660962
20
30.8110301122837
30
0
41
1
10
65.8431723131215
20
30.815141942854
30
0
41
1
10
65.7033667934042
20
30.8186247387956
30
0
41
1
10
65.5635403006238
20
30.8214783261863
30
0
41
1
10
65.4236966800164
20
30.8237024417764
30
0
41
1
10
65.2838415998468
20
30.8252967755474
30
0
41
1
10
65.1439807285757
20
30.8262610178325
30
0
41
1
10
65.0041178392363
20
30.8265948633944
30
0
41
1
10
64.8642548301402
20
30.8262979645516
30
0
41
1
10
64.7243935998432
20
30.8253706636973
30
0
41
1
10
64.5845379388134
20
30.8238132606148
30
0
41
1
10
64.4446935160733
20
30.8216260590827
30
0
41
1
10
64.3048659998493
20
30.8188093627943
30
0
41
1
10
64.1646040499961
20
30.8153522114207
30
0
41
1
10
64.0239097748684
20
30.811247579375
30
0
41
1
10
63.8827853895352
20
30.8064891256481
30
0
41
1
10
63.7416897366031
20
30.8010910022159
30
0
41
1
10
63.6006286695835
20
30.7950541692716
30
0
41
1
10
63.4596075353102
20
30.7883794830386
30
0
41
1
10
63.365623169308
20
30.7835051968924
30
0
41
1
10
63.3186385527616
20
30.7809618943233
30
0
0
SPLINE
5
1CF
100
AcDbEntity
8
1
62
256
6
ByLayer
370
18
48
1
60
0
100
AcDbSpline
70
4
71
3
72
29
73
25
40
0
40
0
40
0
40
0
40
0.0663738860559086
40
0.13274812207181
40
0.199121907206581
40
0.265496833602576
40
0.331872250795804
40
0.398246954834194
40
0.448029766118515
40
0.497813422715738
40
0.547596816957073
40
0.597379270476947
40
0.637348092914666
40
0.67731852002538
40
0.717288982162181
40
0.7572584413091
40
0.797226451875202
40
0.832117177278933
40
0.86700846763316
40
0.901898768998693
40
0.928070570889596
40
0.954243813893605
40
0.98041632938185
40
1
40
1
40
1
40
1
41
1
10
63.3186385527616
20
30.7809618943233
30
0
41
1
10
63.279225767455
20
30.7788235525155
30
0
41
1
10
63.2004096270699
20
30.7744924683841
30
0
41
1
10
63.0822136122456
20
30.767811815944
30
0
41
1
10
62.9640476585507
20
30.761009694653
30
0
41
1
10
62.8459140074894
20
30.7541250167311
30
0
41
1
10
62.7278159332698
20
30.747214184064
30
0
41
1
10
62.6195950903945
20
30.7409077680567
30
0
41
1
10
62.5212443225366
20
30.7352366369038
30
0
41
1
10
62.4327551068508
20
30.7302141048001
30
0
41
1
10
62.3442977148676
20
30.7253089950542
30
0
41
1
10
62.2616869569333
20
30.7208705879655
30
0
41
1
10
62.1849178813345
20
30.7168889466748
30
0
41
1
10
62.1139853041045
20
30.7133586261872
30
0
41
1
10
62.0430867673099
20
30.7100152636709
30
0
41
1
10
61.9722295944288
20
30.7068945377713
30
0
41
1
10
61.9044186555776
20
30.7041528120795
30
0
41
1
10
61.8396532657109
20
30.7017862870046
30
0
41
1
10
61.7779343776621
20
30.6998069611845
30
0
41
1
10
61.7214120656397
20
30.698294652247
30
0
41
1
10
61.6700779822303
20
30.6971913323421
30
0
41
1
10
61.6239234391943
20
30.6964498624358
30
0
41
1
10
61.5816962015375
20
30.6960416449903
30
0
41
1
10
61.5548739438792
20
30.6959639186431
30
0
41
1
10
61.5434006426683
20
30.6959619000057
30
0
0
SPLINE
5
1D0
100
AcDbEntity
8
1
62
256
6
ByLayer
370
18
48
1
60
0
100
AcDbSpline
70
4
71
3
72
34
73
30
40
0
40
0
40
0
40
0
40
0.0310025296412151
40
0.0620059695882966
40
0.0930094434577771
40
0.124012019358151
40
0.155042667555867
40
0.186074154456241
40
0.217105675089171
40
0.248136369287066
40
0.283578023063502
40
0.319022274857432
40
0.354468225059054
40
0.389914881943044
40
0.425361163710252
40
0.460805900502893
40
0.496247836391901
40
0.537593432288738
40
0.57894175289629
40
0.62029161602062
40
0.661641689887854
40
0.702990496841712
40
0.74433641699142
40
0.786944798731453
40
0.829555575935752
40
0.872167722361305
40
0.914780069405435
40
0.957391309589127
40
1
40
1
40
1
40
1
41
1
10
63.1080524493216
20
31.425
30
0
41
1
10
63.0877382399025
20
31.4202641394137
30
0
41
1
10
63.0471527342582
20
31.4106571088886
30
0
41
1
10
62.9864036433037
20
31.3958386307811
30
0
41
1
10
62.9257871437294
20
31.3806192950893
30
0
41
1
10
62.865287466886
20
31.3649989547721
30
0
41
1
10
62.8049063352338
20
31.3489821045113
30
0
41
1
10
62.7446450879838
20
31.3325733613364
30
0
41
1
10
62.684524203715
20
31.3157828343027
30
0
41
1
10
62.6217039451248
20
31.2978023789108
30
0
41
1
10
62.5562089405762
20
31.2785722303672
30
0
41
1
10
62.4880658969962
20
31.2580317786949
30
0
41
1
10
62.4201107461095
20
31.2370209506829
30
0
41
1
10
62.3523470298801
20
31.2155479998371
30
0
41
1
10
62.2847782801947
20
31.1936211857725
30
0
41
1
10
62.2174080167716
20
31.171248775992
30
0
41
1
10
62.1465076920171
20
31.1471715999018
30
0
41
1
10
62.0721156876166
20
31.1213082611418
30
0
41
1
10
61.9942734886333
20
31.0935760573341
30
0
41
1
10
61.916699504105
20
31.0652790714142
30
0
41
1
10
61.8393969082764
20
31.0364298023
30
0
41
1
10
61.7623688598601
20
31.0070407382913
30
0
41
1
10
61.684834497855
20
30.9768187185031
30
0
41
1
10
61.6068012027911
20
30.9457554604544
30
0
41
1
10
61.5282759522241
20
30.9138431512073
30
0
41
1
10
61.4500365227439
20
30.8814032068927
30
0
41
1
10
61.3720842819952
20
30.8484484464237
30
0
41
1
10
61.2944207791683
20
30.814990186581
30
0
41
1
10
61.2428360140422
20
30.7923593080254
30
0
41
1
10
61.217091979735
20
30.7809618943233
30
0
0
SPLINE
5
1D1
100
AcDbEntity
8
1
62
256
6
ByLayer
370
18
48
1
60
0
100
AcDbSpline
70
4
71
3
72
50
73
46
40
0
40
0
40
0
40
0
40
0.0746712665837198
40
0.149349171319786
40
0.224027854450651
40
0.298703339212974
40
0.373373862814915
40
0.448040208286166
40
0.498536437890533
40
0.549037575879006
40
0.599533971075153
40
0.650023732496251
40
0.675766402759911
40
0.701510064501654
40
0.727250685919865
40
0.750493514482704
40
0.773734038429399
40
0.788957136467159
40
0.804177935895191
40
0.814505097841596
40
0.824829690714322
40
0.831788196587576
40
0.838749864141147
40
0.845693186984964
40
0.849812435453189
40
0.853927843863358
40
0.858104640987876
40
0.862267707918752
40
0.864920387921076
40
0.867571378238768
40
0.870223281802011
40
0.872877470195331
40
0.876610614884784
40
0.880352082320171
40
0.885024004829377
40
0.889714456633384
40
0.894400911935445
40
0.904626751060455
40
0.9148691102296
40
0.925151358098561
40
0.935466577969815
40
0.945785161541931
40
0.956061961442707
40
0.978029848651226
40
1
40
1
40
1
40
1
41
1
10
62.6254810924954
20
31.5
30
0
41
1
10
62.6419347918663
20
31.5000047096642
30
0
41
1
10
62.6748370042239
20
31.4999229726792
30
0
41
1
10
62.7241748613123
20
31.4995465450167
30
0
41
1
10
62.7734865285346
20
31.4988572684121
30
0
41
1
10
62.8227609600701
20
31.4978168616332
30
0
41
1
10
62.8719863774541
20
31.4963826593167
30
0
41
1
10
62.9158456824406
20
31.4947109457427
30
0
41
1
10
62.9543536032279
20
31.4929336264755
30
0
41
1
10
62.9875134025293
20
31.4911130489368
30
0
41
1
10
63.0205978512697
20
31.4889184182708
30
0
41
1
10
63.048190289331
20
31.4867020909098
30
0
41
1
10
63.070322418353
20
31.4846418451307
30
0
41
1
10
63.0870299129092
20
31.4828895891221
30
0
41
1
10
63.1031260456223
20
31.480963223359
30
0
41
1
10
63.1185983252352
20
31.4788497893953
30
0
41
1
10
63.1317072921942
20
31.4767493877139
30
0
41
1
10
63.1429936798119
20
31.4746475223525
30
0
41
1
10
63.1514527533833
20
31.4728149511543
30
0
41
1
10
63.1587732264661
20
31.4709793300393
30
0
41
1
10
63.1642851941252
20
31.4693653204062
30
0
41
1
10
63.168999257268
20
31.4677691948038
30
0
41
1
10
63.1729146396895
20
31.4662154905107
30
0
41
1
10
63.1761037994315
20
31.4646608128603
30
0
41
1
10
63.1785886092463
20
31.4631742968933
30
0
41
1
10
63.1804309018861
20
31.4618134047532
30
0
41
1
10
63.1819976551469
20
31.4602738312425
30
0
41
1
10
63.1830041884223
20
31.4587379458691
30
0
41
1
10
63.1834668509395
20
31.4573070773563
30
0
41
1
10
63.1835664619266
20
31.4560608827269
30
0
41
1
10
63.183344769473
20
31.4548071000454
30
0
41
1
10
63.1827785818689
20
31.4534159569668
30
0
41
1
10
63.1817733135937
20
31.4519384009929
30
0
41
1
10
63.1802138937981
20
31.450306411686
30
0
41
1
10
63.1782420073113
20
31.4486974726998
30
0
41
1
10
63.1758996965957
20
31.4471305580637
30
0
41
1
10
63.1724132690302
20
31.4451281599026
30
0
41
1
10
63.1677011026301
20
31.4427857826998
30
0
41
1
10
63.1616756114641
20
31.4402374066352
30
0
41
1
10
63.1554392529531
20
31.4379539313553
30
0
41
1
10
63.1490597234831
20
31.4358761624529
30
0
41
1
10
63.1425988455055
20
31.4339532244757
30
0
41
1
10
63.1336499669397
20
31.4314118835392
30
0
41
1
10
63.12216026826
20
31.4283632041555
30
0
41
1
10
63.1127695785502
20
31.4260878357195
30
0
41
1
10
63.1080524493216
20
31.425
30
0
0
SPLINE
5
1D2
100
AcDbEntity
8
1
62
256
6
ByLayer
370
18
48
1
60
0
100
AcDbSpline
70
4
71
3
72
47
73
43
40
0
40
0
40
0
40
0
40
0.0248430550255093
40
0.0910993212535936
40
0.157374242908843
40
0.223650948587962
40
0.289918130866342
40
0.356171072785618
40
0.422412682539977
40
0.472057341656091
40
0.521706062619914
40
0.5713435938332
40
0.601459573490405
40
0.631609969816336
40
0.661749372067563
40
0.691855145875963
40
0.721933661850323
40
0.737573634614447
40
0.753267365928223
40
0.768942754229451
40
0.784563912260283
40
0.800142829939223
40
0.81006900071048
40
0.820008882751351
40
0.829908621179182
40
0.838323252313544
40
0.84672958593687
40
0.853199056909319
40
0.859695449891156
40
0.866164094792372
40
0.872573213680111
40
0.879006250677179
40
0.885425106819426
40
0.893583947032575
40
0.901765408975403
40
0.909937510301947
40
0.924858522332845
40
0.939816765923949
40
0.954842455914218
40
0.969920114737005
40
0.984998552587314
40
1
40
1
40
1
40
1
41
1
10
61.5434006426683
20
30.6959619000056
30
0
41
1
10
61.5395416595763
20
30.6959618796332
30
0
41
1
10
61.5253943550073
20
30.6959770439256
30
0
41
1
10
61.5009751207139
20
30.6960912070147
30
0
41
1
10
61.4701740392664
20
30.6964344925345
30
0
41
1
10
61.439432866234
20
30.6970298947073
30
0
41
1
10
61.4087729776332
20
30.6979260572197
30
0
41
1
10
61.3782162368622
20
30.6991737563153
30
0
41
1
10
61.350324807692
20
30.7006822864358
30
0
41
1
10
61.3250857272717
20
30.7023877563891
30
0
41
1
10
61.3024976142576
20
30.7042664933096
30
0
41
1
10
61.2830154585951
20
30.706279720255
30
0
41
1
10
61.2665870702176
20
30.7082692122116
30
0
41
1
10
61.2531711270809
20
30.710126801312
30
0
41
1
10
61.2399036319505
20
30.7122913132119
30
0
41
1
10
61.2268475418992
20
30.7148341419189
30
0
41
1
10
61.2161173603984
20
30.7173579874698
30
0
41
1
10
61.2076042469138
20
30.7196645030068
30
0
41
1
10
61.2012225866423
20
30.7216184260348
30
0
41
1
10
61.1950450329191
20
30.7238273351584
30
0
41
1
10
61.1891662954082
20
30.726349059645
30
0
41
1
10
61.1843404528088
20
30.7288863655315
30
0
41
1
10
61.1805081211696
20
30.7313420057371
30
0
41
1
10
61.1776048728124
20
30.7336323981659
30
0
41
1
10
61.1752469445613
20
30.7360492391189
30
0
41
1
10
61.1734936533198
20
30.7385639332473
30
0
41
1
10
61.1724337017122
20
30.7409320494833
30
0
41
1
10
61.1719445780747
20
30.7432260057996
30
0
41
1
10
61.1718867262894
20
30.7453727321865
30
0
41
1
10
61.1722172710573
20
30.7475392722428
30
0
41
1
10
61.1729384861723
20
30.7496876169553
30
0
41
1
10
61.1739803252781
20
30.7517910356659
30
0
41
1
10
61.1754228040588
20
30.7540225451822
30
0
41
1
10
61.1773047127203
20
30.7563473436892
30
0
41
1
10
61.179625358849
20
30.7587350157355
30
0
41
1
10
61.1828858658286
20
30.761633810618
30
0
41
1
10
61.1872098717733
20
30.7649556840705
30
0
41
1
10
61.1927038334336
20
30.7685907341415
30
0
41
1
10
61.1985208479555
20
30.7719748910967
30
0
41
1
10
61.2045730638329
20
30.775144508905
30
0
41
1
10
61.2107826176599
20
30.7781273279921
30
0
41
1
10
61.2149798019482
20
30.7800343011602
30
0
41
1
10
61.217091979735
20
30.7809618943233
30
0
0
SPLINE
5
1D3
100
AcDbEntity
8
1
62
256
6
ByLayer
370
18
48
1
60
0
100
AcDbSpline
70
4
71
3
72
29
73
25
40
0
40
0
40
0
40
0
40
0.0184981910465064
40
0.0445761298578555
40
0.0706547975093766
40
0.0967320232588192
40
0.132075305815477
40
0.16741962539932
40
0.202763357748303
40
0.24256163721592
40
0.282361349455857
40
0.322162051885878
40
0.361962718144674
40
0.401761797787483
40
0.451504333017374
40
0.50124780957499
40
0.550991548816162
40
0.600734442257338
40
0.667055330047194
40
0.733376931216028
40
0.799698041598088
40
0.866465173256349
40
0.933232764745206
40
1
40
1
40
1
40
1
41
1
10
68.4566150060949
20
30.6959619010812
30
0
41
1
10
68.4457778611835
20
30.6959635159546
30
0
41
1
10
68.4196486109513
20
30.6960349770114
30
0
41
1
10
68.3781727613861
20
30.6964237389904
30
0
41
1
10
68.3321880955339
20
30.6971500189416
30
0
41
1
10
68.2807019513642
20
30.6982436254576
30
0
41
1
10
68.2237043398086
20
30.6997581325877
30
0
41
1
10
68.1611859549435
20
30.70175744543
30
0
41
1
10
68.095987160736
20
30.7041383517074
30
0
41
1
10
68.0281101607418
20
30.7068821597267
30
0
41
1
10
67.9575550888524
20
30.7099881159665
30
0
41
1
10
67.8869589623582
20
30.7133150884803
30
0
41
1
10
67.8163290243491
20
30.7168278107088
30
0
41
1
10
67.7397860559046
20
30.7207948172918
30
0
41
1
10
67.6573247391349
20
30.7252224055661
30
0
41
1
10
67.5689400203471
20
30.7301210778326
30
0
41
1
10
67.4805234579521
20
30.7351376549403
30
0
41
1
10
67.3822537526406
20
30.7408026805897
30
0
41
1
10
67.2741223834179
20
30.7471030535075
30
0
41
1
10
67.1561221973336
20
30.7540081838867
30
0
41
1
10
67.0378211533898
20
30.7609035779993
30
0
41
1
10
66.9192222625162
20
30.7677322164272
30
0
41
1
10
66.8003275632208
20
30.7744538063401
30
0
41
1
10
66.7210454047387
20
30.7788108455463
30
0
41
1
10
66.6813995529139
20
30.7809618943233
30
0
0
SPLINE
5
1D4
100
AcDbEntity
8
1
62
256
6
ByLayer
370
18
48
1
60
0
100
AcDbSpline
70
4
71
3
72
29
73
25
40
0
40
0
40
0
40
0
40
0.0077973475066705
40
0.0405662793744264
40
0.0750462898468169
40
0.109531297612103
40
0.144013196600527
40
0.186232105784445
40
0.228461425623618
40
0.270697383126506
40
0.312932618847874
40
0.355156491018863
40
0.407897765663211
40
0.460646941808933
40
0.513397637380268
40
0.566140984268157
40
0.61887181886894
40
0.671608314565326
40
0.724345281982459
40
0.77707675990684
40
0.83280460011257
40
0.888538545604846
40
0.944272350939429
40
1
40
1
40
1
40
1
41
1
10
56.741760856122
20
30.695961897053
30
0
41
1
10
56.7431125583524
20
30.6959613976241
30
0
41
1
10
56.7501518931587
20
30.6959755556713
30
0
41
1
10
56.7632517153222
20
30.696180673197
30
0
41
1
10
56.7811340489245
20
30.6967720501808
30
0
41
1
10
56.7994314151869
20
30.697681714586
30
0
41
1
10
56.8191985286909
20
30.6989547908326
30
0
41
1
10
56.8404420914031
20
30.7006274193497
30
0
41
1
10
56.8631687595103
20
30.7027442313324
30
0
41
1
10
56.88598136983
20
30.7051713141797
30
0
41
1
10
56.9088625723657
20
30.7078826513765
30
0
41
1
10
56.9337036210127
20
30.7110985161169
30
0
41
1
10
56.9605121470368
20
30.7148712694941
30
0
41
1
10
56.9892945764337
20
30.7192653060634
30
0
41
1
10
57.0181292655091
20
30.7239902266031
30
0
41
1
10
57.0470024169743
20
30.7290251231228
30
0
41
1
10
57.0759061556806
20
30.7343513041844
30
0
41
1
10
57.1048349046889
20
30.7399619841319
30
0
41
1
10
57.1337832447342
20
30.7458491221231
30
0
41
1
10
57.1632923880929
20
30.7521214026177
30
0
41
1
10
57.1933581772322
20
30.7587889663278
30
0
41
1
10
57.2239751121662
20
30.7658705953793
30
0
41
1
10
57.2545872657271
20
30.773244995158
30
0
41
1
10
57.2749852725779
20
30.7783570812401
30
0
41
1
10
57.2851818321337
20
30.7809618943233
30
0
0
SPLINE
5
1D5
100
AcDbEntity
8
1
62
256
6
ByLayer
370
18
48
1
60
0
100
AcDbSpline
70
4
71
3
72
38
73
34
40
0
40
0
40
0
40
0
40
0.0616115698766097
40
0.117038818417617
40
0.172517176326847
40
0.227989995424709
40
0.283424233598651
40
0.338814446723891
40
0.373747881086833
40
0.408776214709634
40
0.443815634020256
40
0.478808799276408
40
0.513730266449345
40
0.54859229897479
40
0.57172846008725
40
0.594905040040182
40
0.618062327619404
40
0.641172130944423
40
0.66461931635556
40
0.688173975047673
40
0.711689438362551
40
0.735082913701733
40
0.757834235627479
40
0.780660499746627
40
0.803414042612067
40
0.826065629088777
40
0.848782181877222
40
0.871456255956783
40
0.899529333961063
40
0.927697979313531
40
0.955912275998562
40
0.984047798905354
40
1
40
1
40
1
40
1
41
1
10
73.2583173323949
20
30.6959618947523
30
0
41
1
10
73.2631298282172
20
30.695959395055
30
0
41
1
10
73.2722287768773
20
30.6960456079428
30
0
41
1
10
73.2855305842491
20
30.6964131602131
30
0
41
1
10
73.298229462129
20
30.697027849433
30
0
41
1
10
73.3107663515659
20
30.6979492829213
30
0
41
1
10
73.3230955652366
20
30.6992215657541
30
0
41
1
10
73.3336850001202
20
30.7006870413197
30
0
41
1
10
73.3426102951886
20
30.7022146539511
30
0
41
1
10
73.3499416523883
20
30.7036973928514
30
0
41
1
10
73.3570932409701
20
30.7054225897731
30
0
41
1
10
73.3640102062618
20
30.707423807423
30
0
41
1
10
73.3706359541335
20
30.7097362402746
30
0
41
1
10
73.3762143740302
20
30.7120943178073
30
0
41
1
10
73.3808199745058
20
30.714403902792
30
0
41
1
10
73.3845357698918
20
30.7165772931457
30
0
41
1
10
73.3879821937409
20
30.7189645695785
30
0
41
1
10
73.391126650048
20
30.7215921083488
30
0
41
1
10
73.3938972716137
20
30.7244928360961
30
0
41
1
10
73.3962250057346
20
30.7276771118724
30
0
41
1
10
73.3980331329295
20
30.7311201187493
30
0
41
1
10
73.3992317880789
20
30.7347755775248
30
0
41
1
10
73.3997546343979
20
30.7386212618027
30
0
41
1
10
73.3996426530342
20
30.7425936254368
30
0
41
1
10
73.3989052775274
20
30.7466733490789
30
0
41
1
10
73.397546810735
20
30.7508072767337
30
0
41
1
10
73.3956577072087
20
30.7549451581985
30
0
41
1
10
73.3931067983557
20
30.7593827736507
30
0
41
1
10
73.3898294864239
20
30.7640783310004
30
0
41
1
10
73.3858102253682
20
30.7689868869136
30
0
41
1
10
73.3813693707295
20
30.7737676210309
30
0
41
1
10
73.3772792609937
20
30.7777420278202
30
0
41
1
10
73.3746770769124
20
30.7801116203123
30
0
41
1
10
73.3737198048528
20
30.7809618943233
30
0
0
SPLINE
5
1D6
100
AcDbEntity
8
1
62
256
6
ByLayer
370
18
48
1
60
0
100
AcDbSpline
70
4
71
3
72
27
73
23
40
0
40
0
40
0
40
0
40
0.0003404751262155
40
0.0408926924559315
40
0.0814772949488794
40
0.122086229355733
40
0.162695933935248
40
0.203269222482861
40
0.255050945549239
40
0.306853743500511
40
0.358662382698119
40
0.410452074178419
40
0.469003780441623
40
0.527579743958998
40
0.586167715975905
40
0.64475103181646
40
0.703308907161096
40
0.762633273648725
40
0.821978397010685
40
0.881330465133478
40
0.940675612974445
40
1
40
1
40
1
40
1
41
1
10
75.9521821792038
20
30.6959618943295
30
0
41
1
10
75.952142201565
20
30.695961894979
30
0
41
1
10
75.9473403208889
20
30.6959626572582
30
0
41
1
10
75.937674092797
20
30.6961357976128
30
0
41
1
10
75.9229912618035
20
30.6968564477066
30
0
41
1
10
75.9081024222817
20
30.6979938364857
30
0
41
1
10
75.8930517090326
20
30.6995030700788
30
0
41
1
10
75.8764757406898
20
30.7015075971471
30
0
41
1
10
75.8583566175269
20
30.7040730196225
30
0
41
1
10
75.8386755267206
20
30.7072822244859
30
0
41
1
10
75.8188706342924
20
30.7108968824985
30
0
41
1
10
75.7981012278938
20
30.715054837192
30
0
41
1
10
75.7763709753235
20
30.7197758954958
30
0
41
1
10
75.7536814007006
20
30.7250961027414
30
0
41
1
10
75.7309199570708
20
30.7308057793556
30
0
41
1
10
75.7081083143276
20
30.7368836013996
30
0
41
1
10
75.6851620127966
20
30.7433376628232
30
0
41
1
10
75.6620892224914
20
30.7501569983165
30
0
41
1
10
75.6388962006878
20
30.7573455057479
30
0
41
1
10
75.6156950044593
20
30.7648696911618
30
0
41
1
10
75.5925008669414
20
30.7727249995743
30
0
41
1
10
75.5770527531653
20
30.7781800075746
30
0
41
1
10
75.5693324788796
20
30.7809618943233
30
0
0
SPLINE
5
1D7
100
AcDbEntity
8
1
62
256
6
ByLayer
370
18
48
1
60
0
100
AcDbSpline
70
4
71
3
72
35
73
31
40
0
40
0
40
0
40
0
40
0.0230240023043449
40
0.0973236558136146
40
0.146202260710127
40
0.19516640821345
40
0.244124681729076
40
0.293021546724877
40
0.341843628529297
40
0.375664034599067
40
0.40957765737776
40
0.443489097630415
40
0.47733747756605
40
0.511103021293691
40
0.540607492614963
40
0.570201156280743
40
0.599767796320804
40
0.629235299560316
40
0.658973123367112
40
0.688850362139507
40
0.718723436189075
40
0.748455554053989
40
0.77430738076613
40
0.800235091480811
40
0.826178552943662
40
0.852051918565314
40
0.888956565644939
40
0.925973116433533
40
0.963034308092468
40
1
40
1
40
1
40
1
41
1
10
54.0479002373736
20
30.6959618971257
30
0
41
1
10
54.0464800317359
20
30.6959564357628
30
0
41
1
10
54.0405003881464
20
30.6959727129074
30
0
41
1
10
54.0316713203752
20
30.6962672443702
30
0
41
1
10
54.0214924022398
20
30.6969472282252
30
0
41
1
10
54.0130062474224
20
30.6978156095352
30
0
41
1
10
54.0047527786956
20
30.6990069289131
30
0
41
1
10
53.9967920118848
20
30.7005632825658
30
0
41
1
10
53.9899580731264
20
30.7023228220976
30
0
41
1
10
53.9841804383913
20
30.7041852745972
30
0
41
1
10
53.9793786532799
20
30.7060534380716
30
0
41
1
10
53.9748533674365
20
30.7081894435941
30
0
41
1
10
53.9706618521189
20
30.7106145716375
30
0
41
1
10
53.9670155518287
20
30.7132339475039
30
0
41
1
10
53.9639171495732
20
30.7160301727864
30
0
41
1
10
53.9613494569341
20
30.7189690341634
30
0
41
1
10
53.9592176020276
20
30.7221782608195
30
0
41
1
10
53.9575684979907
20
30.7256658149095
30
0
41
1
10
53.9564796882202
20
30.7294447747672
30
0
41
1
10
53.9559638435561
20
30.7334850947672
30
0
41
1
10
53.9560236886394
20
30.7377305007951
30
0
41
1
10
53.9566456514431
20
30.7419495062728
30
0
41
1
10
53.9577490241573
20
30.7460853992935
30
0
41
1
10
53.9592037288406
20
30.7500932904428
30
0
41
1
10
53.9610300643058
20
30.7541405538365
30
0
41
1
10
53.9635057139294
20
30.7587770282509
30
0
41
1
10
53.9667796478674
20
30.7639877828409
30
0
41
1
10
53.9709493266419
20
30.7697321078765
30
0
41
1
10
53.9755746731465
20
30.7754040407493
30
0
41
1
10
53.9788955221857
20
30.7791208025176
30
0
41
1
10
53.9806183736562
20
30.7809618943233
30
0
0
SPLINE
5
1D8
100
AcDbEntity
8
1
62
256
6
ByLayer
370
18
48
1
60
0
100
AcDbSpline
70
4
71
3
72
26
73
22
40
0
40
0
40
0
40
0
40
0.0052676203949764
40
0.0439533013603224
40
0.082659523436315
40
0.121353187559656
40
0.167795319358946
40
0.214276091518063
40
0.26078220516747
40
0.307286157168115
40
0.353747747075558
40
0.413184611768356
40
0.47265180622245
40
0.532125270599567
40
0.591570689385723
40
0.659588637211875
40
0.727666043030517
40
0.795776460118509
40
0.863890541507202
40
0.931976407206698
40
1
40
1
40
1
40
1
41
1
10
52.0694555753718
20
30.6959618949951
30
0
41
1
10
52.069926434333
20
30.695961999794
30
0
41
1
10
52.0738625306627
20
30.6959741632944
30
0
41
1
10
52.0813888466879
20
30.6961832989639
30
0
41
1
10
52.0922091000749
20
30.6968894543742
30
0
41
1
10
52.1039768943604
20
30.6980390447982
30
0
41
1
10
52.116699300704
20
30.6996690510185
30
0
41
1
10
52.1303855947973
20
30.7018263666022
30
0
41
1
10
52.1442536626108
20
30.7043797219294
30
0
41
1
10
52.1582662984179
20
30.7072924844081
30
0
41
1
10
52.1737103546308
20
30.71083069005
30
0
41
1
10
52.1906051242989
20
30.7150708416072
30
0
41
1
10
52.208965917035
20
30.7201012750414
30
0
41
1
10
52.2274381213449
20
30.7255561834411
30
0
41
1
10
52.2468878405382
20
30.7316869462706
30
0
41
1
10
52.2673131060513
20
30.738529166521
30
0
41
1
10
52.2887099493762
20
30.7461346469065
30
0
41
1
10
52.3101625863595
20
30.7541904441036
30
0
41
1
10
52.3316411487394
20
30.762679356084
30
0
41
1
10
52.3531182679132
20
30.771585860555
30
0
41
1
10
52.3674201365168
20
30.777791937834
30
0
41
1
10
52.3745662192236
20
30.7809618943233
30
0
0
SPLINE
5
1D9
100
AcDbEntity
8
1
62
256
6
ByLayer
370
18
48
1
60
0
100
AcDbSpline
70
4
71
3
72
34
73
30
40
0
40
0
40
0
40
0
40
0.0100923053728233
40
0.0721133336101562
40
0.124673933339327
40
0.177313434390555
40
0.229916770245194
40
0.282427973521296
40
0.317880271046123
40
0.353495647725716
40
0.389152215257411
40
0.424757361477418
40
0.460253823494527
40
0.495626523508198
40
0.529130407417709
40
0.562747699837297
40
0.596349275865371
40
0.62983165391239
40
0.663380176213315
40
0.697052132860406
40
0.730736863083775
40
0.764302866746947
40
0.797380165882833
40
0.830559208153399
40
0.863801430272262
40
0.897034199660316
40
0.930156704560737
40
0.965077026233046
40
1
40
1
40
1
40
1
41
1
10
77.9305782182468
20
30.6959618953662
30
0
41
1
10
77.9311042365466
20
30.6959608896166
30
0
41
1
10
77.9348528479866
20
30.6959681164129
30
0
41
1
10
77.9412140669458
20
30.696161324959
30
0
41
1
10
77.9494738556971
20
30.6967933293832
30
0
41
1
10
77.9569766304942
20
30.6977681879014
30
0
41
1
10
77.9641264625874
20
30.6991650199132
30
0
41
1
10
77.9701253189577
20
30.7008265726022
30
0
41
1
10
77.9750641538741
20
30.7026314743487
30
0
41
1
10
77.97906163218
20
30.7044504908567
30
0
41
1
10
77.982764129594
20
30.7065464691409
30
0
41
1
10
77.9861217253937
20
30.7089312297534
30
0
41
1
10
77.989084188962
20
30.7116165061205
30
0
41
1
10
77.9915613183305
20
30.7145625832613
30
0
41
1
10
77.9935255588258
20
30.717770259336
30
0
41
1
10
77.994985079005
20
30.7212109708756
30
0
41
1
10
77.9959518224667
20
30.724924360005
30
0
41
1
10
77.9963955861592
20
30.7288953861924
30
0
41
1
10
77.9962786401841
20
30.7331141953866
30
0
41
1
10
77.995628925407
20
30.737541151463
30
0
41
1
10
77.994472031581
20
30.7421298538208
30
0
41
1
10
77.992833868333
20
30.7468183356317
30
0
41
1
10
77.9907399630843
20
30.7515756218732
30
0
41
1
10
77.9882491363333
20
30.7563740772817
30
0
41
1
10
77.9853908316764
20
30.7612105691535
30
0
41
1
10
77.982209428447
20
30.7660534135963
30
0
41
1
10
77.9786770311967
20
30.770969283818
30
0
41
1
10
77.9748054354584
20
30.7759444707326
30
0
41
1
10
77.9720188994749
20
30.7792931527687
30
0
41
1
10
77.970582586179
20
30.7809618943233
30
0
0
SPLINE
5
1DA
100
AcDbEntity
8
1
62
256
6
ByLayer
370
18
48
1
60
0
100
AcDbSpline
70
4
71
3
72
26
73
22
40
0
40
0
40
0
40
0
40
0.0284599624188235
40
0.0614560633037785
40
0.0944228110556346
40
0.139468844660388
40
0.184540534422992
40
0.229595588546201
40
0.278446051913386
40
0.327338107183382
40
0.376254612172718
40
0.425166392985395
40
0.474033414975629
40
0.53665359626886
40
0.599311047881878
40
0.661974330017458
40
0.724602466620201
40
0.793431653001466
40
0.862299614137709
40
0.931168944900644
40
1
40
1
40
1
40
1
41
1
10
79.4896562923661
20
30.695961894784
30
0
41
1
10
79.4876311277963
20
30.695963429777
30
0
41
1
10
79.4832004758503
20
30.6960489799801
30
0
41
1
10
79.4761885977684
20
30.6964654755499
30
0
41
1
10
79.4677361116105
20
30.6972707020026
30
0
41
1
10
79.4581227131708
20
30.6985447521966
30
0
41
1
10
79.447309732232
20
30.7003817766646
30
0
41
1
10
79.435971620771
20
30.7026778908484
30
0
41
1
10
79.4241252847438
20
30.7054274733326
30
0
41
1
10
79.41178038085
20
30.7086362771038
30
0
41
1
10
79.399278826416
20
30.7122031990202
30
0
41
1
10
79.386651711619
20
30.7160988190223
30
0
41
1
10
79.3727283311778
20
30.7206896705891
30
0
41
1
10
79.3574899891287
20
30.7260541904167
30
0
41
1
10
79.3409248181678
20
30.7322783732292
30
0
41
1
10
79.3242639152277
20
30.7389108438239
30
0
41
1
10
79.3069806585101
20
30.7461571456682
30
0
41
1
10
79.2890846759741
20
30.7540394111201
30
0
41
1
10
79.2705891964745
20
30.7625888233654
30
0
41
1
10
79.252070878162
20
30.771547302849
30
0
41
1
10
79.2397305633257
20
30.777780151886
30
0
41
1
10
79.2335615567182
20
30.7809618943233
30
0
0
SPLINE
5
1DB
100
AcDbEntity
8
1
62
256
6
ByLayer
370
18
48
1
60
0
100
AcDbSpline
70
4
71
3
72
32
73
28
40
0
40
0
40
0
40
0
40
0.0234720916718199
40
0.077149009364925
40
0.130753067645078
40
0.179214798605678
40
0.227780811405662
40
0.27630789045792
40
0.324716407811043
40
0.363896559159381
40
0.403258513936374
40
0.442647911093177
40
0.481943551189727
40
0.521067832926867
40
0.555476911685444
40
0.590035123861023
40
0.624649673021769
40
0.659218293423685
40
0.693636139700326
40
0.731595929112716
40
0.769657144710268
40
0.807740162396781
40
0.845729758203133
40
0.884257597759972
40
0.922845874921922
40
0.961450218713873
40
1
40
1
40
1
40
1
41
1
10
50.5103973899032
20
30.6959618968365
30
0
41
1
10
50.5093396542173
20
30.695960380686
30
0
41
1
10
50.5058947514024
20
30.6959961301188
30
0
41
1
10
50.5002209563866
20
30.6962758122676
30
0
41
1
10
50.4937837598483
20
30.6970033743702
30
0
41
1
10
50.4879055249469
20
30.6981080085457
30
0
41
1
10
50.4825968573102
20
30.6995779586545
30
0
41
1
10
50.4777219660095
20
30.7014850780152
30
0
41
1
10
50.4736267412479
20
30.7037093647248
30
0
41
1
10
50.4702771287789
20
30.7061940181242
30
0
41
1
10
50.4675937984112
20
30.7088519224548
30
0
41
1
10
50.4653658130808
20
30.711860726871
30
0
41
1
10
50.4636404721961
20
30.7152148247675
30
0
41
1
10
50.4625080513981
20
30.7187651126076
30
0
41
1
10
50.4619407141712
20
30.7224711894904
30
0
41
1
10
50.4618494919432
20
30.7262657317179
30
0
41
1
10
50.4621999261103
20
30.7302815354442
30
0
41
1
10
50.4629839434329
20
30.7344824267997
30
0
41
1
10
50.4642416307335
20
30.7389934790256
30
0
41
1
10
50.4660179586464
20
30.7438130131621
30
0
41
1
10
50.4683109759896
20
30.7489204494495
30
0
41
1
10
50.4710236495279
20
30.7541239644568
30
0
41
1
10
50.474132454968
20
30.7594146667995
30
0
41
1
10
50.4776102020782
20
30.7647698613282
30
0
41
1
10
50.481420590097
20
30.7701719835147
30
0
41
1
10
50.4855147171675
20
30.7755771252691
30
0
41
1
10
50.4884040163233
20
30.7791689883514
30
0
41
1
10
50.4898899901283
20
30.7809618943233
30
0
0
SPLINE
5
1DC
100
AcDbEntity
8
1
62
256
6
ByLayer
370
18
48
1
60
0
100
AcDbSpline
70
4
71
3
72
32
73
28
40
0
40
0
40
0
40
0
40
0.0151188494428453
40
0.0621073499832506
40
0.109076077958475
40
0.155972745539487
40
0.194758274794658
40
0.233657018999787
40
0.27257058342755
40
0.311424265710714
40
0.350171894212393
40
0.389272126481507
40
0.428547381115484
40
0.467869003833951
40
0.507118874164503
40
0.54619772213628
40
0.58919937811052
40
0.632350484411782
40
0.675521086871348
40
0.718549418665969
40
0.762681634860092
40
0.806949791043758
40
0.85130095221462
40
0.895638286423243
40
0.93982870870533
40
0.96991404553745
40
1
40
1
40
1
40
1
41
1
10
80.7543657559026
20
30.6959618955254
30
0
41
1
10
80.7549569387913
20
30.6959616644769
30
0
41
1
10
80.7573662547908
20
30.6959837584684
30
0
41
1
10
80.7614682234794
20
30.6961822637142
30
0
41
1
10
80.7664701332167
20
30.6967802695297
30
0
41
1
10
80.7708675951269
20
30.6976883297692
30
0
41
1
10
80.7746864577032
20
30.6988641111835
30
0
41
1
10
80.7779703219912
20
30.7002520591182
30
0
41
1
10
80.7809398747079
20
30.7019386823448
30
0
41
1
10
80.7835575765456
20
30.7039342211475
30
0
41
1
10
80.7857987981613
20
30.7062551556053
30
0
41
1
10
80.7876141884042
20
30.7089302517725
30
0
41
1
10
80.7889851041595
20
30.7119566681874
30
0
41
1
10
80.7898959127726
20
30.7153092943021
30
0
41
1
10
80.7903283840108
20
30.7189666216064
30
0
41
1
10
80.7902606215688
20
30.723047937633
30
0
41
1
10
80.7896124751166
20
30.7275797471636
30
0
41
1
10
80.7883659058534
20
30.7325456398771
30
0
41
1
10
80.7865744978714
20
30.7377540800524
30
0
41
1
10
80.7842467135261
20
30.7432061537955
30
0
41
1
10
80.7813918036001
20
30.7488744184389
30
0
41
1
10
80.7780523844558
20
30.7547265539647
30
0
41
1
10
80.7742990894442
20
30.7606790159917
30
0
41
1
10
80.7701841228892
20
30.7666889584097
30
0
41
1
10
80.7662191346715
20
30.7720862123124
30
0
41
1
10
80.7625369158461
20
30.7768452486601
30
0
41
1
10
80.7603343840398
20
30.7795893772039
30
0
41
1
10
80.7592123209141
20
30.7809618943233
30
0
0
SPLINE
5
1DD
100
AcDbEntity
8
1
62
256
6
ByLayer
370
18
48
1
60
0
100
AcDbSpline
70
4
71
3
72
28
73
24
40
0
40
0
40
0
40
0
40
0.000907731346673
40
0.0309269860717533
40
0.0670227425826699
40
0.103154462838549
40
0.139295746645604
40
0.1754045567235
40
0.22478241861632
40
0.274190047616588
40
0.323577418098834
40
0.372926068373249
40
0.422317237478492
40
0.471731411892331
40
0.521139051580315
40
0.570501528162444
40
0.633827726853282
40
0.697195566054659
40
0.760568566909093
40
0.823901808741244
40
0.88259632378266
40
0.941304981108854
40
1
40
1
40
1
40
1
41
1
10
49.2456593478063
20
30.6959618943525
30
0
41
1
10
49.2457118195606
20
30.6959621630039
30
0
41
1
10
49.2475004901971
20
30.6959725038902
30
0
41
1
10
49.2514322711182
20
30.6960657644851
30
0
41
1
10
49.2576958923471
20
30.6965506579341
30
0
41
1
10
49.2645702699258
20
30.697390908455
30
0
41
1
10
49.2716597726082
20
30.6985423834047
30
0
41
1
10
49.2798221884694
20
30.7001519250486
30
0
41
1
10
49.2891125479406
20
30.7023206569103
30
0
41
1
10
49.2995709684846
20
30.7051455545475
30
0
41
1
10
49.3102413897255
20
30.7083722653663
30
0
41
1
10
49.3210897755817
20
30.7119620786241
30
0
41
1
10
49.3320938864331
20
30.7158902468569
30
0
41
1
10
49.3432340986446
20
30.720134995235
30
0
41
1
10
49.3544841494091
20
30.7246720863162
30
0
41
1
10
49.3668936121559
20
30.7299332743938
30
0
41
1
10
49.3804800833732
20
30.7359932030905
30
0
41
1
10
49.3952530591652
20
30.742930768832
30
0
41
1
10
49.4101089738626
20
30.7502411545005
30
0
41
1
10
49.4246596943005
20
30.7577145760399
30
0
41
1
10
49.4388829451662
20
30.7653048884594
30
0
41
1
10
49.4527652296616
20
30.772978326988
30
0
41
1
10
49.4620240144003
20
30.7782709776282
30
0
41
1
10
49.4666547950322
20
30.7809618943233
30
0
0
SPLINE
5
1DE
100
AcDbEntity
8
1
62
256
6
ByLayer
370
18
48
1
60
0
100
AcDbSpline
70
4
71
3
72
30
73
26
40
0
40
0
40
0
40
0
40
0.0396566763685476
40
0.0899052433767522
40
0.131548641680555
40
0.173323555199324
40
0.215118231789151
40
0.256845633791895
40
0.298449061430299
40
0.340397787771694
40
0.382535941224383
40
0.424729091409194
40
0.466848931433492
40
0.508782229281339
40
0.55457954890019
40
0.600528423431454
40
0.646498370270464
40
0.692324517483498
40
0.740587920424941
40
0.789000293542742
40
0.837502679030692
40
0.885989103655709
40
0.934314813443179
40
0.967157081282322
40
1
40
1
40
1
40
1
41
1
10
48.2086663118172
20
30.6959618953817
30
0
41
1
10
48.2073243140485
20
30.6959599794624
30
0
41
1
10
48.2043714600184
20
30.6960547858939
30
0
41
1
10
48.200326988634
20
30.6965079965381
30
0
41
1
10
48.1965650399486
20
30.6973368589688
30
0
41
1
10
48.1933600545671
20
30.6984381754082
30
0
41
1
10
48.1904985430884
20
30.6998760687252
30
0
41
1
10
48.1880182490482
20
30.7016617330784
30
0
41
1
10
48.185945401063
20
30.7038118136153
30
0
41
1
10
48.1843294959938
20
30.7063566254008
30
0
41
1
10
48.1831839368063
20
30.7092902923422
30
0
41
1
10
48.1825189209314
20
30.7125866662598
30
0
41
1
10
48.1823472804409
20
30.7162224713755
30
0
41
1
10
48.1826948857031
20
30.7203057594495
30
0
41
1
10
48.1836318033781
20
30.724862087497
30
0
41
1
10
48.1851675101492
20
30.7298737532514
30
0
41
1
10
48.1872396537452
20
30.7351593432103
30
0
41
1
10
48.1898627145518
20
30.7407710446307
30
0
41
1
10
48.1930415633165
20
30.7466892970914
30
0
41
1
10
48.1967480627522
20
30.7528843968397
30
0
41
1
10
48.2008789845244
20
30.759215099573
30
0
41
1
10
48.2053797350432
20
30.7656339265941
30
0
41
1
10
48.2096934154115
20
30.7714182039756
30
0
41
1
10
48.213683874342
20
30.77653102687
30
0
41
1
10
48.2160638189496
20
30.7794834874128
30
0
41
1
10
48.2172749534772
20
30.7809618943233
30
0
0
SPLINE
5
1DF
100
AcDbEntity
8
1
62
256
6
ByLayer
370
18
48
1
60
0
100
AcDbSpline
70
4
71
3
72
27
73
23
40
0
40
0
40
0
40
0
40
0.0300151594988794
40
0.0632338243829551
40
0.0963462544717829
40
0.134527401766767
40
0.172746445111774
40
0.210974548484293
40
0.249168062087745
40
0.301429293770234
40
0.353723474783617
40
0.405994346836011
40
0.467267241571905
40
0.528599234297349
40
0.589943297603254
40
0.651232667503606
40
0.714172073409983
40
0.77715557524381
40
0.840143666753433
40
0.903089335610044
40
0.95154462461158
40
1
40
1
40
1
40
1
41
1
10
81.7913777727301
20
30.6959618945838
30
0
41
1
10
81.7899698455531
20
30.6959657495275
30
0
41
1
10
81.786933944261
20
30.6960592893
30
0
41
1
10
81.7820750913986
20
30.6964817872454
30
0
41
1
10
81.776569503498
20
30.6972395478393
30
0
41
1
10
81.7705635536351
20
30.6983473208805
30
0
41
1
10
81.7640462029036
20
30.6998291885595
30
0
41
1
10
81.7573243760529
20
30.7016099440663
30
0
41
1
10
81.7495787620099
20
30.7039179825815
30
0
41
1
10
81.7407543801585
20
30.7068535150319
30
0
41
1
10
81.7308106739679
20
30.7105122598692
30
0
41
1
10
81.7200721231552
20
30.7147993714313
30
0
41
1
10
81.7085320888214
20
30.7197556407593
30
0
41
1
10
81.6961891832954
20
30.7254222283553
30
0
41
1
10
81.683675776833
20
30.7315062394384
30
0
41
1
10
81.670913198603
20
30.7380298114228
30
0
41
1
10
81.657921827856
20
30.7449757421265
30
0
41
1
10
81.6447171986686
20
30.7523358433802
30
0
41
1
10
81.6314380784109
20
30.760026835653
30
0
41
1
10
81.6191300355748
20
30.767413905746
30
0
41
1
10
81.6078201139213
20
30.7744067111696
30
0
41
1
10
81.6009558570128
20
30.7787579124631
30
0
41
1
10
81.5975212179719
20
30.7809618943233
30
0
0
SPLINE
5
1E0
100
AcDbEntity
8
1
62
256
6
ByLayer
370
18
48
1
60
0
100
AcDbSpline
70
4
71
3
72
30
73
26
40
0
40
0
40
0
40
0
40
0.002203351359314
40
0.0496461686715142
40
0.0921182769225812
40
0.134729531805441
40
0.177365762404796
40
0.219934552725322
40
0.26237093163017
40
0.305081983146166
40
0.347974894729586
40
0.390926117301786
40
0.433812085541922
40
0.476517288885892
40
0.524365409983461
40
0.572363445774321
40
0.62038380336948
40
0.668262456019119
40
0.720303768740202
40
0.772505817345087
40
0.824804399167493
40
0.877085258542789
40
0.929192882578363
40
0.964596101621384
40
1
40
1
40
1
40
1
41
1
10
82.6408764215581
20
30.6959618943765
30
0
41
1
10
82.640939432395
20
30.695962341428
30
0
41
1
10
82.6423565321944
20
30.6959753218263
30
0
41
1
10
82.6449026953219
20
30.6960941037712
30
0
41
1
10
82.648198051764
20
30.6966549272376
30
0
41
1
10
82.6510427405586
20
30.6975333899549
30
0
41
1
10
82.6535286621162
20
30.6987666064893
30
0
41
1
10
82.6556242326744
20
30.700362329873
30
0
41
1
10
82.657303973393
20
30.7023352345911
30
0
41
1
10
82.6585253236484
20
30.7047115893886
30
0
41
1
10
82.6592833985777
20
30.7074813374409
30
0
41
1
10
82.6595755464633
20
30.7106194789144
30
0
41
1
10
82.6593968592424
20
30.7141023102539
30
0
41
1
10
82.6587125260728
20
30.7180686644999
30
0
41
1
10
82.6574462510175
20
30.7225552577886
30
0
41
1
10
82.655575903458
20
30.7275560741987
30
0
41
1
10
82.6531859997791
20
30.7328551844165
30
0
41
1
10
82.6502271410445
20
30.7385680591577
30
0
41
1
10
82.6466781445971
20
30.74468664622
30
0
41
1
10
82.6425502793361
20
30.7511875766521
30
0
41
1
10
82.6379918862007
20
30.7578594780476
30
0
41
1
10
82.6330601648283
20
30.7646505141523
30
0
41
1
10
82.6283602446971
20
30.7707915668322
30
0
41
1
10
82.6240297245283
20
30.7762343360591
30
0
41
1
10
82.621453843758
20
30.77938339687
30
0
41
1
10
82.6201446638749
20
30.7809618943233
30
0
0
SPLINE
5
1E1
100
AcDbEntity
8
1
62
256
6
ByLayer
370
18
48
1
60
0
100
AcDbSpline
70
4
71
3
72
26
73
22
40
0
40
0
40
0
40
0
40
0.0306795055601343
40
0.0707310307782098
40
0.110649963271386
40
0.159511647543105
40
0.208493511370358
40
0.257574919911632
40
0.306700213899765
40
0.355783498021784
40
0.40471298525266
40
0.460851669811367
40
0.517044753883324
40
0.573248645709027
40
0.629402081875516
40
0.687072879346379
40
0.744783949038709
40
0.80249988489974
40
0.86017732258659
40
0.930088279967729
40
1
40
1
40
1
40
1
41
1
10
47.3591703151319
20
30.6959618956002
30
0
41
1
10
47.3603337224638
20
30.6959674142346
30
0
41
1
10
47.3630975915044
20
30.6960750664948
30
0
41
1
10
47.3677267464499
20
30.6965912594797
30
0
41
1
10
47.373478862848
20
30.6976304072506
30
0
41
1
10
47.3800100965751
20
30.6992201108016
30
0
41
1
10
47.3873550131392
20
30.7014212536555
30
0
41
1
10
47.3950427400704
20
30.7040901661243
30
0
41
1
10
47.4030190104719
20
30.7071825218499
30
0
41
1
10
47.4112303772763
20
30.7106548775544
30
0
41
1
10
47.4200522336159
20
30.7146584397178
30
0
41
1
10
47.429493544411
20
30.7192228226305
30
0
41
1
10
47.4395626247859
20
30.7243783921919
30
0
41
1
10
47.4498042490717
20
30.7298886412911
30
0
41
1
10
47.4602816977094
20
30.7357755722333
30
0
41
1
10
47.4709775159233
20
30.7420244063918
30
0
41
1
10
47.4818782215216
20
30.7486261743353
30
0
41
1
10
47.4928681027351
20
30.7555052272719
30
0
41
1
10
47.5047084225592
20
30.7631461135874
30
0
41
1
10
47.5174008988862
20
30.7715993564001
30
0
41
1
10
47.5264196140416
20
30.7778033213578
30
0
41
1
10
47.5309391950567
20
30.7809618943233
30
0
0
SPLINE
5
1E2
100
AcDbEntity
8
1
62
256
6
ByLayer
370
18
48
1
60
0
100
AcDbSpline
70
4
71
3
72
27
73
23
40
0
40
0
40
0
40
0
40
0.0332943854182615
40
0.075208044679704
40
0.11710487116128
40
0.15886201415347
40
0.208318622204596
40
0.257900185973336
40
0.307581605054127
40
0.357304570455857
40
0.406982150640132
40
0.456502951839175
40
0.511399225076946
40
0.566348589530706
40
0.621307721556132
40
0.676217326657334
40
0.73262683963915
40
0.789076666574112
40
0.845531200491372
40
0.901947136574726
40
0.950973449909621
40
1
40
1
40
1
40
1
41
1
10
83.3289493031905
20
30.695961895083
30
0
41
1
10
83.3279476005905
20
30.6959676492769
30
0
41
1
10
83.3255878589372
20
30.6960886935455
30
0
41
1
10
83.321557290052
20
30.6966670215114
30
0
41
1
10
83.3168599528116
20
30.697720173573
30
0
41
1
10
83.3115192492515
20
30.6992678894302
30
0
41
1
10
83.3054975268359
20
30.7013677532853
30
0
41
1
10
83.2987711414354
20
30.704062216427
30
0
41
1
10
83.2917123248187
20
30.7071986266337
30
0
41
1
10
83.2843711032002
20
30.7107348441905
30
0
41
1
10
83.2767968250583
20
30.7146295015289
30
0
41
1
10
83.2687427381225
20
30.7190021982056
30
0
41
1
10
83.2602074840645
20
30.7238671385305
30
0
41
1
10
83.2511893284646
20
30.7292386139951
30
0
41
1
10
83.2420056364371
20
30.7349236650553
30
0
41
1
10
83.2325987038033
20
30.7409493248126
30
0
41
1
10
83.2229839689955
20
30.7473027327665
30
0
41
1
10
83.213173827795
20
30.7539750073157
30
0
41
1
10
83.2032739291811
20
30.7608900485974
30
0
41
1
10
83.1937381631408
20
30.7677177430215
30
0
41
1
10
83.1845892812762
20
30.7744128090361
30
0
41
1
10
83.1787597523278
20
30.7787619114528
30
0
41
1
10
83.1758388151895
20
30.7809618943233
30
0
0
SPLINE
5
1E3
100
AcDbEntity
8
1
62
256
6
ByLayer
370
18
48
1
60
0
100
AcDbSpline
70
4
71
3
72
30
73
26
40
0
40
0
40
0
40
0
40
0.0142581537646706
40
0.0570011125123297
40
0.0998869622692025
40
0.142802400517623
40
0.185652202540228
40
0.228364828618588
40
0.271281603841165
40
0.314369880437231
40
0.35751748496066
40
0.400607590895922
40
0.443525906539204
40
0.493011153676149
40
0.54264468927324
40
0.592301520406061
40
0.641818626596689
40
0.68782972937461
40
0.733964071008309
40
0.780190134573978
40
0.826449543439379
40
0.872660952193659
40
0.918723584839061
40
0.9593613188041
40
1
40
1
40
1
40
1
41
1
10
46.6710901300606
20
30.695961895421
30
0
41
1
10
46.6707475641644
20
30.6959615449527
30
0
41
1
10
46.6694028630705
20
30.6959860778896
30
0
41
1
10
46.6672148044089
20
30.6962083648684
30
0
41
1
10
46.6647489347976
20
30.6968518136779
30
0
41
1
10
46.6626482664911
20
30.6978590833167
30
0
41
1
10
46.6609416326173
20
30.6992386696593
30
0
41
1
10
46.6596515397851
20
30.7010023198646
30
0
41
1
10
46.6588134826728
20
30.703172386747
30
0
41
1
10
46.6584251708924
20
30.705735452403
30
0
41
1
10
46.6584834984781
20
30.7086682255465
30
0
41
1
10
46.658987023592
20
30.7119473432404
30
0
41
1
10
46.6599868757324
20
30.7157425709255
30
0
41
1
10
46.6615675263551
20
30.7201039359456
30
0
41
1
10
46.6637649269946
20
30.7250394314062
30
0
41
1
10
46.6664664261815
20
30.7302981277
30
0
41
1
10
46.6695612463299
20
30.735704436897
30
0
41
1
10
46.6729851877295
20
30.741205574069
30
0
41
1
10
46.676669258286
20
30.7467557595725
30
0
41
1
10
46.6806680149676
20
30.7524642778713
30
0
41
1
10
46.6849470760095
20
30.7582988066658
30
0
41
1
10
46.6894723797358
20
30.7642272385439
30
0
41
1
10
46.6940331379113
20
30.7699935815021
30
0
41
1
10
46.6985823997687
20
30.7755749022129
30
0
41
1
10
46.7015794656227
20
30.779161624824
30
0
41
1
10
46.703102547788
20
30.7809618943233
30
0
0
SPLINE
5
1E4
100
AcDbEntity
8
1
62
256
6
ByLayer
370
18
48
1
60
0
100
AcDbSpline
70
4
71
3
72
27
73
23
40
0
40
0
40
0
40
0
40
0.0328989725308533
40
0.0774404924408745
40
0.122005079278834
40
0.166465661491239
40
0.213448693067775
40
0.260554372101848
40
0.307754611125889
40
0.354991738913355
40
0.402182672931036
40
0.449222706522161
40
0.499978773276757
40
0.550784123021857
40
0.601598391793227
40
0.652366632274413
40
0.704524901807051
40
0.75672031392716
40
0.808920520864196
40
0.861085333329739
40
0.930541959502849
40
1
40
1
40
1
40
1
41
1
10
46.1267643960857
20
30.6959618950142
30
0
41
1
10
46.1275219158642
20
30.6959647847346
30
0
41
1
10
46.1294073206486
20
30.6960814016596
30
0
41
1
10
46.1327757625057
20
30.696686037632
30
0
41
1
10
46.1369002656885
20
30.6978310445629
30
0
41
1
10
46.1415079067711
20
30.6994611511933
30
0
41
1
10
46.1465877986667
20
30.701576522852
30
0
41
1
10
46.1521225174327
20
30.7041662513343
30
0
41
1
10
46.1579813608283
20
30.7071579795975
30
0
41
1
10
46.1641207717402
20
30.7105148663529
30
0
41
1
10
46.1704974503285
20
30.7142003392912
30
0
41
1
10
46.177254477437
20
30.7182910887558
30
0
41
1
10
46.1843886058544
20
30.7227908669134
30
0
41
1
10
46.1918968081699
20
30.7277022505571
30
0
41
1
10
46.1995747235803
20
30.7328875137946
30
0
41
1
10
46.2074694706226
20
30.7383720744875
30
0
41
1
10
46.2155676080622
20
30.7441444825622
30
0
41
1
10
46.2238580516914
20
30.7501958052456
30
0
41
1
10
46.2322505209158
20
30.7564565755698
30
0
41
1
10
46.241664228865
20
30.7636221998939
30
0
41
1
10
46.252120101101
20
30.7717578794555
30
0
41
1
10
46.2597845398088
20
30.7778609951074
30
0
41
1
10
46.2636347434415
20
30.7809618943233
30
0
0
SPLINE
5
1E5
100
AcDbEntity
8
1
62
256
6
ByLayer
370
18
48
1
60
0
100
AcDbSpline
70
4
71
3
72
30
73
26
40
0
40
0
40
0
40
0
40
0.0246093289498881
40
0.0674319692533644
40
0.110288223210187
40
0.153081543851501
40
0.195735108062025
40
0.238528291305396
40
0.281482201674187
40
0.324495224411002
40
0.367457621979976
40
0.410257950365281
40
0.45086611181698
40
0.491580610911649
40
0.532345835599306
40
0.573088196453274
40
0.613719788280994
40
0.662028003311167
40
0.710465782160785
40
0.758999609046225
40
0.807568063004691
40
0.856085871385885
40
0.904447597087985
40
0.95222305280671
40
1
40
1
40
1
40
1
41
1
10
83.8732741078198
20
30.6959618949059
30
0
41
1
10
83.8737479231194
20
30.6959630616761
30
0
41
1
10
83.8749918258752
20
30.6960214685943
30
0
41
1
10
83.87678847519
20
30.6963617747257
30
0
41
1
10
83.8785066057598
20
30.6971305733158
30
0
41
1
10
83.879830991939
20
30.69827743411
30
0
41
1
10
83.8807413612927
20
30.6998126089256
30
0
41
1
10
83.8812092716551
20
30.7017545061977
30
0
41
1
10
83.8812427796075
20
30.7040870919934
30
0
41
1
10
83.8808494188794
20
30.7067887625202
30
0
41
1
10
83.8800357085877
20
30.7098367957542
30
0
41
1
10
83.8788247514514
20
30.7131594341386
30
0
41
1
10
83.8772439213551
20
30.7167263724044
30
0
41
1
10
83.8753448630713
20
30.7204924170564
30
0
41
1
10
83.8731200455954
20
30.7244963953802
30
0
41
1
10
83.8705936537293
20
30.7287085940729
30
0
41
1
10
83.867606797751
20
30.7333845900111
30
0
41
1
10
83.864110063189
20
30.7385515969635
30
0
41
1
10
83.8600718925675
20
30.7442223056322
30
0
41
1
10
83.8557188671203
20
30.7500793702737
30
0
41
1
10
83.8510866876616
20
30.7560883251744
30
0
41
1
10
83.846210696741
20
30.7622150282602
30
0
41
1
10
83.8411369166922
20
30.7684119632777
30
0
41
1
10
83.8358875128685
20
30.7746627098865
30
0
41
1
10
83.8322887301045
20
30.7788543989348
30
0
41
1
10
83.8304593195141
20
30.7809618943233
30
0
0
SPLINE
5
1E6
100
AcDbEntity
8
1
62
256
6
ByLayer
370
18
48
1
60
0
100
AcDbSpline
70
4
71
3
72
29
73
25
40
0
40
0
40
0
40
0
40
0.0406438103291151
40
0.0839535605520195
40
0.127121504140377
40
0.170427804122157
40
0.213896807317824
40
0.257425359041763
40
0.30090240364212
40
0.344215473463815
40
0.385314718816559
40
0.42652273567159
40
0.467782094293874
40
0.509017580846452
40
0.550139927481514
40
0.598396860892512
40
0.646784352268213
40
0.69526720802161
40
0.743783348854435
40
0.792247768602876
40
0.840556139811698
40
0.893690802226654
40
0.946858146682814
40
1
40
1
40
1
40
1
41
1
10
45.7140170069872
20
30.6959618943942
30
0
41
1
10
45.7134283359082
20
30.6959670968977
30
0
41
1
10
45.7123298946805
20
30.6960945941665
30
0
41
1
10
45.7110177097088
20
30.6966401526059
30
0
41
1
10
45.7100981730035
20
30.6976069604492
30
0
41
1
10
45.7096200726655
20
30.6989975178644
30
0
41
1
10
45.7095774897873
20
30.7007993342177
30
0
41
1
10
45.7099626184344
20
30.7029935691509
30
0
41
1
10
45.7107693732767
20
30.7055613396648
30
0
41
1
10
45.7119749593363
20
30.7084414440649
30
0
41
1
10
45.7135524125513
20
30.7116039768928
30
0
41
1
10
45.7154504077609
20
30.7150013958053
30
0
41
1
10
45.7176765407268
20
30.7186657520241
30
0
41
1
10
45.7202068527674
20
30.7225681140437
30
0
41
1
10
45.7231863781684
20
30.7269257188757
30
0
41
1
10
45.7266602248907
20
30.7317686112025
30
0
41
1
10
45.7306558721884
20
30.7371116113974
30
0
41
1
10
45.7349631172198
20
30.7426747583898
30
0
41
1
10
45.7395472140314
20
30.7484232627858
30
0
41
1
10
45.7443735193842
20
30.7543224673909
30
0
41
1
10
45.7495857963351
20
30.760550289442
30
0
41
1
10
45.7551881980986
20
30.7671037721773
30
0
41
1
10
45.7611827502445
20
30.7739793730061
30
0
41
1
10
45.7653031738596
20
30.7786237464186
30
0
41
1
10
45.7673955271484
20
30.7809618943233
30
0
0
SPLINE
5
1E7
100
AcDbEntity
8
1
62
256
6
ByLayer
370
18
48
1
60
0
100
AcDbSpline
70
4
71
3
72
29
73
25
40
0
40
0
40
0
40
0
40
0.0271263542711008
40
0.0642009500636858
40
0.101363390801665
40
0.138569707900059
40
0.175758924193204
40
0.212856031387557
40
0.260077820478815
40
0.30742483023406
40
0.35486608084333
40
0.402342396762595
40
0.449770448136555
40
0.497046423513976
40
0.547019095636256
40
0.597040242632915
40
0.647069759025582
40
0.697053854681335
40
0.74841477329919
40
0.799812730103911
40
0.851215404938633
40
0.902582761765309
40
0.951291178843038
40
1
40
1
40
1
40
1
41
1
10
84.2860203559956
20
30.69596189455
30
0
41
1
10
84.2855698976167
20
30.6959624519102
30
0
41
1
10
84.2844312780528
20
30.6960390322184
30
0
41
1
10
84.2823540939803
20
30.6964472360936
30
0
41
1
10
84.2797447567664
20
30.6972402095084
30
0
41
1
10
84.2768310218128
20
30.6983589150623
30
0
41
1
10
84.273639745452
20
30.6997840455644
30
0
41
1
10
84.2698779103744
20
30.7016558542621
30
0
41
1
10
84.265476478796
20
30.7040565213089
30
0
41
1
10
84.2603836083126
20
30.7070531199961
30
0
41
1
10
84.2549730490789
20
30.7104286774775
30
0
41
1
10
84.2492854000731
20
30.7141474275758
30
0
41
1
10
84.2433610121777
20
30.718173811933
30
0
41
1
10
84.2371114008602
20
30.7225631600863
30
0
41
1
10
84.2305438985323
20
30.7273119340983
30
0
41
1
10
84.2236653132508
20
30.7324156615538
30
0
41
1
10
84.2166197862539
20
30.7377639952404
30
0
41
1
10
84.2093638176192
20
30.7433855814278
30
0
41
1
10
84.2019096361588
20
30.7492697573679
30
0
41
1
10
84.1942676190097
20
30.7554076525736
30
0
41
1
10
84.1865218463508
20
30.7617291887375
30
0
41
1
10
84.1788235161353
20
30.7681060871125
30
0
41
1
10
84.1711891019508
20
30.7745167433302
30
0
41
1
10
84.166152747834
20
30.7787988786778
30
0
41
1
10
84.1636244011368
20
30.7809618943233
30
0
0
SPLINE
5
1E8
100
AcDbEntity
8
1
62
256
6
ByLayer
370
18
48
1
60
0
100
AcDbSpline
70
4
71
3
72
29
73
25
40
0
40
0
40
0
40
0
40
0.0300825407329084
40
0.0714649231057353
40
0.112747553004777
40
0.153856387807397
40
0.19596663702204
40
0.238216347930118
40
0.280524210443056
40
0.322794428538875
40
0.364921934944167
40
0.40726250621635
40
0.449703458191092
40
0.492194314377631
40
0.534665426434898
40
0.577031354646985
40
0.630641089211416
40
0.684394109461438
40
0.738253518394334
40
0.792151416054449
40
0.84599339043332
40
0.899662602458466
40
0.949830683736598
40
1
40
1
40
1
40
1
41
1
10
84.5755105757975
20
30.6959618945529
30
0
41
1
10
84.5757954165135
20
30.6959734433644
30
0
41
1
10
84.5763993961581
20
30.6960727946693
30
0
41
1
10
84.5771020441455
20
30.6964789348189
30
0
41
1
10
84.5774786740056
20
30.6973112239785
30
0
41
1
10
84.577462856564
20
30.6985294647522
30
0
41
1
10
84.5770263827852
20
30.7001571989054
30
0
41
1
10
84.5761821788304
20
30.7021785235462
30
0
41
1
10
84.5749478274119
20
30.7045615431321
30
0
41
1
10
84.5733404598843
20
30.707282512103
30
0
41
1
10
84.5713676800399
20
30.7103309583128
30
0
41
1
10
84.5690376097564
20
30.7136958196922
30
0
41
1
10
84.5663769293744
20
30.7173508078891
30
0
41
1
10
84.5634126538974
20
30.7212656796158
30
0
41
1
10
84.5601720009963
20
30.7254109090882
30
0
41
1
10
84.5563663911618
20
30.7301496806151
30
0
41
1
10
84.5519294883922
20
30.7355335606116
30
0
41
1
10
84.5468117420412
20
30.7415976330116
30
0
41
1
10
84.5413809717482
20
30.7479044282075
30
0
41
1
10
84.5356772330156
20
30.7544145462512
30
0
41
1
10
84.5297401902702
20
30.7610889509316
30
0
41
1
10
84.5237312458466
20
30.7677534926677
30
0
41
1
10
84.5176849821243
20
30.7743805613555
30
0
41
1
10
84.5136509502131
20
30.7787574005446
30
0
41
1
10
84.5116088067509
20
30.7809618943233
30
0
0
SPLINE
5
1E9
100
AcDbEntity
8
1
62
256
6
ByLayer
370
18
48
1
60
0
100
AcDbSpline
70
4
71
3
72
28
73
24
40
0
40
0
40
0
40
0
40
0.0277029670313968
40
0.0656379467123836
40
0.103672244421594
40
0.14175354418019
40
0.179813162758171
40
0.217769436008679
40
0.262531786212567
40
0.307415451527117
40
0.352387420034446
40
0.397389966599538
40
0.442344303888704
40
0.48715390868274
40
0.533529331296033
40
0.579949883121165
40
0.626378074947431
40
0.672763925568052
40
0.736326225705977
40
0.79993299818248
40
0.8635047009839
40
0.931751308227475
40
1
40
1
40
1
40
1
41
1
10
45.4245271071509
20
30.6959618944564
30
0
41
1
10
45.4248243194756
20
30.6959621822053
30
0
41
1
10
45.4256042217638
20
30.6960398061623
30
0
41
1
10
45.4271263489873
20
30.6964555105656
30
0
41
1
10
45.4291461401853
20
30.6972680805116
30
0
41
1
10
45.4314910744642
20
30.6984180229137
30
0
41
1
10
45.4341372908005
20
30.6998872818876
30
0
41
1
10
45.4372415812059
20
30.7017674306902
30
0
41
1
10
45.4408504841036
20
30.7041116454646
30
0
41
1
10
45.4449929914154
20
30.7069556916265
30
0
41
1
10
45.4494460821081
20
30.7101461972387
30
0
41
1
10
45.4541746447269
20
30.7136514961347
30
0
41
1
10
45.4591437092038
20
30.7174400309583
30
0
41
1
10
45.4643893024709
20
30.7215360378417
30
0
41
1
10
45.4699007418748
20
30.7259304132486
30
0
41
1
10
45.4756671818059
20
30.7306125971299
30
0
41
1
10
45.4816046918834
20
30.7355118747453
30
0
41
1
10
45.4884440739614
20
30.7412368492302
30
0
41
1
10
45.496236281027
20
30.7478597324756
30
0
41
1
10
45.505017918156
20
30.7554414406617
30
0
41
1
10
45.5142049542488
20
30.7634854003854
30
0
41
1
10
45.5237838858447
20
30.7719848578844
30
0
41
1
10
45.5304138057433
20
30.7779415850447
30
0
41
1
10
45.5337548272281
20
30.7809618943233
30
0
0
SPLINE
5
1EA
100
AcDbEntity
8
1
62
256
6
ByLayer
370
18
48
1
60
0
100
AcDbSpline
70
4
71
3
72
28
73
24
40
0
40
0
40
0
40
0
40
0.0195704098523577
40
0.0614698831479427
40
0.100619567620216
40
0.139877012718067
40
0.179184016066891
40
0.218466190887491
40
0.257636674533612
40
0.3020642047569
40
0.346613542346807
40
0.391249899350913
40
0.43591509487629
40
0.480531084574395
40
0.525003182341057
40
0.585542459732467
40
0.646139959085704
40
0.706693902656957
40
0.768923215844078
40
0.831196339001237
40
0.893434973539181
40
0.946717036082436
40
1
40
1
40
1
40
1
41
1
10
84.747168458807
20
30.6959618944031
30
0
41
1
10
84.7470628559517
20
30.6959653974075
30
0
41
1
10
84.7466839422464
20
30.6960236384859
30
0
41
1
10
84.7458366952132
20
30.6963451393678
30
0
41
1
10
84.7444044763061
20
30.6971510668628
30
0
41
1
10
84.7426518662612
20
30.6982954607868
30
0
41
1
10
84.7405611677548
20
30.6997840772353
30
0
41
1
10
84.7381563685121
20
30.7015960113653
30
0
41
1
10
84.7353330979893
20
30.7038117481271
30
0
41
1
10
84.7320570914948
20
30.7064685496206
30
0
41
1
10
84.7283115480917
20
30.7095859919742
30
0
41
1
10
84.7242591796768
20
30.7130279516739
30
0
41
1
10
84.7199325820283
20
30.7167636508618
30
0
41
1
10
84.7153642412123
20
30.7207623933453
30
0
41
1
10
84.7100008181068
20
30.7255125524616
30
0
41
1
10
84.703764633601
20
30.7311018161281
30
0
41
1
10
84.6965988272417
20
30.7375982684084
30
0
41
1
10
84.6890810523107
20
30.7444814374558
30
0
41
1
10
84.681241423229
20
30.7517225637984
30
0
41
1
10
84.6731071823977
20
30.7592954025562
30
0
41
1
10
84.6651800651285
20
30.7667281938006
30
0
41
1
10
84.6575145864415
20
30.7739595079414
30
0
41
1
10
84.6526078845183
20
30.7786123604447
30
0
41
1
10
84.6501365043243
20
30.7809618943233
30
0
0
SPLINE
5
1EB
100
AcDbEntity
8
1
62
256
6
ByLayer
370
18
48
1
60
0
100
AcDbSpline
70
4
71
3
72
28
73
24
40
0
40
0
40
0
40
0
40
0.0418202092425438
40
0.0882252465318568
40
0.134431354821234
40
0.175494650244547
40
0.216682499632185
40
0.257924715169384
40
0.299135563296738
40
0.340218207337514
40
0.38327535907312
40
0.426430581755404
40
0.469635465554993
40
0.512821874593802
40
0.555905243695142
40
0.611857017923797
40
0.667958131707762
40
0.724170165236978
40
0.780422356421897
40
0.836616281339528
40
0.892630111708213
40
0.946314376806344
40
1
40
1
40
1
40
1
41
1
10
45.2528695599002
20
30.695961894327
30
0
41
1
10
45.2526708874119
20
30.6959725580208
30
0
41
1
10
45.2523876527044
20
30.6961290104146
30
0
41
1
10
45.2523742528901
20
30.6967812704068
30
0
41
1
10
45.2528538953516
20
30.6979125282402
30
0
41
1
10
45.2537611023062
20
30.6994330822145
30
0
41
1
10
45.2550124330674
20
30.7012605147055
30
0
41
1
10
45.2566268329754
20
30.7034363258858
30
0
41
1
10
45.258584562179
20
30.7059379884299
30
0
41
1
10
45.2609084608684
20
30.7087948358762
30
0
41
1
10
45.2636047327184
20
30.7120110209321
30
0
41
1
10
45.2666625334078
20
30.7155749521527
30
0
41
1
10
45.270015513144
20
30.7194116716943
30
0
41
1
10
45.2736349735577
20
30.7234915422132
30
0
41
1
10
45.2778836541388
20
30.7282203590853
30
0
41
1
10
45.282834110936
20
30.7336625443517
30
0
41
1
10
45.2885423211263
20
30.7398658328847
30
0
41
1
10
45.29456127348
20
30.7463433529351
30
0
41
1
10
45.3008486231873
20
30.7530532707017
30
0
41
1
10
45.3073624595682
20
30.7599541635396
30
0
41
1
10
45.3139805404741
20
30.7669200437598
30
0
41
1
10
45.3206734805862
20
30.7739243259648
30
0
41
1
10
45.3251661335209
20
30.7786025227283
30
0
41
1
10
45.3274375809252
20
30.7809618943233
30
0
0
SPLINE
5
1EC
100
AcDbEntity
8
1
62
256
6
ByLayer
370
18
48
1
60
0
100
AcDbSpline
70
4
71
2
72
6
73
3
40
0
40
0
40
0
40
1
40
1
40
1
41
0.500005443239456
10
49.7634192030774
20
31.5
30
0
41
0.499994556760544
10
49.6885136605551
20
31.5
30
0
41
0.500005443239456
10
49.6149415960426
20
31.5
30
0
0
SPLINE
5
1ED
100
AcDbEntity
8
1
62
256
6
ByLayer
370
18
48
1
60
0
100
AcDbSpline
70
4
71
2
72
6
73
3
40
0
40
0
40
0
40
1
40
1
40
1
41
0.50000479843448
10
48.7532629497555
20
31.5
30
0
41
0.49999520156552
10
48.6922276804372
20
31.5
30
0
41
0.50000479843448
10
48.6324444169835
20
31.5
30
0
0
SPLINE
5
1EE
100
AcDbEntity
8
1
62
256
6
ByLayer
370
18
48
1
60
0
100
AcDbSpline
70
4
71
2
72
6
73
3
40
0
40
0
40
0
40
1
40
1
40
1
41
0.500004356131372
10
47.9336722626086
20
31.5
30
0
41
0.499995643868628
10
47.8843730897367
20
31.5
30
0
41
0.500004356131372
10
47.8362668241165
20
31.5
30
0
0
SPLINE
5
1EF
100
AcDbEntity
8
1
62
256
6
ByLayer
370
18
48
1
60
0
100
AcDbSpline
70
4
71
2
72
6
73
3
40
0
40
0
40
0
40
1
40
1
40
1
41
0.500004045391814
10
47.2781878366319
20
31.5
30
0
41
0.499995954608186
10
47.239212931084
20
31.5
30
0
41
0.500004045391814
10
47.2013875976497
20
31.5
30
0
0
SPLINE
5
1F0
100
AcDbEntity
8
1
62
256
6
ByLayer
370
18
48
1
60
0
100
AcDbSpline
70
4
71
2
72
6
73
3
40
0
40
0
40
0
40
1
40
1
40
1
41
0.500003826997353
10
46.7690999715898
20
31.5
30
0
41
0.499996173002647
10
46.7394915473131
20
31.5
30
0
41
0.500003826997353
10
46.7110012337671
20
31.5
30
0
0
SPLINE
5
1F1
100
AcDbEntity
8
1
62
256
6
ByLayer
370
18
48
1
60
0
100
AcDbSpline
70
4
71
2
72
6
73
3
40
0
40
0
40
0
40
1
40
1
40
1
41
0.500003678074472
10
46.3943876623599
20
31.5
30
0
41
0.499996321925528
10
46.3734977768661
20
31.4999999999999
30
0
41
0.500003678074472
10
46.3537040309639
20
31.5
30
0
0
SPLINE
5
1F2
100
AcDbEntity
8
1
62
256
6
ByLayer
370
18
48
1
60
0
100
AcDbSpline
70
4
71
2
72
6
73
3
40
0
40
0
40
0
40
1
40
1
40
1
41
0.500003585068969
10
46.1460372895693
20
31.5
30
0
41
0.499996414931031
10
46.1334464062565
20
31.5
30
0
41
0.500003585068969
10
46.1219377148512
20
31.5
30
0
0
SPLINE
5
1F3
100
AcDbEntity
8
1
62
256
6
ByLayer
370
18
48
1
60
0
100
AcDbSpline
70
4
71
2
72
6
73
3
40
0
40
0
40
0
40
1
40
1
40
1
41
0.50000354030808
10
46.0190881688957
20
31.5
30
0
41
0.49999645969192
10
46.014559019148
20
31.5
30
0
41
0.50000354030808
10
46.0111052842119
20
31.5
30
0
0
SPLINE
5
1F4
100
AcDbEntity
8
1
62
256
6
ByLayer
370
18
48
1
60
0
100
AcDbSpline
70
4
71
2
72
6
73
3
40
0
40
0
40
0
40
1
40
1
40
1
41
0.50000354030808
10
83.9889328214646
20
31.5
30
0
41
0.49999645969192
10
83.9854790865285
20
31.5
30
0
41
0.50000354030808
10
83.9809499367808
20
31.5
30
0
0
SPLINE
5
1F5
100
AcDbEntity
8
1
62
256
6
ByLayer
370
18
48
1
60
0
100
AcDbSpline
70
4
71
2
72
6
73
3
40
0
40
0
40
0
40
1
40
1
40
1
41
0.500003585068969
10
83.8781003908253
20
31.5
30
0
41
0.499996414931031
10
83.8665916994199
20
31.5
30
0
41
0.500003585068969
10
83.8540008161072
20
31.5
30
0
0
SPLINE
5
1F6
100
AcDbEntity
8
1
62
256
6
ByLayer
370
18
48
1
60
0
100
AcDbSpline
70
4
71
2
72
6
73
3
40
0
40
0
40
0
40
1
40
1
40
1
41
0.500003678074472
10
83.6463340747126
20
31.5
30
0
41
0.499996321925528
10
83.6265403288106
20
31.4999999999999
30
0
41
0.500003678074472
10
83.6056504433166
20
31.5
30
0
0
SPLINE
5
1F7
100
AcDbEntity
8
1
62
256
6
ByLayer
370
18
48
1
60
0
100
AcDbSpline
70
4
71
2
72
6
73
3
40
0
40
0
40
0
40
1
40
1
40
1
41
0.500003826997353
10
83.2890368719094
20
31.5
30
0
41
0.499996173002647
10
83.2605465583634
20
31.5
30
0
41
0.500003826997353
10
83.2309381340868
20
31.5
30
0
0
SPLINE
5
1F8
100
AcDbEntity
8
1
62
256
6
ByLayer
370
18
48
1
60
0
100
AcDbSpline
70
4
71
2
72
6
73
3
40
0
40
0
40
0
40
1
40
1
40
1
41
0.500004045391814
10
82.7986505080268
20
31.5
30
0
41
0.499995954608186
10
82.7608251745923
20
31.5
30
0
41
0.500004045391814
10
82.7218502690446
20
31.5
30
0
0
SPLINE
5
1F9
100
AcDbEntity
8
1
62
256
6
ByLayer
370
18
48
1
60
0
100
AcDbSpline
70
4
71
2
72
6
73
3
40
0
40
0
40
0
40
1
40
1
40
1
41
0.500004356131372
10
82.16377128156
20
31.5
30
0
41
0.499995643868628
10
82.1156650159396
20
31.5
30
0
41
0.500004356131372
10
82.0663658430679
20
31.5
30
0
0
SPLINE
5
1FA
100
AcDbEntity
8
1
62
256
6
ByLayer
370
18
48
1
60
0
100
AcDbSpline
70
4
71
2
72
6
73
3
40
0
40
0
40
0
40
1
40
1
40
1
41
0.50000479843448
10
81.367593688693
20
31.5
30
0
41
0.49999520156552
10
81.307810425239
20
31.5
30
0
41
0.50000479843448
10
81.246775155921
20
31.5
30
0
0
SPLINE
5
1FB
100
AcDbEntity
8
1
62
256
6
ByLayer
370
18
48
1
60
0
100
AcDbSpline
70
4
71
2
72
6
73
3
40
0
40
0
40
0
40
1
40
1
40
1
41
0.500005443239456
10
80.3850965096339
20
31.5
30
0
41
0.499994556760544
10
80.3115244451217
20
31.5
30
0
41
0.500005443239456
10
80.2366189025991
20
31.5
30
0
0
SPLINE
5
1FC
100
AcDbEntity
8
1
62
256
6
ByLayer
370
18
48
0.05
60
1
100
AcDbSpline
70
4
71
3
72
8
73
4
40
0
40
0
40
0
40
0
40
1
40
1
40
1
40
1
41
1
10
48.2221518312485
20
-167.000000000001
30
0
41
1
10
46.5596853212573
20
-175.59025381982
30
0
41
1
10
45.1691992484993
20
-184.203796226729
30
0
41
1
10
44.6583186059721
20
-192.89265569642
30
0
0
SPLINE
5
1FD
100
AcDbEntity
8
1
62
256
6
ByLayer
370
18
48
0.05
60
1
100
AcDbSpline
70
4
71
3
72
13
73
9
40
0
40
0
40
0
40
0
40
0.098081855372567
40
0.196199316831313
40
0.396806626480363
40
0.597597370151652
40
0.798762783152461
40
1
40
1
40
1
40
1
41
1
10
44.6922421016716
20
-207.107344303397
30
0
41
1
10
44.7428136029181
20
-207.96108243476
30
0
41
1
10
44.8598497019799
20
-209.667588343669
30
0
41
1
10
45.1629831977118
20
-213.114068246299
30
0
41
1
10
45.6592122405578
20
-217.441523310249
30
0
41
1
10
46.4091321190215
20
-222.641694815418
30
0
41
1
10
47.2811909152587
20
-227.828240558035
30
0
41
1
10
47.9202084165593
20
-231.277753760812
30
0
41
1
10
48.2560753269481
20
-232.999999999817
30
0
0
SPLINE
5
1FE
100
AcDbEntity
8
1
62
256
6
ByLayer
370
18
48
1
60
0
100
AcDbSpline
70
4
71
3
72
10
73
6
40
0
40
0
40
0
40
0
40
0.483016599166114
40
0.483016599166114
40
1
40
1
40
1
40
1
41
1
10
14.6254011529794
20
24.4200409500066
30
0
41
1
10
14.8664374580825
20
23.8820271149491
30
0
41
1
10
15.1048367186587
20
23.3428387839249
30
0
41
1
10
15.5921324012273
20
22.2238142002562
30
0
41
1
10
15.8405900934293
20
21.6437863259132
30
0
41
1
10
16.0850134763923
20
21.0620455190216
30
0
0
SPLINE
5
1FF
100
AcDbEntity
8
1
62
256
6
ByLayer
370
18
48
1
60
0
100
AcDbSpline
70
4
71
3
72
10
73
6
40
0
40
0
40
0
40
0
40
0.483016599166114
40
0.483016599166114
40
1
40
1
40
1
40
1
41
1
10
21.3746257998061
20
24.4200409500066
30
0
41
1
10
21.133589494703
20
23.8820271149491
30
0
41
1
10
20.8951902341268
20
23.3428387839249
30
0
41
1
10
20.4078945515582
20
22.2238142002562
30
0
41
1
10
20.1594368593563
20
21.6437863259132
30
0
41
1
10
19.9150134763933
20
21.0620455190216
30
0
0
SPLINE
5
200
100
AcDbEntity
8
1
62
256
6
ByLayer
370
18
48
1
60
0
100
AcDbSpline
70
4
71
3
72
18
73
14
40
0
40
0
40
0
40
0
40
0.249999999999997
40
0.249999999999997
40
0.374999999999995
40
0.374999999999995
40
0.437499999999995
40
0.437499999999995
40
0.499999999999995
40
0.499999999999995
40
0.749999999999998
40
0.749999999999998
40
1
40
1
40
1
40
1
41
1
10
41.7530516439817
20
-17.3790613668762
30
0
41
1
10
42.124026002836
20
-16.7638373844778
30
0
41
1
10
42.5350823287524
20
-16.1753813458697
30
0
41
1
10
43.212794958505
20
-15.3327301016902
30
0
41
1
10
43.4489231133576
20
-15.0585436813181
30
0
41
1
10
43.818928771248
20
-14.6575279262999
30
0
41
1
10
43.9450265350201
20
-14.5254429072456
30
0
41
1
10
44.2020742310322
20
-14.2652970896359
30
0
41
1
10
44.3325106174386
20
-14.1377471672324
30
0
41
1
10
44.9941363752209
20
-13.512446182077
30
0
41
1
10
45.5535236585358
20
-13.0518660656019
30
0
41
1
10
46.7316288915534
20
-12.2086607204436
30
0
41
1
10
47.3503382287145
20
-11.8260267720636
30
0
41
1
10
48.0000134763926
20
-11.4839242168366
30
0
0
SPLINE
5
201
100
AcDbEntity
8
1
62
256
6
ByLayer
370
18
48
1
60
0
100
AcDbSpline
70
4
71
3
72
12
73
8
40
0
40
0
40
0
40
0
40
0.5
40
0.5
40
0.75
40
0.75
40
1
40
1
40
1
40
1
41
1
10
40.0000134763926
20
-21.5
30
0
41
1
10
40.1656504362839
20
-20.8818344500743
30
0
41
1
10
40.3816251709932
20
-20.2229770591998
30
0
41
1
10
40.8092022776283
20
-19.1878060869227
30
0
41
1
10
40.9690527869346
20
-18.8349352846757
30
0
41
1
10
41.329105744016
20
-18.1161066660495
30
0
41
1
10
41.5292932687045
20
-17.750142320175
30
0
41
1
10
41.7530516439817
20
-17.3790613668763
30
0
0
SPLINE
5
202
100
AcDbEntity
8
1
62
256
6
ByLayer
370
18
48
1
60
0
100
AcDbSpline
70
4
71
3
72
12
73
8
40
0
40
0
40
0
40
0
40
0.5
40
0.5
40
0.75
40
0.75
40
1
40
1
40
1
40
1
41
1
10
41.8960355407218
20
-15.8540125681099
30
0
41
1
10
41.8626646343708
20
-16.1151423715073
30
0
41
1
10
41.8342479987513
20
-16.3728420602956
30
0
41
1
10
41.7986146648009
20
-16.7541692132191
30
0
41
1
10
41.7879041914723
20
-16.8804077998468
30
0
41
1
10
41.7687682530421
20
-17.1311301595508
30
0
41
1
10
41.7603379181524
20
-17.2557113657333
30
0
41
1
10
41.7530516439817
20
-17.3790613668763
30
0
0
SPLINE
5
203
100
AcDbEntity
8
1
62
256
6
ByLayer
370
18
48
1
60
0
100
AcDbSpline
70
4
71
3
72
78
73
74
40
0
40
0
40
0
40
0
40
0.0312499999999987
40
0.0312499999999987
40
0.0624999999999973
40
0.0624999999999973
40
0.0703124999999972
40
0.0703124999999972
40
0.0781249999999972
40
0.0781249999999972
40
0.0937499999999972
40
0.0937499999999972
40
0.124999999999997
40
0.124999999999997
40
0.156249999999997
40
0.156249999999997
40
0.171874999999997
40
0.171874999999997
40
0.187499999999997
40
0.187499999999997
40
0.218749999999997
40
0.218749999999997
40
0.249999999999997
40
0.249999999999997
40
0.281249999999997
40
0.281249999999997
40
0.296874999999997
40
0.296874999999997
40
0.312499999999997
40
0.312499999999997
40
0.374999999999996
40
0.374999999999996
40
0.437499999999996
40
0.437499999999996
40
0.468749999999996
40
0.468749999999996
40
0.484374999999996
40
0.484374999999996
40
0.499999999999996
40
0.499999999999996
40
0.562499999999996
40
0.562499999999996
40
0.624999999999995
40
0.624999999999995
40
0.656249999999995
40
0.656249999999995
40
0.671874999999995
40
0.671874999999995
40
0.687499999999995
40
0.687499999999995
40
0.749999999999995
40
0.749999999999995
40
0.781249999999995
40
0.781249999999995
40
0.812499999999995
40
0.812499999999995
40
0.820312499999995
40
0.820312499999995
40
0.828124999999996
40
0.828124999999996
40
0.843749999999996
40
0.843749999999996
40
0.874999999999997
40
0.874999999999997
40
0.906249999999998
40
0.906249999999998
40
0.921874999999998
40
0.921874999999998
40
0.937499999999998
40
0.937499999999998
40
0.968749999999999
40
0.968749999999999
40
1
40
1
40
1
40
1
41
1
10
41.8960355407218
20
-15.85401256811
30
0
41
1
10
41.5396426046552
20
-15.6998852552193
30
0
41
1
10
41.2001942806434
20
-15.5262147653432
30
0
41
1
10
40.5520644455535
20
-15.1413149115062
30
0
41
1
10
40.2434033418493
20
-14.9300645481271
30
0
41
1
10
39.8756086064799
20
-14.6425627330384
30
0
41
1
10
39.8028557813404
20
-14.583805529613
30
0
41
1
10
39.6596159287954
20
-14.4643380321115
30
0
41
1
10
39.5892222993381
20
-14.4037119270302
30
0
41
1
10
39.3815827521763
20
-14.2192075933433
30
0
41
1
10
39.2478749960606
20
-14.0927050433104
30
0
41
1
10
38.8599379938489
20
-13.70303682015
30
0
41
1
10
38.6188617280113
20
-13.4297283189236
30
0
41
1
10
38.1676702278089
20
-12.857304533131
30
0
41
1
10
37.957568834564
20
-12.5581821377919
30
0
41
1
10
37.6632482583725
20
-12.0907005075467
30
0
41
1
10
37.5684258363223
20
-11.9313724085083
30
0
41
1
10
37.3868281885548
20
-11.6091347003753
30
0
41
1
10
37.299931418146
20
-11.4460743779568
30
0
41
1
10
37.0499984281335
20
-10.9512884360023
30
0
41
1
10
36.8976879373626
20
-10.6139664992804
30
0
41
1
10
36.6175442701521
20
-9.9253174234922
30
0
41
1
10
36.4897208373115
20
-9.57398805275819
30
0
41
1
10
36.2553324933938
20
-8.8579898314091
30
0
41
1
10
36.1487732595073
20
-8.49331988454658
30
0
41
1
10
36.0029684138353
20
-7.9366575268971
30
0
41
1
10
35.9566665388943
20
-7.749302077362
30
0
41
1
10
35.8686783995605
20
-7.37225207428375
30
0
41
1
10
35.8271171152196
20
-7.18312101511401
30
0
41
1
10
35.6305243484469
20
-6.23453654151265
30
0
41
1
10
35.5087149445245
20
-5.46634638420185
30
0
41
1
10
35.319168498706
20
-3.91302688231689
30
0
41
1
10
35.2515235205589
20
-3.12789036203915
30
0
41
1
10
35.1847089895721
20
-1.93789428471559
30
0
41
1
10
35.1682726409514
20
-1.53917220583987
30
0
41
1
10
35.1521339093736
20
-0.937982512424446
30
0
41
1
10
35.1481771400982
20
-0.737067661443107
30
0
41
1
10
35.1431126909226
20
-0.334191263891776
30
0
41
1
10
35.1420159749222
20
-0.133062320389494
30
0
41
1
10
35.1436071135099
20
0.870488064029476
30
0
41
1
10
35.1672275031587
20
1.66726193239144
30
0
41
1
10
35.2609856429244
20
3.24880771392184
30
0
41
1
10
35.3310946786419
20
4.03358029104505
30
0
41
1
10
35.4781138627182
20
5.20125184308691
30
0
41
1
10
35.5341564370216
20
5.58888841258935
30
0
41
1
10
35.6302903231806
20
6.16784051610591
30
0
41
1
10
35.6643515972264
20
6.3604069665723
30
0
41
1
10
35.7368269977504
20
6.74467837625408
30
0
41
1
10
35.7750921904012
20
6.93558050353828
30
0
41
1
10
35.9769145961299
20
7.88274173015066
30
0
41
1
10
36.1718041402534
20
8.6182194875641
30
0
41
1
10
36.529374034049
20
9.68542903406405
30
0
41
1
10
36.6595074599607
20
10.0351437223851
30
0
41
1
10
36.9452845079212
20
10.7217959778021
30
0
41
1
10
37.1009153159788
20
11.0587362706242
30
0
41
1
10
37.3143282641508
20
11.4713037447803
30
0
41
1
10
37.3579704372161
20
11.5534031434263
30
0
41
1
10
37.4468297486418
20
11.7160000720792
30
0
41
1
10
37.4920926110159
20
11.7965880426198
30
0
41
1
10
37.630451883173
20
12.0362051154536
30
0
41
1
10
37.726117541084
20
12.1930880595883
30
0
41
1
10
38.024009321088
20
12.6550057813995
30
0
41
1
10
38.2370986509882
20
12.9513240762466
30
0
41
1
10
38.6961947120071
20
13.5196296205413
30
0
41
1
10
38.9421817188223
20
13.7916259687186
30
0
41
1
10
39.3397057376338
20
14.18014317666
30
0
41
1
10
39.4760045024717
20
14.3054208934218
30
0
41
1
10
39.7556061031858
20
14.5468146131173
30
0
41
1
10
39.899034178126
20
14.6630540814899
30
0
41
1
10
40.3405580911665
20
14.9984091708329
30
0
41
1
10
40.6498590299463
20
15.2041995137445
30
0
41
1
10
41.3009459216336
20
15.5795008065229
30
0
41
1
10
41.6427053601401
20
15.749037251072
30
0
41
1
10
42.0026864884138
20
15.899335526912
30
0
0
SPLINE
5
204
100
AcDbEntity
8
1
62
256
6
ByLayer
370
18
48
1
60
0
100
AcDbSpline
70
4
71
3
72
22
73
18
40
0
40
0
40
0
40
0
40
0.124999999999987
40
0.124999999999987
40
0.249999999999974
40
0.249999999999974
40
0.312499999999971
40
0.312499999999971
40
0.374999999999969
40
0.374999999999969
40
0.499999999999975
40
0.499999999999975
40
0.624999999999981
40
0.624999999999981
40
0.749999999999987
40
0.749999999999987
40
1
40
1
40
1
40
1
41
1
10
42.0026864884138
20
15.8993355269121
30
0
41
1
10
42.0582047253363
20
15.9225153400516
30
0
41
1
10
42.1104655757791
20
15.9512038452319
30
0
41
1
10
42.2101421323346
20
16.0167621362557
30
0
41
1
10
42.2575343157471
20
16.0536713606361
30
0
41
1
10
42.3255632263881
20
16.1141793278888
30
0
41
1
10
42.3477540571916
20
16.1352516773585
30
0
41
1
10
42.3906001930056
20
16.1784151005077
30
0
41
1
10
42.4113350235874
20
16.2005728381123
30
0
41
1
10
42.4716723368529
20
16.2686056091153
30
0
41
1
10
42.509418969729
20
16.316030686514
30
0
41
1
10
42.5806265156011
20
16.4144435064829
30
0
41
1
10
42.6140821331339
20
16.4654357163438
30
0
41
1
10
42.6770529823237
20
16.5706787825973
30
0
41
1
10
42.7065892737606
20
16.6250293673969
30
0
41
1
10
42.7881902912845
20
16.7898041656297
30
0
41
1
10
42.8339279825105
20
16.902845338459
30
0
41
1
10
42.8718694838028
20
17.018736931093
30
0
0
SPLINE
5
205
100
AcDbEntity
8
1
62
256
6
ByLayer
370
18
48
1
60
0
100
AcDbSpline
70
4
71
3
72
12
73
8
40
0
40
0
40
0
40
0
40
0.499999999999987
40
0.499999999999987
40
0.749999999999994
40
0.749999999999994
40
1
40
1
40
1
40
1
41
1
10
73.0000134763926
20
0.845869917247798
30
0
41
1
10
73.2428003671632
20
0.839825110888063
30
0
41
1
10
73.4832877119903
20
0.838007047209176
30
0
41
1
10
73.8405709054569
20
0.841588235531822
30
0
41
1
10
73.9591727376205
20
0.843837135994663
30
0
41
1
10
74.1946734051471
20
0.850425958898497
30
0
41
1
10
74.311597112012
20
0.854764389089026
30
0
41
1
10
74.427702521341
20
0.860139275865302
30
0
0
SPLINE
5
206
100
AcDbEntity
8
1
62
256
6
ByLayer
370
18
48
1
60
0
100
AcDbSpline
70
4
71
3
72
42
73
38
40
0
40
0
40
0
40
0
40
0.062499999999999
40
0.062499999999999
40
0.0937499999999986
40
0.0937499999999986
40
0.124999999999998
40
0.124999999999998
40
0.249999999999998
40
0.249999999999998
40
0.374999999999998
40
0.374999999999998
40
0.437499999999998
40
0.437499999999998
40
0.468749999999997
40
0.468749999999997
40
0.499999999999997
40
0.499999999999997
40
0.624999999999997
40
0.624999999999997
40
0.687499999999997
40
0.687499999999997
40
0.749999999999998
40
0.749999999999998
40
0.812499999999998
40
0.812499999999998
40
0.843749999999998
40
0.843749999999998
40
0.874999999999999
40
0.874999999999999
40
0.906249999999999
40
0.906249999999999
40
0.937499999999999
40
0.937499999999999
40
0.96875
40
0.96875
40
1
40
1
40
1
40
1
41
1
10
75.4227904947759
20
1.324156418416
30
0
41
1
10
75.7689270320101
20
1.4855625364956
30
0
41
1
10
76.104573278568
20
1.657137001807
30
0
41
1
10
76.5933372724718
20
1.92863737636478
30
0
41
1
10
76.7539369766693
20
2.02157802291169
30
0
41
1
10
77.0697602764615
20
2.21166813878378
30
0
41
1
10
77.224718180021
20
2.30865018905636
30
0
41
1
10
77.9854097220373
20
2.80278879334228
30
0
41
1
10
78.5491152145262
20
3.2274078061468
30
0
41
1
10
79.5991589839766
20
4.12753181687742
30
0
41
1
10
80.0854148132507
20
4.60307320223327
30
0
41
1
10
80.7620136431118
20
5.35243727667516
30
0
41
1
10
80.9787165674642
20
5.60826759494733
30
0
41
1
10
81.2909419270495
20
6.00113175811606
30
0
41
1
10
81.3929100239118
20
6.1336637533598
30
0
41
1
10
81.5917224060138
20
6.40056622552693
30
0
41
1
10
81.6886875910029
20
6.53508419897782
30
0
41
1
10
82.1616587848058
20
7.21306516782012
30
0
41
1
10
82.502260706191
20
7.77239720255856
30
0
41
1
10
82.9611843129907
20
8.64113519123446
30
0
41
1
10
83.1054645134163
20
8.93572399596926
30
0
41
1
10
83.3770468022046
20
9.53670232972241
30
0
41
1
10
83.5043512158988
20
9.84306484434243
30
0
41
1
10
83.7421157797035
20
10.4706911094485
30
0
41
1
10
83.8525832001699
20
10.7918931388055
30
0
41
1
10
84.0054470852642
20
11.2891257309891
30
0
41
1
10
84.0540635510713
20
11.4568498799024
30
0
41
1
10
84.1464332462397
20
11.7965344875562
30
0
41
1
10
84.1902115823464
20
11.9685701902083
30
0
41
1
10
84.2728546616341
20
12.3180786876874
30
0
41
1
10
84.3117208170705
20
12.495545885353
30
0
41
1
10
84.384345587963
20
12.8573790385277
30
0
41
1
10
84.418106785588
20
13.0417359968567
30
0
41
1
10
84.4801753925264
20
13.419441595632
30
0
41
1
10
84.5084877014826
20
13.6127754432213
30
0
41
1
10
84.5590531628119
20
14.0115050622298
30
0
41
1
10
84.5813160067893
20
14.2168760715443
30
0
41
1
10
84.6000134763926
20
14.4305891270399
30
0
0
SPLINE
5
207
100
AcDbEntity
8
1
62
256
6
ByLayer
370
18
48
1
60
0
100
AcDbSpline
70
4
71
3
72
42
73
38
40
0
40
0
40
0
40
0
40
0.0312499999999997
40
0.0312499999999997
40
0.0624999999999994
40
0.0624999999999994
40
0.0937499999999991
40
0.0937499999999991
40
0.124999999999999
40
0.124999999999999
40
0.156249999999998
40
0.156249999999998
40
0.171874999999998
40
0.171874999999998
40
0.187499999999998
40
0.187499999999998
40
0.249999999999998
40
0.249999999999998
40
0.312499999999998
40
0.312499999999998
40
0.374999999999997
40
0.374999999999997
40
0.499999999999997
40
0.499999999999997
40
0.562499999999997
40
0.562499999999997
40
0.593749999999997
40
0.593749999999997
40
0.624999999999997
40
0.624999999999997
40
0.749999999999998
40
0.749999999999998
40
0.874999999999998
40
0.874999999999998
40
0.937499999999999
40
0.937499999999999
40
1
40
1
40
1
40
1
41
1
10
84.6000134763926
20
14.4305891270399
30
0
41
1
10
84.581306806456
20
14.2167709112539
30
0
41
1
10
84.5590080878599
20
14.011055647533
30
0
41
1
10
84.5082958824852
20
13.6113572910914
30
0
41
1
10
84.4798731571578
20
13.4173965686404
30
0
41
1
10
84.4175004167999
20
13.0382549243268
30
0
41
1
10
84.3835456552374
20
12.8530877330046
30
0
41
1
10
84.3104455289718
20
12.4895067832587
30
0
41
1
10
84.2712976365201
20
12.3111015265681
30
0
41
1
10
84.1879988001531
20
11.9596225233657
30
0
41
1
10
84.1438464647767
20
11.7865541306137
30
0
41
1
10
84.0739358959848
20
11.5301865962573
30
0
41
1
10
84.0499975850683
20
11.4452052583498
30
0
41
1
10
84.0010699766415
20
11.2768042664706
30
0
41
1
10
83.9760668935448
20
11.1933295115347
30
0
41
1
10
83.8483833959305
20
10.7792441822975
30
0
41
1
10
83.7377206546297
20
10.458347170472
30
0
41
1
10
83.4996739918087
20
9.83148940053647
30
0
41
1
10
83.3722828074663
20
9.52559059347925
30
0
41
1
10
83.1006647600403
20
8.92569276111251
30
0
41
1
10
82.9564355378061
20
8.63172081999093
30
0
41
1
10
82.4979236070281
20
7.76505662686564
30
0
41
1
10
82.1579361881048
20
7.20740526032406
30
0
41
1
10
81.5920812993083
20
6.39676736831168
30
0
41
1
10
81.3941216994162
20
6.13092683427458
30
0
41
1
10
81.0823186942469
20
5.73864376325579
30
0
41
1
10
80.9759047756012
20
5.6089649514224
30
0
41
1
10
80.7579449434641
20
5.35178762545539
30
0
41
1
10
80.6462358166577
20
5.22411427461889
30
0
41
1
10
80.0772473289273
20
4.59441092868905
30
0
41
1
10
79.5879081940332
20
4.11697032205242
30
0
41
1
10
78.5356343513445
20
3.21679052296607
30
0
41
1
10
77.9727572911139
20
2.7940302394494
30
0
41
1
10
77.0661711839672
20
2.20593498966512
30
0
41
1
10
76.7535599192406
20
2.01761493547334
30
0
41
1
10
76.1057197228432
20
1.65779737992415
30
0
41
1
10
75.7704970159863
20
1.48629463204685
30
0
41
1
10
75.4227904947759
20
1.324156418416
30
0
0
SPLINE
5
208
100
AcDbEntity
8
1
62
256
6
ByLayer
370
18
48
1
60
0
100
AcDbSpline
70
4
71
3
72
8
73
4
40
0
40
0
40
0
40
0
40
1
40
1
40
1
40
1
41
1
10
74.427702521341
20
0.86013927586532
30
0
41
1
10
73.9640164333916
20
0.838673779667807
30
0
41
1
10
73.4882672458155
20
0.833713579312072
30
0
41
1
10
73.0000134763926
20
0.845869917247798
30
0
0
SPLINE
5
209
100
AcDbEntity
8
1
62
256
6
ByLayer
370
18
48
1
60
0
100
AcDbSpline
70
4
71
3
72
10
73
6
40
0
40
0
40
0
40
0
40
0.5
40
0.5
40
1
40
1
40
1
40
1
41
1
10
45.7887588661085
20
24.4875563953193
30
0
41
1
10
46.199659804239
20
25.4120091368365
30
0
41
1
10
46.6187326589786
20
26.3336105270923
30
0
41
1
10
47.469600404244
20
28.1712821884207
30
0
41
1
10
47.9012037853561
20
29.0869312081528
30
0
41
1
10
48.3378023601442
20
30
30
0
0
SPLINE
5
20A
100
AcDbEntity
8
1
62
256
6
ByLayer
370
18
48
1
60
0
100
AcDbSpline
70
4
71
3
72
10
73
6
40
0
40
0
40
0
40
0
40
0.5
40
0.5
40
1
40
1
40
1
40
1
41
1
10
48.3378023601442
20
30
30
0
41
1
10
47.901202778831
20
29.0869291031836
30
0
41
1
10
47.469665492937
20
28.1714173764574
30
0
41
1
10
46.6190823158466
20
26.3343710880526
30
0
41
1
10
46.2000291265588
20
25.4128400452122
30
0
41
1
10
45.7887588661086
20
24.4875563953195
30
0
0
SPLINE
5
20B
100
AcDbEntity
8
1
62
256
6
ByLayer
370
18
48
1
60
0
100
AcDbSpline
70
4
71
3
72
10
73
6
40
0
40
0
40
0
40
0
40
0.5
40
0.5
40
1
40
1
40
1
40
1
41
1
10
45.7887588661086
20
24.4875563953195
30
0
41
1
10
45.244084009218
20
23.2621365484365
30
0
41
1
10
44.7254276504721
20
22.0285996131743
30
0
41
1
10
43.7495743158631
20
19.5406947484982
30
0
41
1
10
43.2924184391331
20
18.2863150099955
30
0
41
1
10
42.8718694835479
20
17.0187369303245
30
0
0
SPLINE
5
20C
100
AcDbEntity
8
1
62
256
6
ByLayer
370
18
48
1
60
0
100
AcDbSpline
70
4
71
3
72
18
73
14
40
0
40
0
40
0
40
0
40
0.250000000000002
40
0.250000000000002
40
0.500000000000005
40
0.500000000000005
40
0.562500000000005
40
0.562500000000005
40
0.625000000000005
40
0.625000000000005
40
0.750000000000003
40
0.750000000000003
40
1
40
1
40
1
40
1
41
1
10
48.0000134763926
20
-11.4839242168366
30
0
41
1
10
47.3503382287145
20
-11.8260267720636
30
0
41
1
10
46.7316288915534
20
-12.2086607204436
30
0
41
1
10
45.5535236585358
20
-13.0518660656019
30
0
41
1
10
44.9941363752209
20
-13.512446182077
30
0
41
1
10
44.3325106174386
20
-14.1377471672324
30
0
41
1
10
44.2020742310322
20
-14.2652970896359
30
0
41
1
10
43.9450265350201
20
-14.5254429072456
30
0
41
1
10
43.818928771248
20
-14.6575279262999
30
0
41
1
10
43.4489231133576
20
-15.0585436813181
30
0
41
1
10
43.212794958505
20
-15.3327301016902
30
0
41
1
10
42.5350823287524
20
-16.1753813458697
30
0
41
1
10
42.124026002836
20
-16.7638373844778
30
0
41
1
10
41.7530516439817
20
-17.3790613668762
30
0
0
SPLINE
5
20D
100
AcDbEntity
8
1
62
256
6
ByLayer
370
18
48
1
60
0
100
AcDbSpline
70
4
71
3
72
12
73
8
40
0
40
0
40
0
40
0
40
0.25
40
0.25
40
0.5
40
0.5
40
1
40
1
40
1
40
1
41
1
10
41.7530516439817
20
-17.3790613668763
30
0
41
1
10
41.5292932687045
20
-17.750142320175
30
0
41
1
10
41.329105744016
20
-18.1161066660495
30
0
41
1
10
40.9690527869346
20
-18.8349352846757
30
0
41
1
10
40.8092022776283
20
-19.1878060869227
30
0
41
1
10
40.3816251709932
20
-20.2229770591998
30
0
41
1
10
40.1656504362839
20
-20.8818344500743
30
0
41
1
10
40.0000134763926
20
-21.5
30
0
0
SPLINE
5
20E
100
AcDbEntity
8
1
62
256
6
ByLayer
370
18
48
1
60
0
100
AcDbSpline
70
4
71
3
72
12
73
8
40
0
40
0
40
0
40
0
40
0.499999999999987
40
0.499999999999987
40
0.749999999999994
40
0.749999999999994
40
1
40
1
40
1
40
1
41
1
10
73.0000134763926
20
0.845869917247798
30
0
41
1
10
73.2428003671632
20
0.839825110888063
30
0
41
1
10
73.4832877119903
20
0.838007047209176
30
0
41
1
10
73.8405709054569
20
0.841588235531822
30
0
41
1
10
73.9591727376205
20
0.843837135994663
30
0
41
1
10
74.1946734051471
20
0.850425958898497
30
0
41
1
10
74.311597112012
20
0.854764389089026
30
0
41
1
10
74.427702521341
20
0.860139275865302
30
0
0
SPLINE
5
20F
100
AcDbEntity
8
1
62
256
6
ByLayer
370
18
48
1
60
0
100
AcDbSpline
70
4
71
3
72
16
73
12
40
0
40
0
40
0
40
0
40
0.0625000000000008
40
0.0625000000000008
40
0.125000000000002
40
0.125000000000002
40
0.250000000000003
40
0.250000000000003
40
0.500000000000003
40
0.500000000000003
40
1
40
1
40
1
40
1
41
1
10
41.8960355407219
20
-15.8540125681099
30
0
41
1
10
41.9605970359599
20
-15.7528023798201
30
0
41
1
10
42.0264172372454
20
-15.6523436506287
30
0
41
1
10
42.160571014167
20
-15.4529015797812
30
0
41
1
10
42.2289607989807
20
-15.3538412368035
30
0
41
1
10
42.4372581503844
20
-15.0597135114399
30
0
41
1
10
42.5803994510024
20
-14.8675240761111
30
0
41
1
10
43.0221662823469
20
-14.3019912529398
30
0
41
1
10
43.3331317444934
20
-13.9396793751951
30
0
41
1
10
44.3116000170671
20
-12.8918038382383
30
0
41
1
10
45.024668199694
20
-12.2453041443628
30
0
41
1
10
45.7887588661086
20
-11.6377953071338
30
0
0
INSERT
5
21F
100
AcDbEntity
8
SK2
62
256
6
ByLayer
370
18
48
1
60
0
100
AcDbBlockReference
2
LABLE3D_1
10
0
20
0
30
0
41
1
42
1
43
1
50
0
210
0
220
0
230
1
0
LINE
5
70
100
AcDbEntity
8
1
62
256
6
ByLayer
370
18
48
1
60
0
100
AcDbLine
10
45.000019
20
30.5
30
0
11
45.196045
21
30.696026
31
0
39
0
210
0
220
0
230
1
0
LINE
5
72
100
AcDbEntity
8
1
62
256
6
ByLayer
370
18
48
1
60
0
100
AcDbLine
10
84.803993
20
30.696026
30
0
11
85.000019
21
30.5
31
0
39
0
210
0
220
0
230
1
0
LINE
5
73
100
AcDbEntity
8
1
62
256
6
ByLayer
370
18
48
1
60
0
100
AcDbLine
10
61.217092
20
30.780962
30
0
11
63.318639
21
30.780962
31
0
39
0
210
0
220
0
230
1
0
LINE
5
74
100
AcDbEntity
8
1
62
256
6
ByLayer
370
18
48
1
60
0
100
AcDbLine
10
66.6814
20
30.780962
30
0
11
68.782946
21
30.780962
31
0
39
0
210
0
220
0
230
1
0
LINE
5
75
100
AcDbEntity
8
1
62
256
6
ByLayer
370
18
48
1
60
0
100
AcDbLine
10
63.108052
20
31.425
30
0
11
66.891986
21
31.425
31
0
39
0
210
0
220
0
230
1
0
LINE
5
76
100
AcDbEntity
8
1
62
256
6
ByLayer
370
18
48
1
60
0
100
AcDbLine
10
56.626318
20
30.780962
30
0
11
57.285182
21
30.780962
31
0
39
0
210
0
220
0
230
1
0
LINE
5
77
100
AcDbEntity
8
1
62
256
6
ByLayer
370
18
48
1
60
0
100
AcDbLine
10
72.714856
20
30.780962
30
0
11
73.37372
21
30.780962
31
0
39
0
210
0
220
0
230
1
0
LINE
5
78
100
AcDbEntity
8
1
62
256
6
ByLayer
370
18
48
1
60
0
100
AcDbLine
10
57.366386
20
31.425
30
0
11
60.428362
21
31.425
31
0
39
0
210
0
220
0
230
1
0
LINE
5
79
100
AcDbEntity
8
1
62
256
6
ByLayer
370
18
48
1
60
0
100
AcDbLine
10
69.571676
20
31.425
30
0
11
72.633652
21
31.425
31
0
39
0
210
0
220
0
230
1
0
LINE
5
7A
100
AcDbEntity
8
1
62
256
6
ByLayer
370
18
48
1
60
0
100
AcDbLine
10
53.980618
20
30.780962
30
0
11
54.430706
21
30.780962
31
0
39
0
210
0
220
0
230
1
0
LINE
5
7B
100
AcDbEntity
8
1
62
256
6
ByLayer
370
18
48
1
60
0
100
AcDbLine
10
75.569332
20
30.780962
30
0
11
76.01942
21
30.780962
31
0
39
0
210
0
220
0
230
1
0
LINE
5
7C
100
AcDbEntity
8
1
62
256
6
ByLayer
370
18
48
1
60
0
100
AcDbLine
10
54.585357
20
31.425
30
0
11
56.385657
21
31.425
31
0
39
0
210
0
220
0
230
1
0
LINE
5
7D
100
AcDbEntity
8
1
62
256
6
ByLayer
370
18
48
1
60
0
100
AcDbLine
10
73.614381
20
31.425
30
0
11
75.414681
21
31.425
31
0
39
0
210
0
220
0
230
1
0
LINE
5
7E
100
AcDbEntity
8
1
62
256
6
ByLayer
370
18
48
1
60
0
100
AcDbLine
10
52.029456
20
30.780962
30
0
11
52.374566
21
30.780962
31
0
39
0
210
0
220
0
230
1
0
LINE
5
7F
100
AcDbEntity
8
1
62
256
6
ByLayer
370
18
48
1
60
0
100
AcDbLine
10
77.625472
20
30.780962
30
0
11
77.970583
21
30.780962
31
0
39
0
210
0
220
0
230
1
0
LINE
5
80
100
AcDbEntity
8
1
62
256
6
ByLayer
370
18
48
1
60
0
100
AcDbLine
10
52.583981
20
31.425
30
0
11
53.908833
21
31.425
31
0
39
0
210
0
220
0
230
1
0
LINE
5
81
100
AcDbEntity
8
1
62
256
6
ByLayer
370
18
48
1
60
0
100
AcDbLine
10
76.091205
20
31.425
30
0
11
77.416057
21
31.425
31
0
39
0
210
0
220
0
230
1
0
LINE
5
82
100
AcDbEntity
8
1
62
256
6
ByLayer
370
18
48
1
60
0
100
AcDbLine
10
77.935304
20
31.425
30
0
11
78.976815
21
31.425
31
0
39
0
210
0
220
0
230
1
0
LINE
5
83
100
AcDbEntity
8
1
62
256
6
ByLayer
370
18
48
1
60
0
100
AcDbLine
10
51.023223
20
31.425
30
0
11
52.064735
21
31.425
31
0
39
0
210
0
220
0
230
1
0
LINE
5
84
100
AcDbEntity
8
1
62
256
6
ByLayer
370
18
48
1
60
0
100
AcDbLine
10
50.48989
20
30.780962
30
0
11
50.766477
21
30.780962
31
0
39
0
210
0
220
0
230
1
0
LINE
5
85
100
AcDbEntity
8
1
62
256
6
ByLayer
370
18
48
1
60
0
100
AcDbLine
10
79.233562
20
30.780962
30
0
11
79.510148
21
30.780962
31
0
39
0
210
0
220
0
230
1
0
LINE
5
86
100
AcDbEntity
8
1
62
256
6
ByLayer
370
18
48
1
60
0
100
AcDbLine
10
80.533383
20
30.780962
30
0
11
80.759212
21
30.780962
31
0
39
0
210
0
220
0
230
1
0
LINE
5
87
100
AcDbEntity
8
1
62
256
6
ByLayer
370
18
48
1
60
0
100
AcDbLine
10
49.240826
20
30.780962
30
0
11
49.466655
21
30.780962
31
0
39
0
210
0
220
0
230
1
0
LINE
5
88
100
AcDbEntity
8
1
62
256
6
ByLayer
370
18
48
1
60
0
100
AcDbLine
10
49.76704
20
31.425
30
0
11
50.60805
21
31.425
31
0
39
0
210
0
220
0
230
1
0
LINE
5
89
100
AcDbEntity
8
1
62
256
6
ByLayer
370
18
48
1
60
0
100
AcDbLine
10
79.391988
20
31.425
30
0
11
80.232998
21
31.425
31
0
39
0
210
0
220
0
230
1
0
LINE
5
8A
100
AcDbEntity
8
1
62
256
6
ByLayer
370
18
48
1
60
0
100
AcDbLine
10
48.217275
20
30.780962
30
0
11
48.402517
21
30.780962
31
0
39
0
210
0
220
0
230
1
0
LINE
5
8B
100
AcDbEntity
8
1
62
256
6
ByLayer
370
18
48
1
60
0
100
AcDbLine
10
81.597521
20
30.780962
30
0
11
81.782763
21
30.780962
31
0
39
0
210
0
220
0
230
1
0
LINE
5
8C
100
AcDbEntity
8
1
62
256
6
ByLayer
370
18
48
1
60
0
100
AcDbLine
10
80.570374
20
31.425
30
0
11
81.255371
21
31.425
31
0
39
0
210
0
220
0
230
1
0
LINE
5
8D
100
AcDbEntity
8
1
62
256
6
ByLayer
370
18
48
1
60
0
100
AcDbLine
10
48.744667
20
31.425
30
0
11
49.429664
21
31.425
31
0
39
0
210
0
220
0
230
1
0
LINE
5
8E
100
AcDbEntity
8
1
62
256
6
ByLayer
370
18
48
1
60
0
100
AcDbLine
10
80.385097
20
31.5
30
0
11
81.246775
21
31.5
31
0
39
0
210
0
220
0
230
1
0
LINE
5
8F
100
AcDbEntity
8
1
62
256
6
ByLayer
370
18
48
1
60
0
100
AcDbLine
10
48.753263
20
31.5
30
0
11
49.614942
21
31.5
31
0
39
0
210
0
220
0
230
1
0
LINE
5
90
100
AcDbEntity
8
1
62
256
6
ByLayer
370
18
48
1
60
0
100
AcDbLine
10
82.469099
20
30.780962
30
0
11
82.620145
21
30.780962
31
0
39
0
210
0
220
0
230
1
0
LINE
5
91
100
AcDbEntity
8
1
62
256
6
ByLayer
370
18
48
1
60
0
100
AcDbLine
10
47.379893
20
30.780962
30
0
11
47.530939
21
30.780962
31
0
39
0
210
0
220
0
230
1
0
LINE
5
92
100
AcDbEntity
8
1
62
256
6
ByLayer
370
18
48
1
60
0
100
AcDbLine
10
47.914081
20
31.425
30
0
11
48.469952
21
31.425
31
0
39
0
210
0
220
0
230
1
0
LINE
5
93
100
AcDbEntity
8
1
62
256
6
ByLayer
370
18
48
1
60
0
100
AcDbLine
10
81.530086
20
31.425
30
0
11
82.085957
21
31.425
31
0
39
0
210
0
220
0
230
1
0
LINE
5
94
100
AcDbEntity
8
1
62
256
6
ByLayer
370
18
48
1
60
0
100
AcDbLine
10
81.367594
20
31.5
30
0
11
82.066366
21
31.5
31
0
39
0
210
0
220
0
230
1
0
LINE
5
95
100
AcDbEntity
8
1
62
256
6
ByLayer
370
18
48
1
60
0
100
AcDbLine
10
47.933672
20
31.5
30
0
11
48.632444
21
31.5
31
0
39
0
210
0
220
0
230
1
0
LINE
5
96
100
AcDbEntity
8
1
62
256
6
ByLayer
370
18
48
1
60
0
100
AcDbLine
10
83.175839
20
30.780962
30
0
11
83.296936
21
30.780962
31
0
39
0
210
0
220
0
230
1
0
LINE
5
97
100
AcDbEntity
8
1
62
256
6
ByLayer
370
18
48
1
60
0
100
AcDbLine
10
46.703103
20
30.780962
30
0
11
46.824199
21
30.780962
31
0
39
0
210
0
220
0
230
1
0
LINE
5
98
100
AcDbEntity
8
1
62
256
6
ByLayer
370
18
48
1
60
0
100
AcDbLine
10
47.24834
20
31.425
30
0
11
47.692497
21
31.425
31
0
39
0
210
0
220
0
230
1
0
LINE
5
99
100
AcDbEntity
8
1
62
256
6
ByLayer
370
18
48
1
60
0
100
AcDbLine
10
82.307541
20
31.425
30
0
11
82.751698
21
31.425
31
0
39
0
210
0
220
0
230
1
0
LINE
5
9A
100
AcDbEntity
8
1
62
256
6
ByLayer
370
18
48
1
60
0
100
AcDbLine
10
47.278188
20
31.5
30
0
11
47.836267
21
31.5
31
0
39
0
210
0
220
0
230
1
0
LINE
5
9B
100
AcDbEntity
8
1
62
256
6
ByLayer
370
18
48
1
60
0
100
AcDbLine
10
82.163771
20
31.5
30
0
11
82.72185
21
31.5
31
0
39
0
210
0
220
0
230
1
0
LINE
5
9C
100
AcDbEntity
8
1
62
256
6
ByLayer
370
18
48
1
60
0
100
AcDbLine
10
46.169579
20
30.780962
30
0
11
46.263635
21
30.780962
31
0
39
0
210
0
220
0
230
1
0
LINE
5
9D
100
AcDbEntity
8
1
62
256
6
ByLayer
370
18
48
1
60
0
100
AcDbLine
10
83.736403
20
30.780962
30
0
11
83.830459
21
30.780962
31
0
39
0
210
0
220
0
230
1
0
LINE
5
9E
100
AcDbEntity
8
1
62
256
6
ByLayer
370
18
48
1
60
0
100
AcDbLine
10
82.926466
20
31.425
30
0
11
83.270622
21
31.425
31
0
39
0
210
0
220
0
230
1
0
LINE
5
9F
100
AcDbEntity
8
1
62
256
6
ByLayer
370
18
48
1
60
0
100
AcDbLine
10
46.729416
20
31.425
30
0
11
47.073573
21
31.425
31
0
39
0
210
0
220
0
230
1
0
LINE
5
A0
100
AcDbEntity
8
1
62
256
6
ByLayer
370
18
48
1
60
0
100
AcDbLine
10
82.798651
20
31.5
30
0
11
83.230938
21
31.5
31
0
39
0
210
0
220
0
230
1
0
LINE
5
A1
100
AcDbEntity
8
1
62
256
6
ByLayer
370
18
48
1
60
0
100
AcDbLine
10
46.7691
20
31.5
30
0
11
47.201388
21
31.5
31
0
39
0
210
0
220
0
230
1
0
LINE
5
A2
100
AcDbEntity
8
1
62
256
6
ByLayer
370
18
48
1
60
0
100
AcDbLine
10
45.767396
20
30.780962
30
0
11
45.836414
21
30.780962
31
0
39
0
210
0
220
0
230
1
0
LINE
5
A3
100
AcDbEntity
8
1
62
256
6
ByLayer
370
18
48
1
60
0
100
AcDbLine
10
84.163624
20
30.780962
30
0
11
84.232643
21
30.780962
31
0
39
0
210
0
220
0
230
1
0
LINE
5
A4
100
AcDbEntity
8
1
62
256
6
ByLayer
370
18
48
1
60
0
100
AcDbLine
10
83.402863
20
31.425
30
0
11
83.654985
21
31.425
31
0
39
0
210
0
220
0
230
1
0
LINE
5
A5
100
AcDbEntity
8
1
62
256
6
ByLayer
370
18
48
1
60
0
100
AcDbLine
10
46.345053
20
31.425
30
0
11
46.597175
21
31.425
31
0
39
0
210
0
220
0
230
1
0
LINE
5
A6
100
AcDbEntity
8
1
62
256
6
ByLayer
370
18
48
1
60
0
100
AcDbLine
10
83.289037
20
31.5
30
0
11
83.60565
21
31.5
31
0
39
0
210
0
220
0
230
1
0
LINE
5
A7
100
AcDbEntity
8
1
62
256
6
ByLayer
370
18
48
1
60
0
100
AcDbLine
10
46.394388
20
31.5
30
0
11
46.711001
21
31.5
31
0
39
0
210
0
220
0
230
1
0
LINE
5
A8
100
AcDbEntity
8
1
62
256
6
ByLayer
370
18
48
1
60
0
100
AcDbLine
10
84.466283
20
30.780962
30
0
11
84.511609
21
30.780962
31
0
39
0
210
0
220
0
230
1
0
LINE
5
A9
100
AcDbEntity
8
1
62
256
6
ByLayer
370
18
48
1
60
0
100
AcDbLine
10
45.488429
20
30.780962
30
0
11
45.533755
21
30.780962
31
0
39
0
210
0
220
0
230
1
0
LINE
5
AA
100
AcDbEntity
8
1
62
256
6
ByLayer
370
18
48
1
60
0
100
AcDbLine
10
83.747601
20
31.425
30
0
11
83.912992
21
31.425
31
0
39
0
210
0
220
0
230
1
0
LINE
5
AB
100
AcDbEntity
8
1
62
256
6
ByLayer
370
18
48
1
60
0
100
AcDbLine
10
46.087046
20
31.425
30
0
11
46.252437
21
31.425
31
0
39
0
210
0
220
0
230
1
0
LINE
5
AC
100
AcDbEntity
8
1
62
256
6
ByLayer
370
18
48
1
60
0
100
AcDbLine
10
83.646334
20
31.5
30
0
11
83.854001
21
31.5
31
0
39
0
210
0
220
0
230
1
0
LINE
5
AD
100
AcDbEntity
8
1
62
256
6
ByLayer
370
18
48
1
60
0
100
AcDbLine
10
46.146037
20
31.5
30
0
11
46.353704
21
31.5
31
0
39
0
210
0
220
0
230
1
0
LINE
5
AE
100
AcDbEntity
8
1
62
256
6
ByLayer
370
18
48
1
60
0
100
AcDbLine
10
84.650137
20
30.780962
30
0
11
84.672601
21
30.780962
31
0
39
0
210
0
220
0
230
1
0
LINE
5
AF
100
AcDbEntity
8
1
62
256
6
ByLayer
370
18
48
1
60
0
100
AcDbLine
10
45.327438
20
30.780962
30
0
11
45.349902
21
30.780962
31
0
39
0
210
0
220
0
230
1
0
LINE
5
B0
100
AcDbEntity
8
1
62
256
6
ByLayer
370
18
48
1
60
0
100
AcDbLine
10
83.967861
20
31.425
30
0
11
84.04978
21
31.425
31
0
39
0
210
0
220
0
230
1
0
LINE
5
B1
100
AcDbEntity
8
1
62
256
6
ByLayer
370
18
48
1
60
0
100
AcDbLine
10
45.950258
20
31.425
30
0
11
46.032177
21
31.425
31
0
39
0
210
0
220
0
230
1
0
LINE
5
B2
100
AcDbEntity
8
1
62
256
6
ByLayer
370
18
48
1
60
0
100
AcDbLine
10
46.019088
20
31.5
30
0
11
46.121938
21
31.5
31
0
39
0
210
0
220
0
230
1
0
LINE
5
B3
100
AcDbEntity
8
1
62
256
6
ByLayer
370
18
48
1
60
0
100
AcDbLine
10
83.8781
20
31.5
30
0
11
83.98095
21
31.5
31
0
39
0
210
0
220
0
230
1
0
LINE
5
B4
100
AcDbEntity
8
1
62
256
6
ByLayer
370
18
48
1
60
0
100
AcDbLine
10
85.195981
20
30.695962
30
0
11
85.197826
21
30.697791
31
0
39
0
210
0
220
0
230
1
0
LINE
5
B5
100
AcDbEntity
8
1
62
256
6
ByLayer
370
18
48
1
60
0
100
AcDbLine
10
85.000019
20
30.5
30
0
11
45.000019
21
30.5
31
0
39
0
210
0
220
0
230
1
0
LINE
5
B6
100
AcDbEntity
8
1
62
256
6
ByLayer
370
18
48
1
60
0
100
AcDbLine
10
59.600519
20
42.175481
30
0
11
50.600519
21
42.175481
31
0
39
0
210
0
220
0
230
1
0
LINE
5
B7
100
AcDbEntity
8
1
62
256
6
ByLayer
370
18
48
1
60
0
100
AcDbLine
10
60.100519
20
41.675481
30
0
11
50.100519
21
41.675481
31
0
39
0
210
0
220
0
230
1
0
LINE
5
B8
100
AcDbEntity
8
1
62
256
6
ByLayer
370
18
48
1
60
0
100
AcDbLine
10
79.899519
20
41.675481
30
0
11
69.899519
21
41.675481
31
0
39
0
210
0
220
0
230
1
0
LINE
5
B9
100
AcDbEntity
8
1
62
256
6
ByLayer
370
18
48
1
60
0
100
AcDbLine
10
60.100519
20
36.175481
30
0
11
50.100519
21
36.175481
31
0
39
0
210
0
220
0
230
1
0
LINE
5
BA
100
AcDbEntity
8
1
62
256
6
ByLayer
370
18
48
1
60
0
100
AcDbLine
10
79.899519
20
36.175481
30
0
11
69.899519
21
36.175481
31
0
39
0
210
0
220
0
230
1
0
LINE
5
BB
100
AcDbEntity
8
1
62
256
6
ByLayer
370
18
48
1
60
0
100
AcDbLine
10
79.399519
20
42.175481
30
0
11
70.399519
21
42.175481
31
0
39
0
210
0
220
0
230
1
0
LINE
5
BC
100
AcDbEntity
8
1
62
256
6
ByLayer
370
18
48
1
60
0
100
AcDbLine
10
80.236619
20
31.5
30
0
11
49.763419
21
31.5
31
0
39
0
210
0
220
0
230
1
0
LINE
5
BD
100
AcDbEntity
8
1
62
256
6
ByLayer
370
18
48
1
60
0
100
AcDbLine
10
79.899519
20
41.675481
30
0
11
79.399519
21
42.175481
31
0
39
0
210
0
220
0
230
1
0
LINE
5
BE
100
AcDbEntity
8
1
62
256
6
ByLayer
370
18
48
1
60
0
100
AcDbLine
10
60.100519
20
41.675481
30
0
11
59.600519
21
42.175481
31
0
39
0
210
0
220
0
230
1
0
LINE
5
BF
100
AcDbEntity
8
1
62
256
6
ByLayer
370
18
48
1
60
0
100
AcDbLine
10
77.899519
20
31.5
30
0
11
77.899519
21
36.175481
31
0
39
0
210
0
220
0
230
1
0
LINE
5
C0
100
AcDbEntity
8
1
62
256
6
ByLayer
370
18
48
1
60
0
100
AcDbLine
10
79.899519
20
36.175481
30
0
11
79.899519
21
41.675481
31
0
39
0
210
0
220
0
230
1
0
LINE
5
C1
100
AcDbEntity
8
1
62
256
6
ByLayer
370
18
48
1
60
0
100
AcDbLine
10
69.899519
20
36.175481
30
0
11
69.899519
21
41.675481
31
0
39
0
210
0
220
0
230
1
0
LINE
5
C2
100
AcDbEntity
8
1
62
256
6
ByLayer
370
18
48
1
60
0
100
AcDbLine
10
52.100519
20
31.5
30
0
11
52.100519
21
36.175481
31
0
39
0
210
0
220
0
230
1
0
LINE
5
C3
100
AcDbEntity
8
1
62
256
6
ByLayer
370
18
48
1
60
0
100
AcDbLine
10
58.100519
20
31.5
30
0
11
58.100519
21
36.175481
31
0
39
0
210
0
220
0
230
1
0
LINE
5
C4
100
AcDbEntity
8
1
62
256
6
ByLayer
370
18
48
1
60
0
100
AcDbLine
10
60.100519
20
36.175481
30
0
11
60.100519
21
41.675481
31
0
39
0
210
0
220
0
230
1
0
LINE
5
C5
100
AcDbEntity
8
1
62
256
6
ByLayer
370
18
48
1
60
0
100
AcDbLine
10
50.100519
20
36.175481
30
0
11
50.100519
21
41.675481
31
0
39
0
210
0
220
0
230
1
0
LINE
5
C6
100
AcDbEntity
8
1
62
256
6
ByLayer
370
18
48
1
60
0
100
AcDbLine
10
71.899519
20
31.5
30
0
11
71.899519
21
36.175481
31
0
39
0
210
0
220
0
230
1
0
LINE
5
C7
100
AcDbEntity
8
1
62
256
6
ByLayer
370
18
48
1
60
0
100
AcDbLine
10
69.899519
20
41.675481
30
0
11
70.399519
21
42.175481
31
0
39
0
210
0
220
0
230
1
0
LINE
5
C8
100
AcDbEntity
8
1
62
256
6
ByLayer
370
18
48
1
60
0
100
AcDbLine
10
50.100519
20
41.675481
30
0
11
50.600519
21
42.175481
31
0
39
0
210
0
220
0
230
1
0
LINE
5
C9
100
AcDbEntity
8
1
62
256
6
ByLayer
370
18
48
1
60
0
100
AcDbLine
10
80.236619
20
31
30
0
11
49.763419
21
31
31
0
39
0
210
0
220
0
230
1
0
LINE
5
CA
100
AcDbEntity
8
81
62
256
6
ByLayer
370
18
48
1
60
0
100
AcDbLine
10
65.000019
20
31
30
0
11
65.000019
21
36
31
0
39
0
210
0
220
0
230
1
0
LINE
5
CB
100
AcDbEntity
8
4
62
256
6
ByLayer
370
13
48
0.05
60
1
100
AcDbLine
10
0
20
0
30
0
11
77.824519
21
0
31
0
39
0
210
0
220
0
230
1
0
LINE
5
CD
100
AcDbEntity
8
SK4
62
256
6
ByLayer
370
13
48
0.05
60
1
100
AcDbLine
10
80.714379
20
0
30
0
11
-64.400434
21
0
31
0
39
0
210
0
220
0
230
1
0
LINE
5
CF
100
AcDbEntity
8
SK4
62
256
6
ByLayer
370
13
48
0.05
60
1
100
AcDbLine
10
64.471422
20
-100
30
0
11
-50.689899
21
-100
31
0
39
0
210
0
220
0
230
1
0
LINE
5
D0
100
AcDbEntity
8
4
62
256
6
ByLayer
370
13
48
0.05
60
1
100
AcDbLine
10
0
20
-100
30
0
11
61.824519
21
-100
31
0
39
0
210
0
220
0
230
1
0
LINE
5
D1
100
AcDbEntity
8
1
62
256
6
ByLayer
370
18
48
0.05
60
1
100
AcDbLine
10
42.000888
20
-36.75
30
0
11
42.000888
21
26.25
31
0
39
0
210
0
220
0
230
1
0
LINE
5
D2
100
AcDbEntity
8
1
62
256
6
ByLayer
370
18
48
0.05
60
1
100
AcDbLine
10
48.222152
20
-167
30
0
11
57.5
21
-167
31
0
39
0
210
0
220
0
230
1
0
LINE
5
D3
100
AcDbEntity
8
1
62
256
6
ByLayer
370
18
48
0.05
60
1
100
AcDbLine
10
43.159999
20
-227.139417
30
0
11
46.538995
21
-239.75
31
0
39
0
210
0
220
0
230
1
0
LINE
5
D4
100
AcDbEntity
8
1
62
256
6
ByLayer
370
18
48
0.05
60
1
100
AcDbLine
10
46.538154
20
-160.25
30
0
11
43.159159
21
-172.860583
31
0
39
0
210
0
220
0
230
1
0
LINE
5
D5
100
AcDbEntity
8
1
62
256
6
ByLayer
370
18
48
0.05
60
1
100
AcDbLine
10
46.537314
20
-155
30
0
11
65
21
-155
31
0
39
0
210
0
220
0
230
1
0
LINE
5
D6
100
AcDbEntity
8
1
62
256
6
ByLayer
370
18
48
0.05
60
1
100
AcDbLine
10
57.533923
20
-233
30
0
11
48.256075
21
-233
31
0
39
0
210
0
220
0
230
1
0
LINE
5
D7
100
AcDbEntity
8
1
62
256
6
ByLayer
370
18
48
0.05
60
1
100
AcDbLine
10
46.537971
20
-245
30
0
11
49.216806
21
-245
31
0
39
0
210
0
220
0
230
1
0
LINE
5
D8
100
AcDbEntity
8
1
62
256
6
ByLayer
370
18
48
0.05
60
1
100
AcDbLine
10
43.159159
20
-172.860583
30
0
11
43.159159
21
-237.639417
31
0
39
0
210
0
220
0
230
1
0
LINE
5
D9
100
AcDbEntity
8
1
62
256
6
ByLayer
370
18
48
0.05
60
1
100
AcDbLine
10
47.631403
20
-245
30
0
11
56
21
-245
31
0
39
0
210
0
220
0
230
1
0
LINE
5
DA
100
AcDbEntity
8
SK4
62
256
6
ByLayer
370
13
48
0.05
60
1
100
AcDbLine
10
-40
20
-200
30
0
11
72.854768
21
-200
31
0
39
0
210
0
220
0
230
1
0
LINE
5
DB
100
AcDbEntity
8
4
62
256
6
ByLayer
370
13
48
0.05
60
1
100
AcDbLine
10
3.033923
20
-200
30
0
11
48.033923
21
-200
31
0
39
0
210
0
220
0
230
1
0
LINE
5
DC
100
AcDbEntity
8
SK3
62
256
6
ByLayer
370
13
48
0.05
60
0
100
AcDbLine
10
5.000013
20
-26.5
30
0
11
26.000013
21
-26.5
31
0
39
0
210
0
220
0
230
1
0
LINE
5
DE
100
AcDbEntity
8
SK3
62
256
6
ByLayer
370
13
48
0.05
60
0
100
AcDbLine
10
5.000013
20
26.5
30
0
11
26.000013
21
26.5
31
0
39
0
210
0
220
0
230
1
0
LINE
5
DF
100
AcDbEntity
8
1
62
256
6
ByLayer
370
18
48
1
60
0
100
AcDbLine
10
1.3E-05
20
-31
30
0
11
1.3E-05
21
31
31
0
39
0
210
0
220
0
230
1
0
LINE
5
E0
100
AcDbEntity
8
1
62
256
6
ByLayer
370
18
48
1
60
0
100
AcDbLine
10
26.000013
20
-31
30
0
11
26.000013
21
0
31
0
39
0
210
0
220
0
230
1
0
LINE
5
E1
100
AcDbEntity
8
SK1
62
256
6
ByLayer
370
18
48
1
60
0
100
AcDbLine
10
-0.495072
20
24.015
30
0
11
-1.253571
21
24.015
31
0
39
0
210
0
220
0
230
1
0
LINE
5
E3
100
AcDbEntity
8
SK1
62
256
6
ByLayer
370
18
48
1
60
0
100
AcDbLine
10
-1.253571
20
24.015
30
0
11
-1.999981
21
24.215
31
0
39
0
210
0
220
0
230
1
0
LINE
5
E4
100
AcDbEntity
8
SK1
62
256
6
ByLayer
370
18
48
1
60
0
100
AcDbLine
10
-31.999987
20
-21.573501
30
0
11
-31.999987
21
0
31
0
39
0
210
0
220
0
230
1
0
LINE
5
E5
100
AcDbEntity
8
SK1
62
256
6
ByLayer
370
18
48
1
60
0
100
AcDbLine
10
-1.999981
20
-24.215
30
0
11
-1.999981
21
24.215
31
0
39
0
210
0
220
0
230
1
0
LINE
5
E6
100
AcDbEntity
8
SK1
62
256
6
ByLayer
370
13
48
0.05
60
0
100
AcDbLine
10
-6.299987
20
-25.90625
30
0
11
-6.299987
21
25.385071
31
0
39
0
210
0
220
0
230
1
0
LINE
5
E7
100
AcDbEntity
8
SK1
62
256
6
ByLayer
370
18
48
1
60
0
100
AcDbLine
10
-1.999981
20
24.215
30
0
11
-6.299987
21
24
31
0
39
0
210
0
220
0
230
1
0
LINE
5
E8
100
AcDbEntity
8
SK1
62
256
6
ByLayer
370
18
48
1
60
0
100
AcDbLine
10
-0.495072
20
-24.015
30
0
11
-1.253571
21
-24.015
31
0
39
0
210
0
220
0
230
1
0
LINE
5
E9
100
AcDbEntity
8
SK1
62
256
6
ByLayer
370
18
48
1
60
0
100
AcDbLine
10
-1.253571
20
-24.015
30
0
11
-1.999981
21
-24.215
31
0
39
0
210
0
220
0
230
1
0
LINE
5
EA
100
AcDbEntity
8
SK1
62
256
6
ByLayer
370
18
48
1
60
0
100
AcDbLine
10
-1.999981
20
-24.215
30
0
11
-6.299987
21
-24
31
0
39
0
210
0
220
0
230
1
0
LINE
5
EB
100
AcDbEntity
8
SK1
62
256
6
ByLayer
370
18
48
1
60
0
100
AcDbLine
10
-6.299987
20
24
30
0
11
-30.859912
21
22.772004
31
0
39
0
210
0
220
0
230
1
0
LINE
5
EC
100
AcDbEntity
8
SK1
62
256
6
ByLayer
370
18
48
1
60
0
100
AcDbLine
10
-6.299987
20
-24
30
0
11
-30.859912
21
-22.772004
31
0
39
0
210
0
220
0
230
1
0
LINE
5
ED
100
AcDbEntity
8
1
62
256
6
ByLayer
370
18
48
1
60
0
100
AcDbLine
10
0.500013
20
31.5
30
0
11
14.625401
21
31.5
31
0
39
0
210
0
220
0
230
1
0
LINE
5
EE
100
AcDbEntity
8
1
62
256
6
ByLayer
370
18
48
1
60
0
100
AcDbLine
10
14.622514
20
-31.5
30
0
11
0.500013
21
-31.5
31
0
39
0
210
0
220
0
230
1
0
LINE
5
EF
100
AcDbEntity
8
1
62
256
6
ByLayer
370
18
48
1
60
0
100
AcDbLine
10
14.608081
20
-31.5
30
0
11
14.377513
21
-31.5
31
0
39
0
210
0
220
0
230
1
0
LINE
5
F0
100
AcDbEntity
8
1
62
256
6
ByLayer
370
18
48
1
60
0
100
AcDbLine
10
25.500013
20
31.5
30
0
11
21.374626
21
31.5
31
0
39
0
210
0
220
0
230
1
0
LINE
5
F1
100
AcDbEntity
8
SK1
62
256
6
ByLayer
370
18
48
1
60
0
100
AcDbLine
10
-31.999987
20
21.573501
30
0
11
-31.999987
21
0
31
0
39
0
210
0
220
0
230
1
0
LINE
5
F2
100
AcDbEntity
8
1
62
256
6
ByLayer
370
18
48
1
60
0
100
AcDbLine
10
14.625401
20
31.47
30
0
11
16.085013
21
28.941877
31
0
39
0
210
0
220
0
230
1
0
LINE
5
F3
100
AcDbEntity
8
1
62
256
6
ByLayer
370
18
48
1
60
0
100
AcDbLine
10
16.085013
20
28.941877
30
0
11
16.085013
21
0
31
0
39
0
210
0
220
0
230
1
0
LINE
5
F4
100
AcDbEntity
8
1
62
256
6
ByLayer
370
18
48
1
60
0
100
AcDbLine
10
16.485013
20
27.475
30
0
11
19.515013
21
27.475
31
0
39
0
210
0
220
0
230
1
0
LINE
5
F5
100
AcDbEntity
8
1
62
256
6
ByLayer
370
18
48
1
60
0
100
AcDbLine
10
19.915013
20
0
30
0
11
19.915013
21
28.941877
31
0
39
0
210
0
220
0
230
1
0
LINE
5
F6
100
AcDbEntity
8
1
62
256
6
ByLayer
370
18
48
1
60
0
100
AcDbLine
10
19.915013
20
28.941877
30
0
11
21.374626
21
31.47
31
0
39
0
210
0
220
0
230
1
0
LINE
5
F7
100
AcDbEntity
8
1
62
256
6
ByLayer
370
18
48
1
60
0
100
AcDbLine
10
21.374626
20
31.5
30
0
11
21.374626
21
24.420041
31
0
39
0
210
0
220
0
230
1
0
LINE
5
F8
100
AcDbEntity
8
1
62
256
6
ByLayer
370
18
48
1
60
0
100
AcDbLine
10
14.625401
20
31.5
30
0
11
14.625401
21
24.420041
31
0
39
0
210
0
220
0
230
1
0
LINE
5
F9
100
AcDbEntity
8
1
62
256
6
ByLayer
370
18
48
1
60
0
100
AcDbLine
10
25.350013
20
24.420041
30
0
11
25.850013
21
23.920041
31
0
39
0
210
0
220
0
230
1
0
LINE
5
FA
100
AcDbEntity
8
1
62
256
6
ByLayer
370
18
48
1
60
0
100
AcDbLine
10
0.500013
20
31.5
30
0
11
1.3E-05
21
31
31
0
39
0
210
0
220
0
230
1
0
LINE
5
FB
100
AcDbEntity
8
1
62
256
6
ByLayer
370
18
48
1
60
0
100
AcDbLine
10
25.500013
20
31.5
30
0
11
26.000013
21
31
31
0
39
0
210
0
220
0
230
1
0
LINE
5
FC
100
AcDbEntity
8
1
62
256
6
ByLayer
370
18
48
1
60
0
100
AcDbLine
10
0.500013
20
-31.5
30
0
11
1.3E-05
21
-31
31
0
39
0
210
0
220
0
230
1
0
LINE
5
FD
100
AcDbEntity
8
1
62
256
6
ByLayer
370
18
48
1
60
0
100
AcDbLine
10
21.374626
20
-31.47
30
0
11
21.374626
21
19.85
31
0
39
0
210
0
220
0
230
1
0
LINE
5
FE
100
AcDbEntity
8
1
62
256
6
ByLayer
370
18
48
1
60
0
100
AcDbLine
10
19.915013
20
0
30
0
11
19.915013
21
-28.941877
31
0
39
0
210
0
220
0
230
1
0
LINE
5
FF
100
AcDbEntity
8
1
62
256
6
ByLayer
370
18
48
1
60
0
100
AcDbLine
10
16.085013
20
-28.941877
30
0
11
16.085013
21
0
31
0
39
0
210
0
220
0
230
1
0
LINE
5
100
100
AcDbEntity
8
1
62
256
6
ByLayer
370
18
48
1
60
0
100
AcDbLine
10
14.625401
20
-31.47
30
0
11
14.625401
21
19.85
31
0
39
0
210
0
220
0
230
1
0
LINE
5
101
100
AcDbEntity
8
1
62
256
6
ByLayer
370
18
48
1
60
0
100
AcDbLine
10
19.915013
20
-28.941877
30
0
11
21.374626
21
-31.47
31
0
39
0
210
0
220
0
230
1
0
LINE
5
102
100
AcDbEntity
8
1
62
256
6
ByLayer
370
18
48
1
60
0
100
AcDbLine
10
16.485013
20
-27.475
30
0
11
19.515013
21
-27.475
31
0
39
0
210
0
220
0
230
1
0
LINE
5
103
100
AcDbEntity
8
1
62
256
6
ByLayer
370
18
48
1
60
0
100
AcDbLine
10
14.625401
20
-31.47
30
0
11
16.085013
21
-28.941877
31
0
39
0
210
0
220
0
230
1
0
LINE
5
104
100
AcDbEntity
8
SK1
62
256
6
ByLayer
370
13
48
1
60
0
100
AcDbLine
10
-1.253571
20
-24.015
30
0
11
-1.253571
21
24.015
31
0
39
0
210
0
220
0
230
1
0
LINE
5
105
100
AcDbEntity
8
1
62
256
6
ByLayer
370
18
48
1
60
0
100
AcDbLine
10
25.500013
20
-31.5
30
0
11
26.000013
21
-31
31
0
39
0
210
0
220
0
230
1
0
LINE
5
106
100
AcDbEntity
8
1
62
256
6
ByLayer
370
18
48
1
60
0
100
AcDbLine
10
25.500013
20
-31.5
30
0
11
21.374626
21
-31.5
31
0
39
0
210
0
220
0
230
1
0
LINE
5
107
100
AcDbEntity
8
1
62
256
6
ByLayer
370
18
48
1
60
0
100
AcDbLine
10
26.000013
20
0
30
0
11
26.000013
21
31
31
0
39
0
210
0
220
0
230
1
0
LINE
5
108
100
AcDbEntity
8
SK3
62
256
6
ByLayer
370
13
48
0.05
60
0
100
AcDbLine
10
5.000013
20
-31.5
30
0
11
5.000013
21
-26.5
31
0
39
0
210
0
220
0
230
1
0
LINE
5
109
100
AcDbEntity
8
SK3
62
256
6
ByLayer
370
13
48
0.05
60
0
100
AcDbLine
10
5.000013
20
31.5
30
0
11
5.000013
21
26.5
31
0
39
0
210
0
220
0
230
1
0
LINE
5
10A
100
AcDbEntity
8
1
62
256
6
ByLayer
370
18
48
1
60
0
100
AcDbLine
10
12.177418
20
19.85
30
0
11
16.085013
21
19.85
31
0
39
0
210
0
220
0
230
1
0
LINE
5
10B
100
AcDbEntity
8
1
62
256
6
ByLayer
370
18
48
1
60
0
100
AcDbLine
10
4.950013
20
24.420041
30
0
11
14.625401
21
24.420041
31
0
39
0
210
0
220
0
230
1
0
LINE
5
10C
100
AcDbEntity
8
1
62
256
6
ByLayer
370
18
48
1
60
0
100
AcDbLine
10
25.950013
20
19.85
30
0
11
19.915013
21
19.85
31
0
39
0
210
0
220
0
230
1
0
LINE
5
10D
100
AcDbEntity
8
1
62
256
6
ByLayer
370
18
48
1
60
0
100
AcDbLine
10
25.350013
20
24.420041
30
0
11
21.374626
21
24.420041
31
0
39
0
210
0
220
0
230
1
0
LINE
5
10E
100
AcDbEntity
8
80
62
256
6
ByLayer
370
13
48
1
60
0
100
AcDbLine
10
0
20
0
30
0
11
-8.091354
21
0
31
0
39
0
210
0
220
0
230
1
0
LINE
5
10F
100
AcDbEntity
8
1
62
256
6
ByLayer
370
18
48
0.05
60
1
100
AcDbLine
10
27.000013
20
26.25
30
0
11
42.250013
21
26.25
31
0
39
0
210
0
220
0
230
1
0
LINE
5
110
100
AcDbEntity
8
1
62
256
6
ByLayer
370
18
48
0.05
60
1
100
AcDbLine
10
27.000013
20
-126.25
30
0
11
42.250013
21
-126.25
31
0
39
0
210
0
220
0
230
1
0
LINE
5
111
100
AcDbEntity
8
1
62
256
6
ByLayer
370
18
48
0.05
60
1
100
AcDbLine
10
35.189416
20
-26.25
30
0
11
26.476783
21
-26.25
31
0
39
0
210
0
220
0
230
1
0
LINE
5
112
100
AcDbEntity
8
1
62
256
6
ByLayer
370
18
48
0.05
60
1
100
AcDbLine
10
26.476783
20
26.25
30
0
11
28.5
21
26.25
31
0
39
0
210
0
220
0
230
1
0
LINE
5
113
100
AcDbEntity
8
1
62
256
6
ByLayer
370
18
48
0.05
60
1
100
AcDbLine
10
26.95
20
-25.431193
30
0
11
26.95
21
25.431193
31
0
39
0
210
0
220
0
230
1
0
LINE
5
114
100
AcDbEntity
8
1
62
256
6
ByLayer
370
18
48
1
60
0
100
AcDbLine
10
26.95
20
25.431193
30
0
11
26.95
21
-25.431193
31
0
39
0
210
0
220
0
230
1
0
LINE
5
115
100
AcDbEntity
8
SK4
62
256
6
ByLayer
370
13
48
0.05
60
1
100
AcDbLine
10
-34.343183
20
-200
30
0
11
72.854768
21
-200
31
0
39
0
210
0
220
0
230
1
0
LINE
5
116
100
AcDbEntity
8
SK4
62
256
6
ByLayer
370
13
48
0.05
60
1
100
AcDbLine
10
-34.183801
20
-100
30
0
11
64.471422
21
-100
31
0
39
0
210
0
220
0
230
1
0
LINE
5
117
100
AcDbEntity
8
1
62
256
6
ByLayer
370
18
48
1
60
0
100
AcDbLine
10
42.000888
20
26.25
30
0
11
27.000013
21
26.25
31
0
39
0
210
0
220
0
230
1
0
LINE
5
118
100
AcDbEntity
8
1
62
256
6
ByLayer
370
18
48
0.05
60
1
100
AcDbLine
10
26.95
20
-26.25
30
0
11
35.189416
21
-26.25
31
0
39
0
210
0
220
0
230
1
0
LINE
5
119
100
AcDbEntity
8
1
62
256
6
ByLayer
370
18
48
1
60
0
100
AcDbLine
10
26.95
20
26.25
30
0
11
28.5
21
26.25
31
0
39
0
210
0
220
0
230
1
0
LINE
5
11A
100
AcDbEntity
8
1
62
256
6
ByLayer
370
18
48
1
60
0
100
AcDbLine
10
26.95
20
-26.25
30
0
11
26.95
21
26.25
31
0
39
0
210
0
220
0
230
1
0
LINE
5
11B
100
AcDbEntity
8
1
62
256
6
ByLayer
370
18
48
1
60
0
100
AcDbLine
10
35.500013
20
26.25
30
0
11
42.043159
21
26.25
31
0
39
0
210
0
220
0
230
1
0
LINE
5
11C
100
AcDbEntity
8
1
62
256
6
ByLayer
370
18
48
1
60
0
100
AcDbLine
10
66.324533
20
31.5
30
0
11
48.950013
21
31.5
31
0
39
0
210
0
220
0
230
1
0
LINE
5
11D
100
AcDbEntity
8
1
62
256
6
ByLayer
370
18
48
1
60
0
100
AcDbLine
10
45.000019
20
30.324513
30
0
11
85.000019
21
30.324513
31
0
39
0
210
0
220
0
230
1
0
LINE
5
11E
100
AcDbEntity
8
1
62
256
6
ByLayer
370
18
48
1
60
0
100
AcDbLine
10
26.950013
20
-25.431193
30
0
11
26.950013
21
25.431193
31
0
39
0
210
0
220
0
230
1
0
LINE
5
11F
100
AcDbEntity
8
1
62
256
6
ByLayer
370
18
48
1
60
0
100
AcDbLine
10
26.950013
20
25.431193
30
0
11
26.950013
21
-25.431193
31
0
39
0
210
0
220
0
230
1
0
LINE
5
120
100
AcDbEntity
8
SK4
62
256
6
ByLayer
370
13
48
0.05
60
1
100
AcDbLine
10
-34.444671
20
0
30
0
11
80.714379
21
0
31
0
39
0
210
0
220
0
230
1
0
LINE
5
121
100
AcDbEntity
8
SK4
62
256
6
ByLayer
370
13
48
0.05
60
0
100
AcDbLine
10
69.761493
20
0
30
0
11
-34.444671
21
0
31
0
39
0
210
0
220
0
230
1
0
LINE
5
122
100
AcDbEntity
8
1
62
256
6
ByLayer
370
18
48
1
60
0
100
AcDbLine
10
85.300013
20
30
30
0
11
85.000013
21
30
31
0
39
0
210
0
220
0
230
1
0
LINE
5
123
100
AcDbEntity
8
1
62
256
6
ByLayer
370
18
48
1
60
0
100
AcDbLine
10
45.000013
20
30
30
0
11
44.745077
21
30
31
0
39
0
210
0
220
0
230
1
0
LINE
5
124
100
AcDbEntity
8
1
62
256
6
ByLayer
370
18
48
1
60
0
100
AcDbLine
10
45.000013
20
30
30
0
11
85.000013
21
30
31
0
39
0
210
0
220
0
230
1
0
LINE
5
125
100
AcDbEntity
8
1
62
256
6
ByLayer
370
18
48
1
60
0
100
AcDbLine
10
85.000013
20
30.324519
30
0
11
45.000013
21
30.324519
31
0
39
0
210
0
220
0
230
1
0
LINE
5
126
100
AcDbEntity
8
1
62
256
6
ByLayer
370
18
48
1
60
0
100
AcDbLine
10
42.002686
20
15.899336
30
0
11
42.002686
21
26.25
31
0
39
0
210
0
220
0
230
1
0
LINE
5
127
100
AcDbEntity
8
1
62
256
6
ByLayer
370
18
48
1
60
0
100
AcDbLine
10
38.727255
20
-26.25
30
0
11
40.000013
21
-21.5
31
0
39
0
210
0
220
0
230
1
0
LINE
5
128
100
AcDbEntity
8
1
62
256
6
ByLayer
370
18
48
1
60
0
100
AcDbLine
10
48.692935
20
-11.14018
30
0
11
73.000013
21
0.194397
31
0
39
0
210
0
220
0
230
1
0
LINE
5
129
100
AcDbEntity
8
1
62
256
6
ByLayer
370
18
48
1
60
0
100
AcDbLine
10
73.000013
20
0.194397
30
0
11
73.000013
21
0.84587
31
0
39
0
210
0
220
0
230
1
0
LINE
5
12A
100
AcDbEntity
8
1
62
256
6
ByLayer
370
18
48
1
60
0
100
AcDbLine
10
74.427703
20
0.860139
30
0
11
75.42279
21
1.324156
31
0
39
0
210
0
220
0
230
1
0
LINE
5
12B
100
AcDbEntity
8
1
62
256
6
ByLayer
370
18
48
1
60
0
100
AcDbLine
10
85.300013
20
22.431626
30
0
11
84.600013
21
14.430589
31
0
39
0
210
0
220
0
230
1
0
LINE
5
12C
100
AcDbEntity
8
1
62
256
6
ByLayer
370
18
48
1
60
0
100
AcDbLine
10
75.42279
20
1.324156
30
0
11
74.427703
21
0.860139
31
0
39
0
210
0
220
0
230
1
0
LINE
5
12D
100
AcDbEntity
8
1
62
256
6
ByLayer
370
18
48
1
60
0
100
AcDbLine
10
71.77999
20
0.830788
30
0
11
71.77999
21
30
31
0
39
0
210
0
220
0
230
1
0
LINE
5
12E
100
AcDbEntity
8
1
62
256
6
ByLayer
370
18
48
1
60
0
100
AcDbLine
10
71.77999
20
30
30
0
11
85.300013
21
30
31
0
39
0
210
0
220
0
230
1
0
LINE
5
12F
100
AcDbEntity
8
1
62
256
6
ByLayer
370
18
48
1
60
0
100
AcDbLine
10
71.77999
20
30
30
0
11
71.77999
21
0.830788
31
0
39
0
210
0
220
0
230
1
0
LINE
5
130
100
AcDbEntity
8
1
62
256
6
ByLayer
370
18
48
1
60
0
100
AcDbLine
10
71.77999
20
0.830788
30
0
11
48.000013
21
-10.258711
31
0
39
0
210
0
220
0
230
1
0
LINE
5
131
100
AcDbEntity
8
1
62
256
6
ByLayer
370
18
48
1
60
0
100
AcDbLine
10
45.788759
20
-11.637795
30
0
11
45.788759
21
24.487556
31
0
39
0
210
0
220
0
230
1
0
LINE
5
132
100
AcDbEntity
8
1
62
256
6
ByLayer
370
18
48
1
60
0
100
AcDbLine
10
48.337802
20
30
30
0
11
44.745077
21
30
31
0
39
0
210
0
220
0
230
1
0
LINE
5
133
100
AcDbEntity
8
1
62
256
6
ByLayer
370
18
48
1
60
0
100
AcDbLine
10
42.871869
20
17.018737
30
0
11
42.871869
21
26.755509
31
0
39
0
210
0
220
0
230
1
0
LINE
5
134
100
AcDbEntity
8
1
62
256
6
ByLayer
370
18
48
1
60
0
100
AcDbLine
10
42.871869
20
26.755509
30
0
11
44.745077
21
30
31
0
39
0
210
0
220
0
230
1
0
LINE
5
135
100
AcDbEntity
8
1
62
256
6
ByLayer
370
18
48
1
60
0
100
AcDbLine
10
85.300013
20
30
30
0
11
85.300013
21
22.431626
31
0
39
0
210
0
220
0
230
1
0
LINE
5
136
100
AcDbEntity
8
1
62
256
6
ByLayer
370
18
48
1
60
0
100
AcDbLine
10
74.427703
20
0.860139
30
0
11
73.000013
21
0.194397
31
0
39
0
210
0
220
0
230
1
0
LINE
5
137
100
AcDbEntity
8
4
62
256
6
ByLayer
370
13
48
0.05
60
1
100
AcDbLine
10
65.000019
20
0
30
0
11
0
21
0
31
0
39
0
210
0
220
0
230
1
0
LINE
5
138
100
AcDbEntity
8
1
62
256
6
ByLayer
370
18
48
1
60
0
100
AcDbLine
10
38.727255
20
-26.25
30
0
11
26.95
21
-26.25
31
0
39
0
210
0
220
0
230
1
0
LINE
5
139
100
AcDbEntity
8
1
62
256
6
ByLayer
370
18
48
1
60
0
100
AcDbLine
10
45.000019
20
30.5
30
0
11
45.000019
21
30
31
0
39
0
210
0
220
0
230
1
0
LINE
5
13A
100
AcDbEntity
8
1
62
256
6
ByLayer
370
18
48
1
60
0
100
AcDbLine
10
85.000019
20
30.5
30
0
11
85.000019
21
30
31
0
39
0
210
0
220
0
230
1
0
LINE
5
13B
100
AcDbEntity
8
4
62
256
6
ByLayer
370
13
48
0.05
60
0
100
AcDbLine
10
65.000019
20
0
30
0
11
0
21
0
31
0
39
0
210
0
220
0
230
1
0
MTEXT
5
210
100
AcDbEntity
8
SK6
62
256
6
ByLayer
370
18
48
1
60
0
100
AcDbMText
10
14.215665
20
-49.884548
30
0
210
0
220
0
230
1
1
\W0.7902;392.T63SL-40RF
40
3.5
41
0
44
1.084337
50
0
71
7
72
5
7
iso_b_vert
0
DIMENSION
5
22B
100
AcDbEntity
8
SK2
62
256
6
ByLayer
370
13
48
1
60
0
100
AcDbDimension
2
DimnDraft3D1
10
26.000013
20
45.472457
30
0
11
11.247378
21
45.472457
31
0
70
32
71
5
72
1
41
1
210
0
220
0
230
1
3
Standard
100
AcDbAlignedDimension
13
1.3E-05
23
32.5875
33
0
14
26.000013
24
32.5875
34
0
50
0
100
AcDbRotatedDimension
1001
ACAD
1000
DSTYLE
1002
{
1070
   279
1070
     0
1070
   172
1070
     1
1070
   173
1070
     1
1070
   340
1005
211
1070
   271
1070
     0
1070
    77
1070
     1
1070
    73
1070
     0
1070
   171
1070
     3
1070
   274
1070
     4
1070
   177
1070
   254
1070
   176
1070
   254
1070
   178
1070
   254
1070
    78
1070
     8
1070
    41
1041
3.175
1070
   147
1041
1.500003
1070
    42
1041
1.5875
1070
    44
1041
3.175
1070
   140
1041
3.000007
1070
   343
1005
0
1070
   344
1005
0
1002
}
0
DIMENSION
5
239
100
AcDbEntity
8
SK2
62
256
6
ByLayer
370
13
48
1
60
0
100
AcDbDimension
2
DimnDraft3D2
10
-31.999987
20
58.538285
30
0
11
-17.752615
21
58.538285
31
0
70
32
71
5
72
1
41
1
210
0
220
0
230
1
3
Standard
100
AcDbAlignedDimension
13
1.3E-05
23
32.499997
33
0
14
-31.999987
24
23.073498
34
0
50
0
100
AcDbRotatedDimension
1001
ACAD
1000
DSTYLE
1002
{
1070
   279
1070
     0
1070
   173
1070
     1
1070
   340
1005
211
1070
   271
1070
     0
1070
   272
1070
     2
1070
    77
1070
     1
1070
    73
1070
     0
1070
   171
1070
     4
1070
   274
1070
     4
1070
   177
1070
   254
1070
   176
1070
   254
1070
   178
1070
   254
1070
    41
1041
2.999994
1070
   147
1041
1.499997
1070
    42
1041
1.499997
1070
    44
1041
2.999994
1070
   140
1041
2.999994
1070
   343
1005
215
1070
   344
1005
215
1002
}
0
DIMENSION
5
247
100
AcDbEntity
8
SK2
62
256
6
ByLayer
370
13
48
1
60
0
100
AcDbDimension
2
DimnDraft3D3
10
-55.58407
20
31.5
30
0
11
-55.58407
21
-4.073684
31
0
70
32
71
5
72
1
41
1
210
0
220
0
230
1
3
Standard
100
AcDbAlignedDimension
13
-0.999987
23
-31.5
33
0
14
-0.999987
24
31.5
34
0
50
90
100
AcDbRotatedDimension
1001
ACAD
1000
DSTYLE
1002
{
1070
    74
1070
     0
1070
   279
1070
     0
1070
   173
1070
     1
1070
   340
1005
211
1070
   271
1070
     0
1070
   272
1070
     2
1070
    77
1070
     1
1070
    73
1070
     0
1070
   171
1070
     4
1070
   274
1070
     4
1070
   177
1070
   254
1070
   176
1070
   254
1070
   178
1070
   254
1070
    41
1041
3.0
1070
   147
1041
1.5
1070
    42
1041
1.5
1070
    44
1041
3.0
1070
   140
1041
3.0
1070
   343
1005
215
1070
   344
1005
215
1002
}
0
DIMENSION
5
255
100
AcDbEntity
8
SK2
62
256
6
ByLayer
370
13
48
1
60
0
100
AcDbDimension
2
DimnDraft3D4
10
-42.535949
20
24
30
0
11
-42.535949
21
-4.231579
31
0
70
32
71
5
72
1
41
1
210
0
220
0
230
1
3
Standard
100
AcDbAlignedDimension
13
-7.799987
23
-24
33
0
14
-7.799987
24
24
34
0
50
90
100
AcDbRotatedDimension
1001
ACAD
1000
DSTYLE
1002
{
1070
    74
1070
     0
1070
   279
1070
     0
1070
   173
1070
     1
1070
   340
1005
211
1070
   271
1070
     0
1070
   272
1070
     2
1070
    77
1070
     1
1070
    73
1070
     0
1070
   171
1070
     4
1070
   274
1070
     4
1070
   177
1070
   254
1070
   176
1070
   254
1070
   178
1070
   254
1070
    41
1041
3.0
1070
   147
1041
1.5
1070
    42
1041
1.5
1070
    44
1041
3.0
1070
   140
1041
3.0
1070
   343
1005
215
1070
   344
1005
215
1002
}
0
DIMENSION
5
263
100
AcDbEntity
8
SK2
62
256
6
ByLayer
370
13
48
1
60
0
100
AcDbDimension
2
DimnDraft3D5
10
42.000888
20
58.538282
30
0
11
19.089925
21
58.538282
31
0
70
32
71
5
72
1
41
1
210
0
220
0
230
1
3
Standard
100
AcDbAlignedDimension
13
1.3E-05
23
32.5
33
0
14
42.000888
24
27.75
34
0
50
0
100
AcDbRotatedDimension
1001
ACAD
1000
DSTYLE
1002
{
1070
   279
1070
     0
1070
   173
1070
     1
1070
   340
1005
211
1070
   271
1070
     0
1070
   272
1070
     2
1070
    77
1070
     1
1070
    73
1070
     0
1070
   171
1070
     4
1070
   274
1070
     4
1070
   177
1070
   254
1070
   176
1070
   254
1070
   178
1070
   254
1070
    41
1041
3.0
1070
   147
1041
1.5
1070
    42
1041
1.5
1070
    44
1041
3.0
1070
   140
1041
3.0
1070
   343
1005
215
1070
   344
1005
215
1002
}
0
DIMENSION
5
272
100
AcDbEntity
8
2
62
256
6
ByLayer
370
18
48
1
60
0
100
AcDbDimension
2
DimnDraft3D6
10
65.000019
20
73.169909
30
0
11
30.747385
21
73.169909
31
0
70
32
71
5
72
1
41
1
210
0
220
0
230
1
3
Standard
100
AcDbAlignedDimension
13
1.3E-05
23
33
33
0
14
65.000019
24
38
34
0
50
0
100
AcDbRotatedDimension
1001
ACAD
1000
DSTYLE
1002
{
1070
   279
1070
     0
1070
   172
1070
     1
1070
   173
1070
     1
1070
   340
1005
211
1070
    77
1070
     1
1070
    73
1070
     0
1070
   171
1070
     3
1070
   274
1070
     4
1070
   177
1070
   254
1070
   176
1070
   254
1070
   178
1070
   254
1070
    78
1070
     8
1070
    41
1041
3.175
1070
   147
1041
1.5
1070
    42
1041
2.0
1070
    44
1041
2.0
1070
   140
1041
3.0
1070
   343
1005
215
1070
   344
1005
215
1002
}
0
DIMENSION
5
280
100
AcDbEntity
8
SK2
62
256
6
ByLayer
370
18
48
1
60
0
100
AcDbDimension
2
DimnDraft3D7
10
99.195239
20
31
30
0
11
99.195239
21
14.122368
31
0
70
32
71
5
72
1
41
1
210
0
220
0
230
1
3
Standard
100
AcDbAlignedDimension
13
71.761493
23
0
33
0
14
67.000019
24
31
34
0
50
90
100
AcDbRotatedDimension
1001
ACAD
1000
DSTYLE
1002
{
1070
    74
1070
     0
1070
   279
1070
     0
1070
   172
1070
     1
1070
   173
1070
     1
1070
   340
1005
211
1070
    77
1070
     1
1070
    73
1070
     0
1070
   171
1070
     3
1070
   274
1070
     4
1070
   177
1070
   254
1070
   176
1070
   254
1070
   178
1070
   254
1070
    78
1070
     8
1070
    41
1041
3.175
1070
   147
1041
1.5
1070
    42
1041
2.0
1070
    44
1041
2.0
1070
   140
1041
3.0
1070
   343
1005
215
1070
   344
1005
215
1002
}
0
DIMENSION
5
28E
100
AcDbEntity
8
SK2
62
256
6
ByLayer
370
18
48
1
60
0
100
AcDbDimension
2
DimnDraft3D8
10
85.000019
20
53.164076
30
0
11
69.759215
21
53.164076
31
0
70
32
71
5
72
1
41
1
210
0
220
0
230
1
3
Standard
100
AcDbAlignedDimension
13
45.000019
23
32.5
33
0
14
85.000019
24
32.5
34
0
50
0
100
AcDbRotatedDimension
1001
ACAD
1000
DSTYLE
1002
{
1070
   279
1070
     0
1070
   172
1070
     1
1070
   173
1070
     1
1070
   340
1005
211
1070
    77
1070
     1
1070
    73
1070
     0
1070
   171
1070
     3
1070
   274
1070
     4
1070
   177
1070
   254
1070
   176
1070
   254
1070
   178
1070
   254
1070
    78
1070
     8
1070
    41
1041
3.175
1070
   147
1041
1.5
1070
    42
1041
2.0
1070
    44
1041
2.0
1070
   140
1041
3.0
1070
   343
1005
215
1070
   344
1005
215
1002
}
0
ENDSEC
0
SECTION
2
OBJECTS
0
DICTIONARY
5
2fa
330
0
100
AcDbDictionary
280
0
281
1
3
ACAD_GROUP
350
2fb
3
ACAD_MLINESTYLE
350
2fc
0
DICTIONARY
5
2fb
330
0
100
AcDbDictionary
280
0
281
1
0
DICTIONARY
5
2fc
330
0
100
AcDbDictionary
280
0
281
1
3
Standard
350
18
0
MLINESTYLE
5
18
330
2fc
100
AcDbMlineStyle
2
Standard
70
0
3

62
256
51
90
52
90
71
2
49
-0.5
62
256
6
ByLayer
49
0.5
62
256
6
ByLayer
0
RASTERVARIABLES
5
2e7
330

100
AcDbRasterVariables
90
0
70
1
71
1
72
1
0
ENDSEC
0
EOF
