0
SECTION
2
HEADER
9
$ACADVER
1
AC1015
9
$DWGCODEPAGE
3
ANSI_1252
9
$HANDSEED
5
2b4
9
$ANGBASE
50
0
9
$ANGDIR
70
0
9
$ATTMODE
70
1
9
$AUNITS
70
0
9
$AUPREC
70
0
9
$CECOLOR
62
256
9
$CELTSCALE
40
1
9
$CELTYPE
6
ByLayer
9
$CELWEIGHT
370
18
9
$CLAYER
8
0
9
$CMLJUST
70
0
9
$CMLSCALE
40
1
9
$CMLSTYLE
2
Standard
9
$DIMSTYLE
2
Standard
9
$TEXTSIZE
40
0.2
9
$TEXTSTYLE
7
Standard
9
$LUNITS
70
2
9
$LUPREC
70
4
9
$EXTNAMES
290
1
9
$INSUNITS
70
4
9
$LTSCALE
40
1
9
$LWDISPLAY
290
1
9
$PDMODE
70
0
9
$PDSIZE
40
0
9
$PLINEGEN
70
0
0
ENDSEC
0
SECTION
2
CLASSES
0
CLASS
1
RASTERVARIABLES
2
AcDbRasterVariables
3
ISM
90
0
280
0
281
0
0
ENDSEC
0
SECTION
2
TABLES
0
TABLE
2
VPORT
5
2aa
100
AcDbSymbolTable
0
VPORT
5
1
100
AcDbSymbolTableRecord
100
AcDbViewportTableRecord
2
*Active
70
0
10
0
20
0
11
1
21
1
12
-1
22
1
13
0
23
0
14
0.5
24
0.5
15
10
25
10
16
0
26
0
36
1
17
0
27
0
37
0
0
ENDTAB
0
TABLE
2
LTYPE
5
2ab
100
AcDbSymbolTable
0
LTYPE
5
14
100
AcDbSymbolTableRecord
100
AcDbLinetypeTableRecord
70
0
2
ByBlock
3

72
65
73
0
40
0
0
LTYPE
5
15
100
AcDbSymbolTableRecord
100
AcDbLinetypeTableRecord
70
0
2
ByLayer
3

72
65
73
0
40
0
0
LTYPE
5
16
100
AcDbSymbolTableRecord
100
AcDbLinetypeTableRecord
70
0
2
CONTINUOUS
3
Solid line
72
65
73
0
40
0
0
LTYPE
5
6A
100
AcDbSymbolTableRecord
100
AcDbLinetypeTableRecord
70
0
2
CENTER
3
____ _ ____ _ ____ _ ____
72
65
73
4
40
47.5
49
22
74
0
49
-8.5
74
0
49
8.5
74
0
49
-8.5
74
0
0
LTYPE
5
6B
100
AcDbSymbolTableRecord
100
AcDbLinetypeTableRecord
70
0
2
DASHED
3
__ __ __ __ __ __ __ __ __
72
65
73
2
40
25.72
49
12.86
74
0
49
-12.86
74
0
0
ENDTAB
0
TABLE
2
LAYER
5
2ac
100
AcDbSymbolTable
0
LAYER
5
10
100
AcDbSymbolTableRecord
100
AcDbLayerTableRecord
2
0
70
0
62
7
6
CONTINUOUS
290
1
370
-3
390
0
0
LAYER
5
6D
100
AcDbSymbolTableRecord
100
AcDbLayerTableRecord
2
81
70
0
62
-3
6
CONTINUOUS
290
1
370
-3
390
0
0
LAYER
5
6F
100
AcDbSymbolTableRecord
100
AcDbLayerTableRecord
2
80
70
0
62
-6
6
CONTINUOUS
290
1
370
-3
390
0
0
LAYER
5
71
100
AcDbSymbolTableRecord
100
AcDbLayerTableRecord
2
1
70
0
62
4
6
CONTINUOUS
290
1
370
-3
390
0
0
LAYER
5
C0
100
AcDbSymbolTableRecord
100
AcDbLayerTableRecord
2
4
70
0
62
-2
6
CENTER
290
1
370
-3
390
0
0
LAYER
5
213
100
AcDbSymbolTableRecord
100
AcDbLayerTableRecord
2
2
70
0
62
7
6
CONTINUOUS
290
1
370
-3
390
0
0
LAYER
5
295
100
AcDbSymbolTableRecord
100
AcDbLayerTableRecord
2
SK4
70
0
62
2
6
CENTER
290
1
370
-3
390
0
0
LAYER
5
296
100
AcDbSymbolTableRecord
100
AcDbLayerTableRecord
2
SK3
70
0
62
1
6
DASHED
290
1
370
-3
390
0
0
LAYER
5
297
100
AcDbSymbolTableRecord
100
AcDbLayerTableRecord
2
SK1
70
0
62
4
6
CONTINUOUS
290
1
370
-3
390
0
0
LAYER
5
298
100
AcDbSymbolTableRecord
100
AcDbLayerTableRecord
2
SK6
70
0
62
5
6
CONTINUOUS
290
1
370
-3
390
0
0
LAYER
5
299
100
AcDbSymbolTableRecord
100
AcDbLayerTableRecord
2
SK2
70
0
62
7
6
CONTINUOUS
290
1
370
-3
390
0
0
ENDTAB
0
TABLE
2
STYLE
5
2ad
100
AcDbSymbolTable
0
STYLE
5
11
100
AcDbSymbolTableRecord
100
AcDbTextStyleTableRecord
2
Standard
3
txt
70
0
71
0
40
0
41
1
42
0
50
0
0
STYLE
5
1CC
100
AcDbSymbolTableRecord
100
AcDbTextStyleTableRecord
2
iso_b_vert
3
simplex.shx
70
0
71
0
40
0
41
1
42
0
50
0
0
STYLE
5
1CD
100
AcDbSymbolTableRecord
100
AcDbTextStyleTableRecord
2
DWGDirectTextStyle
3
simplex
70
0
71
0
40
0
41
1
42
0
50
0
0
ENDTAB
0
TABLE
2
DIMSTYLE
5
2ae
100
AcDbSymbolTable
100
AcDbDimStyleTable
0
DIMSTYLE
105
27
100
AcDbSymbolTableRecord
100
AcDbDimStyleTableRecord
2
Standard
70
0
3
<>
41
0.18
42
0.0625
44
0.18
140
0.18
147
0.09
73
0
74
0
77
1
271
2
275
0
278
52
280
0
340
11
0
ENDTAB
0
TABLE
2
VIEW
5
2af
100
AcDbSymbolTable
0
ENDTAB
0
TABLE
2
UCS
5
2b0
100
AcDbSymbolTable
0
ENDTAB
0
TABLE
2
APPID
5
2b1
100
AcDbSymbolTable
0
APPID
5
12
100
AcDbSymbolTableRecord
100
AcDbRegAppTableRecord
2
ACAD
70
0
0
ENDTAB
0
TABLE
2
BLOCK_RECORD
5
2b2
100
AcDbSymbolTable
0
BLOCK_RECORD
5
1F
100
AcDbSymbolTableRecord
100
AcDbBlockTableRecord
2
*Model_Space
340
0
70
0
0
BLOCK_RECORD
5
1B
100
AcDbSymbolTableRecord
100
AcDbBlockTableRecord
2
*Paper_Space
340
0
70
0
0
BLOCK_RECORD
5
23
100
AcDbSymbolTableRecord
100
AcDbBlockTableRecord
2
*Paper_Space0
340
0
70
0
0
BLOCK_RECORD
5
1CF
100
AcDbSymbolTableRecord
100
AcDbBlockTableRecord
2
LABLE3D_1
340
0
70
0
0
BLOCK_RECORD
5
1D0
100
AcDbSymbolTableRecord
100
AcDbBlockTableRecord
2
_CLOSED
340
0
70
0
0
BLOCK_RECORD
5
1DD
100
AcDbSymbolTableRecord
100
AcDbBlockTableRecord
2
DimnDraft3D1
340
0
70
0
0
BLOCK_RECORD
5
1E7
100
AcDbSymbolTableRecord
100
AcDbBlockTableRecord
2
DimnDraft3D2
340
0
70
0
0
BLOCK_RECORD
5
1F5
100
AcDbSymbolTableRecord
100
AcDbBlockTableRecord
2
DimnDraft3D3
340
0
70
0
0
BLOCK_RECORD
5
203
100
AcDbSymbolTableRecord
100
AcDbBlockTableRecord
2
DimnDraft3D4
340
0
70
0
0
BLOCK_RECORD
5
211
100
AcDbSymbolTableRecord
100
AcDbBlockTableRecord
2
DimnDraft3D5
340
0
70
0
0
BLOCK_RECORD
5
220
100
AcDbSymbolTableRecord
100
AcDbBlockTableRecord
2
DimnDraft3D6
340
0
70
0
0
BLOCK_RECORD
5
22E
100
AcDbSymbolTableRecord
100
AcDbBlockTableRecord
2
DimnDraft3D7
340
0
70
0
0
ENDTAB
0
ENDSEC
0
SECTION
2
BLOCKS
0
BLOCK
5
20
100
AcDbEntity
8
0
100
AcDbBlockBegin
2
*Model_Space
70
0
10
0
20
0
30
0
3
*Model_Space
0
ENDBLK
5
21
100
AcDbEntity
8
0
100
AcDbBlockEnd
0
BLOCK
5
1C
100
AcDbEntity
8
0
100
AcDbBlockBegin
2
*Paper_Space
70
0
10
0
20
0
30
0
3
*Paper_Space
0
ENDBLK
5
1D
100
AcDbEntity
8
0
100
AcDbBlockEnd
0
BLOCK
5
24
100
AcDbEntity
8
0
100
AcDbBlockBegin
2
*Paper_Space0
70
0
10
0
20
0
30
0
3
*Paper_Space0
0
ENDBLK
5
25
100
AcDbEntity
8
0
100
AcDbBlockEnd
0
BLOCK
5
1DB
100
AcDbEntity
8
0
100
AcDbBlockBegin
2
LABLE3D_1
70
0
10
0
20
0
30
0
3
LABLE3D_1
0
MTEXT
5
1D9
100
AcDbEntity
8
SK2
62
256
6
ByLayer
370
18
48
1
60
0
100
AcDbMText
10
-37.05087
20
-52.526757
30
0
210
0
220
0
230
1
1
\W0.7886;Combination of\PHSK-A/C/T 63
40
3
41
0
44
1.084337
50
0
71
7
72
5
7
iso_b_vert
0
ENDBLK
5
1DC
100
AcDbEntity
8
0
100
AcDbBlockEnd
0
BLOCK
5
1D1
100
AcDbEntity
8
0
100
AcDbBlockBegin
2
_CLOSED
70
0
10
0
20
0
30
0
3
_CLOSED
0
LINE
5
1D3
100
AcDbEntity
8
0
62
256
6
ByLayer
370
-2
48
1
60
0
100
AcDbLine
10
-1
20
0.166667
30
0
11
0
21
0
31
0
39
0
210
0
220
0
230
1
0
LINE
5
1D4
100
AcDbEntity
8
0
62
256
6
ByLayer
370
-2
48
1
60
0
100
AcDbLine
10
0
20
0
30
0
11
-1
21
-0.166667
31
0
39
0
210
0
220
0
230
1
0
LINE
5
1D5
100
AcDbEntity
8
0
62
256
6
ByLayer
370
-2
48
1
60
0
100
AcDbLine
10
-1
20
0.166667
30
0
11
-1
21
-0.166667
31
0
39
0
210
0
220
0
230
1
0
LINE
5
1D6
100
AcDbEntity
8
0
62
256
6
ByLayer
370
-2
48
1
60
0
100
AcDbLine
10
0
20
0
30
0
11
-1
21
0
31
0
39
0
210
0
220
0
230
1
0
ENDBLK
5
1D2
100
AcDbEntity
8
0
100
AcDbBlockEnd
0
BLOCK
5
1E4
100
AcDbEntity
8
0
100
AcDbBlockBegin
2
DimnDraft3D1
70
0
10
0
20
0
30
0
3
DimnDraft3D1
0
MTEXT
5
1DE
100
AcDbEntity
8
SK2
62
256
6
ByLayer
370
18
48
1
60
0
100
AcDbMText
10
11.99738
20
46.222458
30
0
210
0
220
0
230
1
1
\W0.6563;26
40
3.000007
41
0
44
1.084337
50
0
71
7
72
5
7
iso_b_vert
0
LINE
5
1DF
100
AcDbEntity
8
SK2
62
256
6
ByLayer
370
13
48
1
60
0
100
AcDbLine
10
1.3E-05
20
32.5875
30
0
11
1.3E-05
21
48.647457
31
0
39
0
210
0
220
0
230
1
0
LINE
5
1E0
100
AcDbEntity
8
SK2
62
256
6
ByLayer
370
13
48
1
60
0
100
AcDbLine
10
26.000013
20
32.5875
30
0
11
26.000013
21
48.647457
31
0
39
0
210
0
220
0
230
1
0
LINE
5
1E1
100
AcDbEntity
8
SK2
62
256
6
ByLayer
370
13
48
1
60
0
100
AcDbLine
10
1.3E-05
20
45.472457
30
0
11
26.000013
21
45.472457
31
0
39
0
210
0
220
0
230
1
0
SOLID
5
1E2
100
AcDbEntity
8
SK2
62
256
6
ByLayer
370
13
48
1
60
0
100
AcDbTrace
10
1.3E-05
20
45.472457
30
0
11
3.175012
21
45.975327
31
0
12
3.175015
22
44.969586
32
0
13
1.3E-05
23
45.472457
33
0
39
0
210
0
220
0
230
1
0
SOLID
5
1E3
100
AcDbEntity
8
SK2
62
256
6
ByLayer
370
13
48
1
60
0
100
AcDbTrace
10
26.000013
20
45.472457
30
0
11
22.825015
21
44.969586
31
0
12
22.825012
22
45.975327
32
0
13
26.000013
23
45.472457
33
0
39
0
210
0
220
0
230
1
0
ENDBLK
5
1E5
100
AcDbEntity
8
0
100
AcDbBlockEnd
0
BLOCK
5
1F2
100
AcDbEntity
8
0
100
AcDbBlockBegin
2
DimnDraft3D2
70
0
10
0
20
0
30
0
3
DimnDraft3D2
0
MTEXT
5
1E8
100
AcDbEntity
8
SK2
62
256
6
ByLayer
370
18
48
1
60
0
100
AcDbMText
10
-56.33407
20
-3.323684
30
0
210
0
220
0
230
1
1
\W0.7884;%%c 63
40
3
41
0
44
1.084337
50
90
71
7
72
5
7
iso_b_vert
0
LINE
5
1E9
100
AcDbEntity
8
SK2
62
256
6
ByLayer
370
13
48
1
60
0
100
AcDbLine
10
-0.999987
20
-31.5
30
0
11
-58.58407
21
-31.5
31
0
39
0
210
0
220
0
230
1
0
LINE
5
1EA
100
AcDbEntity
8
SK2
62
256
6
ByLayer
370
13
48
1
60
0
100
AcDbLine
10
-0.999987
20
31.5
30
0
11
-58.58407
21
31.5
31
0
39
0
210
0
220
0
230
1
0
LINE
5
1EB
100
AcDbEntity
8
SK2
62
256
6
ByLayer
370
13
48
1
60
0
100
AcDbLine
10
-55.58407
20
-31.5
30
0
11
-55.58407
21
31.5
31
0
39
0
210
0
220
0
230
1
0
LINE
5
1EC
100
AcDbEntity
8
SK2
62
256
6
ByLayer
370
13
48
1
60
0
100
AcDbLine
10
-55.58407
20
-31.5
30
0
11
-56.113051
21
-28.500002
31
0
39
0
210
0
220
0
230
1
0
LINE
5
1ED
100
AcDbEntity
8
SK2
62
256
6
ByLayer
370
13
48
1
60
0
100
AcDbLine
10
-55.58407
20
-31.5
30
0
11
-55.055089
21
-28.499998
31
0
39
0
210
0
220
0
230
1
0
LINE
5
1EE
100
AcDbEntity
8
SK2
62
256
6
ByLayer
370
13
48
1
60
0
100
AcDbLine
10
-56.113051
20
-28.500002
30
0
11
-55.055089
21
-28.499998
31
0
39
0
210
0
220
0
230
1
0
LINE
5
1EF
100
AcDbEntity
8
SK2
62
256
6
ByLayer
370
13
48
1
60
0
100
AcDbLine
10
-55.58407
20
31.5
30
0
11
-55.055089
21
28.500002
31
0
39
0
210
0
220
0
230
1
0
LINE
5
1F0
100
AcDbEntity
8
SK2
62
256
6
ByLayer
370
13
48
1
60
0
100
AcDbLine
10
-55.58407
20
31.5
30
0
11
-56.113051
21
28.499998
31
0
39
0
210
0
220
0
230
1
0
LINE
5
1F1
100
AcDbEntity
8
SK2
62
256
6
ByLayer
370
13
48
1
60
0
100
AcDbLine
10
-55.055089
20
28.500002
30
0
11
-56.113051
21
28.499998
31
0
39
0
210
0
220
0
230
1
0
ENDBLK
5
1F3
100
AcDbEntity
8
0
100
AcDbBlockEnd
0
BLOCK
5
200
100
AcDbEntity
8
0
100
AcDbBlockBegin
2
DimnDraft3D3
70
0
10
0
20
0
30
0
3
DimnDraft3D3
0
MTEXT
5
1F6
100
AcDbEntity
8
SK2
62
256
6
ByLayer
370
18
48
1
60
0
100
AcDbMText
10
-43.285949
20
-3.481579
30
0
210
0
220
0
230
1
1
\W0.8203;%%c 48
40
3
41
0
44
1.084337
50
90
71
7
72
5
7
iso_b_vert
0
LINE
5
1F7
100
AcDbEntity
8
SK2
62
256
6
ByLayer
370
13
48
1
60
0
100
AcDbLine
10
-7.799987
20
-24
30
0
11
-45.535949
21
-24
31
0
39
0
210
0
220
0
230
1
0
LINE
5
1F8
100
AcDbEntity
8
SK2
62
256
6
ByLayer
370
13
48
1
60
0
100
AcDbLine
10
-7.799987
20
24
30
0
11
-45.535949
21
24
31
0
39
0
210
0
220
0
230
1
0
LINE
5
1F9
100
AcDbEntity
8
SK2
62
256
6
ByLayer
370
13
48
1
60
0
100
AcDbLine
10
-42.535949
20
-24
30
0
11
-42.535949
21
24
31
0
39
0
210
0
220
0
230
1
0
LINE
5
1FA
100
AcDbEntity
8
SK2
62
256
6
ByLayer
370
13
48
1
60
0
100
AcDbLine
10
-42.535949
20
-24
30
0
11
-43.06493
21
-21.000002
31
0
39
0
210
0
220
0
230
1
0
LINE
5
1FB
100
AcDbEntity
8
SK2
62
256
6
ByLayer
370
13
48
1
60
0
100
AcDbLine
10
-42.535949
20
-24
30
0
11
-42.006968
21
-20.999998
31
0
39
0
210
0
220
0
230
1
0
LINE
5
1FC
100
AcDbEntity
8
SK2
62
256
6
ByLayer
370
13
48
1
60
0
100
AcDbLine
10
-43.06493
20
-21.000002
30
0
11
-42.006968
21
-20.999998
31
0
39
0
210
0
220
0
230
1
0
LINE
5
1FD
100
AcDbEntity
8
SK2
62
256
6
ByLayer
370
13
48
1
60
0
100
AcDbLine
10
-42.535949
20
24
30
0
11
-42.006968
21
21.000002
31
0
39
0
210
0
220
0
230
1
0
LINE
5
1FE
100
AcDbEntity
8
SK2
62
256
6
ByLayer
370
13
48
1
60
0
100
AcDbLine
10
-42.535949
20
24
30
0
11
-43.06493
21
20.999998
31
0
39
0
210
0
220
0
230
1
0
LINE
5
1FF
100
AcDbEntity
8
SK2
62
256
6
ByLayer
370
13
48
1
60
0
100
AcDbLine
10
-42.006968
20
21.000002
30
0
11
-43.06493
21
20.999998
31
0
39
0
210
0
220
0
230
1
0
ENDBLK
5
201
100
AcDbEntity
8
0
100
AcDbBlockEnd
0
BLOCK
5
20E
100
AcDbEntity
8
0
100
AcDbBlockBegin
2
DimnDraft3D4
70
0
10
0
20
0
30
0
3
DimnDraft3D4
0
MTEXT
5
204
100
AcDbEntity
8
SK2
62
256
6
ByLayer
370
18
48
1
60
0
100
AcDbMText
10
92.498735
20
-2.401316
30
0
210
0
220
0
230
1
1
\W0.5211;5
40
3
41
0
44
1.084337
50
90
71
7
72
5
7
iso_b_vert
0
LINE
5
205
100
AcDbEntity
8
SK2
62
256
6
ByLayer
370
18
48
1
60
0
100
AcDbLine
10
67.9225
20
0
30
0
11
95.248735
21
0
31
0
39
0
210
0
220
0
230
1
0
LINE
5
206
100
AcDbEntity
8
SK2
62
256
6
ByLayer
370
18
48
1
60
0
100
AcDbLine
10
57.000019
20
-5
30
0
11
95.248735
21
-5
31
0
39
0
210
0
220
0
230
1
0
LINE
5
207
100
AcDbEntity
8
SK2
62
256
6
ByLayer
370
18
48
1
60
0
100
AcDbLine
10
93.248735
20
7.5
30
0
11
93.248735
21
-12.5
31
0
39
0
210
0
220
0
230
1
0
LINE
5
208
100
AcDbEntity
8
SK2
62
256
6
ByLayer
370
18
48
1
60
0
100
AcDbLine
10
93.248735
20
0
30
0
11
92.830738
21
3.174998
31
0
39
0
210
0
220
0
230
1
0
LINE
5
209
100
AcDbEntity
8
SK2
62
256
6
ByLayer
370
18
48
1
60
0
100
AcDbLine
10
93.248735
20
0
30
0
11
93.666732
21
3.175002
31
0
39
0
210
0
220
0
230
1
0
LINE
5
20A
100
AcDbEntity
8
SK2
62
256
6
ByLayer
370
18
48
1
60
0
100
AcDbLine
10
92.830738
20
3.174998
30
0
11
93.666732
21
3.175002
31
0
39
0
210
0
220
0
230
1
0
LINE
5
20B
100
AcDbEntity
8
SK2
62
256
6
ByLayer
370
18
48
1
60
0
100
AcDbLine
10
93.248735
20
-5
30
0
11
93.666732
21
-8.174998
31
0
39
0
210
0
220
0
230
1
0
LINE
5
20C
100
AcDbEntity
8
SK2
62
256
6
ByLayer
370
18
48
1
60
0
100
AcDbLine
10
93.248735
20
-5
30
0
11
92.830738
21
-8.175002
31
0
39
0
210
0
220
0
230
1
0
LINE
5
20D
100
AcDbEntity
8
SK2
62
256
6
ByLayer
370
18
48
1
60
0
100
AcDbLine
10
93.666732
20
-8.174998
30
0
11
92.830738
21
-8.175002
31
0
39
0
210
0
220
0
230
1
0
ENDBLK
5
20F
100
AcDbEntity
8
0
100
AcDbBlockEnd
0
BLOCK
5
21D
100
AcDbEntity
8
0
100
AcDbBlockBegin
2
DimnDraft3D5
70
0
10
0
20
0
30
0
3
DimnDraft3D5
0
MTEXT
5
212
100
AcDbEntity
8
2
62
256
6
ByLayer
370
18
48
1
60
0
100
AcDbMText
10
26.497385
20
59.412416
30
0
210
0
220
0
230
1
1
\W0.6563;55
40
3
41
0
44
1.084337
50
0
71
7
72
5
7
iso_b_vert
0
LINE
5
214
100
AcDbEntity
8
2
62
256
6
ByLayer
370
18
48
1
60
0
100
AcDbLine
10
1.3E-05
20
33
30
0
11
1.3E-05
21
60.662416
31
0
39
0
210
0
220
0
230
1
0
LINE
5
215
100
AcDbEntity
8
2
62
256
6
ByLayer
370
18
48
1
60
0
100
AcDbLine
10
55.000019
20
-3
30
0
11
55.000019
21
60.662416
31
0
39
0
210
0
220
0
230
1
0
LINE
5
216
100
AcDbEntity
8
2
62
256
6
ByLayer
370
18
48
1
60
0
100
AcDbLine
10
1.3E-05
20
58.662416
30
0
11
55.000019
21
58.662416
31
0
39
0
210
0
220
0
230
1
0
LINE
5
217
100
AcDbEntity
8
2
62
256
6
ByLayer
370
18
48
1
60
0
100
AcDbLine
10
1.3E-05
20
58.662416
30
0
11
3.175012
21
59.080412
31
0
39
0
210
0
220
0
230
1
0
LINE
5
218
100
AcDbEntity
8
2
62
256
6
ByLayer
370
18
48
1
60
0
100
AcDbLine
10
1.3E-05
20
58.662416
30
0
11
3.175015
21
58.244419
31
0
39
0
210
0
220
0
230
1
0
LINE
5
219
100
AcDbEntity
8
2
62
256
6
ByLayer
370
18
48
1
60
0
100
AcDbLine
10
3.175012
20
59.080412
30
0
11
3.175015
21
58.244419
31
0
39
0
210
0
220
0
230
1
0
LINE
5
21A
100
AcDbEntity
8
2
62
256
6
ByLayer
370
18
48
1
60
0
100
AcDbLine
10
55.000019
20
58.662416
30
0
11
51.825021
21
58.244419
31
0
39
0
210
0
220
0
230
1
0
LINE
5
21B
100
AcDbEntity
8
2
62
256
6
ByLayer
370
18
48
1
60
0
100
AcDbLine
10
55.000019
20
58.662416
30
0
11
51.825018
21
59.080412
31
0
39
0
210
0
220
0
230
1
0
LINE
5
21C
100
AcDbEntity
8
2
62
256
6
ByLayer
370
18
48
1
60
0
100
AcDbLine
10
51.825021
20
58.244419
30
0
11
51.825018
21
59.080412
31
0
39
0
210
0
220
0
230
1
0
ENDBLK
5
21E
100
AcDbEntity
8
0
100
AcDbBlockEnd
0
BLOCK
5
22B
100
AcDbEntity
8
0
100
AcDbBlockBegin
2
DimnDraft3D6
70
0
10
0
20
0
30
0
3
DimnDraft3D6
0
MTEXT
5
221
100
AcDbEntity
8
SK2
62
256
6
ByLayer
370
18
48
1
60
0
100
AcDbMText
10
-17.002618
20
46.222457
30
0
210
0
220
0
230
1
1
\W0.6562;32
40
3
41
0
44
1.084337
50
0
71
7
72
5
7
iso_b_vert
0
LINE
5
222
100
AcDbEntity
8
SK2
62
256
6
ByLayer
370
18
48
1
60
0
100
AcDbLine
10
-31.999987
20
23.573501
30
0
11
-31.999987
21
47.472457
31
0
39
0
210
0
220
0
230
1
0
LINE
5
223
100
AcDbEntity
8
SK2
62
256
6
ByLayer
370
18
48
1
60
0
100
AcDbLine
10
1.3E-05
20
33
30
0
11
1.3E-05
21
47.472457
31
0
39
0
210
0
220
0
230
1
0
LINE
5
224
100
AcDbEntity
8
SK2
62
256
6
ByLayer
370
18
48
1
60
0
100
AcDbLine
10
-31.999987
20
45.472457
30
0
11
1.3E-05
21
45.472457
31
0
39
0
210
0
220
0
230
1
0
LINE
5
225
100
AcDbEntity
8
SK2
62
256
6
ByLayer
370
18
48
1
60
0
100
AcDbLine
10
-31.999987
20
45.472457
30
0
11
-28.824988
21
45.890453
31
0
39
0
210
0
220
0
230
1
0
LINE
5
226
100
AcDbEntity
8
SK2
62
256
6
ByLayer
370
18
48
1
60
0
100
AcDbLine
10
-31.999987
20
45.472457
30
0
11
-28.824985
21
45.05446
31
0
39
0
210
0
220
0
230
1
0
LINE
5
227
100
AcDbEntity
8
SK2
62
256
6
ByLayer
370
18
48
1
60
0
100
AcDbLine
10
-28.824988
20
45.890453
30
0
11
-28.824985
21
45.05446
31
0
39
0
210
0
220
0
230
1
0
LINE
5
228
100
AcDbEntity
8
SK2
62
256
6
ByLayer
370
18
48
1
60
0
100
AcDbLine
10
1.3E-05
20
45.472457
30
0
11
-3.174985
21
45.05446
31
0
39
0
210
0
220
0
230
1
0
LINE
5
229
100
AcDbEntity
8
SK2
62
256
6
ByLayer
370
18
48
1
60
0
100
AcDbLine
10
1.3E-05
20
45.472457
30
0
11
-3.174988
21
45.890453
31
0
39
0
210
0
220
0
230
1
0
LINE
5
22A
100
AcDbEntity
8
SK2
62
256
6
ByLayer
370
18
48
1
60
0
100
AcDbLine
10
-3.174985
20
45.05446
30
0
11
-3.174988
21
45.890453
31
0
39
0
210
0
220
0
230
1
0
ENDBLK
5
22C
100
AcDbEntity
8
0
100
AcDbBlockEnd
0
BLOCK
5
239
100
AcDbEntity
8
0
100
AcDbBlockBegin
2
DimnDraft3D7
70
0
10
0
20
0
30
0
3
DimnDraft3D7
0
MTEXT
5
22F
100
AcDbEntity
8
SK2
62
256
6
ByLayer
370
18
48
1
60
0
100
AcDbMText
10
69.924965
20
-24.625345
30
0
210
0
220
0
230
1
1
\W0.7884;%%c 32
40
3
41
0
44
1.084337
50
45.0000000000001
71
7
72
5
7
iso_b_vert
0
LINE
5
230
100
AcDbEntity
8
SK2
62
256
6
ByLayer
370
18
48
1
60
0
100
AcDbLine
10
44.746971
20
-17.374369
30
0
11
62.906
21
-35.533397
31
0
39
0
210
0
220
0
230
1
0
LINE
5
231
100
AcDbEntity
8
SK2
62
256
6
ByLayer
370
18
48
1
60
0
100
AcDbLine
10
67.374388
20
5.253048
30
0
11
85.533417
21
-12.90598
31
0
39
0
210
0
220
0
230
1
0
LINE
5
232
100
AcDbEntity
8
SK2
62
256
6
ByLayer
370
18
48
1
60
0
100
AcDbLine
10
61.491786
20
-34.119184
30
0
11
84.119203
21
-11.491767
31
0
39
0
210
0
220
0
230
1
0
LINE
5
233
100
AcDbEntity
8
SK2
62
256
6
ByLayer
370
18
48
1
60
0
100
AcDbLine
10
61.491786
20
-34.119184
30
0
11
63.441281
21
-31.578553
31
0
39
0
210
0
220
0
230
1
0
LINE
5
234
100
AcDbEntity
8
SK2
62
256
6
ByLayer
370
18
48
1
60
0
100
AcDbLine
10
61.491786
20
-34.119184
30
0
11
64.032419
21
-32.169687
31
0
39
0
210
0
220
0
230
1
0
LINE
5
235
100
AcDbEntity
8
SK2
62
256
6
ByLayer
370
18
48
1
60
0
100
AcDbLine
10
63.441281
20
-31.578553
30
0
11
64.032419
21
-32.169687
31
0
39
0
210
0
220
0
230
1
0
LINE
5
236
100
AcDbEntity
8
SK2
62
256
6
ByLayer
370
18
48
1
60
0
100
AcDbLine
10
84.119203
20
-11.491767
30
0
11
82.169708
21
-14.032398
31
0
39
0
210
0
220
0
230
1
0
LINE
5
237
100
AcDbEntity
8
SK2
62
256
6
ByLayer
370
18
48
1
60
0
100
AcDbLine
10
84.119203
20
-11.491767
30
0
11
81.57857
21
-13.441264
31
0
39
0
210
0
220
0
230
1
0
LINE
5
238
100
AcDbEntity
8
SK2
62
256
6
ByLayer
370
18
48
1
60
0
100
AcDbLine
10
82.169708
20
-14.032398
30
0
11
81.57857
21
-13.441264
31
0
39
0
210
0
220
0
230
1
0
ENDBLK
5
23A
100
AcDbEntity
8
0
100
AcDbBlockEnd
0
ENDSEC
0
SECTION
2
ENTITIES
0
ARC
5
123
100
AcDbEntity
8
1
62
256
6
ByLayer
370
18
48
1
60
0
100
AcDbCircle
39
0
10
-53.689949
20
-19.993267
30
0
40
0.500000000000026
210
-5.57561242430318E-17
220
5.57561242430318E-17
230
-1
100
AcDbArc
50
225
51
315
0
ARC
5
124
100
AcDbEntity
8
1
62
256
6
ByLayer
370
18
48
1
60
0
100
AcDbCircle
39
0
10
-51.109009
20
-15.927403
30
0
40
0.199999999999931
210
-5.57561242430318E-17
220
5.57561242430318E-17
230
-1
100
AcDbArc
50
135
51
225
0
ARC
5
125
100
AcDbEntity
8
1
62
256
6
ByLayer
370
18
48
1
60
0
100
AcDbCircle
39
0
10
-54.927386
20
-12.109026
30
0
40
0.199999999999945
210
-5.57561242430318E-17
220
5.57561242430318E-17
230
-1
100
AcDbArc
50
225
51
315
0
ARC
5
126
100
AcDbEntity
8
1
62
256
6
ByLayer
370
18
48
1
60
0
100
AcDbCircle
39
0
10
-58.99325
20
-14.689966
30
0
40
0.500000000000034
210
-5.57561242430318E-17
220
5.57561242430318E-17
230
-1
100
AcDbArc
50
135
51
225
0
ARC
5
127
100
AcDbEntity
8
1
62
256
6
ByLayer
370
18
48
1
60
0
100
AcDbCircle
39
0
10
-64.689985
20
-8.993231
30
0
40
0.500000000000019
210
-5.57561242430318E-17
220
5.57561242430318E-17
230
-1
100
AcDbArc
50
225
51
315
0
ARC
5
128
100
AcDbEntity
8
1
62
256
6
ByLayer
370
18
48
1
60
0
100
AcDbCircle
39
0
10
-62.109045
20
-4.927367
30
0
40
0.19999999999993
210
-5.57561242430318E-17
220
5.57561242430318E-17
230
-1
100
AcDbArc
50
135
51
225
0
ARC
5
129
100
AcDbEntity
8
1
62
256
6
ByLayer
370
18
48
1
60
0
100
AcDbCircle
39
0
10
-65.927422
20
-1.10899
30
0
40
0.19999999999993
210
-5.57561242430318E-17
220
5.57561242430318E-17
230
-1
100
AcDbArc
50
225
51
315
0
ARC
5
12A
100
AcDbEntity
8
1
62
256
6
ByLayer
370
18
48
1
60
0
100
AcDbCircle
39
0
10
-69.993286
20
-3.68993
30
0
40
0.500000000000019
210
-5.57561242430318E-17
220
5.57561242430318E-17
230
-1
100
AcDbArc
50
135
51
225
0
ARC
5
12B
100
AcDbEntity
8
SK1
62
256
6
ByLayer
370
18
48
1
60
0
100
AcDbCircle
39
0
10
0.495072
20
24.615
30
0
40
0.6
210
0
220
0
230
-1
100
AcDbArc
50
214.397094
51
270
0
ARC
5
12C
100
AcDbEntity
8
SK1
62
256
6
ByLayer
370
18
48
1
60
0
100
AcDbCircle
39
0
10
-0.495072
20
-24.615
30
0
40
0.6
210
0
220
0
230
1
100
AcDbArc
50
34.397094
51
90
0
ARC
5
12D
100
AcDbEntity
8
SK1
62
256
6
ByLayer
370
18
48
1
60
0
100
AcDbCircle
39
0
10
-30.799987
20
21.573501
30
0
40
1.2
210
0
220
0
230
1
100
AcDbArc
50
92.862405
51
180
0
ARC
5
12E
100
AcDbEntity
8
SK1
62
256
6
ByLayer
370
18
48
1
60
0
100
AcDbCircle
39
0
10
-30.799987
20
-21.573501
30
0
40
1.2
210
0
220
0
230
1
100
AcDbArc
50
180
51
267.137595
0
ARC
5
12F
100
AcDbEntity
8
1
62
256
6
ByLayer
370
18
48
1
60
0
100
AcDbCircle
39
0
10
-19.515013
20
27.875
30
0
40
0.4
210
0
220
0
230
-1
100
AcDbArc
50
180
51
270
0
ARC
5
130
100
AcDbEntity
8
1
62
256
6
ByLayer
370
18
48
1
60
0
100
AcDbCircle
39
0
10
-16.485013
20
27.875
30
0
40
0.4
210
0
220
0
230
-1
100
AcDbArc
50
270
51
0
0
ARC
5
131
100
AcDbEntity
8
1
62
256
6
ByLayer
370
18
48
1
60
0
100
AcDbCircle
39
0
10
16.485013
20
-27.875
30
0
40
0.4
210
0
220
0
230
1
100
AcDbArc
50
90
51
180
0
ARC
5
132
100
AcDbEntity
8
1
62
256
6
ByLayer
370
18
48
1
60
0
100
AcDbCircle
39
0
10
19.515013
20
-27.875
30
0
40
0.4
210
0
220
0
230
1
100
AcDbArc
50
0
51
90
0
ARC
5
133
100
AcDbEntity
8
1
62
256
6
ByLayer
370
18
48
1
60
0
100
AcDbCircle
39
0
10
-12.177418
20
27.85
30
0
40
8
210
0
220
0
230
-1
100
AcDbArc
50
270
51
334.612067
0
ARC
5
134
100
AcDbEntity
8
1
62
256
6
ByLayer
370
18
48
1
60
0
100
AcDbCircle
39
0
10
-27.950013
20
-20.5
30
0
40
2
210
0
220
0
230
-1
100
AcDbArc
50
0
51
90
0
ARC
5
135
100
AcDbEntity
8
1
62
256
6
ByLayer
370
18
48
1
60
0
100
AcDbCircle
39
0
10
-27.950013
20
20.5
30
0
40
2
210
0
220
0
230
-1
100
AcDbArc
50
270
51
360
0
POINT
5
6C
100
AcDbEntity
8
81
62
256
6
ByLayer
370
18
48
1
60
0
100
AcDbPoint
10
55.000019
20
-5
30
0
39
0
210
0
220
0
230
1
50
360
0
POINT
5
6E
100
AcDbEntity
8
80
62
256
6
ByLayer
370
18
48
1
60
0
100
AcDbPoint
10
0
20
0
30
0
39
0
210
0
220
0
230
1
50
360
0
SPLINE
5
136
100
AcDbEntity
8
1
62
256
6
ByLayer
370
18
48
1
60
0
100
AcDbSpline
70
4
71
3
72
29
73
25
40
0
40
0
40
0
40
0
40
0.029949306638806
40
0.0734306065300749
40
0.116739839742049
40
0.156835740742794
40
0.197043687856705
40
0.237302729349758
40
0.277535559232344
40
0.317652388984096
40
0.362629165349
40
0.407729661278784
40
0.452918064213671
40
0.498135214629196
40
0.543302152407351
40
0.58832335595568
40
0.638903939190095
40
0.689543792054115
40
0.740194207574177
40
0.790789210756887
40
0.843065623443148
40
0.895386895527929
40
0.947714688190121
40
1
40
1
40
1
40
1
41
1
10
65.9601741612301
20
6.39012992099094
30
0
41
1
10
65.9601740757337
20
6.39011781966661
30
0
41
1
10
65.9601732622529
20
6.38997217744592
30
0
41
1
10
65.9601697808447
20
6.38931266728675
30
0
41
1
10
65.9601626136259
20
6.38796286036725
30
0
41
1
10
65.9601526062563
20
6.3860714962666
30
0
41
1
10
65.9601402883944
20
6.38372206455134
30
0
41
1
10
65.9601256232997
20
6.38089316966105
30
0
41
1
10
65.9601088574231
20
6.37761590218612
30
0
41
1
10
65.9600894343425
20
6.3737638692719
30
0
41
1
10
65.9600673010532
20
6.36929381681662
30
0
41
1
10
65.9600425671872
20
6.36418720856038
30
0
41
1
10
65.9600163731564
20
6.35864975032037
30
0
41
1
10
65.9599890714289
20
6.35272618994967
30
0
41
1
10
65.9599610101654
20
6.34646114732354
30
0
41
1
10
65.9599313095946
20
6.33961519078343
30
0
41
1
10
65.9599001966827
20
6.33216934691669
30
0
41
1
10
65.9598679181701
20
6.32411457944887
30
0
41
1
10
65.9598359573116
20
6.3157703297567
30
0
41
1
10
65.9598042621978
20
6.307076167779
30
0
41
1
10
65.9597731333304
20
6.29804868709841
30
0
41
1
10
65.9597428017002
20
6.28870380540061
30
0
41
1
10
65.9597137915461
20
6.27916423751329
30
0
41
1
10
65.9596955178137
20
6.27269599603452
30
0
41
1
10
65.9596866353547
20
6.26943424224088
30
0
0
SPLINE
5
137
100
AcDbEntity
8
1
62
256
6
ByLayer
370
18
48
1
60
0
100
AcDbSpline
70
4
71
3
72
25
73
21
40
0
40
0
40
0
40
0
40
0.0428248163823431
40
0.0856614691446975
40
0.128509213979997
40
0.171362821274878
40
0.214213005081915
40
0.257046845128357
40
0.3218610859344
40
0.386686643302905
40
0.451514449308683
40
0.5163317569543
40
0.576671427170309
40
0.637018056563222
40
0.6973648048958
40
0.757704637320928
40
0.818275195231454
40
0.878853486648527
40
0.939430789842497
40
1
40
1
40
1
40
1
41
1
10
58.8754204053863
20
-1.83170542863855
30
0
41
1
10
58.8809773896896
20
-1.8261434214406
30
0
41
1
10
58.8920243707032
20
-1.81489989753444
30
0
41
1
10
58.9083874073165
20
-1.79766141204865
30
0
41
1
10
58.9245563904043
20
-1.78009879895158
30
0
41
1
10
58.9405392784619
20
-1.7622443895859
30
0
41
1
10
58.9563445784578
20
-1.74413476728038
30
0
41
1
10
58.9746613587481
20
-1.72266809759272
30
0
41
1
10
58.9953963263012
20
-1.69772319668264
30
0
41
1
10
59.0184263835861
20
-1.66915421329858
30
0
41
1
10
59.0411188803622
20
-1.64017729944681
30
0
41
1
10
59.0629675498794
20
-1.61150080086681
30
0
41
1
10
59.0840072780068
20
-1.58317855687636
30
0
41
1
10
59.1042589009462
20
-1.55524152084119
30
0
41
1
10
59.1242269625422
20
-1.52701578870233
30
0
41
1
10
59.1439324826555
20
-1.49847369905694
30
0
41
1
10
59.1633723073293
20
-1.46962071731166
30
0
41
1
10
59.1825324984503
20
-1.44045284577606
30
0
41
1
10
59.2013751700867
20
-1.41100655864302
30
0
41
1
10
59.2137114984975
20
-1.39118990182835
30
0
41
1
10
59.219824110356
20
-1.3812357064909
30
0
0
SPLINE
5
138
100
AcDbEntity
8
1
62
256
6
ByLayer
370
18
48
1
60
0
100
AcDbSpline
70
4
71
3
72
27
73
23
40
0
40
0
40
0
40
0
40
0.0499264551625741
40
0.0998538471545488
40
0.149781574766244
40
0.199709010947845
40
0.249635503173381
40
0.299561648963405
40
0.349488667647002
40
0.399416000441008
40
0.449343062944421
40
0.499269245487197
40
0.549195086373739
40
0.599121737266933
40
0.649048680785123
40
0.698975374510758
40
0.748901251321864
40
0.79912047297967
40
0.849340456695681
40
0.899560716788769
40
0.949780742837115
40
1
40
1
40
1
40
1
41
1
10
59.2198241103559
20
-1.38123570649089
30
0
41
1
10
59.2403413444466
20
-1.34781407384637
30
0
41
1
10
59.2812198018429
20
-1.28089073245937
30
0
41
1
10
59.3420678526223
20
-1.18026488287179
30
0
41
1
10
59.4024486391153
20
-1.07940391566398
30
0
41
1
10
59.4623628998929
20
-0.978312773163459
30
0
41
1
10
59.5218120956208
20
-0.876996096950968
30
0
41
1
10
59.5807983838947
20
-0.775457074774273
30
0
41
1
10
59.6393242193548
20
-0.673698922005045
30
0
41
1
10
59.6973915725368
20
-0.571725569496998
30
0
41
1
10
59.75500173076
20
-0.469542141660355
30
0
41
1
10
59.8121564231467
20
-0.367152957716705
30
0
41
1
10
59.8688580645715
20
-0.264561097202339
30
0
41
1
10
59.9251092976781
20
-0.161769598004902
30
0
41
1
10
59.9809123431491
20
-0.0587821671340336
30
0
41
1
10
60.036268805212
20
0.0443963597244874
30
0
41
1
10
60.0912883439806
20
0.14796456704547
30
0
41
1
10
60.1459705436504
20
0.251920808866466
30
0
41
1
10
60.2003151717144
20
0.356263464796719
30
0
41
1
10
60.2542179583767
20
0.460785867446063
30
0
41
1
10
60.3076805434722
20
0.56548376778818
30
0
41
1
10
60.3430311088301
20
0.635396185499722
30
0
41
1
10
60.3606333145059
20
0.670380921392137
30
0
0
SPLINE
5
139
100
AcDbEntity
8
1
62
256
6
ByLayer
370
18
48
1
60
0
100
AcDbSpline
70
4
71
3
72
26
73
22
40
0
40
0
40
0
40
0
40
0.0623920112052171
40
0.124797772215993
40
0.187203674775925
40
0.249595879045183
40
0.311995361643678
40
0.374410148834928
40
0.436822897963705
40
0.499219600687945
40
0.550803171526093
40
0.602409187216691
40
0.654017398214192
40
0.705613219754357
40
0.757188237075343
40
0.799581815458061
40
0.842006239319693
40
0.884430216302563
40
0.926833801757638
40
0.969209890738451
40
1
40
1
40
1
40
1
41
1
10
60.360633314506
20
0.670380921392123
30
0
41
1
10
60.3648078495211
20
0.678677088471936
30
0
41
1
10
60.3732461532584
20
0.695189373780259
30
0
41
1
10
60.3861724777092
20
0.719717543452781
30
0
41
1
10
60.3993569973714
20
0.743991081018017
30
0
41
1
10
60.412793103495
20
0.768000234668698
30
0
41
1
10
60.4264745715689
20
0.791737162921635
30
0
41
1
10
60.4404049587961
20
0.815183004850674
30
0
41
1
10
60.4545849151052
20
0.838312569245829
30
0
41
1
10
60.468182312496
20
0.859783323222949
30
0
41
1
10
60.4811494744714
20
0.879645431336577
30
0
41
1
10
60.4934510374948
20
0.897940543037166
30
0
41
1
10
60.505941858493
20
0.915933167667532
30
0
41
1
10
60.5186253920129
20
0.933586493780417
30
0
41
1
10
60.5307438411913
20
0.949839114663284
30
0
41
1
10
60.5422619513567
20
0.964743273516305
30
0
41
1
10
60.5531561622875
20
0.9783335333316
30
0
41
1
10
60.5642120372057
20
0.991560993169877
30
0
41
1
10
60.5754336713995
20
1.00436319761976
30
0
41
1
10
60.5857868850237
20
1.01557032835938
30
0
41
1
10
60.5924321233895
20
1.02238099556015
30
0
41
1
10
60.5952443764928
20
1.0252001348852
30
0
0
SPLINE
5
13A
100
AcDbEntity
8
1
62
256
6
ByLayer
370
18
48
1
60
0
100
AcDbSpline
70
4
71
3
72
11
73
7
40
0
40
0
40
0
40
0
40
0.249995562084005
40
0.49999116592031
40
0.749995566590619
40
1
40
1
40
1
40
1
41
1
10
60.7204480558862
20
0.11938823903872
30
0
41
1
10
60.7200279378608
20
0.194480495419519
30
0
41
1
10
60.7189552592829
20
0.344629732452454
30
0
41
1
10
60.7166328761397
20
0.569748842655279
30
0
41
1
10
60.7136451317265
20
0.794767801132608
30
0
41
1
10
60.711236916594
20
0.944716419773037
30
0
41
1
10
60.7099264511728
20
1.01967405805898
30
0
0
SPLINE
5
13B
100
AcDbEntity
8
1
62
256
6
ByLayer
370
18
48
1
60
0
100
AcDbSpline
70
4
71
3
72
35
73
31
40
0
40
0
40
0
40
0
40
0.0612136440261556
40
0.122442332907503
40
0.183643683298221
40
0.230379262422874
40
0.277158252516226
40
0.323914648267282
40
0.370619385577497
40
0.405800675428943
40
0.441091839111245
40
0.476373970764509
40
0.511575251373769
40
0.546680935045834
40
0.57273641177249
40
0.598864074951856
40
0.624967417019251
40
0.650989630956365
40
0.67728120694795
40
0.703695672519663
40
0.730101295588618
40
0.756380756498093
40
0.786831146669359
40
0.817377379115934
40
0.847856044338204
40
0.881853544826645
40
0.915968753792357
40
0.95013422276059
40
0.984200478044536
40
1
40
1
40
1
40
1
41
1
10
60.8239867828764
20
0.116860948851539
30
0
41
1
10
60.8214712571057
20
0.114339172493267
30
0
41
1
10
60.816405734939
20
0.109410045191183
30
0
41
1
10
60.8087080446424
20
0.102336649782721
30
0
41
1
10
60.8015212277575
20
0.0961860362051468
30
0
41
1
10
60.794874062824
20
0.0908927748063135
30
0
41
1
10
60.7887886040987
20
0.0864013233368723
30
0
41
1
10
60.7826484359455
20
0.0822738297384049
30
0
41
1
10
60.7769713156911
20
0.0788746804503404
30
0
41
1
10
60.7717746720765
20
0.0761347476789922
30
0
41
1
10
60.7670722181416
20
0.0739866951687702
30
0
41
1
10
60.7623692689973
20
0.072218217485549
30
0
41
1
10
60.7576941292105
20
0.0708943741536885
30
0
41
1
10
60.753468893765
20
0.0701459254951189
30
0
41
1
10
60.7497028302164
20
0.0698901565504073
30
0
41
1
10
60.7463921882764
20
0.0700189402704439
30
0
41
1
10
60.7431740852271
20
0.070535123590723
30
0
41
1
10
60.740069253683
20
0.0714723038041996
30
0
41
1
10
60.7371158400987
20
0.0728867030470397
30
0
41
1
10
60.7343424753508
20
0.0747772237929709
30
0
41
1
10
60.7317885155741
20
0.0771192690700602
30
0
41
1
10
60.7293693257505
20
0.0800516458285259
30
0
41
1
10
60.7271691198687
20
0.0836475613366119
30
0
41
1
10
60.7252310074933
20
0.0878878858287422
30
0
41
1
10
60.7235948683059
20
0.092707834550886
30
0
41
1
10
60.722299020556
20
0.0980871246289539
30
0
41
1
10
60.7213456248178
20
0.103976535426334
30
0
41
1
10
60.7207415152011
20
0.1101042487862
30
0
41
1
10
60.7205004193784
20
0.115280439695148
30
0
41
1
10
60.720452906278
20
0.118395941502683
30
0
41
1
10
60.7204480558862
20
0.11938823903872
30
0
0
SPLINE
5
13C
100
AcDbEntity
8
1
62
256
6
ByLayer
370
18
48
1
60
0
100
AcDbSpline
70
4
71
3
72
24
73
20
40
0
40
0
40
0
40
0
40
0.0673826784946731
40
0.134788205348715
40
0.202194815587164
40
0.269578971920824
40
0.336966357938508
40
0.404377533768192
40
0.471785982907128
40
0.539169649370086
40
0.595781547566095
40
0.652430499027928
40
0.709082278253837
40
0.765712819909393
40
0.822309267919014
40
0.866633062508535
40
0.910955471661144
40
0.955479174747087
40
1
40
1
40
1
40
1
41
1
10
61.2389215551006
20
0.637861738253726
30
0
41
1
10
61.2355519075488
20
0.630423217487539
30
0
41
1
10
61.2287034238118
20
0.615636897440133
30
0
41
1
10
61.218100779987
20
0.593730648040911
30
0
41
1
10
61.2071839249246
20
0.572114472987288
30
0
41
1
10
61.195962741286
20
0.550800325741001
30
0
41
1
10
61.184446096481
20
0.529796407847471
30
0
41
1
10
61.1726320552037
20
0.509123211108566
30
0
41
1
10
61.160521638987
20
0.488808351419031
30
0
41
1
10
61.1487761181815
20
0.469943576094785
30
0
41
1
10
61.1374491317849
20
0.452476125517386
30
0
41
1
10
61.1265796630873
20
0.436366110009601
30
0
41
1
10
61.1154839177657
20
0.420613451488506
30
0
41
1
10
61.1041591317277
20
0.405266530594268
30
0
41
1
10
61.0934361422376
20
0.39144546330035
30
0
41
1
10
61.0833655535271
20
0.379085266514267
30
0
41
1
10
61.0739723859505
20
0.368110849142653
30
0
41
1
10
61.0644016522249
20
0.357516894668287
30
0
41
1
10
61.0578946147131
20
0.350778147581785
30
0
41
1
10
61.0546125784825
20
0.347486744457718
30
0
0
SPLINE
5
13D
100
AcDbEntity
8
1
62
256
6
ByLayer
370
18
48
1
60
0
100
AcDbSpline
70
4
71
3
72
19
73
15
40
0
40
0
40
0
40
0
40
0.0832912032957416
40
0.166583310863891
40
0.24987537874222
40
0.333166527914895
40
0.416458157083129
40
0.499750780134422
40
0.583043360202905
40
0.66633493075751
40
0.749750677765717
40
0.833167520394034
40
0.916584316471317
40
1
40
1
40
1
40
1
41
1
10
61.8996768249994
20
2.20942443188558
30
0
41
1
10
61.8825292589874
20
2.16545122246129
30
0
41
1
10
61.8480400884365
20
2.07755625162999
30
0
41
1
10
61.7957273902591
20
1.94586717377609
30
0
41
1
10
61.7428277308501
20
1.8143382653134
30
0
41
1
10
61.6893360120809
20
1.68297409226677
30
0
41
1
10
61.6352460500661
20
1.55177918752249
30
0
41
1
10
61.5805518406303
20
1.42075813877454
30
0
41
1
10
61.5252478718141
20
1.28991692860195
30
0
41
1
10
61.4693007678957
20
1.15919646794563
30
0
41
1
10
61.4127034426255
20
1.02860188340785
30
0
41
1
10
61.3554486124792
20
0.898138763391508
30
0
41
1
10
61.2975594434736
20
0.767877612851976
30
0
41
1
10
61.258538507808
20
0.681177127984775
30
0
41
1
10
61.2389215551006
20
0.637861738253726
30
0
0
SPLINE
5
13E
100
AcDbEntity
8
1
62
256
6
ByLayer
370
18
48
1
60
0
100
AcDbSpline
70
4
71
3
72
33
73
29
40
0
40
0
40
0
40
0
40
0.0390195604942207
40
0.0781158269043948
40
0.117183852817412
40
0.156164822691616
40
0.187958504535447
40
0.219886280598627
40
0.251835176493309
40
0.283715923764576
40
0.315470000251163
40
0.352038881490205
40
0.388772787349218
40
0.42551600244345
40
0.462097634773085
40
0.494694023084632
40
0.527374811667766
40
0.560075196835586
40
0.592698373978956
40
0.636434492120139
40
0.680294561836692
40
0.724247567656556
40
0.768202506038539
40
0.81201843043057
40
0.860513489544296
40
0.90905711361136
40
0.957617065978469
40
1
40
1
40
1
40
1
41
1
10
62.14581608905
20
2.45556369593616
30
0
41
1
10
62.1456333174479
20
2.45802032320719
30
0
41
1
10
62.1451803610168
20
2.46287061021245
30
0
41
1
10
62.1442497233367
20
2.46996426518187
30
0
41
1
10
62.1430372959436
20
2.47680953685188
30
0
41
1
10
62.1416184633474
20
2.48295078521353
30
0
41
1
10
62.1400275143795
20
2.48839301175807
30
0
41
1
10
62.1383183290673
20
2.4931749148697
30
0
41
1
10
62.1363807120716
20
2.49763974613499
30
0
41
1
10
62.1342171578652
20
2.50173269941306
30
0
41
1
10
62.1317071498238
20
2.50559209685861
30
0
41
1
10
62.1287992148665
20
2.50907881189557
30
0
41
1
10
62.1254851736738
20
2.51209393267485
30
0
41
1
10
62.1219388622389
20
2.51446635528523
30
0
41
1
10
62.1183308019863
20
2.51611010678747
30
0
41
1
10
62.1147128988595
20
2.51709725357384
30
0
41
1
10
62.1111317147252
20
2.51755733817115
30
0
41
1
10
62.1074721375305
20
2.51755662809981
30
0
41
1
10
62.1033365941585
20
2.51707349694066
30
0
41
1
10
62.0987211129937
20
2.5159625235093
30
0
41
1
10
62.0936368794646
20
2.51411014858503
30
0
41
1
10
62.088535694184
20
2.51168749296441
30
0
41
1
10
62.0834468203052
20
2.50876716599607
30
0
41
1
10
62.0782071790754
20
2.5052921411267
30
0
41
1
10
62.0728277206411
20
2.50126653384289
30
0
41
1
10
62.0673160984947
20
2.49668973855397
30
0
41
1
10
62.062088131202
20
2.49194819863295
30
0
41
1
10
62.0587135399908
20
2.48867281212329
30
0
41
1
10
62.0571480702143
20
2.48710382939165
30
0
0
SPLINE
5
13F
100
AcDbEntity
8
1
62
256
6
ByLayer
370
18
48
1
60
0
100
AcDbSpline
70
4
71
2
72
6
73
3
40
0
40
0
40
0
40
1
40
1
40
1
41
1
10
62.14581608905
20
2.45556369593616
30
0
41
1
10
62.1778168533824
20
2.0316973776758
30
0
41
1
10
62.2086375538605
20
1.60757773701368
30
0
0
SPLINE
5
140
100
AcDbEntity
8
1
62
256
6
ByLayer
370
18
48
1
60
0
100
AcDbSpline
70
4
71
3
72
32
73
28
40
0
40
0
40
0
40
0
40
0.0385582926476182
40
0.0771920186230626
40
0.115797656947859
40
0.154317568170597
40
0.193666011673148
40
0.233176623733894
40
0.272646930764654
40
0.311940175779937
40
0.34807230746767
40
0.384366323838675
40
0.420670376731283
40
0.456816255189497
40
0.489151024037297
40
0.521568577361689
40
0.554005696523515
40
0.586367211378121
40
0.63021707647716
40
0.67419078905561
40
0.718257995768924
40
0.762327662450427
40
0.806258246240352
40
0.854660416676138
40
0.90311030217128
40
0.951576104585094
40
1
40
1
40
1
40
1
41
1
10
62.2086375538605
20
1.60757773701368
30
0
41
1
10
62.2087909937273
20
1.60543305620577
30
0
41
1
10
62.2091748423708
20
1.60119797299396
30
0
41
1
10
62.2099715994734
20
1.59500197576406
30
0
41
1
10
62.2110170228469
20
1.58902057013091
30
0
41
1
10
62.2123359078061
20
1.58325973201072
30
0
41
1
10
62.2139673911917
20
1.57778856337194
30
0
41
1
10
62.2159269893546
20
1.57267509747656
30
0
41
1
10
62.2182014502194
20
1.56802820615084
30
0
41
1
10
62.2207219496701
20
1.56404108842173
30
0
41
1
10
62.2234656417298
20
1.56074953738215
30
0
41
1
10
62.2263723562209
20
1.55809918313087
30
0
41
1
10
62.2294833095823
20
1.55600633331173
30
0
41
1
10
62.2326523019044
20
1.55454437357804
30
0
41
1
10
62.2358338666422
20
1.5536522772345
30
0
41
1
10
62.2389871961591
20
1.55321941541088
30
0
41
1
10
62.2422089735802
20
1.55318781216338
30
0
41
1
10
62.2458645374835
20
1.55357401128473
30
0
41
1
10
62.2499572635906
20
1.55451077827605
30
0
41
1
10
62.2544765717971
20
1.55610375928477
30
0
41
1
10
62.2590084792349
20
1.55820257368383
30
0
41
1
10
62.263526579392
20
1.56074272041619
30
0
41
1
10
62.2681676209378
20
1.56376779352608
30
0
41
1
10
62.2729212311257
20
1.56727198992371
30
0
41
1
10
62.2777804679807
20
1.57125475622785
30
0
41
1
10
62.2825878713408
20
1.5755668635861
30
0
41
1
10
62.2857555134372
20
1.5786259005859
30
0
41
1
10
62.2873295412008
20
1.58020370717602
30
0
0
SPLINE
5
141
100
AcDbEntity
8
1
62
256
6
ByLayer
370
18
48
1
60
0
100
AcDbSpline
70
4
71
3
72
25
73
21
40
0
40
0
40
0
40
0
40
0.0446665709676243
40
0.0893813751914966
40
0.134113572769355
40
0.178803885867151
40
0.224628837798345
40
0.270478474390278
40
0.316334206900381
40
0.362167475723132
40
0.425092707566483
40
0.488069107897228
40
0.551071983210053
40
0.614065958966991
40
0.677005943806069
40
0.741575201525807
40
0.806188116654603
40
0.870816124665464
40
0.935429965421754
40
1
40
1
40
1
40
1
41
1
10
62.4493672668322
20
1.74224143280742
30
0
41
1
10
62.4517007829824
20
1.74458264620121
30
0
41
1
10
62.4563258836428
20
1.74944089537996
30
0
41
1
10
62.4631332909094
20
1.75728360822125
30
0
41
1
10
62.4698061608756
20
1.76558296696329
30
0
41
1
10
62.4764006120251
20
1.77435440338653
30
0
41
1
10
62.4829176884508
20
1.78355374231578
30
0
41
1
10
62.4893556790346
20
1.79316261574133
30
0
41
1
10
62.4956615782501
20
1.80306968527486
30
0
41
1
10
62.5026047460549
20
1.81450815267713
30
0
41
1
10
62.5101321279576
20
1.8275693701256
30
0
41
1
10
62.5181776956217
20
1.84234670577496
30
0
41
1
10
62.5259933856165
20
1.85750316366273
30
0
41
1
10
62.5335774329666
20
1.87299614024543
30
0
41
1
10
62.5409959919274
20
1.88892806919356
30
0
41
1
10
62.5482472779328
20
1.90528509016333
30
0
41
1
10
62.5553218273496
20
1.9220656404732
30
0
41
1
10
62.5621530475147
20
1.93911240742754
30
0
41
1
10
62.5687335704235
20
1.95640321675582
30
0
41
1
10
62.5729488242368
20
1.9680789146141
30
0
41
1
10
62.5750134395171
20
1.97395362267031
30
0
0
SPLINE
5
142
100
AcDbEntity
8
1
62
256
6
ByLayer
370
18
48
1
60
0
100
AcDbSpline
70
4
71
3
72
17
73
13
40
0
40
0
40
0
40
0
40
0.0999763622313467
40
0.199954139549259
40
0.29993245759225
40
0.399910365538136
40
0.499886837329984
40
0.599908588727862
40
0.699931580350133
40
0.799955046009332
40
0.899978152369304
40
1
40
1
40
1
40
1
41
1
10
62.5750134395171
20
1.97395362267031
30
0
41
1
10
62.5908487505987
20
2.01901484051781
30
0
41
1
10
62.6223273403228
20
2.10917902592306
30
0
41
1
10
62.6689655533331
20
2.24455118652256
30
0
41
1
10
62.7150334056837
20
2.3800434186418
30
0
41
1
10
62.760536441096
20
2.51565074846008
30
0
41
1
10
62.8054882481437
20
2.65138926418531
30
0
41
1
10
62.849895464308
20
2.78725586344164
30
0
41
1
10
62.8937644425179
20
2.92324771517477
30
0
41
1
10
62.9370950022004
20
3.05934038595797
30
0
41
1
10
62.9798925272162
20
3.19552952178765
30
0
41
1
10
63.0080748445051
20
3.28638341754854
30
0
41
1
10
63.022078100057
20
3.33182570694317
30
0
0
SPLINE
5
143
100
AcDbEntity
8
1
62
256
6
ByLayer
370
18
48
1
60
0
100
AcDbSpline
70
4
71
3
72
26
73
22
40
0
40
0
40
0
40
0
40
0.069445099201143
40
0.138930939540284
40
0.208415012976782
40
0.277857701340498
40
0.334595114545055
40
0.391377398273288
40
0.448167838868167
40
0.504936994793394
40
0.561663389078737
40
0.613763407571692
40
0.665929506724399
40
0.718100068707617
40
0.77023206762986
40
0.822303451145188
40
0.865612760743587
40
0.908941126963483
40
0.952239473798688
40
0.985603579850591
40
1
40
1
40
1
40
1
41
1
10
63.022078100057
20
3.33182570694317
30
0
41
1
10
63.024093415682
20
3.33836584989316
30
0
41
1
10
63.0282168153541
20
3.35135463655545
30
0
41
1
10
63.0346799428188
20
3.37056499996237
30
0
41
1
10
63.0414127082767
20
3.38946582307209
30
0
41
1
10
63.047982812197
20
3.40689744635368
30
0
41
1
10
63.0543332042733
20
3.42290853535448
30
0
41
1
10
63.0604192535804
20
3.43754887497775
30
0
41
1
10
63.0666832168041
20
3.45190231050768
30
0
41
1
10
63.0731230962093
20
3.46593379558518
30
0
41
1
10
63.0795596492031
20
3.47924021354945
30
0
41
1
10
63.0859785483854
20
3.49183268099369
30
0
41
1
10
63.0923708775938
20
3.50370887368234
30
0
41
1
10
63.0989244684578
20
3.51517950923437
30
0
41
1
10
63.1056367931364
20
3.52618239800351
30
0
41
1
10
63.1121225002096
20
3.5360732221118
30
0
41
1
10
63.1183522909507
20
3.54489684408707
30
0
41
1
10
63.1243021935023
20
3.55269526370884
30
0
41
1
10
63.1299003414649
20
3.55940384408336
30
0
41
1
10
63.1342144660591
20
3.56412148873918
30
0
41
1
10
63.1364977404975
20
3.56645304457805
30
0
41
1
10
63.1371878866295
20
3.56714364300397
30
0
0
SPLINE
5
144
100
AcDbEntity
8
1
62
256
6
ByLayer
370
18
48
1
60
0
100
AcDbSpline
70
4
71
1
72
4
73
2
40
0
40
0
40
1
40
1
41
1
10
63.2891707183287
20
2.68811090148185
30
0
41
1
10
63.2089923292081
20
3.51873993609434
30
0
0
SPLINE
5
145
100
AcDbEntity
8
1
62
256
6
ByLayer
370
18
48
1
60
0
100
AcDbSpline
70
4
71
3
72
30
73
26
40
0
40
0
40
0
40
0
40
0.0469114707344502
40
0.0939313965886132
40
0.140956189899419
40
0.187914963212456
40
0.234775031410654
40
0.282448811606501
40
0.330272836449611
40
0.378050338253018
40
0.425660466468385
40
0.46540217615163
40
0.505282523996772
40
0.545150565032037
40
0.584875433187981
40
0.624609794654522
40
0.664481779655901
40
0.70437109737404
40
0.74412917430505
40
0.785040257846572
40
0.826076830726299
40
0.867191338829431
40
0.908294199677575
40
0.949261057137262
40
1
40
1
40
1
40
1
41
1
10
63.3522312020315
20
2.6451053680067
30
0
41
1
10
63.3509722779471
20
2.64384305896019
30
0
41
1
10
63.3484379788329
20
2.64143175738239
30
0
41
1
10
63.3445915721413
20
2.63814492924878
30
0
41
1
10
63.3407084853455
20
2.63524203022074
30
0
41
1
10
63.3368025135794
20
2.63276798685339
30
0
41
1
10
63.3328630003862
20
2.63075614491351
30
0
41
1
10
63.3288993350692
20
2.62927550729069
30
0
41
1
10
63.324931950971
20
2.62839000456825
30
0
41
1
10
63.3210148251003
20
2.62816098966962
30
0
41
1
10
63.3173952078796
20
2.6286208149853
30
0
41
1
10
63.314090290128
20
2.62970021183106
30
0
41
1
10
63.31109621728
20
2.63126454625954
30
0
41
1
10
63.308234193958
20
2.63337499466208
30
0
41
1
10
63.3055323708271
20
2.63603296390502
30
0
41
1
10
63.3030169536929
20
2.63924677686991
30
0
41
1
10
63.3006927615606
20
2.64296399268702
30
0
41
1
10
63.2985698386813
20
2.64713485517419
30
0
41
1
10
63.296640618163
20
2.65176135646578
30
0
41
1
10
63.2949178372893
20
2.65682323073975
30
0
41
1
10
63.2933945141412
20
2.66227694007822
30
0
41
1
10
63.292078970495
20
2.66802590763724
30
0
41
1
10
63.2909631334476
20
2.67401275012904
30
0
41
1
10
63.2899671216864
20
2.68069288740352
30
0
41
1
10
63.2894248583295
20
2.68543973493503
30
0
41
1
10
63.2891707183287
20
2.68811090148184
30
0
0
SPLINE
5
146
100
AcDbEntity
8
1
62
256
6
ByLayer
370
18
48
1
60
0
100
AcDbSpline
70
4
71
3
72
25
73
21
40
0
40
0
40
0
40
0
40
0.0724747265536758
40
0.145001670581596
40
0.217526404218654
40
0.289998114414436
40
0.349506186322422
40
0.409072901918835
40
0.468650045575731
40
0.528199117061692
40
0.587692376450454
40
0.638324035359543
40
0.688993722474171
40
0.739653046491375
40
0.790270562761099
40
0.832186939769391
40
0.874178078336648
40
0.916171974457474
40
0.958119915138989
40
1
40
1
40
1
40
1
41
1
10
63.5662252432418
20
2.96516542639495
30
0
41
1
10
63.5646281389669
20
2.95936317721157
30
0
41
1
10
63.5613421875132
20
2.94784851571641
30
0
41
1
10
63.5561387968259
20
2.930844384102
30
0
41
1
10
63.550667518884
20
2.91414761809096
30
0
41
1
10
63.54527458114
20
2.89876337549075
30
0
41
1
10
63.5400145099199
20
2.88464607459573
30
0
41
1
10
63.5349310814963
20
2.87174781322039
30
0
41
1
10
63.5296668533115
20
2.85914312587551
30
0
41
1
10
63.524223658095
20
2.84687005927891
30
0
41
1
10
63.5188801037949
20
2.83555279989865
30
0
41
1
10
63.513664372753
20
2.82515783770162
30
0
41
1
10
63.5085995905769
20
2.81565496168501
30
0
41
1
10
63.5033974800106
20
2.80651217957615
30
0
41
1
10
63.4983640349588
20
2.7982747266832
30
0
41
1
10
63.4935240026224
20
2.79089802184539
30
0
41
1
10
63.4888985133954
20
2.78433939823364
30
0
41
1
10
63.4841763533031
20
2.77817261903204
30
0
41
1
10
63.4793643508116
20
2.77244915915718
30
0
41
1
10
63.4761010641599
20
2.76898111287653
30
0
41
1
10
63.4744559994332
20
2.76733016540835
30
0
0
SPLINE
5
147
100
AcDbEntity
8
1
62
256
6
ByLayer
370
18
48
1
60
0
100
AcDbSpline
70
4
71
3
72
15
73
11
40
0
40
0
40
0
40
0
40
0.124983858336386
40
0.249968642743153
40
0.374953372871257
40
0.499937157190737
40
0.624952378490291
40
0.749968652140153
40
0.874984863560115
40
1
40
1
40
1
40
1
41
1
10
63.8843958207975
20
4.19414342768368
30
0
41
1
10
63.8719220323377
20
4.14285242926591
30
0
41
1
10
63.846783613663
20
4.04029076497346
30
0
41
1
10
63.8085076829496
20
3.88650873122833
30
0
41
1
10
63.7696515288944
20
3.7327918813887
30
0
41
1
10
63.7302042425448
20
3.57913076978795
30
0
41
1
10
63.6901567887695
20
3.42552851975221
30
0
41
1
10
63.6494995633525
20
3.27198856798972
30
0
41
1
10
63.6082278449608
20
3.11852762688503
30
0
41
1
10
63.5802952871515
20
3.01627682921611
30
0
41
1
10
63.5662252432418
20
2.96516542639495
30
0
0
SPLINE
5
148
100
AcDbEntity
8
1
62
256
6
ByLayer
370
18
48
1
60
0
100
AcDbSpline
70
4
71
3
72
31
73
27
40
0
40
0
40
0
40
0
40
0.0442763426997161
40
0.0886614133116725
40
0.133057114466951
40
0.177392069897243
40
0.221626281034614
40
0.266662260143783
40
0.311910534494519
40
0.357194960147939
40
0.402373686707331
40
0.447351067363478
40
0.486491576637968
40
0.525797039060404
40
0.565164283643863
40
0.604480319292681
40
0.643629733991772
40
0.687438503325637
40
0.731367407457795
40
0.775320068693038
40
0.819161319657249
40
0.864208017650769
40
0.909368618811149
40
0.954622017689581
40
0.99991525882466
40
1
40
1
40
1
40
1
41
1
10
64.0298110493906
20
4.33955865627674
30
0
41
1
10
64.0295520442474
20
4.34213726103015
30
0
41
1
10
64.0289772520853
20
4.34723473127983
30
0
41
1
10
64.0279498058643
20
4.35470119767888
30
0
41
1
10
64.0267450940468
20
4.36194186870078
30
0
41
1
10
64.0253562421384
20
4.36890806809362
30
0
41
1
10
64.0237665645259
20
4.37559621047224
30
0
41
1
10
64.0219538712606
20
4.38194829826929
30
0
41
1
10
64.0199109130257
20
4.38791053585651
30
0
41
1
10
64.0176540230124
20
4.39339358531238
30
0
41
1
10
64.0151920967236
20
4.39832170901266
30
0
41
1
10
64.0126447348787
20
4.40244299096679
30
0
41
1
10
64.0100413114639
20
4.40578401152241
30
0
41
1
10
64.0074230706331
20
4.40844519451158
30
0
41
1
10
64.0046851760233
20
4.41057948062976
30
0
41
1
10
64.0018510379012
20
4.41217501263671
30
0
41
1
10
63.9988212190791
20
4.41325950948247
30
0
41
1
10
63.9955975305272
20
4.4137504428313
30
0
41
1
10
63.9921926995055
20
4.4136215018912
30
0
41
1
10
63.9887484900899
20
4.4128931941033
30
0
41
1
10
63.9852543942303
20
4.41157682204023
30
0
41
1
10
63.9817232686457
20
4.40972912506057
30
0
41
1
10
63.9781643104619
20
4.40722591410523
30
0
41
1
10
63.9746173194534
20
4.40471863710887
30
0
41
1
10
63.9722714131148
20
4.40159069957296
30
0
41
1
10
63.9711025672729
20
4.4010552687833
30
0
41
1
10
63.9710934738501
20
4.40105110589263
30
0
0
SPLINE
5
149
100
AcDbEntity
8
1
62
256
6
ByLayer
370
18
48
1
60
0
100
AcDbSpline
70
4
71
1
72
4
73
2
40
0
40
0
40
1
40
1
41
1
10
64.0298110493905
20
4.33955865627674
30
0
41
1
10
64.1132938252138
20
3.51223400836694
30
0
0
SPLINE
5
14A
100
AcDbEntity
8
1
62
256
6
ByLayer
370
18
48
1
60
0
100
AcDbSpline
70
4
71
3
72
29
73
25
40
0
40
0
40
0
40
0
40
0.055669808532134
40
0.111470240426996
40
0.167226930002632
40
0.222836941277339
40
0.268157987707583
40
0.313692476333439
40
0.359264162352856
40
0.404730373140877
40
0.449993891217643
40
0.489374522815738
40
0.528919016683001
40
0.56852539587566
40
0.608081388255259
40
0.647471704112204
40
0.691816543006106
40
0.736282500434372
40
0.780772368841446
40
0.825149899411864
40
0.868817876410162
40
0.912555407637242
40
0.956309459942477
40
1
40
1
40
1
40
1
41
1
10
64.1132938252138
20
3.51223400836694
30
0
41
1
10
64.1135800228281
20
3.50937671615166
30
0
41
1
10
64.1142320961057
20
3.50375179070392
30
0
41
1
10
64.1154406080449
20
3.4955745986758
30
0
41
1
10
64.1169002103155
20
3.48774624068512
30
0
41
1
10
64.1185157359824
20
3.48079454249694
30
0
41
1
10
64.1202533453116
20
3.47470955671571
30
0
41
1
10
64.1220624916359
20
3.46943223034359
30
0
41
1
10
64.1240593805195
20
3.46458031275675
30
0
41
1
10
64.1262354247231
20
3.46022031459436
30
0
41
1
10
64.1284842180233
20
3.45657496998225
30
0
41
1
10
64.1307792539951
20
3.45361964070837
30
0
41
1
10
64.1330840490535
20
3.45126467244767
30
0
41
1
10
64.1354909949654
20
3.4493742528714
30
0
41
1
10
64.1379792319959
20
3.44795833830962
30
0
41
1
10
64.1406413291996
20
3.44698941588295
30
0
41
1
10
64.1434752644108
20
3.44654390497131
30
0
41
1
10
64.146469515123
20
3.44664856446666
30
0
41
1
10
64.1494937559493
20
3.44728903886773
30
0
41
1
10
64.1525129533243
20
3.44842896576953
30
0
41
1
10
64.1555141099629
20
3.45003038462375
30
0
41
1
10
64.1584892473606
20
3.45204136762292
30
0
41
1
10
64.1614451301034
20
3.45443980530851
30
0
41
1
10
64.1633962200539
20
3.45626790582309
30
0
41
1
10
64.1643667539458
20
3.45724091992098
30
0
0
SPLINE
5
14B
100
AcDbEntity
8
1
62
256
6
ByLayer
370
18
48
1
60
0
100
AcDbSpline
70
4
71
3
72
27
73
23
40
0
40
0
40
0
40
0
40
0.0402538565220372
40
0.0805679242754509
40
0.120898452119874
40
0.161174786107812
40
0.203009505515965
40
0.244881331098286
40
0.286761649165437
40
0.328607959076305
40
0.385028425784377
40
0.441503042055827
40
0.497989264672569
40
0.554425572808929
40
0.612350553879155
40
0.670314476530702
40
0.728283326420369
40
0.786215030864217
40
0.839561665544659
40
0.892908575887887
40
0.946454231791643
40
1
40
1
40
1
40
1
41
1
10
64.2584697075484
20
3.55134387352357
30
0
41
1
10
64.2596762255192
20
3.55255553538098
30
0
41
1
10
64.2620710441796
20
3.55513890810278
30
0
41
1
10
64.2656074470947
20
3.55951461006049
30
0
41
1
10
64.2690784531699
20
3.56431909187494
30
0
41
1
10
64.2725231708872
20
3.56957777603748
30
0
41
1
10
64.2759365950262
20
3.5752657694464
30
0
41
1
10
64.279315317081
20
3.58136641229559
30
0
41
1
10
64.2826145469835
20
3.58777461187527
30
0
41
1
10
64.286206789958
20
3.59523487385455
30
0
41
1
10
64.2900589337092
20
3.60383575056265
30
0
41
1
10
64.2941315400775
20
3.6136580817085
30
0
41
1
10
64.2980616580329
20
3.62384660433578
30
0
41
1
10
64.3018833592413
20
3.63445159174397
30
0
41
1
10
64.3055953348188
20
3.64545027430475
30
0
41
1
10
64.3091946337889
20
3.65682815864061
30
0
41
1
10
64.3126490866749
20
3.66846259604281
30
0
41
1
10
64.3158716060601
20
3.6800147956352
30
0
41
1
10
64.3188756109472
20
3.69144466705888
30
0
41
1
10
64.3216771100311
20
3.70273685291036
30
0
41
1
10
64.3243589480641
20
3.71419850481249
30
0
41
1
10
64.3260655991668
20
3.72194226135507
30
0
41
1
10
64.3268981537091
20
3.72583833686231
30
0
0
SPLINE
5
14C
100
AcDbEntity
8
1
62
256
6
ByLayer
370
18
48
1
60
0
100
AcDbSpline
70
4
71
3
72
15
73
11
40
0
40
0
40
0
40
0
40
0.124989818622805
40
0.249980286858293
40
0.374970791284342
40
0.499960659258162
40
0.624970188172858
40
0.749980292262707
40
0.874990427970169
40
1
40
1
40
1
40
1
41
1
10
64.3268981537091
20
3.7258383368623
30
0
41
1
10
64.3370409724281
20
3.77329961195126
30
0
41
1
10
64.3571755068718
20
3.86823286748418
30
0
41
1
10
64.3869208207289
20
4.01066517815062
30
0
41
1
10
64.416218764736
20
4.15312705559083
30
0
41
1
10
64.4450767026145
20
4.29562404423778
30
0
41
1
10
64.47350131248
20
4.43815448885773
30
0
41
1
10
64.5014988254222
20
4.58071688851489
30
0
41
1
10
64.5290732220464
20
4.72330204621132
30
0
41
1
10
64.5471797691449
20
4.81837243215281
30
0
41
1
10
64.5561634540677
20
4.86591106095393
30
0
0
SPLINE
5
14D
100
AcDbEntity
8
1
62
256
6
ByLayer
370
18
48
1
60
0
100
AcDbSpline
70
4
71
3
72
27
73
23
40
0
40
0
40
0
40
0
40
0.0686477155474185
40
0.137351815446971
40
0.206050605329789
40
0.274691073895439
40
0.331345384235288
40
0.388070228463922
40
0.444806574214606
40
0.501508125866603
40
0.558142876814848
40
0.60295181489991
40
0.647856562855641
40
0.692789799966699
40
0.737698874047945
40
0.782547806102265
40
0.827319461688563
40
0.863500297652575
40
0.899795188342357
40
0.936123718332507
40
0.972422802752948
40
1
40
1
40
1
40
1
41
1
10
64.5561634540678
20
4.86591106095392
30
0
41
1
10
64.5571862603282
20
4.87132528636013
30
0
41
1
10
64.5592984604928
20
4.88206749544228
30
0
41
1
10
64.5626651908724
20
4.89792507097659
30
0
41
1
10
64.5662277496281
20
4.91348043007663
30
0
41
1
10
64.5697655086801
20
4.92781217834098
30
0
41
1
10
64.5732405454754
20
4.94095861486122
30
0
41
1
10
64.5766211524082
20
4.9529643694675
30
0
41
1
10
64.5801369387156
20
4.96466056792666
30
0
41
1
10
64.5837859472295
20
4.97600275814221
30
0
41
1
10
64.5873050297279
20
4.98619026551012
30
0
41
1
10
64.590665460898
20
4.99528615778368
30
0
41
1
10
64.5938427615466
20
5.00335698341402
30
0
41
1
10
64.5971086226206
20
5.01110300664334
30
0
41
1
10
64.6004592252558
20
5.01847877867522
30
0
41
1
10
64.6038907975431
20
5.0254381479755
30
0
41
1
10
64.6071769072223
20
5.0315250831243
30
0
41
1
10
64.6103019954287
20
5.03679991710812
30
0
41
1
10
64.6132519530834
20
5.04133132424858
30
0
41
1
10
64.616251135308
20
5.04547031620952
30
0
41
1
10
64.6190491018312
20
5.04887893966149
30
0
41
1
10
64.6208498750053
20
5.05080145292731
30
0
41
1
10
64.62163083282
20
5.0515865913214
30
0
0
SPLINE
5
14E
100
AcDbEntity
8
1
62
256
6
ByLayer
370
18
48
1
60
0
100
AcDbSpline
70
4
71
1
72
4
73
2
40
0
40
0
40
1
40
1
41
1
10
64.7483460642418
20
4.147286247395
30
0
41
1
10
64.6692094387867
20
4.97895704567291
30
0
0
SPLINE
5
14F
100
AcDbEntity
8
1
62
256
6
ByLayer
370
18
48
1
60
0
100
AcDbSpline
70
4
71
3
72
27
73
23
40
0
40
0
40
0
40
0
40
0.0525862506501816
40
0.105315529616721
40
0.158010290262683
40
0.210549336712104
40
0.253150575401148
40
0.295926246326874
40
0.338748930280217
40
0.381501048595977
40
0.424082453444127
40
0.473049641733927
40
0.522190857261641
40
0.571350653676027
40
0.620343267793369
40
0.669699166643788
40
0.719179221730726
40
0.768686011472363
40
0.818078454721622
40
0.878684219142897
40
0.939368978250343
40
1
40
1
40
1
40
1
41
1
10
64.7892309168955
20
4.08210508287071
30
0
41
1
10
64.7882806019751
20
4.08115191634634
30
0
41
1
10
64.7863702138139
20
4.07944410208314
30
0
41
1
10
64.7834759218709
20
4.07746518696656
30
0
41
1
10
64.7805738827739
20
4.07613335389151
30
0
41
1
10
64.7778643521068
20
4.07553593802148
30
0
41
1
10
64.7753605905318
20
4.07558702805304
30
0
41
1
10
64.7730652634498
20
4.0761457775419
30
0
41
1
10
64.7708114174801
20
4.07721490878138
30
0
41
1
10
64.7686181004841
20
4.07879678333837
30
0
41
1
10
64.7663947526318
20
4.08100319651868
30
0
41
1
10
64.7641692283787
20
4.08394261986663
30
0
41
1
10
64.7619672405709
20
4.08765695361959
30
0
41
1
10
64.7599027628365
20
4.09196057080287
30
0
41
1
10
64.757984636325
20
4.09682098279524
30
0
41
1
10
64.756222982328
20
4.10220573374115
30
0
41
1
10
64.7546133243929
20
4.10805186375341
30
0
41
1
10
64.7531596084439
20
4.1142870818312
30
0
41
1
10
64.7517627651486
20
4.12135468464028
30
0
41
1
10
64.7504610612212
20
4.1292954352176
30
0
41
1
10
64.7492876909035
20
4.13812459767939
30
0
41
1
10
64.7486372609009
20
4.14419900948418
30
0
41
1
10
64.7483460642418
20
4.147286247395
30
0
0
SPLINE
5
150
100
AcDbEntity
8
1
62
256
6
ByLayer
370
18
48
1
60
0
100
AcDbSpline
70
4
71
3
72
26
73
22
40
0
40
0
40
0
40
0
40
0.0656735741405434
40
0.131400430850403
40
0.197122412866756
40
0.262789334214616
40
0.316950715499705
40
0.371176474847665
40
0.425413840607458
40
0.47962049327901
40
0.533765831012232
40
0.582432874565806
40
0.631119729173032
40
0.679780494396056
40
0.729437190266662
40
0.7791241235732
40
0.828768280856351
40
0.871277391938553
40
0.913783387459268
40
0.956893966331987
40
1
40
1
40
1
40
1
41
1
10
64.9119254722538
20
4.31086565540703
30
0
41
1
10
64.9112088641413
20
4.30643309685964
30
0
41
1
10
64.9097242526118
20
4.29763828820819
30
0
41
1
10
64.9073445751644
20
4.28465459119188
30
0
41
1
10
64.9048123942748
20
4.27191694474618
30
0
41
1
10
64.9022848431026
20
4.26018187678368
30
0
41
1
10
64.8997906828958
20
4.24941812669054
30
0
41
1
10
64.8973549940914
20
4.23958799607612
30
0
41
1
10
64.8948120157534
20
4.23000612319144
30
0
41
1
10
64.8921626435997
20
4.2207063146308
30
0
41
1
10
64.8894994003996
20
4.21202076798059
30
0
41
1
10
64.8868335086921
20
4.20394072472391
30
0
41
1
10
64.884175186538
20
4.1964569168201
30
0
41
1
10
64.8814090707508
20
4.18926113690479
30
0
41
1
10
64.8785330513885
20
4.18239854215612
30
0
41
1
10
64.8755460683308
20
4.17592565012681
30
0
41
1
10
64.8726167421597
20
4.17022816102305
30
0
41
1
10
64.8697634933475
20
4.16527948086795
30
0
41
1
10
64.8669889780423
20
4.16101948730236
30
0
41
1
10
64.8641452777643
20
4.15723700645494
30
0
41
1
10
64.862210306637
20
4.15508995233301
30
0
41
1
10
64.8612346607599
20
4.15410882673509
30
0
0
SPLINE
5
151
100
AcDbEntity
8
1
62
256
6
ByLayer
370
18
48
1
60
0
100
AcDbSpline
70
4
71
3
72
13
73
9
40
0
40
0
40
0
40
0
40
0.166658625480528
40
0.333317652988805
40
0.49997624024425
40
0.666650690728546
40
0.833325593244725
40
1
40
1
40
1
40
1
41
1
10
65.074988902372
20
5.38473650925816
30
0
41
1
10
65.0664997538837
20
5.32507629037361
30
0
41
1
10
65.0493350878028
20
5.2057562863512
30
0
41
1
10
65.0230339847247
20
5.02677725449251
30
0
41
1
10
64.9961631249441
20
4.84779597969694
30
0
41
1
10
64.96871257107
20
4.66881428285833
30
0
41
1
10
64.9406716960558
20
4.48983407454516
30
0
41
1
10
64.9215742090711
20
4.37052071269802
30
0
41
1
10
64.9119254722538
20
4.31086565540703
30
0
0
SPLINE
5
152
100
AcDbEntity
8
1
62
256
6
ByLayer
370
18
48
1
60
0
100
AcDbSpline
70
4
71
3
72
29
73
25
40
0
40
0
40
0
40
0
40
0.0558497524514146
40
0.111854867749079
40
0.167876002944736
40
0.223810958260242
40
0.279601708958619
40
0.325105872010239
40
0.370761597615505
40
0.416443271452994
40
0.462050292106141
40
0.507513473191388
40
0.553317480639349
40
0.599329023473862
40
0.645403273008699
40
0.691399412835852
40
0.737190443432697
40
0.777071405487936
40
0.81707245767896
40
0.857127311732223
40
0.89715314546996
40
0.9370549556433
40
0.988960245568947
40
1
40
1
40
1
40
1
41
1
10
65.1609773219789
20
5.47072492886505
30
0
41
1
10
65.1607084077501
20
5.47395692495142
30
0
41
1
10
65.1601220567188
20
5.48034125689938
30
0
41
1
10
65.1591012744289
20
5.4896772247476
30
0
41
1
10
65.1579303973706
20
5.49870970203521
30
0
41
1
10
65.1566052389792
20
5.50737190614669
30
0
41
1
10
65.1552113694437
20
5.51509649390358
30
0
41
1
10
65.1537735504131
20
5.52191634026373
30
0
41
1
10
65.1523211810313
20
5.52789528715932
30
0
41
1
10
65.1507556034049
20
5.53346988447697
30
0
41
1
10
65.1490807826841
20
5.53858256622771
30
0
41
1
10
65.1472947657419
20
5.54319720138954
30
0
41
1
10
65.1453932502754
20
5.54724931528003
30
0
41
1
10
65.1433836925209
20
5.5507168952299
30
0
41
1
10
65.1412836798146
20
5.55357128556851
30
0
41
1
10
65.1391103550747
20
5.55578035166847
30
0
41
1
10
65.1369715351491
20
5.55724729789653
30
0
41
1
10
65.1348846834616
20
5.55804761563653
30
0
41
1
10
65.1328639710605
20
5.55830788615081
30
0
41
1
10
65.1308209424352
20
5.55808071292313
30
0
41
1
10
65.1287681480941
20
5.55738143256661
30
0
41
1
10
65.1265086172405
20
5.55611117017749
30
0
41
1
10
65.1247491364452
20
5.55466399371173
30
0
41
1
10
65.1236773722722
20
5.55363148643287
30
0
41
1
10
65.1234895032445
20
5.5534452617921
30
0
0
SPLINE
5
153
100
AcDbEntity
8
1
62
256
6
ByLayer
370
18
48
1
60
0
100
AcDbSpline
70
4
71
2
72
6
73
3
40
0
40
0
40
0
40
1
40
1
40
1
41
1
10
65.1609773219789
20
5.47072492886505
30
0
41
1
10
65.1960988661502
20
5.05022830557824
30
0
41
1
10
65.2306683498182
20
4.62960853297133
30
0
0
SPLINE
5
154
100
AcDbEntity
8
1
62
256
6
ByLayer
370
18
48
1
60
0
100
AcDbSpline
70
4
71
3
72
27
73
23
40
0
40
0
40
0
40
0
40
0.0566104485312658
40
0.113379896348244
40
0.170166044190073
40
0.2268642699813
40
0.283414822026041
40
0.329499260919427
40
0.375737219999836
40
0.422001896283422
40
0.468191358658378
40
0.514234990731966
40
0.560616624405756
40
0.60720721195194
40
0.65386105443907
40
0.700436378875191
40
0.746805153883481
40
0.797444716543796
40
0.848251013116908
40
0.899078485837849
40
0.949747017892701
40
1
40
1
40
1
40
1
41
1
10
65.2306683498182
20
4.62960853297133
30
0
41
1
10
65.2309050623534
20
4.62671804322861
30
0
41
1
10
65.2314208766223
20
4.6210086618939
30
0
41
1
10
65.2323182308756
20
4.61266086559136
30
0
41
1
10
65.2333461789759
20
4.60458590578745
30
0
41
1
10
65.2345078553743
20
4.5968438389125
30
0
41
1
10
65.2357275170514
20
4.5899436206692
30
0
41
1
10
65.2369832166833
20
4.5838553114996
30
0
41
1
10
65.2382489021819
20
4.5785207728957
30
0
41
1
10
65.2396105140978
20
4.57354822798325
30
0
41
1
10
65.2410639396213
20
4.56898876744273
30
0
41
1
10
65.2426102098129
20
4.56487464859623
30
0
41
1
10
65.2442520892209
20
4.56126273745608
30
0
41
1
10
65.2459824502349
20
4.55817216845576
30
0
41
1
10
65.2477857825096
20
4.55562825649153
30
0
41
1
10
65.2496468517164
20
4.55365934070085
30
0
41
1
10
65.2516133502586
20
4.55225122729417
30
0
41
1
10
65.2536815490982
20
4.55149448961168
30
0
41
1
10
65.2558403256576
20
4.55141469280713
30
0
41
1
10
65.2580125861646
20
4.55200536831205
30
0
41
1
10
65.2601774856696
20
4.55324744029084
30
0
41
1
10
65.2616065034594
20
4.55447628775598
30
0
41
1
10
65.2623163231327
20
4.55519048910787
30
0
0
SPLINE
5
155
100
AcDbEntity
8
1
62
256
6
ByLayer
370
18
48
1
60
0
100
AcDbSpline
70
4
71
3
72
25
73
21
40
0
40
0
40
0
40
0
40
0.0423045988703934
40
0.0846608830028911
40
0.126978006306254
40
0.170799183741659
40
0.214660218178502
40
0.258491554410693
40
0.31426832185445
40
0.370100771122344
40
0.425893360969347
40
0.483227532430271
40
0.540601377701238
40
0.597945068655324
40
0.664275289256084
40
0.7306489278434
40
0.796987962127102
40
0.864645507446007
40
0.93233796002622
40
1
40
1
40
1
40
1
41
1
10
65.3157050661761
20
4.60857923215126
30
0
41
1
10
65.3164023414063
20
4.60928106055608
30
0
41
1
10
65.3177872246304
20
4.61086636195707
30
0
41
1
10
65.3198360367497
20
4.61380765729029
30
0
41
1
10
65.3218707317353
20
4.61729088585984
30
0
41
1
10
65.3238845892852
20
4.62130152509258
30
0
41
1
10
65.3258717546278
20
4.62580984656976
30
0
41
1
10
65.3279815671637
20
4.63117580254037
30
0
41
1
10
65.3301933576091
20
4.63749160913749
30
0
41
1
10
65.3324833566337
20
4.64482723676674
30
0
41
1
10
65.3347008854747
20
4.65270898926645
30
0
41
1
10
65.3368426263851
20
4.66109679262666
30
0
41
1
10
65.3389061314429
20
4.66995548373288
30
0
41
1
10
65.3409756610796
20
4.67964701639931
30
0
41
1
10
65.3430344445153
20
4.69019387125314
30
0
41
1
10
65.3450644408346
20
4.70160939565456
30
0
41
1
10
65.3469827344225
20
4.71342952527852
30
0
41
1
10
65.3487881979492
20
4.72562137705228
30
0
41
1
10
65.3504789404527
20
4.73816037189606
30
0
41
1
10
65.351522672028
20
4.74667003475555
30
0
41
1
10
65.3520234744574
20
4.75096365761053
30
0
0
SPLINE
5
156
100
AcDbEntity
8
1
62
256
6
ByLayer
370
18
48
1
60
0
100
AcDbSpline
70
4
71
3
72
13
73
9
40
0
40
0
40
0
40
0
40
0.166661427669304
40
0.333323165726028
40
0.499984620001256
40
0.666656313315648
40
0.833328283364891
40
1
40
1
40
1
40
1
41
1
10
65.3520234744574
20
4.75096365761053
30
0
41
1
10
65.3586532461926
20
4.80775951638215
30
0
41
1
10
65.3717610977471
20
4.92134683639424
30
0
41
1
10
65.3909638118282
20
5.09171470786171
30
0
41
1
10
65.4097196880524
20
5.26207167668739
30
0
41
1
10
65.4280365583957
20
5.43241693581821
30
0
41
1
10
65.4459217379244
20
5.60274970782154
30
0
41
1
10
65.4575644849498
20
5.71629356677237
30
0
41
1
10
65.4633150654981
20
5.77306267238428
30
0
0
SPLINE
5
157
100
AcDbEntity
8
1
62
256
6
ByLayer
370
18
48
1
60
0
100
AcDbSpline
70
4
71
3
72
27
73
23
40
0
40
0
40
0
40
0
40
0.0590058448518898
40
0.118056815848848
40
0.177102551747687
40
0.23610125225404
40
0.296853895029533
40
0.357674897486787
40
0.41848204378543
40
0.47921576974813
40
0.525522928198244
40
0.571951580325935
40
0.6184188895308
40
0.664858521057912
40
0.711223223437941
40
0.757487646586985
40
0.801552390203261
40
0.845761036501787
40
0.889989236499423
40
0.934141833440684
40
0.978159419063468
40
1
40
1
40
1
40
1
41
1
10
65.4633150654981
20
5.77306267238428
30
0
41
1
10
65.4637339777826
20
5.77720012418027
30
0
41
1
10
65.4646023549124
20
5.78541099094906
30
0
41
1
10
65.4659956983349
20
5.79753788764193
30
0
41
1
10
65.4674799323583
20
5.80944035441441
30
0
41
1
10
65.4690704948285
20
5.82120652004176
30
0
41
1
10
65.4707715050919
20
5.8328016275005
30
0
41
1
10
65.4725873921696
20
5.84418007877964
30
0
41
1
10
65.4745017871297
20
5.85518094353488
30
0
41
1
10
65.4763551021118
20
5.86491566588371
30
0
41
1
10
65.4781232970255
20
5.87345819884212
30
0
41
1
10
65.479785113985
20
5.88089680976327
30
0
41
1
10
65.4815061860103
20
5.88800040179373
30
0
41
1
10
65.4832835576972
20
5.89472249241489
30
0
41
1
10
65.4851143043987
20
5.90101593759525
30
0
41
1
10
65.4869668548511
20
5.90674803074153
30
0
41
1
10
65.4888392274005
20
5.91189970957441
30
0
41
1
10
65.4907267427168
20
5.91645954624641
30
0
41
1
10
65.4926542223894
20
5.92046566801483
30
0
41
1
10
65.4946117830943
20
5.92385797964703
30
0
41
1
10
65.4962604577582
20
5.92612396154959
30
0
41
1
10
65.4972528730781
20
5.9272079235659
30
0
41
1
10
65.4975827823284
20
5.92753854131605
30
0
0
SPLINE
5
158
100
AcDbEntity
8
1
62
256
6
ByLayer
370
18
48
1
60
0
100
AcDbSpline
70
4
71
2
72
6
73
3
40
0
40
0
40
0
40
1
40
1
40
1
41
1
10
65.5817781943281
20
4.9807183774813
30
0
41
1
10
65.5541806904582
20
5.40810555030854
30
0
41
1
10
65.5255266997967
20
5.83527430668289
30
0
0
SPLINE
5
159
100
AcDbEntity
8
1
62
256
6
ByLayer
370
18
48
1
60
0
100
AcDbSpline
70
4
71
3
72
28
73
24
40
0
40
0
40
0
40
0
40
0.0423436678003397
40
0.0848321233796538
40
0.127359062759935
40
0.1698272554194
40
0.212153871034687
40
0.254785986737618
40
0.297567296372783
40
0.340407664740475
40
0.383204885445529
40
0.42585039300457
40
0.478097684237196
40
0.530487799259134
40
0.582903408313326
40
0.635185556022849
40
0.686814972357185
40
0.738582152950245
40
0.790452123538023
40
0.842359663955969
40
0.894213674949391
40
0.945901148712939
40
1
40
1
40
1
40
1
41
1
10
65.6046582258829
20
4.89753239185814
30
0
41
1
10
65.6042243430087
20
4.89709885493799
30
0
41
1
10
65.603353835398
20
4.89638488847364
30
0
41
1
10
65.6020405116969
20
4.89577558328835
30
0
41
1
10
65.6007273949556
20
4.89563689513035
30
0
41
1
10
65.5994228026255
20
4.89597945440753
30
0
41
1
10
65.5981305770734
20
4.89681742119173
30
0
41
1
10
65.5968561755201
20
4.8981740805349
30
0
41
1
10
65.5956037616519
20
4.90003057732748
30
0
41
1
10
65.5943821859751
20
4.90236245271562
30
0
41
1
10
65.5931994776522
20
4.90514599365518
30
0
41
1
10
65.5919762954788
20
4.90860760122757
30
0
41
1
10
65.5907294192973
20
4.91285418310217
30
0
41
1
10
65.5894751591485
20
4.91794422576402
30
0
41
1
10
65.5882987557297
20
4.92354144477866
30
0
41
1
10
65.587208307317
20
4.92956620374763
30
0
41
1
10
65.5862039989274
20
4.9359723682639
30
0
41
1
10
65.5852814287425
20
4.94271105397386
30
0
41
1
10
65.5844349521478
20
4.94976876210336
30
0
41
1
10
65.5836638804804
20
4.95709865081002
30
0
41
1
10
65.5829674203335
20
4.9646531107779
30
0
41
1
10
65.5823345727567
20
4.97252402109498
30
0
41
1
10
65.5819579996031
20
4.97792384248588
30
0
41
1
10
65.5817781943281
20
4.9807183774813
30
0
0
SPLINE
5
15A
100
AcDbEntity
8
1
62
256
6
ByLayer
370
18
48
1
60
0
100
AcDbSpline
70
4
71
3
72
26
73
22
40
0
40
0
40
0
40
0
40
0.0650360491004607
40
0.130230905053171
40
0.195483120740994
40
0.260707623065161
40
0.325838450985593
40
0.390831717440959
40
0.441290840647695
40
0.491890733611008
40
0.54253614122681
40
0.593150303344831
40
0.643677997208034
40
0.694088864762716
40
0.740708628437363
40
0.787479101638206
40
0.834270496596737
40
0.88098314455815
40
0.927554257554424
40
0.963777922910885
40
1
40
1
40
1
40
1
41
1
10
65.6656694985281
20
5.06460968168122
30
0
41
1
10
65.6653677921414
20
5.06069037384404
30
0
41
1
10
65.6647360291118
20
5.05291690735717
30
0
41
1
10
65.6637053163293
20
5.04145908740021
30
0
41
1
10
65.6625892003854
20
5.03024353206466
30
0
41
1
10
65.6613876094992
20
5.01931708458202
30
0
41
1
10
65.660100277842
20
5.00873074501953
30
0
41
1
10
65.6588283690059
20
4.99928528810668
30
0
41
1
10
65.6575908132315
20
4.99091851061852
30
0
41
1
10
65.6564049850179
20
4.98355678027102
30
0
41
1
10
65.6551623445858
20
4.97650041937799
30
0
41
1
10
65.6538643704406
20
4.96979509295164
30
0
41
1
10
65.6525125205953
20
4.96348699946097
30
0
41
1
10
65.6511425394118
20
4.95776270781452
30
0
41
1
10
65.649757498109
20
4.95262602661705
30
0
41
1
10
65.6483625957458
20
4.94807115335316
30
0
41
1
10
65.6469250538394
20
4.94400532871505
30
0
41
1
10
65.6454513026521
20
4.94048345182915
30
0
41
1
10
65.6440574246216
20
4.93777584076676
30
0
41
1
10
65.6427552877211
20
4.93577460598407
30
0
41
1
10
65.6419548627359
20
4.93483100207357
30
0
41
1
10
65.6415524175318
20
4.93442658350703
30
0
0
SPLINE
5
15B
100
AcDbEntity
8
1
62
256
6
ByLayer
370
18
48
1
60
0
100
AcDbSpline
70
4
71
3
72
13
73
9
40
0
40
0
40
0
40
0
40
0.166663511768476
40
0.333327182048593
40
0.499990679613775
40
0.666660399449979
40
0.833330296340049
40
1
40
1
40
1
40
1
41
1
10
65.7351113440657
20
6.04485895095188
30
0
41
1
10
65.7315830633528
20
5.99042624294649
30
0
41
1
10
65.7244185922789
20
5.88155252049883
30
0
41
1
10
65.7133509118027
20
5.7182171171686
30
0
41
1
10
65.7019538846723
20
5.55485509385132
30
0
41
1
10
65.6902220006963
20
5.39146666537454
30
0
41
1
10
65.6781493605928
20
5.22805204615034
30
0
41
1
10
65.6698679527554
20
5.11909310424196
30
0
41
1
10
65.6656694985281
20
5.06460968168123
30
0
0
SPLINE
5
15C
100
AcDbEntity
8
1
62
256
6
ByLayer
370
18
48
1
60
0
100
AcDbSpline
70
4
71
3
72
28
73
24
40
0
40
0
40
0
40
0
40
0.0555879783868143
40
0.11134307624326
40
0.167151975045918
40
0.222923384024684
40
0.278591845195082
40
0.334121906986346
40
0.384155569319905
40
0.434350366915105
40
0.484570204011976
40
0.534708354002751
40
0.584694356628213
40
0.627271901367737
40
0.669994598224332
40
0.712754089638965
40
0.755453062163041
40
0.798010642103892
40
0.840660647136917
40
0.88346360176457
40
0.926325045987233
40
0.969140389837068
40
1
40
1
40
1
40
1
41
1
10
65.7755938533468
20
6.08534146023293
30
0
41
1
10
65.7754392477374
20
6.08864295233934
30
0
41
1
10
65.7751093731304
20
6.09518117331324
30
0
41
1
10
65.7745543305493
20
6.1047870305098
30
0
41
1
10
65.7739359258782
20
6.11414800587596
30
0
41
1
10
65.7732530564727
20
6.12321317446768
30
0
41
1
10
65.772504286938
20
6.13192699159355
30
0
41
1
10
65.7717147591321
20
6.13996983044109
30
0
41
1
10
65.7708886446986
20
6.14734207347104
30
0
41
1
10
65.7700322969145
20
6.15405755678619
30
0
41
1
10
65.7691173477686
20
6.16032949229667
30
0
41
1
10
65.768145925227
20
6.16609325757184
30
0
41
1
10
65.7671698047507
20
6.17103663710347
30
0
41
1
10
65.7661976393863
20
6.17519836115408
30
0
41
1
10
65.765239764165
20
6.17865963955184
30
0
41
1
10
65.7642467987376
20
6.18162597573124
30
0
41
1
10
65.7632242590229
20
6.18406479985164
30
0
41
1
10
65.7621753087834
20
6.18594898954537
30
0
41
1
10
65.7611020743868
20
6.18724308084458
30
0
41
1
10
65.760008900381
20
6.18795925610608
30
0
41
1
10
65.7589025380394
20
6.18810553636614
30
0
41
1
10
65.7578926073367
20
6.1877254477502
30
0
41
1
10
65.7572539154684
20
6.18720758919586
30
0
41
1
10
65.7569861439957
20
6.18694190340101
30
0
0
SPLINE
5
15D
100
AcDbEntity
8
1
62
256
6
ByLayer
370
18
48
1
60
0
100
AcDbSpline
70
4
71
3
72
11
73
7
40
0
40
0
40
0
40
0
40
0.249999553851202
40
0.499999105797058
40
0.749999553979355
40
1
40
1
40
1
40
1
41
1
10
65.7755938533467
20
6.08534146023294
30
0
41
1
10
65.7790022392517
20
6.01273652607545
30
0
41
1
10
65.7857502799034
20
5.8675137722223
30
0
41
1
10
65.795668488955
20
5.64964107854375
30
0
41
1
10
65.8053758562682
20
5.43172875634819
30
0
41
1
10
65.811701802071
20
5.28642669156277
30
0
41
1
10
65.8148287874837
20
5.21376897063683
30
0
0
SPLINE
5
15E
100
AcDbEntity
8
1
62
256
6
ByLayer
370
18
48
1
60
0
100
AcDbSpline
70
4
71
3
72
27
73
23
40
0
40
0
40
0
40
0
40
0.0566228708204675
40
0.11341795227315
40
0.170268874828463
40
0.227081641619604
40
0.283788545863491
40
0.340352468179314
40
0.391167299977395
40
0.442145611185784
40
0.493149603302669
40
0.544070980739251
40
0.594837912183485
40
0.638064351849291
40
0.681438069372765
40
0.724848782490431
40
0.768197782740259
40
0.811403422080111
40
0.858481284209753
40
0.905696847276438
40
0.952916518940685
40
1
40
1
40
1
40
1
41
1
10
65.8148287874837
20
5.21376897063682
30
0
41
1
10
65.8149567644053
20
5.21078946801974
30
0
41
1
10
65.8152293667435
20
5.20488914006186
30
0
41
1
10
65.8156870287245
20
5.19622132074478
30
0
41
1
10
65.8161951992384
20
5.1877754890707
30
0
41
1
10
65.8167542443924
20
5.17959788138035
30
0
41
1
10
65.8173647092879
20
5.17173890823086
30
0
41
1
10
65.8180050582273
20
5.16449363817455
30
0
41
1
10
65.8186713781449
20
5.15786041907304
30
0
41
1
10
65.8193579359296
20
5.1518249663539
30
0
41
1
10
65.8200876325594
20
5.14618849926227
30
0
41
1
10
65.8208580398773
20
5.14100884597799
30
0
41
1
10
65.8216275601505
20
5.13656687439091
30
0
41
1
10
65.8223893450731
20
5.13282726836059
30
0
41
1
10
65.8231356637417
20
5.12971706824153
30
0
41
1
10
65.8239050044722
20
5.12705149265322
30
0
41
1
10
65.8246926886137
20
5.12485985416931
30
0
41
1
10
65.8255192263226
20
5.12311847558819
30
0
41
1
10
65.8263836322655
20
5.1219116903621
30
0
41
1
10
65.8272820295152
20
5.1212843100334
30
0
41
1
10
65.828184476441
20
5.1212652686342
30
0
41
1
10
65.8287836442639
20
5.12165903552841
30
0
41
1
10
65.8290826536714
20
5.12195681964659
30
0
0
SPLINE
5
15F
100
AcDbEntity
8
1
62
256
6
ByLayer
370
18
48
1
60
0
100
AcDbSpline
70
4
71
3
72
26
73
22
40
0
40
0
40
0
40
0
40
0.0471723711151338
40
0.0945337886734062
40
0.141988939259814
40
0.189405669386939
40
0.236624621804107
40
0.283620163446079
40
0.330727990628457
40
0.37789650458884
40
0.425047128228349
40
0.472078652001908
40
0.532961788269923
40
0.594006759055083
40
0.655171799654328
40
0.716380218895497
40
0.777525444378019
40
0.838475612897853
40
0.892308879142406
40
0.946163662276551
40
1
40
1
40
1
40
1
41
1
10
65.8507614720156
20
5.14363563799081
30
0
41
1
10
65.8510580934884
20
5.14393764617086
30
0
41
1
10
65.8516480626097
20
5.14476612501785
30
0
41
1
10
65.8525228050398
20
5.14670560211351
30
0
41
1
10
65.8533814537692
20
5.14927721222605
30
0
41
1
10
65.8542185169764
20
5.15243936544118
30
0
41
1
10
65.8550285382241
20
5.15615124361878
30
0
41
1
10
65.8558096246536
20
5.16037853615663
30
0
41
1
10
65.8565625700315
20
5.16506718987075
30
0
41
1
10
65.8572874008053
20
5.17018397605274
30
0
41
1
10
65.8579823903973
20
5.17568126663047
30
0
41
1
10
65.8587119116488
20
5.18209629199273
30
0
41
1
10
65.8594656026171
20
5.18952393099231
30
0
41
1
10
65.8602325996596
20
5.19803892748828
30
0
41
1
10
65.8609518323531
20
5.2069807806507
30
0
41
1
10
65.8616233622224
20
5.21628903466932
30
0
41
1
10
65.862247228732
20
5.22590362231233
30
0
41
1
10
65.8628020686026
20
5.23539972779535
30
0
41
1
10
65.8632951930215
20
5.24471462385077
30
0
41
1
10
65.8637335004279
20
5.25380800144928
30
0
41
1
10
65.864003628248
20
5.25996804754885
30
0
41
1
10
65.8641330977777
20
5.26307328093086
30
0
0
SPLINE
5
160
100
AcDbEntity
8
1
62
256
6
ByLayer
370
18
48
1
60
0
100
AcDbSpline
70
4
71
3
72
11
73
7
40
0
40
0
40
0
40
0
40
0.249997064269343
40
0.499994142531975
40
0.749997065109894
40
1
40
1
40
1
40
1
41
1
10
65.8641330977777
20
5.26307328093087
30
0
41
1
10
65.8674224571562
20
5.34191726764526
30
0
41
1
10
65.8738064588146
20
5.49958489021257
30
0
41
1
10
65.8827914401347
20
5.73602698760258
30
0
41
1
10
65.8912062031294
20
5.97241009886846
30
0
41
1
10
65.8964486398412
20
6.12995978752113
30
0
41
1
10
65.8989769334283
20
6.20872454031446
30
0
0
SPLINE
5
161
100
AcDbEntity
8
1
62
256
6
ByLayer
370
18
48
1
60
0
100
AcDbSpline
70
4
71
3
72
28
73
24
40
0
40
0
40
0
40
0
40
0.0681395657654709
40
0.136317644356332
40
0.204447802342524
40
0.256923800639784
40
0.309453481957041
40
0.361973201724661
40
0.41443560172153
40
0.45963900914232
40
0.504971168980123
40
0.550346793261686
40
0.59569607295421
40
0.640967356085796
40
0.686130072453027
40
0.730420624794411
40
0.774859266040068
40
0.819325477537921
40
0.8637208009608
40
0.907974903517286
40
0.952532914131359
40
0.997289268099212
40
1
40
1
40
1
40
1
41
1
10
65.8989769334283
20
6.20872454031448
30
0
41
1
10
65.8991178988967
20
6.21311893734247
30
0
41
1
10
65.8994145379266
20
6.22181227485449
30
0
41
1
10
65.899903157655
20
6.23457748990167
30
0
41
1
10
65.900395178314
20
6.24605479765646
30
0
41
1
10
65.9008797871783
20
6.25629142246964
30
0
41
1
10
65.9013472744351
20
6.26534841101851
30
0
41
1
10
65.901841380638
20
6.27411670766121
30
0
41
1
10
65.9023379139252
20
6.28217042057305
30
0
41
1
10
65.9028333037166
20
6.28953073902094
30
0
41
1
10
65.9033238512444
20
6.2962282083781
30
0
41
1
10
65.9038342315122
20
6.30260611349733
30
0
41
1
10
65.9043632560782
20
6.30862171936155
30
0
41
1
10
65.904909737069
20
6.31423181739024
30
0
41
1
10
65.9054692891837
20
6.31936656945049
30
0
41
1
10
65.9060416105343
20
6.3239938564579
30
0
41
1
10
65.9066252483341
20
6.32809550783438
30
0
41
1
10
65.9072217089927
20
6.33166374931432
30
0
41
1
10
65.9078276510781
20
6.3346596999347
30
0
41
1
10
65.908441805616
20
6.33701125360309
30
0
41
1
10
65.9090629647204
20
6.33879145754056
30
0
41
1
10
65.9094911738424
20
6.33926286585486
30
0
41
1
10
65.9097124459807
20
6.33965833066623
30
0
41
1
10
65.9097250830816
20
6.33968084276262
30
0
0
SPLINE
5
162
100
AcDbEntity
8
1
62
256
6
ByLayer
370
18
48
1
60
0
100
AcDbSpline
70
4
71
3
72
11
73
7
40
0
40
0
40
0
40
0
40
0.249999058564244
40
0.499998121528653
40
0.749999058824701
40
1
40
1
40
1
40
1
41
1
10
65.9375827624114
20
5.33652294556448
30
0
41
1
10
65.9362367572319
20
5.41090326743123
30
0
41
1
10
65.933439871215
20
5.55964691024125
30
0
41
1
10
65.9289262204813
20
5.78271151455134
30
0
41
1
10
65.9241052958357
20
6.00572649429775
30
0
41
1
10
65.9206932660002
20
6.1543708381303
30
0
41
1
10
65.9189371688131
20
6.22868477569926
30
0
0
SPLINE
5
163
100
AcDbEntity
8
1
62
256
6
ByLayer
370
18
48
1
60
0
100
AcDbSpline
70
4
71
3
72
27
73
23
40
0
40
0
40
0
40
0
40
0.0442205808529649
40
0.0886116354036575
40
0.133067120848927
40
0.177470399226392
40
0.22170127206365
40
0.265964175655661
40
0.310356948557974
40
0.354812549649888
40
0.399240855845927
40
0.443533650865206
40
0.493098862621523
40
0.542798680200705
40
0.592595795702755
40
0.642426072146022
40
0.692202531224355
40
0.741818989082961
40
0.806304400605512
40
0.870887025480703
40
0.935488646709881
40
1
40
1
40
1
40
1
41
1
10
65.9430893639762
20
5.23596352995139
30
0
41
1
10
65.9429856050468
20
5.2358623440712
30
0
41
1
10
65.9427772499027
20
5.23584720422492
30
0
41
1
10
65.9424622319222
20
5.23639757145413
30
0
41
1
10
65.9421470986507
20
5.23749848515749
30
0
41
1
10
65.9418341081883
20
5.23913762127611
30
0
41
1
10
65.9415250202558
20
5.24130757735733
30
0
41
1
10
65.9412211149599
20
5.24400286660349
30
0
41
1
10
65.9409230981939
20
5.24718175912944
30
0
41
1
10
65.9406322009426
20
5.25081057008697
30
0
41
1
10
65.9403499571618
20
5.25485025560687
30
0
41
1
10
65.9400666015084
20
5.25944766972086
30
0
41
1
10
65.9397840967373
20
5.26463390508238
30
0
41
1
10
65.939503985963
20
5.27042008648488
30
0
41
1
10
65.9392369933297
20
5.27657730903215
30
0
41
1
10
65.9389837345538
20
5.28306049484067
30
0
41
1
10
65.9387448140149
20
5.28982488567083
30
0
41
1
10
65.9384980989364
20
5.29753964592772
30
0
41
1
10
65.9382487927465
20
5.30627293120288
30
0
41
1
10
65.9380022320697
20
5.31607119763383
30
0
41
1
10
65.9377790524492
20
5.32616108668502
30
0
41
1
10
65.9376455970917
20
5.33304257790846
30
0
41
1
10
65.9375827624114
20
5.33652294556448
30
0
0
SPLINE
5
164
100
AcDbEntity
8
1
62
256
6
ByLayer
370
18
48
1
60
0
100
AcDbSpline
70
4
71
3
72
26
73
22
40
0
40
0
40
0
40
0
40
0.0695257757279804
40
0.139095388899637
40
0.208609273421899
40
0.262358766413709
40
0.31617224204869
40
0.369973253616014
40
0.423705729196395
40
0.476276043453379
40
0.529005152348111
40
0.581756759172824
40
0.63442592995027
40
0.68694582616101
40
0.730936789484605
40
0.77507635864963
40
0.819247372439901
40
0.863350728743453
40
0.907311219336436
40
0.953656333059013
40
1
40
1
40
1
40
1
41
1
10
65.9538535161081
20
5.35279369926122
30
0
41
1
10
65.953814440661
20
5.34892586338725
30
0
41
1
10
65.9537309370337
20
5.34128136438681
30
0
41
1
10
65.9535901044622
20
5.33007631839273
30
0
41
1
10
65.9534444265952
20
5.32001714818328
30
0
41
1
10
65.9532974568126
20
5.31106174007985
30
0
41
1
10
65.9531525536314
20
5.3031530733438
30
0
41
1
10
65.9529962310544
20
5.29552913204175
30
0
41
1
10
65.9528293535109
20
5.28828002540584
30
0
41
1
10
65.9526514895783
20
5.28143328677004
30
0
41
1
10
65.9524625215301
20
5.27501587595681
30
0
41
1
10
65.9522610514562
20
5.26902303563481
30
0
41
1
10
65.9520472752163
20
5.26351604296327
30
0
41
1
10
65.9518334230857
20
5.25881658164847
30
0
41
1
10
65.951621379877
20
5.25487911304317
30
0
41
1
10
65.9514134095706
20
5.25162345437465
30
0
41
1
10
65.9511973211691
20
5.24883752338739
30
0
41
1
10
65.950974141707
20
5.24655690123104
30
0
41
1
10
65.9507404455286
20
5.24478647012046
30
0
41
1
10
65.9504964830839
20
5.24358969789128
30
0
41
1
10
65.9503279579248
20
5.24320389764694
30
0
41
1
10
65.950242819364
20
5.24311698533915
30
0
0
SPLINE
5
165
100
AcDbEntity
8
1
62
256
6
ByLayer
370
18
48
1
60
0
100
AcDbSpline
70
4
71
3
72
11
73
7
40
0
40
0
40
0
40
0
40
0.249998337354417
40
0.49999666758443
40
0.749998337835895
40
1
40
1
40
1
40
1
41
1
10
65.9596866353547
20
6.26943424224087
30
0
41
1
10
65.959480321224
20
6.19308651010266
30
0
41
1
10
65.9589291699828
20
6.04037190642357
30
0
41
1
10
65.9576915716008
20
5.81124189099685
30
0
41
1
10
65.9560289863015
20
5.58205276590051
30
0
41
1
10
65.9546270308693
20
5.4292199186925
30
0
41
1
10
65.953853516108
20
5.35279369926122
30
0
0
SPLINE
5
166
100
AcDbEntity
8
1
62
256
6
ByLayer
370
18
48
1
60
0
100
AcDbSpline
70
4
71
3
72
28
73
24
40
0
40
0
40
0
40
0
40
0.052648448798744
40
0.10534031432524
40
0.1580254613988
40
0.210664740901965
40
0.265049716690796
40
0.319504711412735
40
0.373945226606338
40
0.428310431197601
40
0.479258444797046
40
0.530360699704929
40
0.58148530128513
40
0.63253029015958
40
0.683430132997112
40
0.726583759187408
40
0.769883762840669
40
0.813216338312592
40
0.856483736726616
40
0.899609925436716
40
0.94291854206729
40
0.986398952210182
40
1
40
1
40
1
40
1
41
1
10
43.7305848105974
20
-15.9596675825165
30
0
41
1
10
43.7273004323101
20
-15.959676526844
30
0
41
1
10
43.7207877476127
20
-15.9596949309427
30
0
41
1
10
43.7111838744161
20
-15.959724158099
30
0
41
1
10
43.7017777374724
20
-15.9597547221763
30
0
41
1
10
43.6924933634386
20
-15.959786781295
30
0
41
1
10
43.6833652431901
20
-15.9598201783642
30
0
41
1
10
43.6744361058484
20
-15.9598546144588
30
0
41
1
10
43.6658483272642
20
-15.9598893544236
30
0
41
1
10
43.6578201665083
20
-15.9599232927264
30
0
41
1
10
43.650367290596
20
-15.9599560914164
30
0
41
1
10
43.6434976686123
20
-15.9599873802038
30
0
41
1
10
43.6370972063985
20
-15.9600174363267
30
0
41
1
10
43.6312319342284
20
-15.9600457425901
30
0
41
1
10
43.6262261397186
20
-15.9600705140121
30
0
41
1
10
43.6220359751136
20
-15.9600916639311
30
0
41
1
10
43.6185782187336
20
-15.9601093860611
30
0
41
1
10
43.6156438950532
20
-15.9601246366389
30
0
41
1
10
43.6132699355982
20
-15.9601371226811
30
0
41
1
10
43.6114914593025
20
-15.9601465591897
30
0
41
1
10
43.6103382454325
20
-15.9601527033959
30
0
41
1
10
43.609977388839
20
-15.9601545617048
30
0
41
1
10
43.6098990095494
20
-15.9601550389263
30
0
41
1
10
43.6098890087968
20
-15.9601551092587
30
0
0
SPLINE
5
167
100
AcDbEntity
8
1
62
256
6
ByLayer
370
18
48
1
60
0
100
AcDbSpline
70
4
71
3
72
11
73
7
40
0
40
0
40
0
40
0
40
0.24999828039272
40
0.499996568872384
40
0.749998280873791
40
1
40
1
40
1
40
1
41
1
10
44.647225353577
20
-15.9538344632698
30
0
41
1
10
44.5708001679609
20
-15.9546079676029
30
0
41
1
10
44.4179693878572
20
-15.9560099060407
30
0
41
1
10
44.1887812949889
20
-15.957672492654
30
0
41
1
10
43.959650245238
20
-15.9589101050654
30
0
41
1
10
43.8069335755027
20
-15.9594612656287
30
0
41
1
10
43.7305848105974
20
-15.9596675825165
30
0
0
SPLINE
5
168
100
AcDbEntity
8
1
62
256
6
ByLayer
370
18
48
1
60
0
100
AcDbSpline
70
4
71
3
72
26
73
22
40
0
40
0
40
0
40
0
40
0.0455575086292631
40
0.0912957987450317
40
0.13711296799263
40
0.182884030544144
40
0.228469136332414
40
0.273954757801527
40
0.319561235199423
40
0.365230027495264
40
0.410876866154693
40
0.456396431301714
40
0.511290540455325
40
0.566331567435027
40
0.621480870074753
40
0.676668726085167
40
0.731798856437092
40
0.786752542702892
40
0.857810694324303
40
0.928928771139987
40
1
40
1
40
1
40
1
41
1
10
44.7569020674991
20
-15.9502237665258
30
0
41
1
10
44.7568144940088
20
-15.9503074397805
30
0
41
1
10
44.7564339149342
20
-15.9504734254012
30
0
41
1
10
44.755229744875
20
-15.9507181339775
30
0
41
1
10
44.7534345363029
20
-15.9509570685513
30
0
41
1
10
44.7510745189278
20
-15.9511887109767
30
0
41
1
10
44.7481723994656
20
-15.9514117052768
30
0
41
1
10
44.7447482997869
20
-15.9516254471055
30
0
41
1
10
44.7408514441902
20
-15.951830236849
30
0
41
1
10
44.7365162295428
20
-15.9520259495916
30
0
41
1
10
44.7317866549091
20
-15.952212141744
30
0
41
1
10
44.7263461870374
20
-15.9524007275309
30
0
41
1
10
44.7201318765268
20
-15.9525895617168
30
0
41
1
10
44.7131009939882
20
-15.9527767438324
30
0
41
1
10
44.705673100388
20
-15.9529512568587
30
0
41
1
10
44.6979006194361
20
-15.9531133271461
30
0
41
1
10
44.6898356336413
20
-15.9532631755784
30
0
41
1
10
44.6807016457637
20
-15.9534147232786
30
0
41
1
10
44.6704360353164
20
-15.9535645326087
30
0
41
1
10
44.6589917501733
20
-15.9537090447141
30
0
41
1
10
44.6511793527285
20
-15.9537945240063
30
0
41
1
10
44.647225353577
20
-15.9538344632698
30
0
0
SPLINE
5
169
100
AcDbEntity
8
1
62
256
6
ByLayer
370
18
48
1
60
0
100
AcDbSpline
70
4
71
3
72
26
73
22
40
0
40
0
40
0
40
0
40
0.071457358873258
40
0.142967295274768
40
0.214407594713295
40
0.270033396974209
40
0.325743175226084
40
0.381434845213213
40
0.437035915628901
40
0.486309948021401
40
0.535737147342128
40
0.585189472920764
40
0.634565444017164
40
0.683796380733492
40
0.733452603526039
40
0.783339875097497
40
0.833285044743418
40
0.88313233882177
40
0.932754878164965
40
0.96637740245739
40
1
40
1
40
1
40
1
41
1
10
44.6634961072738
20
-15.9375637095732
30
0
41
1
10
44.6673523477643
20
-15.9376332950763
30
0
41
1
10
44.6749624567547
20
-15.9377819764624
30
0
41
1
10
44.686085327024
20
-15.9380331249088
30
0
41
1
10
44.6960469924912
20
-15.9382924025709
30
0
41
1
10
44.7048885320899
20
-15.938553223537
30
0
41
1
10
44.7126707257787
20
-15.9388093420056
30
0
41
1
10
44.7201140163769
20
-15.9390831381179
30
0
41
1
10
44.7269031477892
20
-15.939363289609
30
0
41
1
10
44.7330435680149
20
-15.9396478125217
30
0
41
1
10
44.7385578988368
20
-15.9399342584564
30
0
41
1
10
44.7436591016316
20
-15.9402334264849
30
0
41
1
10
44.7482935130983
20
-15.94054397277
30
0
41
1
10
44.7524285959293
20
-15.9408657940804
30
0
41
1
10
44.7560005332887
20
-15.941198674379
30
0
41
1
10
44.7589797815012
20
-15.9415411680151
30
0
41
1
10
44.7613315295491
20
-15.9418900704699
30
0
41
1
10
44.7630183146322
20
-15.9422422486873
30
0
41
1
10
44.7638944688679
20
-15.9425574148035
30
0
41
1
10
44.7641828857501
20
-15.9428335361051
30
0
41
1
10
44.7641342403592
20
-15.9429915034771
30
0
41
1
10
44.7640555228869
20
-15.943070311138
30
0
0
SPLINE
5
16A
100
AcDbEntity
8
1
62
256
6
ByLayer
370
18
48
1
60
0
100
AcDbSpline
70
4
71
3
72
11
73
7
40
0
40
0
40
0
40
0
40
0.249999089567421
40
0.499998175255705
40
0.749999089827998
40
1
40
1
40
1
40
1
41
1
10
43.771334277139
20
-15.9189181159749
30
0
41
1
10
43.8456476643104
20
-15.9206742001424
30
0
41
1
10
43.9942909071012
20
-15.9240862054459
30
0
41
1
10
44.2173053357164
20
-15.9289071215346
30
0
41
1
10
44.440370490166
20
-15.9334207868991
30
0
41
1
10
44.5891152345136
20
-15.9362176944108
30
0
41
1
10
44.6634961072737
20
-15.9375637095731
30
0
0
SPLINE
5
16B
100
AcDbEntity
8
1
62
256
6
ByLayer
370
18
48
1
60
0
100
AcDbSpline
70
4
71
3
72
27
73
23
40
0
40
0
40
0
40
0
40
0.0600738705683482
40
0.120337283310135
40
0.180661830169164
40
0.240943914193097
40
0.301109190988617
40
0.361117448777056
40
0.412848592228229
40
0.46474250377125
40
0.51666022178783
40
0.568494073048944
40
0.620174689431572
40
0.66354950198574
40
0.707071456820146
40
0.750627563914076
40
0.794119449094154
40
0.837468957745283
40
0.880973085193139
40
0.924644171335849
40
0.968374873136792
40
1
40
1
40
1
40
1
41
1
10
43.771334277139
20
-15.9189181159749
30
0
41
1
10
43.7676867354074
20
-15.9188321753574
30
0
41
1
10
43.7604629576376
20
-15.9186491278912
30
0
41
1
10
43.7498498823003
20
-15.9183421110481
30
0
41
1
10
43.7395086868697
20
-15.9180007542159
30
0
41
1
10
43.7294977222197
20
-15.917624371338
30
0
41
1
10
43.7198805482769
20
-15.9172120801466
30
0
41
1
10
43.7111305782707
20
-15.9167834255491
30
0
41
1
10
43.7032274899331
20
-15.9163422992733
30
0
41
1
10
43.6961333004204
20
-15.9158933798338
30
0
41
1
10
43.6894981455879
20
-15.9154145057328
30
0
41
1
10
43.6833901722212
20
-15.9149065206306
30
0
41
1
10
43.6781636884204
20
-15.9143984984154
30
0
41
1
10
43.6737711030898
20
-15.9138951182348
30
0
41
1
10
43.6701233795344
20
-15.9134018201613
30
0
41
1
10
43.6669834927969
20
-15.9128902078179
30
0
41
1
10
43.6643888948099
20
-15.9123629055306
30
0
41
1
10
43.6623693576499
20
-15.9118211465361
30
0
41
1
10
43.6609691284445
20
-15.9112657373629
30
0
41
1
10
43.6601792716553
20
-15.9106990282074
30
0
41
1
10
43.6600219389931
20
-15.9101773566916
30
0
41
1
10
43.660208386017
20
-15.9098455657578
30
0
41
1
10
43.6603383148583
20
-15.9097059255873
30
0
0
SPLINE
5
16C
100
AcDbEntity
8
1
62
256
6
ByLayer
370
18
48
1
60
0
100
AcDbSpline
70
4
71
3
72
11
73
7
40
0
40
0
40
0
40
0
40
0.249997162771093
40
0.499994313231154
40
0.74999716361286
40
1
40
1
40
1
40
1
41
1
10
43.7912945125238
20
-15.8989578805901
30
0
41
1
10
43.8700574467814
20
-15.8964296452986
30
0
41
1
10
44.0276034974282
20
-15.8911873338995
30
0
41
1
10
44.2639847873561
20
-15.8827726550137
30
0
41
1
10
44.5004287023386
20
-15.8737876247278
30
0
41
1
10
44.6580999647848
20
-15.8674034801841
30
0
41
1
10
44.7369457719074
20
-15.8641140449395
30
0
0
SPLINE
5
16D
100
AcDbEntity
8
1
62
256
6
ByLayer
370
18
48
1
60
0
100
AcDbSpline
70
4
71
3
72
25
73
21
40
0
40
0
40
0
40
0
40
0.0679325461190528
40
0.136076815299983
40
0.204292487409295
40
0.272464579177701
40
0.340508130690043
40
0.408373338828555
40
0.464662963088589
40
0.521118147869673
40
0.577593681103128
40
0.633980387095833
40
0.690212414075134
40
0.734958063965697
40
0.779848520751391
40
0.824764397607062
40
0.869609578266399
40
0.914317134737576
40
0.957159626008307
40
1
40
1
40
1
40
1
41
1
10
44.7369457719074
20
-15.8641140449395
30
0
41
1
10
44.7408656451213
20
-15.8639507118956
30
0
41
1
10
44.7486325118619
20
-15.863605670217
30
0
41
1
10
44.7600546279512
20
-15.8630345478506
30
0
41
1
10
44.7711981185391
20
-15.862407610253
30
0
41
1
10
44.782002731146
20
-15.8617244016096
30
0
41
1
10
44.7924029576201
20
-15.8609842545556
30
0
41
1
10
44.8017807150929
20
-15.8602312999233
30
0
41
1
10
44.8101761704775
20
-15.8594744304749
30
0
41
1
10
44.8176445695335
20
-15.858722733017
30
0
41
1
10
44.8246718681813
20
-15.8579279266719
30
0
41
1
10
44.831188182166
20
-15.8570914428158
30
0
41
1
10
44.8367282173753
20
-15.8562736541005
30
0
41
1
10
44.8413643033399
20
-15.855483425327
30
0
41
1
10
44.8452017040501
20
-15.8547296002629
30
0
41
1
10
44.8485719350099
20
-15.8539522799284
30
0
41
1
10
44.8514313566382
20
-15.8531551410888
30
0
41
1
10
44.8537043064764
20
-15.8523522293361
30
0
41
1
10
44.8553834897923
20
-15.8515468221851
30
0
41
1
10
44.856111777025
20
-15.8510117222038
30
0
41
1
10
44.8563834148474
20
-15.8507424191774
30
0
0
SPLINE
5
16E
100
AcDbEntity
8
1
62
256
6
ByLayer
370
18
48
1
60
0
100
AcDbSpline
70
4
71
3
72
27
73
23
40
0
40
0
40
0
40
0
40
0.0431426659771197
40
0.0864436670287081
40
0.129795492596031
40
0.173090857947959
40
0.216228779909935
40
0.259534833746913
40
0.302980177998478
40
0.346487389361665
40
0.389960376165641
40
0.433289689801443
40
0.488395068050863
40
0.543637968139542
40
0.59890856090804
40
0.654051792631355
40
0.71153860913142
40
0.76917622926149
40
0.826926260815151
40
0.884717325738088
40
0.942449778629882
40
1
40
1
40
1
40
1
41
1
10
44.8780622331917
20
-15.8290636008332
30
0
41
1
10
44.8783347379022
20
-15.8287897058155
30
0
41
1
10
44.8787099944586
20
-15.8282405368001
30
0
41
1
10
44.8787571338906
20
-15.827412946878
30
0
41
1
10
44.8782939683591
20
-15.8265870335424
30
0
41
1
10
44.8773204893926
20
-15.8257683971721
30
0
41
1
10
44.8758317661491
20
-15.8249606098604
30
0
41
1
10
44.873818618247
20
-15.8241670973275
30
0
41
1
10
44.871312606722
20
-15.8233898860708
30
0
41
1
10
44.8683442788735
20
-15.8226331700839
30
0
41
1
10
44.8649461055544
20
-15.8219012608638
30
0
41
1
10
44.860796187863
20
-15.8211335148764
30
0
41
1
10
44.8557792677916
20
-15.8203412874322
30
0
41
1
10
44.8498229707695
20
-15.8195362731325
30
0
41
1
10
44.8433756178627
20
-15.8187811030357
30
0
41
1
10
44.8363985951462
20
-15.8180674250497
30
0
41
1
10
44.8289145390725
20
-15.8173980535002
30
0
41
1
10
44.8209509357316
20
-15.8167736124441
30
0
41
1
10
44.8126550832147
20
-15.8162023151847
30
0
41
1
10
44.8040800371341
20
-15.815683625416
30
0
41
1
10
44.7952746844741
20
-15.8152171690404
30
0
41
1
10
44.7892784816941
20
-15.814939806483
30
0
41
1
10
44.7862500822014
20
-15.8148097346455
30
0
0
SPLINE
5
16F
100
AcDbEntity
8
1
62
256
6
ByLayer
370
18
48
1
60
0
100
AcDbSpline
70
4
71
3
72
11
73
7
40
0
40
0
40
0
40
0
40
0.249999538622056
40
0.499999079405741
40
0.749999538750196
40
1
40
1
40
1
40
1
41
1
10
44.7862500822014
20
-15.8148097346455
30
0
41
1
10
44.7135926249924
20
-15.8116827605871
30
0
41
1
10
44.5682910875449
20
-15.8053568380071
30
0
41
1
10
44.3503790287757
20
-15.7956494836114
30
0
41
1
10
44.1325060712895
20
-15.7857312636849
30
0
41
1
10
43.9872827902891
20
-15.7789831987891
30
0
41
1
10
43.9146775926053
20
-15.7755748005086
30
0
0
SPLINE
5
170
100
AcDbEntity
8
1
62
256
6
ByLayer
370
18
48
1
60
0
100
AcDbSpline
70
4
71
3
72
28
73
24
40
0
40
0
40
0
40
0
40
0.0657099055372001
40
0.131451336144667
40
0.197154977747995
40
0.247507994883354
40
0.297901565888199
40
0.348288535363145
40
0.39863254294615
40
0.446951530809302
40
0.495405011259601
40
0.543902206891655
40
0.592369836348126
40
0.640754998257878
40
0.689028324277339
40
0.734565551430606
40
0.780251743887788
40
0.825960550077316
40
0.871593314186202
40
0.917085587977128
40
0.955392613150553
40
0.993830081453772
40
1
40
1
40
1
40
1
41
1
10
43.9551601018864
20
-15.7350922912275
30
0
41
1
10
43.9507560025081
20
-15.7353775180335
30
0
41
1
10
43.9420327786898
20
-15.7359738753521
30
0
41
1
10
43.9291937987535
20
-15.7369453739931
30
0
41
1
10
43.9176269748919
20
-15.7379129424775
30
0
41
1
10
43.9072862867137
20
-15.7388571473632
30
0
41
1
10
43.8981154608352
20
-15.7397608130941
30
0
41
1
10
43.8891877771007
20
-15.7407110967769
30
0
41
1
10
43.8806477677228
20
-15.7416945535905
30
0
41
1
10
43.8725050641465
20
-15.7427103296358
30
0
41
1
10
43.8647713125596
20
-15.743756969303
30
0
41
1
10
43.8573689797154
20
-15.7448480797622
30
0
41
1
10
43.8503463422446
20
-15.7459817172046
30
0
41
1
10
43.8437522609295
20
-15.7471559629151
30
0
41
1
10
43.8377440054126
20
-15.7483468030071
30
0
41
1
10
43.8323360485268
20
-15.7495523075938
30
0
41
1
10
43.8275315208461
20
-15.7507686926008
30
0
41
1
10
43.8232689070309
20
-15.7520157937875
30
0
41
1
10
43.8196044000517
20
-15.7532873799618
30
0
41
1
10
43.8167569679491
20
-15.7545109200865
30
0
41
1
10
43.8146364167098
20
-15.7556796767328
30
0
41
1
10
43.8136288919888
20
-15.7564779742438
30
0
41
1
10
43.8131425878159
20
-15.7569076954259
30
0
41
1
10
43.8130770899791
20
-15.7569671505449
30
0
0
SPLINE
5
171
100
AcDbEntity
8
1
62
256
6
ByLayer
370
18
48
1
60
0
100
AcDbSpline
70
4
71
3
72
13
73
9
40
0
40
0
40
0
40
0
40
0.166663399094996
40
0.333326991398295
40
0.499990406667149
40
0.666660208797876
40
0.833330183663786
40
1
40
1
40
1
40
1
41
1
10
44.935409371157
20
-15.6656504456899
30
0
41
1
10
44.8809280095277
20
-15.6698487411562
30
0
41
1
10
44.7719731888825
20
-15.6781298401164
30
0
41
1
10
44.6085647497435
20
-15.6902020431747
30
0
41
1
10
44.4451783791583
20
-15.7019338112286
30
0
41
1
10
44.2818142936465
20
-15.7133310133953
30
0
41
1
10
44.1184727102351
20
-15.7243991309371
30
0
41
1
10
44.009594868981
20
-15.7315638770972
30
0
41
1
10
43.9551601018864
20
-15.7350922912275
30
0
0
SPLINE
5
172
100
AcDbEntity
8
1
62
256
6
ByLayer
370
18
48
1
60
0
100
AcDbSpline
70
4
71
3
72
27
73
23
40
0
40
0
40
0
40
0
40
0.040330212441679
40
0.0807072536043958
40
0.121046042561739
40
0.162840696581543
40
0.20467503229906
40
0.24647831772444
40
0.296640968715515
40
0.346853087047599
40
0.397028271890189
40
0.448619143940647
40
0.500247021982133
40
0.551846528915305
40
0.60700711712794
40
0.662224897812557
40
0.717452242526186
40
0.772625885704511
40
0.829443946840176
40
0.886306938022337
40
0.94317500794536
40
1
40
1
40
1
40
1
41
1
10
45.0655924693312
20
-15.6415333646936
30
0
41
1
10
45.0651410827918
20
-15.6419815770277
30
0
41
1
10
45.0640724013789
20
-15.6428727780764
30
0
41
1
10
45.0619588610102
20
-15.6441944404415
30
0
41
1
10
45.0593463148834
20
-15.6455100600861
30
0
41
1
10
45.0562387379054
20
-15.6468148033879
30
0
41
1
10
45.0526580256899
20
-15.6481043103458
30
0
41
1
10
45.048408492159
20
-15.6494443567267
30
0
41
1
10
45.0434279846662
20
-15.6508242268568
30
0
41
1
10
45.0376737968538
20
-15.6522322810397
30
0
41
1
10
45.0314281976787
20
-15.6535988214621
30
0
41
1
10
45.0247211984939
20
-15.6549211054444
30
0
41
1
10
45.0175828860808
20
-15.656197372977
30
0
41
1
10
45.0099409517688
20
-15.6574436807353
30
0
41
1
10
45.0018033789727
20
-15.6586560319749
30
0
41
1
10
44.9931793305703
20
-15.6598305973629
30
0
41
1
10
44.9842822717308
20
-15.6609412442147
30
0
41
1
10
44.9750533775314
20
-15.6619990612183
30
0
41
1
10
44.9655084148133
20
-15.6630031832629
30
0
41
1
10
44.9556613169019
20
-15.6639526774228
30
0
41
1
10
44.945627529911
20
-15.6648382920091
30
0
41
1
10
44.9388332022498
20
-15.665386806755
30
0
41
1
10
44.935409371157
20
-15.6656504456899
30
0
0
SPLINE
5
173
100
AcDbEntity
8
1
62
256
6
ByLayer
370
18
48
1
60
0
100
AcDbSpline
70
4
71
3
72
26
73
22
40
0
40
0
40
0
40
0
40
0.0623355332095773
40
0.124856278541634
40
0.187396754214184
40
0.249834976839479
40
0.312101098979471
40
0.360769921022562
40
0.409598389824259
40
0.458453375873491
40
0.507228993690412
40
0.555853347450484
40
0.604881075665599
40
0.654138603795591
40
0.703459880547323
40
0.752689401546281
40
0.801693530839044
40
0.85118445917735
40
0.900830112458393
40
0.950489831765368
40
1
40
1
40
1
40
1
41
1
10
45.019300675357
20
-15.5817591414899
30
0
41
1
10
45.0225214728545
20
-15.5819664115102
30
0
41
1
10
45.0288824954332
20
-15.5824155567864
30
0
41
1
10
45.0381800978323
20
-15.5831902899016
30
0
41
1
10
45.0471685093399
20
-15.5840709941354
30
0
41
1
10
45.0557779774827
20
-15.5850595562624
30
0
41
1
10
45.0633498766059
20
-15.5860790420179
30
0
41
1
10
45.0699348507294
20
-15.587107135741
30
0
41
1
10
45.0756166263445
20
-15.5881197858905
30
0
41
1
10
45.0809165368735
20
-15.5892026063303
30
0
41
1
10
45.0857798720203
20
-15.5903522282805
30
0
41
1
10
45.0901735697851
20
-15.5915696638899
30
0
41
1
10
45.0940351075995
20
-15.5928569609249
30
0
41
1
10
45.0973386569783
20
-15.5942088914015
30
0
41
1
10
45.1000516608299
20
-15.5956129938354
30
0
41
1
10
45.102138357389
20
-15.5970572105141
30
0
41
1
10
45.1035685428122
20
-15.5985377446052
30
0
41
1
10
45.1043043100696
20
-15.6000478823678
30
0
41
1
10
45.104376129406
20
-15.6015782764778
30
0
41
1
10
45.1037988155626
20
-15.6031136744419
30
0
41
1
10
45.1029940955323
20
-15.6041315907804
30
0
41
1
10
45.1024866609801
20
-15.6046391730447
30
0
0
SPLINE
5
174
100
AcDbEntity
8
1
62
256
6
ByLayer
370
18
48
1
60
0
100
AcDbSpline
70
4
71
2
72
6
73
3
40
0
40
0
40
0
40
1
40
1
40
1
41
1
10
44.1647447461554
20
-15.5255076469585
30
0
41
1
10
44.5919135025322
20
-15.5541616376059
30
0
41
1
10
45.019300675357
20
-15.5817591414899
30
0
0
SPLINE
5
175
100
AcDbEntity
8
1
62
256
6
ByLayer
370
18
48
1
60
0
100
AcDbSpline
70
4
71
3
72
29
73
25
40
0
40
0
40
0
40
0
40
0.0510988476413637
40
0.102343659202334
40
0.153635369128021
40
0.204894287036027
40
0.256063323643116
40
0.307111522702439
40
0.355091569400262
40
0.403229046421203
40
0.451392311310585
40
0.499476972553639
40
0.54741258060303
40
0.595750010604317
40
0.644314527719404
40
0.692942321275565
40
0.741479689014834
40
0.789794242578741
40
0.83125607044684
40
0.872851781258897
40
0.914504686532853
40
0.956122695530303
40
0.997603286274789
40
1
40
1
40
1
40
1
41
1
10
44.1647447461554
20
-15.5255076469585
30
0
41
1
10
44.1617595344934
20
-15.525307938552
30
0
41
1
10
44.1558476107681
20
-15.5248804897625
30
0
41
1
10
44.1471611271006
20
-15.524157513618
30
0
41
1
10
44.1386941441876
20
-15.5233484433214
30
0
41
1
10
44.1304909473196
20
-15.5224516352792
30
0
41
1
10
44.1225999106671
20
-15.5214649736899
30
0
41
1
10
44.1152114411021
20
-15.5204076077779
30
0
41
1
10
44.1083412772737
20
-15.5192807613041
30
0
41
1
10
44.1019960012145
20
-15.5180894959345
30
0
41
1
10
44.096076193641
20
-15.5168117234716
30
0
41
1
10
44.0906432591392
20
-15.51545059217
30
0
41
1
10
44.085734188495
20
-15.5140040994867
30
0
41
1
10
44.0814194515868
20
-15.5124685914071
30
0
41
1
10
44.0777280881739
20
-15.5108494512079
30
0
41
1
10
44.0746962827693
20
-15.5091610578488
30
0
41
1
10
44.0723639937461
20
-15.5074171936973
30
0
41
1
10
44.0708446868085
20
-15.5057119354052
30
0
41
1
10
44.0700513985027
20
-15.5040594861872
30
0
41
1
10
44.069839604528
20
-15.5024709297859
30
0
41
1
10
44.0701540470034
20
-15.500867931362
30
0
41
1
10
44.0709793871103
20
-15.4992609336846
30
0
41
1
10
44.071889015628
20
-15.4981600494375
30
0
41
1
10
44.0724476500601
20
-15.4975965761513
30
0
41
1
10
44.0724784403577
20
-15.4975657999948
30
0
0
SPLINE
5
176
100
AcDbEntity
8
1
62
256
6
ByLayer
370
18
48
1
60
0
100
AcDbSpline
70
4
71
3
72
13
73
9
40
0
40
0
40
0
40
0
40
0.166661612839986
40
0.333323479047844
40
0.499985068572862
40
0.666656626642219
40
0.833328468542915
40
1
40
1
40
1
40
1
41
1
10
44.226956380454
20
-15.4632960126599
30
0
41
1
10
44.2837220446579
20
-15.4575457806084
30
0
41
1
10
44.39725902012
20
-15.4459037479291
30
0
41
1
10
44.5675814648662
20
-15.4280196912938
30
0
41
1
10
44.7379232793609
20
-15.4097032569835
30
0
41
1
10
44.908283688525
20
-15.3909470690912
30
0
41
1
10
45.0786618872633
20
-15.3717432321597
30
0
41
1
10
45.1922560932128
20
-15.3586345951691
30
0
41
1
10
45.2490553952277
20
-15.3520044216191
30
0
0
SPLINE
5
177
100
AcDbEntity
8
1
62
256
6
ByLayer
370
18
48
1
60
0
100
AcDbSpline
70
4
71
3
72
27
73
23
40
0
40
0
40
0
40
0
40
0.0608225769398563
40
0.1216927014174
40
0.182557804448544
40
0.243373528505199
40
0.306022193534152
40
0.368741706923003
40
0.431447219363596
40
0.494076769816723
40
0.540298361522904
40
0.586538784167617
40
0.632755104034288
40
0.679884159997634
40
0.727040825958476
40
0.774160388392066
40
0.811316453521946
40
0.84849225829668
40
0.885642683083638
40
0.923754721920034
40
0.961896313707843
40
1
40
1
40
1
40
1
41
1
10
45.2490553952277
20
-15.3520044216191
30
0
41
1
10
45.2529144650827
20
-15.3515542256203
30
0
41
1
10
45.2605723318716
20
-15.3506196483544
30
0
41
1
10
45.2718806525947
20
-15.3491164062828
30
0
41
1
10
45.2829779215769
20
-15.3475110030392
30
0
41
1
10
45.2939478847996
20
-15.3457860040934
30
0
41
1
10
45.3047583229983
20
-15.3439361812172
30
0
41
1
10
45.3153668430708
20
-15.3419557342702
30
0
41
1
10
45.3256222881009
20
-15.3398619108336
30
0
41
1
10
45.3346160943956
20
-15.3378468310171
30
0
41
1
10
45.342424332649
20
-15.3359421901585
30
0
41
1
10
45.3491371221159
20
-15.3341754082865
30
0
41
1
10
45.3555954428819
20
-15.3323328232274
30
0
41
1
10
45.3617615375892
20
-15.3304128872168
30
0
41
1
10
45.3675907364564
20
-15.3284149708622
30
0
41
1
10
45.3726210706492
20
-15.3264980708056
30
0
41
1
10
45.3769126297418
20
-15.3246790509272
30
0
41
1
10
45.3805395601314
20
-15.3229723375182
30
0
41
1
10
45.3838565584787
20
-15.3212159129609
30
0
41
1
10
45.3868215185079
20
-15.3194114769139
30
0
41
1
10
45.3893975915981
20
-15.3175619886442
30
0
41
1
10
45.3908086423793
20
-15.3163139003966
30
0
41
1
10
45.391439820687
20
-15.3156860133379
30
0
0
SPLINE
5
178
100
AcDbEntity
8
1
62
256
6
ByLayer
370
18
48
1
60
0
100
AcDbSpline
70
4
71
3
72
27
73
23
40
0
40
0
40
0
40
0
40
0.0524086979158131
40
0.104980016941753
40
0.157524074725401
40
0.209895479269544
40
0.252221695755108
40
0.294708068952718
40
0.337248570392751
40
0.379734344898591
40
0.422060057356173
40
0.472252519079549
40
0.522599039490648
40
0.572968308555491
40
0.623191883770941
40
0.677972230295393
40
0.732922818531287
40
0.787973470694328
40
0.843003487775096
40
0.897850666597731
40
0.948924157964853
40
1
40
1
40
1
40
1
41
1
10
45.4448285637304
20
-15.2622972702945
30
0
41
1
10
45.4455703509565
20
-15.2615567653514
30
0
41
1
10
45.4468357252397
20
-15.2600699108844
30
0
41
1
10
45.4480858625491
20
-15.2578220535295
30
0
41
1
10
45.4486438935588
20
-15.2555763492797
30
0
41
1
10
45.4484847153662
20
-15.2534909707832
30
0
41
1
10
45.4477183406249
20
-15.2515756580655
30
0
41
1
10
45.4465055594396
20
-15.2498292299128
30
0
41
1
10
45.4448027619705
20
-15.2481206783751
30
0
41
1
10
45.4426222671379
20
-15.2464628083076
30
0
41
1
10
45.4398053402782
20
-15.2447666680301
30
0
41
1
10
45.4362473437704
20
-15.243054215168
30
0
41
1
10
45.4318996584123
20
-15.2413459924298
30
0
41
1
10
45.4270137772033
20
-15.2397436525669
30
0
41
1
10
45.4214775411924
20
-15.2382093476248
30
0
41
1
10
45.4152780065145
20
-15.2367593150917
30
0
41
1
10
45.4084336307731
20
-15.2354016105404
30
0
41
1
10
45.4011827289593
20
-15.2341752971577
30
0
41
1
10
45.3935958531125
20
-15.2330793935676
30
0
41
1
10
45.3859049440799
20
-15.2321334016917
30
0
41
1
10
45.3781687265912
20
-15.2313237130185
30
0
41
1
10
45.3730178337336
20
-15.2308628367267
30
0
41
1
10
45.3704105198669
20
-15.2306492969799
30
0
0
SPLINE
5
179
100
AcDbEntity
8
1
62
256
6
ByLayer
370
18
48
1
60
0
100
AcDbSpline
70
4
71
2
72
6
73
3
40
0
40
0
40
0
40
1
40
1
40
1
41
1
10
45.3704105198669
20
-15.2306492969799
30
0
41
1
10
44.9497907472596
20
-15.1960798133141
30
0
41
1
10
44.5292941239732
20
-15.1609582691407
30
0
0
SPLINE
5
17A
100
AcDbEntity
8
1
62
256
6
ByLayer
370
18
48
1
60
0
100
AcDbSpline
70
4
71
3
72
27
73
23
40
0
40
0
40
0
40
0
40
0.0634490895874874
40
0.126948551326906
40
0.190442685691077
40
0.25388450479711
40
0.306194424553396
40
0.358566693830522
40
0.410949953469137
40
0.463303234372339
40
0.515597209873972
40
0.561713989809287
40
0.607942958296281
40
0.654206411046057
40
0.70044286994546
40
0.746609474586192
40
0.792684586769714
40
0.836396138986798
40
0.880248657928
40
0.924116031504134
40
0.96790530915467
40
1
40
1
40
1
40
1
41
1
10
44.6152825435801
20
-15.0749698495338
30
0
41
1
10
44.6105886771724
20
-15.0756374842039
30
0
41
1
10
44.6012743566396
20
-15.0770189468262
30
0
41
1
10
44.5875202574754
20
-15.0792285736166
30
0
41
1
10
44.5740236739528
20
-15.0815749012084
30
0
41
1
10
44.5615878869291
20
-15.0839120259752
30
0
41
1
10
44.550180835788
20
-15.0862138623359
30
0
41
1
10
44.5397632442769
20
-15.0884577358645
30
0
41
1
10
44.5296077849966
20
-15.0907964573387
30
0
41
1
10
44.5197506353672
20
-15.0932287747246
30
0
41
1
10
44.5105980188782
20
-15.0956552049653
30
0
41
1
10
44.5021291022408
20
-15.098065305538
30
0
41
1
10
44.4943226609979
20
-15.1004492577773
30
0
41
1
10
44.4868522491166
20
-15.1029096755885
30
0
41
1
10
44.479765095171
20
-15.1054429297017
30
0
41
1
10
44.4731091362036
20
-15.1080454568166
30
0
41
1
10
44.4670314905116
20
-15.1106695316454
30
0
41
1
10
44.4615495272304
20
-15.1133125278742
30
0
41
1
10
44.4566780940804
20
-15.1159687810228
30
0
41
1
10
44.4523749937062
20
-15.1186772864762
30
0
41
1
10
44.44902613209
20
-15.1211840956109
30
0
41
1
10
44.4472605288935
20
-15.1227880115015
30
0
41
1
10
44.4465746634133
20
-15.1234695784911
30
0
0
SPLINE
5
17B
100
AcDbEntity
8
1
62
256
6
ByLayer
370
18
48
1
60
0
100
AcDbSpline
70
4
71
3
72
13
73
9
40
0
40
0
40
0
40
0
40
0.166658321525437
40
0.333317138668936
40
0.499975503906799
40
0.666650176396258
40
0.833325289270451
40
1
40
1
40
1
40
1
41
1
10
45.6891533974312
20
-14.9119064194157
30
0
41
1
10
45.6295040973183
20
-14.9215542253039
30
0
41
1
10
45.5102022503888
20
-14.9406498886008
30
0
41
1
10
45.3312393162504
20
-14.9686881441537
30
0
41
1
10
45.1522633788787
20
-14.9961379562102
30
0
41
1
10
44.9732763469962
20
-15.0230098186347
30
0
41
1
10
44.7942800410052
20
-15.0493135412642
30
0
41
1
10
44.6749485206831
20
-15.0664798819382
30
0
41
1
10
44.6152825435801
20
-15.0749698495338
30
0
0
SPLINE
5
17C
100
AcDbEntity
8
1
62
256
6
ByLayer
370
18
48
1
60
0
100
AcDbSpline
70
4
71
3
72
26
73
22
40
0
40
0
40
0
40
0
40
0.0447950599600143
40
0.0896466323306664
40
0.134458733468639
40
0.180804954907739
40
0.227190565296574
40
0.273548123147931
40
0.320746134757648
40
0.36799080334059
40
0.415245190652956
40
0.462456467676685
40
0.527115024521973
40
0.591816773493215
40
0.656485545151035
40
0.713388243748175
40
0.770312206880714
40
0.827217920204881
40
0.88480536393576
40
0.942411118140355
40
1
40
1
40
1
40
1
41
1
10
45.8459102261032
20
-14.8612156079217
30
0
41
1
10
45.844889938678
20
-14.8622295580767
30
0
41
1
10
45.8426495539677
20
-14.8642408753881
30
0
41
1
10
45.838664220775
20
-14.8672081189082
30
0
41
1
10
45.8340889595486
20
-14.8701469870792
30
0
41
1
10
45.8289512186142
20
-14.8730494441658
30
0
41
1
10
45.8232887160137
20
-14.875908549176
30
0
41
1
10
45.817169383188
20
-14.8787060706229
30
0
41
1
10
45.8106283456361
20
-14.8814390663107
30
0
41
1
10
45.8036939244111
20
-14.8841056240698
30
0
41
1
10
45.7964409100096
20
-14.8866883411996
30
0
41
1
10
45.7879743328048
20
-14.889494418338
30
0
41
1
10
45.7781949244769
20
-14.8924860662068
30
0
41
1
10
45.7670179994268
20
-14.895618978102
30
0
41
1
10
45.7559216049054
20
-14.8984803026915
30
0
41
1
10
45.7449964986246
20
-14.9010920736937
30
0
41
1
10
45.7343086997784
20
-14.9034745014607
30
0
41
1
10
45.7233616405101
20
-14.9057510294411
30
0
41
1
10
45.7121733267718
20
-14.9079207296242
30
0
41
1
10
45.7007573601155
20
-14.9099819809996
30
0
41
1
10
45.6930396390181
20
-14.9112780245038
30
0
41
1
10
45.6891533974312
20
-14.9119064194157
30
0
0
SPLINE
5
17D
100
AcDbEntity
8
1
62
256
6
ByLayer
370
18
48
1
60
0
100
AcDbSpline
70
4
71
3
72
29
73
25
40
0
40
0
40
0
40
0
40
0.0507051749146955
40
0.101544323134184
40
0.152397229194121
40
0.203175827788121
40
0.253830089726208
40
0.296797510014973
40
0.339909825132453
40
0.383048248899959
40
0.426116495123907
40
0.469046832717432
40
0.512256666639994
40
0.555654166337563
40
0.5991128889231
40
0.642505166877981
40
0.685710602294298
40
0.733612944654098
40
0.781663285228752
40
0.829736320856182
40
0.877669703905035
40
0.918432341665837
40
0.959229754378839
40
1
40
1
40
1
40
1
41
1
10
45.8527328054433
20
-14.7483270114036
30
0
41
1
10
45.855312818648
20
-14.74857096402
30
0
41
1
10
45.8604103211812
20
-14.7491064768198
30
0
41
1
10
45.8678681008918
20
-14.7500484964136
30
0
41
1
10
45.8750888823862
20
-14.7511380473585
30
0
41
1
10
45.8820214603768
20
-14.7523795568906
30
0
41
1
10
45.8882849975837
20
-14.7537079414967
30
0
41
1
10
45.8938924316433
20
-14.7551049734705
30
0
41
1
10
45.8988797888283
20
-14.7565458567337
30
0
41
1
10
45.9035288842157
20
-14.7581065344447
30
0
41
1
10
45.9077922649133
20
-14.7597825042405
30
0
41
1
10
45.9116388625215
20
-14.7615747982791
30
0
41
1
10
45.9150172649351
20
-14.7634868629904
30
0
41
1
10
45.9179138228731
20
-14.7655097615606
30
0
41
1
10
45.9203090244559
20
-14.7676256970105
30
0
41
1
10
45.9221806239568
20
-14.7698169358772
30
0
41
1
10
45.9235546525463
20
-14.7721526514522
30
0
41
1
10
45.9243433240263
20
-14.7746307775916
30
0
41
1
10
45.9245172424995
20
-14.7772395271832
30
0
41
1
10
45.9240775541904
20
-14.7798752179575
30
0
41
1
10
45.923099390834
20
-14.7823877573599
30
0
41
1
10
45.9217039190032
20
-14.7847631246956
30
0
41
1
10
45.920010586717
20
-14.786997606103
30
0
41
1
10
45.9186520542749
20
-14.7884756150967
30
0
41
1
10
45.9179139699676
20
-14.7892118640573
30
0
0
SPLINE
5
17E
100
AcDbEntity
8
1
62
256
6
ByLayer
370
18
48
1
60
0
100
AcDbSpline
70
4
71
1
72
4
73
2
40
0
40
0
40
1
40
1
41
1
10
45.0210620071653
20
-14.6691903859485
30
0
41
1
10
45.8527328054433
20
-14.7483270114036
30
0
0
SPLINE
5
17F
100
AcDbEntity
8
1
62
256
6
ByLayer
370
18
48
1
60
0
100
AcDbSpline
70
4
71
3
72
29
73
25
40
0
40
0
40
0
40
0
40
0.0501896158584115
40
0.100510818873064
40
0.150845351787233
40
0.201106736220104
40
0.251246054813676
40
0.293772525608441
40
0.336442355790751
40
0.379137555304303
40
0.421762891461319
40
0.464251921927543
40
0.507026633513404
40
0.549988774713727
40
0.59301164460011
40
0.635967755010742
40
0.678737386406486
40
0.725958662857332
40
0.773326010907287
40
0.820716043192915
40
0.867968345616214
40
0.920117961790708
40
0.972427689237805
40
1
40
1
40
1
40
1
41
1
10
45.0210620071654
20
-14.6691903859485
30
0
41
1
10
45.0181634971955
20
-14.6689150560986
30
0
41
1
10
45.0124363840554
20
-14.6683104977863
30
0
41
1
10
45.0040563855755
20
-14.6672467496254
30
0
41
1
10
44.995941345195
20
-14.6660155845501
30
0
41
1
10
44.9881485081152
20
-14.6646116048979
30
0
41
1
10
44.9811060106583
20
-14.6631081195621
30
0
41
1
10
44.9747993796117
20
-14.6615255789469
30
0
41
1
10
44.9691887223181
20
-14.6598916326698
30
0
41
1
10
44.96395711682
20
-14.658119578434
30
0
41
1
10
44.9591582584088
20
-14.6562138553832
30
0
41
1
10
44.9548270086085
20
-14.6541725698336
30
0
41
1
10
44.9510220185552
20
-14.6519907994943
30
0
41
1
10
44.9477594757527
20
-14.6496779894283
30
0
41
1
10
44.9450619461284
20
-14.6472541994167
30
0
41
1
10
44.942955029168
20
-14.6447392341253
30
0
41
1
10
44.9414123610868
20
-14.6420569309446
30
0
41
1
10
44.9405298504737
20
-14.639208654715
30
0
41
1
10
44.9403365678674
20
-14.6362073147637
30
0
41
1
10
44.9408296981233
20
-14.6331679245057
30
0
41
1
10
44.9420217688274
20
-14.6300058924314
30
0
41
1
10
44.9439625064747
20
-14.626733834833
30
0
41
1
10
44.9462441977293
20
-14.6238979641698
30
0
41
1
10
44.9478529097506
20
-14.6221938210959
30
0
41
1
10
44.9484375372503
20
-14.6216067068545
30
0
0
SPLINE
5
180
100
AcDbEntity
8
1
62
256
6
ByLayer
370
18
48
1
60
0
100
AcDbSpline
70
4
71
3
72
15
73
11
40
0
40
0
40
0
40
0
40
0.12499020336271
40
0.249980970136583
40
0.374971705312762
40
0.499961865587514
40
0.624971102218458
40
0.749980975590615
40
0.874990812750154
40
1
40
1
40
1
40
1
41
1
10
45.1341079918843
20
-14.5561444012295
30
0
41
1
10
45.18163925511
20
-14.5471621080017
30
0
41
1
10
45.2766949120903
20
-14.5290583877891
30
0
41
1
10
45.4192579828221
20
-14.5014883605894
30
0
41
1
10
45.5617983031049
20
-14.4734953501876
30
0
41
1
10
45.7043213996888
20
-14.4450724423686
30
0
41
1
10
45.8468257632841
20
-14.4162132518269
30
0
41
1
10
45.9893097282329
20
-14.3869109402135
30
0
41
1
10
46.1317641178638
20
-14.3571611221817
30
0
41
1
10
46.2267120861358
20
-14.3370234911167
30
0
41
1
10
46.274180715976
20
-14.3268791008709
30
0
0
SPLINE
5
181
100
AcDbEntity
8
1
62
256
6
ByLayer
370
18
48
1
60
0
100
AcDbSpline
70
4
71
3
72
27
73
23
40
0
40
0
40
0
40
0
40
0.071475534976458
40
0.143010957700959
40
0.214541932374015
40
0.286011396674561
40
0.34500807704135
40
0.404077284164163
40
0.463158611004311
40
0.522204437906152
40
0.581181485567866
40
0.632910626054204
40
0.684661053187345
40
0.736382159829297
40
0.776018342163077
40
0.815689761877016
40
0.855352001709458
40
0.894975654363414
40
0.921164384387488
40
0.947352578058055
40
0.973676644710736
40
1
40
1
40
1
40
1
41
1
10
46.274180715976
20
-14.3268791008709
30
0
41
1
10
46.2793830182051
20
-14.3257677109279
30
0
41
1
10
46.2897029233938
20
-14.3234701244879
30
0
41
1
10
46.3049310817587
20
-14.3198008260891
30
0
41
1
10
46.3198638387292
20
-14.3159113342894
30
0
41
1
10
46.3336183243369
20
-14.3120425398486
30
0
41
1
10
46.3462333192548
20
-14.3082369041015
30
0
41
1
10
46.3577527316533
20
-14.3045298650994
30
0
41
1
10
46.3689739816972
20
-14.3006696492066
30
0
41
1
10
46.3798550148771
20
-14.2966578275951
30
0
41
1
10
46.3899292269641
20
-14.2926645434741
30
0
41
1
10
46.3992151043591
20
-14.2887095291067
30
0
41
1
10
46.4077303410581
20
-14.2848098723871
30
0
41
1
10
46.4152152859497
20
-14.2811015823905
30
0
41
1
10
46.4217360060725
20
-14.2776160546139
30
0
41
1
10
46.4273678991837
20
-14.2743800793496
30
0
41
1
10
46.4326797564291
20
-14.2710741110138
30
0
41
1
10
46.4370769291559
20
-14.2680819948275
30
0
41
1
10
46.4406614776068
20
-14.2654303029268
30
0
41
1
10
46.4435437767995
20
-14.263134431323
30
0
41
1
10
46.4462342328876
20
-14.2608083432269
30
0
41
1
10
46.4478850662246
20
-14.2592392646562
30
0
41
1
10
46.4486751793147
20
-14.2584506547102
30
0
0
SPLINE
5
182
100
AcDbEntity
8
1
62
256
6
ByLayer
370
18
48
1
60
0
100
AcDbSpline
70
4
71
3
72
28
73
24
40
0
40
0
40
0
40
0
40
0.054124818810294
40
0.108378108661906
40
0.162590230367873
40
0.216658769637118
40
0.26065054245576
40
0.304842543118737
40
0.349072238384854
40
0.393205691164361
40
0.437148140833394
40
0.485665099042692
40
0.534389558328426
40
0.583125462020574
40
0.631658092292893
40
0.676084641510304
40
0.720630742691756
40
0.765201054235489
40
0.809660703089761
40
0.85718954302592
40
0.904804049560589
40
0.952440789605831
40
1
40
1
40
1
40
1
41
1
10
46.5427781329173
20
-14.1643477011076
30
0
41
1
10
46.5439854478534
20
-14.1631448210504
30
0
41
1
10
46.5462152835971
20
-14.1607239664441
30
0
41
1
10
46.5490240533463
20
-14.1570490693355
30
0
41
1
10
46.5512133657904
20
-14.153351317753
30
0
41
1
10
46.5526309199291
20
-14.1498801873495
30
0
41
1
10
46.553341800821
20
-14.1466525857146
30
0
41
1
10
46.553466923336
20
-14.1436768044412
30
0
41
1
10
46.5530417055206
20
-14.1407435581166
30
0
41
1
10
46.5520436846887
20
-14.1378810036347
30
0
41
1
10
46.5503938407392
20
-14.1350162474786
30
0
41
1
10
46.5479787951274
20
-14.1321846802004
30
0
41
1
10
46.5447688919599
20
-14.129418277142
30
0
41
1
10
46.5408916246769
20
-14.1268310408671
30
0
41
1
10
46.53651119822
20
-14.1245147210042
30
0
41
1
10
46.5317200473645
20
-14.1224665645415
30
0
41
1
10
46.526637735865
20
-14.120658172696
30
0
41
1
10
46.5211752452027
20
-14.1190292901424
30
0
41
1
10
46.5152493047952
20
-14.1175465423819
30
0
41
1
10
46.5088742342916
20
-14.1162208951075
30
0
41
1
10
46.5020765841202
20
-14.1150537050701
30
0
41
1
10
46.495039657159
20
-14.1140665087828
30
0
41
1
10
46.4902245288718
20
-14.1135195515711
30
0
41
1
10
46.4877850444713
20
-14.1132747723756
30
0
0
SPLINE
5
183
100
AcDbEntity
8
1
62
256
6
ByLayer
370
18
48
1
60
0
100
AcDbSpline
70
4
71
1
72
4
73
2
40
0
40
0
40
1
40
1
41
1
10
46.4877850444713
20
-14.1132747723756
30
0
41
1
10
45.6604603965615
20
-14.0297919965523
30
0
0
SPLINE
5
184
100
AcDbEntity
8
1
62
256
6
ByLayer
370
18
48
1
60
0
100
AcDbSpline
70
4
71
3
72
27
73
23
40
0
40
0
40
0
40
0
40
0.0600762114345032
40
0.120202365252733
40
0.180342087087987
40
0.240462238572501
40
0.300533411646895
40
0.352231506175728
40
0.403995129719566
40
0.455781527687875
40
0.507555635447465
40
0.559290880080583
40
0.610970033077589
40
0.660519748350361
40
0.710153825900064
40
0.759793548365718
40
0.809383867994659
40
0.858896823160235
40
0.900046652079451
40
0.941220627623786
40
0.982358273937999
40
1
40
1
40
1
40
1
41
1
10
45.8058756251546
20
-13.8843767679593
30
0
41
1
10
45.8007532417232
20
-13.8856223769165
30
0
41
1
10
45.7905730316134
20
-13.8881743492343
30
0
41
1
10
45.775497329062
20
-13.8921833601521
30
0
41
1
10
45.760642091446
20
-13.8963708256329
30
0
41
1
10
45.7460337756911
20
-13.9007327770844
30
0
41
1
10
45.7323615402966
20
-13.9050564465749
30
0
41
1
10
45.7195962593812
20
-13.9093146377553
30
0
41
1
10
45.7077100720159
20
-13.9134854999109
30
0
41
1
10
45.6960740358691
20
-13.9177885898322
30
0
41
1
10
45.6847214216541
20
-13.9222223152301
30
0
41
1
10
45.6736856220996
20
-13.9267851227642
30
0
41
1
10
45.6631424296526
20
-13.9314129557046
30
0
41
1
10
45.653098630277
20
-13.9361026166194
30
0
41
1
10
45.6435768660254
20
-13.9408528801451
30
0
41
1
10
45.6344893370974
20
-13.9457302370113
30
0
41
1
10
45.6259026823861
20
-13.9507293726379
30
0
41
1
10
45.6183297095461
20
-13.9555594089901
30
0
41
1
10
45.6117217450688
20
-13.9601956822591
30
0
41
1
10
45.6060265648631
20
-13.964616710263
30
0
41
1
10
45.6018615365005
20
-13.9682560367885
30
0
41
1
10
45.5996281978974
20
-13.9704172520711
30
0
41
1
10
45.5989762834525
20
-13.9710679588535
30
0
0
SPLINE
5
185
100
AcDbEntity
8
1
62
256
6
ByLayer
370
18
48
1
60
0
100
AcDbSpline
70
4
71
3
72
15
73
11
40
0
40
0
40
0
40
0
40
0.124983197174572
40
0.249967468519763
40
0.374951802032346
40
0.499935083981356
40
0.624950807602709
40
0.749967477776175
40
0.87498420228475
40
1
40
1
40
1
40
1
41
1
10
47.0348536264433
20
-13.5662061904036
30
0
41
1
10
46.98375528197
20
-13.5802726401574
30
0
41
1
10
46.8815306150136
20
-13.608198114754
30
0
41
1
10
46.7281089126188
20
-13.6494595270536
30
0
41
1
10
46.5746082378746
20
-13.6901067555349
30
0
41
1
10
46.4210191363722
20
-13.7301513369401
30
0
41
1
10
46.2673449986829
20
-13.7696025127642
30
0
41
1
10
46.113588908754
20
-13.8084689691291
30
0
41
1
10
45.9597675997972
20
-13.8467549009276
30
0
41
1
10
45.8571797310869
20
-13.87189979234
30
0
41
1
10
45.8058756251546
20
-13.8843767679593
30
0
0
SPLINE
5
186
100
AcDbEntity
8
1
62
256
6
ByLayer
370
18
48
1
60
0
100
AcDbSpline
70
4
71
3
72
26
73
22
40
0
40
0
40
0
40
0
40
0.0362649706143776
40
0.0725666884478267
40
0.108878731551114
40
0.145157795611936
40
0.194772274277706
40
0.244416426943879
40
0.294040633747917
40
0.35666985508988
40
0.419359626913335
40
0.482063931916002
40
0.544712989547897
40
0.608998576452221
40
0.673326486444823
40
0.737659370518485
40
0.801951744630324
40
0.851397884528271
40
0.900844113356573
40
0.950422061565534
40
1
40
1
40
1
40
1
41
1
10
47.2326888874299
20
-13.474436946595
30
0
41
1
10
47.2312604894398
20
-13.4758612148009
30
0
41
1
10
47.228277246176
20
-13.4786892591177
30
0
41
1
10
47.2234072480359
20
-13.4828683060237
30
0
41
1
10
47.218198378692
20
-13.4869785478867
30
0
41
1
10
47.2120086774772
20
-13.4915121677573
30
0
41
1
10
47.2047400597929
20
-13.4964362376406
30
0
41
1
10
47.1963025245806
20
-13.5017105035427
30
0
41
1
10
47.1866918456172
20
-13.5073001710609
30
0
41
1
10
47.1758379170792
20
-13.5131666416801
30
0
41
1
10
47.1636756366203
20
-13.5192637549516
30
0
41
1
10
47.1510706391984
20
-13.5251558107086
30
0
41
1
10
47.1379647697956
20
-13.5308946386054
30
0
41
1
10
47.1243883116062
20
-13.5364795200303
30
0
41
1
10
47.110357169438
20
-13.5419053046948
30
0
41
1
10
47.0960201342466
20
-13.547123313907
30
0
41
1
10
47.0825320262724
20
-13.5517475626623
30
0
41
1
10
47.069981528414
20
-13.5558297994912
30
0
41
1
10
47.0584205009974
20
-13.5594193791248
30
0
41
1
10
47.0467148540901
20
-13.5628863770776
30
0
41
1
10
47.0388215376005
20
-13.5651138047695
30
0
41
1
10
47.0348536264433
20
-13.5662061904036
30
0
0
SPLINE
5
187
100
AcDbEntity
8
1
62
256
6
ByLayer
370
18
48
1
60
0
100
AcDbSpline
70
4
71
3
72
30
73
26
40
0
40
0
40
0
40
0
40
0.047434710365908
40
0.0949719930544873
40
0.142473685280708
40
0.189859751516667
40
0.228499690283186
40
0.26730980943874
40
0.306149474717648
40
0.344905106479493
40
0.383499149834943
40
0.426897037711766
40
0.470484579805719
40
0.514083231733416
40
0.557496334861772
40
0.596814997944173
40
0.636237069417084
40
0.675681666295215
40
0.715031123363692
40
0.766028560928341
40
0.817174216881169
40
0.86842443572157
40
0.919671482980241
40
0.970754218767226
40
1
40
1
40
1
40
1
41
1
10
47.3119081513564
20
-13.2891516654905
30
0
41
1
10
47.3144044891368
20
-13.2893898713232
30
0
41
1
10
47.3193245061075
20
-13.2899465759992
30
0
41
1
10
47.326494123823
20
-13.2910132298408
30
0
41
1
10
47.3333803365183
20
-13.2923354421139
30
0
41
1
10
47.3395221129434
20
-13.2938286029886
30
0
41
1
10
47.3449269918769
20
-13.2954596875955
30
0
41
1
10
47.3496419891876
20
-13.2971780665452
30
0
41
1
10
47.354007843371
20
-13.2990939296637
30
0
41
1
10
47.3579690050303
20
-13.3012011975896
30
0
41
1
10
47.3616226281814
20
-13.3035920013663
30
0
41
1
10
47.3648409455773
20
-13.3062983338678
30
0
41
1
10
47.3675441612022
20
-13.3093171972629
30
0
41
1
10
47.3696012719863
20
-13.3125098021063
30
0
41
1
10
47.3709493473326
20
-13.3157402217346
30
0
41
1
10
47.3716515736307
20
-13.3189688744552
30
0
41
1
10
47.3718264077436
20
-13.3221616488407
30
0
41
1
10
47.3715259711883
20
-13.3254039601685
30
0
41
1
10
47.3707046471853
20
-13.3289977718563
30
0
41
1
10
47.3692341150593
20
-13.3329378229006
30
0
41
1
10
47.3670183866262
20
-13.3372083989139
30
0
41
1
10
47.3642422473845
20
-13.3414658485129
30
0
41
1
10
47.3609743893909
20
-13.3456868724413
30
0
41
1
10
47.3577969223915
20
-13.3492650437193
30
0
41
1
10
47.3556994329208
20
-13.3514275526263
30
0
41
1
10
47.3549136848316
20
-13.3522121491933
30
0
0
SPLINE
5
188
100
AcDbEntity
8
1
62
256
6
ByLayer
370
18
48
1
60
0
100
AcDbSpline
70
4
71
1
72
4
73
2
40
0
40
0
40
1
40
1
41
1
10
46.4812791167439
20
-13.2089732763699
30
0
41
1
10
47.3119081513564
20
-13.2891516654905
30
0
0
SPLINE
5
189
100
AcDbEntity
8
1
62
256
6
ByLayer
370
18
48
1
60
0
100
AcDbSpline
70
4
71
3
72
31
73
27
40
0
40
0
40
0
40
0
40
0.0474834831425002
40
0.0950694800575108
40
0.14261996890158
40
0.190054920714621
40
0.228695718554689
40
0.267506877918413
40
0.306347063256391
40
0.345102609631109
40
0.383696563847708
40
0.418402121922759
40
0.453251868380711
40
0.488156958329923
40
0.523018503271757
40
0.557733998220944
40
0.596811791337483
40
0.6359932243891
40
0.675197019693561
40
0.714305384432234
40
0.764717932942338
40
0.815276956216631
40
0.865939500193231
40
0.91659906676046
40
0.967096200046811
40
1
40
1
40
1
40
1
41
1
10
46.4812791167439
20
-13.2089732763699
30
0
41
1
10
46.4784418467133
20
-13.2087013655435
30
0
41
1
10
46.4728499668796
20
-13.2080668943396
30
0
41
1
10
46.4647015352908
20
-13.2068537279267
30
0
41
1
10
46.4568753293574
20
-13.2053520706513
30
0
41
1
10
46.449897253577
20
-13.2036584802145
30
0
41
1
10
46.4437581090818
20
-13.2018106166424
30
0
41
1
10
46.4384042749468
20
-13.1998653793131
30
0
41
1
10
46.4334468535853
20
-13.1976966963919
30
0
41
1
10
46.4289494085952
20
-13.1953109730659
30
0
41
1
10
46.4251003522122
20
-13.1927981724013
30
0
41
1
10
46.4218959181427
20
-13.1901804783006
30
0
41
1
10
46.4192700693994
20
-13.1874966847769
30
0
41
1
10
46.4171122287488
20
-13.1846720707192
30
0
41
1
10
46.4154336283791
20
-13.1817310732806
30
0
41
1
10
46.4141969645082
20
-13.1785630623383
30
0
41
1
10
46.4134784657402
20
-13.175167176517
30
0
41
1
10
46.4133029994478
20
-13.1715556447058
30
0
41
1
10
46.4136656063262
20
-13.1678849891187
30
0
41
1
10
46.4146184059818
20
-13.1638214053325
30
0
41
1
10
46.4163024962299
20
-13.1593692729348
30
0
41
1
10
46.4188216604649
20
-13.1545446670998
30
0
41
1
10
46.4219682120324
20
-13.1497284388846
30
0
41
1
10
46.4256645996016
20
-13.144946644028
30
0
41
1
10
46.4293640656346
20
-13.1407622323526
30
0
41
1
10
46.4318589863346
20
-13.1381831267482
30
0
41
1
10
46.4328751602938
20
-13.1371690832393
30
0
0
SPLINE
5
18A
100
AcDbEntity
8
1
62
256
6
ByLayer
370
18
48
1
60
0
100
AcDbSpline
70
4
71
3
72
17
73
13
40
0
40
0
40
0
40
0
40
0.0999773350888443
40
0.199955927185034
40
0.299934878115431
40
0.39991335568146
40
0.499890594711542
40
0.599911578948674
40
0.69993400122187
40
0.7999568340993
40
0.899979125515485
40
1
40
1
40
1
40
1
41
1
10
46.6681933458951
20
-13.0220590472188
30
0
41
1
10
46.7136154118192
20
-13.008062022875
30
0
41
1
10
46.8044288882603
20
-12.9798923256182
30
0
41
1
10
46.9405574775454
20
-12.9371141989553
30
0
41
1
10
47.0765896906607
20
-12.8938035180202
30
0
41
1
10
47.212521179591
20
-12.8499549061772
30
0
41
1
10
47.3483678317054
20
-12.8055553760389
30
0
41
1
10
47.4841267103048
20
-12.7605980104288
30
0
41
1
10
47.6197945953122
20
-12.7150755908784
30
0
41
1
10
47.7553472857596
20
-12.6689878600069
30
0
41
1
10
47.8907798013197
20
-12.6223292667368
30
0
41
1
10
47.9809841493599
20
-12.5908367474407
30
0
41
1
10
48.0260654301679
20
-12.5749943866789
30
0
0
SPLINE
5
18B
100
AcDbEntity
8
1
62
256
6
ByLayer
370
18
48
1
60
0
100
AcDbSpline
70
4
71
3
72
26
73
22
40
0
40
0
40
0
40
0
40
0.0576774816267984
40
0.115375595235686
40
0.173073918105243
40
0.230751685189368
40
0.288436650589892
40
0.346143799181072
40
0.403848836096057
40
0.461530920811535
40
0.522276153797812
40
0.583057529419281
40
0.643830081867583
40
0.704563275776196
40
0.753412362794564
40
0.802274809493322
40
0.851117331843188
40
0.888330478369396
40
0.925569571338724
40
0.962799440598813
40
1
40
1
40
1
40
1
41
1
10
48.0260654301679
20
-12.5749943866789
30
0
41
1
10
48.0313126321572
20
-12.5731501967029
30
0
41
1
10
48.0417473187852
20
-12.5693933707853
30
0
41
1
10
48.0572202856754
20
-12.563552259902
30
0
41
1
10
48.07249879234
20
-12.5575119381945
30
0
41
1
10
48.0875721354903
20
-12.5512765534389
30
0
41
1
10
48.102431352554
20
-12.5448495027087
30
0
41
1
10
48.1170623388285
20
-12.5382302126432
30
0
41
1
10
48.1314454326044
20
-12.5314199184685
30
0
41
1
10
48.1458099750038
20
-12.5242956862884
30
0
41
1
10
48.1601232202388
20
-12.5168452693726
30
0
41
1
10
48.174333231561
20
-12.5090509284387
30
0
41
1
10
48.1881513578739
20
-12.5010365186617
30
0
41
1
10
48.200658674883
20
-12.4933374640538
30
0
41
1
10
48.2119107353083
20
-12.4859996405781
30
0
41
1
10
48.2219625040368
20
-12.4790607617089
30
0
41
1
10
48.2308461361478
20
-12.4725300142979
30
0
41
1
10
48.2386304567557
20
-12.4664469690841
30
0
41
1
10
48.2453853796284
20
-12.4608444513389
30
0
41
1
10
48.2518087418529
20
-12.4551488023482
30
0
41
1
10
48.255829665234
20
-12.4512914807976
30
0
41
1
10
48.2577776200308
20
-12.449348213994
30
0
0
SPLINE
5
18C
100
AcDbEntity
8
1
62
256
6
ByLayer
370
18
48
1
60
0
100
AcDbSpline
70
4
71
3
72
31
73
27
40
0
40
0
40
0
40
0
40
0.0566948815954031
40
0.113533708007615
40
0.1703643501537
40
0.227092972968546
40
0.283695205198227
40
0.327210152273945
40
0.370834511578194
40
0.414413197952272
40
0.457865695034795
40
0.492766904106923
40
0.527782934731108
40
0.562773918493023
40
0.597640855815764
40
0.632697231382635
40
0.667902065469175
40
0.703113376345352
40
0.738178620994233
40
0.770394817089848
40
0.80269644970587
40
0.835017509058276
40
0.867260263451642
40
0.911472948734935
40
0.955757813052041
40
1
40
1
40
1
40
1
41
1
10
48.4198153456622
20
-12.2873104883626
30
0
41
1
10
48.4216648673804
20
-12.28546754535
30
0
41
1
10
48.4252314522429
20
-12.2817522725249
30
0
41
1
10
48.4302015993017
20
-12.2761013085551
30
0
41
1
10
48.4346991971699
20
-12.2703783221722
30
0
41
1
10
48.4386470198883
20
-12.2646021427446
30
0
41
1
10
48.4417099111737
20
-12.2592367419897
30
0
41
1
10
48.4439727905075
20
-12.2543058110358
30
0
41
1
10
48.4455362497696
20
-12.249826912421
30
0
41
1
10
48.4465423692289
20
-12.2453789605894
30
0
41
1
10
48.4468979155874
20
-12.241282811903
30
0
41
1
10
48.4466691498382
20
-12.2375552325421
30
0
41
1
10
48.4459719222953
20
-12.2341963705725
30
0
41
1
10
48.4447707188907
20
-12.2309554645576
30
0
41
1
10
48.4430399632336
20
-12.227861210963
30
0
41
1
10
48.4407389796101
20
-12.2249508638065
30
0
41
1
10
48.4378990761588
20
-12.2222423494665
30
0
41
1
10
48.4345650856743
20
-12.2197611011213
30
0
41
1
10
48.4308692935758
20
-12.2175917391627
30
0
41
1
10
48.4268814419553
20
-12.2157267488028
30
0
41
1
10
48.4226923439331
20
-12.2141282167573
30
0
41
1
10
48.4182315538571
20
-12.2127388809783
30
0
41
1
10
48.4129587070537
20
-12.2114077667766
30
0
41
1
10
48.4068086308284
20
-12.2102188685171
30
0
41
1
10
48.3997514964455
20
-12.20924656767
30
0
41
1
10
48.3949038777012
20
-12.2087936800502
30
0
41
1
10
48.3924413158246
20
-12.2086185010223
30
0
0
SPLINE
5
18D
100
AcDbEntity
8
1
62
256
6
ByLayer
370
18
48
1
60
0
100
AcDbSpline
70
4
71
2
72
6
73
3
40
0
40
0
40
0
40
1
40
1
40
1
41
1
10
48.3924413158246
20
-12.2086185010223
30
0
41
1
10
47.9683216751569
20
-12.1777978005734
30
0
41
1
10
47.5444553569021
20
-12.1457970362118
30
0
0
SPLINE
5
18E
100
AcDbEntity
8
1
62
256
6
ByLayer
370
18
48
1
60
0
100
AcDbSpline
70
4
71
3
72
26
73
22
40
0
40
0
40
0
40
0
40
0.0623590848584691
40
0.124740269809031
40
0.187121275267087
40
0.249480115276172
40
0.311854778860726
40
0.374254805490613
40
0.436651252874925
40
0.499021033634322
40
0.551719911631774
40
0.604459107777976
40
0.657202147196073
40
0.709922792104644
40
0.762606099534182
40
0.808436708161004
40
0.854280131990315
40
0.900103266482163
40
0.935069407457122
40
0.970063481349395
40
1
40
1
40
1
40
1
41
1
10
47.7905946209527
20
-11.8996577721612
30
0
41
1
10
47.7838728583619
20
-11.9022791949465
30
0
41
1
10
47.7705057795406
20
-11.9076057799746
30
0
41
1
10
47.7506840238541
20
-11.9158474987393
30
0
41
1
10
47.7311119044229
20
-11.9243319651951
30
0
41
1
10
47.7118032900134
20
-11.933053789534
30
0
41
1
10
47.6927705306433
20
-11.9420080655717
30
0
41
1
10
47.6740358182734
20
-11.9511972481403
30
0
41
1
10
47.6556301900534
20
-11.9606206116989
30
0
41
1
10
47.6385181364846
20
-11.9697791309475
30
0
41
1
10
47.6226572504685
20
-11.9786326210524
30
0
41
1
10
47.608012123014
20
-11.9871509075764
30
0
41
1
10
47.593707629847
20
-11.9958496496109
30
0
41
1
10
47.579790156676
20
-12.0047293720454
30
0
41
1
10
47.5668865953437
20
-12.0133997921547
30
0
41
1
10
47.5549743182944
20
-12.0218375143447
30
0
41
1
10
47.5440422723842
20
-12.0300254993498
30
0
41
1
10
47.5344092056997
20
-12.0377096382195
30
0
41
1
10
47.5260012374789
20
-12.0448503295654
30
0
41
1
10
47.5190815957097
20
-12.0510996435136
30
0
41
1
10
47.5148303758053
20
-12.0552156825987
30
0
41
1
10
47.5129193957046
20
-12.0571248456903
30
0
0
SPLINE
5
18F
100
AcDbEntity
8
1
62
256
6
ByLayer
370
18
48
1
60
0
100
AcDbSpline
70
4
71
3
72
19
73
15
40
0
40
0
40
0
40
0
40
0.0832887797744782
40
0.166578667091107
40
0.249868600678637
40
0.333157443550625
40
0.416445758197402
40
0.499735082384998
40
0.583024449553785
40
0.66631282281198
40
0.749734131957192
40
0.833156364202619
40
0.916578636389106
40
1
40
1
40
1
40
1
41
1
10
49.3621573145845
20
-11.2389025022624
30
0
41
1
10
49.3189078244916
20
-11.2584896127613
30
0
41
1
10
49.2323393482477
20
-11.297451507778
30
0
41
1
10
49.1022768446672
20
-11.3552540622403
30
0
41
1
10
48.9720129674251
20
-11.4124241882397
30
0
41
1
10
48.8415536372785
20
-11.4689666758053
30
0
41
1
10
48.7109040856678
20
-11.5248877042423
30
0
41
1
10
48.5800691128165
20
-11.5801932810846
30
0
41
1
10
48.4490542829153
20
-11.6348891103693
30
0
41
1
10
48.3177955307337
20
-11.6890095854226
30
0
41
1
10
48.1862971238045
20
-11.7425595926963
30
0
41
1
10
48.0545633030194
20
-11.7955442247445
30
0
41
1
10
47.9226687961311
20
-11.8479400405933
30
0
41
1
10
47.8346365496793
20
-11.8824834113962
30
0
41
1
10
47.7905946209527
20
-11.8996577721612
30
0
0
SPLINE
5
190
100
AcDbEntity
8
1
62
256
6
ByLayer
370
18
48
1
60
0
100
AcDbSpline
70
4
71
3
72
25
73
21
40
0
40
0
40
0
40
0
40
0.0432583510570433
40
0.0865440035344333
40
0.129839911420846
40
0.173112255347165
40
0.230702770754411
40
0.28831083118534
40
0.345907444254723
40
0.406572822035754
40
0.467250485460967
40
0.527918645377336
40
0.586675227696905
40
0.645447408036802
40
0.704220671593708
40
0.762978731414562
40
0.822226851691681
40
0.8814902828847
40
0.940752938121273
40
1
40
1
40
1
40
1
41
1
10
49.6525323083805
20
-11.0545935256443
30
0
41
1
10
49.649335834756
20
-11.0577828644418
30
0
41
1
10
49.6427924921505
20
-11.0641092429354
30
0
41
1
10
49.6325026142588
20
-11.0734357867628
30
0
41
1
10
49.621821442455
20
-11.0826037390488
30
0
41
1
10
49.6095843142603
20
-11.0926134482925
30
0
41
1
10
49.5957120703092
20
-11.1034144292198
30
0
41
1
10
49.5801177166544
20
-11.1149429888413
30
0
41
1
10
49.5638274473498
20
-11.1264343324453
30
0
41
1
10
49.5468669141777
20
-11.1378847673244
30
0
41
1
10
49.5292455052546
20
-11.1492826401662
30
0
41
1
10
49.5114749577842
20
-11.1603195540368
30
0
41
1
10
49.4935954702019
20
-11.1710101627405
30
0
41
1
10
49.4756326725067
20
-11.1813626827253
30
0
41
1
10
49.4574111273244
20
-11.1914898781867
30
0
41
1
10
49.4388952871654
20
-11.2014175703415
30
0
41
1
10
49.4200945157568
20
-11.2111435402753
30
0
41
1
10
49.4010119800736
20
-11.220659094292
30
0
41
1
10
49.3817075851619
20
-11.2299299904939
30
0
41
1
10
49.3686974037391
20
-11.2359399099229
30
0
41
1
10
49.3621573145845
20
-11.2389025022624
30
0
0
SPLINE
5
191
100
AcDbEntity
8
1
62
256
6
ByLayer
370
18
48
1
60
0
100
AcDbSpline
70
4
71
3
72
34
73
30
40
0
40
0
40
0
40
0
40
0.0345901035073943
40
0.0692728887482574
40
0.103907621993495
40
0.13843200756604
40
0.163001503904979
40
0.187648432947998
40
0.212275938198553
40
0.236818860170507
40
0.261517848832436
40
0.286322254210416
40
0.311130418025445
40
0.335834553556861
40
0.365964957457064
40
0.39617746169656
40
0.426336818701398
40
0.464781358045466
40
0.503356755030772
40
0.541994304222333
40
0.580523859564458
40
0.629629809661954
40
0.678824674159879
40
0.728124604418788
40
0.777491346739296
40
0.826840584690595
40
0.876049690188599
40
0.938023310680384
40
1
40
1
40
1
40
1
41
1
10
49.8806308137987
20
-10.7204290030482
30
0
41
1
10
49.8828070987194
20
-10.7204368234583
30
0
41
1
10
49.8871095040406
20
-10.720555087076
30
0
41
1
10
49.893419601974
20
-10.7210216116384
30
0
41
1
10
49.8995079519972
20
-10.7218341684566
30
0
41
1
10
49.9047487101885
20
-10.7229142913082
30
0
41
1
10
49.9091649535645
20
-10.7241802621896
30
0
41
1
10
49.9128297242675
20
-10.7255271105291
30
0
41
1
10
49.916227602812
20
-10.7271086633133
30
0
41
1
10
49.9193191331057
20
-10.7289330072281
30
0
41
1
10
49.9220481156082
20
-10.731014241704
30
0
41
1
10
49.9244000166508
20
-10.7333315389763
30
0
41
1
10
49.9263564718703
20
-10.7358526850492
30
0
41
1
10
49.9280082643341
20
-10.7387524728374
30
0
41
1
10
49.9292289638052
20
-10.7420550322335
30
0
41
1
10
49.9299569864452
20
-10.7457433814367
30
0
41
1
10
49.9301720167717
20
-10.7499123552881
30
0
41
1
10
49.9297545303783
20
-10.7545574640047
30
0
41
1
10
49.928634592165
20
-10.7596527253138
30
0
41
1
10
49.9269406628267
20
-10.764791930762
30
0
41
1
10
49.9245613927484
20
-10.7704092141753
30
0
41
1
10
49.9214497509766
20
-10.776484279874
30
0
41
1
10
49.9175471995749
20
-10.7829980439207
30
0
41
1
10
49.9131614373354
20
-10.7894678329609
30
0
41
1
10
49.908366498963
20
-10.7958800237644
30
0
41
1
10
49.9032326920156
20
-10.8022206796446
30
0
41
1
10
49.8973590859925
20
-10.8090308679648
30
0
41
1
10
49.8906997753822
20
-10.816292249933
30
0
41
1
10
49.8857110424399
20
-10.8214206533434
30
0
41
1
10
49.8831581039867
20
-10.8239677300382
30
0
0
SPLINE
5
192
100
AcDbEntity
8
1
62
256
6
ByLayer
370
18
48
1
60
0
100
AcDbSpline
70
4
71
3
72
11
73
7
40
0
40
0
40
0
40
0
40
0.249995839940143
40
0.499991647145865
40
0.749995844451868
40
1
40
1
40
1
40
1
41
1
10
48.9803449947793
20
-10.7099073983346
30
0
41
1
10
49.0553000565509
20
-10.7112178184563
30
0
41
1
10
49.205243519826
20
-10.7136259580685
30
0
41
1
10
49.4302598948786
20
-10.7166137012671
30
0
41
1
10
49.6553815790652
20
-10.7189361468084
30
0
41
1
10
49.8055359761849
20
-10.7200088703085
30
0
41
1
10
49.8806308137987
20
-10.7204290030482
30
0
0
SPLINE
5
193
100
AcDbEntity
8
1
62
256
6
ByLayer
370
18
48
1
60
0
100
AcDbSpline
70
4
71
3
72
35
73
31
40
0
40
0
40
0
40
0
40
0.0358785612111213
40
0.0718561119829042
40
0.107783870799895
40
0.143594329038041
40
0.169166273079043
40
0.194819458160214
40
0.220453245726256
40
0.245998650836973
40
0.271695919983887
40
0.297501540455264
40
0.323311475919173
40
0.349014653771487
40
0.380564090134256
40
0.412199282047343
40
0.443778695606425
40
0.47584229033515
40
0.507994976162097
40
0.540217601594482
40
0.572444217601442
40
0.604570001750298
40
0.655244136034263
40
0.706011075778934
40
0.756886489904868
40
0.807830364159544
40
0.858755486470664
40
0.909535323279551
40
0.982775950261881
40
1
40
1
40
1
40
1
41
1
10
48.9803449947793
20
-10.7099073983346
30
0
41
1
10
48.9778180270856
20
-10.7098680485298
30
0
41
1
10
48.9728260099306
20
-10.7096699868994
30
0
41
1
10
48.9655153553691
20
-10.7090355911765
30
0
41
1
10
48.9584754166721
20
-10.7080014824431
30
0
41
1
10
48.9524250228182
20
-10.7066682018783
30
0
41
1
10
48.9473352448526
20
-10.7051305071682
30
0
41
1
10
48.9431170574987
20
-10.703509114564
30
0
41
1
10
48.9392181960351
20
-10.7016208457424
30
0
41
1
10
48.9356846232389
20
-10.6994580642644
30
0
41
1
10
48.932580446558
20
-10.6970066725313
30
0
41
1
10
48.9299204259745
20
-10.6942911405633
30
0
41
1
10
48.9277238576317
20
-10.6913482083708
30
0
41
1
10
48.9258847573781
20
-10.6879662706982
30
0
41
1
10
48.9245541027718
20
-10.6841172277392
30
0
41
1
10
48.9238084788784
20
-10.6798193744121
30
0
41
1
10
48.9236871641924
20
-10.6753529238747
30
0
41
1
10
48.9241455794394
20
-10.6707596265219
30
0
41
1
10
48.9251221984652
20
-10.6660696913494
30
0
41
1
10
48.9265592102685
20
-10.6613333932493
30
0
41
1
10
48.9283964943825
20
-10.6565808252355
30
0
41
1
10
48.9310053141512
20
-10.6509173743035
30
0
41
1
10
48.9345640349968
20
-10.6443532125734
30
0
41
1
10
48.9392494794518
20
-10.6369133356661
30
0
41
1
10
48.9444894684667
20
-10.6295229867033
30
0
41
1
10
48.9501993231982
20
-10.6221970986973
30
0
41
1
10
48.9562965721174
20
-10.6149503536326
30
0
41
1
10
48.9636558221233
20
-10.6067282852113
30
0
41
1
10
48.9698971378858
20
-10.6001630231161
30
0
41
1
10
48.9740395800501
20
-10.5960016646057
30
0
41
1
10
48.9748334570635
20
-10.595210787032
30
0
0
SPLINE
5
194
100
AcDbEntity
8
1
62
256
6
ByLayer
370
18
48
1
60
0
100
AcDbSpline
70
4
71
3
72
27
73
23
40
0
40
0
40
0
40
0
40
0.0499310988138097
40
0.09986295315928
40
0.149795037606729
40
0.199726850587888
40
0.249657914708522
40
0.299589308329074
40
0.349521518779323
40
0.39945397898767
40
0.44938614659372
40
0.499317504279839
40
0.549249201733704
40
0.599181779083279
40
0.649114626693692
40
0.699047160208022
40
0.748978820896192
40
0.799182438345205
40
0.849387015395614
40
0.899591888571805
40
0.949796420443521
40
1
40
1
40
1
40
1
41
1
10
49.3296381314461
20
-10.3606142616677
30
0
41
1
10
49.3644221200359
20
-10.3431130546498
30
0
41
1
10
49.4339337004718
20
-10.3079661661007
30
0
41
1
10
49.538032309715
20
-10.2548141052133
30
0
41
1
10
49.6419574681511
20
-10.201226910483
30
0
41
1
10
49.7457050005065
20
-10.1472029693761
30
0
41
1
10
49.8492713402237
20
-10.0927397943306
30
0
41
1
10
49.9526536588534
20
-10.0378346137987
30
0
41
1
10
50.0558490317051
20
-9.98248481022883
30
0
41
1
10
50.1588533720983
20
-9.92668838853618
30
0
41
1
10
50.261661844274
20
-9.87044374237657
30
0
41
1
10
50.3642707400259
20
-9.81374864978215
30
0
41
1
10
50.4666770214601
20
-9.75660046629742
30
0
41
1
10
50.5688776089015
20
-9.69899677502054
30
0
41
1
10
50.6708681842226
20
-9.64093584392934
30
0
41
1
10
50.7726436230165
20
-9.58241638317405
30
0
41
1
10
50.8743841356512
20
-9.52332947828373
30
0
41
1
10
50.9760851045433
20
-9.46366972244457
30
0
41
1
10
51.0777418590459
20
-9.40343197921253
30
0
41
1
10
51.1791659480194
20
-9.34272254375841
30
0
41
1
10
51.2803523469055
20
-9.28154066415186
30
0
41
1
10
51.3476476091592
20
-9.24043617373126
30
0
41
1
10
51.3812547593292
20
-9.21980505751771
30
0
0
SPLINE
5
195
100
AcDbEntity
8
1
62
256
6
ByLayer
370
18
48
1
60
0
100
AcDbSpline
70
4
71
3
72
24
73
20
40
0
40
0
40
0
40
0
40
0.0641049241894346
40
0.128219390192638
40
0.192335047892205
40
0.256441597358535
40
0.320832422607735
40
0.385231686471813
40
0.449630671329299
40
0.514021116064824
40
0.574567896657398
40
0.635123553017643
40
0.695677262897229
40
0.756221388793365
40
0.804971532590348
40
0.85373870143214
40
0.90250523114849
40
0.951260141173863
40
1
40
1
40
1
40
1
41
1
10
51.3812547593292
20
-9.21980505751771
30
0
41
1
10
51.3917900516909
20
-9.21333546272166
30
0
41
1
10
51.4127579934949
20
-9.20027215231496
30
0
41
1
10
51.4438979845927
20
-9.18029924065008
30
0
41
1
10
51.4747260049295
20
-9.15997226618924
30
0
41
1
10
51.5052871380941
20
-9.13927585369406
30
0
41
1
10
51.5355829436051
20
-9.11822288085565
30
0
41
1
10
51.5656026353402
20
-9.09681297251265
30
0
41
1
10
51.5952896652406
20
-9.07508094798484
30
0
41
1
10
51.6240473923324
20
-9.05346877263746
30
0
41
1
10
51.65189173029
20
-9.03200118610771
30
0
41
1
10
51.6788227124792
20
-9.01068929004347
30
0
41
1
10
51.7053884714051
20
-8.98908016965546
30
0
41
1
10
51.7298567362895
20
-8.96858750512523
30
0
41
1
10
51.7522993499138
20
-8.94927528226662
30
0
41
1
10
51.7727642256168
20
-8.93118695803627
30
0
41
1
10
51.7928727454457
20
-8.91286153992987
30
0
41
1
10
51.8125765873165
20
-8.8942875171964
30
0
41
1
10
51.82539267941
20
-8.88172551973221
30
0
41
1
10
51.8317244814768
20
-8.87540135254806
30
0
0
SPLINE
5
196
100
AcDbEntity
8
1
62
256
6
ByLayer
370
18
48
1
60
0
100
AcDbSpline
70
4
71
3
72
41
73
37
40
0
40
0
40
0
40
0
40
0.0713132569780422
40
0.14263119988579
40
0.213940288497522
40
0.2676945289059
40
0.321463624963929
40
0.375223432852595
40
0.428965003676341
40
0.465043431987457
40
0.501205273269085
40
0.537369296639192
40
0.57348210179386
40
0.609525630219885
40
0.645525043739362
40
0.668257063770129
40
0.691047818397542
40
0.713786845454652
40
0.736448115792792
40
0.750183810307693
40
0.763938027063513
40
0.77765458580078
40
0.791558819835916
40
0.805512304983418
40
0.819395642464722
40
0.831453679668609
40
0.843557561726285
40
0.855626380215621
40
0.871289901305916
40
0.887015809629379
40
0.902713581744252
40
0.923888664762655
40
0.945129632821287
40
0.966412628321579
40
0.987645178697534
40
1
40
1
40
1
40
1
41
1
10
52.2674942526623
20
-8.43963158136256
30
0
41
1
10
52.2722647944984
20
-8.4348670817237
30
0
41
1
10
52.2817181958829
20
-8.42528903582688
30
0
41
1
10
52.2956537088709
20
-8.41078284192008
30
0
41
1
10
52.3081667557199
20
-8.39732085028733
30
0
41
1
10
52.319316022314
20
-8.38494123825303
30
0
41
1
10
52.3291405872129
20
-8.37367024061187
30
0
41
1
10
52.3386871474953
20
-8.36228195938883
30
0
41
1
10
52.346885382509
20
-8.35202636621275
30
0
41
1
10
52.3538479346552
20
-8.34294761087602
30
0
41
1
10
52.3596434776371
20
-8.33507259243635
30
0
41
1
10
52.3651701370913
20
-8.32711813395893
30
0
41
1
10
52.3703488944418
20
-8.31908992450764
30
0
41
1
10
52.3750966058886
20
-8.31099286957134
30
0
41
1
10
52.3788136849069
20
-8.30383612563857
30
0
41
1
10
52.3816347851005
20
-8.29765158041698
30
0
41
1
10
52.3836538314726
20
-8.29246137753691
30
0
41
1
10
52.3852241418584
20
-8.28728851931704
30
0
41
1
10
52.3861012779815
20
-8.28284741622813
30
0
41
1
10
52.3864307435419
20
-8.27915615271284
30
0
41
1
10
52.3863870192888
20
-8.27619789119013
30
0
41
1
10
52.3859837606437
20
-8.27333765281946
30
0
41
1
10
52.3851425054431
20
-8.27063343049705
30
0
41
1
10
52.3838401090714
20
-8.26814321773105
30
0
41
1
10
52.3821450437101
20
-8.2660334875806
30
0
41
1
10
52.3801144638383
20
-8.26433174096901
30
0
41
1
10
52.3778770345105
20
-8.26298313170954
30
0
41
1
10
52.3751299623258
20
-8.26180302145888
30
0
41
1
10
52.3718299780864
20
-8.26089355842315
30
0
41
1
10
52.3680024235627
20
-8.26030342040041
30
0
41
1
10
52.3635279058286
20
-8.26002784650075
30
0
41
1
10
52.358412654902
20
-8.26013122911576
30
0
41
1
10
52.3526784353643
20
-8.26066058872321
30
0
41
1
10
52.3468648021414
20
-8.26153170746557
30
0
41
1
10
52.3418283549199
20
-8.26251069521315
30
0
41
1
10
52.3387394040003
20
-8.26319390998183
30
0
41
1
10
52.3376018217713
20
-8.26345799507555
30
0
0
SPLINE
5
197
100
AcDbEntity
8
1
62
256
6
ByLayer
370
18
48
1
60
0
100
AcDbSpline
70
4
71
3
72
19
73
15
40
0
40
0
40
0
40
0
40
0.0832690249012081
40
0.166539826674842
40
0.249810817904514
40
0.333080101160274
40
0.416347362584266
40
0.499616028343867
40
0.58288484014736
40
0.66615230072541
40
0.749613595938894
40
0.833076015607852
40
0.916538549299279
40
1
40
1
40
1
40
1
41
1
10
52.3376018217713
20
-8.26345799507555
30
0
41
1
10
52.3062740972147
20
-8.2707076952463
30
0
41
1
10
52.2436009949861
20
-8.28500405366201
30
0
41
1
10
52.149537399979
20
-8.30583128814792
30
0
41
1
10
52.0554279152724
20
-8.32606453067176
30
0
41
1
10
51.9612784998655
20
-8.34571856832138
30
0
41
1
10
51.8670936427531
20
-8.36481080948118
30
0
41
1
10
51.7728769393072
20
-8.38335601037474
30
0
41
1
10
51.678632208758
20
-8.40136904255149
30
0
41
1
10
51.5842906257977
20
-8.41887821981185
30
0
41
1
10
51.4898552666586
20
-8.4358969389843
30
0
41
1
10
51.3953288257533
20
-8.45243731213004
30
0
41
1
10
51.3007876109758
20
-8.46849778168252
30
0
41
1
10
51.2377529916924
20
-8.47889694493271
30
0
41
1
10
51.2062338606598
20
-8.48401853245407
30
0
0
SPLINE
5
198
100
AcDbEntity
8
1
62
256
6
ByLayer
370
18
48
1
60
0
100
AcDbSpline
70
4
71
3
72
28
73
24
40
0
40
0
40
0
40
0
40
0.0709499923011022
40
0.141902759981736
40
0.212852628243004
40
0.266145706336442
40
0.319441555273528
40
0.372737057424276
40
0.426029662602117
40
0.480426877197719
40
0.534828378944292
40
0.589228814265597
40
0.643624574525131
40
0.687290365429464
40
0.730963649285289
40
0.774637137113015
40
0.818305988375228
40
0.861968061012862
40
0.897201093509125
40
0.932436209570819
40
0.967667722815947
40
0.994197874945296
40
1
40
1
40
1
40
1
41
1
10
51.874466235435
20
-7.81578615767881
30
0
41
1
10
51.8591638997206
20
-7.82660262325816
30
0
41
1
10
51.8286502781309
20
-7.84832585277805
30
0
41
1
10
51.7831504844341
20
-7.88118119038316
30
0
41
1
10
51.7416857086939
20
-7.91155630868042
30
0
41
1
10
51.7041860585795
20
-7.93937699981831
30
0
41
1
10
51.6705908971781
20
-7.96458495141516
30
0
41
1
10
51.6371819406523
20
-7.98995085745075
30
0
41
1
10
51.6037416145943
20
-8.01565503092404
30
0
41
1
10
51.5702840781674
20
-8.04170495381477
30
0
41
1
10
51.5368359320597
20
-8.06811705488959
30
0
41
1
10
51.5036503332454
20
-8.09472549718769
30
0
41
1
10
51.472917525069
20
-8.11977899740206
30
0
41
1
10
51.4445902191862
20
-8.14323877362168
30
0
41
1
10
51.4186313592722
20
-8.16507688254674
30
0
41
1
10
51.3929292848526
20
-8.18708520295585
30
0
41
1
10
51.3675192142724
20
-8.20927599691935
30
0
41
1
10
51.3440483673607
20
-8.2302215796879
30
0
41
1
10
51.3224781480699
20
-8.24989225101942
30
0
41
1
10
51.3027779590586
20
-8.2682660193413
30
0
41
1
10
51.2849994176575
20
-8.28528832052583
30
0
41
1
10
51.2728072874305
20
-8.29724289957591
30
0
41
1
10
51.2670439680994
20
-8.302998694815
30
0
41
1
10
51.2660116785027
20
-8.30403256357073
30
0
0
SPLINE
5
199
100
AcDbEntity
8
1
62
256
6
ByLayer
370
18
48
1
60
0
100
AcDbSpline
70
4
71
3
72
39
73
35
40
0
40
0
40
0
40
0
40
0.0222390191837941
40
0.0445216401222968
40
0.0667745681361044
40
0.0889730075904499
40
0.107703902962172
40
0.126465321372798
40
0.145164359185715
40
0.160392031415131
40
0.175660452365552
40
0.190874824674813
40
0.206127147124637
40
0.221434760444145
40
0.236697945194792
40
0.256179467931447
40
0.275738041045686
40
0.295259326881491
40
0.320441526079649
40
0.345703758240332
40
0.371014015581598
40
0.396261888606607
40
0.433630985641776
40
0.47105275111627
40
0.508506477290164
40
0.545919211682344
40
0.597041851922464
40
0.648186333484734
40
0.699321465048696
40
0.76541824694611
40
0.831541792021025
40
0.897696117430428
40
0.963869863679294
40
1
40
1
40
1
40
1
41
1
10
58.4840375852839
20
-1.2062148078299
30
0
41
1
10
58.4843895752533
20
-1.20408266365257
30
0
41
1
10
58.4850007525998
20
-1.19983511308609
30
0
41
1
10
58.4856630728979
20
-1.1935118965669
30
0
41
1
10
58.4859916559656
20
-1.1872861768903
30
0
41
1
10
58.4859372236321
20
-1.18152352536471
30
0
41
1
10
58.485505887287
20
-1.17625494663458
30
0
41
1
10
58.4847140851844
20
-1.17151189522188
30
0
41
1
10
58.4835616931336
20
-1.16734272287415
30
0
41
1
10
58.4820857668385
20
-1.16378403543218
30
0
41
1
10
58.4803782980517
20
-1.16080758421221
30
0
41
1
10
58.478334990863
20
-1.158214998612
30
0
41
1
10
58.4759520188985
20
-1.1560839393544
30
0
41
1
10
58.4732870145186
20
-1.15441063477149
30
0
41
1
10
58.4701190650547
20
-1.15308599062958
30
0
41
1
10
58.4664201301127
20
-1.1522680230199
30
0
41
1
10
58.4622263289304
20
-1.1520230987792
30
0
41
1
10
58.4574755346755
20
-1.15236216799469
30
0
41
1
10
58.4521906256652
20
-1.15336039135366
30
0
41
1
10
58.4464049140428
20
-1.15506135611055
30
0
41
1
10
58.4405928904654
20
-1.15727360929832
30
0
41
1
10
58.4338588018406
20
-1.16030582046778
30
0
41
1
10
58.4262237450633
20
-1.16426522524387
30
0
41
1
10
58.4177204860784
20
-1.16927212772067
30
0
41
1
10
58.4092875798816
20
-1.17473861012618
30
0
41
1
10
58.3999069611258
20
-1.1812708652997
30
0
41
1
10
58.3896033565873
20
-1.18892376918743
30
0
41
1
10
58.3784128862839
20
-1.19777615357561
30
0
41
1
10
58.3662566859374
20
-1.20789064442277
30
0
41
1
10
58.3531520326884
20
-1.21928900616721
30
0
41
1
10
58.3391272892157
20
-1.23202154229477
30
0
41
1
10
58.3252454544411
20
-1.24511381152481
30
0
41
1
10
58.313569981803
20
-1.25647195845617
30
0
41
1
10
58.3065379300964
20
-1.26348972565879
30
0
41
1
10
58.3040613711706
20
-1.26598287020639
30
0
0
SPLINE
5
19A
100
AcDbEntity
8
1
62
256
6
ByLayer
370
18
48
1
60
0
100
AcDbSpline
70
4
71
3
72
19
73
15
40
0
40
0
40
0
40
0
40
0.083277337862744
40
0.166555751331452
40
0.249834051812832
40
0.333111235599919
40
0.416389883494938
40
0.499669882487693
40
0.582949735439004
40
0.666228184183299
40
0.749670391912592
40
0.833114317802488
40
0.916558052708605
40
1
40
1
40
1
40
1
41
1
10
58.4840375852839
20
-1.2062148078299
30
0
41
1
10
58.4789272892105
20
-1.2376644073397
30
0
41
1
10
58.4685514074183
20
-1.30055998097843
30
0
41
1
10
58.4525279135505
20
-1.39489267807537
30
0
41
1
10
58.436026692438
20
-1.48921067996444
30
0
41
1
10
58.4190360948538
20
-1.58351141652187
30
0
41
1
10
58.401542723123
20
-1.6777921612921
30
0
41
1
10
58.3835318043367
20
-1.77204977837324
30
0
41
1
10
58.3649887007229
20
-1.86627939461804
30
0
41
1
10
58.3458861801212
20
-1.9605381717786
30
0
41
1
10
58.3262082124435
20
-2.05482243865288
30
0
41
1
10
58.3059360111935
20
-2.14912759389001
30
0
41
1
10
58.2850674195515
20
-2.24338669139264
30
0
41
1
10
58.2707417958638
20
-2.30618998418775
30
0
41
1
10
58.2634770479138
20
-2.33758276893307
30
0
0
SPLINE
5
19B
100
AcDbEntity
8
1
62
256
6
ByLayer
370
18
48
1
60
0
100
AcDbSpline
70
4
71
3
72
41
73
37
40
0
40
0
40
0
40
0
40
0.0212177941162388
40
0.0424749641119337
40
0.063700810880831
40
0.0848758005904163
40
0.100169044235093
40
0.115481623396045
40
0.130750698331649
40
0.143189266002722
40
0.155657467822519
40
0.16807966521449
40
0.180585636933241
40
0.193142540774159
40
0.205653582231854
40
0.219675102898025
40
0.233751669053403
40
0.247799285594606
40
0.265127867950242
40
0.282512450280131
40
0.299929342199248
40
0.317302110207828
40
0.342246048852797
40
0.367225522190641
40
0.392226273395477
40
0.417199264105297
40
0.451337672807878
40
0.485490976910059
40
0.519638000144876
40
0.579353001997066
40
0.639101957867798
40
0.698871402485893
40
0.758614357675739
40
0.839069082326003
40
0.919537891808501
40
1
40
1
40
1
40
1
41
1
10
58.2634770479138
20
-2.33758276893307
30
0
41
1
10
58.2630185483973
20
-2.33953781656167
30
0
41
1
10
58.2621830879761
20
-2.34344127865014
30
0
41
1
10
58.2611489260609
20
-2.34927607768439
30
0
41
1
10
58.2604197175197
20
-2.35505323195193
30
0
41
1
10
58.2600871165801
20
-2.36020618279789
30
0
41
1
10
58.2600988781788
20
-2.36472128436236
30
0
41
1
10
58.2603934343656
20
-2.36859793291984
30
0
41
1
10
58.260980179392
20
-2.37206743132933
30
0
41
1
10
58.2618402603345
20
-2.37510004892754
30
0
41
1
10
58.2629176342154
20
-2.37769864446407
30
0
41
1
10
58.2642878147486
20
-2.3800317399883
30
0
41
1
10
58.2659739681494
20
-2.38202171023786
30
0
41
1
10
58.2679358532366
20
-2.38365042732596
30
0
41
1
10
58.2702241396519
20
-2.38494771513461
30
0
41
1
10
58.2728353598658
20
-2.38583814207087
30
0
41
1
10
58.275720890509
20
-2.38632760198872
30
0
41
1
10
58.2789674440552
20
-2.38643635718334
30
0
41
1
10
58.2825572793139
20
-2.38612299297373
30
0
41
1
10
58.2864659228291
20
-2.38537225920135
30
0
41
1
10
58.2904151722784
20
-2.38427425783051
30
0
41
1
10
58.2949528153649
20
-2.38269783026405
30
0
41
1
10
58.3000676242695
20
-2.38057726344203
30
0
41
1
10
58.3057425754891
20
-2.37784094372861
30
0
41
1
10
58.3113884619035
20
-2.37479607272558
30
0
41
1
10
58.3176845734768
20
-2.37110824237126
30
0
41
1
10
58.3246149684699
20
-2.36673778767969
30
0
41
1
10
58.3321576268607
20
-2.36163066765484
30
0
41
1
10
58.341500201955
20
-2.35493657646798
30
0
41
1
10
58.3525909125287
20
-2.34650345591572
30
0
41
1
10
58.3653589094356
20
-2.33617624689023
30
0
41
1
10
58.3779691003924
20
-2.32544692029647
30
0
41
1
10
58.3918817001486
20
-2.3131296638514
30
0
41
1
10
58.407063967221
20
-2.29917945589114
30
0
41
1
10
58.4234622015586
20
-2.28351328234256
30
0
41
1
10
58.4342756445233
20
-2.27285937788031
30
0
41
1
10
58.4396506342008
20
-2.26747519982403
30
0
0
SPLINE
5
19C
100
AcDbEntity
8
1
62
256
6
ByLayer
370
18
48
1
60
0
100
AcDbSpline
70
4
71
3
72
78
73
74
40
0
40
0
40
0
40
0
40
0.015061926348976
40
0.03012446273054
40
0.0451873549817596
40
0.0602503554070434
40
0.0753132229002147
40
0.0903757230676455
40
0.105437628352456
40
0.120499754709959
40
0.135562525547241
40
0.150625674645988
40
0.165688941138643
40
0.180752069631307
40
0.195814810327582
40
0.210876919153349
40
0.225939205245836
40
0.241002162361066
40
0.256065515909564
40
0.271128995198446
40
0.286192333554324
40
0.301255268446922
40
0.31631754161343
40
0.329714667836585
40
0.343111985794881
40
0.35650930268082
40
0.369906427441648
40
0.383309723245097
40
0.396713213070646
40
0.410116702178214
40
0.423519997002583
40
0.437076265369531
40
0.450632735755988
40
0.464189205780135
40
0.477745473653016
40
0.491308218880795
40
0.504871166847476
40
0.51843411485007
40
0.531996860126821
40
0.545553128368107
40
0.559109598617682
40
0.572666069300573
40
0.586222338132751
40
0.599785058430112
40
0.613347979721149
40
0.626910901836321
40
0.640473623257518
40
0.654029875088991
40
0.667586325488781
40
0.681142777084978
40
0.694699030547938
40
0.708261600979647
40
0.721824367318811
40
0.735387135209142
40
0.748949707756107
40
0.762765274404868
40
0.776581044202005
40
0.790396816022232
40
0.804212385429791
40
0.818034392091323
40
0.831856597467025
40
0.845678805190419
40
0.859500815053395
40
0.873545561122484
40
0.887590608785584
40
0.901635761209029
40
0.915680816871074
40
0.929725569649102
40
0.943780258261631
40
0.957835236748953
40
0.971890316558367
40
0.98594530393324
40
1
40
1
40
1
40
1
41
1
10
57.8158052105171
20
-1.8744471825968
30
0
41
1
10
57.7914110703016
20
-1.90895713214331
30
0
41
1
10
57.7424472677841
20
-1.9778671309334
30
0
41
1
10
57.6684768716532
20
-2.0809019237578
30
0
41
1
10
57.593981062837
20
-2.18360086410085
30
0
41
1
10
57.5189610327541
20
-2.28595794366915
30
0
41
1
10
57.4434179733795
20
-2.3879665309838
30
0
41
1
10
57.367353073378
20
-2.4896201592361
30
0
41
1
10
57.2907657771643
20
-2.59091464972633
30
0
41
1
10
57.2136543409916
20
-2.69184718636393
30
0
41
1
10
57.1360178433693
20
-2.79241532303987
30
0
41
1
10
57.0578572253878
20
-2.89261417520434
30
0
41
1
10
56.9791746010947
20
-2.99243729650313
30
0
41
1
10
56.8999720886217
20
-3.09187824372974
30
0
41
1
10
56.820251802518
20
-3.19093057077698
30
0
41
1
10
56.7400140077363
20
-3.28959012671815
30
0
41
1
10
56.6592575804833
20
-3.3878542673104
30
0
41
1
10
56.5779822748718
20
-3.48572085838446
30
0
41
1
10
56.4961897791521
20
-3.58318538362637
30
0
41
1
10
56.4138831534622
20
-3.68024164019047
30
0
41
1
10
56.3310654534521
20
-3.77688342445865
30
0
41
1
10
56.2477397606744
20
-3.87310454334971
30
0
41
1
10
56.1669965611098
20
-3.96537063979843
30
0
41
1
10
56.0888999395044
20
-4.05373182656037
30
0
41
1
10
56.0135106023932
20
-4.1382375795281
30
0
41
1
10
55.9377235839336
20
-4.22239969651304
30
0
41
1
10
55.8615291179269
20
-4.30622771073822
30
0
41
1
10
55.7849281638403
20
-4.38971885293324
30
0
41
1
10
55.7079220064622
20
-4.47287060672534
30
0
41
1
10
55.6305246201367
20
-4.55566700303606
30
0
41
1
10
55.5524422913219
20
-4.63841849324734
30
0
41
1
10
55.4736712667714
20
-4.72111787358968
30
0
41
1
10
55.394208178078
20
-4.80375807935263
30
0
41
1
10
55.3143530177704
20
-4.88602382681407
30
0
41
1
10
55.2340955800738
20
-4.96792509983391
30
0
41
1
10
55.1534374066938
20
-5.0494594191843
30
0
41
1
10
55.0723803588869
20
-5.13062460391043
30
0
41
1
10
54.990940136896
20
-5.21140487273651
30
0
41
1
10
54.9091326112765
20
-5.29178461738314
30
0
41
1
10
54.8269600055316
20
-5.37176202209966
30
0
41
1
10
54.7444248385678
20
-5.45133559284427
30
0
41
1
10
54.6615171257995
20
-5.53051554070547
30
0
41
1
10
54.5782267417375
20
-5.60931183110394
30
0
41
1
10
54.4945557205564
20
-5.68772247343263
30
0
41
1
10
54.4105063830304
20
-5.76574580127102
30
0
41
1
10
54.3260953219161
20
-5.84336714354029
30
0
41
1
10
54.2413393211008
20
-5.92057198095887
30
0
41
1
10
54.1562410284733
20
-5.99735904106797
30
0
41
1
10
54.0708033468371
20
-6.07372738912961
30
0
41
1
10
53.9850162488836
20
-6.14968731096273
30
0
41
1
10
53.8988698420117
20
-6.22524861199911
30
0
41
1
10
53.8123665647046
20
-6.3004098603892
30
0
41
1
10
53.7255090976939
20
-6.37516995774129
30
0
41
1
10
53.6383145418773
20
-6.44951562015055
30
0
41
1
10
53.5502423028862
20
-6.52390492201599
30
0
41
1
10
53.4612878945564
20
-6.59832784918945
30
0
41
1
10
53.371447222331
20
-6.67277456475715
30
0
41
1
10
53.2812706123603
20
-6.74678663846195
30
0
41
1
10
53.1907479888965
20
-6.82037413886962
30
0
41
1
10
53.0998822450831
20
-6.89353617797667
30
0
41
1
10
53.0086764802989
20
-6.96627221997644
30
0
41
1
10
52.9171489130017
20
-7.03856988769601
30
0
41
1
10
52.8248102857918
20
-7.11081416909413
30
0
41
1
10
52.7316575580213
20
-7.18299657589986
30
0
41
1
10
52.637688062829
20
-7.2551089059127
30
0
41
1
10
52.5434010263204
20
-7.32676707883521
30
0
41
1
10
52.4488017155227
20
-7.39796975608368
30
0
41
1
10
52.353871857171
20
-7.46873314490655
30
0
41
1
10
52.2586141667969
20
-7.53905722264913
30
0
41
1
10
52.1630315110215
20
-7.60894239539442
30
0
41
1
10
52.0671506567357
20
-7.67837203160184
30
0
41
1
10
51.970976474944
20
-7.74734527443555
30
0
41
1
10
51.9066683535912
20
-7.79302333299137
30
0
41
1
10
51.874466235435
20
-7.81578615767881
30
0
0
SPLINE
5
19D
100
AcDbEntity
8
1
62
256
6
ByLayer
370
18
48
1
60
0
100
AcDbSpline
70
4
71
3
72
28
73
24
40
0
40
0
40
0
40
0
40
0.0115871335194937
40
0.0370951164601422
40
0.0752563980826517
40
0.113424336007812
40
0.151594850472126
40
0.189759646126764
40
0.229501662206648
40
0.269247045264893
40
0.308993335976156
40
0.348736589864414
40
0.402855932365861
40
0.456979976021052
40
0.511105108430684
40
0.565225935720799
40
0.619337654429607
40
0.673452437903099
40
0.727567603589626
40
0.78167984352687
40
0.854452135069631
40
0.927227564287959
40
1
40
1
40
1
40
1
41
1
10
58.3040613711706
20
-1.26598287020639
30
0
41
1
10
58.3019957561513
20
-1.26804289509554
30
0
41
1
10
58.2953957629909
20
-1.27466349625664
30
0
41
1
10
58.282106649628
20
-1.28829617514243
30
0
41
1
10
58.264260900665
20
-1.30701311929771
30
0
41
1
10
58.2444014419963
20
-1.32843463250403
30
0
41
1
10
58.2247206875527
20
-1.35017047796511
30
0
41
1
10
58.2049339509743
20
-1.3724820240795
30
0
41
1
10
58.1850291207324
20
-1.39534141236902
30
0
41
1
10
58.165006060257
20
-1.41874245760965
30
0
41
1
10
58.1451218197391
20
-1.44235500944625
30
0
41
1
10
58.1229849242832
20
-1.46902729057048
30
0
41
1
10
58.0986388200489
20
-1.49881961130643
30
0
41
1
10
58.0721352052844
20
-1.53179651530967
30
0
41
1
10
58.0458279718926
20
-1.56503732394444
30
0
41
1
10
58.0197064589313
20
-1.59851430568979
30
0
41
1
10
57.9937580502067
20
-1.63220567937497
30
0
41
1
10
57.9679788861355
20
-1.66610141752655
30
0
41
1
10
57.9423632110347
20
-1.70019068714517
30
0
41
1
10
57.9139807326491
20
-1.73840073262371
30
0
41
1
10
57.8828941833844
20
-1.78079718583185
30
0
41
1
10
57.8491837114303
20
-1.82745577478963
30
0
41
1
10
57.8268997120385
20
-1.85875141736995
30
0
41
1
10
57.815805210517
20
-1.87444718259679
30
0
0
SPLINE
5
19E
100
AcDbEntity
8
1
62
256
6
ByLayer
370
18
48
1
60
0
100
AcDbSpline
70
4
71
3
72
41
73
37
40
0
40
0
40
0
40
0
40
0.0537448474640125
40
0.122522605822623
40
0.191284156622947
40
0.24386135789195
40
0.296480064150143
40
0.3490917431046
40
0.401669534361006
40
0.454212394870096
40
0.48584504125276
40
0.517526339948256
40
0.54919868277064
40
0.58083044128644
40
0.612421479106165
40
0.632568548378809
40
0.652746050528043
40
0.672904950543377
40
0.693026610640571
40
0.708393127935094
40
0.723802986062157
40
0.739191676528032
40
0.754529240020629
40
0.769798383830304
40
0.785107286104043
40
0.800362188184514
40
0.815664981292178
40
0.831023736715818
40
0.846336465851143
40
0.865478512154186
40
0.884696086526913
40
0.903876237398152
40
0.927844189532666
40
0.951886676694863
40
0.975972622175735
40
1
40
1
40
1
40
1
41
1
10
51.2660116785027
20
-8.30403256357075
30
0
41
1
10
51.2623136281911
20
-8.30772272436146
30
0
41
1
10
51.2539523700729
20
-8.31616692670316
30
0
41
1
10
51.2411294889472
20
-8.32945939269319
30
0
41
1
10
51.2286905969376
20
-8.34280381372054
30
0
41
1
10
51.2175784022762
20
-8.35512273281148
30
0
41
1
10
51.2077556903396
20
-8.36639647225966
30
0
41
1
10
51.198257142583
20
-8.3777848610731
30
0
41
1
10
51.1891533218565
20
-8.38929199809729
30
0
41
1
10
51.1816635847576
20
-8.39938146238759
30
0
41
1
10
51.1756330599994
20
-8.40800245928692
30
0
41
1
10
51.1709326954999
20
-8.41512138934166
30
0
41
1
10
51.1665379519141
20
-8.42229360706903
30
0
41
1
10
51.1625184108092
20
-8.42950879073708
30
0
41
1
10
51.1593731071518
20
-8.43588253316559
30
0
41
1
10
51.1569845122143
20
-8.44139250724708
30
0
41
1
10
51.1552406657518
20
-8.44602765370665
30
0
41
1
10
51.1538147152797
20
-8.45064824081479
30
0
41
1
10
51.152844910691
20
-8.45487146467798
30
0
41
1
10
51.1522855611496
20
-8.45868703741294
30
0
41
1
10
51.1520780206242
20
-8.46209095910143
30
0
41
1
10
51.1522112441109
20
-8.46540951867291
30
0
41
1
10
51.1527270143459
20
-8.46860146382707
30
0
41
1
10
51.1536798260268
20
-8.47162318193921
30
0
41
1
10
51.155082056269
20
-8.47443252941374
30
0
41
1
10
51.1569484342708
20
-8.47699045992557
30
0
41
1
10
51.1593019388784
20
-8.47923156380459
30
0
41
1
10
51.1620771083756
20
-8.4811452223056
30
0
41
1
10
51.1654829874852
20
-8.48284895928444
30
0
41
1
10
51.1695740176722
20
-8.48422407236313
30
0
41
1
10
51.1743143230647
20
-8.48521738372767
30
0
41
1
10
51.1797343979173
20
-8.48582990101041
30
0
41
1
10
51.1858130231809
20
-8.48601043049827
30
0
41
1
10
51.1925151052867
20
-8.48573311629605
30
0
41
1
10
51.1993406000017
20
-8.48505307082047
30
0
41
1
10
51.2039294424493
20
-8.48440010085199
30
0
41
1
10
51.2062338606598
20
-8.48401853245407
30
0
0
SPLINE
5
19F
100
AcDbEntity
8
1
62
256
6
ByLayer
370
18
48
1
60
0
100
AcDbSpline
70
4
71
3
72
27
73
23
40
0
40
0
40
0
40
0
40
0.0282052585515612
40
0.0650845715280393
40
0.101942158615879
40
0.138717483063214
40
0.175503570021688
40
0.212292695300081
40
0.2490721640611
40
0.300815282544428
40
0.352567950717787
40
0.404313976882255
40
0.46352279955877
40
0.522753430011226
40
0.581995057036574
40
0.641232675554219
40
0.700447361402882
40
0.760345638033637
40
0.820262204768699
40
0.880184940171805
40
0.940101624615635
40
1
40
1
40
1
40
1
41
1
10
48.9748334570635
20
-10.595210787032
30
0
41
1
10
48.9774106378844
20
-10.5926331880965
30
0
41
1
10
48.9834538110138
20
-10.5867173789882
30
0
41
1
10
48.9932972473502
20
-10.5775718980933
30
0
41
1
10
49.004330081897
20
-10.5677902529405
30
0
41
1
10
49.0156700786048
20
-10.5581407957958
30
0
41
1
10
49.0272900018506
20
-10.5486191488067
30
0
41
1
10
49.0391681921435
20
-10.539214177425
30
0
41
1
10
49.0529181180065
20
-10.5286609271511
30
0
41
1
10
49.0686265280388
20
-10.5170082832618
30
0
41
1
10
49.0863798855344
20
-10.5043149174528
30
0
41
1
10
49.1053335409016
20
-10.4912143919158
30
0
41
1
10
49.1255031650447
20
-10.4777262255486
30
0
41
1
10
49.1469139151388
20
-10.463878985426
30
0
41
1
10
49.1686544663537
20
-10.4502614603169
30
0
41
1
10
49.1906938847771
20
-10.4368728013398
30
0
41
1
10
49.2130926516526
20
-10.4236579741873
30
0
41
1
10
49.2358361402636
20
-10.4106136406085
30
0
41
1
10
49.2589227210337
20
-10.3977466714454
30
0
41
1
10
49.282254568717
20
-10.3851125818124
30
0
41
1
10
49.3058184567747
20
-10.3727188234526
30
0
41
1
10
49.3216739771371
20
-10.3646215758795
30
0
41
1
10
49.3296381314461
20
-10.3606142616677
30
0
0
SPLINE
5
1A0
100
AcDbEntity
8
1
62
256
6
ByLayer
370
18
48
1
60
0
100
AcDbSpline
70
4
71
3
72
37
73
33
40
0
40
0
40
0
40
0
40
0.0089627963368848
40
0.0791619434736312
40
0.149322702157485
40
0.192374716192172
40
0.23548613159895
40
0.278594514931329
40
0.321661366042199
40
0.36467595507802
40
0.399118482873391
40
0.433665890095162
40
0.468207119350309
40
0.502673630213606
40
0.537048115316065
40
0.564092824887837
40
0.5912154937983
40
0.618313388532176
40
0.645324211996976
40
0.672595630928149
40
0.69999373834173
40
0.727385471379635
40
0.754648157217965
40
0.778432480212173
40
0.802288825381983
40
0.826159673513439
40
0.849963830919609
40
0.879877173619868
40
0.90988129984874
40
0.939953769446884
40
0.970027821315614
40
1
40
1
40
1
40
1
41
1
10
60.5952443764928
20
1.02520013488521
30
0
41
1
10
60.5956559309656
20
1.02561294096353
30
0
41
1
10
60.5992943380653
20
1.02924667574474
30
0
41
1
10
60.6062175237395
20
1.0359028524878
30
0
41
1
10
60.6148393892905
20
1.04361674874522
30
0
41
1
10
60.6222689212113
20
1.04981312135895
30
0
41
1
10
60.6284643267396
20
1.05466459132526
30
0
41
1
10
60.6347114725883
20
1.05919731153746
30
0
41
1
10
60.6410007137214
20
1.06335893096128
30
0
41
1
10
60.646904298768
20
1.06685040333341
30
0
41
1
10
60.6524105892623
20
1.06972116224158
30
0
41
1
10
60.6575084374111
20
1.07201461142045
30
0
41
1
10
60.6626017417285
20
1.0738925672509
30
0
41
1
10
60.667660574838
20
1.07528797325009
30
0
41
1
10
60.6723035553518
20
1.07607852128692
30
0
41
1
10
60.6765194250531
20
1.07632791536754
30
0
41
1
10
60.6803075576589
20
1.0761295542714
30
0
41
1
10
60.6839849763159
20
1.07547167037166
30
0
41
1
10
60.6875265890835
20
1.07431662186567
30
0
41
1
10
60.6908888510263
20
1.07260205363571
30
0
41
1
10
60.6940411820795
20
1.07033437179431
30
0
41
1
10
60.6969412257798
20
1.06754535521389
30
0
41
1
10
60.699439155102
20
1.06438812705775
30
0
41
1
10
60.7015484252822
20
1.06095019230906
30
0
41
1
10
60.7033259905149
20
1.05734827041868
30
0
41
1
10
60.7048711587675
20
1.05346458172959
30
0
41
1
10
60.7062978617779
20
1.04898440004377
30
0
41
1
10
60.7075426560574
20
1.04386731313968
30
0
41
1
10
60.7085600920154
20
1.03810227788212
30
0
41
1
10
60.7092855158065
20
1.0321157589754
30
0
41
1
10
60.7097427321304
20
1.02596288852902
30
0
41
1
10
60.7098923345272
20
1.02178305505842
30
0
41
1
10
60.7099264511728
20
1.01967405805898
30
0
0
SPLINE
5
1A1
100
AcDbEntity
8
1
62
256
6
ByLayer
370
18
48
1
60
0
100
AcDbSpline
70
4
71
3
72
26
73
22
40
0
40
0
40
0
40
0
40
0.0035543198223663
40
0.0419233945931316
40
0.0803128067467566
40
0.11868981403878
40
0.164938208714737
40
0.211225037343052
40
0.257537221950184
40
0.30384738258585
40
0.350115363093429
40
0.409298700668541
40
0.468511941574524
40
0.527731483410401
40
0.586923417337034
40
0.655714690016716
40
0.724566371272026
40
0.793451877263453
40
0.862341438043323
40
0.931202480738752
40
1
40
1
40
1
40
1
41
1
10
62.0571480702143
20
2.48710382939165
30
0
41
1
10
62.0569214735738
20
2.48687716403545
30
0
41
1
10
62.0542506054995
20
2.48419511714198
30
0
41
1
10
62.0491747815897
20
2.47885150279675
30
0
41
1
10
62.0420110213629
20
2.47072359036459
30
0
41
1
10
62.0344767298835
20
2.46160163836584
30
0
41
1
10
62.0265932217657
20
2.4514526382031
30
0
41
1
10
62.0183873569338
20
2.44023540601331
30
0
41
1
10
62.010331542428
20
2.42860900411474
30
0
41
1
10
62.002426106647
20
2.41662609608058
30
0
41
1
10
61.993943983699
20
2.40318821692307
30
0
41
1
10
61.9849248241234
20
2.38822823413693
30
0
41
1
10
61.9754194225943
20
2.37167331327729
30
0
41
1
10
61.9661320715397
20
2.35474097306734
30
0
41
1
10
61.9565694647912
20
2.33653722202064
30
0
41
1
10
61.946761724006
20
2.31703188141103
30
0
41
1
10
61.9367527379095
20
2.29618507647547
30
0
41
1
10
61.9270260788252
20
2.27497254036894
30
0
41
1
10
61.9175908152078
20
2.25342871751904
30
0
41
1
10
61.9084554575816
20
2.2315849821592
30
0
41
1
10
61.9025687913021
20
2.21684105352021
30
0
41
1
10
61.8996768249994
20
2.20942443188559
30
0
0
SPLINE
5
1A2
100
AcDbEntity
8
1
62
256
6
ByLayer
370
18
48
1
60
0
100
AcDbSpline
70
4
71
3
72
35
73
31
40
0
40
0
40
0
40
0
40
0.0087116642460278
40
0.069037571265306
40
0.112124125108863
40
0.155284332108067
40
0.198445523631243
40
0.24155978411568
40
0.284607739556669
40
0.320984427821624
40
0.357542046057322
40
0.394144616214351
40
0.430689005794275
40
0.467112055231461
40
0.503398639096827
40
0.536668778627412
40
0.570052404382859
40
0.603421612608892
40
0.636672023220246
40
0.6699721925717
40
0.70339275736277
40
0.736826889443466
40
0.770145625126521
40
0.8035576931071
40
0.837072064887344
40
0.870650719532684
40
0.904220512725517
40
0.937679211516082
40
0.968838776039196
40
1
40
1
40
1
40
1
41
1
10
47.5129193957046
20
-12.0571248456903
30
0
41
1
10
47.5125965947268
20
-12.0574464191893
30
0
41
1
10
47.5100526624495
20
-12.0599973767379
30
0
41
1
10
47.5061044036804
20
-12.06417781903
30
0
41
1
10
47.5012984514997
20
-12.069697939814
30
0
41
1
10
47.4973626701452
20
-12.0746135014509
30
0
41
1
10
47.4937704767534
20
-12.079567057497
30
0
41
1
10
47.4905707823065
20
-12.0845466838416
30
0
41
1
10
47.4879487919116
20
-12.0892843990527
30
0
41
1
10
47.4858773346485
20
-12.0937738169209
30
0
41
1
10
47.4843177395518
20
-12.0980070473759
30
0
41
1
10
47.4831884100294
20
-12.1022254789767
30
0
41
1
10
47.4825367975326
20
-12.1063991623591
30
0
41
1
10
47.4824104480231
20
-12.1104978789857
30
0
41
1
10
47.4828427661283
20
-12.1143850473174
30
0
41
1
10
47.4838336477111
20
-12.1180432812329
30
0
41
1
10
47.4853317252322
20
-12.1214640753015
30
0
41
1
10
47.4873670429338
20
-12.1247249010865
30
0
41
1
10
47.4899475416692
20
-12.1277938358225
30
0
41
1
10
47.49308936596
20
-12.130638322318
30
0
41
1
10
47.4967430653987
20
-12.133251773068
30
0
41
1
10
47.5008576726198
20
-12.1356213314917
30
0
41
1
10
47.505396208402
20
-12.1377355613153
30
0
41
1
10
47.5103263534324
20
-12.1395868479852
30
0
41
1
10
47.5155938285396
20
-12.1411926365162
30
0
41
1
10
47.521146426839
20
-12.1425614566406
30
0
41
1
10
47.5269294522928
20
-12.1437032031798
30
0
41
1
10
47.5327665532965
20
-12.1446076482876
30
0
41
1
10
47.538614726656
20
-12.1453029195913
30
0
41
1
10
47.5424947558627
20
-12.1456504938935
30
0
41
1
10
47.5444553569021
20
-12.1457970362118
30
0
0
SPLINE
5
1A3
100
AcDbEntity
8
1
62
256
6
ByLayer
370
18
48
1
60
0
100
AcDbSpline
70
4
71
3
72
27
73
23
40
0
40
0
40
0
40
0
40
0.0125630761976953
40
0.0463089425055832
40
0.0800645945100759
40
0.113790139237791
40
0.159881512747599
40
0.205999494986166
40
0.252100037369325
40
0.301175600258159
40
0.350293080496545
40
0.399434761543045
40
0.44857130535522
40
0.49766287120077
40
0.560587008569061
40
0.623549451116722
40
0.686517617408363
40
0.749449564503797
40
0.812071561020361
40
0.874723634181599
40
0.937376678519433
40
1
40
1
40
1
40
1
41
1
10
46.4328751602938
20
-13.1371690832393
30
0
41
1
10
46.4334776325627
20
-13.1365668243511
30
0
41
1
10
46.435732811441
20
-13.1343521580713
30
0
41
1
10
46.4398637902213
20
-13.130555931928
30
0
41
1
10
46.4454584353341
20
-13.1258219269069
30
0
41
1
10
46.4521106814084
20
-13.1205861239341
30
0
41
1
10
46.4599262807293
20
-13.1148798704626
30
0
41
1
10
46.4690013872826
20
-13.108742357452
30
0
41
1
10
46.4787147279818
20
-13.1026040342787
30
0
41
1
10
46.4890421849046
20
-13.0964702238675
30
0
41
1
10
46.4999736454621
20
-13.0903488187938
30
0
41
1
10
46.5112588577693
20
-13.0843657409299
30
0
41
1
10
46.5228566519907
20
-13.0785222590148
30
0
41
1
10
46.5358481868787
20
-13.0722801224513
30
0
41
1
10
46.5503013271888
20
-13.0656809401396
30
0
41
1
10
46.566283630668
20
-13.0587762026377
30
0
41
1
10
46.5826142303845
20
-13.0520879668146
30
0
41
1
10
46.5992301715417
20
-13.045626886117
30
0
41
1
10
46.6161034866156
20
-13.0393895710047
30
0
41
1
10
46.6332160546306
20
-13.0333779805083
30
0
41
1
10
46.6505757898407
20
-13.0275863657696
30
0
41
1
10
46.6622961662547
20
-13.0238763104051
30
0
41
1
10
46.6681933458951
20
-13.0220590472188
30
0
0
SPLINE
5
1A4
100
AcDbEntity
8
1
62
256
6
ByLayer
370
18
48
1
60
0
100
AcDbSpline
70
4
71
3
72
32
73
28
40
0
40
0
40
0
40
0
40
0.0295736778741808
40
0.0815161447948944
40
0.133386319976111
40
0.172318807365632
40
0.21134683457131
40
0.2503829207065
40
0.28936441171117
40
0.328257776628401
40
0.367602602933242
40
0.407131786316628
40
0.446693672671516
40
0.486165004869564
40
0.525461088953939
40
0.559702266040558
40
0.594080491233846
40
0.62851313438322
40
0.662906065926853
40
0.697159627148516
40
0.736386286871938
40
0.775714472096295
40
0.815065174397288
40
0.854322615431118
40
0.902852605849626
40
0.951447148747414
40
1
40
1
40
1
40
1
41
1
10
63.1371878866295
20
3.56714364300397
30
0
41
1
10
63.1380991593629
20
3.56805742249591
30
0
41
1
10
63.1406188413226
20
3.57050509585471
30
0
41
1
10
63.1447803400913
20
3.5742063767863
30
0
41
1
10
63.1492758200132
20
3.57769524484433
30
0
41
1
10
63.1533890212543
20
3.58044434950233
30
0
41
1
10
63.157107765252
20
3.5825613394508
30
0
41
1
10
63.1608311519282
20
3.58428731511246
30
0
41
1
10
63.1645419772625
20
3.58558201883523
30
0
41
1
10
63.1682404559791
20
3.58641484030999
30
0
41
1
10
63.1719147138308
20
3.58672236144003
30
0
41
1
10
63.1755468421246
20
3.58647071447187
30
0
41
1
10
63.1790985579125
20
3.58564366690088
30
0
41
1
10
63.1825338362463
20
3.58421925214316
30
0
41
1
10
63.1856822314823
20
3.58226060031907
30
0
41
1
10
63.1885390121744
20
3.57982929441793
30
0
41
1
10
63.1911238966834
20
3.57704232719964
30
0
41
1
10
63.1935595526875
20
3.57381352535543
30
0
41
1
10
63.1958297520741
20
3.57017555823737
30
0
41
1
10
63.1980227043457
20
3.56595400927146
30
0
41
1
10
63.200100351655
20
3.56110269561687
30
0
41
1
10
63.2020406923171
20
3.55562027306159
30
0
41
1
10
63.2037552693104
20
3.54977656271321
30
0
41
1
10
63.2053653106749
20
3.54313888045925
30
0
41
1
10
63.2068166334238
20
3.5356687231522
30
0
41
1
10
63.2080644978554
20
3.52735418181086
30
0
41
1
10
63.208714556891
20
3.52164158725537
30
0
41
1
10
63.2089923292081
20
3.51873993609434
30
0
0
SPLINE
5
1A5
100
AcDbEntity
8
1
62
256
6
ByLayer
370
18
48
1
60
0
100
AcDbSpline
70
4
71
3
72
30
73
26
40
0
40
0
40
0
40
0
40
0.0459819159662544
40
0.0920608561411833
40
0.138106097029455
40
0.184041956231859
40
0.221505235730863
40
0.259132176219746
40
0.296785980549244
40
0.33435754481604
40
0.371774182136088
40
0.414090149028454
40
0.456596954314479
40
0.499112504089209
40
0.541440448598059
40
0.579149070341253
40
0.616958566815144
40
0.654789781128095
40
0.692528094169486
40
0.741077516214531
40
0.789767447517975
40
0.838557795601471
40
0.887346216114579
40
0.935978494165076
40
1
40
1
40
1
40
1
41
1
10
62.5968326624641
20
1.9957728456173
30
0
41
1
10
62.5992801360733
20
1.99554206140455
30
0
41
1
10
62.6041050763099
20
1.99500154510841
30
0
41
1
10
62.6111398034575
20
1.99396315404005
30
0
41
1
10
62.6179017270454
20
1.99267312750803
30
0
41
1
10
62.6239392505279
20
1.99121365238312
30
0
41
1
10
62.6292600498722
20
1.98961718121105
30
0
41
1
10
62.633908435785
20
1.98793226697371
30
0
41
1
10
62.6382190890748
20
1.98604959881373
30
0
41
1
10
62.6421368290867
20
1.98397353924698
30
0
41
1
10
62.6457655748741
20
1.98160696781126
30
0
41
1
10
62.6489742572638
20
1.97891302318732
30
0
41
1
10
62.6516765901651
20
1.97589015620914
30
0
41
1
10
62.6537338810257
20
1.97268081047056
30
0
41
1
10
62.6550731354248
20
1.96943731077675
30
0
41
1
10
62.6557661330347
20
1.96620208098379
30
0
41
1
10
62.6559411358876
20
1.96301217072044
30
0
41
1
10
62.6556529188794
20
1.95976320302172
30
0
41
1
10
62.654859542755
20
1.95616160955231
30
0
41
1
10
62.6534411585232
20
1.95220830656157
30
0
41
1
10
62.65131104954
20
1.947914840228
30
0
41
1
10
62.64864491088
20
1.94361705372216
30
0
41
1
10
62.645510787272
20
1.93933808760864
30
0
41
1
10
62.6415849520949
20
1.9346421756213
30
0
41
1
10
62.6385308495504
20
1.93139681392261
30
0
41
1
10
62.6366876517625
20
1.92956181773773
30
0
0
SPLINE
5
1A6
100
AcDbEntity
8
1
62
256
6
ByLayer
370
18
48
1
60
0
100
AcDbSpline
70
4
71
3
72
26
73
22
40
0
40
0
40
0
40
0
40
0.0370941830874765
40
0.0742382530558631
40
0.111396993053058
40
0.148511206176681
40
0.199672149955508
40
0.250873023064909
40
0.302048351102186
40
0.360755265716719
40
0.41951903244924
40
0.478297833971333
40
0.537025269464628
40
0.59723838411898
40
0.657488230226611
40
0.717743882970494
40
0.777964920455999
40
0.833384931248283
40
0.888805254658153
40
0.944402565669564
40
1
40
1
40
1
40
1
41
1
10
62.847719423453
20
2.14059358942816
30
0
41
1
10
62.8464003412756
20
2.13927957578064
30
0
41
1
10
62.8436138248995
20
2.13666527553789
30
0
41
1
10
62.8389689523269
20
2.13278629250865
30
0
41
1
10
62.8339294635852
20
2.12895852969805
30
0
41
1
10
62.8278563995354
20
2.12471020839733
30
0
41
1
10
62.8206351805582
20
2.12006852724471
30
0
41
1
10
62.8121663049526
20
2.11506864870216
30
0
41
1
10
62.8028067901526
20
2.10993855980499
30
0
41
1
10
62.7925459015329
20
2.10469414940758
30
0
41
1
10
62.7813693646228
20
2.09935547615093
30
0
41
1
10
62.769792381954
20
2.0941573052668
30
0
41
1
10
62.7577672269149
20
2.08905554809928
30
0
41
1
10
62.7453248368375
20
2.08404985766077
30
0
41
1
10
62.7324821446201
20
2.07914387725649
30
0
41
1
10
62.7193732375569
20
2.07438003842778
30
0
41
1
10
62.7063814186642
20
2.06988144812236
30
0
41
1
10
62.6935493103154
20
2.06563535532572
30
0
41
1
10
62.6808932687967
20
2.06162656928348
30
0
41
1
10
62.6680648285504
20
2.05773755386695
30
0
41
1
10
62.6594075510995
20
2.05522788715442
30
0
41
1
10
62.6550540731757
20
2.05399425632887
30
0
0
SPLINE
5
1A7
100
AcDbEntity
8
1
62
256
6
ByLayer
370
18
48
1
60
0
100
AcDbSpline
70
4
71
1
72
4
73
2
40
0
40
0
40
1
40
1
41
1
10
62.6550540731757
20
2.05399425632887
30
0
41
1
10
62.5971378955815
20
2.037369252163
30
0
0
SPLINE
5
1A8
100
AcDbEntity
8
1
62
256
6
ByLayer
370
18
48
1
60
0
100
AcDbSpline
70
4
71
3
72
31
73
27
40
0
40
0
40
0
40
0
40
0.0470465443335395
40
0.0941999579687042
40
0.141356168543909
40
0.188445409471018
40
0.235438015059636
40
0.282199503268607
40
0.329105700989873
40
0.375964037328676
40
0.422660045598071
40
0.461081622558056
40
0.499636207438669
40
0.538176670550424
40
0.576578922568069
40
0.615016795190765
40
0.65359169146555
40
0.692182071524301
40
0.730641132079047
40
0.769117647691392
40
0.807713116794788
40
0.846380835795498
40
0.885036125970687
40
0.923562975287913
40
0.96178030653842
40
1
40
1
40
1
40
1
41
1
10
48.0704572351005
20
-12.6366685989243
30
0
41
1
10
48.0691093309427
20
-12.6380202907077
30
0
41
1
10
48.0663997813257
20
-12.6406141330058
30
0
41
1
10
48.0622995737682
20
-12.6441868363671
30
0
41
1
10
48.0581703510265
20
-12.647384266665
30
0
41
1
10
48.054025636908
20
-12.650158701448
30
0
41
1
10
48.0498838540447
20
-12.6524584564491
30
0
41
1
10
48.045754338334
20
-12.6542253936428
30
0
41
1
10
48.0416552492421
20
-12.6554055922867
30
0
41
1
10
48.0376096705735
20
-12.6559444166323
30
0
41
1
10
48.0338865586372
20
-12.6557878341084
30
0
41
1
10
48.0305004886628
20
-12.6550087914536
30
0
41
1
10
48.0274447725193
20
-12.6537444442611
30
0
41
1
10
48.0245179673171
20
-12.6519432172735
30
0
41
1
10
48.0217472256046
20
-12.6495984672001
30
0
41
1
10
48.0191586852219
20
-12.6466961349702
30
0
41
1
10
48.0167581154969
20
-12.6432845467145
30
0
41
1
10
48.0145570950288
20
-12.639411259494
30
0
41
1
10
48.0125672867713
20
-12.6351148223018
30
0
41
1
10
48.010795160383
20
-12.6304261916735
30
0
41
1
10
48.0092275469318
20
-12.6253979680138
30
0
41
1
10
48.0078579360152
20
-12.6200766959444
30
0
41
1
10
48.0066802954701
20
-12.6145150823405
30
0
41
1
10
48.0056898715127
20
-12.6087669679819
30
0
41
1
10
48.0048762112046
20
-12.6028629614138
30
0
41
1
10
48.0044383843438
20
-12.5988467238308
30
0
41
1
10
48.0042462072209
20
-12.5968136096262
30
0
0
SPLINE
5
1A9
100
AcDbEntity
8
1
62
256
6
ByLayer
370
18
48
1
60
0
100
AcDbSpline
70
4
71
1
72
4
73
2
40
0
40
0
40
1
40
1
41
1
10
47.9626463046953
20
-12.5971308657184
30
0
41
1
10
47.9460247965094
20
-12.6550350203375
30
0
0
SPLINE
5
1AA
100
AcDbEntity
8
1
62
256
6
ByLayer
370
18
48
1
60
0
100
AcDbSpline
70
4
71
3
72
25
73
21
40
0
40
0
40
0
40
0
40
0.0739954562214525
40
0.148043816204937
40
0.222087223742018
40
0.296075921716451
40
0.356916306205076
40
0.417825979332345
40
0.478744619633
40
0.539626920245098
40
0.600444321818257
40
0.652195499087733
40
0.703966327696222
40
0.755708401362354
40
0.795351949132193
40
0.835032054320197
40
0.874700797187942
40
0.914328835783481
40
0.957084908649396
40
1
40
1
40
1
40
1
41
1
10
47.9460247965094
20
-12.6550350203375
30
0
41
1
10
47.9443828413426
20
-12.6608307773336
30
0
41
1
10
47.9410230938515
20
-12.6723356765125
30
0
41
1
10
47.9357567432464
20
-12.6893360582975
30
0
41
1
10
47.9302706954443
20
-12.7060359220803
30
0
41
1
10
47.9249076240645
20
-12.7214322483283
30
0
41
1
10
47.9197131066638
20
-12.7355665829641
30
0
41
1
10
47.9147211316066
20
-12.748481426075
30
0
41
1
10
47.909581184352
20
-12.7610888916074
30
0
41
1
10
47.9042955718739
20
-12.7733416956604
30
0
41
1
10
47.8991343558985
20
-12.7846092557271
30
0
41
1
10
47.8941208980921
20
-12.7949190376493
30
0
41
1
10
47.8892733565387
20
-12.8042964892549
30
0
41
1
10
47.8847005393481
20
-12.8125632826467
30
0
41
1
10
47.8804315855254
20
-12.8197839310176
30
0
41
1
10
47.876490251058
20
-12.8260321811337
30
0
41
1
10
47.872484254676
20
-12.8319345672851
30
0
41
1
10
47.8683105222028
20
-12.8375908537991
30
0
41
1
10
47.863960144146
20
-12.8429285701353
30
0
41
1
10
47.860945920879
20
-12.8461716929572
30
0
41
1
10
47.8594254634101
20
-12.8477003706148
30
0
0
SPLINE
5
1AB
100
AcDbEntity
8
1
62
256
6
ByLayer
370
18
48
1
60
0
100
AcDbSpline
70
4
71
3
72
27
73
23
40
0
40
0
40
0
40
0
40
0.0315807394853123
40
0.0631178473818398
40
0.100272233660434
40
0.137463579321683
40
0.174664272216728
40
0.211831416815357
40
0.262672101343656
40
0.313544117345137
40
0.364394413340569
40
0.413675727155048
40
0.462999637735135
40
0.512345937656025
40
0.561685123328861
40
0.610979259902335
40
0.674240277582712
40
0.737544211337567
40
0.800853045391447
40
0.864120749736377
40
0.932060228495718
40
1
40
1
40
1
40
1
41
1
10
63.9710969261457
20
4.40105268582221
30
0
41
1
10
63.9699316568173
20
4.39988318367374
30
0
41
1
10
63.9676161178745
20
4.39743020096896
30
0
41
1
10
63.9639780743623
20
4.39315287322218
30
0
41
1
10
63.9601898664671
20
4.38824518067702
30
0
41
1
10
63.9562634870647
20
4.38267421221552
30
0
41
1
10
63.9524041991797
20
4.37674030906963
30
0
41
1
10
63.948150161903
20
4.3697141216678
30
0
41
1
10
63.9435335213476
20
4.36148604848652
30
0
41
1
10
63.9385938198931
20
4.35195926406446
30
0
41
1
10
63.9338345633352
20
4.34210141915327
30
0
41
1
10
63.9292485186752
20
4.33197594019553
30
0
41
1
10
63.9248296720893
20
4.32162603559743
30
0
41
1
10
63.9205298488359
20
4.3109749066239
30
0
41
1
10
63.9163504878254
20
4.30005577392539
30
0
41
1
10
63.9119072365284
20
4.28784155344017
30
0
41
1
10
63.9072384767833
20
4.27426955328241
30
0
41
1
10
63.9023906407011
20
4.2592809615657
30
0
41
1
10
63.897736023649
20
4.24398748203652
30
0
41
1
10
63.8931662637784
20
4.22803894738129
30
0
41
1
10
63.8886990240128
20
4.21143608889539
30
0
41
1
10
63.8858048354395
20
4.19993737866599
30
0
41
1
10
63.8843958207975
20
4.19414342768368
30
0
0
SPLINE
5
1AC
100
AcDbEntity
8
1
62
256
6
ByLayer
370
18
48
1
60
0
100
AcDbSpline
70
4
71
3
72
31
73
27
40
0
40
0
40
0
40
0
40
0.0204247866865253
40
0.0661410447878924
40
0.111838353474696
40
0.157461182304036
40
0.196370360929518
40
0.235399624001899
40
0.274447940318274
40
0.313435799672499
40
0.352310148312595
40
0.391470632458184
40
0.430797688280749
40
0.470175263546452
40
0.509490467385639
40
0.548640969107918
40
0.592611560006736
40
0.636723273179048
40
0.680856241618168
40
0.724855907389365
40
0.772589901175711
40
0.820469904962511
40
0.868440516538907
40
0.916397519581141
40
0.964196299049635
40
1
40
1
40
1
40
1
41
1
10
45.5989762834525
20
-13.9710679588535
30
0
41
1
10
45.5984489984964
20
-13.9715947847366
30
0
41
1
10
45.5967875824173
20
-13.9733040971067
30
0
41
1
10
45.5942185622336
20
-13.9762147953795
30
0
41
1
10
45.591527438299
20
-13.979806300776
30
0
41
1
10
45.5894420928241
20
-13.9832342907363
30
0
41
1
10
45.5879274318508
20
-13.9864886415178
30
0
41
1
10
45.586923101272
20
-13.9895617641491
30
0
41
1
10
45.5863691769103
20
-13.99261766372
30
0
41
1
10
45.5862945367426
20
-13.9956371790005
30
0
41
1
10
45.5867255662091
20
-13.998612309954
30
0
41
1
10
45.5877099675426
20
-14.0015287462037
30
0
41
1
10
45.5892482298671
20
-14.0043738609766
30
0
41
1
10
45.5913260127268
20
-14.0071243738958
30
0
41
1
10
45.5939320433035
20
-14.0097567876295
30
0
41
1
10
45.5971919784541
20
-14.0123545337525
30
0
41
1
10
45.6011826525575
20
-14.0148816400601
30
0
41
1
10
45.6059139797024
20
-14.017313680406
30
0
41
1
10
45.6111751126747
20
-14.0195467060519
30
0
41
1
10
45.6170743482663
20
-14.0216298035474
30
0
41
1
10
45.6236158038262
20
-14.0235391986272
30
0
41
1
10
45.6307722631543
20
-14.0252673010659
30
0
41
1
10
45.6383055330497
20
-14.0267716379504
30
0
41
1
10
45.6461419675093
20
-14.0280602026646
30
0
41
1
10
45.6535568499876
20
-14.0290507759564
30
0
41
1
10
45.6583754054968
20
-14.0295826164581
30
0
41
1
10
45.6604603965615
20
-14.0297919965523
30
0
0
SPLINE
5
1AD
100
AcDbEntity
8
1
62
256
6
ByLayer
370
18
48
1
60
0
100
AcDbSpline
70
4
71
3
72
30
73
26
40
0
40
0
40
0
40
0
40
0.0115107940961538
40
0.0595817806169371
40
0.101854248017017
40
0.144264157755559
40
0.186697724097327
40
0.229063744928879
40
0.271299285576051
40
0.3138272821998
40
0.356539136715083
40
0.3993086592651
40
0.442011015870913
40
0.484531012204268
40
0.531851251851264
40
0.579321580604075
40
0.626813939043243
40
0.674164311851634
40
0.725275249709681
40
0.776544010923977
40
0.827907715546982
40
0.879254154692429
40
0.930430450672888
40
0.965214888657872
40
1
40
1
40
1
40
1
41
1
10
64.62163083282
20
5.0515865913214
30
0
41
1
10
64.6218757882452
20
5.05183114614873
30
0
41
1
10
64.6231448623032
20
5.05307060022324
30
0
41
1
10
64.6253267947193
20
5.05497472439833
30
0
41
1
10
64.6281849181912
20
5.05694845146461
30
0
41
1
10
64.6309260056526
20
5.05836470278897
30
0
41
1
10
64.6336632185804
20
5.0592834544394
30
0
41
1
10
64.6363792362271
20
5.05967346213389
30
0
41
1
10
64.6390665484334
20
5.05950620460231
30
0
41
1
10
64.6417131092131
20
5.05873087981651
30
0
41
1
10
64.6443076789544
20
5.05734906140825
30
0
41
1
10
64.6468292953744
20
5.05537554723247
30
0
41
1
10
64.6492565102293
20
5.05282228679748
30
0
41
1
10
64.6516594172691
20
5.0495743519616
30
0
41
1
10
64.654009214553
20
5.04555532323513
30
0
41
1
10
64.6562862040361
20
5.04075841024022
30
0
41
1
10
64.6583994956034
20
5.0353851437046
30
0
41
1
10
64.6603919731936
20
5.02933511545498
30
0
41
1
10
64.6622435499664
20
5.02260347428206
30
0
41
1
10
64.6639471485647
20
5.01521842413613
30
0
41
1
10
64.6654617289833
20
5.00741523187951
30
0
41
1
10
64.6667914233949
20
4.99926977144807
30
0
41
1
10
64.667819628875
20
4.99173622928471
30
0
41
1
10
64.6686113085329
20
4.98494377621341
30
0
41
1
10
64.6690184226144
20
4.98096429907102
30
0
41
1
10
64.6692094387867
20
4.97895704567291
30
0
0
SPLINE
5
1AE
100
AcDbEntity
8
1
62
256
6
ByLayer
370
18
48
1
60
0
100
AcDbSpline
70
4
71
3
72
27
73
23
40
0
40
0
40
0
40
0
40
0.0186779014997733
40
0.0580666781323486
40
0.0973253253248448
40
0.145345949383248
40
0.193415136331835
40
0.241451402552561
40
0.290765487087812
40
0.340111746324256
40
0.389434886574726
40
0.4459090552122
40
0.502438004530667
40
0.558978172489351
40
0.615467653555563
40
0.673476503996763
40
0.731525442842714
40
0.789579331000536
40
0.847594935062255
40
0.898392586286336
40
0.949201652887342
40
1
40
1
40
1
40
1
41
1
10
44.9484375372503
20
-14.6216067068545
30
0
41
1
10
44.9489712259864
20
-14.6210780953037
30
0
41
1
10
44.9506931981316
20
-14.6194394847778
30
0
41
1
10
44.9539096170883
20
-14.6167143334736
30
0
41
1
10
44.9586652070905
20
-14.6132203589613
30
0
41
1
10
44.9643498125637
20
-14.6095556756163
30
0
41
1
10
44.9710233258376
20
-14.6057420272708
30
0
41
1
10
44.9783123922967
20
-14.6019884689243
30
0
41
1
10
44.9861687750898
20
-14.5983009856067
30
0
41
1
10
44.994552695656
20
-14.5946843460712
30
0
41
1
10
45.0037715656725
20
-14.5910016311053
30
0
41
1
10
45.0138471423632
20
-14.5872696132676
30
0
41
1
10
45.024797984398
20
-14.5835072390693
30
0
41
1
10
45.036132150747
20
-14.579879549665
30
0
41
1
10
45.0479096553277
20
-14.5763549720142
30
0
41
1
10
45.060106610412
20
-14.5729353695065
30
0
41
1
10
45.0727069151615
20
-14.569624146172
30
0
41
1
10
45.0855729554021
20
-14.5664520747905
30
0
41
1
10
45.0981334119506
20
-14.5635452590954
30
0
41
1
10
45.1103351470575
20
-14.5608842069554
30
0
41
1
10
45.1221404335895
20
-14.5584509250483
30
0
41
1
10
45.1301030987845
20
-14.5569011568602
30
0
41
1
10
45.1341079918843
20
-14.5561444012295
30
0
0
SPLINE
5
1AF
100
AcDbEntity
8
1
62
256
6
ByLayer
370
18
48
1
60
0
100
AcDbSpline
70
4
71
3
72
27
73
23
40
0
40
0
40
0
40
0
40
0.0329005421844669
40
0.0747226995148309
40
0.116528128009009
40
0.158194192587009
40
0.207591847125247
40
0.257114165928718
40
0.306736275592404
40
0.356400023587282
40
0.406018571374266
40
0.455480561060915
40
0.510416148277257
40
0.565404880012641
40
0.620403445999046
40
0.675352456091323
40
0.73180134195189
40
0.788290496320368
40
0.844784375342301
40
0.901239708409533
40
0.950619732825285
40
1
40
1
40
1
40
1
41
1
10
65.1234895032445
20
5.55344526179211
30
0
41
1
10
65.1227909249045
20
5.55273863307465
30
0
41
1
10
65.1212118487699
20
5.5509909888338
30
0
41
1
10
65.1187722650395
20
5.54774254279707
30
0
41
1
10
65.1161890766953
20
5.54367858352761
30
0
41
1
10
65.1134984906475
20
5.53880908722184
30
0
41
1
10
65.1107144978144
20
5.53306619846408
30
0
41
1
10
65.1078503927847
20
5.52640274427925
30
0
41
1
10
65.1050629637115
20
5.51919176754046
30
0
41
1
10
65.1023578580354
20
5.51149855578397
30
0
41
1
10
65.0997407904998
20
5.50338736201682
30
0
41
1
10
65.0971195344729
20
5.49459323838005
30
0
41
1
10
65.0945033436612
20
5.48510439430506
30
0
41
1
10
65.0919013442232
20
5.47490878571215
30
0
41
1
10
65.0894038710688
20
5.46437372478663
30
0
41
1
10
65.086989096679
20
5.45343934333172
30
0
41
1
10
65.0846588805032
20
5.44212578695817
30
0
41
1
10
65.0824157739737
20
5.43044813900197
30
0
41
1
10
65.0802809450784
20
5.41853508883481
30
0
41
1
10
65.0783392174715
20
5.40691921853073
30
0
41
1
10
65.0765753483278
20
5.39564748918116
30
0
41
1
10
65.0755084963694
20
5.38838860642205
30
0
41
1
10
65.074988902372
20
5.38473650925815
30
0
0
SPLINE
5
1B0
100
AcDbEntity
8
1
62
256
6
ByLayer
370
18
48
1
60
0
100
AcDbSpline
70
4
71
3
72
30
73
26
40
0
40
0
40
0
40
0
40
0.0144291005525506
40
0.0571257447329325
40
0.0999650985412504
40
0.14283397420006
40
0.185637270379075
40
0.228303573585443
40
0.271173984104824
40
0.314215695393605
40
0.357316682282027
40
0.400360253296082
40
0.443232229822741
40
0.492665554388905
40
0.542246953491847
40
0.591851643166585
40
0.641316819957984
40
0.68729800309695
40
0.73340232950701
40
0.779598323565634
40
0.825827656124533
40
0.872009033932843
40
0.918041736415841
40
0.959020378236105
40
1
40
1
40
1
40
1
41
1
10
44.4465746634133
20
-15.1234695784911
30
0
41
1
10
44.4463286414462
20
-15.1237150921742
30
0
41
1
10
44.4453910350549
20
-15.1246878673881
30
0
41
1
10
44.4439969842686
20
-15.1263976303877
30
0
41
1
10
44.4427058346275
20
-15.1285985469104
30
0
41
1
10
44.4419295252655
20
-15.1307979743494
30
0
41
1
10
44.4416944881244
20
-15.1329815430122
30
0
41
1
10
44.4420249586129
20
-15.1351416591238
30
0
41
1
10
44.442961846705
20
-15.1372690377384
30
0
41
1
10
44.44449406648
20
-15.1393558756296
30
0
41
1
10
44.4466029851817
20
-15.1413879537972
30
0
41
1
10
44.4492710984541
20
-15.1433498324655
30
0
41
1
10
44.4526543022752
20
-15.1453254236086
30
0
41
1
10
44.4568476273325
20
-15.1472904036949
30
0
41
1
10
44.4618821354841
20
-15.1492250739667
30
0
41
1
10
44.4675011554491
20
-15.151031787114
30
0
41
1
10
44.4735032566758
20
-15.1526650483763
30
0
41
1
10
44.4798059924467
20
-15.1541329640669
30
0
41
1
10
44.4863284222494
20
-15.1554519180755
30
0
41
1
10
44.4931853545005
20
-15.1566604133205
30
0
41
1
10
44.5003296442398
20
-15.1577599367365
30
0
41
1
10
44.5077145288186
20
-15.1587518988924
30
0
41
1
10
44.5150303927751
20
-15.1596067266181
30
0
41
1
10
44.5222295317013
20
-15.1603405239553
30
0
41
1
10
44.526924166127
20
-15.1607608012249
30
0
41
1
10
44.5292941239732
20
-15.1609582691407
30
0
0
SPLINE
5
1B1
100
AcDbEntity
8
1
62
256
6
ByLayer
370
18
48
1
60
0
100
AcDbSpline
70
4
71
3
72
27
73
23
40
0
40
0
40
0
40
0
40
0.0428119902776209
40
0.0877756834786135
40
0.132762481953372
40
0.177643185306323
40
0.224662119044263
40
0.271804214575576
40
0.319040779322284
40
0.366313838454914
40
0.413540277712733
40
0.460615604503339
40
0.511195380375895
40
0.561824263441822
40
0.612461956448005
40
0.663053757156076
40
0.715032391970125
40
0.767048127562412
40
0.81906864572827
40
0.871053806778903
40
0.935526357041751
40
1
40
1
40
1
40
1
41
1
10
44.0724784403577
20
-15.4975657999948
30
0
41
1
10
44.0731316835175
20
-15.4969183710271
30
0
41
1
10
44.0746905050477
20
-15.4955981970925
30
0
41
1
10
44.0777567316428
20
-15.4936198586603
30
0
41
1
10
44.0815227160955
20
-15.4916420294036
30
0
41
1
10
44.0859642837343
20
-15.4896720089267
30
0
41
1
10
44.0910678002725
20
-15.4877168807097
30
0
41
1
10
44.0968081858891
20
-15.4857804729756
30
0
41
1
10
44.1030566574178
20
-15.4838957656543
30
0
41
1
10
44.109757059084
20
-15.4820672253156
30
0
41
1
10
44.1168535692908
20
-15.480299326416
30
0
41
1
10
44.1244903494439
20
-15.4785511286981
30
0
41
1
10
44.132666013771
20
-15.4768270349987
30
0
41
1
10
44.1413785475741
20
-15.4751304598926
30
0
41
1
10
44.1503991837562
20
-15.4735026940906
30
0
41
1
10
44.159779139675
20
-15.4719296038513
30
0
41
1
10
44.1695011237452
20
-15.4704125706798
30
0
41
1
10
44.1795511035426
20
-15.468953051067
30
0
41
1
10
44.189817048534
20
-15.467564666786
30
0
41
1
10
44.2011119801881
20
-15.4661418764078
30
0
41
1
10
44.2134727908588
20
-15.4647053812108
30
0
41
1
10
44.2224347373514
20
-15.4637537775217
30
0
41
1
10
44.226956380454
20
-15.4632960126599
30
0
0
SPLINE
5
1B2
100
AcDbEntity
8
1
62
256
6
ByLayer
370
18
48
1
60
0
100
AcDbSpline
70
4
71
3
72
30
73
26
40
0
40
0
40
0
40
0
40
0.0169069430486974
40
0.0596264808211508
40
0.102380484057938
40
0.145072360484724
40
0.187624261569073
40
0.230300725657155
40
0.273135065933272
40
0.316028290385167
40
0.35887254711977
40
0.401557359155123
40
0.442340119372978
40
0.483228588829645
40
0.524167684679205
40
0.565084235804969
40
0.605890610710186
40
0.654702360286316
40
0.703645025739969
40
0.752684696368147
40
0.801759304714754
40
0.850782717640617
40
0.899648457910706
40
0.949823361760649
40
1
40
1
40
1
40
1
41
1
10
65.4975827823284
20
5.92753854131605
30
0
41
1
10
65.4978000005634
20
5.92775358247006
30
0
41
1
10
65.4985663424443
20
5.92846490159266
30
0
41
1
10
65.4998856778266
20
5.92940948144962
30
0
41
1
10
65.5015355093006
20
5.93005961724687
30
0
41
1
10
65.5031746470403
20
5.93016463386459
30
0
41
1
10
65.5047963045951
20
5.92970285194208
30
0
41
1
10
65.5063938963737
20
5.92864317824937
30
0
41
1
10
65.507962343495
20
5.92700388217802
30
0
41
1
10
65.5094926902918
20
5.92480593928398
30
0
41
1
10
65.5109744655219
20
5.92207066174609
30
0
41
1
10
65.5123787996377
20
5.91885857347285
30
0
41
1
10
65.5137035195669
20
5.91520678209783
30
0
41
1
10
65.5149524238811
20
5.91117981926517
30
0
41
1
10
65.5161433310022
20
5.90675348962136
30
0
41
1
10
65.5172726434075
20
5.90196600555159
30
0
41
1
10
65.5184078674371
20
5.89651063303727
30
0
41
1
10
65.5195339060952
20
5.89033016837662
30
0
41
1
10
65.5206376796624
20
5.88339041521787
30
0
41
1
10
65.5216558428309
20
5.87609124763275
30
0
41
1
10
65.5225891995347
20
5.86848286425342
30
0
41
1
10
65.523438529678
20
5.86061495882075
30
0
41
1
10
65.5242127330187
20
5.85244964980753
30
0
41
1
10
65.5249120683348
20
5.84400477174036
30
0
41
1
10
65.525330633264
20
5.83820594724209
30
0
41
1
10
65.5255266997967
20
5.83527430668289
30
0
0
SPLINE
5
1B3
100
AcDbEntity
8
1
62
256
6
ByLayer
370
18
48
1
60
0
100
AcDbSpline
70
4
71
3
72
29
73
25
40
0
40
0
40
0
40
0
40
0.0359202793272495
40
0.0786334891946312
40
0.1212054689887
40
0.163872323681109
40
0.206692467937302
40
0.249571077807933
40
0.292403344770391
40
0.335080403646669
40
0.37641901534639
40
0.417863505813834
40
0.459358734182135
40
0.500831418853102
40
0.54219373913476
40
0.5918079852087
40
0.641556052675524
40
0.691402256278912
40
0.74128301741072
40
0.791110953920983
40
0.84077860375745
40
0.893839997424881
40
0.946932122133559
40
1
40
1
40
1
40
1
41
1
10
43.8130770899791
20
-15.7569671505449
30
0
41
1
10
43.81277312576
20
-15.7572788905294
30
0
41
1
10
43.8122472046962
20
-15.7579605316684
30
0
41
1
10
43.8118867287422
20
-15.7590106828909
30
0
41
1
10
43.8120883187591
20
-15.7601117054174
30
0
41
1
10
43.8128896966079
20
-15.7612004932561
30
0
41
1
10
43.8142741793402
20
-15.7622735602243
30
0
41
1
10
43.816221001268
20
-15.7633251771626
30
0
41
1
10
43.8187098719469
20
-15.7643483844006
30
0
41
1
10
43.8216972518562
20
-15.7653277968167
30
0
41
1
10
43.8251538380766
20
-15.7662613638063
30
0
41
1
10
43.829022060422
20
-15.7671505769837
30
0
41
1
10
43.833307146887
20
-15.768003549596
30
0
41
1
10
43.8379711744645
20
-15.7688175935068
30
0
41
1
10
43.8433195187219
20
-15.7696425123226
30
0
41
1
10
43.849415093147
20
-15.7704684422503
30
0
41
1
10
43.8562974064183
20
-15.7712865851
30
0
41
1
10
43.8635653370714
20
-15.772049312714
30
0
41
1
10
43.8711678646451
20
-15.7727567123813
30
0
41
1
10
43.8790541534531
20
-15.7734088827291
30
0
41
1
10
43.8873750515213
20
-15.7740204531964
30
0
41
1
10
43.8961222037576
20
-15.7745891928052
30
0
41
1
10
43.9052884289341
20
-15.77511365755
30
0
41
1
10
43.9115259086855
20
-15.7754272205664
30
0
41
1
10
43.9146775926053
20
-15.7755748005086
30
0
0
SPLINE
5
1B4
100
AcDbEntity
8
1
62
256
6
ByLayer
370
18
48
1
60
0
100
AcDbSpline
70
4
71
3
72
29
73
25
40
0
40
0
40
0
40
0
40
0.0106178715169866
40
0.0478112336894265
40
0.0850995489360314
40
0.122433487268753
40
0.159747316058245
40
0.196962132466986
40
0.241767127802553
40
0.286692677315057
40
0.331707005591641
40
0.376752886334642
40
0.421751359504168
40
0.466605114450056
40
0.513462569981813
40
0.560365637516791
40
0.607276590831666
40
0.654144809835734
40
0.718363557165805
40
0.782627012032686
40
0.846855237992136
40
0.897897177161049
40
0.948955952654395
40
1
40
1
40
1
40
1
41
1
10
65.7569861439957
20
6.186941903401
30
0
41
1
10
65.7568837830418
20
6.18683948547969
30
0
41
1
10
65.7564231442983
20
6.18634744558793
30
0
41
1
10
65.7556044172942
20
6.18521759382174
30
0
41
1
10
65.7545361843982
20
6.18324440509163
30
0
41
1
10
65.7534775639656
20
6.18080935324093
30
0
41
1
10
65.7524335343017
20
6.17794231058146
30
0
41
1
10
65.7513376291461
20
6.17444403526495
30
0
41
1
10
65.7501958348111
20
6.17023372777624
30
0
41
1
10
65.7490146330622
20
6.16525492796887
30
0
41
1
10
65.7478643055928
20
6.15980236714345
30
0
41
1
10
65.7467479828587
20
6.1539246217735
30
0
41
1
10
65.7456687677294
20
6.14767005394614
30
0
41
1
10
65.7446124416089
20
6.14097510044269
30
0
41
1
10
65.7435807768355
20
6.13385057571859
30
0
41
1
10
65.7425745081626
20
6.12630862426441
30
0
41
1
10
65.7416090426574
20
6.1184830209397
30
0
41
1
10
65.7405705687247
20
6.10940687589967
30
0
41
1
10
65.7394779537167
20
6.09899032003329
30
0
41
1
10
65.7383529332103
20
6.08716206642602
30
0
41
1
10
65.7373747531469
20
6.07583143266785
30
0
41
1
10
65.7365262024374
20
6.06510897814011
30
0
41
1
10
65.7357916653832
20
6.05506885579647
30
0
41
1
10
65.7353329233657
20
6.04827881866673
30
0
41
1
10
65.7351113440657
20
6.04485895095188
30
0
0
SPLINE
5
1B5
100
AcDbEntity
8
1
62
256
6
ByLayer
370
18
48
1
60
0
100
AcDbSpline
70
4
71
3
72
29
73
25
40
0
40
0
40
0
40
0
40
0.0114423062223745
40
0.052724292124121
40
0.0915252041126885
40
0.130431552382979
40
0.169386764194155
40
0.2083180222895
40
0.247139884211366
40
0.291626514055869
40
0.336234720767056
40
0.38093024522221
40
0.425655079426421
40
0.470331027202526
40
0.514862952500254
40
0.560507381444983
40
0.606196240430929
40
0.651892489330203
40
0.697547004939811
40
0.760111004086427
40
0.822718960921742
40
0.885292308772583
40
0.942645572578232
40
1
40
1
40
1
40
1
41
1
10
43.6603383148583
20
-15.9097059255873
30
0
41
1
10
43.6603956447045
20
-15.9096526824827
30
0
41
1
10
43.6606926774433
20
-15.9094073512677
30
0
41
1
10
43.6614391107817
20
-15.9089808837346
30
0
41
1
10
43.6630095642715
20
-15.9084280961226
30
0
41
1
10
43.6650427718403
20
-15.9078898667348
30
0
41
1
10
43.6675557114216
20
-15.9073567191547
30
0
41
1
10
43.6705155313218
20
-15.906831348336
30
0
41
1
10
43.6740651268533
20
-15.9062905196479
30
0
41
1
10
43.6782601495892
20
-15.9057369191703
30
0
41
1
10
43.6831315337844
20
-15.9051731348019
30
0
41
1
10
43.6884536732708
20
-15.9046247516617
30
0
41
1
10
43.6941811577201
20
-15.9040933984243
30
0
41
1
10
43.700268708494
20
-15.9035806875329
30
0
41
1
10
43.7067378909247
20
-15.903083277302
30
0
41
1
10
43.7135717105419
20
-15.9026017752744
30
0
41
1
10
43.720752137661
20
-15.9021361524202
30
0
41
1
10
43.7281949102365
20
-15.9016906588509
30
0
41
1
10
43.73682006052
20
-15.9012129942705
30
0
41
1
10
43.7467108660736
20
-15.9007126377724
30
0
41
1
10
43.7579323906292
20
-15.9002004370828
30
0
41
1
10
43.7691401772383
20
-15.8997388403514
30
0
41
1
10
43.7802691811158
20
-15.8993242022963
30
0
41
1
10
43.7875969030559
20
-15.8990765392837
30
0
41
1
10
43.7912945125238
20
-15.8989578805901
30
0
0
SPLINE
5
1B6
100
AcDbEntity
8
1
62
256
6
ByLayer
370
18
48
1
60
0
100
AcDbSpline
70
4
71
3
72
28
73
24
40
0
40
0
40
0
40
0
40
0.0443866367327728
40
0.0915399706065925
40
0.138486771830501
40
0.179753446353362
40
0.221148045404446
40
0.262597874936017
40
0.304014926876763
40
0.345300492031217
40
0.3881228339893
40
0.431043645647081
40
0.474014110331757
40
0.51696583606393
40
0.559814167048861
40
0.615128596654778
40
0.670590672936311
40
0.726162454464084
40
0.781773986388199
40
0.837327932584753
40
0.892703789035562
40
0.946351186665664
40
1
40
1
40
1
40
1
41
1
10
65.9097250830816
20
6.33968084276262
30
0
41
1
10
65.9099212079795
20
6.33986118100282
30
0
41
1
10
65.9103238573177
20
6.34002400518342
30
0
41
1
10
65.9109291106111
20
6.33964419247778
30
0
41
1
10
65.9115114990921
20
6.33856626011674
30
0
41
1
10
65.9120575797551
20
6.33689951869676
30
0
41
1
10
65.9125684227006
20
6.33477083974398
30
0
41
1
10
65.9130661373652
20
6.33213276427464
30
0
41
1
10
65.9135481836253
20
6.32901481411013
30
0
41
1
10
65.9140185754886
20
6.32539295214645
30
0
41
1
10
65.9144756551804
20
6.32126488993498
30
0
41
1
10
65.9149190022564
20
6.31665172987501
30
0
41
1
10
65.9153425944839
20
6.31163808893008
30
0
41
1
10
65.9157455915985
20
6.3062648610346
30
0
41
1
10
65.9161646579949
20
6.30001010990996
30
0
41
1
10
65.9165927960812
20
6.29278019636633
30
0
41
1
10
65.9170229777333
20
6.28450499750647
30
0
41
1
10
65.9174212726598
20
6.27582124038705
30
0
41
1
10
65.9177881323337
20
6.2667875646887
30
0
41
1
10
65.9181239883115
20
6.25746201843586
30
0
41
1
10
65.9184266551846
20
6.24798420074102
30
0
41
1
10
65.9186982452745
20
6.23839040286197
30
0
41
1
10
65.9188604074623
20
6.23194158450056
30
0
41
1
10
65.9189371688131
20
6.22868477569926
30
0
0
SPLINE
5
1B7
100
AcDbEntity
8
1
62
256
6
ByLayer
370
18
48
1
60
0
100
AcDbSpline
70
4
71
2
72
6
73
3
40
0
40
0
40
0
40
1
40
1
40
1
41
0.500008131384622
10
64.1643667539458
20
3.45724091992102
30
0
41
0.499991868615378
10
64.2119944618973
20
3.50486862787254
30
0
41
0.500008131384622
10
64.2584697075484
20
3.55134387352357
30
0
0
SPLINE
5
1B8
100
AcDbEntity
8
1
62
256
6
ByLayer
370
18
48
1
60
0
100
AcDbSpline
70
4
71
2
72
6
73
3
40
0
40
0
40
0
40
1
40
1
40
1
41
0.500007111648353
10
64.7892309168955
20
4.08210508287073
30
0
41
0.499992888351647
10
64.8257716770987
20
4.1186458430739
30
0
41
0.500007111648353
10
64.8612346607599
20
4.1541088267351
30
0
0
SPLINE
5
1B9
100
AcDbEntity
8
1
62
256
6
ByLayer
370
18
48
1
60
0
100
AcDbSpline
70
4
71
2
72
6
73
3
40
0
40
0
40
0
40
1
40
1
40
1
41
0.500006463229465
10
65.2623163231327
20
4.55519048910789
30
0
41
0.499993536770535
10
65.2895244280738
20
4.58239859404903
30
0
41
0.500006463229465
10
65.3157050661761
20
4.60857923215126
30
0
0
SPLINE
5
1BA
100
AcDbEntity
8
1
62
256
6
ByLayer
370
18
48
1
60
0
100
AcDbSpline
70
4
71
2
72
6
73
3
40
0
40
0
40
0
40
1
40
1
40
1
41
0.50000604954862
10
65.6046582258829
20
4.89753239185816
30
0
41
0.49999395045138
10
65.6236023420419
20
4.91647650801711
30
0
41
0.50000604954862
10
65.6415524175318
20
4.93442658350703
30
0
0
SPLINE
5
1BB
100
AcDbEntity
8
1
62
256
6
ByLayer
370
18
48
1
60
0
100
AcDbSpline
70
4
71
2
72
6
73
3
40
0
40
0
40
0
40
1
40
1
40
1
41
0.500005801978492
10
65.8290826536714
20
5.1219568196466
30
0
41
0.499994198021509
10
65.8404088067393
20
5.13328297271453
30
0
41
0.500005801978492
10
65.8507614720156
20
5.14363563799084
30
0
0
SPLINE
5
1BC
100
AcDbEntity
8
1
62
256
6
ByLayer
370
18
48
1
60
0
100
AcDbSpline
70
4
71
2
72
6
73
3
40
0
40
0
40
0
40
1
40
1
40
1
41
0.500005685640023
10
65.9430893639762
20
5.23596352995141
30
0
41
0.499994314359977
10
65.947147930766
20
5.24002209674122
30
0
41
0.500005685640023
10
65.950242819364
20
5.24311698533918
30
0
0
SPLINE
5
1BD
100
AcDbEntity
8
1
62
256
6
ByLayer
370
18
48
1
60
0
100
AcDbSpline
70
4
71
2
72
6
73
3
40
0
40
0
40
0
40
1
40
1
40
1
41
0.500005685640023
10
44.7569020674991
20
-15.9502237665258
30
0
41
0.499994314359977
10
44.759996956097
20
-15.9471288779278
30
0
41
0.500005685640023
10
44.7640555228869
20
-15.943070311138
30
0
0
SPLINE
5
1BE
100
AcDbEntity
8
1
62
256
6
ByLayer
370
18
48
1
60
0
100
AcDbSpline
70
4
71
2
72
6
73
3
40
0
40
0
40
0
40
1
40
1
40
1
41
0.500005801978492
10
44.8563834148474
20
-15.8507424191774
30
0
41
0.499994198021509
10
44.8667360801237
20
-15.8403897539011
30
0
41
0.500005801978492
10
44.8780622331917
20
-15.8290636008332
30
0
0
SPLINE
5
1BF
100
AcDbEntity
8
1
62
256
6
ByLayer
370
18
48
1
60
0
100
AcDbSpline
70
4
71
2
72
6
73
3
40
0
40
0
40
0
40
1
40
1
40
1
41
0.50000604954862
10
45.0655924693312
20
-15.6415333646936
30
0
41
0.49999395045138
10
45.0835425448212
20
-15.6235832892037
30
0
41
0.50000604954862
10
45.1024866609801
20
-15.6046391730447
30
0
0
SPLINE
5
1C0
100
AcDbEntity
8
1
62
256
6
ByLayer
370
18
48
1
60
0
100
AcDbSpline
70
4
71
2
72
6
73
3
40
0
40
0
40
0
40
1
40
1
40
1
41
0.500006463229465
10
45.391439820687
20
-15.3156860133379
30
0
41
0.499993536770535
10
45.4176204587892
20
-15.2895053752356
30
0
41
0.500006463229465
10
45.4448285637304
20
-15.2622972702945
30
0
0
SPLINE
5
1C1
100
AcDbEntity
8
1
62
256
6
ByLayer
370
18
48
1
60
0
100
AcDbSpline
70
4
71
2
72
6
73
3
40
0
40
0
40
0
40
1
40
1
40
1
41
0.500007111648353
10
45.8459102261032
20
-14.8612156079217
30
0
41
0.499992888351647
10
45.8813732097644
20
-14.8257526242604
30
0
41
0.500007111648353
10
45.9179139699675
20
-14.7892118640573
30
0
0
SPLINE
5
1C2
100
AcDbEntity
8
1
62
256
6
ByLayer
370
18
48
1
60
0
100
AcDbSpline
70
4
71
2
72
6
73
3
40
0
40
0
40
0
40
1
40
1
40
1
41
0.500008131384622
10
46.4486751793147
20
-14.2584506547102
30
0
41
0.499991868615378
10
46.4951504249658
20
-14.2119754090591
30
0
41
0.500008131384622
10
46.5427781329173
20
-14.1643477011076
30
0
0
SPLINE
5
1C3
100
AcDbEntity
8
1
62
256
6
ByLayer
370
18
48
1
60
0
100
AcDbSpline
70
4
71
2
72
6
73
3
40
0
40
0
40
0
40
1
40
1
40
1
41
0.500002470596433
10
62.6366876517625
20
1.92956181773775
30
0
41
0.499997529403567
10
62.6290575985043
20
1.92193176447951
30
0
41
0.500002470596433
10
62.6213573618231
20
1.9142315277983
30
0
0
SPLINE
5
1C4
100
AcDbEntity
8
1
62
256
6
ByLayer
370
18
48
1
60
0
100
AcDbSpline
70
4
71
2
72
6
73
3
40
0
40
0
40
0
40
1
40
1
40
1
41
0.500002470596433
10
48.08578752504
20
-12.6213383089849
30
0
41
0.499997529403567
10
48.0780872883588
20
-12.6290385456661
30
0
41
0.500002470596433
10
48.0704572351005
20
-12.6366685989243
30
0
0
SPLINE
5
1C5
100
AcDbEntity
8
1
62
256
6
ByLayer
370
18
48
0.05
60
1
100
AcDbSpline
70
4
71
3
72
8
73
4
40
0
40
0
40
0
40
0
40
1
40
1
40
1
40
1
41
1
10
48.2221518312485
20
-67.0000000000006
30
0
41
1
10
46.5596853212573
20
-75.5902538198197
30
0
41
1
10
45.1691992484993
20
-84.2037962267288
30
0
41
1
10
44.6583186059721
20
-92.8926556964201
30
0
0
SPLINE
5
1C6
100
AcDbEntity
8
1
62
256
6
ByLayer
370
18
48
0.05
60
1
100
AcDbSpline
70
4
71
3
72
13
73
9
40
0
40
0
40
0
40
0
40
0.098081855372567
40
0.196199316831313
40
0.396806626480363
40
0.597597370151652
40
0.798762783152461
40
1
40
1
40
1
40
1
41
1
10
44.6922421016716
20
-107.107344303397
30
0
41
1
10
44.7428136029181
20
-107.96108243476
30
0
41
1
10
44.8598497019799
20
-109.667588343669
30
0
41
1
10
45.1629831977118
20
-113.114068246299
30
0
41
1
10
45.6592122405578
20
-117.441523310249
30
0
41
1
10
46.4091321190215
20
-122.641694815418
30
0
41
1
10
47.2811909152587
20
-127.828240558035
30
0
41
1
10
47.9202084165593
20
-131.277753760812
30
0
41
1
10
48.2560753269481
20
-132.999999999817
30
0
0
SPLINE
5
1C7
100
AcDbEntity
8
1
62
256
6
ByLayer
370
18
48
1
60
0
100
AcDbSpline
70
4
71
3
72
10
73
6
40
0
40
0
40
0
40
0
40
0.483016599166114
40
0.483016599166114
40
1
40
1
40
1
40
1
41
1
10
14.6254011529794
20
24.4200409500066
30
0
41
1
10
14.8664374580825
20
23.8820271149491
30
0
41
1
10
15.1048367186587
20
23.3428387839249
30
0
41
1
10
15.5921324012273
20
22.2238142002562
30
0
41
1
10
15.8405900934293
20
21.6437863259132
30
0
41
1
10
16.0850134763923
20
21.0620455190216
30
0
0
SPLINE
5
1C8
100
AcDbEntity
8
1
62
256
6
ByLayer
370
18
48
1
60
0
100
AcDbSpline
70
4
71
3
72
10
73
6
40
0
40
0
40
0
40
0
40
0.483016599166114
40
0.483016599166114
40
1
40
1
40
1
40
1
41
1
10
21.3746257998061
20
24.4200409500066
30
0
41
1
10
21.133589494703
20
23.8820271149491
30
0
41
1
10
20.8951902341268
20
23.3428387839249
30
0
41
1
10
20.4078945515582
20
22.2238142002562
30
0
41
1
10
20.1594368593563
20
21.6437863259132
30
0
41
1
10
19.9150134763933
20
21.0620455190216
30
0
0
SPLINE
5
1C9
100
AcDbEntity
8
1
62
256
6
ByLayer
370
18
48
1
60
0
100
AcDbSpline
70
4
71
3
72
88
73
84
40
0
40
0
40
0
40
0
40
0.0312500000000009
40
0.0312500000000009
40
0.0625000000000018
40
0.0625000000000018
40
0.0781250000000027
40
0.0781250000000027
40
0.0859375000000031
40
0.0859375000000031
40
0.0937500000000034
40
0.0937500000000034
40
0.125000000000003
40
0.125000000000003
40
0.156250000000002
40
0.156250000000002
40
0.171875000000002
40
0.171875000000002
40
0.187500000000002
40
0.187500000000002
40
0.218750000000001
40
0.218750000000001
40
0.25
40
0.25
40
0.265625
40
0.265625
40
0.281249999999999
40
0.281249999999999
40
0.312499999999999
40
0.312499999999999
40
0.343749999999998
40
0.343749999999998
40
0.359374999999998
40
0.359374999999998
40
0.374999999999997
40
0.374999999999997
40
0.437499999999997
40
0.437499999999997
40
0.468749999999997
40
0.468749999999997
40
0.484374999999996
40
0.484374999999996
40
0.499999999999996
40
0.499999999999996
40
0.562499999999996
40
0.562499999999996
40
0.593749999999996
40
0.593749999999996
40
0.609374999999996
40
0.609374999999996
40
0.624999999999996
40
0.624999999999996
40
0.687499999999995
40
0.687499999999995
40
0.718749999999995
40
0.718749999999995
40
0.734374999999995
40
0.734374999999995
40
0.742187499999994
40
0.742187499999994
40
0.749999999999994
40
0.749999999999994
40
0.812499999999997
40
0.812499999999997
40
0.828124999999997
40
0.828124999999997
40
0.835937499999997
40
0.835937499999997
40
0.843749999999997
40
0.843749999999997
40
0.874999999999998
40
0.874999999999998
40
0.906249999999998
40
0.906249999999998
40
0.921874999999998
40
0.921874999999998
40
0.929687499999998
40
0.929687499999998
40
0.937499999999998
40
0.937499999999998
40
0.968749999999999
40
0.968749999999999
40
1
40
1
40
1
40
1
41
1
10
43.5000134763928
20
-8.74985714169089
30
0
41
1
10
43.2296337765524
20
-8.7498571416909
30
0
41
1
10
42.9628406070854
20
-8.73359512491882
30
0
41
1
10
42.4360385210705
20
-8.67016593516789
30
0
41
1
10
42.1760317427239
20
-8.62298873119843
30
0
41
1
10
41.7910572683534
20
-8.5289696373321
30
0
41
1
10
41.6635739698787
20
-8.49374214053375
30
0
41
1
10
41.4736240013697
20
-8.43495279122804
30
0
41
1
10
41.4105199756343
20
-8.41436423882268
30
0
41
1
10
41.2847409212196
20
-8.37117434382395
30
0
41
1
10
41.2220215620409
20
-8.34855143226624
30
0
41
1
10
40.9119969660959
20
-8.2313065962428
30
0
41
1
10
40.6733883668955
20
-8.12369483788903
30
0
41
1
10
40.2136431746487
20
-7.88206297909392
30
0
41
1
10
39.9925145884534
20
-7.74803201348178
30
0
41
1
10
39.6734177600328
20
-7.52729141755418
30
0
41
1
10
39.5691558515661
20
-7.45042169584955
30
0
41
1
10
39.3647997653405
20
-7.29004493430322
30
0
41
1
10
39.2646537268615
20
-7.20645413374331
30
0
41
1
10
38.9739667731449
20
-6.94890819317968
30
0
41
1
10
38.791848140826
20
-6.76722669394641
30
0
41
1
10
38.4489069345827
20
-6.38486558114654
30
0
41
1
10
38.2880917362109
20
-6.18418106549421
30
0
41
1
10
38.0618265374945
20
-5.86922981435954
30
0
41
1
10
37.9887648130138
20
-5.7617044633437
30
0
41
1
10
37.8481808385913
20
-5.54306577189039
30
0
41
1
10
37.7808137728952
20
-5.43222297502708
30
0
41
1
10
37.586990952764
20
-5.09528595000166
30
0
41
1
10
37.468790691122
20
-4.86479260693369
30
0
41
1
10
37.2524093755601
20
-4.39267096151113
30
0
41
1
10
37.1542330866887
20
-4.15104113669341
30
0
41
1
10
37.0209949167825
20
-3.78047730917056
30
0
41
1
10
36.9789247768499
20
-3.655600740274
30
0
41
1
10
36.8993596611138
20
-3.40315119303269
30
0
41
1
10
36.862048098409
20
-3.27614891208403
30
0
41
1
10
36.6876812270415
20
-2.63882174591679
30
0
41
1
10
36.586290793454
20
-2.12010662816484
30
0
41
1
10
36.4848130144197
20
-1.32961928046776
30
0
41
1
10
36.4595054532201
20
-1.06403983258665
30
0
41
1
10
36.4342148070478
20
-0.66252611435125
30
0
41
1
10
36.4279025083572
20
-0.527981331018188
30
0
41
1
10
36.4195876009642
20
-0.259877984044194
30
0
41
1
10
36.4175654169664
20
-0.126100707833438
30
0
41
1
10
36.4179540753823
20
0.541434795684547
30
0
41
1
10
36.4514810688408
20
1.07117642220693
30
0
41
1
10
36.5528907436087
20
1.85931983092736
30
0
41
1
10
36.5952878265812
20
2.12094913765757
30
0
41
1
10
36.6726589959046
20
2.51169346468817
30
0
41
1
10
36.7007597884995
20
2.64169656485095
30
0
41
1
10
36.7617452909738
20
2.90095926501913
30
0
41
1
10
36.7944257027892
20
3.02935413720997
30
0
41
1
10
36.9689022323261
20
3.66516620141898
30
0
41
1
10
37.1435571410782
20
4.15424795530944
30
0
41
1
10
37.4650486991561
20
4.8570786453675
30
0
41
1
10
37.5821999010662
20
5.08619464347361
30
0
41
1
10
37.7745255137681
20
5.42164771046848
30
0
41
1
10
37.8414064916944
20
5.53209294724303
30
0
41
1
10
37.9461518161548
20
5.69561832106704
30
0
41
1
10
37.9818047217417
20
5.7497695156782
30
0
41
1
10
38.054636741632
20
5.85734101490211
30
0
41
1
10
38.0918583645229
20
5.91081707933108
30
0
41
1
10
38.4319344493192
20
6.38595228989167
30
0
41
1
10
38.7727565507768
20
6.76918174174163
30
0
41
1
10
39.2536375325116
20
7.1970338873746
30
0
41
1
10
39.3525801533363
20
7.28002448036612
30
0
41
1
10
39.5053522162754
20
7.40052704792026
30
0
41
1
10
39.557003024768
20
7.44003032479241
30
0
41
1
10
39.6617987444159
20
7.51768469253189
30
0
41
1
10
39.7150256634563
20
7.55588980992632
30
0
41
1
10
39.9831997638872
20
7.74223997543127
30
0
41
1
10
40.2052277563856
20
7.87718126665917
30
0
41
1
10
40.6644215053733
20
8.11942377404089
30
0
41
1
10
40.9015832007664
20
8.22673093929425
30
0
41
1
10
41.2691696705299
20
8.36667516971791
30
0
41
1
10
41.3936767204751
20
8.40981199438087
30
0
41
1
10
41.5835121418001
20
8.46912479328662
30
0
41
1
10
41.6473034452141
20
8.48799630435533
30
0
41
1
10
41.7759343476559
20
8.5239105791375
30
0
41
1
10
41.8408986139005
20
8.54098277860597
30
0
41
1
10
42.1665534206768
20
8.62123670925426
30
0
41
1
10
42.42965425845
20
8.66922779370748
30
0
41
1
10
42.9609607879982
20
8.73353562094023
30
0
41
1
10
43.2291656545593
20
8.74985714169095
30
0
41
1
10
43.5000134763928
20
8.74985714169095
30
0
0
SPLINE
5
1CA
100
AcDbEntity
8
1
62
256
6
ByLayer
370
18
48
1
60
0
100
AcDbSpline
70
2053
71
3
72
80
73
76
40
0
40
0
40
0
40
0
40
0.0312499999999998
40
0.0312499999999998
40
0.0390624999999996
40
0.0390624999999996
40
0.0468749999999993
40
0.0468749999999993
40
0.0624999999999991
40
0.0624999999999991
40
0.0937499999999982
40
0.0937499999999982
40
0.124999999999997
40
0.124999999999997
40
0.156249999999996
40
0.156249999999996
40
0.171874999999996
40
0.179687499999996
40
0.179687499999996
40
0.187499999999996
40
0.187499999999996
40
0.249999999999996
40
0.249999999999996
40
0.312499999999997
40
0.312499999999997
40
0.328124999999997
40
0.328124999999997
40
0.343749999999997
40
0.343749999999997
40
0.374999999999998
40
0.374999999999998
40
0.437499999999998
40
0.437499999999998
40
0.445312499999998
40
0.445312499999998
40
0.453124999999998
40
0.453124999999998
40
0.468749999999998
40
0.468749999999998
40
0.499999999999999
40
0.499999999999999
40
0.5625
40
0.5625
40
0.578125
40
0.5859375
40
0.5859375
40
0.59375
40
0.59375
40
0.625
40
0.625
40
0.687500000000001
40
0.687500000000001
40
0.718750000000001
40
0.718750000000001
40
0.726562500000001
40
0.726562500000001
40
0.734375000000001
40
0.734375000000001
40
0.750000000000001
40
0.750000000000001
40
0.812500000000002
40
0.812500000000002
40
0.843750000000002
40
0.843750000000002
40
0.859375000000002
40
0.859375000000002
40
0.875000000000002
40
0.875000000000002
40
0.906250000000001
40
0.906250000000001
40
0.937500000000001
40
0.937500000000001
40
0.96875
40
0.96875
40
1
40
1
40
1
40
1
41
1
10
48.5597642592121
20
8.74985714169077
30
0
41
1
10
48.8446230894277
20
9.05194270607473
30
0
41
1
10
49.1100247295591
20
9.36161771713962
30
0
41
1
10
49.4240141177131
20
9.75273624454161
30
0
41
1
10
49.4859124391651
20
9.83116990146046
30
0
41
1
10
49.608032483118
20
9.98835194793487
30
0
41
1
10
49.6682968295023
20
10.0671583140475
30
0
41
1
10
49.8461769598559
20
10.3031529675243
30
0
41
1
10
49.9610333228213
20
10.4600935300118
30
0
41
1
10
50.2958829968467
20
10.9289101794823
30
0
41
1
10
50.5062312389637
20
11.238746035884
30
0
41
1
10
50.9066395031661
20
11.8497216873621
30
0
41
1
10
51.096665818072
20
12.1508819183075
30
0
41
1
10
51.4598109674936
20
12.7421825516817
30
0
41
1
10
51.6329116400263
20
13.0323349972017
30
0
41
1
10
51.8814844830468
20
13.457872596566
30
0
41
1
10
52.0029890318767
20
13.6682220619672
30
0
41
1
10
52.1205304985874
20
13.8746905103805
30
0
41
1
10
52.198028575139
20
14.0114460650051
30
0
41
1
10
52.2363830875934
20
14.0794443363419
30
0
41
1
10
52.5766560027692
20
14.6853158875049
30
0
41
1
10
52.8453532723372
20
15.1817658890921
30
0
41
1
10
53.3256617988242
20
16.0854614393016
30
0
41
1
10
53.5371519910092
20
16.4928036259014
30
0
41
1
10
53.7672145382998
20
16.940924281301
30
0
41
1
10
53.8115233262946
20
17.027536562597
30
0
41
1
10
53.8959762990332
20
17.193096842756
30
0
41
1
10
53.9362174790659
20
17.2722333115828
30
0
41
1
10
54.0511189376393
20
17.4987586998546
30
0
41
1
10
54.1199682013875
20
17.6352764366018
30
0
41
1
10
54.3039004129271
20
18.0012471579067
30
0
41
1
10
54.3965298017951
20
18.1873508385907
30
0
41
1
10
54.46661937613
20
18.32842290841
30
0
41
1
10
54.4739298102018
20
18.3431441730628
30
0
41
1
10
54.4875887928498
20
18.3706600895515
30
0
41
1
10
54.4939433805892
20
18.3834669183454
30
0
41
1
10
54.5115044573084
20
18.4188701595237
30
0
41
1
10
54.5211968349979
20
18.4384258409758
30
0
41
1
10
54.5443437877366
20
18.4851435141271
30
0
41
1
10
54.551878496919
20
18.5003716045364
30
0
41
1
10
54.5513164262715
20
18.499236167531
30
0
41
1
10
54.5202119152538
20
18.4362857861703
30
0
41
1
10
54.4422381094704
20
18.2793510532252
30
0
41
1
10
54.4158949861888
20
18.226374315215
30
0
41
1
10
54.3850468266341
20
18.1644533585461
30
0
41
1
10
54.3634688082446
20
18.1211702471805
30
0
41
1
10
54.3521759207709
20
18.0985322727387
30
0
41
1
10
54.2934447086693
20
17.9808873045826
30
0
41
1
10
54.2390233351143
20
17.8721406120802
30
0
41
1
10
54.053902234568
20
17.5038674030162
30
0
41
1
10
53.9015191836503
20
17.202492529883
30
0
41
1
10
53.6281965723202
20
16.6701590098816
30
0
41
1
10
53.5295892858108
20
16.479286825685
30
0
41
1
10
53.3964583008082
20
16.2239407333905
30
0
41
1
10
53.3693374105832
20
16.1720329073114
30
0
41
1
10
53.3140891717419
20
16.0665375373867
30
0
41
1
10
53.2859320409261
20
16.0128934492248
30
0
41
1
10
53.2001647454886
20
15.8498965113524
30
0
41
1
10
53.1413069715816
20
15.7385685249041
30
0
41
1
10
52.8385291365291
20
15.1690575397845
30
0
41
1
10
52.5694797730154
20
14.6723655188825
30
0
41
1
10
52.1201748949423
20
13.8726185443174
30
0
41
1
10
51.9627225472715
20
13.5968951696617
30
0
41
1
10
51.7135474358536
20
13.1704031210533
30
0
41
1
10
51.6283163105147
20
13.026088298143
30
0
41
1
10
51.4531651723012
20
12.7333045951515
30
0
41
1
10
51.3631726940453
20
12.5847257728146
30
0
41
1
10
51.0877591941049
20
12.1365974196675
30
0
41
1
10
50.8962918111655
20
11.8335280349774
30
0
41
1
10
50.4946453060243
20
11.2214942617414
30
0
41
1
10
50.2844920432979
20
10.9125106610007
30
0
41
1
10
49.8408092707408
20
10.2922421906885
30
0
41
1
10
49.6073269202379
20
9.98092433693295
30
0
41
1
10
49.1095735533196
20
9.36121156108267
30
0
41
1
10
48.845390683776
20
9.05275672041208
30
0
41
1
10
48.5597642592121
20
8.74985714169077
30
0
0
INSERT
5
1DA
100
AcDbEntity
8
SK2
62
256
6
ByLayer
370
18
48
1
60
0
100
AcDbBlockReference
2
LABLE3D_1
10
0
20
0
30
0
41
1
42
1
43
1
50
0
210
0
220
0
230
1
0
LINE
5
70
100
AcDbEntity
8
1
62
256
6
ByLayer
370
18
48
1
60
0
100
AcDbLine
10
65.960174
20
6.667262
30
0
11
65.960174
21
6.390038
31
0
39
0
210
0
220
0
230
1
0
LINE
5
72
100
AcDbEntity
8
1
62
256
6
ByLayer
370
18
48
1
60
0
100
AcDbLine
10
43.609981
20
-15.960155
30
0
11
43.332757
21
-15.960155
31
0
39
0
210
0
220
0
230
1
0
LINE
5
73
100
AcDbEntity
8
1
62
256
6
ByLayer
370
18
48
1
60
0
100
AcDbLine
10
58.484038
20
-1.206215
30
0
11
57.815805
21
-1.874447
31
0
39
0
210
0
220
0
230
1
0
LINE
5
74
100
AcDbEntity
8
1
62
256
6
ByLayer
370
18
48
1
60
0
100
AcDbLine
10
51.874466
20
-7.815786
30
0
11
51.206234
21
-8.484019
31
0
39
0
210
0
220
0
230
1
0
LINE
5
75
100
AcDbEntity
8
1
62
256
6
ByLayer
370
18
48
1
60
0
100
AcDbLine
10
58.263477
20
-2.337583
30
0
11
52.337602
21
-8.263458
31
0
39
0
210
0
220
0
230
1
0
LINE
5
76
100
AcDbEntity
8
1
62
256
6
ByLayer
370
18
48
1
60
0
100
AcDbLine
10
60.709926
20
1.019674
30
0
11
60.360633
21
0.670381
31
0
39
0
210
0
220
0
230
1
0
LINE
5
77
100
AcDbEntity
8
1
62
256
6
ByLayer
370
18
48
1
60
0
100
AcDbLine
10
49.329638
20
-10.360614
30
0
11
48.980345
21
-10.709907
31
0
39
0
210
0
220
0
230
1
0
LINE
5
78
100
AcDbEntity
8
1
62
256
6
ByLayer
370
18
48
1
60
0
100
AcDbLine
10
60.720448
20
0.119388
30
0
11
59.219824
21
-1.381236
31
0
39
0
210
0
220
0
230
1
0
LINE
5
79
100
AcDbEntity
8
1
62
256
6
ByLayer
370
18
48
1
60
0
100
AcDbLine
10
51.381255
20
-9.219805
30
0
11
49.880631
21
-10.720429
31
0
39
0
210
0
220
0
230
1
0
LINE
5
7A
100
AcDbEntity
8
1
62
256
6
ByLayer
370
18
48
1
60
0
100
AcDbLine
10
62.145816
20
2.455564
30
0
11
61.899677
21
2.209424
31
0
39
0
210
0
220
0
230
1
0
LINE
5
7B
100
AcDbEntity
8
1
62
256
6
ByLayer
370
18
48
1
60
0
100
AcDbLine
10
47.790595
20
-11.899658
30
0
11
47.544455
21
-12.145797
31
0
39
0
210
0
220
0
230
1
0
LINE
5
7C
100
AcDbEntity
8
1
62
256
6
ByLayer
370
18
48
1
60
0
100
AcDbLine
10
62.208638
20
1.607578
30
0
11
61.238922
21
0.637862
31
0
39
0
210
0
220
0
230
1
0
LINE
5
7D
100
AcDbEntity
8
1
62
256
6
ByLayer
370
18
48
1
60
0
100
AcDbLine
10
49.362157
20
-11.238903
30
0
11
48.392441
21
-12.208619
31
0
39
0
210
0
220
0
230
1
0
LINE
5
7E
100
AcDbEntity
8
1
62
256
6
ByLayer
370
18
48
1
60
0
100
AcDbLine
10
46.668193
20
-13.022059
30
0
11
46.481279
21
-13.208973
31
0
39
0
210
0
220
0
230
1
0
LINE
5
7F
100
AcDbEntity
8
1
62
256
6
ByLayer
370
18
48
1
60
0
100
AcDbLine
10
63.208992
20
3.51874
30
0
11
63.022078
21
3.331826
31
0
39
0
210
0
220
0
230
1
0
LINE
5
80
100
AcDbEntity
8
1
62
256
6
ByLayer
370
18
48
1
60
0
100
AcDbLine
10
64.029811
20
4.339559
30
0
11
63.884396
21
4.194143
31
0
39
0
210
0
220
0
230
1
0
LINE
5
81
100
AcDbEntity
8
1
62
256
6
ByLayer
370
18
48
1
60
0
100
AcDbLine
10
45.805876
20
-13.884377
30
0
11
45.66046
21
-14.029792
31
0
39
0
210
0
220
0
230
1
0
LINE
5
82
100
AcDbEntity
8
1
62
256
6
ByLayer
370
18
48
1
60
0
100
AcDbLine
10
47.034854
20
-13.566206
30
0
11
46.487785
21
-14.113275
31
0
39
0
210
0
220
0
230
1
0
LINE
5
83
100
AcDbEntity
8
1
62
256
6
ByLayer
370
18
48
1
60
0
100
AcDbLine
10
64.113294
20
3.512234
30
0
11
63.566225
21
2.965165
31
0
39
0
210
0
220
0
230
1
0
LINE
5
84
100
AcDbEntity
8
1
62
256
6
ByLayer
370
18
48
1
60
0
100
AcDbLine
10
64.669209
20
4.978957
30
0
11
64.556163
21
4.865911
31
0
39
0
210
0
220
0
230
1
0
LINE
5
85
100
AcDbEntity
8
1
62
256
6
ByLayer
370
18
48
1
60
0
100
AcDbLine
10
45.134108
20
-14.556144
30
0
11
45.021062
21
-14.66919
31
0
39
0
210
0
220
0
230
1
0
LINE
5
86
100
AcDbEntity
8
1
62
256
6
ByLayer
370
18
48
1
60
0
100
AcDbLine
10
46.274181
20
-14.326879
30
0
11
45.852733
21
-14.748327
31
0
39
0
210
0
220
0
230
1
0
LINE
5
87
100
AcDbEntity
8
1
62
256
6
ByLayer
370
18
48
1
60
0
100
AcDbLine
10
64.748346
20
4.147286
30
0
11
64.326898
21
3.725838
31
0
39
0
210
0
220
0
230
1
0
LINE
5
88
100
AcDbEntity
8
1
62
256
6
ByLayer
370
18
48
1
60
0
100
AcDbLine
10
64.789231
20
4.082105
30
0
11
64.25847
21
3.551344
31
0
39
0
210
0
220
0
230
1
0
LINE
5
89
100
AcDbEntity
8
1
62
256
6
ByLayer
370
18
48
1
60
0
100
AcDbLine
10
46.448675
20
-14.258451
30
0
11
45.917914
21
-14.789212
31
0
39
0
210
0
220
0
230
1
0
LINE
5
8A
100
AcDbEntity
8
1
62
256
6
ByLayer
370
18
48
1
60
0
100
AcDbLine
10
65.160977
20
5.470725
30
0
11
65.074989
21
5.384737
31
0
39
0
210
0
220
0
230
1
0
LINE
5
8B
100
AcDbEntity
8
1
62
256
6
ByLayer
370
18
48
1
60
0
100
AcDbLine
10
44.615283
20
-15.07497
30
0
11
44.529294
21
-15.160958
31
0
39
0
210
0
220
0
230
1
0
LINE
5
8C
100
AcDbEntity
8
1
62
256
6
ByLayer
370
18
48
1
60
0
100
AcDbLine
10
65.230668
20
4.629609
30
0
11
64.911925
21
4.310866
31
0
39
0
210
0
220
0
230
1
0
LINE
5
8D
100
AcDbEntity
8
1
62
256
6
ByLayer
370
18
48
1
60
0
100
AcDbLine
10
45.689153
20
-14.911906
30
0
11
45.370411
21
-15.230649
31
0
39
0
210
0
220
0
230
1
0
LINE
5
8E
100
AcDbEntity
8
1
62
256
6
ByLayer
370
18
48
1
60
0
100
AcDbLine
10
65.262316
20
4.55519
30
0
11
64.861235
21
4.154109
31
0
39
0
210
0
220
0
230
1
0
LINE
5
8F
100
AcDbEntity
8
1
62
256
6
ByLayer
370
18
48
1
60
0
100
AcDbLine
10
45.84591
20
-14.861216
30
0
11
45.444829
21
-15.262297
31
0
39
0
210
0
220
0
230
1
0
LINE
5
90
100
AcDbEntity
8
1
62
256
6
ByLayer
370
18
48
1
60
0
100
AcDbLine
10
44.226956
20
-15.463296
30
0
11
44.164745
21
-15.525508
31
0
39
0
210
0
220
0
230
1
0
LINE
5
91
100
AcDbEntity
8
1
62
256
6
ByLayer
370
18
48
1
60
0
100
AcDbLine
10
65.525527
20
5.835274
30
0
11
65.463315
21
5.773063
31
0
39
0
210
0
220
0
230
1
0
LINE
5
92
100
AcDbEntity
8
1
62
256
6
ByLayer
370
18
48
1
60
0
100
AcDbLine
10
65.581778
20
4.980718
30
0
11
65.352023
21
4.750964
31
0
39
0
210
0
220
0
230
1
0
LINE
5
93
100
AcDbEntity
8
1
62
256
6
ByLayer
370
18
48
1
60
0
100
AcDbLine
10
45.249055
20
-15.352004
30
0
11
45.019301
21
-15.581759
31
0
39
0
210
0
220
0
230
1
0
LINE
5
94
100
AcDbEntity
8
1
62
256
6
ByLayer
370
18
48
1
60
0
100
AcDbLine
10
45.39144
20
-15.315686
30
0
11
45.102487
21
-15.604639
31
0
39
0
210
0
220
0
230
1
0
LINE
5
95
100
AcDbEntity
8
1
62
256
6
ByLayer
370
18
48
1
60
0
100
AcDbLine
10
65.604658
20
4.897532
30
0
11
65.315705
21
4.608579
31
0
39
0
210
0
220
0
230
1
0
LINE
5
96
100
AcDbEntity
8
1
62
256
6
ByLayer
370
18
48
1
60
0
100
AcDbLine
10
43.95516
20
-15.735092
30
0
11
43.914678
21
-15.775575
31
0
39
0
210
0
220
0
230
1
0
LINE
5
97
100
AcDbEntity
8
1
62
256
6
ByLayer
370
18
48
1
60
0
100
AcDbLine
10
65.775594
20
6.085341
30
0
11
65.735111
21
6.044859
31
0
39
0
210
0
220
0
230
1
0
LINE
5
98
100
AcDbEntity
8
1
62
256
6
ByLayer
370
18
48
1
60
0
100
AcDbLine
10
44.935409
20
-15.66565
30
0
11
44.78625
21
-15.81481
31
0
39
0
210
0
220
0
230
1
0
LINE
5
99
100
AcDbEntity
8
1
62
256
6
ByLayer
370
18
48
1
60
0
100
AcDbLine
10
65.814829
20
5.213769
30
0
11
65.665669
21
5.06461
31
0
39
0
210
0
220
0
230
1
0
LINE
5
9A
100
AcDbEntity
8
1
62
256
6
ByLayer
370
18
48
1
60
0
100
AcDbLine
10
45.065592
20
-15.641533
30
0
11
44.878062
21
-15.829064
31
0
39
0
210
0
220
0
230
1
0
LINE
5
9B
100
AcDbEntity
8
1
62
256
6
ByLayer
370
18
48
1
60
0
100
AcDbLine
10
65.829083
20
5.121957
30
0
11
65.641552
21
4.934427
31
0
39
0
210
0
220
0
230
1
0
LINE
5
9C
100
AcDbEntity
8
1
62
256
6
ByLayer
370
18
48
1
60
0
100
AcDbLine
10
43.791295
20
-15.898958
30
0
11
43.771334
21
-15.918918
31
0
39
0
210
0
220
0
230
1
0
LINE
5
9D
100
AcDbEntity
8
1
62
256
6
ByLayer
370
18
48
1
60
0
100
AcDbLine
10
65.918937
20
6.228685
30
0
11
65.898977
21
6.208725
31
0
39
0
210
0
220
0
230
1
0
LINE
5
9E
100
AcDbEntity
8
1
62
256
6
ByLayer
370
18
48
1
60
0
100
AcDbLine
10
44.736946
20
-15.864114
30
0
11
44.663496
21
-15.937564
31
0
39
0
210
0
220
0
230
1
0
LINE
5
9F
100
AcDbEntity
8
1
62
256
6
ByLayer
370
18
48
1
60
0
100
AcDbLine
10
65.937583
20
5.336523
30
0
11
65.864133
21
5.263073
31
0
39
0
210
0
220
0
230
1
0
LINE
5
A0
100
AcDbEntity
8
1
62
256
6
ByLayer
370
18
48
1
60
0
100
AcDbLine
10
65.943089
20
5.235964
30
0
11
65.850761
21
5.143636
31
0
39
0
210
0
220
0
230
1
0
LINE
5
A1
100
AcDbEntity
8
1
62
256
6
ByLayer
370
18
48
1
60
0
100
AcDbLine
10
44.856383
20
-15.850742
30
0
11
44.764056
21
-15.94307
31
0
39
0
210
0
220
0
230
1
0
LINE
5
A2
100
AcDbEntity
8
1
62
256
6
ByLayer
370
18
48
1
60
0
100
AcDbLine
10
65.960161
20
6.387571
30
0
11
65.960174
21
6.39013
31
0
39
0
210
0
220
0
230
1
0
LINE
5
A3
100
AcDbEntity
8
1
62
256
6
ByLayer
370
18
48
1
60
0
100
AcDbLine
10
62.583087
20
1.997081
30
0
11
62.596833
21
1.995773
31
0
39
0
210
0
220
0
230
1
0
LINE
5
A4
100
AcDbEntity
8
1
62
256
6
ByLayer
370
18
48
1
60
0
100
AcDbLine
10
48.004246
20
-12.596814
30
0
11
48.002938
21
-12.583068
31
0
39
0
210
0
220
0
230
1
0
LINE
5
A5
100
AcDbEntity
8
1
62
256
6
ByLayer
370
18
48
1
60
0
100
AcDbLine
10
43.332757
20
-15.960155
30
0
11
65.960174
21
6.667262
31
0
39
0
210
0
220
0
230
1
0
LINE
5
A6
100
AcDbEntity
8
1
62
256
6
ByLayer
370
18
48
1
60
0
100
AcDbLine
10
62.596833
20
1.995773
30
0
11
63.289171
21
2.688111
31
0
39
0
210
0
220
0
230
1
0
LINE
5
A7
100
AcDbEntity
8
1
62
256
6
ByLayer
370
18
48
1
60
0
100
AcDbLine
10
47.311908
20
-13.289152
30
0
11
48.004246
21
-12.596814
31
0
39
0
210
0
220
0
230
1
0
LINE
5
A8
100
AcDbEntity
8
1
62
256
6
ByLayer
370
18
48
1
60
0
100
AcDbLine
10
62.636688
20
1.929562
30
0
11
64.164367
21
3.457241
31
0
39
0
210
0
220
0
230
1
0
LINE
5
A9
100
AcDbEntity
8
1
62
256
6
ByLayer
370
18
48
1
60
0
100
AcDbLine
10
46.542778
20
-14.164348
30
0
11
48.070457
21
-12.636669
31
0
39
0
210
0
220
0
230
1
0
LINE
5
AA
100
AcDbEntity
8
1
62
256
6
ByLayer
370
18
48
1
60
0
100
AcDbLine
10
53.336395
20
-20.34682
30
0
11
59.346803
21
-14.336412
31
0
39
0
210
0
220
0
230
1
0
LINE
5
AB
100
AcDbEntity
8
1
62
256
6
ByLayer
370
18
48
1
60
0
100
AcDbLine
10
51.25043
20
-15.785981
30
0
11
54.785964
21
-12.250447
31
0
39
0
210
0
220
0
230
1
0
LINE
5
AC
100
AcDbEntity
8
1
62
256
6
ByLayer
370
18
48
1
60
0
100
AcDbLine
10
64.336431
20
-9.346784
30
0
11
70.346839
21
-3.336376
31
0
39
0
210
0
220
0
230
1
0
LINE
5
AD
100
AcDbEntity
8
1
62
256
6
ByLayer
370
18
48
1
60
0
100
AcDbLine
10
62.250466
20
-4.785945
30
0
11
65.786
21
-1.250411
31
0
39
0
210
0
220
0
230
1
0
LINE
5
AE
100
AcDbEntity
8
1
62
256
6
ByLayer
370
18
48
1
60
0
100
AcDbLine
10
61.154451
20
-6.164804
30
0
11
67.164859
21
-0.154396
31
0
39
0
210
0
220
0
230
1
0
LINE
5
AF
100
AcDbEntity
8
1
62
256
6
ByLayer
370
18
48
1
60
0
100
AcDbLine
10
48.257778
20
-12.449348
30
0
11
62.449367
21
1.742241
31
0
39
0
210
0
220
0
230
1
0
LINE
5
B0
100
AcDbEntity
8
1
62
256
6
ByLayer
370
18
48
1
60
0
100
AcDbLine
10
54.043502
20
-20.34682
30
0
11
59.346803
21
-15.043519
31
0
39
0
210
0
220
0
230
1
0
LINE
5
B1
100
AcDbEntity
8
1
62
256
6
ByLayer
370
18
48
1
60
0
100
AcDbLine
10
65.043538
20
-9.346784
30
0
11
70.346839
21
-4.043483
31
0
39
0
210
0
220
0
230
1
0
LINE
5
B2
100
AcDbEntity
8
1
62
256
6
ByLayer
370
18
48
1
60
0
100
AcDbLine
10
50.154415
20
-17.164839
30
0
11
56.164823
21
-11.154432
31
0
39
0
210
0
220
0
230
1
0
LINE
5
B3
100
AcDbEntity
8
1
62
256
6
ByLayer
370
18
48
1
60
0
100
AcDbLine
10
61.154451
20
-6.164804
30
0
11
64.336431
21
-9.346784
31
0
39
0
210
0
220
0
230
1
0
LINE
5
B4
100
AcDbEntity
8
1
62
256
6
ByLayer
370
18
48
1
60
0
100
AcDbLine
10
67.164859
20
-0.154396
30
0
11
70.346839
21
-3.336376
31
0
39
0
210
0
220
0
230
1
0
LINE
5
B5
100
AcDbEntity
8
1
62
256
6
ByLayer
370
18
48
1
60
0
100
AcDbLine
10
51.621321
20
-9.085804
30
0
11
54.785964
21
-12.250447
31
0
39
0
210
0
220
0
230
1
0
LINE
5
B6
100
AcDbEntity
8
1
62
256
6
ByLayer
370
18
48
1
60
0
100
AcDbLine
10
48.085788
20
-12.621338
30
0
11
51.25043
21
-15.785981
31
0
39
0
210
0
220
0
230
1
0
LINE
5
B7
100
AcDbEntity
8
1
62
256
6
ByLayer
370
18
48
1
60
0
100
AcDbLine
10
50.154415
20
-17.164839
30
0
11
53.336395
21
-20.34682
31
0
39
0
210
0
220
0
230
1
0
LINE
5
B8
100
AcDbEntity
8
1
62
256
6
ByLayer
370
18
48
1
60
0
100
AcDbLine
10
56.164823
20
-11.154432
30
0
11
59.346803
21
-14.336412
31
0
39
0
210
0
220
0
230
1
0
LINE
5
B9
100
AcDbEntity
8
1
62
256
6
ByLayer
370
18
48
1
60
0
100
AcDbLine
10
62.621357
20
1.914232
30
0
11
65.786
21
-1.250411
31
0
39
0
210
0
220
0
230
1
0
LINE
5
BA
100
AcDbEntity
8
1
62
256
6
ByLayer
370
18
48
1
60
0
100
AcDbLine
10
59.085823
20
-1.621302
30
0
11
62.250466
21
-4.785945
31
0
39
0
210
0
220
0
230
1
0
LINE
5
BB
100
AcDbEntity
8
1
62
256
6
ByLayer
370
18
48
1
60
0
100
AcDbLine
10
47.904224
20
-12.095795
30
0
11
62.095814
21
2.095795
31
0
39
0
210
0
220
0
230
1
0
LINE
5
BC
100
AcDbEntity
8
81
62
256
6
ByLayer
370
18
48
1
60
0
100
AcDbLine
10
55.000019
20
-5
30
0
11
58.535553
21
-8.535534
31
0
39
0
210
0
220
0
230
1
0
LINE
5
BD
100
AcDbEntity
8
SK4
62
256
6
ByLayer
370
13
48
0.05
60
1
100
AcDbLine
10
64.471422
20
0
30
0
11
-50.689899
21
0
31
0
39
0
210
0
220
0
230
1
0
LINE
5
BF
100
AcDbEntity
8
4
62
256
6
ByLayer
370
13
48
0.05
60
1
100
AcDbLine
10
0
20
0
30
0
11
61.824519
21
0
31
0
39
0
210
0
220
0
230
1
0
LINE
5
C1
100
AcDbEntity
8
1
62
256
6
ByLayer
370
18
48
0.05
60
1
100
AcDbLine
10
42.000888
20
-36.75
30
0
11
42.000888
21
26.25
31
0
39
0
210
0
220
0
230
1
0
LINE
5
C2
100
AcDbEntity
8
1
62
256
6
ByLayer
370
18
48
0.05
60
1
100
AcDbLine
10
48.222152
20
-67
30
0
11
57.5
21
-67
31
0
39
0
210
0
220
0
230
1
0
LINE
5
C3
100
AcDbEntity
8
1
62
256
6
ByLayer
370
18
48
0.05
60
1
100
AcDbLine
10
43.159999
20
-127.139417
30
0
11
46.538995
21
-139.75
31
0
39
0
210
0
220
0
230
1
0
LINE
5
C4
100
AcDbEntity
8
1
62
256
6
ByLayer
370
18
48
0.05
60
1
100
AcDbLine
10
46.538154
20
-60.25
30
0
11
43.159159
21
-72.860583
31
0
39
0
210
0
220
0
230
1
0
LINE
5
C5
100
AcDbEntity
8
1
62
256
6
ByLayer
370
18
48
0.05
60
1
100
AcDbLine
10
46.537314
20
-55
30
0
11
65
21
-55
31
0
39
0
210
0
220
0
230
1
0
LINE
5
C6
100
AcDbEntity
8
1
62
256
6
ByLayer
370
18
48
0.05
60
1
100
AcDbLine
10
57.533923
20
-133
30
0
11
48.256075
21
-133
31
0
39
0
210
0
220
0
230
1
0
LINE
5
C7
100
AcDbEntity
8
1
62
256
6
ByLayer
370
18
48
0.05
60
1
100
AcDbLine
10
46.537971
20
-145
30
0
11
49.216806
21
-145
31
0
39
0
210
0
220
0
230
1
0
LINE
5
C8
100
AcDbEntity
8
1
62
256
6
ByLayer
370
18
48
0.05
60
1
100
AcDbLine
10
43.159159
20
-72.860583
30
0
11
43.159159
21
-137.639417
31
0
39
0
210
0
220
0
230
1
0
LINE
5
C9
100
AcDbEntity
8
1
62
256
6
ByLayer
370
18
48
0.05
60
1
100
AcDbLine
10
47.631403
20
-145
30
0
11
56
21
-145
31
0
39
0
210
0
220
0
230
1
0
LINE
5
CA
100
AcDbEntity
8
SK4
62
256
6
ByLayer
370
13
48
0.05
60
1
100
AcDbLine
10
-40
20
-100
30
0
11
72.854768
21
-100
31
0
39
0
210
0
220
0
230
1
0
LINE
5
CB
100
AcDbEntity
8
4
62
256
6
ByLayer
370
13
48
0.05
60
1
100
AcDbLine
10
3.033923
20
-100
30
0
11
48.033923
21
-100
31
0
39
0
210
0
220
0
230
1
0
LINE
5
CC
100
AcDbEntity
8
SK3
62
256
6
ByLayer
370
13
48
0.05
60
0
100
AcDbLine
10
5.000013
20
-26.5
30
0
11
26.000013
21
-26.5
31
0
39
0
210
0
220
0
230
1
0
LINE
5
CE
100
AcDbEntity
8
SK3
62
256
6
ByLayer
370
13
48
0.05
60
0
100
AcDbLine
10
5.000013
20
26.5
30
0
11
26.000013
21
26.5
31
0
39
0
210
0
220
0
230
1
0
LINE
5
CF
100
AcDbEntity
8
1
62
256
6
ByLayer
370
18
48
1
60
0
100
AcDbLine
10
1.3E-05
20
-31
30
0
11
1.3E-05
21
31
31
0
39
0
210
0
220
0
230
1
0
LINE
5
D0
100
AcDbEntity
8
1
62
256
6
ByLayer
370
18
48
1
60
0
100
AcDbLine
10
26.000013
20
-31
30
0
11
26.000013
21
0
31
0
39
0
210
0
220
0
230
1
0
LINE
5
D1
100
AcDbEntity
8
SK1
62
256
6
ByLayer
370
18
48
1
60
0
100
AcDbLine
10
-0.495072
20
24.015
30
0
11
-1.253571
21
24.015
31
0
39
0
210
0
220
0
230
1
0
LINE
5
D3
100
AcDbEntity
8
SK1
62
256
6
ByLayer
370
18
48
1
60
0
100
AcDbLine
10
-1.253571
20
24.015
30
0
11
-1.999981
21
24.215
31
0
39
0
210
0
220
0
230
1
0
LINE
5
D4
100
AcDbEntity
8
SK1
62
256
6
ByLayer
370
18
48
1
60
0
100
AcDbLine
10
-31.999987
20
-21.573501
30
0
11
-31.999987
21
0
31
0
39
0
210
0
220
0
230
1
0
LINE
5
D5
100
AcDbEntity
8
SK1
62
256
6
ByLayer
370
18
48
1
60
0
100
AcDbLine
10
-1.999981
20
-24.215
30
0
11
-1.999981
21
24.215
31
0
39
0
210
0
220
0
230
1
0
LINE
5
D6
100
AcDbEntity
8
SK1
62
256
6
ByLayer
370
13
48
0.05
60
0
100
AcDbLine
10
-6.299987
20
-25.90625
30
0
11
-6.299987
21
25.385071
31
0
39
0
210
0
220
0
230
1
0
LINE
5
D7
100
AcDbEntity
8
SK1
62
256
6
ByLayer
370
18
48
1
60
0
100
AcDbLine
10
-1.999981
20
24.215
30
0
11
-6.299987
21
24
31
0
39
0
210
0
220
0
230
1
0
LINE
5
D8
100
AcDbEntity
8
SK1
62
256
6
ByLayer
370
18
48
1
60
0
100
AcDbLine
10
-0.495072
20
-24.015
30
0
11
-1.253571
21
-24.015
31
0
39
0
210
0
220
0
230
1
0
LINE
5
D9
100
AcDbEntity
8
SK1
62
256
6
ByLayer
370
18
48
1
60
0
100
AcDbLine
10
-1.253571
20
-24.015
30
0
11
-1.999981
21
-24.215
31
0
39
0
210
0
220
0
230
1
0
LINE
5
DA
100
AcDbEntity
8
SK1
62
256
6
ByLayer
370
18
48
1
60
0
100
AcDbLine
10
-1.999981
20
-24.215
30
0
11
-6.299987
21
-24
31
0
39
0
210
0
220
0
230
1
0
LINE
5
DB
100
AcDbEntity
8
SK1
62
256
6
ByLayer
370
18
48
1
60
0
100
AcDbLine
10
-6.299987
20
24
30
0
11
-30.859912
21
22.772004
31
0
39
0
210
0
220
0
230
1
0
LINE
5
DC
100
AcDbEntity
8
SK1
62
256
6
ByLayer
370
18
48
1
60
0
100
AcDbLine
10
-6.299987
20
-24
30
0
11
-30.859912
21
-22.772004
31
0
39
0
210
0
220
0
230
1
0
LINE
5
DD
100
AcDbEntity
8
1
62
256
6
ByLayer
370
18
48
1
60
0
100
AcDbLine
10
0.500013
20
31.5
30
0
11
14.625401
21
31.5
31
0
39
0
210
0
220
0
230
1
0
LINE
5
DE
100
AcDbEntity
8
1
62
256
6
ByLayer
370
18
48
1
60
0
100
AcDbLine
10
14.622514
20
-31.5
30
0
11
0.500013
21
-31.5
31
0
39
0
210
0
220
0
230
1
0
LINE
5
DF
100
AcDbEntity
8
1
62
256
6
ByLayer
370
18
48
1
60
0
100
AcDbLine
10
14.608081
20
-31.5
30
0
11
14.377513
21
-31.5
31
0
39
0
210
0
220
0
230
1
0
LINE
5
E0
100
AcDbEntity
8
1
62
256
6
ByLayer
370
18
48
1
60
0
100
AcDbLine
10
25.500013
20
31.5
30
0
11
21.374626
21
31.5
31
0
39
0
210
0
220
0
230
1
0
LINE
5
E1
100
AcDbEntity
8
SK1
62
256
6
ByLayer
370
18
48
1
60
0
100
AcDbLine
10
-31.999987
20
21.573501
30
0
11
-31.999987
21
0
31
0
39
0
210
0
220
0
230
1
0
LINE
5
E2
100
AcDbEntity
8
1
62
256
6
ByLayer
370
18
48
1
60
0
100
AcDbLine
10
14.625401
20
31.47
30
0
11
16.085013
21
28.941877
31
0
39
0
210
0
220
0
230
1
0
LINE
5
E3
100
AcDbEntity
8
1
62
256
6
ByLayer
370
18
48
1
60
0
100
AcDbLine
10
16.085013
20
28.941877
30
0
11
16.085013
21
0
31
0
39
0
210
0
220
0
230
1
0
LINE
5
E4
100
AcDbEntity
8
1
62
256
6
ByLayer
370
18
48
1
60
0
100
AcDbLine
10
16.485013
20
27.475
30
0
11
19.515013
21
27.475
31
0
39
0
210
0
220
0
230
1
0
LINE
5
E5
100
AcDbEntity
8
1
62
256
6
ByLayer
370
18
48
1
60
0
100
AcDbLine
10
19.915013
20
0
30
0
11
19.915013
21
28.941877
31
0
39
0
210
0
220
0
230
1
0
LINE
5
E6
100
AcDbEntity
8
1
62
256
6
ByLayer
370
18
48
1
60
0
100
AcDbLine
10
19.915013
20
28.941877
30
0
11
21.374626
21
31.47
31
0
39
0
210
0
220
0
230
1
0
LINE
5
E7
100
AcDbEntity
8
1
62
256
6
ByLayer
370
18
48
1
60
0
100
AcDbLine
10
21.374626
20
31.5
30
0
11
21.374626
21
24.420041
31
0
39
0
210
0
220
0
230
1
0
LINE
5
E8
100
AcDbEntity
8
1
62
256
6
ByLayer
370
18
48
1
60
0
100
AcDbLine
10
14.625401
20
31.5
30
0
11
14.625401
21
24.420041
31
0
39
0
210
0
220
0
230
1
0
LINE
5
E9
100
AcDbEntity
8
1
62
256
6
ByLayer
370
18
48
1
60
0
100
AcDbLine
10
25.350013
20
24.420041
30
0
11
25.850013
21
23.920041
31
0
39
0
210
0
220
0
230
1
0
LINE
5
EA
100
AcDbEntity
8
1
62
256
6
ByLayer
370
18
48
1
60
0
100
AcDbLine
10
0.500013
20
31.5
30
0
11
1.3E-05
21
31
31
0
39
0
210
0
220
0
230
1
0
LINE
5
EB
100
AcDbEntity
8
1
62
256
6
ByLayer
370
18
48
1
60
0
100
AcDbLine
10
25.500013
20
31.5
30
0
11
26.000013
21
31
31
0
39
0
210
0
220
0
230
1
0
LINE
5
EC
100
AcDbEntity
8
1
62
256
6
ByLayer
370
18
48
1
60
0
100
AcDbLine
10
0.500013
20
-31.5
30
0
11
1.3E-05
21
-31
31
0
39
0
210
0
220
0
230
1
0
LINE
5
ED
100
AcDbEntity
8
1
62
256
6
ByLayer
370
18
48
1
60
0
100
AcDbLine
10
21.374626
20
-31.47
30
0
11
21.374626
21
19.85
31
0
39
0
210
0
220
0
230
1
0
LINE
5
EE
100
AcDbEntity
8
1
62
256
6
ByLayer
370
18
48
1
60
0
100
AcDbLine
10
19.915013
20
0
30
0
11
19.915013
21
-28.941877
31
0
39
0
210
0
220
0
230
1
0
LINE
5
EF
100
AcDbEntity
8
1
62
256
6
ByLayer
370
18
48
1
60
0
100
AcDbLine
10
16.085013
20
-28.941877
30
0
11
16.085013
21
0
31
0
39
0
210
0
220
0
230
1
0
LINE
5
F0
100
AcDbEntity
8
1
62
256
6
ByLayer
370
18
48
1
60
0
100
AcDbLine
10
14.625401
20
-31.47
30
0
11
14.625401
21
19.85
31
0
39
0
210
0
220
0
230
1
0
LINE
5
F1
100
AcDbEntity
8
1
62
256
6
ByLayer
370
18
48
1
60
0
100
AcDbLine
10
19.915013
20
-28.941877
30
0
11
21.374626
21
-31.47
31
0
39
0
210
0
220
0
230
1
0
LINE
5
F2
100
AcDbEntity
8
1
62
256
6
ByLayer
370
18
48
1
60
0
100
AcDbLine
10
16.485013
20
-27.475
30
0
11
19.515013
21
-27.475
31
0
39
0
210
0
220
0
230
1
0
LINE
5
F3
100
AcDbEntity
8
1
62
256
6
ByLayer
370
18
48
1
60
0
100
AcDbLine
10
14.625401
20
-31.47
30
0
11
16.085013
21
-28.941877
31
0
39
0
210
0
220
0
230
1
0
LINE
5
F4
100
AcDbEntity
8
SK1
62
256
6
ByLayer
370
13
48
1
60
0
100
AcDbLine
10
-1.253571
20
-24.015
30
0
11
-1.253571
21
24.015
31
0
39
0
210
0
220
0
230
1
0
LINE
5
F5
100
AcDbEntity
8
1
62
256
6
ByLayer
370
18
48
1
60
0
100
AcDbLine
10
25.500013
20
-31.5
30
0
11
26.000013
21
-31
31
0
39
0
210
0
220
0
230
1
0
LINE
5
F6
100
AcDbEntity
8
1
62
256
6
ByLayer
370
18
48
1
60
0
100
AcDbLine
10
25.500013
20
-31.5
30
0
11
21.374626
21
-31.5
31
0
39
0
210
0
220
0
230
1
0
LINE
5
F7
100
AcDbEntity
8
1
62
256
6
ByLayer
370
18
48
1
60
0
100
AcDbLine
10
26.000013
20
0
30
0
11
26.000013
21
31
31
0
39
0
210
0
220
0
230
1
0
LINE
5
F8
100
AcDbEntity
8
SK3
62
256
6
ByLayer
370
13
48
0.05
60
0
100
AcDbLine
10
5.000013
20
-31.5
30
0
11
5.000013
21
-26.5
31
0
39
0
210
0
220
0
230
1
0
LINE
5
F9
100
AcDbEntity
8
SK3
62
256
6
ByLayer
370
13
48
0.05
60
0
100
AcDbLine
10
5.000013
20
31.5
30
0
11
5.000013
21
26.5
31
0
39
0
210
0
220
0
230
1
0
LINE
5
FA
100
AcDbEntity
8
1
62
256
6
ByLayer
370
18
48
1
60
0
100
AcDbLine
10
12.177418
20
19.85
30
0
11
16.085013
21
19.85
31
0
39
0
210
0
220
0
230
1
0
LINE
5
FB
100
AcDbEntity
8
1
62
256
6
ByLayer
370
18
48
1
60
0
100
AcDbLine
10
4.950013
20
24.420041
30
0
11
14.625401
21
24.420041
31
0
39
0
210
0
220
0
230
1
0
LINE
5
FC
100
AcDbEntity
8
1
62
256
6
ByLayer
370
18
48
1
60
0
100
AcDbLine
10
25.950013
20
19.85
30
0
11
19.915013
21
19.85
31
0
39
0
210
0
220
0
230
1
0
LINE
5
FD
100
AcDbEntity
8
1
62
256
6
ByLayer
370
18
48
1
60
0
100
AcDbLine
10
25.350013
20
24.420041
30
0
11
21.374626
21
24.420041
31
0
39
0
210
0
220
0
230
1
0
LINE
5
FE
100
AcDbEntity
8
80
62
256
6
ByLayer
370
13
48
1
60
0
100
AcDbLine
10
0
20
0
30
0
11
-8.091354
21
0
31
0
39
0
210
0
220
0
230
1
0
LINE
5
FF
100
AcDbEntity
8
1
62
256
6
ByLayer
370
18
48
0.05
60
1
100
AcDbLine
10
27.000013
20
26.25
30
0
11
42.250013
21
26.25
31
0
39
0
210
0
220
0
230
1
0
LINE
5
100
100
AcDbEntity
8
1
62
256
6
ByLayer
370
18
48
0.05
60
1
100
AcDbLine
10
27.000013
20
-26.25
30
0
11
42.250013
21
-26.25
31
0
39
0
210
0
220
0
230
1
0
LINE
5
101
100
AcDbEntity
8
SK4
62
256
6
ByLayer
370
13
48
0.05
60
1
100
AcDbLine
10
-34.343183
20
-100
30
0
11
72.854768
21
-100
31
0
39
0
210
0
220
0
230
1
0
LINE
5
102
100
AcDbEntity
8
SK4
62
256
6
ByLayer
370
13
48
0.05
60
1
100
AcDbLine
10
-34.183801
20
0
30
0
11
64.471422
21
0
31
0
39
0
210
0
220
0
230
1
0
LINE
5
103
100
AcDbEntity
8
1
62
256
6
ByLayer
370
18
48
0.05
60
1
100
AcDbLine
10
35.189416
20
-26.25
30
0
11
26.476783
21
-26.25
31
0
39
0
210
0
220
0
230
1
0
LINE
5
104
100
AcDbEntity
8
1
62
256
6
ByLayer
370
18
48
0.05
60
1
100
AcDbLine
10
26.476783
20
26.25
30
0
11
28.5
21
26.25
31
0
39
0
210
0
220
0
230
1
0
LINE
5
105
100
AcDbEntity
8
1
62
256
6
ByLayer
370
18
48
1
60
0
100
AcDbLine
10
50.881476
20
-9.82565
30
0
11
63.167116
21
2.45999
31
0
39
0
210
0
220
0
230
1
0
LINE
5
106
100
AcDbEntity
8
1
62
256
6
ByLayer
370
18
48
0.05
60
1
100
AcDbLine
10
26.95
20
-25.431193
30
0
11
26.95
21
25.431193
31
0
39
0
210
0
220
0
230
1
0
LINE
5
107
100
AcDbEntity
8
SK4
62
256
6
ByLayer
370
13
48
0.05
60
1
100
AcDbLine
10
71.021538
20
0
30
0
11
-34.183801
21
0
31
0
39
0
210
0
220
0
230
1
0
LINE
5
108
100
AcDbEntity
8
1
62
256
6
ByLayer
370
18
48
1
60
0
100
AcDbLine
10
42.767076
20
-15.81873
30
0
11
50.095461
21
-8.490345
31
0
39
0
210
0
220
0
230
1
0
LINE
5
109
100
AcDbEntity
8
1
62
256
6
ByLayer
370
18
48
1
60
0
100
AcDbLine
10
50.095461
20
-8.490345
30
0
11
64.981041
21
6.395235
31
0
39
0
210
0
220
0
230
1
0
LINE
5
10A
100
AcDbEntity
8
1
62
256
6
ByLayer
370
18
48
0.05
60
1
100
AcDbLine
10
76.000013
20
30
30
0
11
44.000013
21
30
31
0
39
0
210
0
220
0
230
1
0
LINE
5
10B
100
AcDbEntity
8
1
62
256
6
ByLayer
370
18
48
1
60
0
100
AcDbLine
10
65.836094
20
6.79135
30
0
11
43.208677
21
-15.836067
31
0
39
0
210
0
220
0
230
1
0
LINE
5
10C
100
AcDbEntity
8
1
62
256
6
ByLayer
370
18
48
1
60
0
100
AcDbLine
10
65.960174
20
6.667262
30
0
11
65.606621
21
7.020815
31
0
39
0
210
0
220
0
230
1
0
LINE
5
10D
100
AcDbEntity
8
1
62
256
6
ByLayer
370
18
48
1
60
0
100
AcDbLine
10
43.332757
20
-15.960155
30
0
11
42.979204
21
-15.606602
31
0
39
0
210
0
220
0
230
1
0
LINE
5
10E
100
AcDbEntity
8
1
62
256
6
ByLayer
370
18
48
1
60
0
100
AcDbLine
10
27.950013
20
18.5
30
0
11
54.551695
21
18.5
31
0
39
0
210
0
220
0
230
1
0
LINE
5
10F
100
AcDbEntity
8
1
62
256
6
ByLayer
370
18
48
1
60
0
100
AcDbLine
10
40.0858
20
-18.5
30
0
11
27.950013
21
-18.5
31
0
39
0
210
0
220
0
230
1
0
LINE
5
110
100
AcDbEntity
8
1
62
256
6
ByLayer
370
18
48
1
60
0
100
AcDbLine
10
25.950013
20
26.4
30
0
11
25.950013
21
20.5
31
0
39
0
210
0
220
0
230
1
0
LINE
5
111
100
AcDbEntity
8
1
62
256
6
ByLayer
370
18
48
1
60
0
100
AcDbLine
10
25.950013
20
-20.5
30
0
11
25.950013
21
-26.4
31
0
39
0
210
0
220
0
230
1
0
LINE
5
112
100
AcDbEntity
8
1
62
256
6
ByLayer
370
18
48
1
60
0
100
AcDbLine
10
54.551695
20
18.5
30
0
11
56.9706
21
16.081094
31
0
39
0
210
0
220
0
230
1
0
LINE
5
113
100
AcDbEntity
8
1
62
256
6
ByLayer
370
18
48
0.05
60
1
100
AcDbLine
10
62.094956
20
10.956739
30
0
11
65.818747
21
7.232947
31
0
39
0
210
0
220
0
230
1
0
LINE
5
114
100
AcDbEntity
8
1
62
256
6
ByLayer
370
18
48
1
60
0
100
AcDbLine
10
42.979198
20
-15.606602
30
0
11
43.208668
21
-15.836071
31
0
39
0
210
0
220
0
230
1
0
LINE
5
115
100
AcDbEntity
8
1
62
256
6
ByLayer
370
18
48
1
60
0
100
AcDbLine
10
65.836085
20
6.791346
30
0
11
65.606615
21
7.020815
31
0
39
0
210
0
220
0
230
1
0
LINE
5
116
100
AcDbEntity
8
1
62
256
6
ByLayer
370
18
48
1
60
0
100
AcDbLine
10
27.950013
20
-18.5
30
0
11
27.950013
21
18.5
31
0
39
0
210
0
220
0
230
1
0
LINE
5
117
100
AcDbEntity
8
1
62
256
6
ByLayer
370
18
48
1
60
0
100
AcDbLine
10
43.500013
20
8.749857
30
0
11
48.559764
21
8.749857
31
0
39
0
210
0
220
0
230
1
0
LINE
5
118
100
AcDbEntity
8
1
62
256
6
ByLayer
370
18
48
1
60
0
100
AcDbLine
10
48.559764
20
8.749857
30
0
11
57.947711
21
-0.638089
31
0
39
0
210
0
220
0
230
1
0
LINE
5
119
100
AcDbEntity
8
1
62
256
6
ByLayer
370
18
48
1
60
0
100
AcDbLine
10
65.818747
20
7.232947
30
0
11
57.947711
21
-0.638089
31
0
39
0
210
0
220
0
230
1
0
LINE
5
11A
100
AcDbEntity
8
1
62
256
6
ByLayer
370
18
48
1
60
0
100
AcDbLine
10
57.947711
20
-0.638089
30
0
11
49.835943
21
-8.749857
31
0
39
0
210
0
220
0
230
1
0
LINE
5
11B
100
AcDbEntity
8
1
62
256
6
ByLayer
370
18
48
1
60
0
100
AcDbLine
10
49.835943
20
-8.749857
30
0
11
40.0858
21
-18.5
31
0
39
0
210
0
220
0
230
1
0
LINE
5
11C
100
AcDbEntity
8
1
62
256
6
ByLayer
370
18
48
1
60
0
100
AcDbLine
10
49.835943
20
-8.749857
30
0
11
43.500013
21
-8.749857
31
0
39
0
210
0
220
0
230
1
0
LINE
5
11D
100
AcDbEntity
8
1
62
256
6
ByLayer
370
18
48
1
60
0
100
AcDbLine
10
43.208668
20
-15.836071
30
0
11
65.836085
21
6.791346
31
0
39
0
210
0
220
0
230
1
0
LINE
5
11E
100
AcDbEntity
8
4
62
256
6
ByLayer
370
13
48
0.05
60
1
100
AcDbLine
10
55.000019
20
0
30
0
11
0
21
0
31
0
39
0
210
0
220
0
230
1
0
LINE
5
11F
100
AcDbEntity
8
4
62
256
6
ByLayer
370
13
48
0.05
60
1
100
AcDbLine
10
56.767786
20
0
30
0
11
0
21
0
31
0
39
0
210
0
220
0
230
1
0
LINE
5
120
100
AcDbEntity
8
1
62
256
6
ByLayer
370
18
48
1
60
0
100
AcDbLine
10
54.551695
20
18.5
30
0
11
65.818747
21
7.232947
31
0
39
0
210
0
220
0
230
1
0
LINE
5
121
100
AcDbEntity
8
4
62
256
6
ByLayer
370
13
48
0.05
60
0
100
AcDbLine
10
55.000019
20
0
30
0
11
0
21
0
31
0
39
0
210
0
220
0
230
1
0
LINE
5
122
100
AcDbEntity
8
SK4
62
256
6
ByLayer
370
13
48
0.05
60
0
100
AcDbLine
10
65.9225
20
0
30
0
11
-34.183801
21
0
31
0
39
0
210
0
220
0
230
1
0
MTEXT
5
1CB
100
AcDbEntity
8
SK6
62
256
6
ByLayer
370
18
48
1
60
0
100
AcDbMText
10
13.088052
20
-53.183054
30
0
210
0
220
0
230
1
1
\W0.7855;392.T63SL-32RX-045
40
3.5
41
0
44
1.084337
50
0
71
7
72
5
7
iso_b_vert
0
DIMENSION
5
1E6
100
AcDbEntity
8
SK2
62
256
6
ByLayer
370
13
48
1
60
0
100
AcDbDimension
2
DimnDraft3D1
10
26.000013
20
45.472457
30
0
11
11.247378
21
45.472457
31
0
70
32
71
5
72
1
41
1
210
0
220
0
230
1
3
Standard
100
AcDbAlignedDimension
13
1.3E-05
23
32.5875
33
0
14
26.000013
24
32.5875
34
0
50
0
100
AcDbRotatedDimension
1001
ACAD
1000
DSTYLE
1002
{
1070
   279
1070
     0
1070
   172
1070
     1
1070
   173
1070
     1
1070
   340
1005
1CC
1070
   271
1070
     0
1070
    77
1070
     1
1070
    73
1070
     0
1070
   171
1070
     3
1070
   274
1070
     4
1070
   177
1070
   254
1070
   176
1070
   254
1070
   178
1070
   254
1070
    78
1070
     8
1070
    41
1041
3.175
1070
   147
1041
1.500003
1070
    42
1041
1.5875
1070
    44
1041
3.175
1070
   140
1041
3.000007
1070
   343
1005
0
1070
   344
1005
0
1002
}
0
DIMENSION
5
1F4
100
AcDbEntity
8
SK2
62
256
6
ByLayer
370
13
48
1
60
0
100
AcDbDimension
2
DimnDraft3D2
10
-55.58407
20
31.5
30
0
11
-55.58407
21
-4.073684
31
0
70
32
71
5
72
1
41
1
210
0
220
0
230
1
3
Standard
100
AcDbAlignedDimension
13
-0.999987
23
-31.5
33
0
14
-0.999987
24
31.5
34
0
50
90
100
AcDbRotatedDimension
1001
ACAD
1000
DSTYLE
1002
{
1070
    74
1070
     0
1070
   279
1070
     0
1070
   173
1070
     1
1070
   340
1005
1CC
1070
   271
1070
     0
1070
   272
1070
     2
1070
    77
1070
     1
1070
    73
1070
     0
1070
   171
1070
     4
1070
   274
1070
     4
1070
   177
1070
   254
1070
   176
1070
   254
1070
   178
1070
   254
1070
    41
1041
3.0
1070
   147
1041
1.5
1070
    42
1041
1.5
1070
    44
1041
3.0
1070
   140
1041
3.0
1070
   343
1005
1D0
1070
   344
1005
1D0
1002
}
0
DIMENSION
5
202
100
AcDbEntity
8
SK2
62
256
6
ByLayer
370
13
48
1
60
0
100
AcDbDimension
2
DimnDraft3D3
10
-42.535949
20
24
30
0
11
-42.535949
21
-4.231579
31
0
70
32
71
5
72
1
41
1
210
0
220
0
230
1
3
Standard
100
AcDbAlignedDimension
13
-7.799987
23
-24
33
0
14
-7.799987
24
24
34
0
50
90
100
AcDbRotatedDimension
1001
ACAD
1000
DSTYLE
1002
{
1070
    74
1070
     0
1070
   279
1070
     0
1070
   173
1070
     1
1070
   340
1005
1CC
1070
   271
1070
     0
1070
   272
1070
     2
1070
    77
1070
     1
1070
    73
1070
     0
1070
   171
1070
     4
1070
   274
1070
     4
1070
   177
1070
   254
1070
   176
1070
   254
1070
   178
1070
   254
1070
    41
1041
3.0
1070
   147
1041
1.5
1070
    42
1041
1.5
1070
    44
1041
3.0
1070
   140
1041
3.0
1070
   343
1005
1D0
1070
   344
1005
1D0
1002
}
0
DIMENSION
5
210
100
AcDbEntity
8
SK2
62
256
6
ByLayer
370
18
48
1
60
0
100
AcDbDimension
2
DimnDraft3D4
10
93.248735
20
-5
30
0
11
93.248735
21
-3.151316
31
0
70
32
71
5
72
1
41
1
210
0
220
0
230
1
3
Standard
100
AcDbAlignedDimension
13
67.9225
23
0
33
0
14
57.000019
24
-5
34
0
50
90
100
AcDbRotatedDimension
1001
ACAD
1000
DSTYLE
1002
{
1070
    74
1070
     0
1070
   279
1070
     0
1070
   172
1070
     1
1070
   173
1070
     1
1070
   340
1005
1CC
1070
    77
1070
     1
1070
    73
1070
     0
1070
   171
1070
     3
1070
   274
1070
     4
1070
   177
1070
   254
1070
   176
1070
   254
1070
   178
1070
   254
1070
    78
1070
     8
1070
    41
1041
3.175
1070
   147
1041
1.5
1070
    42
1041
2.0
1070
    44
1041
2.0
1070
   140
1041
3.0
1070
   343
1005
1D0
1070
   344
1005
1D0
1002
}
0
DIMENSION
5
21F
100
AcDbEntity
8
2
62
256
6
ByLayer
370
18
48
1
60
0
100
AcDbDimension
2
DimnDraft3D5
10
55.000019
20
58.662416
30
0
11
25.747385
21
58.662416
31
0
70
32
71
5
72
1
41
1
210
0
220
0
230
1
3
Standard
100
AcDbAlignedDimension
13
1.3E-05
23
33
33
0
14
55.000019
24
-3
34
0
50
0
100
AcDbRotatedDimension
1001
ACAD
1000
DSTYLE
1002
{
1070
   279
1070
     0
1070
   172
1070
     1
1070
   173
1070
     1
1070
   340
1005
1CC
1070
    77
1070
     1
1070
    73
1070
     0
1070
   171
1070
     3
1070
   274
1070
     4
1070
   177
1070
   254
1070
   176
1070
   254
1070
   178
1070
   254
1070
    78
1070
     8
1070
    41
1041
3.175
1070
   147
1041
1.5
1070
    42
1041
2.0
1070
    44
1041
2.0
1070
   140
1041
3.0
1070
   343
1005
1D0
1070
   344
1005
1D0
1002
}
0
DIMENSION
5
22D
100
AcDbEntity
8
SK2
62
256
6
ByLayer
370
18
48
1
60
0
100
AcDbDimension
2
DimnDraft3D6
10
1.3E-05
20
45.472457
30
0
11
-17.752618
21
45.472457
31
0
70
32
71
5
72
1
41
1
210
0
220
0
230
1
3
Standard
100
AcDbAlignedDimension
13
-31.999987
23
23.573501
33
0
14
1.3E-05
24
33
34
0
50
0
100
AcDbRotatedDimension
1001
ACAD
1000
DSTYLE
1002
{
1070
   279
1070
     0
1070
   172
1070
     1
1070
   173
1070
     1
1070
   340
1005
1CC
1070
    77
1070
     1
1070
    73
1070
     0
1070
   171
1070
     3
1070
   274
1070
     4
1070
   177
1070
   254
1070
   176
1070
   254
1070
   178
1070
   254
1070
    78
1070
     8
1070
    41
1041
3.175
1070
   147
1041
1.5
1070
    42
1041
2.0
1070
    44
1041
2.0
1070
   140
1041
3.0
1070
   343
1005
1D0
1070
   344
1005
1D0
1002
}
0
DIMENSION
5
23B
100
AcDbEntity
8
SK2
62
256
6
ByLayer
370
18
48
1
60
0
100
AcDbDimension
2
DimnDraft3D7
10
85.533417
20
-12.90598
30
0
11
68.864305
21
-24.625345
31
0
70
33
71
5
72
1
41
1
210
0
220
0
230
1
3
Standard
100
AcDbAlignedDimension
13
44.746971
23
-17.374369
33
0
14
67.374388
24
5.253048
34
0
1001
ACAD
1000
DSTYLE
1002
{
1070
   279
1070
     0
1070
    74
1070
     0
1070
   173
1070
     1
1070
   340
1005
1CC
1070
    77
1070
     1
1070
    73
1070
     0
1070
   171
1070
     3
1070
   274
1070
     4
1070
   177
1070
   254
1070
   176
1070
   254
1070
   178
1070
   254
1070
    78
1070
     8
1070
    41
1041
3.175
1070
   147
1041
1.5
1070
    42
1041
2.0
1070
    44
1041
2.0
1070
   140
1041
3.0
1070
   343
1005
1D0
1070
   344
1005
1D0
1002
}
0
ENDSEC
0
SECTION
2
OBJECTS
0
DICTIONARY
5
2a7
330
0
100
AcDbDictionary
280
0
281
1
3
ACAD_GROUP
350
2a8
3
ACAD_MLINESTYLE
350
2a9
0
DICTIONARY
5
2a8
330
0
100
AcDbDictionary
280
0
281
1
0
DICTIONARY
5
2a9
330
0
100
AcDbDictionary
280
0
281
1
3
Standard
350
18
0
MLINESTYLE
5
18
330
2a9
100
AcDbMlineStyle
2
Standard
70
0
3

62
256
51
90
52
90
71
2
49
-0.5
62
256
6
ByLayer
49
0.5
62
256
6
ByLayer
0
RASTERVARIABLES
5
294
330

100
AcDbRasterVariables
90
0
70
1
71
1
72
1
0
ENDSEC
0
EOF
