0
SECTION
2
HEADER
9
$ACADVER
1
AC1015
9
$DWGCODEPAGE
3
ANSI_1252
9
$HANDSEED
5
2dd
9
$ANGBASE
50
0
9
$ANGDIR
70
0
9
$ATTMODE
70
1
9
$AUNITS
70
0
9
$AUPREC
70
0
9
$CECOLOR
62
256
9
$CELTSCALE
40
1
9
$CELTYPE
6
ByLayer
9
$CELWEIGHT
370
18
9
$CLAYER
8
0
9
$CMLJUST
70
0
9
$CMLSCALE
40
1
9
$CMLSTYLE
2
Standard
9
$DIMSTYLE
2
Standard
9
$TEXTSIZE
40
0.2
9
$TEXTSTYLE
7
Standard
9
$LUNITS
70
2
9
$LUPREC
70
4
9
$EXTNAMES
290
1
9
$INSUNITS
70
4
9
$LTSCALE
40
1
9
$LWDISPLAY
290
1
9
$PDMODE
70
0
9
$PDSIZE
40
0
9
$PLINEGEN
70
0
0
ENDSEC
0
SECTION
2
CLASSES
0
CLASS
1
RASTERVARIABLES
2
AcDbRasterVariables
3
ISM
90
0
280
0
281
0
0
ENDSEC
0
SECTION
2
TABLES
0
TABLE
2
VPORT
5
2d3
100
AcDbSymbolTable
0
VPORT
5
1
100
AcDbSymbolTableRecord
100
AcDbViewportTableRecord
2
*Active
70
0
10
0
20
0
11
1
21
1
12
-1
22
1
13
0
23
0
14
0.5
24
0.5
15
10
25
10
16
0
26
0
36
1
17
0
27
0
37
0
0
ENDTAB
0
TABLE
2
LTYPE
5
2d4
100
AcDbSymbolTable
0
LTYPE
5
14
100
AcDbSymbolTableRecord
100
AcDbLinetypeTableRecord
70
0
2
ByBlock
3

72
65
73
0
40
0
0
LTYPE
5
15
100
AcDbSymbolTableRecord
100
AcDbLinetypeTableRecord
70
0
2
ByLayer
3

72
65
73
0
40
0
0
LTYPE
5
16
100
AcDbSymbolTableRecord
100
AcDbLinetypeTableRecord
70
0
2
CONTINUOUS
3
Solid line
72
65
73
0
40
0
0
LTYPE
5
6A
100
AcDbSymbolTableRecord
100
AcDbLinetypeTableRecord
70
0
2
CENTER
3
____ _ ____ _ ____ _ ____
72
65
73
4
40
47.5
49
22
74
0
49
-8.5
74
0
49
8.5
74
0
49
-8.5
74
0
0
LTYPE
5
6B
100
AcDbSymbolTableRecord
100
AcDbLinetypeTableRecord
70
0
2
DASHED
3
__ __ __ __ __ __ __ __ __
72
65
73
2
40
25.72
49
12.86
74
0
49
-12.86
74
0
0
ENDTAB
0
TABLE
2
LAYER
5
2d5
100
AcDbSymbolTable
0
LAYER
5
10
100
AcDbSymbolTableRecord
100
AcDbLayerTableRecord
2
0
70
0
62
7
6
CONTINUOUS
290
1
370
-3
390
0
0
LAYER
5
6D
100
AcDbSymbolTableRecord
100
AcDbLayerTableRecord
2
80
70
0
62
-6
6
CONTINUOUS
290
1
370
-3
390
0
0
LAYER
5
6F
100
AcDbSymbolTableRecord
100
AcDbLayerTableRecord
2
81
70
0
62
-3
6
CONTINUOUS
290
1
370
-3
390
0
0
LAYER
5
71
100
AcDbSymbolTableRecord
100
AcDbLayerTableRecord
2
1
70
0
62
4
6
CONTINUOUS
290
1
370
-3
390
0
0
LAYER
5
143
100
AcDbSymbolTableRecord
100
AcDbLayerTableRecord
2
4
70
0
62
-2
6
CENTER
290
1
370
-3
390
0
0
LAYER
5
1F6
100
AcDbSymbolTableRecord
100
AcDbLayerTableRecord
2
2
70
0
62
7
6
CONTINUOUS
290
1
370
-3
390
0
0
LAYER
5
2be
100
AcDbSymbolTableRecord
100
AcDbLayerTableRecord
2
SK4
70
0
62
2
6
CENTER
290
1
370
-3
390
0
0
LAYER
5
2bf
100
AcDbSymbolTableRecord
100
AcDbLayerTableRecord
2
SK3
70
0
62
1
6
DASHED
290
1
370
-3
390
0
0
LAYER
5
2c0
100
AcDbSymbolTableRecord
100
AcDbLayerTableRecord
2
SK1
70
0
62
4
6
CONTINUOUS
290
1
370
-3
390
0
0
LAYER
5
2c1
100
AcDbSymbolTableRecord
100
AcDbLayerTableRecord
2
SK6
70
0
62
5
6
CONTINUOUS
290
1
370
-3
390
0
0
LAYER
5
2c2
100
AcDbSymbolTableRecord
100
AcDbLayerTableRecord
2
SK2
70
0
62
7
6
CONTINUOUS
290
1
370
-3
390
0
0
ENDTAB
0
TABLE
2
STYLE
5
2d6
100
AcDbSymbolTable
0
STYLE
5
11
100
AcDbSymbolTableRecord
100
AcDbTextStyleTableRecord
2
Standard
3
txt
70
0
71
0
40
0
41
1
42
0
50
0
0
STYLE
5
1E3
100
AcDbSymbolTableRecord
100
AcDbTextStyleTableRecord
2
iso_b_vert
3
simplex.shx
70
0
71
0
40
0
41
1
42
0
50
0
0
STYLE
5
1E4
100
AcDbSymbolTableRecord
100
AcDbTextStyleTableRecord
2
DWGDirectTextStyle
3
simplex
70
0
71
0
40
0
41
1
42
0
50
0
0
ENDTAB
0
TABLE
2
DIMSTYLE
5
2d7
100
AcDbSymbolTable
100
AcDbDimStyleTable
0
DIMSTYLE
105
27
100
AcDbSymbolTableRecord
100
AcDbDimStyleTableRecord
2
Standard
70
0
3
<>
41
0.18
42
0.0625
44
0.18
140
0.18
147
0.09
73
0
74
0
77
1
271
2
275
0
278
52
280
0
340
11
0
ENDTAB
0
TABLE
2
VIEW
5
2d8
100
AcDbSymbolTable
0
ENDTAB
0
TABLE
2
UCS
5
2d9
100
AcDbSymbolTable
0
ENDTAB
0
TABLE
2
APPID
5
2da
100
AcDbSymbolTable
0
APPID
5
12
100
AcDbSymbolTableRecord
100
AcDbRegAppTableRecord
2
ACAD
70
0
0
ENDTAB
0
TABLE
2
BLOCK_RECORD
5
2db
100
AcDbSymbolTable
0
BLOCK_RECORD
5
1F
100
AcDbSymbolTableRecord
100
AcDbBlockTableRecord
2
*Model_Space
340
0
70
0
0
BLOCK_RECORD
5
1B
100
AcDbSymbolTableRecord
100
AcDbBlockTableRecord
2
*Paper_Space
340
0
70
0
0
BLOCK_RECORD
5
23
100
AcDbSymbolTableRecord
100
AcDbBlockTableRecord
2
*Paper_Space0
340
0
70
0
0
BLOCK_RECORD
5
1E6
100
AcDbSymbolTableRecord
100
AcDbBlockTableRecord
2
LABLE3D_1
340
0
70
0
0
BLOCK_RECORD
5
1E7
100
AcDbSymbolTableRecord
100
AcDbBlockTableRecord
2
_CLOSED
340
0
70
0
0
BLOCK_RECORD
5
1F4
100
AcDbSymbolTableRecord
100
AcDbBlockTableRecord
2
DimnDraft3D1
340
0
70
0
0
BLOCK_RECORD
5
203
100
AcDbSymbolTableRecord
100
AcDbBlockTableRecord
2
DimnDraft3D2
340
0
70
0
0
BLOCK_RECORD
5
211
100
AcDbSymbolTableRecord
100
AcDbBlockTableRecord
2
DimnDraft3D3
340
0
70
0
0
BLOCK_RECORD
5
21F
100
AcDbSymbolTableRecord
100
AcDbBlockTableRecord
2
DimnDraft3D4
340
0
70
0
0
BLOCK_RECORD
5
22D
100
AcDbSymbolTableRecord
100
AcDbBlockTableRecord
2
DimnDraft3D5
340
0
70
0
0
BLOCK_RECORD
5
23B
100
AcDbSymbolTableRecord
100
AcDbBlockTableRecord
2
DimnDraft3D6
340
0
70
0
0
BLOCK_RECORD
5
249
100
AcDbSymbolTableRecord
100
AcDbBlockTableRecord
2
DimnDraft3D7
340
0
70
0
0
BLOCK_RECORD
5
257
100
AcDbSymbolTableRecord
100
AcDbBlockTableRecord
2
DimnDraft3D8
340
0
70
0
0
ENDTAB
0
ENDSEC
0
SECTION
2
BLOCKS
0
BLOCK
5
20
100
AcDbEntity
8
0
100
AcDbBlockBegin
2
*Model_Space
70
0
10
0
20
0
30
0
3
*Model_Space
0
ENDBLK
5
21
100
AcDbEntity
8
0
100
AcDbBlockEnd
0
BLOCK
5
1C
100
AcDbEntity
8
0
100
AcDbBlockBegin
2
*Paper_Space
70
0
10
0
20
0
30
0
3
*Paper_Space
0
ENDBLK
5
1D
100
AcDbEntity
8
0
100
AcDbBlockEnd
0
BLOCK
5
24
100
AcDbEntity
8
0
100
AcDbBlockBegin
2
*Paper_Space0
70
0
10
0
20
0
30
0
3
*Paper_Space0
0
ENDBLK
5
25
100
AcDbEntity
8
0
100
AcDbBlockEnd
0
BLOCK
5
1F2
100
AcDbEntity
8
0
100
AcDbBlockBegin
2
LABLE3D_1
70
0
10
0
20
0
30
0
3
LABLE3D_1
0
MTEXT
5
1F0
100
AcDbEntity
8
SK2
62
256
6
ByLayer
370
18
48
1
60
0
100
AcDbMText
10
-43.497759
20
-65.220711
30
0
210
0
220
0
230
1
1
\W0.7886;Combination of\PHSK-A/C/T 100
40
3
41
0
44
1.084337
50
0
71
7
72
5
7
iso_b_vert
0
ENDBLK
5
1F3
100
AcDbEntity
8
0
100
AcDbBlockEnd
0
BLOCK
5
1E8
100
AcDbEntity
8
0
100
AcDbBlockBegin
2
_CLOSED
70
0
10
0
20
0
30
0
3
_CLOSED
0
LINE
5
1EA
100
AcDbEntity
8
0
62
256
6
ByLayer
370
-2
48
1
60
0
100
AcDbLine
10
-1
20
0.166667
30
0
11
0
21
0
31
0
39
0
210
0
220
0
230
1
0
LINE
5
1EB
100
AcDbEntity
8
0
62
256
6
ByLayer
370
-2
48
1
60
0
100
AcDbLine
10
0
20
0
30
0
11
-1
21
-0.166667
31
0
39
0
210
0
220
0
230
1
0
LINE
5
1EC
100
AcDbEntity
8
0
62
256
6
ByLayer
370
-2
48
1
60
0
100
AcDbLine
10
-1
20
0.166667
30
0
11
-1
21
-0.166667
31
0
39
0
210
0
220
0
230
1
0
LINE
5
1ED
100
AcDbEntity
8
0
62
256
6
ByLayer
370
-2
48
1
60
0
100
AcDbLine
10
0
20
0
30
0
11
-1
21
0
31
0
39
0
210
0
220
0
230
1
0
ENDBLK
5
1E9
100
AcDbEntity
8
0
100
AcDbBlockEnd
0
BLOCK
5
200
100
AcDbEntity
8
0
100
AcDbBlockBegin
2
DimnDraft3D1
70
0
10
0
20
0
30
0
3
DimnDraft3D1
0
MTEXT
5
1F5
100
AcDbEntity
8
2
62
256
6
ByLayer
370
18
48
1
60
0
100
AcDbMText
10
33.83023
20
101.207858
30
0
210
0
220
0
230
1
1
\W0.6562;70
40
3.50012
41
0
44
1.084337
50
0
71
7
72
5
7
iso_b_vert
0
LINE
5
1F7
100
AcDbEntity
8
2
62
256
6
ByLayer
370
13
48
1
60
0
100
AcDbLine
10
1.3E-05
20
50.852471
30
0
11
1.3E-05
21
103.507828
31
0
39
0
210
0
220
0
230
1
0
LINE
5
1F8
100
AcDbEntity
8
2
62
256
6
ByLayer
370
13
48
1
60
0
100
AcDbLine
10
70
20
60.5875
30
0
11
70
21
103.507828
31
0
39
0
210
0
220
0
230
1
0
LINE
5
1F9
100
AcDbEntity
8
2
62
256
6
ByLayer
370
13
48
1
60
0
100
AcDbLine
10
1.3E-05
20
100.332828
30
0
11
70
21
100.332828
31
0
39
0
210
0
220
0
230
1
0
LINE
5
1FA
100
AcDbEntity
8
2
62
256
6
ByLayer
370
13
48
1
60
0
100
AcDbLine
10
1.3E-05
20
100.332828
30
0
11
3.175012
21
100.750824
31
0
39
0
210
0
220
0
230
1
0
LINE
5
1FB
100
AcDbEntity
8
2
62
256
6
ByLayer
370
13
48
1
60
0
100
AcDbLine
10
1.3E-05
20
100.332828
30
0
11
3.175015
21
99.914831
31
0
39
0
210
0
220
0
230
1
0
LINE
5
1FC
100
AcDbEntity
8
2
62
256
6
ByLayer
370
13
48
1
60
0
100
AcDbLine
10
3.175012
20
100.750824
30
0
11
3.175015
21
99.914831
31
0
39
0
210
0
220
0
230
1
0
LINE
5
1FD
100
AcDbEntity
8
2
62
256
6
ByLayer
370
13
48
1
60
0
100
AcDbLine
10
70
20
100.332828
30
0
11
66.825002
21
99.914831
31
0
39
0
210
0
220
0
230
1
0
LINE
5
1FE
100
AcDbEntity
8
2
62
256
6
ByLayer
370
13
48
1
60
0
100
AcDbLine
10
70
20
100.332828
30
0
11
66.824998
21
100.750824
31
0
39
0
210
0
220
0
230
1
0
LINE
5
1FF
100
AcDbEntity
8
2
62
256
6
ByLayer
370
13
48
1
60
0
100
AcDbLine
10
66.825002
20
99.914831
30
0
11
66.824998
21
100.750824
31
0
39
0
210
0
220
0
230
1
0
ENDBLK
5
201
100
AcDbEntity
8
0
100
AcDbBlockEnd
0
BLOCK
5
20E
100
AcDbEntity
8
0
100
AcDbBlockBegin
2
DimnDraft3D2
70
0
10
0
20
0
30
0
3
DimnDraft3D2
0
MTEXT
5
204
100
AcDbEntity
8
SK2
62
256
6
ByLayer
370
18
48
1
60
0
100
AcDbMText
10
-26.002618
20
69.898736
30
0
210
0
220
0
230
1
1
\W0.6563;50
40
3
41
0
44
1.084337
50
0
71
7
72
5
7
iso_b_vert
0
LINE
5
205
100
AcDbEntity
8
SK2
62
256
6
ByLayer
370
13
48
1
60
0
100
AcDbLine
10
-49.999987
20
35.097502
30
0
11
-49.999987
21
72.148736
31
0
39
0
210
0
220
0
230
1
0
LINE
5
206
100
AcDbEntity
8
SK2
62
256
6
ByLayer
370
13
48
1
60
0
100
AcDbLine
10
1.3E-05
20
50.764971
30
0
11
1.3E-05
21
72.148736
31
0
39
0
210
0
220
0
230
1
0
LINE
5
207
100
AcDbEntity
8
SK2
62
256
6
ByLayer
370
13
48
1
60
0
100
AcDbLine
10
-49.999987
20
69.148736
30
0
11
1.3E-05
21
69.148736
31
0
39
0
210
0
220
0
230
1
0
LINE
5
208
100
AcDbEntity
8
SK2
62
256
6
ByLayer
370
13
48
1
60
0
100
AcDbLine
10
-49.999987
20
69.148736
30
0
11
-46.999988
21
69.648736
31
0
39
0
210
0
220
0
230
1
0
LINE
5
209
100
AcDbEntity
8
SK2
62
256
6
ByLayer
370
13
48
1
60
0
100
AcDbLine
10
-49.999987
20
69.148736
30
0
11
-46.999985
21
68.648736
31
0
39
0
210
0
220
0
230
1
0
LINE
5
20A
100
AcDbEntity
8
SK2
62
256
6
ByLayer
370
13
48
1
60
0
100
AcDbLine
10
-46.999988
20
69.648736
30
0
11
-46.999985
21
68.648736
31
0
39
0
210
0
220
0
230
1
0
LINE
5
20B
100
AcDbEntity
8
SK2
62
256
6
ByLayer
370
13
48
1
60
0
100
AcDbLine
10
1.3E-05
20
69.148736
30
0
11
-2.999985
21
68.648736
31
0
39
0
210
0
220
0
230
1
0
LINE
5
20C
100
AcDbEntity
8
SK2
62
256
6
ByLayer
370
13
48
1
60
0
100
AcDbLine
10
1.3E-05
20
69.148736
30
0
11
-2.999988
21
69.648736
31
0
39
0
210
0
220
0
230
1
0
LINE
5
20D
100
AcDbEntity
8
SK2
62
256
6
ByLayer
370
13
48
1
60
0
100
AcDbLine
10
-2.999985
20
68.648736
30
0
11
-2.999988
21
69.648736
31
0
39
0
210
0
220
0
230
1
0
ENDBLK
5
20F
100
AcDbEntity
8
0
100
AcDbBlockEnd
0
BLOCK
5
21C
100
AcDbEntity
8
0
100
AcDbBlockBegin
2
DimnDraft3D3
70
0
10
0
20
0
30
0
3
DimnDraft3D3
0
MTEXT
5
212
100
AcDbEntity
8
SK2
62
256
6
ByLayer
370
18
48
1
60
0
100
AcDbMText
10
13.497382
20
69.865675
30
0
210
0
220
0
230
1
1
\W0.6745;29
40
3
41
0
44
1.084337
50
0
71
7
72
5
7
iso_b_vert
0
LINE
5
213
100
AcDbEntity
8
SK2
62
256
6
ByLayer
370
13
48
1
60
0
100
AcDbLine
10
1.3E-05
20
50.764971
30
0
11
1.3E-05
21
72.115675
31
0
39
0
210
0
220
0
230
1
0
LINE
5
214
100
AcDbEntity
8
SK2
62
256
6
ByLayer
370
13
48
1
60
0
100
AcDbLine
10
29.000013
20
50.715068
30
0
11
29.000013
21
72.115675
31
0
39
0
210
0
220
0
230
1
0
LINE
5
215
100
AcDbEntity
8
SK2
62
256
6
ByLayer
370
13
48
1
60
0
100
AcDbLine
10
1.3E-05
20
69.115675
30
0
11
29.000013
21
69.115675
31
0
39
0
210
0
220
0
230
1
0
LINE
5
216
100
AcDbEntity
8
SK2
62
256
6
ByLayer
370
13
48
1
60
0
100
AcDbLine
10
1.3E-05
20
69.115675
30
0
11
3.000012
21
69.644656
31
0
39
0
210
0
220
0
230
1
0
LINE
5
217
100
AcDbEntity
8
SK2
62
256
6
ByLayer
370
13
48
1
60
0
100
AcDbLine
10
1.3E-05
20
69.115675
30
0
11
3.000015
21
68.586694
31
0
39
0
210
0
220
0
230
1
0
LINE
5
218
100
AcDbEntity
8
SK2
62
256
6
ByLayer
370
13
48
1
60
0
100
AcDbLine
10
3.000012
20
69.644656
30
0
11
3.000015
21
68.586694
31
0
39
0
210
0
220
0
230
1
0
LINE
5
219
100
AcDbEntity
8
SK2
62
256
6
ByLayer
370
13
48
1
60
0
100
AcDbLine
10
29.000013
20
69.115675
30
0
11
26.000015
21
68.586694
31
0
39
0
210
0
220
0
230
1
0
LINE
5
21A
100
AcDbEntity
8
SK2
62
256
6
ByLayer
370
13
48
1
60
0
100
AcDbLine
10
29.000013
20
69.115675
30
0
11
26.000012
21
69.644656
31
0
39
0
210
0
220
0
230
1
0
LINE
5
21B
100
AcDbEntity
8
SK2
62
256
6
ByLayer
370
13
48
1
60
0
100
AcDbLine
10
26.000015
20
68.586694
30
0
11
26.000012
21
69.644656
31
0
39
0
210
0
220
0
230
1
0
ENDBLK
5
21D
100
AcDbEntity
8
0
100
AcDbBlockEnd
0
BLOCK
5
22A
100
AcDbEntity
8
0
100
AcDbBlockBegin
2
DimnDraft3D4
70
0
10
0
20
0
30
0
3
DimnDraft3D4
0
MTEXT
5
220
100
AcDbEntity
8
SK2
62
256
6
ByLayer
370
18
48
1
60
0
100
AcDbMText
10
-81.970478
20
-4.05
30
0
210
0
220
0
230
1
1
\W0.7276;%%c 100
40
3
41
0
44
1.084337
50
90
71
7
72
5
7
iso_b_vert
0
LINE
5
221
100
AcDbEntity
8
SK2
62
256
6
ByLayer
370
13
48
1
60
0
100
AcDbLine
10
-0.764958
20
-50
30
0
11
-84.220478
21
-50
31
0
39
0
210
0
220
0
230
1
0
LINE
5
222
100
AcDbEntity
8
SK2
62
256
6
ByLayer
370
13
48
1
60
0
100
AcDbLine
10
-0.764958
20
50
30
0
11
-84.220478
21
50
31
0
39
0
210
0
220
0
230
1
0
LINE
5
223
100
AcDbEntity
8
SK2
62
256
6
ByLayer
370
13
48
1
60
0
100
AcDbLine
10
-81.220478
20
-50
30
0
11
-81.220478
21
50
31
0
39
0
210
0
220
0
230
1
0
LINE
5
224
100
AcDbEntity
8
SK2
62
256
6
ByLayer
370
13
48
1
60
0
100
AcDbLine
10
-81.220478
20
-50
30
0
11
-81.749459
21
-47.000002
31
0
39
0
210
0
220
0
230
1
0
LINE
5
225
100
AcDbEntity
8
SK2
62
256
6
ByLayer
370
13
48
1
60
0
100
AcDbLine
10
-81.220478
20
-50
30
0
11
-80.691497
21
-46.999998
31
0
39
0
210
0
220
0
230
1
0
LINE
5
226
100
AcDbEntity
8
SK2
62
256
6
ByLayer
370
13
48
1
60
0
100
AcDbLine
10
-81.749459
20
-47.000002
30
0
11
-80.691497
21
-46.999998
31
0
39
0
210
0
220
0
230
1
0
LINE
5
227
100
AcDbEntity
8
SK2
62
256
6
ByLayer
370
13
48
1
60
0
100
AcDbLine
10
-81.220478
20
50
30
0
11
-80.691497
21
47.000002
31
0
39
0
210
0
220
0
230
1
0
LINE
5
228
100
AcDbEntity
8
SK2
62
256
6
ByLayer
370
13
48
1
60
0
100
AcDbLine
10
-81.220478
20
50
30
0
11
-81.749459
21
46.999998
31
0
39
0
210
0
220
0
230
1
0
LINE
5
229
100
AcDbEntity
8
SK2
62
256
6
ByLayer
370
13
48
1
60
0
100
AcDbLine
10
-80.691497
20
47.000002
30
0
11
-81.749459
21
46.999998
31
0
39
0
210
0
220
0
230
1
0
ENDBLK
5
22B
100
AcDbEntity
8
0
100
AcDbBlockEnd
0
BLOCK
5
238
100
AcDbEntity
8
0
100
AcDbBlockBegin
2
DimnDraft3D5
70
0
10
0
20
0
30
0
3
DimnDraft3D5
0
MTEXT
5
22E
100
AcDbEntity
8
SK2
62
256
6
ByLayer
370
18
48
1
60
0
100
AcDbMText
10
-66.606954
20
-3.323684
30
0
210
0
220
0
230
1
1
\W0.7884;%%c 75
40
3
41
0
44
1.084337
50
90
71
7
72
5
7
iso_b_vert
0
LINE
5
22F
100
AcDbEntity
8
SK2
62
256
6
ByLayer
370
13
48
1
60
0
100
AcDbLine
10
-11.499987
20
-37.5
30
0
11
-68.856954
21
-37.5
31
0
39
0
210
0
220
0
230
1
0
LINE
5
230
100
AcDbEntity
8
SK2
62
256
6
ByLayer
370
13
48
1
60
0
100
AcDbLine
10
-11.499987
20
37.5
30
0
11
-68.856954
21
37.5
31
0
39
0
210
0
220
0
230
1
0
LINE
5
231
100
AcDbEntity
8
SK2
62
256
6
ByLayer
370
13
48
1
60
0
100
AcDbLine
10
-65.856954
20
-37.5
30
0
11
-65.856954
21
37.5
31
0
39
0
210
0
220
0
230
1
0
LINE
5
232
100
AcDbEntity
8
SK2
62
256
6
ByLayer
370
13
48
1
60
0
100
AcDbLine
10
-65.856954
20
-37.5
30
0
11
-66.385934
21
-34.500002
31
0
39
0
210
0
220
0
230
1
0
LINE
5
233
100
AcDbEntity
8
SK2
62
256
6
ByLayer
370
13
48
1
60
0
100
AcDbLine
10
-65.856954
20
-37.5
30
0
11
-65.327973
21
-34.499998
31
0
39
0
210
0
220
0
230
1
0
LINE
5
234
100
AcDbEntity
8
SK2
62
256
6
ByLayer
370
13
48
1
60
0
100
AcDbLine
10
-66.385934
20
-34.500002
30
0
11
-65.327973
21
-34.499998
31
0
39
0
210
0
220
0
230
1
0
LINE
5
235
100
AcDbEntity
8
SK2
62
256
6
ByLayer
370
13
48
1
60
0
100
AcDbLine
10
-65.856954
20
37.5
30
0
11
-65.327973
21
34.500002
31
0
39
0
210
0
220
0
230
1
0
LINE
5
236
100
AcDbEntity
8
SK2
62
256
6
ByLayer
370
13
48
1
60
0
100
AcDbLine
10
-65.856954
20
37.5
30
0
11
-66.385934
21
34.499998
31
0
39
0
210
0
220
0
230
1
0
LINE
5
237
100
AcDbEntity
8
SK2
62
256
6
ByLayer
370
13
48
1
60
0
100
AcDbLine
10
-65.327973
20
34.500002
30
0
11
-66.385934
21
34.499998
31
0
39
0
210
0
220
0
230
1
0
ENDBLK
5
239
100
AcDbEntity
8
0
100
AcDbBlockEnd
0
BLOCK
5
246
100
AcDbEntity
8
0
100
AcDbBlockBegin
2
DimnDraft3D6
70
0
10
0
20
0
30
0
3
DimnDraft3D6
0
MTEXT
5
23C
100
AcDbEntity
8
SK2
62
256
6
ByLayer
370
18
48
1
60
0
100
AcDbMText
10
21.146013
20
85.906914
30
0
210
0
220
0
230
1
1
\W0.7183;45
40
3.50012
41
0
44
1.084337
50
0
71
7
72
5
7
iso_b_vert
0
LINE
5
23D
100
AcDbEntity
8
SK2
62
256
6
ByLayer
370
13
48
1
60
0
100
AcDbLine
10
1.3E-05
20
50.852471
30
0
11
1.3E-05
21
88.206884
31
0
39
0
210
0
220
0
230
1
0
LINE
5
23E
100
AcDbEntity
8
SK2
62
256
6
ByLayer
370
13
48
1
60
0
100
AcDbLine
10
45
20
45.3375
30
0
11
45
21
88.206884
31
0
39
0
210
0
220
0
230
1
0
LINE
5
23F
100
AcDbEntity
8
SK2
62
256
6
ByLayer
370
13
48
1
60
0
100
AcDbLine
10
1.3E-05
20
85.031884
30
0
11
45
21
85.031884
31
0
39
0
210
0
220
0
230
1
0
LINE
5
240
100
AcDbEntity
8
SK2
62
256
6
ByLayer
370
13
48
1
60
0
100
AcDbLine
10
1.3E-05
20
85.031884
30
0
11
3.175012
21
85.449881
31
0
39
0
210
0
220
0
230
1
0
LINE
5
241
100
AcDbEntity
8
SK2
62
256
6
ByLayer
370
13
48
1
60
0
100
AcDbLine
10
1.3E-05
20
85.031884
30
0
11
3.175015
21
84.613887
31
0
39
0
210
0
220
0
230
1
0
LINE
5
242
100
AcDbEntity
8
SK2
62
256
6
ByLayer
370
13
48
1
60
0
100
AcDbLine
10
3.175012
20
85.449881
30
0
11
3.175015
21
84.613887
31
0
39
0
210
0
220
0
230
1
0
LINE
5
243
100
AcDbEntity
8
SK2
62
256
6
ByLayer
370
13
48
1
60
0
100
AcDbLine
10
45
20
85.031884
30
0
11
41.825002
21
84.613887
31
0
39
0
210
0
220
0
230
1
0
LINE
5
244
100
AcDbEntity
8
SK2
62
256
6
ByLayer
370
13
48
1
60
0
100
AcDbLine
10
45
20
85.031884
30
0
11
41.824998
21
85.449881
31
0
39
0
210
0
220
0
230
1
0
LINE
5
245
100
AcDbEntity
8
SK2
62
256
6
ByLayer
370
13
48
1
60
0
100
AcDbLine
10
41.825002
20
84.613887
30
0
11
41.824998
21
85.449881
31
0
39
0
210
0
220
0
230
1
0
ENDBLK
5
247
100
AcDbEntity
8
0
100
AcDbBlockEnd
0
BLOCK
5
254
100
AcDbEntity
8
0
100
AcDbBlockBegin
2
DimnDraft3D7
70
0
10
0
20
0
30
0
3
DimnDraft3D7
0
MTEXT
5
24A
100
AcDbEntity
8
SK2
62
256
6
ByLayer
370
18
48
1
60
0
100
AcDbMText
10
111.714211
20
23.046618
30
0
210
0
220
0
230
1
1
\W0.6367;51.5
40
3.50012
41
0
44
1.084337
50
90
71
7
72
5
7
iso_b_vert
0
LINE
5
24B
100
AcDbEntity
8
SK2
62
256
6
ByLayer
370
13
48
1
60
0
100
AcDbLine
10
95.924595
20
0
30
0
11
115.764241
21
0
31
0
39
0
210
0
220
0
230
1
0
LINE
5
24C
100
AcDbEntity
8
SK2
62
256
6
ByLayer
370
13
48
1
60
0
100
AcDbLine
10
71.5875
20
51.5
30
0
11
115.764241
21
51.5
31
0
39
0
210
0
220
0
230
1
0
LINE
5
24D
100
AcDbEntity
8
SK2
62
256
6
ByLayer
370
13
48
1
60
0
100
AcDbLine
10
112.589241
20
0
30
0
11
112.589241
21
51.5
31
0
39
0
210
0
220
0
230
1
0
LINE
5
24E
100
AcDbEntity
8
SK2
62
256
6
ByLayer
370
13
48
1
60
0
100
AcDbLine
10
112.589241
20
0
30
0
11
112.171244
21
3.174998
31
0
39
0
210
0
220
0
230
1
0
LINE
5
24F
100
AcDbEntity
8
SK2
62
256
6
ByLayer
370
13
48
1
60
0
100
AcDbLine
10
112.589241
20
0
30
0
11
113.007238
21
3.175002
31
0
39
0
210
0
220
0
230
1
0
LINE
5
250
100
AcDbEntity
8
SK2
62
256
6
ByLayer
370
13
48
1
60
0
100
AcDbLine
10
112.171244
20
3.174998
30
0
11
113.007238
21
3.175002
31
0
39
0
210
0
220
0
230
1
0
LINE
5
251
100
AcDbEntity
8
SK2
62
256
6
ByLayer
370
13
48
1
60
0
100
AcDbLine
10
112.589241
20
51.5
30
0
11
113.007238
21
48.325002
31
0
39
0
210
0
220
0
230
1
0
LINE
5
252
100
AcDbEntity
8
SK2
62
256
6
ByLayer
370
13
48
1
60
0
100
AcDbLine
10
112.589241
20
51.5
30
0
11
112.171244
21
48.324998
31
0
39
0
210
0
220
0
230
1
0
LINE
5
253
100
AcDbEntity
8
SK2
62
256
6
ByLayer
370
13
48
1
60
0
100
AcDbLine
10
113.007238
20
48.325002
30
0
11
112.171244
21
48.324998
31
0
39
0
210
0
220
0
230
1
0
ENDBLK
5
255
100
AcDbEntity
8
0
100
AcDbBlockEnd
0
BLOCK
5
262
100
AcDbEntity
8
0
100
AcDbBlockBegin
2
DimnDraft3D8
70
0
10
0
20
0
30
0
3
DimnDraft3D8
0
MTEXT
5
258
100
AcDbEntity
8
SK2
62
256
6
ByLayer
370
18
48
1
60
0
100
AcDbMText
10
75.125453
20
85.935343
30
0
210
0
220
0
230
1
1
\W0.7183;40
40
3.50012
41
0
44
1.084337
50
0
71
7
72
5
7
iso_b_vert
0
LINE
5
259
100
AcDbEntity
8
SK2
62
256
6
ByLayer
370
13
48
1
60
0
100
AcDbLine
10
50
20
52.5875
30
0
11
50
21
88.235313
31
0
39
0
210
0
220
0
230
1
0
LINE
5
25A
100
AcDbEntity
8
SK2
62
256
6
ByLayer
370
13
48
1
60
0
100
AcDbLine
10
90
20
52.5875
30
0
11
90
21
88.235313
31
0
39
0
210
0
220
0
230
1
0
LINE
5
25B
100
AcDbEntity
8
SK2
62
256
6
ByLayer
370
13
48
1
60
0
100
AcDbLine
10
50
20
85.060313
30
0
11
90
21
85.060313
31
0
39
0
210
0
220
0
230
1
0
LINE
5
25C
100
AcDbEntity
8
SK2
62
256
6
ByLayer
370
13
48
1
60
0
100
AcDbLine
10
50
20
85.060313
30
0
11
53.174998
21
85.47831
31
0
39
0
210
0
220
0
230
1
0
LINE
5
25D
100
AcDbEntity
8
SK2
62
256
6
ByLayer
370
13
48
1
60
0
100
AcDbLine
10
50
20
85.060313
30
0
11
53.175002
21
84.642317
31
0
39
0
210
0
220
0
230
1
0
LINE
5
25E
100
AcDbEntity
8
SK2
62
256
6
ByLayer
370
13
48
1
60
0
100
AcDbLine
10
53.174998
20
85.47831
30
0
11
53.175002
21
84.642317
31
0
39
0
210
0
220
0
230
1
0
LINE
5
25F
100
AcDbEntity
8
SK2
62
256
6
ByLayer
370
13
48
1
60
0
100
AcDbLine
10
90
20
85.060313
30
0
11
86.825002
21
84.642317
31
0
39
0
210
0
220
0
230
1
0
LINE
5
260
100
AcDbEntity
8
SK2
62
256
6
ByLayer
370
13
48
1
60
0
100
AcDbLine
10
90
20
85.060313
30
0
11
86.824998
21
85.47831
31
0
39
0
210
0
220
0
230
1
0
LINE
5
261
100
AcDbEntity
8
SK2
62
256
6
ByLayer
370
13
48
1
60
0
100
AcDbLine
10
86.825002
20
84.642317
30
0
11
86.824998
21
85.47831
31
0
39
0
210
0
220
0
230
1
0
ENDBLK
5
263
100
AcDbEntity
8
0
100
AcDbBlockEnd
0
ENDSEC
0
SECTION
2
ENTITIES
0
ARC
5
144
100
AcDbEntity
8
1
62
256
6
ByLayer
370
18
48
1
60
0
100
AcDbCircle
39
0
10
-74.5
20
51.159481
30
0
40
0.154500000000086
210
0
220
0
230
-1
100
AcDbArc
50
210
51
330
0
ARC
5
145
100
AcDbEntity
8
1
62
256
6
ByLayer
370
18
48
1
60
0
100
AcDbCircle
39
0
10
-73
20
51.159481
30
0
40
0.154500000000067
210
0
220
0
230
-1
100
AcDbArc
50
210
51
330
0
ARC
5
146
100
AcDbEntity
8
1
62
256
6
ByLayer
370
18
48
1
60
0
100
AcDbCircle
39
0
10
-71.5
20
51.159481
30
0
40
0.154500000000036
210
0
220
0
230
-1
100
AcDbArc
50
210
51
330
0
ARC
5
147
100
AcDbEntity
8
1
62
256
6
ByLayer
370
18
48
1
60
0
100
AcDbCircle
39
0
10
-70
20
51.159481
30
0
40
0.154500000000036
210
0
220
0
230
-1
100
AcDbArc
50
210
51
330
0
ARC
5
148
100
AcDbEntity
8
1
62
256
6
ByLayer
370
18
48
1
60
0
100
AcDbCircle
39
0
10
-68.5
20
51.159481
30
0
40
0.1545
210
0
220
0
230
-1
100
AcDbArc
50
210
51
330
0
ARC
5
149
100
AcDbEntity
8
1
62
256
6
ByLayer
370
18
48
1
60
0
100
AcDbCircle
39
0
10
-67
20
51.159481
30
0
40
0.154499999999976
210
0
220
0
230
-1
100
AcDbArc
50
210
51
330
0
ARC
5
14A
100
AcDbEntity
8
1
62
256
6
ByLayer
370
18
48
1
60
0
100
AcDbCircle
39
0
10
-65.5
20
51.159481
30
0
40
0.154499999999976
210
0
220
0
230
-1
100
AcDbArc
50
210
51
330
0
ARC
5
14B
100
AcDbEntity
8
1
62
256
6
ByLayer
370
18
48
1
60
0
100
AcDbCircle
39
0
10
-68.632708
20
65.225019
30
0
40
0.5
210
0
220
0
230
-1
100
AcDbArc
50
90
51
180
0
ARC
5
14C
100
AcDbEntity
8
1
62
256
6
ByLayer
370
18
48
1
60
0
100
AcDbCircle
39
0
10
-56.632708
20
65.225019
30
0
40
0.5
210
0
220
0
230
-1
100
AcDbArc
50
0
51
90
0
ARC
5
14D
100
AcDbEntity
8
1
62
256
6
ByLayer
370
18
48
1
60
0
100
AcDbCircle
39
0
10
-83.367292
20
65.225019
30
0
40
0.5
210
0
220
0
230
-1
100
AcDbArc
50
90
51
180
0
ARC
5
14E
100
AcDbEntity
8
1
62
256
6
ByLayer
370
18
48
1
60
0
100
AcDbCircle
39
0
10
-71.367292
20
65.225019
30
0
40
0.5
210
0
220
0
230
-1
100
AcDbArc
50
0
51
90
0
ARC
5
14F
100
AcDbEntity
8
1
62
256
6
ByLayer
370
18
48
1
60
0
100
AcDbCircle
39
0
10
-45
20
44.95
30
0
40
1.2
210
0
220
0
230
-1
100
AcDbArc
50
195
51
270
0
ARC
5
151
100
AcDbEntity
8
1
62
256
6
ByLayer
370
18
48
1
60
0
100
AcDbCircle
39
0
10
30.000013
20
44.75
30
0
40
1
210
0
220
0
230
1
100
AcDbArc
50
180
51
270
0
ARC
5
152
100
AcDbEntity
8
1
62
256
6
ByLayer
370
18
48
1
60
0
100
AcDbCircle
39
0
10
30.000013
20
-44.75
30
0
40
1
210
0
220
0
230
1
100
AcDbArc
50
90
51
180
0
ARC
5
153
100
AcDbEntity
8
SK1
62
256
6
ByLayer
370
18
48
1
60
0
100
AcDbCircle
39
0
10
-47.999987
20
33.597502
30
0
40
2
210
0
220
0
230
1
100
AcDbArc
50
92.862405
51
180
0
ARC
5
154
100
AcDbEntity
8
SK1
62
256
6
ByLayer
370
18
48
1
60
0
100
AcDbCircle
39
0
10
-47.999987
20
-33.597502
30
0
40
2
210
0
220
0
230
1
100
AcDbArc
50
180
51
267.137595
0
ARC
5
155
100
AcDbEntity
8
1
62
256
6
ByLayer
370
18
48
1
60
0
100
AcDbCircle
39
0
10
-21.515062
20
46.375019
30
0
40
0.4
210
0
220
0
230
-1
100
AcDbArc
50
180
51
270
0
ARC
5
156
100
AcDbEntity
8
1
62
256
6
ByLayer
370
18
48
1
60
0
100
AcDbCircle
39
0
10
-18.485062
20
46.375019
30
0
40
0.4
210
0
220
0
230
-1
100
AcDbArc
50
270
51
0
0
ARC
5
157
100
AcDbEntity
8
SK1
62
256
6
ByLayer
370
18
48
1
60
0
100
AcDbCircle
39
0
10
-0.874846
20
-38.681918
30
0
40
1
210
0
220
0
230
1
100
AcDbArc
50
28.971593
51
90
0
ARC
5
158
100
AcDbEntity
8
1
62
256
6
ByLayer
370
18
48
1
60
0
100
AcDbCircle
39
0
10
18.485062
20
-46.375019
30
0
40
0.4
210
0
220
0
230
1
100
AcDbArc
50
90
51
180
0
ARC
5
159
100
AcDbEntity
8
1
62
256
6
ByLayer
370
18
48
1
60
0
100
AcDbCircle
39
0
10
21.515062
20
-46.375019
30
0
40
0.4
210
0
220
0
230
1
100
AcDbArc
50
0
51
90
0
ARC
5
15A
100
AcDbEntity
8
SK1
62
256
6
ByLayer
370
18
48
1
60
0
100
AcDbCircle
39
0
10
0.874846
20
38.681918
30
0
40
1
210
0
220
0
230
-1
100
AcDbArc
50
208.971593
51
270
0
ARC
5
15B
100
AcDbEntity
8
1
62
256
6
ByLayer
370
18
48
1
60
0
100
AcDbCircle
39
0
10
-14.646813
20
41.350019
30
0
40
10
210
0
220
0
230
-1
100
AcDbArc
50
270
51
345.853765
0
CIRCLE
5
150
100
AcDbEntity
8
1
62
256
6
ByLayer
370
18
48
1
60
0
100
AcDbCircle
10
1.3E-05
20
0
30
0
40
0.001
39
0
210
0
220
0
230
1
0
POINT
5
6C
100
AcDbEntity
8
80
62
256
6
ByLayer
370
18
48
1
60
0
100
AcDbPoint
10
0
20
0
30
0
39
0
210
0
220
0
230
1
50
360
0
POINT
5
6E
100
AcDbEntity
8
81
62
256
6
ByLayer
370
18
48
1
60
0
100
AcDbPoint
10
70
20
51.5
30
0
39
0
210
0
220
0
230
1
50
360
0
SPLINE
5
15C
100
AcDbEntity
8
1
62
256
6
ByLayer
370
18
48
1
60
0
100
AcDbSpline
70
4
71
3
72
10
73
6
40
0
40
0
40
0
40
0
40
0.500719913220808
40
0.500719913220808
40
1
40
1
40
1
40
1
41
1
10
50.2538502579761
20
50.8
30
0
41
1
10
50.1144698426527
20
50.8
30
0
41
1
10
50.0075690375965
20
50.8
30
0
41
1
10
49.8645895967119
20
50.8
30
0
41
1
10
49.8283440233365
20
50.8
30
0
41
1
10
49.8282212579753
20
50.8
30
0
0
SPLINE
5
15D
100
AcDbEntity
8
1
62
256
6
ByLayer
370
18
48
1
60
0
100
AcDbSpline
70
4
71
3
72
18
73
14
40
0
40
0
40
0
40
0
40
0.25
40
0.25
40
0.5
40
0.5
40
0.75
40
0.75
40
0.875
40
0.875
40
0.9375
40
0.9375
40
1
40
1
40
1
40
1
41
1
10
60.3475990982501
20
50.8
30
0
41
1
10
59.2797629652579
20
50.8
30
0
41
1
10
58.2491766816636
20
50.8
30
0
41
1
10
56.2860595107446
20
50.8
30
0
41
1
10
55.3534275795696
20
50.8
30
0
41
1
10
53.6186799447871
20
50.8
30
0
41
1
10
52.8164450320221
20
50.8
30
0
41
1
10
51.7446341757631
20
50.8
30
0
41
1
10
51.4093966039538
20
50.8
30
0
41
1
10
50.9449012613642
20
50.8
30
0
41
1
10
50.7963703528378
20
50.8
30
0
41
1
10
50.5135261056078
20
50.8
30
0
41
1
10
50.3797197275871
20
50.8
30
0
41
1
10
50.2538502579761
20
50.8
30
0
0
SPLINE
5
15E
100
AcDbEntity
8
1
62
256
6
ByLayer
370
18
48
1
60
0
100
AcDbSpline
70
4
71
3
72
18
73
14
40
0
40
0
40
0
40
0
40
0.250000000000022
40
0.250000000000022
40
0.500000000000043
40
0.500000000000043
40
0.625000000000032
40
0.625000000000032
40
0.750000000000022
40
0.750000000000022
40
0.875000000000011
40
0.875000000000011
40
1
40
1
40
1
40
1
41
1
10
80.5868035654749
20
51.0316709670316
30
0
41
1
10
80.576091567458
20
51.0243957947777
30
0
41
1
10
80.5640333043651
20
51.018094773164
30
0
41
1
10
80.5359606052537
20
51.0084936989074
30
0
41
1
10
80.5202925891572
20
51.0051822495456
30
0
41
1
10
80.4922466006955
20
51.004892650016
30
0
41
1
10
80.4820725684837
20
51.0056008426193
30
0
41
1
10
80.4596584251618
20
51.0099047568295
30
0
41
1
10
80.4473745522523
20
51.0134658178229
30
0
41
1
10
80.4205788547402
20
51.0261312661268
30
0
41
1
10
80.4060622068612
20
51.035700961687
30
0
41
1
10
80.3819118131835
20
51.0584810762791
30
0
41
1
10
80.3728215811865
20
51.070760430173
30
0
41
1
10
80.3661990751153
20
51.0822309471617
30
0
0
SPLINE
5
15F
100
AcDbEntity
8
1
62
256
6
ByLayer
370
18
48
1
60
0
100
AcDbSpline
70
4
71
3
72
8
73
4
40
0
40
0
40
0
40
0
40
1
40
1
40
1
40
1
41
1
10
79.9802537178639
20
51.7507079148663
30
0
41
1
10
80.1076188680564
20
51.5301050036192
30
0
41
1
10
80.236480046118
20
51.3069108960934
30
0
41
1
10
80.3661990751152
20
51.0822309471617
30
0
0
SPLINE
5
160
100
AcDbEntity
8
1
62
256
6
ByLayer
370
18
48
1
60
0
100
AcDbSpline
70
4
71
3
72
12
73
8
40
0
40
0
40
0
40
0
40
0.25
40
0.25
40
0.5
40
0.5
40
1
40
1
40
1
40
1
41
1
10
79.9452353838243
20
51.7922205393032
30
0
41
1
10
79.9366656844
20
51.7991947105641
30
0
41
1
10
79.9273540223104
20
51.8050514193374
30
0
41
1
10
79.90998044683
20
51.8137873543919
30
0
41
1
10
79.9018279654197
20
51.8168356121938
30
0
41
1
10
79.8787299906524
20
51.8236028679144
30
0
41
1
10
79.8654197300611
20
51.8249809471617
30
0
41
1
10
79.8530790233729
20
51.8249809471617
30
0
0
SPLINE
5
161
100
AcDbEntity
8
1
62
256
6
ByLayer
370
18
48
1
60
0
100
AcDbSpline
70
4
71
3
72
10
73
6
40
0
40
0
40
0
40
0
40
0.5
40
0.5
40
1
40
1
40
1
40
1
41
1
10
79.6469209766269
20
51.8249809471617
30
0
41
1
10
79.6151456399559
20
51.8249809471617
30
0
41
1
10
79.5903786279505
20
51.8157668775136
30
0
41
1
10
79.5490927531452
20
51.7900532957751
30
0
41
1
10
79.5325898131689
20
51.7729535631639
30
0
41
1
10
79.5204812676744
20
51.7519809471617
30
0
0
SPLINE
5
162
100
AcDbEntity
8
1
62
256
6
ByLayer
370
18
48
1
60
0
100
AcDbSpline
70
4
71
3
72
8
73
4
40
0
40
0
40
0
40
0
40
1
40
1
40
1
40
1
41
1
10
79.1338009248847
20
51.0822309471618
30
0
41
1
10
79.2740438648729
20
51.3251388446242
30
0
41
1
10
79.4044665117314
20
51.5510374954407
30
0
41
1
10
79.5204812676745
20
51.7519809471618
30
0
0
SPLINE
5
163
100
AcDbEntity
8
1
62
256
6
ByLayer
370
18
48
1
60
0
100
AcDbSpline
70
4
71
3
72
18
73
14
40
0
40
0
40
0
40
0
40
0.249999999999999
40
0.249999999999999
40
0.499999999999999
40
0.499999999999999
40
0.624999999999999
40
0.624999999999999
40
0.749999999999999
40
0.749999999999999
40
0.875
40
0.875
40
1
40
1
40
1
40
1
41
1
10
79.1338009248847
20
51.0822309471617
30
0
41
1
10
79.1237857639756
20
51.0648841796212
30
0
41
1
10
79.1106658186451
20
51.0496120212695
30
0
41
1
10
79.0770454803465
20
51.0239003502782
30
0
41
1
10
79.0563771709338
20
51.0132951957625
30
0
41
1
10
79.0180948057918
20
51.005492537429
30
0
41
1
10
79.0043846282921
20
51.0042907382098
30
0
41
1
10
78.9739327792735
20
51.006432830795
30
0
41
1
10
78.9570804558869
20
51.0100181815203
30
0
41
1
10
78.9245050202636
20
51.0235334807836
30
0
41
1
10
78.9088650794859
20
51.0335298816005
30
0
41
1
10
78.883276087477
20
51.0567932025257
30
0
41
1
10
78.8735632599785
20
51.0694758048222
30
0
41
1
10
78.866199075115
20
51.0822309471622
30
0
0
SPLINE
5
164
100
AcDbEntity
8
1
62
256
6
ByLayer
370
18
48
1
60
0
100
AcDbSpline
70
4
71
3
72
8
73
4
40
0
40
0
40
0
40
0
40
1
40
1
40
1
40
1
41
1
10
78.4795187323254
20
51.7519809471617
30
0
41
1
10
78.6084101856926
20
51.5287344012684
30
0
41
1
10
78.7373038558049
20
51.3054840158599
30
0
41
1
10
78.8661990751149
20
51.0822309471622
30
0
0
SPLINE
5
165
100
AcDbEntity
8
1
62
256
6
ByLayer
370
18
48
1
60
0
100
AcDbSpline
70
4
71
3
72
10
73
6
40
0
40
0
40
0
40
0
40
0.5
40
0.5
40
1
40
1
40
1
40
1
41
1
10
78.4795187323288
20
51.7519809471619
30
0
41
1
10
78.4684008150637
20
51.77123774474
30
0
41
1
10
78.4505121644747
20
51.7911530760992
30
0
41
1
10
78.4029072825921
20
51.818955759462
30
0
41
1
10
78.3759480905102
20
51.8249809471665
30
0
41
1
10
78.3530790233705
20
51.8249809471661
30
0
0
SPLINE
5
166
100
AcDbEntity
8
1
62
256
6
ByLayer
370
18
48
1
60
0
100
AcDbSpline
70
4
71
3
72
12
73
8
40
0
40
0
40
0
40
0
40
0.249999999999974
40
0.249999999999974
40
0.499999999999948
40
0.499999999999948
40
1
40
1
40
1
40
1
41
1
10
78.1469209766222
20
51.8249809471695
30
0
41
1
10
78.131170780972
20
51.8249809471691
30
0
41
1
10
78.1166764162104
20
51.8224676968484
30
0
41
1
10
78.0905452688845
20
51.8143506644067
30
0
41
1
10
78.078984420517
20
51.8088037617637
30
0
41
1
10
78.0476431929861
20
51.7888594121329
30
0
41
1
10
78.0318413911724
20
51.7716572582407
30
0
41
1
10
78.0204812676743
20
51.7519809471618
30
0
0
SPLINE
5
167
100
AcDbEntity
8
1
62
256
6
ByLayer
370
18
48
1
60
0
100
AcDbSpline
70
4
71
3
72
8
73
4
40
0
40
0
40
0
40
0
40
1
40
1
40
1
40
1
41
1
10
77.6338009248847
20
51.0822309471617
30
0
41
1
10
77.7667211785016
20
51.3124555797812
30
0
41
1
10
77.8960950799241
20
51.5365377502184
30
0
41
1
10
78.0204812676744
20
51.7519809471617
30
0
0
SPLINE
5
168
100
AcDbEntity
8
1
62
256
6
ByLayer
370
18
48
1
60
0
100
AcDbSpline
70
4
71
3
72
16
73
12
40
0
40
0
40
0
40
0
40
0.249999999999997
40
0.249999999999997
40
0.499999999999994
40
0.499999999999994
40
0.624999999999996
40
0.624999999999996
40
0.749999999999997
40
0.749999999999997
40
1
40
1
40
1
40
1
41
1
10
77.6338009248847
20
51.0822309471617
30
0
41
1
10
77.6231605143146
20
51.0638012154408
30
0
41
1
10
77.6088956281191
20
51.0473406989212
30
0
41
1
10
77.5702101029744
20
51.0198233854645
30
0
41
1
10
77.5461739598997
20
51.0092202625302
30
0
41
1
10
77.5029740968636
20
51.0043312799765
30
0
41
1
10
77.4874592086782
20
51.004662022433
30
0
41
1
10
77.4560042543826
20
51.0105160342839
30
0
41
1
10
77.4406351641988
20
51.0159809639555
30
0
41
1
10
77.3991804393648
20
51.0382770617748
30
0
41
1
10
77.3790507982687
20
51.0599711096951
30
0
41
1
10
77.3661990751152
20
51.0822309471619
30
0
0
SPLINE
5
169
100
AcDbEntity
8
1
62
256
6
ByLayer
370
18
48
1
60
0
100
AcDbSpline
70
4
71
3
72
8
73
4
40
0
40
0
40
0
40
0
40
1
40
1
40
1
40
1
41
1
10
76.9795187323254
20
51.7519809471617
30
0
41
1
10
77.108091916689
20
51.5292856593531
30
0
41
1
10
77.2370171342392
20
51.3059806321794
30
0
41
1
10
77.3661990751151
20
51.0822309471618
30
0
0
SPLINE
5
16A
100
AcDbEntity
8
1
62
256
6
ByLayer
370
18
48
1
60
0
100
AcDbSpline
70
4
71
3
72
10
73
6
40
0
40
0
40
0
40
0
40
0.5
40
0.5
40
1
40
1
40
1
40
1
41
1
10
76.9795187323258
20
51.7519809471619
30
0
41
1
10
76.9686761779066
20
51.7707608022998
30
0
41
1
10
76.9524534526721
20
51.7891215419648
30
0
41
1
10
76.9078241221139
20
51.8168548097533
30
0
41
1
10
76.8796834824865
20
51.8249809471629
30
0
41
1
10
76.8530790233662
20
51.8249809471617
30
0
0
SPLINE
5
16B
100
AcDbEntity
8
1
62
256
6
ByLayer
370
18
48
1
60
0
100
AcDbSpline
70
4
71
3
72
10
73
6
40
0
40
0
40
0
40
0
40
0.5
40
0.5
40
1
40
1
40
1
40
1
41
1
10
76.6469209766269
20
51.8249809471618
30
0
41
1
10
76.6168409221309
20
51.8249809471618
30
0
41
1
10
76.5893526677138
20
51.8154563756182
30
0
41
1
10
76.5472649000368
20
51.7885634236903
30
0
41
1
10
76.5314655147944
20
51.7710062212619
30
0
41
1
10
76.520481267666
20
51.7519809471476
30
0
0
SPLINE
5
16C
100
AcDbEntity
8
1
62
256
6
ByLayer
370
18
48
1
60
0
100
AcDbSpline
70
4
71
3
72
8
73
4
40
0
40
0
40
0
40
0
40
1
40
1
40
1
40
1
41
1
10
76.1338009248847
20
51.0822309471617
30
0
41
1
10
76.2643805493722
20
51.3084014912074
30
0
41
1
10
76.3934605636454
20
51.5319746341704
30
0
41
1
10
76.5204812676665
20
51.751980947148
30
0
0
SPLINE
5
16D
100
AcDbEntity
8
1
62
256
6
ByLayer
370
18
48
1
60
0
100
AcDbSpline
70
4
71
3
72
18
73
14
40
0
40
0
40
0
40
0
40
0.24999999999996
40
0.24999999999996
40
0.374999999999975
40
0.374999999999975
40
0.49999999999999
40
0.49999999999999
40
0.625000000000005
40
0.625000000000005
40
0.75000000000002
40
0.75000000000002
40
1
40
1
40
1
40
1
41
1
10
76.1338009248847
20
51.0822309471617
30
0
41
1
10
76.1225174479226
20
51.0626873917773
30
0
41
1
10
76.1064536805107
20
51.044542303184
30
0
41
1
10
76.0739189816784
20
51.0231926822919
30
0
41
1
10
76.0614822650531
20
51.0170248718991
30
0
41
1
10
76.0343550392615
20
51.0081748548435
30
0
41
1
10
76.0192992300664
20
51.0054426855066
30
0
41
1
10
75.988978856288
20
51.0046301133694
30
0
41
1
10
75.9732805835153
20
51.0065664759242
30
0
41
1
10
75.9442711852368
20
51.0145980222318
30
0
41
1
10
75.9307651088542
20
51.0206576171875
30
0
41
1
10
75.8950994226715
20
51.0426619963678
30
0
41
1
10
75.8779954501169
20
51.0617990263137
30
0
41
1
10
75.8661990751152
20
51.0822309471618
30
0
0
SPLINE
5
16E
100
AcDbEntity
8
1
62
256
6
ByLayer
370
18
48
1
60
0
100
AcDbSpline
70
4
71
3
72
8
73
4
40
0
40
0
40
0
40
0
40
1
40
1
40
1
40
1
41
1
10
75.5521678957214
20
51.6261489050326
30
0
41
1
10
75.6561633085843
20
51.4460235661999
30
0
41
1
10
75.7608943427437
20
51.2646240939065
30
0
41
1
10
75.8661990751152
20
51.0822309471618
30
0
0
SPLINE
5
16F
100
AcDbEntity
8
1
62
256
6
ByLayer
370
18
48
1
60
0
100
AcDbSpline
70
4
71
3
72
18
73
14
40
0
40
0
40
0
40
0
40
0.125000000000011
40
0.125000000000011
40
0.250000000000021
40
0.250000000000021
40
0.375000000000032
40
0.375000000000032
40
0.500000000000043
40
0.500000000000043
40
0.750000000000022
40
0.750000000000022
40
1
40
1
40
1
40
1
41
1
10
59.6338009248894
20
51.0822309471678
30
0
41
1
10
59.6272005673434
20
51.0707987925488
30
0
41
1
10
59.6180760507355
20
51.0584576577871
30
0
41
1
10
59.5938320896408
20
51.0356132850904
30
0
41
1
10
59.5791528387738
20
51.0259804121513
30
0
41
1
10
59.5524785916959
20
51.0134208152036
30
0
41
1
10
59.5401102453376
20
51.0098485629738
30
0
41
1
10
59.5178469194898
20
51.0055973234602
30
0
41
1
10
59.5076535191781
20
51.0048895364394
30
0
41
1
10
59.4797002555172
20
51.0051906594776
30
0
41
1
10
59.4639601819688
20
51.0085174003037
30
0
41
1
10
59.435982411282
20
51.0180927959665
30
0
41
1
10
59.4239230711969
20
51.0243858527728
30
0
41
1
10
59.413196434525
20
51.0316709670317
30
0
0
SPLINE
5
170
100
AcDbEntity
8
1
62
256
6
ByLayer
370
18
48
1
60
0
100
AcDbSpline
70
4
71
3
72
8
73
4
40
0
40
0
40
0
40
0
40
1
40
1
40
1
40
1
41
1
10
64.1338009248847
20
51.0822309471618
30
0
41
1
10
64.2391056572561
20
51.2646240939065
30
0
41
1
10
64.3438366914155
20
51.4460235661999
30
0
41
1
10
64.4478321042784
20
51.6261489050326
30
0
0
SPLINE
5
171
100
AcDbEntity
8
1
62
256
6
ByLayer
370
18
48
1
60
0
100
AcDbSpline
70
4
71
3
72
20
73
16
40
0
40
0
40
0
40
0
40
0.125
40
0.125
40
0.25
40
0.25
40
0.375
40
0.375
40
0.5
40
0.5
40
0.625
40
0.625
40
0.75
40
0.75
40
1
40
1
40
1
40
1
41
1
10
64.1338009248848
20
51.0822309471617
30
0
41
1
10
64.1279392020829
20
51.072078145449
30
0
41
1
10
64.1208368205511
20
51.0623914963902
30
0
41
1
10
64.1035742955588
20
51.0441541768458
30
0
41
1
10
64.0932527446356
20
51.0355223490852
30
0
41
1
10
64.0697357750238
20
51.0209214649853
30
0
41
1
10
64.0562202498923
20
51.0147898667273
30
0
41
1
10
64.0272736497477
20
51.006666113835
30
0
41
1
10
64.0116725604086
20
51.0046621820183
30
0
41
1
10
63.9810315564618
20
51.0053858568546
30
0
41
1
10
63.9660431641788
20
51.0080684510483
30
0
41
1
10
63.938570518104
20
51.0169845281461
30
0
41
1
10
63.926410716186
20
51.0229998390629
30
0
41
1
10
63.8934625338912
20
51.0445508790523
30
0
41
1
10
63.877546959638
20
51.0625758346099
30
0
41
1
10
63.8661990751153
20
51.0822309471618
30
0
0
SPLINE
5
172
100
AcDbEntity
8
1
62
256
6
ByLayer
370
18
48
1
60
0
100
AcDbSpline
70
4
71
3
72
8
73
4
40
0
40
0
40
0
40
0
40
1
40
1
40
1
40
1
41
1
10
63.4795187323314
20
51.7519809471515
30
0
41
1
10
63.6065394363531
20
51.5319746341727
30
0
41
1
10
63.735619450627
20
51.3084014912086
30
0
41
1
10
63.8661990751152
20
51.0822309471618
30
0
0
SPLINE
5
173
100
AcDbEntity
8
1
62
256
6
ByLayer
370
18
48
1
60
0
100
AcDbSpline
70
4
71
3
72
10
73
6
40
0
40
0
40
0
40
0
40
0.5
40
0.5
40
1
40
1
40
1
40
1
41
1
10
63.4795187323321
20
51.7519809471509
30
0
41
1
10
63.4685590167847
20
51.7709637313195
30
0
41
1
10
63.4528005779234
20
51.7885085107252
30
0
41
1
10
63.4106901632002
20
51.815442048542
30
0
41
1
10
63.383284650819
20
51.8249809471617
30
0
41
1
10
63.353079023373
20
51.8249809471617
30
0
0
SPLINE
5
174
100
AcDbEntity
8
1
62
256
6
ByLayer
370
18
48
1
60
0
100
AcDbSpline
70
4
71
3
72
12
73
8
40
0
40
0
40
0
40
0
40
0.250000000000006
40
0.250000000000006
40
0.500000000000013
40
0.500000000000013
40
1
40
1
40
1
40
1
41
1
10
63.1469209766269
20
51.8249809471617
30
0
41
1
10
63.1336907316268
20
51.8249809471617
30
0
41
1
10
63.1198510430658
20
51.8230954460139
30
0
41
1
10
63.0936438123738
20
51.8155946867766
30
0
41
1
10
63.0810197124636
20
51.8099161130841
30
0
41
1
10
63.0476914291358
20
51.7892237432006
30
0
41
1
10
63.0313580604915
20
51.7708201049558
30
0
41
1
10
63.0204812676557
20
51.7519809471299
30
0
0
SPLINE
5
175
100
AcDbEntity
8
1
62
256
6
ByLayer
370
18
48
1
60
0
100
AcDbSpline
70
4
71
3
72
8
73
4
40
0
40
0
40
0
40
0
40
1
40
1
40
1
40
1
41
1
10
62.6338009248847
20
51.0822309471618
30
0
41
1
10
62.7629828657545
20
51.3059806321687
30
0
41
1
10
62.8919080832985
20
51.5292856593317
30
0
41
1
10
63.0204812676559
20
51.7519809471298
30
0
0
SPLINE
5
176
100
AcDbEntity
8
1
62
256
6
ByLayer
370
18
48
1
60
0
100
AcDbSpline
70
4
71
3
72
18
73
14
40
0
40
0
40
0
40
0
40
0.124999999999989
40
0.124999999999989
40
0.249999999999978
40
0.249999999999978
40
0.374999999999967
40
0.374999999999967
40
0.499999999999956
40
0.499999999999956
40
0.749999999999978
40
0.749999999999978
40
1
40
1
40
1
40
1
41
1
10
62.6338009248848
20
51.0822309471617
30
0
41
1
10
62.627410839585
20
51.0711629947577
30
0
41
1
10
62.6194025082615
20
51.0603981917308
30
0
41
1
10
62.5992091826967
20
51.0401834640719
30
0
41
1
10
62.5871255482178
20
51.0309390251825
30
0
41
1
10
62.5596546626119
20
51.0161100711546
30
0
41
1
10
62.5442241382541
20
51.0106042487004
30
0
41
1
10
62.5131642252353
20
51.0047335758657
30
0
41
1
10
62.4975070719535
20
51.0043165144248
30
0
41
1
10
62.4540940084996
20
51.0091122221833
30
0
41
1
10
62.4298841123307
20
51.0198242877989
30
0
41
1
10
62.3916003406749
20
51.0469210339322
30
0
41
1
10
62.3768832251425
20
51.0637254564791
30
0
41
1
10
62.3661990751152
20
51.0822309471618
30
0
0
SPLINE
5
177
100
AcDbEntity
8
1
62
256
6
ByLayer
370
18
48
1
60
0
100
AcDbSpline
70
4
71
3
72
8
73
4
40
0
40
0
40
0
40
0
40
1
40
1
40
1
40
1
41
1
10
61.9795187323255
20
51.7519809471618
30
0
41
1
10
62.1039049200758
20
51.5365377502184
30
0
41
1
10
62.2332788214983
20
51.3124555797812
30
0
41
1
10
62.3661990751152
20
51.0822309471618
30
0
0
SPLINE
5
178
100
AcDbEntity
8
1
62
256
6
ByLayer
370
18
48
1
60
0
100
AcDbSpline
70
4
71
3
72
10
73
6
40
0
40
0
40
0
40
0
40
0.5
40
0.5
40
1
40
1
40
1
40
1
41
1
10
61.9795187323262
20
51.7519809471622
30
0
41
1
10
61.9682145447947
20
51.7715603743049
30
0
41
1
10
61.9523960148863
20
51.7888154669515
30
0
41
1
10
61.9106886059747
20
51.8153943722091
30
0
41
1
10
61.884899221575
20
51.8249809471617
30
0
41
1
10
61.8530790233729
20
51.8249809471617
30
0
0
SPLINE
5
179
100
AcDbEntity
8
1
62
256
6
ByLayer
370
18
48
1
60
0
100
AcDbSpline
70
4
71
3
72
14
73
10
40
0
40
0
40
0
40
0
40
0.25
40
0.25
40
0.5
40
0.5
40
0.75
40
0.75
40
1
40
1
40
1
40
1
41
1
10
61.6469209766271
20
51.8249809471622
30
0
41
1
10
61.6354356378495
20
51.8249809471623
30
0
41
1
10
61.6230746527341
20
51.8235991495389
30
0
41
1
10
61.5980381211308
20
51.8171603163185
30
0
41
1
10
61.5851437188596
20
51.8119655546593
30
0
41
1
10
61.5616221510397
20
51.7982514202972
30
0
41
1
10
61.5508866678229
20
51.7896959734823
30
0
41
1
10
61.5330590299941
20
51.7712623788239
30
0
41
1
10
61.5261041425078
20
51.7617200520575
30
0
41
1
10
61.5204812676753
20
51.7519809471633
30
0
0
SPLINE
5
17A
100
AcDbEntity
8
1
62
256
6
ByLayer
370
18
48
1
60
0
100
AcDbSpline
70
4
71
3
72
8
73
4
40
0
40
0
40
0
40
0
40
1
40
1
40
1
40
1
41
1
10
61.1338009248847
20
51.0822309471618
30
0
41
1
10
61.2626961441951
20
51.3054840158602
30
0
41
1
10
61.3915898143077
20
51.5287344012692
30
0
41
1
10
61.5204812676753
20
51.7519809471632
30
0
0
SPLINE
5
17B
100
AcDbEntity
8
1
62
256
6
ByLayer
370
18
48
1
60
0
100
AcDbSpline
70
4
71
3
72
18
73
14
40
0
40
0
40
0
40
0
40
0.125000000000007
40
0.125000000000007
40
0.250000000000013
40
0.250000000000013
40
0.37500000000002
40
0.37500000000002
40
0.500000000000026
40
0.500000000000026
40
0.750000000000013
40
0.750000000000013
40
1
40
1
40
1
40
1
41
1
10
61.133800924885
20
51.0822309471617
30
0
41
1
10
61.1264946448465
20
51.0695760989206
30
0
41
1
10
61.1166906505355
20
51.0567975377135
30
0
41
1
10
61.0915089185934
20
51.0338357788655
30
0
41
1
10
61.0759249478848
20
51.0237593372677
30
0
41
1
10
61.0431871528085
20
51.0100827445761
30
0
41
1
10
61.0265796939251
20
51.0065221318007
30
0
41
1
10
60.9961580107266
20
51.0042774728313
30
0
41
1
10
60.9820884684341
20
51.0054779057706
30
0
41
1
10
60.9440298560605
20
51.0131674759324
30
0
41
1
10
60.9234520331118
20
51.0236089501773
30
0
41
1
10
60.8896462385557
20
51.0492864004076
30
0
41
1
10
60.8762351374452
20
51.0648479772984
30
0
41
1
10
60.8661990751152
20
51.0822309471618
30
0
0
SPLINE
5
17C
100
AcDbEntity
8
1
62
256
6
ByLayer
370
18
48
1
60
0
100
AcDbSpline
70
4
71
3
72
8
73
4
40
0
40
0
40
0
40
0
40
1
40
1
40
1
40
1
41
1
10
60.4795187323254
20
51.7519809471619
30
0
41
1
10
60.5955334882685
20
51.5510374954408
30
0
41
1
10
60.725956135127
20
51.3251388446242
30
0
41
1
10
60.8661990751152
20
51.0822309471618
30
0
0
SPLINE
5
17D
100
AcDbEntity
8
1
62
256
6
ByLayer
370
18
48
1
60
0
100
AcDbSpline
70
4
71
3
72
12
73
8
40
0
40
0
40
0
40
0
40
0.500000000000016
40
0.500000000000016
40
0.750000000000008
40
0.750000000000008
40
1
40
1
40
1
40
1
41
1
10
60.4795187323255
20
51.7519809471618
30
0
41
1
10
60.4674705318894
20
51.7728490424568
30
0
41
1
10
60.451111135486
20
51.7899169674751
30
0
41
1
10
60.419900962612
20
51.8093692224762
30
0
41
1
10
60.4083177987827
20
51.8147803647762
30
0
41
1
10
60.3828769357523
20
51.8225249771701
30
0
41
1
10
60.3690160209871
20
51.8249809471609
30
0
41
1
10
60.3530790233809
20
51.8249809471617
30
0
0
SPLINE
5
17E
100
AcDbEntity
8
1
62
256
6
ByLayer
370
18
48
1
60
0
100
AcDbSpline
70
4
71
3
72
12
73
8
40
0
40
0
40
0
40
0
40
0.499999999999892
40
0.499999999999892
40
0.749999999999946
40
0.749999999999946
40
1
40
1
40
1
40
1
41
1
10
60.1469209766269
20
51.8249809471617
30
0
41
1
10
60.1346503034202
20
51.8249809471617
30
0
41
1
10
60.1212905137549
20
51.8236086709683
30
0
41
1
10
60.0981643474796
20
51.8168334621711
30
0
41
1
10
60.0899032491091
20
51.8137330317692
30
0
41
1
10
60.0726615740198
20
51.8050550788533
30
0
41
1
10
60.063469126941
20
51.7993044223911
30
0
41
1
10
60.0547646161756
20
51.7922205393032
30
0
0
SPLINE
5
17F
100
AcDbEntity
8
1
62
256
6
ByLayer
370
18
48
1
60
0
100
AcDbSpline
70
4
71
3
72
8
73
4
40
0
40
0
40
0
40
0
40
1
40
1
40
1
40
1
41
1
10
59.6338009248879
20
51.0822309471674
30
0
41
1
10
59.763519953884
20
51.3069108960971
30
0
41
1
10
59.8923811319445
20
51.530105003621
30
0
41
1
10
60.0197462821359
20
51.7507079148663
30
0
0
SPLINE
5
180
100
AcDbEntity
8
1
62
256
6
ByLayer
370
18
48
1
60
0
100
AcDbSpline
70
4
71
3
72
10
73
6
40
0
40
0
40
0
40
0
40
0.5
40
0.5
40
1
40
1
40
1
40
1
41
1
10
70.853079023373
20
51.8249809471617
30
0
41
1
10
70.8837862522323
20
51.8249809471617
30
0
41
1
10
70.9122139242459
20
51.8148023309615
30
0
41
1
10
70.9541316335018
20
51.7872987886502
30
0
41
1
10
70.9690514685456
20
51.7701107798449
30
0
41
1
10
70.9795187323256
20
51.7519809471617
30
0
0
SPLINE
5
181
100
AcDbEntity
8
1
62
256
6
ByLayer
370
18
48
1
60
0
100
AcDbSpline
70
4
71
3
72
10
73
6
40
0
40
0
40
0
40
0
40
0.5
40
0.5
40
1
40
1
40
1
40
1
41
1
10
70.5204812676744
20
51.7519809471617
30
0
41
1
10
70.5309410812166
20
51.7700978756544
30
0
41
1
10
70.5457175310297
20
51.7871737005526
30
0
41
1
10
70.5877253872432
20
51.8147885002822
30
0
41
1
10
70.616218660458
20
51.8249809471617
30
0
41
1
10
70.6469209766269
20
51.8249809471617
30
0
0
SPLINE
5
182
100
AcDbEntity
8
1
62
256
6
ByLayer
370
18
48
1
60
0
100
AcDbSpline
70
4
71
3
72
10
73
6
40
0
40
0
40
0
40
0
40
0.5
40
0.5
40
1
40
1
40
1
40
1
41
1
10
75.353079023373
20
51.8249809471617
30
0
41
1
10
75.3837862522323
20
51.8249809471617
30
0
41
1
10
75.4122139242459
20
51.8148023309615
30
0
41
1
10
75.4541316335018
20
51.7872987886502
30
0
41
1
10
75.4690514685456
20
51.7701107798449
30
0
41
1
10
75.4795187323256
20
51.7519809471617
30
0
0
SPLINE
5
183
100
AcDbEntity
8
1
62
256
6
ByLayer
370
18
48
1
60
0
100
AcDbSpline
70
4
71
3
72
10
73
6
40
0
40
0
40
0
40
0
40
0.5
40
0.5
40
1
40
1
40
1
40
1
41
1
10
75.0204812676744
20
51.7519809471617
30
0
41
1
10
75.0309410812166
20
51.7700978756544
30
0
41
1
10
75.0457175310297
20
51.7871737005526
30
0
41
1
10
75.0877253872432
20
51.8147885002822
30
0
41
1
10
75.116218660458
20
51.8249809471617
30
0
41
1
10
75.1469209766269
20
51.8249809471617
30
0
0
SPLINE
5
184
100
AcDbEntity
8
1
62
256
6
ByLayer
370
18
48
1
60
0
100
AcDbSpline
70
4
71
3
72
10
73
6
40
0
40
0
40
0
40
0
40
0.5
40
0.5
40
1
40
1
40
1
40
1
41
1
10
72.353079023373
20
51.8249809471617
30
0
41
1
10
72.3837862522323
20
51.8249809471617
30
0
41
1
10
72.4122139242459
20
51.8148023309615
30
0
41
1
10
72.4541316335018
20
51.7872987886501
30
0
41
1
10
72.4690514685456
20
51.770110779845
30
0
41
1
10
72.4795187323256
20
51.7519809471618
30
0
0
SPLINE
5
185
100
AcDbEntity
8
1
62
256
6
ByLayer
370
18
48
1
60
0
100
AcDbSpline
70
4
71
3
72
10
73
6
40
0
40
0
40
0
40
0
40
0.5
40
0.5
40
1
40
1
40
1
40
1
41
1
10
72.0204812676744
20
51.7519809471617
30
0
41
1
10
72.0309410812166
20
51.7700978756545
30
0
41
1
10
72.0457175310297
20
51.7871737005526
30
0
41
1
10
72.0877253872432
20
51.8147885002822
30
0
41
1
10
72.116218660458
20
51.8249809471617
30
0
41
1
10
72.1469209766269
20
51.8249809471617
30
0
0
SPLINE
5
186
100
AcDbEntity
8
1
62
256
6
ByLayer
370
18
48
1
60
0
100
AcDbSpline
70
4
71
3
72
10
73
6
40
0
40
0
40
0
40
0
40
0.5
40
0.5
40
1
40
1
40
1
40
1
41
1
10
67.853079023373
20
51.8249809471617
30
0
41
1
10
67.8837862522323
20
51.8249809471617
30
0
41
1
10
67.9122139242459
20
51.8148023309615
30
0
41
1
10
67.9541316335018
20
51.7872987886501
30
0
41
1
10
67.9690514685456
20
51.7701107798449
30
0
41
1
10
67.9795187323256
20
51.7519809471617
30
0
0
SPLINE
5
187
100
AcDbEntity
8
1
62
256
6
ByLayer
370
18
48
1
60
0
100
AcDbSpline
70
4
71
3
72
10
73
6
40
0
40
0
40
0
40
0
40
0.5
40
0.5
40
1
40
1
40
1
40
1
41
1
10
67.5204812676744
20
51.7519809471617
30
0
41
1
10
67.5309410812166
20
51.7700978756545
30
0
41
1
10
67.5457175310297
20
51.7871737005526
30
0
41
1
10
67.5877253872432
20
51.8147885002822
30
0
41
1
10
67.616218660458
20
51.8249809471617
30
0
41
1
10
67.6469209766269
20
51.8249809471617
30
0
0
SPLINE
5
188
100
AcDbEntity
8
1
62
256
6
ByLayer
370
18
48
1
60
0
100
AcDbSpline
70
4
71
3
72
10
73
6
40
0
40
0
40
0
40
0
40
0.5
40
0.5
40
1
40
1
40
1
40
1
41
1
10
66.353079023373
20
51.8249809471617
30
0
41
1
10
66.3837862522323
20
51.8249809471617
30
0
41
1
10
66.4122139242459
20
51.8148023309615
30
0
41
1
10
66.4541316335018
20
51.7872987886501
30
0
41
1
10
66.4690514685456
20
51.770110779845
30
0
41
1
10
66.4795187323256
20
51.7519809471618
30
0
0
SPLINE
5
189
100
AcDbEntity
8
1
62
256
6
ByLayer
370
18
48
1
60
0
100
AcDbSpline
70
4
71
3
72
10
73
6
40
0
40
0
40
0
40
0
40
0.5
40
0.5
40
1
40
1
40
1
40
1
41
1
10
66.0204812676744
20
51.7519809471617
30
0
41
1
10
66.0309410812166
20
51.7700978756545
30
0
41
1
10
66.0457175310297
20
51.7871737005526
30
0
41
1
10
66.0877253872432
20
51.8147885002822
30
0
41
1
10
66.1162186604583
20
51.8249809471618
30
0
41
1
10
66.1469209766272
20
51.8249809471617
30
0
0
SPLINE
5
18A
100
AcDbEntity
8
1
62
256
6
ByLayer
370
18
48
1
60
0
100
AcDbSpline
70
4
71
3
72
10
73
6
40
0
40
0
40
0
40
0
40
0.5
40
0.5
40
1
40
1
40
1
40
1
41
1
10
69.353079023373
20
51.8249809471617
30
0
41
1
10
69.3837862522323
20
51.8249809471617
30
0
41
1
10
69.4122139242459
20
51.8148023309615
30
0
41
1
10
69.4541316335018
20
51.7872987886501
30
0
41
1
10
69.4690514685456
20
51.7701107798449
30
0
41
1
10
69.4795187323256
20
51.7519809471617
30
0
0
SPLINE
5
18B
100
AcDbEntity
8
1
62
256
6
ByLayer
370
18
48
1
60
0
100
AcDbSpline
70
4
71
3
72
10
73
6
40
0
40
0
40
0
40
0
40
0.5
40
0.5
40
1
40
1
40
1
40
1
41
1
10
69.0204812676744
20
51.7519809471617
30
0
41
1
10
69.0309410812166
20
51.7700978756545
30
0
41
1
10
69.0457175310297
20
51.7871737005526
30
0
41
1
10
69.0877253872432
20
51.8147885002822
30
0
41
1
10
69.116218660458
20
51.8249809471617
30
0
41
1
10
69.1469209766269
20
51.8249809471617
30
0
0
SPLINE
5
18C
100
AcDbEntity
8
1
62
256
6
ByLayer
370
18
48
1
60
0
100
AcDbSpline
70
4
71
3
72
10
73
6
40
0
40
0
40
0
40
0
40
0.5
40
0.5
40
1
40
1
40
1
40
1
41
1
10
64.853079023373
20
51.8249809471617
30
0
41
1
10
64.8837862522323
20
51.8249809471617
30
0
41
1
10
64.9122139242459
20
51.8148023309615
30
0
41
1
10
64.9541316335018
20
51.7872987886501
30
0
41
1
10
64.9690514685456
20
51.770110779845
30
0
41
1
10
64.9795187323256
20
51.7519809471618
30
0
0
SPLINE
5
18D
100
AcDbEntity
8
1
62
256
6
ByLayer
370
18
48
1
60
0
100
AcDbSpline
70
4
71
3
72
10
73
6
40
0
40
0
40
0
40
0
40
0.5
40
0.5
40
1
40
1
40
1
40
1
41
1
10
64.5204812676744
20
51.7519809471617
30
0
41
1
10
64.5309410812166
20
51.7700978756544
30
0
41
1
10
64.5457175310297
20
51.7871737005526
30
0
41
1
10
64.5877253872432
20
51.8147885002822
30
0
41
1
10
64.6162186604579
20
51.8249809471617
30
0
41
1
10
64.6469209766269
20
51.8249809471617
30
0
0
SPLINE
5
18E
100
AcDbEntity
8
1
62
256
6
ByLayer
370
18
48
1
60
0
100
AcDbSpline
70
4
71
3
72
10
73
6
40
0
40
0
40
0
40
0
40
0.5
40
0.5
40
1
40
1
40
1
40
1
41
1
10
73.853079023373
20
51.8249809471617
30
0
41
1
10
73.8837862522323
20
51.8249809471617
30
0
41
1
10
73.9122139242459
20
51.8148023309615
30
0
41
1
10
73.9541316335018
20
51.7872987886502
30
0
41
1
10
73.9690514685457
20
51.7701107798447
30
0
41
1
10
73.9795187323257
20
51.7519809471616
30
0
0
SPLINE
5
18F
100
AcDbEntity
8
1
62
256
6
ByLayer
370
18
48
1
60
0
100
AcDbSpline
70
4
71
3
72
10
73
6
40
0
40
0
40
0
40
0
40
0.5
40
0.5
40
1
40
1
40
1
40
1
41
1
10
73.5204812676744
20
51.7519809471617
30
0
41
1
10
73.5309410812165
20
51.7700978756544
30
0
41
1
10
73.5457175310297
20
51.7871737005526
30
0
41
1
10
73.5877253872432
20
51.8147885002822
30
0
41
1
10
73.616218660458
20
51.8249809471617
30
0
41
1
10
73.6469209766269
20
51.8249809471617
30
0
0
SPLINE
5
190
100
AcDbEntity
8
1
62
256
6
ByLayer
370
18
48
1
60
0
100
AcDbSpline
70
4
71
3
72
8
73
4
40
0
40
0
40
0
40
0
40
1
40
1
40
1
40
1
41
1
10
58.9795187323246
20
51.7519809471634
30
0
41
1
10
59.1052525051109
20
51.5342036644701
30
0
41
1
10
59.2341866176012
20
51.3108832308081
30
0
41
1
10
59.3661990751153
20
51.0822309471617
30
0
0
SPLINE
5
191
100
AcDbEntity
8
1
62
256
6
ByLayer
370
18
48
1
60
0
100
AcDbSpline
70
4
71
3
72
12
73
8
40
0
40
0
40
0
40
0
40
0.499999999999996
40
0.499999999999996
40
0.749999999999998
40
0.749999999999998
40
1
40
1
40
1
40
1
41
1
10
58.9795187323246
20
51.7519809471633
30
0
41
1
10
58.9676071189895
20
51.7726124666591
30
0
41
1
10
58.9514840936561
20
51.7895540670523
30
0
41
1
10
58.9205463735005
20
51.8090295912998
30
0
41
1
10
58.9090838053965
20
51.814472979084
30
0
41
1
10
58.8835527294382
20
51.8223893833242
30
0
41
1
10
58.86952366337
20
51.8249809471617
30
0
41
1
10
58.853079023373
20
51.8249809471617
30
0
0
SPLINE
5
192
100
AcDbEntity
8
1
62
256
6
ByLayer
370
18
48
1
60
0
100
AcDbSpline
70
4
71
3
72
14
73
10
40
0
40
0
40
0
40
0
40
0.25
40
0.25
40
0.5
40
0.5
40
0.75
40
0.75
40
1
40
1
40
1
40
1
41
1
10
58.646920976627
20
51.8249809471617
30
0
41
1
10
58.6386068194039
20
51.8249809471617
30
0
41
1
10
58.6296425246484
20
51.8242984211106
30
0
41
1
10
58.6100180473329
20
51.8205926943693
30
0
41
1
10
58.5992317157562
20
51.8176094276684
30
0
41
1
10
58.5750178109895
20
51.8067387491986
30
0
41
1
10
58.5608826109013
20
51.7981384016297
30
0
41
1
10
58.5359564107965
20
51.7753550332124
30
0
41
1
10
58.5267837407687
20
51.7628971508314
30
0
41
1
10
58.5204812676308
20
51.7519809471355
30
0
0
SPLINE
5
193
100
AcDbEntity
8
1
62
256
6
ByLayer
370
18
48
1
60
0
100
AcDbSpline
70
4
71
3
72
8
73
4
40
0
40
0
40
0
40
0
40
1
40
1
40
1
40
1
41
1
10
58.1338009248846
20
51.0822309471617
30
0
41
1
10
58.2629042680425
20
51.3058444969381
30
0
41
1
10
58.3918018175239
20
51.5291016016111
30
0
41
1
10
58.5204812676688
20
51.7519809471521
30
0
0
SPLINE
5
194
100
AcDbEntity
8
1
62
256
6
ByLayer
370
18
48
1
60
0
100
AcDbSpline
70
4
71
3
72
22
73
18
40
0
40
0
40
0
40
0
40
0.0624999999999922
40
0.0624999999999922
40
0.124999999999984
40
0.124999999999984
40
0.187499999999977
40
0.187499999999977
40
0.249999999999969
40
0.249999999999969
40
0.37499999999997
40
0.37499999999997
40
0.499999999999971
40
0.499999999999971
40
0.749999999999985
40
0.749999999999985
40
1
40
1
40
1
40
1
41
1
10
58.1338009248864
20
51.0822309471624
30
0
41
1
10
58.1287301252379
20
51.073448064536
30
0
41
1
10
58.1222022599195
20
51.0640538909794
30
0
41
1
10
58.1045117001404
20
51.0449513880304
30
0
41
1
10
58.0936825405041
20
51.0359811748772
30
0
41
1
10
58.072461893737
20
51.0224485199569
30
0
41
1
10
58.0624231334346
20
51.0178186492453
30
0
41
1
10
58.0441641396185
20
51.0111085002232
30
0
41
1
10
58.0357176381019
20
51.0089564994512
30
0
41
1
10
58.0122772061598
20
51.0046521503268
30
0
41
1
10
57.9989635443997
20
51.0044945966088
30
0
41
1
10
57.9744303663753
20
51.0066148720037
30
0
41
1
10
57.9633395921421
20
51.0090186916635
30
0
41
1
10
57.9329961357188
20
51.0186575275645
30
0
41
1
10
57.9162751930315
20
51.0283088911404
30
0
41
1
10
57.8875449959778
20
51.0519178324192
30
0
41
1
10
57.8755719650584
20
51.0659966255665
30
0
41
1
10
57.8661990751153
20
51.0822309471617
30
0
0
SPLINE
5
195
100
AcDbEntity
8
1
62
256
6
ByLayer
370
18
48
1
60
0
100
AcDbSpline
70
4
71
3
72
8
73
4
40
0
40
0
40
0
40
0
40
1
40
1
40
1
40
1
41
1
10
57.4795187323255
20
51.7519809471617
30
0
41
1
10
57.6044545353293
20
51.5355857886747
30
0
41
1
10
57.7333996998418
20
51.3122462123486
30
0
41
1
10
57.8661990751153
20
51.0822309471617
30
0
0
SPLINE
5
196
100
AcDbEntity
8
1
62
256
6
ByLayer
370
18
48
1
60
0
100
AcDbSpline
70
4
71
3
72
12
73
8
40
0
40
0
40
0
40
0
40
0.500000000000011
40
0.500000000000011
40
0.750000000000006
40
0.750000000000006
40
1
40
1
40
1
40
1
41
1
10
57.4795187323255
20
51.7519809471617
30
0
41
1
10
57.4675532506547
20
51.7727057693526
30
0
41
1
10
57.451164590375
20
51.7898063352192
30
0
41
1
10
57.4203730934361
20
51.8091126858245
30
0
41
1
10
57.4090632435104
20
51.8144749875917
30
0
41
1
10
57.3836606121278
20
51.822360284326
30
0
41
1
10
57.3696654824909
20
51.8249809471617
30
0
41
1
10
57.3530790233731
20
51.8249809471617
30
0
0
SPLINE
5
197
100
AcDbEntity
8
1
62
256
6
ByLayer
370
18
48
1
60
0
100
AcDbSpline
70
4
71
3
72
14
73
10
40
0
40
0
40
0
40
0
40
0.25
40
0.25
40
0.5
40
0.5
40
0.75
40
0.75
40
1
40
1
40
1
40
1
41
1
10
57.1469209766503
20
51.8249809471896
30
0
41
1
10
57.1389732657186
20
51.8249809471909
30
0
41
1
10
57.1305187900739
20
51.8243659293151
30
0
41
1
10
57.1118603152309
20
51.8210252176619
30
0
41
1
10
57.1015443917821
20
51.8183381454189
30
0
41
1
10
57.078013668695
20
51.8083302651801
30
0
41
1
10
57.0637246080379
20
51.8002877835227
30
0
41
1
10
57.0368629586171
20
51.7765730419546
30
0
41
1
10
57.026951107819
20
51.7631870390614
30
0
41
1
10
57.0204812676146
20
51.7519809470951
30
0
0
SPLINE
5
198
100
AcDbEntity
8
1
62
256
6
ByLayer
370
18
48
1
60
0
100
AcDbSpline
70
4
71
3
72
8
73
4
40
0
40
0
40
0
40
0
40
1
40
1
40
1
40
1
41
1
10
56.6338009248781
20
51.0822309471504
30
0
41
1
10
56.7630301252332
20
51.3060624879869
30
0
41
1
10
56.8919308703059
20
51.5293251275863
30
0
41
1
10
57.0204812676434
20
51.7519809471081
30
0
0
SPLINE
5
199
100
AcDbEntity
8
1
62
256
6
ByLayer
370
18
48
1
60
0
100
AcDbSpline
70
4
71
3
72
22
73
18
40
0
40
0
40
0
40
0
40
0.062499999999997
40
0.062499999999997
40
0.124999999999994
40
0.124999999999994
40
0.187499999999991
40
0.187499999999991
40
0.249999999999988
40
0.249999999999988
40
0.374999999999995
40
0.374999999999995
40
0.500000000000001
40
0.500000000000001
40
0.750000000000001
40
0.750000000000001
40
1
40
1
40
1
40
1
41
1
10
56.6338009248782
20
51.0822309471504
30
0
41
1
10
56.6284956772323
20
51.0730419886828
30
0
41
1
10
56.6213718092059
20
51.0628108480319
30
0
41
1
10
56.6014890251116
20
51.0421088809892
30
0
41
1
10
56.5892923502996
20
51.0327634793331
30
0
41
1
10
56.5674788908023
20
51.0199207817455
30
0
41
1
10
56.5575657458676
20
51.0157967000743
30
0
41
1
10
56.5396839847315
20
51.0098675810669
30
0
41
1
10
56.5314838120669
20
51.008028472027
30
0
41
1
10
56.5087502060304
20
51.0044679977631
30
0
41
1
10
56.4958382643467
20
51.0045759294415
30
0
41
1
10
56.4720813989869
20
51.0070557646097
30
0
41
1
10
56.4612917271393
20
51.0095462306887
30
0
41
1
10
56.4316288155032
20
51.0193751674903
30
0
41
1
10
56.4152615950912
20
51.0290043688681
30
0
41
1
10
56.3871401568059
20
51.0523950445232
30
0
41
1
10
56.3754471683748
20
51.066212779762
30
0
41
1
10
56.3661990751149
20
51.0822309471613
30
0
0
SPLINE
5
19A
100
AcDbEntity
8
1
62
256
6
ByLayer
370
18
48
1
60
0
100
AcDbSpline
70
4
71
3
72
8
73
4
40
0
40
0
40
0
40
0
40
1
40
1
40
1
40
1
41
1
10
55.9795187323255
20
51.7519809471617
30
0
41
1
10
56.1032316122185
20
51.5377039536365
30
0
41
1
10
56.2321938275692
20
51.3143348443924
30
0
41
1
10
56.3661990751153
20
51.0822309471617
30
0
0
SPLINE
5
19B
100
AcDbEntity
8
1
62
256
6
ByLayer
370
18
48
1
60
0
100
AcDbSpline
70
4
71
3
72
12
73
8
40
0
40
0
40
0
40
0
40
0.499999999999985
40
0.499999999999985
40
0.749999999999992
40
0.749999999999992
40
1
40
1
40
1
40
1
41
1
10
55.9795187323255
20
51.7519809471617
30
0
41
1
10
55.9674477013506
20
51.7728885861099
30
0
41
1
10
55.951029628935
20
51.7899281855055
30
0
41
1
10
55.9201980923995
20
51.8092035768401
30
0
41
1
10
55.9088856545422
20
51.8145457511605
30
0
41
1
10
55.883522413393
20
51.8223873492844
30
0
41
1
10
55.8695647864118
20
51.8249809471618
30
0
41
1
10
55.8530790233722
20
51.8249809471617
30
0
0
SPLINE
5
19C
100
AcDbEntity
8
1
62
256
6
ByLayer
370
18
48
1
60
0
100
AcDbSpline
70
4
71
3
72
18
73
14
40
0
40
0
40
0
40
0
40
0.25
40
0.25
40
0.5
40
0.5
40
0.625
40
0.625
40
0.75
40
0.75
40
0.875
40
0.875
40
1
40
1
40
1
40
1
41
1
10
55.646920976627
20
51.8249809471617
30
0
41
1
10
55.6394143039373
20
51.8249809471617
30
0
41
1
10
55.6314386946085
20
51.8244298561273
30
0
41
1
10
55.6138997050259
20
51.821475444591
30
0
41
1
10
55.6044501097971
20
51.8192034903414
30
0
41
1
10
55.5873669373251
20
51.8124232584393
30
0
41
1
10
55.5812373177223
20
51.809596220026
30
0
41
1
10
55.5679280404497
20
51.8020045570364
30
0
41
1
10
55.5605807678594
20
51.7971080807307
30
0
41
1
10
55.5458196125083
20
51.7847503449505
30
0
41
1
10
55.5388779695199
20
51.7775584169136
30
0
41
1
10
55.5279948268075
20
51.7641124913537
30
0
41
1
10
55.523853705595
20
51.7578221809861
30
0
41
1
10
55.520481267674
20
51.7519809471615
30
0
0
SPLINE
5
19D
100
AcDbEntity
8
1
62
256
6
ByLayer
370
18
48
1
60
0
100
AcDbSpline
70
4
71
3
72
8
73
4
40
0
40
0
40
0
40
0
40
1
40
1
40
1
40
1
41
1
10
55.1338009248853
20
51.0822309471628
30
0
41
1
10
55.2632655006996
20
51.3064701702536
30
0
41
1
10
55.392173104588
20
51.5297446896703
30
0
41
1
10
55.5204812676743
20
51.7519809471617
30
0
0
SPLINE
5
19E
100
AcDbEntity
8
1
62
256
6
ByLayer
370
18
48
1
60
0
100
AcDbSpline
70
4
71
3
72
26
73
22
40
0
40
0
40
0
40
0
40
0.0312499999999996
40
0.0312499999999996
40
0.0624999999999992
40
0.0624999999999992
40
0.0937499999999988
40
0.0937499999999988
40
0.124999999999998
40
0.124999999999998
40
0.187499999999999
40
0.187499999999999
40
0.249999999999999
40
0.249999999999999
40
0.374999999999999
40
0.374999999999999
40
0.499999999999999
40
0.499999999999999
40
0.75
40
0.75
40
1
40
1
40
1
40
1
41
1
10
55.1338009248853
20
51.0822309471628
30
0
41
1
10
55.1309658315442
20
51.0773204214518
30
0
41
1
10
55.1276609433029
20
51.0721783984014
30
0
41
1
10
55.1192612560689
20
51.0610136720601
30
0
41
1
10
55.114156185963
20
51.0550590331911
30
0
41
1
10
55.1026379835191
20
51.0437181930046
30
0
41
1
10
55.0962170875711
20
51.0383571081972
30
0
41
1
10
55.0837876077508
20
51.0294488392286
30
0
41
1
10
55.0779425342378
20
51.0259349090936
30
0
41
1
10
55.0613215785705
20
51.0171178701017
30
0
41
1
10
55.0518864269234
20
51.0136732049162
30
0
41
1
10
55.0345140636575
20
51.008613858612
30
0
41
1
10
55.0267579438492
20
51.0071394062383
30
0
41
1
10
55.0049529991101
20
51.0043666396344
30
0
41
1
10
54.9923280121326
20
51.0047345512643
30
0
41
1
10
54.9692654891093
20
51.0076234604139
30
0
41
1
10
54.95893382444
20
51.0101965677781
30
0
41
1
10
54.9303059789679
20
51.020121626538
30
0
41
1
10
54.9143452759732
20
51.0296488951873
30
0
41
1
10
54.8868361955114
20
51.0527708406972
30
0
41
1
10
54.8753182908938
20
51.0664360021082
30
0
41
1
10
54.8661990751153
20
51.0822309471617
30
0
0
SPLINE
5
19F
100
AcDbEntity
8
1
62
256
6
ByLayer
370
18
48
1
60
0
100
AcDbSpline
70
4
71
3
72
8
73
4
40
0
40
0
40
0
40
0
40
1
40
1
40
1
40
1
41
1
10
54.4795187323255
20
51.7519809471617
30
0
41
1
10
54.6011289271818
20
51.5413459109522
30
0
41
1
10
54.7301206286127
20
51.3179257303193
30
0
41
1
10
54.8661990751153
20
51.0822309471617
30
0
0
SPLINE
5
1A0
100
AcDbEntity
8
1
62
256
6
ByLayer
370
18
48
1
60
0
100
AcDbSpline
70
4
71
3
72
12
73
8
40
0
40
0
40
0
40
0
40
0.500000000000004
40
0.500000000000004
40
0.750000000000002
40
0.750000000000002
40
1
40
1
40
1
40
1
41
1
10
54.4795187323282
20
51.7519809471642
30
0
41
1
10
54.4673329773369
20
51.7730872939376
30
0
41
1
10
54.4507936681363
20
51.7901223989275
30
0
41
1
10
54.4200103031399
20
51.8092972827234
30
0
41
1
10
54.40872247619
20
51.8146089607499
30
0
41
1
10
54.3834272788696
20
51.8224038717574
30
0
41
1
10
54.3695137079085
20
51.824980947162
30
0
41
1
10
54.3530790233708
20
51.8249809471617
30
0
0
SPLINE
5
1A1
100
AcDbEntity
8
1
62
256
6
ByLayer
370
18
48
1
60
0
100
AcDbSpline
70
4
71
3
72
18
73
14
40
0
40
0
40
0
40
0
40
0.249999999999963
40
0.249999999999963
40
0.499999999999927
40
0.499999999999927
40
0.624999999999945
40
0.624999999999945
40
0.749999999999963
40
0.749999999999963
40
0.874999999999982
40
0.874999999999982
40
1
40
1
40
1
40
1
41
1
10
54.146920976627
20
51.8249809471617
30
0
41
1
10
54.139809034469
20
51.8249809471617
30
0
41
1
10
54.1322535620828
20
51.8244854803128
30
0
41
1
10
54.1156460943011
20
51.8218395624162
30
0
41
1
10
54.1066014759698
20
51.8197589876158
30
0
41
1
10
54.0906894505856
20
51.8138365928821
30
0
41
1
10
54.0849594456464
20
51.8113766362936
30
0
41
1
10
54.0722323973486
20
51.8046370888641
30
0
41
1
10
54.0650877817393
20
51.8003225614066
30
0
41
1
10
54.0489800667223
20
51.7877377276406
30
0
41
1
10
54.0406121549261
20
51.7795171564505
30
0
41
1
10
54.0283063852097
20
51.7646528425096
30
0
41
1
10
54.0239472657238
20
51.7579842318926
30
0
41
1
10
54.0204812676658
20
51.7519809471564
30
0
0
SPLINE
5
1A2
100
AcDbEntity
8
1
62
256
6
ByLayer
370
18
48
1
60
0
100
AcDbSpline
70
4
71
3
72
8
73
4
40
0
40
0
40
0
40
0
40
1
40
1
40
1
40
1
41
1
10
53.6338009248806
20
51.0822309471547
30
0
41
1
10
53.7637932140898
20
51.3073841966572
30
0
41
1
10
53.8927187576769
20
51.5306897885434
30
0
41
1
10
54.0204812676743
20
51.7519809471616
30
0
0
SPLINE
5
1A3
100
AcDbEntity
8
1
62
256
6
ByLayer
370
18
48
1
60
0
100
AcDbSpline
70
4
71
3
72
24
73
20
40
0
40
0
40
0
40
0
40
0.0312500000000075
40
0.0312500000000075
40
0.062500000000015
40
0.062500000000015
40
0.0937500000000225
40
0.0937500000000225
40
0.12500000000003
40
0.12500000000003
40
0.187500000000026
40
0.187500000000026
40
0.250000000000023
40
0.250000000000023
40
0.500000000000015
40
0.500000000000015
40
0.750000000000008
40
0.750000000000008
40
1
40
1
40
1
40
1
41
1
10
53.6338009248807
20
51.0822309471548
30
0
41
1
10
53.6307209777734
20
51.076896322281
30
0
41
1
10
53.6269939252323
20
51.0711127260331
30
0
41
1
10
53.6170139122877
20
51.0582675889402
30
0
41
1
10
53.6105675694027
20
51.0511453212449
30
0
41
1
10
53.5963559030631
20
51.0383308947832
30
0
41
1
10
53.5891628016955
20
51.0330736613109
30
0
41
1
10
53.5762353510816
20
51.0248816218742
30
0
41
1
10
53.5705340764143
20
51.0218940647481
30
0
41
1
10
53.5544523169063
20
51.0144119298798
30
0
41
1
10
53.5455363898467
20
51.0116006200037
30
0
41
1
10
53.529079018331
20
51.0075054075064
30
0
41
1
10
53.5215831636598
20
51.0063345582235
30
0
41
1
10
53.4865977720773
20
51.0030168277577
30
0
41
1
10
53.4658176000746
20
51.0075316287025
30
0
41
1
10
53.4288403389849
20
51.0209409367348
30
0
41
1
10
53.4131996622419
20
51.0304552559665
30
0
41
1
10
53.3863302368805
20
51.0533625577295
30
0
41
1
10
53.3751196342743
20
51.0667800854663
30
0
41
1
10
53.3661990751153
20
51.0822309471617
30
0
0
SPLINE
5
1A4
100
AcDbEntity
8
1
62
256
6
ByLayer
370
18
48
1
60
0
100
AcDbSpline
70
4
71
3
72
8
73
4
40
0
40
0
40
0
40
0
40
1
40
1
40
1
40
1
41
1
10
52.9795187323255
20
51.7519809471617
30
0
41
1
10
53.0966750872777
20
51.549060187955
30
0
41
1
10
53.2257295379799
20
51.3255313223958
30
0
41
1
10
53.3661990751153
20
51.0822309471617
30
0
0
SPLINE
5
1A5
100
AcDbEntity
8
1
62
256
6
ByLayer
370
18
48
1
60
0
100
AcDbSpline
70
4
71
3
72
12
73
8
40
0
40
0
40
0
40
0
40
0.499999999999998
40
0.499999999999998
40
0.749999999999999
40
0.749999999999999
40
1
40
1
40
1
40
1
41
1
10
52.9795187323263
20
51.7519809471624
30
0
41
1
10
52.9671506085471
20
51.7734031659422
30
0
41
1
10
52.9504648621611
20
51.7904062946463
30
0
41
1
10
52.9196533316485
20
51.8094790846667
30
0
41
1
10
52.9083785900324
20
51.8147435960237
30
0
41
1
10
52.8831838680225
20
51.8224495403358
30
0
41
1
10
52.8693541934693
20
51.824980947162
30
0
41
1
10
52.8530790233706
20
51.8249809471617
30
0
0
SPLINE
5
1A6
100
AcDbEntity
8
1
62
256
6
ByLayer
370
18
48
1
60
0
100
AcDbSpline
70
4
71
3
72
18
73
14
40
0
40
0
40
0
40
0
40
0.499999999999924
40
0.499999999999924
40
0.624999999999926
40
0.624999999999926
40
0.749999999999928
40
0.749999999999928
40
0.812499999999937
40
0.812499999999937
40
0.874999999999945
40
0.874999999999945
40
1
40
1
40
1
40
1
41
1
10
52.646920976627
20
51.8249809471617
30
0
41
1
10
52.6337481561494
20
51.8249809471617
30
0
41
1
10
52.6195253121354
20
51.8237953314499
30
0
41
1
10
52.5956575129878
20
51.8157779329339
30
0
41
1
10
52.5905290646126
20
51.8138052165435
30
0
41
1
10
52.5788554512485
20
51.8083050192053
30
0
41
1
10
52.5724202680278
20
51.8049157651757
30
0
41
1
10
52.560425639578
20
51.7967011245371
30
0
41
1
10
52.5558270695705
20
51.793264971624
30
0
41
1
10
52.5459554358715
20
51.7846450268201
30
0
41
1
10
52.5408424072467
20
51.7794853226983
30
0
41
1
10
52.5287324297879
20
51.7655756174986
30
0
41
1
10
52.5241317497769
20
51.7583037676354
30
0
41
1
10
52.5204812676743
20
51.7519809471616
30
0
0
SPLINE
5
1A7
100
AcDbEntity
8
1
62
256
6
ByLayer
370
18
48
1
60
0
100
AcDbSpline
70
4
71
3
72
8
73
4
40
0
40
0
40
0
40
0
40
1
40
1
40
1
40
1
41
1
10
52.1338009248846
20
51.0822309471616
30
0
41
1
10
52.2654238614367
20
51.3102085607114
30
0
41
1
10
52.3944162242408
20
51.5336298868764
30
0
41
1
10
52.5204812676743
20
51.7519809471616
30
0
0
SPLINE
5
1A8
100
AcDbEntity
8
1
62
256
6
ByLayer
370
18
48
1
60
0
100
AcDbSpline
70
4
71
3
72
26
73
22
40
0
40
0
40
0
40
0
40
0.0312499999999955
40
0.0312499999999955
40
0.0468749999999934
40
0.0468749999999934
40
0.0624999999999913
40
0.0624999999999913
40
0.0937499999999893
40
0.0937499999999893
40
0.124999999999987
40
0.124999999999987
40
0.187499999999986
40
0.187499999999986
40
0.249999999999985
40
0.249999999999985
40
0.49999999999999
40
0.49999999999999
40
0.749999999999995
40
0.749999999999995
40
1
40
1
40
1
40
1
41
1
10
52.1338009248847
20
51.0822309471617
30
0
41
1
10
52.1303409240559
20
51.076238049932
30
0
41
1
10
52.1260098885222
20
51.0694530810359
30
0
41
1
10
52.1158592384625
20
51.057132515156
30
0
41
1
10
52.1117690784164
20
51.0526320128987
30
0
41
1
10
52.1028080564228
20
51.0439840849629
30
0
41
1
10
52.0980981990284
20
51.0400032364698
30
0
41
1
10
52.0855078864947
20
51.0303671548509
30
0
41
1
10
52.0786201523321
20
51.0262985397115
30
0
41
1
10
52.0663278983618
20
51.0197694876966
30
0
41
1
10
52.0610157361683
20
51.0174401773198
30
0
41
1
10
52.0461572325376
20
51.0116541521811
30
0
41
1
10
52.0377079102683
20
51.0094429069741
30
0
41
1
10
52.0221276943201
20
51.006367704285
30
0
41
1
10
52.0150858892443
20
51.0055769103708
30
0
41
1
10
51.9820500279382
20
51.0037612180963
30
0
41
1
10
51.9619628833693
20
51.0085278906026
30
0
41
1
10
51.9264115588202
20
51.0223008143041
30
0
41
1
10
51.9114011366596
20
51.0317581505219
30
0
41
1
10
51.8856067472021
20
51.0542333577307
30
0
41
1
10
51.8748227242571
20
51.0672943487013
30
0
41
1
10
51.8661990751152
20
51.0822309471616
30
0
0
SPLINE
5
1A9
100
AcDbEntity
8
1
62
256
6
ByLayer
370
18
48
1
60
0
100
AcDbSpline
70
4
71
3
72
8
73
4
40
0
40
0
40
0
40
0
40
1
40
1
40
1
40
1
41
1
10
51.4795187323255
20
51.7519809471617
30
0
41
1
10
51.5806220508293
20
51.5768648626993
30
0
41
1
10
51.7099034637752
20
51.3529428870027
30
0
41
1
10
51.8661990751153
20
51.0822309471617
30
0
0
SPLINE
5
1AA
100
AcDbEntity
8
1
62
256
6
ByLayer
370
18
48
1
60
0
100
AcDbSpline
70
4
71
3
72
10
73
6
40
0
40
0
40
0
40
0
40
0.5
40
0.5
40
1
40
1
40
1
40
1
41
1
10
51.4795187323255
20
51.7519809471617
30
0
41
1
10
51.4664146179046
20
51.7746779391269
30
0
41
1
10
51.4489328867241
20
51.7917436344857
30
0
41
1
10
51.4073584810532
20
51.81666583103
30
0
41
1
10
51.3836883768959
20
51.824980947177
30
0
41
1
10
51.3530790233914
20
51.8249809471809
30
0
0
SPLINE
5
1AB
100
AcDbEntity
8
1
62
256
6
ByLayer
370
18
48
1
60
0
100
AcDbSpline
70
4
71
3
72
26
73
22
40
0
40
0
40
0
40
0
40
0.500000000000005
40
0.500000000000005
40
0.750000000000011
40
0.750000000000011
40
0.812500000000015
40
0.812500000000015
40
0.843750000000018
40
0.843750000000018
40
0.85937500000002
40
0.85937500000002
40
0.875000000000022
40
0.875000000000022
40
0.890625000000023
40
0.890625000000023
40
0.906250000000025
40
0.906250000000025
40
0.937500000000015
40
0.937500000000015
40
1
40
1
40
1
40
1
41
1
10
51.1469209766332
20
51.824980947168
30
0
41
1
10
51.1345439086524
20
51.8249809471686
30
0
41
1
10
51.1213089543178
20
51.8237658747726
30
0
41
1
10
51.0963309470114
20
51.8162118170162
30
0
41
1
10
51.0875835405697
20
51.8131960967759
30
0
41
1
10
51.0715180132049
20
51.804057155786
30
0
41
1
10
51.0680369418951
20
51.8019500362164
30
0
41
1
10
51.0615058073043
20
51.7974177269187
30
0
41
1
10
51.0591248948145
20
51.7956953279154
30
0
41
1
10
51.0546667347252
20
51.7921567154053
30
0
41
1
10
51.0530225166404
20
51.7908111684213
30
0
41
1
10
51.0490551490828
20
51.7873562163606
30
0
41
1
10
51.0465542922483
20
51.7850769256868
30
0
41
1
10
51.0412834287947
20
51.7798300248984
30
0
41
1
10
51.0389928900321
20
51.7773394010611
30
0
41
1
10
51.0355351363367
20
51.7734057951221
30
0
41
1
10
51.0341842708779
20
51.771770887121
30
0
41
1
10
51.0306547867985
20
51.7673683004761
30
0
41
1
10
51.0289268979112
20
51.7650058535032
30
0
41
1
10
51.0244038668822
20
51.7585617633917
30
0
41
1
10
51.0223074929509
20
51.7551440621268
30
0
41
1
10
51.0204812676742
20
51.7519809471615
30
0
0
SPLINE
5
1AC
100
AcDbEntity
8
1
62
256
6
ByLayer
370
18
48
1
60
0
100
AcDbSpline
70
4
71
3
72
8
73
4
40
0
40
0
40
0
40
0
40
1
40
1
40
1
40
1
41
1
10
50.6338009248846
20
51.0822309471616
30
0
41
1
10
50.7823562201179
20
51.3395362662392
30
0
41
1
10
50.9122169597167
20
51.5644616651327
30
0
41
1
10
51.0204812676744
20
51.7519809471617
30
0
0
SPLINE
5
1AD
100
AcDbEntity
8
1
62
256
6
ByLayer
370
18
48
1
60
0
100
AcDbSpline
70
4
71
3
72
28
73
24
40
0
40
0
40
0
40
0
40
0.0156250000000034
40
0.0156250000000034
40
0.0234375000000033
40
0.0234375000000033
40
0.0312500000000033
40
0.0312500000000033
40
0.0390625000000032
40
0.0390625000000032
40
0.0468750000000032
40
0.0468750000000032
40
0.0625000000000031
40
0.0625000000000031
40
0.0937500000000037
40
0.0937500000000037
40
0.125000000000004
40
0.125000000000004
40
0.250000000000004
40
0.250000000000004
40
0.500000000000003
40
0.500000000000003
40
1
40
1
40
1
40
1
41
1
10
50.6338009248847
20
51.0822309471617
30
0
41
1
10
50.6316374507678
20
51.0784837000704
30
0
41
1
10
50.6291393494118
20
51.0744272741289
30
0
41
1
10
50.6235397263432
20
51.0666456185913
30
0
41
1
10
50.6213327997748
20
51.0637167245708
30
0
41
1
10
50.6152740032493
20
51.0565035768103
30
0
41
1
10
50.6108459151284
20
51.0516685314772
30
0
41
1
10
50.6016530897359
20
51.0429606346684
30
0
41
1
10
50.5978219864873
20
51.0398252892374
30
0
41
1
10
50.5914257065274
20
51.0348697209436
30
0
41
1
10
50.5887829938152
20
51.0330038783925
30
0
41
1
10
50.5814795323347
20
51.02808151234
30
0
41
1
10
50.5774685108639
20
51.0257417191069
30
0
41
1
10
50.5665063374712
20
51.0197799727169
30
0
41
1
10
50.5605989802892
20
51.0172414239207
30
0
41
1
10
50.5496943108624
20
51.0130746841405
30
0
41
1
10
50.5447843991884
20
51.0115371149081
30
0
41
1
10
50.5217463077273
20
51.0053327499807
30
0
41
1
10
50.5078277606971
20
51.0046648377885
30
0
41
1
10
50.4700111621894
20
51.0058348413122
30
0
41
1
10
50.4510132416683
20
51.0118481454331
30
0
41
1
10
50.4020093356113
20
51.0347104929469
30
0
41
1
10
50.3806939455297
20
51.0571250951548
30
0
41
1
10
50.3661990751153
20
51.0822309471617
30
0
0
SPLINE
5
1AE
100
AcDbEntity
8
1
62
256
6
ByLayer
370
18
48
1
60
0
100
AcDbSpline
70
4
71
3
72
8
73
4
40
0
40
0
40
0
40
0
40
1
40
1
40
1
40
1
41
1
10
50.2623258549496
20
51.2621446420344
30
0
41
1
10
50.2620716114744
20
51.2625850046509
30
0
41
1
10
50.2966970135551
20
51.2026120490146
30
0
41
1
10
50.3661990751153
20
51.0822309471617
30
0
0
SPLINE
5
1AF
100
AcDbEntity
8
1
62
256
6
ByLayer
370
18
48
1
60
0
100
AcDbSpline
70
4
71
3
72
8
73
4
40
0
40
0
40
0
40
0
40
1
40
1
40
1
40
1
41
1
10
59.4131964345251
20
51.0316709670317
30
0
41
1
10
59.3935873062014
20
51.0449887240067
30
0
41
1
10
59.3778703052613
20
51.062015783562
30
0
41
1
10
59.3661990751153
20
51.0822309471617
30
0
0
SPLINE
5
1B0
100
AcDbEntity
8
1
62
256
6
ByLayer
370
18
48
1
60
0
100
AcDbSpline
70
4
71
3
72
8
73
4
40
0
40
0
40
0
40
0
40
1
40
1
40
1
40
1
41
1
10
89.6338009248847
20
51.0822309471617
30
0
41
1
10
89.7028252613524
20
51.2017846048827
30
0
41
1
10
89.7374487865441
20
51.2617543096517
30
0
41
1
10
89.7376744248847
20
51.2621451267217
30
0
0
SPLINE
5
1B1
100
AcDbEntity
8
1
62
256
6
ByLayer
370
18
48
1
60
0
100
AcDbSpline
70
4
71
3
72
28
73
24
40
0
40
0
40
0
40
0
40
0.499999999999992
40
0.499999999999992
40
0.749999999999987
40
0.749999999999987
40
0.874999999999983
40
0.874999999999983
40
0.906249999999984
40
0.906249999999984
40
0.937499999999985
40
0.937499999999985
40
0.953124999999987
40
0.953124999999987
40
0.960937499999988
40
0.960937499999988
40
0.968749999999989
40
0.968749999999989
40
0.97656249999999
40
0.97656249999999
40
0.984374999999991
40
0.984374999999991
40
1
40
1
40
1
40
1
41
1
10
89.6338009248847
20
51.0822309471617
30
0
41
1
10
89.6193147472981
20
51.0571401515743
30
0
41
1
10
89.5980086827088
20
51.0347345678538
30
0
41
1
10
89.5490604726461
20
51.0118747217411
30
0
41
1
10
89.5300814650785
20
51.0058647141354
30
0
41
1
10
89.492373717954
20
51.0046577004548
30
0
41
1
10
89.4784997522247
20
51.0053153749593
30
0
41
1
10
89.4556142267271
20
51.011418147056
30
0
41
1
10
89.4507312360693
20
51.0129317840933
30
0
41
1
10
89.4398540862943
20
51.0170501311147
30
0
41
1
10
89.4339136531796
20
51.0195813703813
30
0
41
1
10
89.4229458344612
20
51.0255027128176
30
0
41
1
10
89.4189843440222
20
51.0277957649013
30
0
41
1
10
89.4116845089807
20
51.0326771913769
30
0
41
1
10
89.4090589772586
20
51.034519628805
30
0
41
1
10
89.4028421021097
20
51.0392896680262
30
0
41
1
10
89.3990785628687
20
51.0423308772135
30
0
41
1
10
89.389949825114
20
51.0508612695289
30
0
41
1
10
89.3853147481442
20
51.0558414613168
30
0
41
1
10
89.3790302068435
20
51.0632512263729
30
0
41
1
10
89.3767959007595
20
51.0661970505619
30
0
41
1
10
89.3709909410197
20
51.0742139874769
30
0
41
1
10
89.368408253765
20
51.0784045374974
30
0
41
1
10
89.3661990751153
20
51.0822309471617
30
0
0
SPLINE
5
1B2
100
AcDbEntity
8
1
62
256
6
ByLayer
370
18
48
1
60
0
100
AcDbSpline
70
4
71
3
72
8
73
4
40
0
40
0
40
0
40
0
40
1
40
1
40
1
40
1
41
1
10
88.9795187323274
20
51.7519809471583
30
0
41
1
10
89.0877830402847
20
51.5644616651299
30
0
41
1
10
89.2176437798827
20
51.3395362662378
30
0
41
1
10
89.3661990751151
20
51.0822309471619
30
0
0
SPLINE
5
1B3
100
AcDbEntity
8
1
62
256
6
ByLayer
370
18
48
1
60
0
100
AcDbSpline
70
4
71
3
72
26
73
22
40
0
40
0
40
0
40
0
40
0.0624999999999478
40
0.0624999999999478
40
0.0937499999999234
40
0.0937499999999234
40
0.109374999999907
40
0.109374999999907
40
0.12499999999989
40
0.12499999999989
40
0.140624999999874
40
0.140624999999874
40
0.156249999999857
40
0.156249999999857
40
0.187499999999853
40
0.187499999999853
40
0.24999999999986
40
0.24999999999986
40
0.499999999999906
40
0.499999999999906
40
1
40
1
40
1
40
1
41
1
10
88.9795187323276
20
51.7519809471581
30
0
41
1
10
88.9776662140821
20
51.7551896028816
30
0
41
1
10
88.9755318288102
20
51.7586689704963
30
0
41
1
10
88.9708902819483
20
51.765257971968
30
0
41
1
10
88.9691433323709
20
51.7676394893322
30
0
41
1
10
88.9654629691512
20
51.772199314247
30
0
41
1
10
88.9640479059673
20
51.7739000911078
30
0
41
1
10
88.9603520025604
20
51.778057910821
30
0
41
1
10
88.9578553330974
20
51.7807248464818
30
0
41
1
10
88.9525266366092
20
51.785939202336
30
0
41
1
10
88.9501581825047
20
51.7880589782856
30
0
41
1
10
88.9463270143175
20
51.7913517271554
30
0
41
1
10
88.9447231339882
20
51.7926504129394
30
0
41
1
10
88.940379370983
20
51.7960630173077
30
0
41
1
10
88.9380277700971
20
51.7977517688066
30
0
41
1
10
88.931585621007
20
51.8021877030834
30
0
41
1
10
88.928150043346
20
51.8042554069512
30
0
41
1
10
88.9122504764758
20
51.8132504976294
30
0
41
1
10
88.9035045989123
20
51.8162701221854
30
0
41
1
10
88.8786197312725
20
51.8237700946437
30
0
41
1
10
88.8654269522397
20
51.8249809471617
30
0
41
1
10
88.8530790233734
20
51.8249809471617
30
0
0
SPLINE
5
1B4
100
AcDbEntity
8
1
62
256
6
ByLayer
370
18
48
1
60
0
100
AcDbSpline
70
4
71
3
72
10
73
6
40
0
40
0
40
0
40
0
40
0.5
40
0.5
40
1
40
1
40
1
40
1
41
1
10
88.6469209766004
20
51.8249809471884
30
0
41
1
10
88.6163124063882
20
51.8249809471829
30
0
41
1
10
88.5926402914012
20
51.8166654089369
30
0
41
1
10
88.5510655597708
20
51.7917423894291
30
0
41
1
10
88.5335858962774
20
51.7746788297166
30
0
41
1
10
88.5204812676743
20
51.7519809471615
30
0
0
SPLINE
5
1B5
100
AcDbEntity
8
1
62
256
6
ByLayer
370
18
48
1
60
0
100
AcDbSpline
70
4
71
3
72
8
73
4
40
0
40
0
40
0
40
0
40
1
40
1
40
1
40
1
41
1
10
88.1338009248847
20
51.0822309471617
30
0
41
1
10
88.2900965362246
20
51.3529428870026
30
0
41
1
10
88.4193779491706
20
51.5768648626993
30
0
41
1
10
88.5204812676743
20
51.7519809471615
30
0
0
SPLINE
5
1B6
100
AcDbEntity
8
1
62
256
6
ByLayer
370
18
48
1
60
0
100
AcDbSpline
70
4
71
3
72
26
73
22
40
0
40
0
40
0
40
0
40
0.250000000000014
40
0.250000000000014
40
0.500000000000029
40
0.500000000000029
40
0.750000000000043
40
0.750000000000043
40
0.81250000000005
40
0.81250000000005
40
0.875000000000056
40
0.875000000000056
40
0.906250000000057
40
0.906250000000057
40
0.937500000000058
40
0.937500000000058
40
0.953125000000041
40
0.953125000000041
40
0.968750000000024
40
0.968750000000024
40
1
40
1
40
1
40
1
41
1
10
88.1338009248847
20
51.0822309471617
30
0
41
1
10
88.1251742176364
20
51.0672890519056
30
0
41
1
10
88.1143722586755
20
51.0542074883213
30
0
41
1
10
88.088542015126
20
51.0317162170983
30
0
41
1
10
88.0735675782445
20
51.0222911993956
30
0
41
1
10
88.0380363619319
20
51.0085291315652
30
0
41
1
10
88.0178210367232
20
51.0037352129294
30
0
41
1
10
87.9847053508111
20
51.0055968080382
30
0
41
1
10
87.9776622148471
20
51.0064003063312
30
0
41
1
10
87.9621647846331
20
51.0094770948086
30
0
41
1
10
87.9537734296688
20
51.0116694192134
30
0
41
1
10
87.9387970459353
20
51.0175190796987
30
0
41
1
10
87.9334593906055
20
51.0198732197493
30
0
41
1
10
87.9212655710155
20
51.0263687390652
30
0
41
1
10
87.9144631252006
20
51.0303777938987
30
0
41
1
10
87.9017572492205
20
51.040119752871
30
0
41
1
10
87.897122911222
20
51.0440466679573
30
0
41
1
10
87.8881952838967
20
51.0526704904266
30
0
41
1
10
87.8840540663343
20
51.057232893562
30
0
41
1
10
87.8739899194412
20
51.0694631400879
30
0
41
1
10
87.8696799123699
20
51.0762019601855
30
0
41
1
10
87.8661990751244
20
51.082230947146
30
0
0
SPLINE
5
1B7
100
AcDbEntity
8
1
62
256
6
ByLayer
370
18
48
1
60
0
100
AcDbSpline
70
4
71
3
72
8
73
4
40
0
40
0
40
0
40
0
40
1
40
1
40
1
40
1
41
1
10
87.4795187323307
20
51.7519809471527
30
0
41
1
10
87.6055837757653
20
51.5336298868655
30
0
41
1
10
87.7345761385706
20
51.3102085606984
30
0
41
1
10
87.866199075124
20
51.0822309471465
30
0
0
SPLINE
5
1B8
100
AcDbEntity
8
1
62
256
6
ByLayer
370
18
48
1
60
0
100
AcDbSpline
70
4
71
3
72
20
73
16
40
0
40
0
40
0
40
0
40
0.0624999999999914
40
0.0624999999999914
40
0.124999999999983
40
0.124999999999983
40
0.187499999999974
40
0.187499999999974
40
0.249999999999965
40
0.249999999999965
40
0.374999999999974
40
0.374999999999974
40
0.499999999999982
40
0.499999999999982
40
1
40
1
40
1
40
1
41
1
10
87.479518732331
20
51.7519809471524
30
0
41
1
10
87.4776890532004
20
51.7551500443687
30
0
41
1
10
87.4755929804618
20
51.7585242665134
30
0
41
1
10
87.4703882449992
20
51.7660174674074
30
0
41
1
10
87.4672430508029
20
51.7701959376814
30
0
41
1
10
87.4591926204415
20
51.7794473802213
30
0
41
1
10
87.4541263766883
20
51.7845660284988
30
0
41
1
10
87.4442807060088
20
51.7931782768039
30
0
41
1
10
87.4397519438506
20
51.7965735242697
30
0
41
1
10
87.4275816066441
20
51.8049261829829
30
0
41
1
10
87.4212997072268
20
51.8082223270025
30
0
41
1
10
87.4096664359115
20
51.8137224059293
30
0
41
1
10
87.4045618372617
20
51.8156957406456
30
0
41
1
10
87.3806798819579
20
51.8237595047488
30
0
41
1
10
87.3662990493664
20
51.8249809471705
30
0
41
1
10
87.353079023373
20
51.8249809471705
30
0
0
SPLINE
5
1B9
100
AcDbEntity
8
1
62
256
6
ByLayer
370
18
48
1
60
0
100
AcDbSpline
70
4
71
3
72
12
73
8
40
0
40
0
40
0
40
0
40
0.249999999999997
40
0.249999999999997
40
0.499999999999995
40
0.499999999999995
40
1
40
1
40
1
40
1
41
1
10
87.1469209766269
20
51.8249809471617
30
0
41
1
10
87.1306766777333
20
51.8249809471617
30
0
41
1
10
87.1168191289748
20
51.8224539088005
30
0
41
1
10
87.0915485672429
20
51.8147178553057
30
0
41
1
10
87.0802283039686
20
51.8094197662788
30
0
41
1
10
87.0494044236377
20
51.790297227952
30
0
41
1
10
87.0328222880775
20
51.7733562215172
30
0
41
1
10
87.0204812676744
20
51.7519809471618
30
0
0
SPLINE
5
1BA
100
AcDbEntity
8
1
62
256
6
ByLayer
370
18
48
1
60
0
100
AcDbSpline
70
4
71
3
72
8
73
4
40
0
40
0
40
0
40
0
40
1
40
1
40
1
40
1
41
1
10
86.6338009248847
20
51.0822309471617
30
0
41
1
10
86.77427046202
20
51.3255313223959
30
0
41
1
10
86.9033249127223
20
51.5490601879551
30
0
41
1
10
87.0204812676744
20
51.7519809471617
30
0
0
SPLINE
5
1BB
100
AcDbEntity
8
1
62
256
6
ByLayer
370
18
48
1
60
0
100
AcDbSpline
70
4
71
3
72
24
73
20
40
0
40
0
40
0
40
0
40
0.250000000000011
40
0.250000000000011
40
0.500000000000022
40
0.500000000000022
40
0.750000000000034
40
0.750000000000034
40
0.812500000000035
40
0.812500000000035
40
0.875000000000037
40
0.875000000000037
40
0.906250000000027
40
0.906250000000027
40
0.937500000000018
40
0.937500000000018
40
0.968750000000009
40
0.968750000000009
40
1
40
1
40
1
40
1
41
1
10
86.6338009248847
20
51.0822309471617
30
0
41
1
10
86.6248777148425
20
51.066775494002
30
0
41
1
10
86.6136614069203
20
51.0533515387349
30
0
41
1
10
86.5867692112272
20
51.030432620016
30
0
41
1
10
86.5711408047076
20
51.0209239668517
30
0
41
1
10
86.5340606542872
20
51.0074976496696
30
0
41
1
10
86.5129801333472
20
51.0029984651816
30
0
41
1
10
86.4781211967874
20
51.0063776142971
30
0
41
1
10
86.4706485478291
20
51.0075565412981
30
0
41
1
10
86.4541558525067
20
51.0116944559585
30
0
41
1
10
86.4452787978581
20
51.0145169029718
30
0
41
1
10
86.4292715599975
20
51.0219948704383
30
0
41
1
10
86.4235862689485
20
51.0249912765152
30
0
41
1
10
86.410915761576
20
51.0330272866049
30
0
41
1
10
86.4035769823708
20
51.0383924964569
30
0
41
1
10
86.3895190825092
20
51.0510661045746
30
0
41
1
10
86.3829907909376
20
51.0582672669538
30
0
41
1
10
86.3730836684387
20
51.0710071722357
30
0
41
1
10
86.3692951526674
20
51.0768683834889
30
0
41
1
10
86.3661990750643
20
51.0822309472068
30
0
0
SPLINE
5
1BC
100
AcDbEntity
8
1
62
256
6
ByLayer
370
18
48
1
60
0
100
AcDbSpline
70
4
71
3
72
8
73
4
40
0
40
0
40
0
40
0
40
1
40
1
40
1
40
1
41
1
10
85.9795187323314
20
51.7519809471515
30
0
41
1
10
86.1072812423218
20
51.5306897885456
30
0
41
1
10
86.2362067859016
20
51.307384196672
30
0
41
1
10
86.3661990751034
20
51.0822309471821
30
0
0
SPLINE
5
1BD
100
AcDbEntity
8
1
62
256
6
ByLayer
370
18
48
1
60
0
100
AcDbSpline
70
4
71
3
72
18
73
14
40
0
40
0
40
0
40
0
40
0.125000000000023
40
0.125000000000023
40
0.250000000000047
40
0.250000000000047
40
0.37500000000007
40
0.37500000000007
40
0.500000000000093
40
0.500000000000093
40
0.750000000000047
40
0.750000000000047
40
1
40
1
40
1
40
1
41
1
10
85.9795187323319
20
51.7519809471511
30
0
41
1
10
85.9760374313199
20
51.7580107373817
30
0
41
1
10
85.9716887042536
20
51.7646654936223
30
0
41
1
10
85.959310202121
20
51.7796041778918
30
0
41
1
10
85.9508845290242
20
51.7878571528254
30
0
41
1
10
85.9348031731061
20
51.800393913709
30
0
41
1
10
85.9276499904426
20
51.8047068185215
30
0
41
1
10
85.9149199154166
20
51.8114329306506
30
0
41
1
10
85.9091882578269
20
51.8138855702958
30
0
41
1
10
85.8934040534083
20
51.819749928434
30
0
41
1
10
85.8844531680332
20
51.8218192383619
30
0
41
1
10
85.8677987610355
20
51.8244816128279
30
0
41
1
10
85.8602012651072
20
51.8249809471749
30
0
41
1
10
85.8530790233626
20
51.8249809471744
30
0
0
SPLINE
5
1BE
100
AcDbEntity
8
1
62
256
6
ByLayer
370
18
48
1
60
0
100
AcDbSpline
70
4
71
3
72
12
73
8
40
0
40
0
40
0
40
0
40
0.250000000000001
40
0.250000000000001
40
0.500000000000002
40
0.500000000000002
40
1
40
1
40
1
40
1
41
1
10
85.6469209766269
20
51.8249809471617
30
0
41
1
10
85.6305206852731
20
51.8249809471617
30
0
41
1
10
85.6165860230145
20
51.8224096709392
30
0
41
1
10
85.5912300257414
20
51.8145926214548
30
0
41
1
10
85.5798806787198
20
51.8092442946561
30
0
41
1
10
85.5490336440651
20
51.7899847088062
30
0
41
1
10
85.5326433922442
20
51.7730463648447
30
0
41
1
10
85.5204812676744
20
51.7519809471617
30
0
0
SPLINE
5
1BF
100
AcDbEntity
8
1
62
256
6
ByLayer
370
18
48
1
60
0
100
AcDbSpline
70
4
71
3
72
8
73
4
40
0
40
0
40
0
40
0
40
1
40
1
40
1
40
1
41
1
10
85.1338009248847
20
51.0822309471617
30
0
41
1
10
85.2698793713873
20
51.3179257303193
30
0
41
1
10
85.3988710728181
20
51.5413459109523
30
0
41
1
10
85.5204812676744
20
51.7519809471617
30
0
0
SPLINE
5
1C0
100
AcDbEntity
8
1
62
256
6
ByLayer
370
18
48
1
60
0
100
AcDbSpline
70
4
71
3
72
26
73
22
40
0
40
0
40
0
40
0
40
0.250000000000014
40
0.250000000000014
40
0.500000000000028
40
0.500000000000028
40
0.625000000000043
40
0.625000000000043
40
0.750000000000058
40
0.750000000000058
40
0.812500000000048
40
0.812500000000048
40
0.875000000000038
40
0.875000000000038
40
0.906250000000029
40
0.906250000000029
40
0.937500000000019
40
0.937500000000019
40
0.96875000000001
40
0.96875000000001
40
1
40
1
40
1
40
1
41
1
10
85.1338009248847
20
51.0822309471617
30
0
41
1
10
85.1247083277438
20
51.0664821069408
30
0
41
1
10
85.113236923422
20
51.0528397423506
30
0
41
1
10
85.0856562950926
20
51.0296427921353
30
0
41
1
10
85.0695234815118
20
51.0200400681222
30
0
41
1
10
85.0409204233598
20
51.01015738988
30
0
41
1
10
85.030635255536
20
51.0076144373405
30
0
41
1
10
85.007861460716
20
51.0047548888443
30
0
41
1
10
84.9954581433285
20
51.0043502442674
30
0
41
1
10
84.9735866349301
20
51.0070783142897
30
0
41
1
10
84.9657235202022
20
51.0085667123174
30
0
41
1
10
84.9485655923338
20
51.0135203872354
30
0
41
1
10
84.9392647789996
20
51.0168690182158
30
0
41
1
10
84.9226408397829
20
51.0255967428379
30
0
41
1
10
84.9166991221855
20
51.0291395975891
30
0
41
1
10
84.904319997283
20
51.0379357262225
30
0
41
1
10
84.897851164162
20
51.043280298178
30
0
41
1
10
84.8861676199925
20
51.0546994375853
30
0
41
1
10
84.8809666721921
20
51.0607361131282
30
0
41
1
10
84.8725067547773
20
51.0719312595556
30
0
41
1
10
84.8690954235235
20
51.0772143245621
30
0
41
1
10
84.8661990751152
20
51.0822309471618
30
0
0
SPLINE
5
1C1
100
AcDbEntity
8
1
62
256
6
ByLayer
370
18
48
1
60
0
100
AcDbSpline
70
4
71
3
72
8
73
4
40
0
40
0
40
0
40
0
40
1
40
1
40
1
40
1
41
1
10
84.4795187323254
20
51.7519809471618
30
0
41
1
10
84.607826895412
20
51.5297446896701
30
0
41
1
10
84.7367344993006
20
51.306470170253
30
0
41
1
10
84.8661990751152
20
51.0822309471618
30
0
0
SPLINE
5
1C2
100
AcDbEntity
8
1
62
256
6
ByLayer
370
18
48
1
60
0
100
AcDbSpline
70
4
71
3
72
18
73
14
40
0
40
0
40
0
40
0
40
0.125000000000023
40
0.125000000000023
40
0.250000000000046
40
0.250000000000046
40
0.375000000000069
40
0.375000000000069
40
0.500000000000093
40
0.500000000000093
40
0.750000000000046
40
0.750000000000046
40
1
40
1
40
1
40
1
41
1
10
84.4795187323255
20
51.7519809471617
30
0
41
1
10
84.4761556072873
20
51.7578060506
30
0
41
1
10
84.4720782761263
20
51.7640092519945
30
0
41
1
10
84.4612203525043
20
51.7774496615449
30
0
41
1
10
84.4544064072566
20
51.7845354632014
30
0
41
1
10
84.4396428482395
20
51.7969457673648
30
0
41
1
10
84.4323275485066
20
51.8018397867244
30
0
41
1
10
84.4190421830321
20
51.8094550241362
30
0
41
1
10
84.4129486729456
20
51.8122790077983
30
0
41
1
10
84.3960643021183
20
51.8190354274501
30
0
41
1
10
84.3863259124955
20
51.8214278416767
30
0
41
1
10
84.3686368970244
20
51.8244265588545
30
0
41
1
10
84.3606176544621
20
51.8249809471617
30
0
41
1
10
84.3530790233742
20
51.8249809471617
30
0
0
SPLINE
5
1C3
100
AcDbEntity
8
1
62
256
6
ByLayer
370
18
48
1
60
0
100
AcDbSpline
70
4
71
3
72
12
73
8
40
0
40
0
40
0
40
0
40
0.249999999999997
40
0.249999999999997
40
0.499999999999993
40
0.499999999999993
40
1
40
1
40
1
40
1
41
1
10
84.1469209766269
20
51.8249809471617
30
0
41
1
10
84.1304561417453
20
51.8249809471617
30
0
41
1
10
84.1164814763161
20
51.822390473222
30
0
41
1
10
84.091071920931
20
51.8145307104293
30
0
41
1
10
84.0797163862534
20
51.809162455683
30
0
41
1
10
84.0488199127894
20
51.7898092368106
30
0
41
1
10
84.0325384545938
20
51.7728646075025
30
0
41
1
10
84.0204812676744
20
51.7519809471618
30
0
0
SPLINE
5
1C4
100
AcDbEntity
8
1
62
256
6
ByLayer
370
18
48
1
60
0
100
AcDbSpline
70
4
71
3
72
8
73
4
40
0
40
0
40
0
40
0
40
1
40
1
40
1
40
1
41
1
10
83.6338009248847
20
51.0822309471617
30
0
41
1
10
83.7678061724307
20
51.3143348443924
30
0
41
1
10
83.8967683877815
20
51.5377039536365
30
0
41
1
10
84.0204812676744
20
51.7519809471617
30
0
0
SPLINE
5
1C5
100
AcDbEntity
8
1
62
256
6
ByLayer
370
18
48
1
60
0
100
AcDbSpline
70
4
71
3
72
22
73
18
40
0
40
0
40
0
40
0
40
0.250000000000017
40
0.250000000000017
40
0.500000000000034
40
0.500000000000034
40
0.625000000000047
40
0.625000000000047
40
0.750000000000061
40
0.750000000000061
40
0.812500000000046
40
0.812500000000046
40
0.87500000000003
40
0.87500000000003
40
0.937500000000015
40
0.937500000000015
40
1
40
1
40
1
40
1
41
1
10
83.6338009248848
20
51.0822309471616
30
0
41
1
10
83.6245480312821
20
51.0662044653248
30
0
41
1
10
83.612829282089
20
51.0523483598276
30
0
41
1
10
83.5845567102822
20
51.028874665108
30
0
41
1
10
83.5679647064923
20
51.0191743129563
30
0
41
1
10
83.5382410648407
20
51.0094256350515
30
0
41
1
10
83.5275249412569
20
51.006978710324
30
0
41
1
10
83.5036219343491
20
51.0045569779921
30
0
41
1
10
83.4906157707435
20
51.0045006737781
30
0
41
1
10
83.4678320071667
20
51.0081711822349
30
0
41
1
10
83.4597089955132
20
51.0100277266988
30
0
41
1
10
83.441787260878
20
51.0160553317605
30
0
41
1
10
83.431992299423
20
51.020177633871
30
0
41
1
10
83.4102264111126
20
51.0331038797411
30
0
41
1
10
83.398197245171
20
51.0424127534816
30
0
41
1
10
83.3787008214534
20
51.0627582913555
30
0
41
1
10
83.3715245227442
20
51.0730070012948
30
0
41
1
10
83.3661990751145
20
51.0822309471627
30
0
0
SPLINE
5
1C6
100
AcDbEntity
8
1
62
256
6
ByLayer
370
18
48
1
60
0
100
AcDbSpline
70
4
71
3
72
8
73
4
40
0
40
0
40
0
40
0
40
1
40
1
40
1
40
1
41
1
10
82.9795187323253
20
51.7519809471619
30
0
41
1
10
83.1080691296708
20
51.5293251276264
30
0
41
1
10
83.2369698747516
20
51.306062488013
30
0
41
1
10
83.3661990751147
20
51.0822309471626
30
0
0
SPLINE
5
1C7
100
AcDbEntity
8
1
62
256
6
ByLayer
370
18
48
1
60
0
100
AcDbSpline
70
4
71
3
72
18
73
14
40
0
40
0
40
0
40
0
40
0.125000000000007
40
0.125000000000007
40
0.250000000000014
40
0.250000000000014
40
0.37500000000002
40
0.37500000000002
40
0.500000000000027
40
0.500000000000027
40
0.750000000000014
40
0.750000000000014
40
1
40
1
40
1
40
1
41
1
10
82.9795187323511
20
51.7519809471469
30
0
41
1
10
82.9762708255711
20
51.7576064867106
30
0
41
1
10
82.9723563483392
20
51.7635555029922
30
0
41
1
10
82.9624068736231
20
51.7760755242745
30
0
41
1
10
82.9563047531528
20
51.7826101925357
30
0
41
1
10
82.9430095212754
20
51.7943372531549
30
0
41
1
10
82.9358420874512
20
51.7995148696966
30
0
41
1
10
82.9223816934789
20
51.8077260098765
30
0
41
1
10
82.916148160483
20
51.8108134306011
30
0
41
1
10
82.8983593352994
20
51.8183788393058
30
0
41
1
10
82.8882476950447
20
51.8210051075471
30
0
41
1
10
82.8693959771711
20
51.8243819602912
30
0
41
1
10
82.860965434386
20
51.8249809471617
30
0
41
1
10
82.853079023373
20
51.8249809471617
30
0
0
SPLINE
5
1C8
100
AcDbEntity
8
1
62
256
6
ByLayer
370
18
48
1
60
0
100
AcDbSpline
70
4
71
3
72
12
73
8
40
0
40
0
40
0
40
0
40
0.250000000000007
40
0.250000000000007
40
0.500000000000014
40
0.500000000000014
40
1
40
1
40
1
40
1
41
1
10
82.6469209766269
20
51.8249809471617
30
0
41
1
10
82.6304339677702
20
51.8249809471617
30
0
41
1
10
82.6161653400057
20
51.8223300558945
30
0
41
1
10
82.5906325384943
20
51.8143563064081
30
0
41
1
10
82.5793471184239
20
51.808962541585
30
0
41
1
10
82.5487289768373
20
51.7896882006838
30
0
41
1
10
82.5325154798575
20
51.7728248140923
30
0
41
1
10
82.5204812676743
20
51.7519809471619
30
0
0
SPLINE
5
1C9
100
AcDbEntity
8
1
62
256
6
ByLayer
370
18
48
1
60
0
100
AcDbSpline
70
4
71
3
72
8
73
4
40
0
40
0
40
0
40
0
40
1
40
1
40
1
40
1
41
1
10
82.1338009248846
20
51.0822309471617
30
0
41
1
10
82.2666003001581
20
51.3122462123487
30
0
41
1
10
82.3955454646706
20
51.5355857886747
30
0
41
1
10
82.5204812676744
20
51.7519809471617
30
0
0
SPLINE
5
1CA
100
AcDbEntity
8
1
62
256
6
ByLayer
370
18
48
1
60
0
100
AcDbSpline
70
4
71
3
72
22
73
18
40
0
40
0
40
0
40
0
40
0.250000000000007
40
0.250000000000007
40
0.500000000000013
40
0.500000000000013
40
0.625000000000016
40
0.625000000000016
40
0.75000000000002
40
0.75000000000002
40
0.812500000000015
40
0.812500000000015
40
0.87500000000001
40
0.87500000000001
40
0.937500000000005
40
0.937500000000005
40
1
40
1
40
1
40
1
41
1
10
82.1338009248848
20
51.0822309471616
30
0
41
1
10
82.1244328122774
20
51.0660049001545
30
0
41
1
10
82.1125335315578
20
51.0519923277671
30
0
41
1
10
82.0837447213315
20
51.0283153240993
30
0
41
1
10
82.0668232444525
20
51.0185490587438
30
0
41
1
10
82.0362431349771
20
51.0089123300441
30
0
41
1
10
82.0252160395075
20
51.0065521358555
30
0
41
1
10
82.0005782578261
20
51.0044882518698
30
0
41
1
10
81.9871588405188
20
51.0046972386443
30
0
41
1
10
81.9637248842128
20
51.0090897026545
30
0
41
1
10
81.9553050094265
20
51.0112634187714
30
0
41
1
10
81.9369553073957
20
51.018089841929
30
0
41
1
10
81.9269698884024
20
51.022758821954
30
0
41
1
10
81.9059506561053
20
51.0362695124885
30
0
41
1
10
81.8951555264276
20
51.0452791305347
30
0
41
1
10
81.8777754775469
20
51.0641101724415
30
0
41
1
10
81.8712312691631
20
51.0735149313958
30
0
41
1
10
81.8661990751142
20
51.0822309471621
30
0
0
SPLINE
5
1CB
100
AcDbEntity
8
1
62
256
6
ByLayer
370
18
48
1
60
0
100
AcDbSpline
70
4
71
3
72
8
73
4
40
0
40
0
40
0
40
0
40
1
40
1
40
1
40
1
41
1
10
81.4795187323254
20
51.7519809471618
30
0
41
1
10
81.608198226048
20
51.5291015261421
30
0
41
1
10
81.7370957748367
20
51.3058444226689
30
0
41
1
10
81.8661990751151
20
51.0822309471618
30
0
0
SPLINE
5
1CC
100
AcDbEntity
8
1
62
256
6
ByLayer
370
18
48
1
60
0
100
AcDbSpline
70
4
71
3
72
14
73
10
40
0
40
0
40
0
40
0
40
0.25
40
0.25
40
0.5
40
0.5
40
0.75
40
0.75
40
1
40
1
40
1
40
1
41
1
10
81.4795187323255
20
51.7519809471617
30
0
41
1
10
81.473201855754
20
51.7629220983287
30
0
41
1
10
81.4640059973429
20
51.7754119663018
30
0
41
1
10
81.4389422782903
20
51.7982756933223
30
0
41
1
10
81.424829988939
20
51.8068225259339
30
0
41
1
10
81.4006355011442
20
51.8176534092608
30
0
41
1
10
81.3898377796843
20
51.8206273613561
30
0
41
1
10
81.3702894918494
20
51.8243037347571
30
0
41
1
10
81.361421351502
20
51.8249809471617
30
0
41
1
10
81.353079023373
20
51.8249809471617
30
0
0
SPLINE
5
1CD
100
AcDbEntity
8
1
62
256
6
ByLayer
370
18
48
1
60
0
100
AcDbSpline
70
4
71
3
72
12
73
8
40
0
40
0
40
0
40
0
40
0.250000000000007
40
0.250000000000007
40
0.500000000000014
40
0.500000000000014
40
1
40
1
40
1
40
1
41
1
10
81.1469209766269
20
51.8249809471617
30
0
41
1
10
81.1304589726568
20
51.8249809471617
30
0
41
1
10
81.1162884836465
20
51.8223659893969
30
0
41
1
10
81.0905591675967
20
51.8143359117762
30
0
41
1
10
81.0792347106994
20
51.8089063033034
30
0
41
1
10
81.0485745663437
20
51.7895616807434
30
0
41
1
10
81.0324391277865
20
51.7726925684258
30
0
41
1
10
81.0204812676743
20
51.7519809471618
30
0
0
SPLINE
5
1CE
100
AcDbEntity
8
1
62
256
6
ByLayer
370
18
48
1
60
0
100
AcDbSpline
70
4
71
3
72
8
73
4
40
0
40
0
40
0
40
0
40
1
40
1
40
1
40
1
41
1
10
80.6338009248846
20
51.0822309471617
30
0
41
1
10
80.7658133823984
20
51.3108832308075
30
0
41
1
10
80.8947474948883
20
51.534203664469
30
0
41
1
10
81.0204812676744
20
51.7519809471617
30
0
0
SPLINE
5
1CF
100
AcDbEntity
8
1
62
256
6
ByLayer
370
18
48
1
60
0
100
AcDbSpline
70
4
71
3
72
8
73
4
40
0
40
0
40
0
40
0
40
1
40
1
40
1
40
1
41
1
10
80.6338009248849
20
51.0822309471616
30
0
41
1
10
80.6220877436957
20
51.0619431222237
30
0
41
1
10
80.6064853936836
20
51.0450380989398
30
0
41
1
10
80.5868035654749
20
51.0316709670317
30
0
0
SPLINE
5
1D0
100
AcDbEntity
8
1
62
256
6
ByLayer
370
18
48
1
60
0
100
AcDbSpline
70
4
71
3
72
10
73
6
40
0
40
0
40
0
40
0
40
0.5
40
0.5
40
1
40
1
40
1
40
1
41
1
10
79.9795187323069
20
51.751980947194
30
0
41
1
10
79.9757453415931
20
51.7585166516233
30
0
41
1
10
79.9712046416916
20
51.7652573151026
30
0
41
1
10
79.9596930108949
20
51.7791344844578
30
0
41
1
10
79.9527511843427
20
51.7861040494029
30
0
41
1
10
79.9452353838243
20
51.7922205393032
30
0
0
SPLINE
5
1D1
100
AcDbEntity
8
1
62
256
6
ByLayer
370
18
48
1
60
0
100
AcDbSpline
70
4
71
3
72
8
73
4
40
0
40
0
40
0
40
0
40
1
40
1
40
1
40
1
41
1
10
79.9795187323058
20
51.7519809471956
30
0
41
1
10
79.9797637269796
20
51.7515566039731
30
0
41
1
10
79.9800087221657
20
51.7511322598633
30
0
41
1
10
79.9802537178639
20
51.7507079148663
30
0
0
SPLINE
5
1D2
100
AcDbEntity
8
1
62
256
6
ByLayer
370
18
48
1
60
0
100
AcDbSpline
70
4
71
3
72
8
73
4
40
0
40
0
40
0
40
0
40
1
40
1
40
1
40
1
41
1
10
60.0547646161756
20
51.7922205393032
30
0
41
1
10
60.0394994057553
20
51.7797974441007
30
0
41
1
10
60.027948374794
20
51.7649143561282
30
0
41
1
10
60.0204812676423
20
51.7519809471506
30
0
0
SPLINE
5
1D3
100
AcDbEntity
8
1
62
256
6
ByLayer
370
18
48
1
60
0
100
AcDbSpline
70
4
71
3
72
8
73
4
40
0
40
0
40
0
40
0
40
1
40
1
40
1
40
1
41
1
10
60.0197462821359
20
51.7507079148662
30
0
41
1
10
60.0199912778276
20
51.7511322598519
30
0
41
1
10
60.0202362730071
20
51.7515566039504
30
0
41
1
10
60.0204812676744
20
51.7519809471617
30
0
0
SPLINE
5
1D4
100
AcDbEntity
8
1
62
256
6
ByLayer
370
18
48
0.05
60
1
100
AcDbSpline
70
4
71
3
72
26
73
22
40
0
40
0
40
0
40
0
40
0.0078124999999997
40
0.0078124999999997
40
0.0156249999999993
40
0.0312499999999991
40
0.0624999999999991
40
0.0624999999999991
40
0.124999999999999
40
0.124999999999999
40
0.25
40
0.25
40
0.375
40
0.375
40
0.4375
40
0.4375
40
0.500000000000001
40
0.500000000000001
40
0.75
40
0.75
40
1
40
1
40
1
40
1
41
1
10
59.5967477524977
20
9.4E-15
30
0
41
1
10
59.634645611269
20
-0.0537294915571861
30
0
41
1
10
59.6731287905025
20
-0.10828881032587
30
0
41
1
10
59.7498017142901
20
-0.21699187203881
30
0
41
1
10
59.8647989878569
20
-0.380029941219327
30
0
41
1
10
60.1330390750801
20
-0.760338010078521
30
0
41
1
10
60.3628030058679
20
-1.08612613217822
30
0
41
1
10
60.822103399137
20
-1.73746286309313
30
0
41
1
10
61.1280004287031
20
-2.17136804770969
30
0
41
1
10
62.0446259808906
20
-3.47223652031554
30
0
41
1
10
62.6542906922019
20
-4.33835296237747
30
0
41
1
10
63.8699202847797
20
-6.06890558049427
30
0
41
1
10
64.4758863391872
20
-6.93334102786737
30
0
41
1
10
65.3813639205772
20
-8.22916737811768
30
0
41
1
10
65.682610549546
20
-8.66097176731603
30
0
41
1
10
66.2838194332615
20
-9.52437940968268
30
0
41
1
10
66.5835955357491
20
-9.95571703542258
30
0
41
1
10
68.0739720230271
20
-12.1049145234613
30
0
41
1
10
69.2428807079121
20
-13.8056562984284
30
0
41
1
10
71.5247927635851
20
-17.1739356012698
30
0
41
1
10
72.6378714166232
20
-18.8414544852359
30
0
41
1
10
73.7164055778738
20
-20.4939694560096
30
0
0
SPLINE
5
1D5
100
AcDbEntity
8
1
62
256
6
ByLayer
370
18
48
0.05
60
1
100
AcDbSpline
70
4
71
3
72
18
73
14
40
0
40
0
40
0
40
0
40
0.25
40
0.25
40
0.5
40
0.5
40
0.75
40
0.75
40
0.875
40
0.875
40
0.9375
40
0.9375
40
1
40
1
40
1
40
1
41
1
10
45.4259670766131
20
8.04178322557102
30
0
41
1
10
45.3975725204314
20
7.3711921844334
30
0
41
1
10
45.3571709418912
20
6.70109182987772
30
0
41
1
10
45.2671730753787
20
5.36157920467836
30
0
41
1
10
45.2174287423351
20
4.69208795075158
30
0
41
1
10
45.124115046138
20
3.35276053427122
30
0
41
1
10
45.0806128824088
20
2.68292061823195
30
0
41
1
10
45.0338260294669
20
1.67712928681455
30
0
41
1
10
45.0213313208441
20
1.3416923055477
30
0
41
1
10
45.0086334026195
20
0.838199232381505
30
0
41
1
10
45.0054026166252
20
0.670312248548218
30
0
41
1
10
45.0010821353383
20
0.334418688289776
30
0
41
1
10
45
20
0.167370224800889
30
0
41
1
10
45
20
1E-16
30
0
0
SPLINE
5
1D6
100
AcDbEntity
8
1
62
256
6
ByLayer
370
18
48
0.05
60
1
100
AcDbSpline
70
4
71
3
72
30
73
26
40
0
40
0
40
0
40
0
40
0.125000000000002
40
0.125000000000002
40
0.187500000000003
40
0.187500000000003
40
0.218750000000004
40
0.218750000000004
40
0.250000000000004
40
0.250000000000004
40
0.375000000000006
40
0.375000000000006
40
0.500000000000007
40
0.500000000000007
40
0.531250000000007
40
0.531250000000007
40
0.562500000000008
40
0.562500000000008
40
0.625000000000007
40
0.625000000000007
40
0.750000000000005
40
0.750000000000005
40
0.875000000000002
40
0.875000000000002
40
1
40
1
40
1
40
1
41
1
10
59.5967477524977
20
43.75
30
0
41
1
10
60.4919919639747
20
43.75
30
0
41
1
10
61.3735555628865
20
43.8150157792084
30
0
41
1
10
62.6770982262645
20
44.0011321685174
30
0
41
1
10
63.108475270191
20
44.0779369383585
30
0
41
1
10
63.7510195920424
20
44.2141961050815
30
0
41
1
10
63.9644472822114
20
44.2631247136961
30
0
41
1
10
64.3898233405917
20
44.3678202614859
30
0
41
1
10
64.6022004058364
20
44.4237108738263
30
0
41
1
10
65.6544815970245
20
44.7181102659192
30
0
41
1
10
66.4641624031348
20
45.0004238344329
30
0
41
1
10
68.0306951931844
20
45.6381121292528
30
0
41
1
10
68.7874962110016
20
45.9935592674124
30
0
41
1
10
69.7051672460221
20
46.4743102817016
30
0
41
1
10
69.8872774073642
20
46.572293613321
30
0
41
1
10
70.2487402322867
20
46.7717348721442
30
0
41
1
10
70.4279486001505
20
46.8731201210707
30
0
41
1
10
70.9588308361128
20
47.1805764218471
30
0
41
1
10
71.3046982591572
20
47.3904447265602
30
0
41
1
10
72.320302193809
20
48.0325015085512
30
0
41
1
10
72.9681563562693
20
48.4770474966677
30
0
41
1
10
74.213442488583
20
49.3901247583854
30
0
41
1
10
74.8108326118932
20
49.8586949564479
30
0
41
1
10
75.9598265162369
20
50.8134834205683
30
0
41
1
10
76.511409945827
20
51.2997240063967
30
0
41
1
10
77.0412497046237
20
51.7924624620219
30
0
0
SPLINE
5
1D7
100
AcDbEntity
8
1
62
256
6
ByLayer
370
18
48
0.05
60
1
100
AcDbSpline
70
4
71
3
72
10
73
6
40
0
40
0
40
0
40
0
40
0.5
40
0.5
40
1
40
1
40
1
40
1
41
1
10
46.5988485509473
20
20.3159814172705
30
0
41
1
10
47.1433944260748
20
23.1337041173444
30
0
41
1
10
47.7165406361017
20
25.9454137814377
30
0
41
1
10
48.9023799046171
20
31.560518639757
30
0
41
1
10
49.5151536982163
20
34.3638968599467
30
0
41
1
10
50.1419305959529
20
37.1643310177918
30
0
0
SPLINE
5
1D8
100
AcDbEntity
8
1
62
256
6
ByLayer
370
18
48
0.05
60
1
100
AcDbSpline
70
2053
71
3
72
46
73
42
40
0
40
0
40
0
40
0
40
0.0624999999999998
40
0.0624999999999998
40
0.125
40
0.187499999999999
40
0.187499999999999
40
0.249999999999999
40
0.249999999999999
40
0.265624999999999
40
0.265624999999999
40
0.281249999999999
40
0.312499999999999
40
0.312499999999999
40
0.374999999999999
40
0.374999999999999
40
0.437499999999999
40
0.437499999999999
40
0.499999999999999
40
0.499999999999999
40
0.531249999999999
40
0.531249999999999
40
0.546874999999999
40
0.546874999999999
40
0.562499999999999
40
0.562499999999999
40
0.624999999999999
40
0.624999999999999
40
0.687499999999999
40
0.749999999999999
40
0.749999999999999
40
0.812499999999999
40
0.812499999999999
40
0.843749999999999
40
0.843749999999999
40
0.859374999999999
40
0.859374999999999
40
0.874999999999999
40
0.874999999999999
40
0.937499999999999
40
1
40
1
40
1
40
1
41
1
10
52.5485112593987
20
68.2499999999997
30
0
41
1
10
52.5731040964226
20
69.0202330733881
30
0
41
1
10
52.5961427665159
20
69.7433617889527
30
0
41
1
10
52.6392154451262
20
71.0975594835151
30
0
41
1
10
52.6792831441266
20
72.3596901807283
30
0
41
1
10
52.7134457633228
20
73.439119723775
30
0
41
1
10
52.7446598327998
20
74.4265373090349
30
0
41
1
10
52.7587927006696
20
74.8742436380922
30
0
41
1
10
52.7745878188381
20
75.3750675392985
30
0
41
1
10
52.7776502307084
20
75.472195077716
30
0
41
1
10
52.7835664914619
20
75.6598795402608
30
0
41
1
10
52.7921355958715
20
75.9317901088104
30
0
41
1
10
52.7997975918704
20
76.1750879836522
30
0
41
1
10
52.8139303307656
20
76.6240159152406
30
0
41
1
10
52.8217654553759
20
76.8731244179459
30
0
41
1
10
52.8343182213617
20
77.2723786581242
30
0
41
1
10
52.8390357983546
20
77.4225227938879
30
0
41
1
10
52.8453574810814
20
77.6237465115168
30
0
41
1
10
52.8469616521676
20
77.6748281982198
30
0
41
1
10
52.8469971649284
20
77.6759588910678
30
0
41
1
10
52.8466134693285
20
77.6637419688602
30
0
41
1
10
52.8454363039693
20
77.6262645032193
30
0
41
1
10
52.8449436174642
20
77.61057919608
30
0
41
1
10
52.8437559177589
20
77.572769406138
30
0
41
1
10
52.8430608958392
20
77.5506446503148
30
0
41
1
10
52.8390942737431
20
77.4243837201469
30
0
41
1
10
52.834341700415
20
77.2731254843571
30
0
41
1
10
52.8217510345821
20
76.8726656994456
30
0
41
1
10
52.8060745764331
20
76.3742542751431
30
0
41
1
10
52.7842672313655
20
75.6819861497564
30
0
41
1
10
52.7593643865534
20
74.8923621158047
30
0
41
1
10
52.7453653337184
20
74.4488750651073
30
0
41
1
10
52.7219837275936
20
73.7091980406355
30
0
41
1
10
52.7137922715303
20
73.450219465007
30
0
41
1
10
52.7008970344127
20
73.0428305780775
30
0
41
1
10
52.6964969178644
20
72.9038695528409
30
0
41
1
10
52.6875199065914
20
72.6204721362701
30
0
41
1
10
52.6829397804184
20
72.4759336301365
30
0
41
1
10
52.6595815876706
20
71.7390920334068
30
0
41
1
10
52.6192837872776
20
70.4696983213324
30
0
41
1
10
52.5731041174432
20
69.0202337317416
30
0
41
1
10
52.5485112593987
20
68.2499999999997
30
0
0
SPLINE
5
1D9
100
AcDbEntity
8
1
62
256
6
ByLayer
370
18
48
1
60
0
100
AcDbSpline
70
4
71
3
72
10
73
6
40
0
40
0
40
0
40
0
40
0.312322774025291
40
0.312322774025291
40
1
40
1
40
1
40
1
41
1
10
18.0850618793412
20
35.9069642984473
30
0
41
1
10
17.9488948160308
20
36.2200555590839
30
0
41
1
10
17.8120803774926
20
36.5328644470961
30
0
41
1
10
17.3720560956874
20
37.5335547196825
30
0
41
1
10
17.0664818191815
20
38.2203959318764
30
0
41
1
10
16.7582401178414
20
38.9060436875042
30
0
0
SPLINE
5
1DA
100
AcDbEntity
8
1
62
256
6
ByLayer
370
18
48
1
60
0
100
AcDbSpline
70
4
71
3
72
8
73
4
40
0
40
0
40
0
40
0
40
1
40
1
40
1
40
1
41
1
10
18.0850618793412
20
34.1733734306669
30
0
41
1
10
18.11886902393
20
33.9506265973154
30
0
41
1
10
18.1677997187184
20
33.6285508236283
30
0
41
1
10
18.4850618793412
20
33.6285508236283
30
0
0
SPLINE
5
1DB
100
AcDbEntity
8
1
62
256
6
ByLayer
370
18
48
1
60
0
100
AcDbSpline
70
4
71
3
72
9
73
5
40
0
40
0
40
0
40
0
40
0.514957974732352
40
1
40
1
40
1
40
1
41
1
10
21.5150618793415
20
33.6285508233936
30
0
41
1
10
20.9949543248618
20
33.6285508233936
30
0
41
1
10
19.9849543248616
20
33.6285508234013
30
0
41
1
10
18.9749543248615
20
33.6285508233936
30
0
41
1
10
18.4850618793412
20
33.6285508233936
30
0
0
SPLINE
5
1DC
100
AcDbEntity
8
1
62
256
6
ByLayer
370
18
48
1
60
0
100
AcDbSpline
70
4
71
3
72
8
73
4
40
0
40
0
40
0
40
0
40
1
40
1
40
1
40
1
41
1
10
21.9150618793412
20
34.1733734306669
30
0
41
1
10
21.8812547347524
20
33.9506265973154
30
0
41
1
10
21.8323240399639
20
33.6285508236283
30
0
41
1
10
21.5150618793412
20
33.6285508236283
30
0
0
SPLINE
5
1DD
100
AcDbEntity
8
1
62
256
6
ByLayer
370
18
48
1
60
0
100
AcDbSpline
70
4
71
3
72
10
73
6
40
0
40
0
40
0
40
0
40
0.312322774025291
40
0.312322774025291
40
1
40
1
40
1
40
1
41
1
10
21.9150618793412
20
35.9069642984473
30
0
41
1
10
22.0512289426516
20
36.2200555590839
30
0
41
1
10
22.1880433811897
20
36.5328644470961
30
0
41
1
10
22.6280676629949
20
37.5335547196825
30
0
41
1
10
22.9336419395008
20
38.2203959318764
30
0
41
1
10
23.2418836408409
20
38.9060436875042
30
0
0
SPLINE
5
1DE
100
AcDbEntity
8
1
62
256
6
ByLayer
370
18
48
0.05
60
1
100
AcDbSpline
70
4
71
3
72
46
73
42
40
0
40
0
40
0
40
0
40
0.226463582827752
40
0.278032677305903
40
0.278032677305903
40
0.29092495092544
40
0.29092495092544
40
0.303817224544978
40
0.303817224544978
40
0.329601771784053
40
0.329601771784053
40
0.381170866262202
40
0.381170866262202
40
0.432739960740352
40
0.484309055218502
40
0.484309055218502
40
0.535878149696652
40
0.535878149696652
40
0.548770423316189
40
0.548770423316189
40
0.561662696935727
40
0.561662696935727
40
0.587447244174802
40
0.587447244174802
40
0.639016338652952
40
0.639016338652952
40
0.690585433131102
40
0.690585433131102
40
0.742154527609251
40
0.742154527609251
40
0.767939074848326
40
0.780831348467864
40
0.780831348467864
40
0.793723622087401
40
0.793723622087401
40
0.845292716565551
40
0.845292716565551
40
0.896861811043701
40
0.94843090552185
40
0.94843090552185
40
1
40
1
40
1
40
1
41
1
10
52.2451609691362
20
58.8244095502729
30
0
41
1
10
52.3995743331641
20
63.5866398209396
30
0
41
1
10
52.5509496110364
20
68.3171497257631
30
0
41
1
10
52.6595815876706
20
71.7390920334068
30
0
41
1
10
52.6829397804184
20
72.4759336301365
30
0
41
1
10
52.6875199065914
20
72.6204721362701
30
0
41
1
10
52.6964969178644
20
72.9038695528409
30
0
41
1
10
52.7008970344127
20
73.0428305780775
30
0
41
1
10
52.7137922715303
20
73.450219465007
30
0
41
1
10
52.7219837275936
20
73.7091980406355
30
0
41
1
10
52.7453653337184
20
74.4488750651073
30
0
41
1
10
52.7593643865534
20
74.8923621158047
30
0
41
1
10
52.7842672313655
20
75.6819861497564
30
0
41
1
10
52.8060745764331
20
76.3742542751431
30
0
41
1
10
52.8217510345821
20
76.8726656994456
30
0
41
1
10
52.834341700415
20
77.2731254843571
30
0
41
1
10
52.8390942737431
20
77.4243837201469
30
0
41
1
10
52.8430608958392
20
77.5506446503148
30
0
41
1
10
52.8437559177589
20
77.572769406138
30
0
41
1
10
52.8449436174642
20
77.61057919608
30
0
41
1
10
52.8454363039693
20
77.6262645032193
30
0
41
1
10
52.8466134693285
20
77.6637419688602
30
0
41
1
10
52.8469971649284
20
77.6759588910678
30
0
41
1
10
52.8469616521676
20
77.6748281982198
30
0
41
1
10
52.8453574810814
20
77.6237465115168
30
0
41
1
10
52.8390357983546
20
77.4225227938879
30
0
41
1
10
52.8343182213617
20
77.2723786581242
30
0
41
1
10
52.8217654553759
20
76.8731244179459
30
0
41
1
10
52.8139303307656
20
76.6240159152406
30
0
41
1
10
52.7997975918704
20
76.1750879836522
30
0
41
1
10
52.7921355958715
20
75.9317901088104
30
0
41
1
10
52.7835664914619
20
75.6598795402608
30
0
41
1
10
52.7776502307084
20
75.472195077716
30
0
41
1
10
52.7745878188381
20
75.3750675392985
30
0
41
1
10
52.7587927006696
20
74.8742436380922
30
0
41
1
10
52.7446598327998
20
74.4265373090349
30
0
41
1
10
52.7134457633228
20
73.439119723775
30
0
41
1
10
52.6792831441266
20
72.3596901807283
30
0
41
1
10
52.6392154451262
20
71.0975594835151
30
0
41
1
10
52.5961427665159
20
69.7433617889527
30
0
41
1
10
52.5731040964226
20
69.0202330733881
30
0
41
1
10
52.5485112593987
20
68.2499999999997
30
0
0
SPLINE
5
1DF
100
AcDbEntity
8
1
62
256
6
ByLayer
370
18
48
0.05
60
1
100
AcDbSpline
70
4
71
3
72
46
73
42
40
0
40
0
40
0
40
0
40
0.226463582827752
40
0.278032677305903
40
0.278032677305903
40
0.29092495092544
40
0.29092495092544
40
0.303817224544978
40
0.303817224544978
40
0.329601771784053
40
0.329601771784053
40
0.381170866262202
40
0.381170866262202
40
0.432739960740352
40
0.484309055218502
40
0.484309055218502
40
0.535878149696652
40
0.535878149696652
40
0.548770423316189
40
0.548770423316189
40
0.561662696935727
40
0.561662696935727
40
0.587447244174802
40
0.587447244174802
40
0.639016338652952
40
0.639016338652952
40
0.690585433131102
40
0.690585433131102
40
0.742154527609251
40
0.742154527609251
40
0.767939074848326
40
0.780831348467864
40
0.780831348467864
40
0.793723622087401
40
0.793723622087401
40
0.845292716565551
40
0.845292716565551
40
0.896861811043701
40
0.94843090552185
40
0.94843090552185
40
1
40
1
40
1
40
1
41
1
10
52.2451609691362
20
58.8244095502729
30
0
41
1
10
52.3995743331641
20
63.5866398209396
30
0
41
1
10
52.5509496110364
20
68.3171497257631
30
0
41
1
10
52.6595815876706
20
71.7390920334068
30
0
41
1
10
52.6829397804184
20
72.4759336301365
30
0
41
1
10
52.6875199065914
20
72.6204721362701
30
0
41
1
10
52.6964969178644
20
72.9038695528409
30
0
41
1
10
52.7008970344127
20
73.0428305780775
30
0
41
1
10
52.7137922715303
20
73.450219465007
30
0
41
1
10
52.7219837275936
20
73.7091980406355
30
0
41
1
10
52.7453653337184
20
74.4488750651073
30
0
41
1
10
52.7593643865534
20
74.8923621158047
30
0
41
1
10
52.7842672313655
20
75.6819861497564
30
0
41
1
10
52.8060745764331
20
76.3742542751431
30
0
41
1
10
52.8217510345821
20
76.8726656994456
30
0
41
1
10
52.834341700415
20
77.2731254843571
30
0
41
1
10
52.8390942737431
20
77.4243837201469
30
0
41
1
10
52.8430608958392
20
77.5506446503148
30
0
41
1
10
52.8437559177589
20
77.572769406138
30
0
41
1
10
52.8449436174642
20
77.61057919608
30
0
41
1
10
52.8454363039693
20
77.6262645032193
30
0
41
1
10
52.8466134693285
20
77.6637419688602
30
0
41
1
10
52.8469971649284
20
77.6759588910678
30
0
41
1
10
52.8469616521676
20
77.6748281982198
30
0
41
1
10
52.8453574810814
20
77.6237465115168
30
0
41
1
10
52.8390357983546
20
77.4225227938879
30
0
41
1
10
52.8343182213617
20
77.2723786581242
30
0
41
1
10
52.8217654553759
20
76.8731244179459
30
0
41
1
10
52.8139303307656
20
76.6240159152406
30
0
41
1
10
52.7997975918704
20
76.1750879836522
30
0
41
1
10
52.7921355958715
20
75.9317901088104
30
0
41
1
10
52.7835664914619
20
75.6598795402608
30
0
41
1
10
52.7776502307084
20
75.472195077716
30
0
41
1
10
52.7745878188381
20
75.3750675392985
30
0
41
1
10
52.7587927006696
20
74.8742436380922
30
0
41
1
10
52.7446598327998
20
74.4265373090349
30
0
41
1
10
52.7134457633228
20
73.439119723775
30
0
41
1
10
52.6792831441266
20
72.3596901807283
30
0
41
1
10
52.6392154451262
20
71.0975594835151
30
0
41
1
10
52.5961427665159
20
69.7433617889527
30
0
41
1
10
52.5731040964226
20
69.0202330733881
30
0
41
1
10
52.5485112593987
20
68.2499999999997
30
0
0
SPLINE
5
1E0
100
AcDbEntity
8
1
62
256
6
ByLayer
370
18
48
1
60
0
100
AcDbSpline
70
4
71
3
72
24
73
20
40
0
40
0
40
0
40
0
40
0.091465232325012
40
0.091465232325012
40
0.205032078284386
40
0.205032078284386
40
0.31859892424376
40
0.31859892424376
40
0.545732616162507
40
0.545732616162507
40
0.772866308081255
40
0.772866308081255
40
0.886433154040628
40
0.886433154040628
40
0.943216577020315
40
0.971608288510158
40
0.985804144255079
40
0.985804144255079
40
1
40
1
40
1
40
1
41
1
10
67.5989862594883
20
-11.4218699426855
30
0
41
1
10
67.3608542763734
20
-11.0771758896507
30
0
41
1
10
67.1217367265718
20
-10.7317435665702
30
0
41
1
10
66.5835955357491
20
-9.95571703542258
30
0
41
1
10
66.2838194332615
20
-9.52437940968268
30
0
41
1
10
65.682610549546
20
-8.66097176731603
30
0
41
1
10
65.3813639205772
20
-8.22916737811768
30
0
41
1
10
64.4758863391872
20
-6.93334102786737
30
0
41
1
10
63.8699202847797
20
-6.06890558049427
30
0
41
1
10
62.6542906922019
20
-4.33835296237747
30
0
41
1
10
62.0446259808906
20
-3.47223652031554
30
0
41
1
10
61.1280004287031
20
-2.17136804770969
30
0
41
1
10
60.822103399137
20
-1.73746286309313
30
0
41
1
10
60.3628030058679
20
-1.08612613217822
30
0
41
1
10
60.1330390750801
20
-0.760338010078521
30
0
41
1
10
59.8647989878569
20
-0.380029941219327
30
0
41
1
10
59.7498017142901
20
-0.21699187203881
30
0
41
1
10
59.6731287905025
20
-0.10828881032587
30
0
41
1
10
59.634645611269
20
-0.0537294915571861
30
0
41
1
10
59.5967477524977
20
9.4E-15
30
0
0
SPLINE
5
1E1
100
AcDbEntity
8
1
62
256
6
ByLayer
370
18
48
1
60
0
100
AcDbSpline
70
4
71
3
72
30
73
26
40
0
40
0
40
0
40
0
40
0.0439738748472272
40
0.0439738748472272
40
0.180549035583334
40
0.180549035583334
40
0.317124196319442
40
0.317124196319442
40
0.385411776687496
40
0.385411776687496
40
0.419555566871524
40
0.419555566871524
40
0.453699357055553
40
0.453699357055553
40
0.590274517791664
40
0.590274517791664
40
0.726849678527775
40
0.726849678527775
40
0.760993468711803
40
0.760993468711803
40
0.795137258895831
40
0.795137258895831
40
0.863424839263888
40
0.863424839263888
40
1
40
1
40
1
40
1
41
1
10
75.9331644657999
20
50.7998899997889
30
0
41
1
10
75.7529022060545
20
50.6444249023069
30
0
41
1
10
75.5703035881757
20
50.4897985021216
30
0
41
1
10
74.8108326118932
20
49.8586949564479
30
0
41
1
10
74.213442488583
20
49.3901247583854
30
0
41
1
10
72.9681563562693
20
48.4770474966677
30
0
41
1
10
72.320302193809
20
48.0325015085512
30
0
41
1
10
71.3046982591572
20
47.3904447265602
30
0
41
1
10
70.9588308361128
20
47.1805764218471
30
0
41
1
10
70.4279486001505
20
46.8731201210707
30
0
41
1
10
70.2487402322867
20
46.7717348721442
30
0
41
1
10
69.8872774073642
20
46.572293613321
30
0
41
1
10
69.7051672460221
20
46.4743102817016
30
0
41
1
10
68.7874962110016
20
45.9935592674124
30
0
41
1
10
68.0306951931844
20
45.6381121292528
30
0
41
1
10
66.4641624031348
20
45.0004238344329
30
0
41
1
10
65.6544815970245
20
44.7181102659192
30
0
41
1
10
64.6022004058364
20
44.4237108738263
30
0
41
1
10
64.3898233405917
20
44.3678202614859
30
0
41
1
10
63.9644472822114
20
44.2631247136961
30
0
41
1
10
63.7510195920424
20
44.2141961050815
30
0
41
1
10
63.108475270191
20
44.0779369383585
30
0
41
1
10
62.6770982262645
20
44.0011321685174
30
0
41
1
10
61.3735555628865
20
43.8150157792084
30
0
41
1
10
60.4919919639747
20
43.75
30
0
41
1
10
59.5967477524977
20
43.75
30
0
0
INSERT
5
1F1
100
AcDbEntity
8
SK2
62
256
6
ByLayer
370
18
48
1
60
0
100
AcDbBlockReference
2
LABLE3D_1
10
0
20
0
30
0
41
1
42
1
43
1
50
0
210
0
220
0
230
1
0
LINE
5
70
100
AcDbEntity
8
1
62
256
6
ByLayer
370
18
48
1
60
0
100
AcDbLine
10
80.396927
20
50.8
30
0
11
78.51325
21
50.8
31
0
39
0
210
0
220
0
230
1
0
LINE
5
72
100
AcDbEntity
8
1
62
256
6
ByLayer
370
18
48
1
60
0
100
AcDbLine
10
78.51325
20
50.8
30
0
11
60.347599
21
50.8
31
0
39
0
210
0
220
0
230
1
0
LINE
5
73
100
AcDbEntity
8
1
62
256
6
ByLayer
370
18
48
1
60
0
100
AcDbLine
10
79.980254
20
51.750708
30
0
11
79.945235
21
51.792221
31
0
39
0
210
0
220
0
230
1
0
LINE
5
74
100
AcDbEntity
8
1
62
256
6
ByLayer
370
18
48
1
60
0
100
AcDbLine
10
79.853079
20
51.824981
30
0
11
79.646921
21
51.824981
31
0
39
0
210
0
220
0
230
1
0
LINE
5
75
100
AcDbEntity
8
1
62
256
6
ByLayer
370
18
48
1
60
0
100
AcDbLine
10
78.353079
20
51.824981
30
0
11
78.146921
21
51.824981
31
0
39
0
210
0
220
0
230
1
0
LINE
5
76
100
AcDbEntity
8
1
62
256
6
ByLayer
370
18
48
1
60
0
100
AcDbLine
10
76.853079
20
51.824981
30
0
11
76.646921
21
51.824981
31
0
39
0
210
0
220
0
230
1
0
LINE
5
77
100
AcDbEntity
8
1
62
256
6
ByLayer
370
18
48
1
60
0
100
AcDbLine
10
75.552168
20
51
30
0
11
75.552168
21
51.626149
31
0
39
0
210
0
220
0
230
1
0
LINE
5
78
100
AcDbEntity
8
1
62
256
6
ByLayer
370
18
48
1
60
0
100
AcDbLine
10
80.61352
20
51
30
0
11
75.552168
21
51
31
0
39
0
210
0
220
0
230
1
0
LINE
5
79
100
AcDbEntity
8
1
62
256
6
ByLayer
370
18
48
1
60
0
100
AcDbLine
10
80.61352
20
51
30
0
11
80.586804
21
51.031671
31
0
39
0
210
0
220
0
230
1
0
LINE
5
7A
100
AcDbEntity
8
1
62
256
6
ByLayer
370
18
48
1
60
0
100
AcDbLine
10
75.552168
20
50.8
30
0
11
75.552168
21
51
31
0
39
0
210
0
220
0
230
1
0
LINE
5
7B
100
AcDbEntity
8
1
62
256
6
ByLayer
370
18
48
1
60
0
100
AcDbLine
10
80.61352
20
50.8
30
0
11
80.61352
21
51
31
0
39
0
210
0
220
0
230
1
0
LINE
5
7C
100
AcDbEntity
8
1
62
256
6
ByLayer
370
18
48
1
60
0
100
AcDbLine
10
75.485479
20
51.741657
30
0
11
75.014521
21
51.741657
31
0
39
0
210
0
220
0
230
1
0
LINE
5
7D
100
AcDbEntity
8
1
62
256
6
ByLayer
370
18
48
1
60
0
100
AcDbLine
10
74.633801
20
51.082231
30
0
11
75.014521
21
51.741657
31
0
39
0
210
0
220
0
230
1
0
LINE
5
7E
100
AcDbEntity
8
1
62
256
6
ByLayer
370
18
48
1
60
0
100
AcDbLine
10
73.985479
20
51.741657
30
0
11
74.366199
21
51.082231
31
0
39
0
210
0
220
0
230
1
0
LINE
5
7F
100
AcDbEntity
8
1
62
256
6
ByLayer
370
18
48
1
60
0
100
AcDbLine
10
73.985479
20
51.741657
30
0
11
73.514521
21
51.741657
31
0
39
0
210
0
220
0
230
1
0
LINE
5
80
100
AcDbEntity
8
1
62
256
6
ByLayer
370
18
48
1
60
0
100
AcDbLine
10
73.133801
20
51.082231
30
0
11
73.514521
21
51.741657
31
0
39
0
210
0
220
0
230
1
0
LINE
5
81
100
AcDbEntity
8
1
62
256
6
ByLayer
370
18
48
1
60
0
100
AcDbLine
10
72.485479
20
51.741657
30
0
11
72.866199
21
51.082231
31
0
39
0
210
0
220
0
230
1
0
LINE
5
82
100
AcDbEntity
8
1
62
256
6
ByLayer
370
18
48
1
60
0
100
AcDbLine
10
72.485479
20
51.741657
30
0
11
72.014521
21
51.741657
31
0
39
0
210
0
220
0
230
1
0
LINE
5
83
100
AcDbEntity
8
1
62
256
6
ByLayer
370
18
48
1
60
0
100
AcDbLine
10
71.633801
20
51.082231
30
0
11
72.014521
21
51.741657
31
0
39
0
210
0
220
0
230
1
0
LINE
5
84
100
AcDbEntity
8
1
62
256
6
ByLayer
370
18
48
1
60
0
100
AcDbLine
10
70.985479
20
51.741657
30
0
11
71.366199
21
51.082231
31
0
39
0
210
0
220
0
230
1
0
LINE
5
85
100
AcDbEntity
8
1
62
256
6
ByLayer
370
18
48
1
60
0
100
AcDbLine
10
70.985479
20
51.741657
30
0
11
70.514521
21
51.741657
31
0
39
0
210
0
220
0
230
1
0
LINE
5
86
100
AcDbEntity
8
1
62
256
6
ByLayer
370
18
48
1
60
0
100
AcDbLine
10
70.133801
20
51.082231
30
0
11
70.514521
21
51.741657
31
0
39
0
210
0
220
0
230
1
0
LINE
5
87
100
AcDbEntity
8
1
62
256
6
ByLayer
370
18
48
1
60
0
100
AcDbLine
10
69.485479
20
51.741657
30
0
11
69.866199
21
51.082231
31
0
39
0
210
0
220
0
230
1
0
LINE
5
88
100
AcDbEntity
8
1
62
256
6
ByLayer
370
18
48
1
60
0
100
AcDbLine
10
69.485479
20
51.741657
30
0
11
69.014521
21
51.741657
31
0
39
0
210
0
220
0
230
1
0
LINE
5
89
100
AcDbEntity
8
1
62
256
6
ByLayer
370
18
48
1
60
0
100
AcDbLine
10
68.633801
20
51.082231
30
0
11
69.014521
21
51.741657
31
0
39
0
210
0
220
0
230
1
0
LINE
5
8A
100
AcDbEntity
8
1
62
256
6
ByLayer
370
18
48
1
60
0
100
AcDbLine
10
67.985479
20
51.741657
30
0
11
68.366199
21
51.082231
31
0
39
0
210
0
220
0
230
1
0
LINE
5
8B
100
AcDbEntity
8
1
62
256
6
ByLayer
370
18
48
1
60
0
100
AcDbLine
10
67.985479
20
51.741657
30
0
11
67.514521
21
51.741657
31
0
39
0
210
0
220
0
230
1
0
LINE
5
8C
100
AcDbEntity
8
1
62
256
6
ByLayer
370
18
48
1
60
0
100
AcDbLine
10
67.133801
20
51.082231
30
0
11
67.514521
21
51.741657
31
0
39
0
210
0
220
0
230
1
0
LINE
5
8D
100
AcDbEntity
8
1
62
256
6
ByLayer
370
18
48
1
60
0
100
AcDbLine
10
66.485479
20
51.741657
30
0
11
66.866199
21
51.082231
31
0
39
0
210
0
220
0
230
1
0
LINE
5
8E
100
AcDbEntity
8
1
62
256
6
ByLayer
370
18
48
1
60
0
100
AcDbLine
10
66.485479
20
51.741657
30
0
11
66.014521
21
51.741657
31
0
39
0
210
0
220
0
230
1
0
LINE
5
8F
100
AcDbEntity
8
1
62
256
6
ByLayer
370
18
48
1
60
0
100
AcDbLine
10
65.633801
20
51.082231
30
0
11
66.014521
21
51.741657
31
0
39
0
210
0
220
0
230
1
0
LINE
5
90
100
AcDbEntity
8
1
62
256
6
ByLayer
370
18
48
1
60
0
100
AcDbLine
10
64.985479
20
51.741657
30
0
11
65.366199
21
51.082231
31
0
39
0
210
0
220
0
230
1
0
LINE
5
91
100
AcDbEntity
8
1
62
256
6
ByLayer
370
18
48
1
60
0
100
AcDbLine
10
64.985479
20
51.741657
30
0
11
64.514521
21
51.741657
31
0
39
0
210
0
220
0
230
1
0
LINE
5
92
100
AcDbEntity
8
1
62
256
6
ByLayer
370
18
48
1
60
0
100
AcDbLine
10
64.447832
20
51.626149
30
0
11
64.514521
21
51.741657
31
0
39
0
210
0
220
0
230
1
0
LINE
5
93
100
AcDbEntity
8
1
62
256
6
ByLayer
370
18
48
1
60
0
100
AcDbLine
10
64.447832
20
51
30
0
11
64.447832
21
51.626149
31
0
39
0
210
0
220
0
230
1
0
LINE
5
94
100
AcDbEntity
8
1
62
256
6
ByLayer
370
18
48
1
60
0
100
AcDbLine
10
75.552168
20
51
30
0
11
64.447832
21
51
31
0
39
0
210
0
220
0
230
1
0
LINE
5
95
100
AcDbEntity
8
1
62
256
6
ByLayer
370
18
48
1
60
0
100
AcDbLine
10
75.485479
20
51.741657
30
0
11
75.552168
21
51.626149
31
0
39
0
210
0
220
0
230
1
0
LINE
5
96
100
AcDbEntity
8
1
62
256
6
ByLayer
370
18
48
1
60
0
100
AcDbLine
10
64.447832
20
50.8
30
0
11
64.447832
21
51
31
0
39
0
210
0
220
0
230
1
0
LINE
5
97
100
AcDbEntity
8
1
62
256
6
ByLayer
370
18
48
1
60
0
100
AcDbLine
10
59.38648
20
50.8
30
0
11
59.38648
21
51
31
0
39
0
210
0
220
0
230
1
0
LINE
5
98
100
AcDbEntity
8
1
62
256
6
ByLayer
370
18
48
1
60
0
100
AcDbLine
10
64.447832
20
51
30
0
11
59.38648
21
51
31
0
39
0
210
0
220
0
230
1
0
LINE
5
99
100
AcDbEntity
8
1
62
256
6
ByLayer
370
18
48
1
60
0
100
AcDbLine
10
59.38648
20
51
30
0
11
59.413196
21
51.031671
31
0
39
0
210
0
220
0
230
1
0
LINE
5
9A
100
AcDbEntity
8
1
62
256
6
ByLayer
370
18
48
1
60
0
100
AcDbLine
10
63.353079
20
51.824981
30
0
11
63.146921
21
51.824981
31
0
39
0
210
0
220
0
230
1
0
LINE
5
9B
100
AcDbEntity
8
1
62
256
6
ByLayer
370
18
48
1
60
0
100
AcDbLine
10
61.853079
20
51.824981
30
0
11
61.646921
21
51.824981
31
0
39
0
210
0
220
0
230
1
0
LINE
5
9C
100
AcDbEntity
8
1
62
256
6
ByLayer
370
18
48
1
60
0
100
AcDbLine
10
60.353079
20
51.824981
30
0
11
60.146921
21
51.824981
31
0
39
0
210
0
220
0
230
1
0
LINE
5
9D
100
AcDbEntity
8
1
62
256
6
ByLayer
370
18
48
1
60
0
100
AcDbLine
10
60.019746
20
51.750708
30
0
11
60.054765
21
51.792221
31
0
39
0
210
0
220
0
230
1
0
LINE
5
9E
100
AcDbEntity
8
1
62
256
6
ByLayer
370
18
48
1
60
0
100
AcDbLine
10
70.646921
20
51.824981
30
0
11
70.853079
21
51.824981
31
0
39
0
210
0
220
0
230
1
0
LINE
5
9F
100
AcDbEntity
8
1
62
256
6
ByLayer
370
18
48
1
60
0
100
AcDbLine
10
70.985479
20
51.741657
30
0
11
70.979519
21
51.751981
31
0
39
0
210
0
220
0
230
1
0
LINE
5
A0
100
AcDbEntity
8
1
62
256
6
ByLayer
370
18
48
1
60
0
100
AcDbLine
10
70.520481
20
51.751981
30
0
11
70.514521
21
51.741657
31
0
39
0
210
0
220
0
230
1
0
LINE
5
A1
100
AcDbEntity
8
1
62
256
6
ByLayer
370
18
48
1
60
0
100
AcDbLine
10
75.146921
20
51.824981
30
0
11
75.353079
21
51.824981
31
0
39
0
210
0
220
0
230
1
0
LINE
5
A2
100
AcDbEntity
8
1
62
256
6
ByLayer
370
18
48
1
60
0
100
AcDbLine
10
75.485479
20
51.741657
30
0
11
75.479519
21
51.751981
31
0
39
0
210
0
220
0
230
1
0
LINE
5
A3
100
AcDbEntity
8
1
62
256
6
ByLayer
370
18
48
1
60
0
100
AcDbLine
10
75.020481
20
51.751981
30
0
11
75.014521
21
51.741657
31
0
39
0
210
0
220
0
230
1
0
LINE
5
A4
100
AcDbEntity
8
1
62
256
6
ByLayer
370
18
48
1
60
0
100
AcDbLine
10
72.146921
20
51.824981
30
0
11
72.353079
21
51.824981
31
0
39
0
210
0
220
0
230
1
0
LINE
5
A5
100
AcDbEntity
8
1
62
256
6
ByLayer
370
18
48
1
60
0
100
AcDbLine
10
72.485479
20
51.741657
30
0
11
72.479519
21
51.751981
31
0
39
0
210
0
220
0
230
1
0
LINE
5
A6
100
AcDbEntity
8
1
62
256
6
ByLayer
370
18
48
1
60
0
100
AcDbLine
10
72.020481
20
51.751981
30
0
11
72.014521
21
51.741657
31
0
39
0
210
0
220
0
230
1
0
LINE
5
A7
100
AcDbEntity
8
1
62
256
6
ByLayer
370
18
48
1
60
0
100
AcDbLine
10
67.646921
20
51.824981
30
0
11
67.853079
21
51.824981
31
0
39
0
210
0
220
0
230
1
0
LINE
5
A8
100
AcDbEntity
8
1
62
256
6
ByLayer
370
18
48
1
60
0
100
AcDbLine
10
67.985479
20
51.741657
30
0
11
67.979519
21
51.751981
31
0
39
0
210
0
220
0
230
1
0
LINE
5
A9
100
AcDbEntity
8
1
62
256
6
ByLayer
370
18
48
1
60
0
100
AcDbLine
10
67.520481
20
51.751981
30
0
11
67.514521
21
51.741657
31
0
39
0
210
0
220
0
230
1
0
LINE
5
AA
100
AcDbEntity
8
1
62
256
6
ByLayer
370
18
48
1
60
0
100
AcDbLine
10
66.146921
20
51.824981
30
0
11
66.353079
21
51.824981
31
0
39
0
210
0
220
0
230
1
0
LINE
5
AB
100
AcDbEntity
8
1
62
256
6
ByLayer
370
18
48
1
60
0
100
AcDbLine
10
66.020481
20
51.751981
30
0
11
66.014521
21
51.741657
31
0
39
0
210
0
220
0
230
1
0
LINE
5
AC
100
AcDbEntity
8
1
62
256
6
ByLayer
370
18
48
1
60
0
100
AcDbLine
10
66.485479
20
51.741657
30
0
11
66.479519
21
51.751981
31
0
39
0
210
0
220
0
230
1
0
LINE
5
AD
100
AcDbEntity
8
1
62
256
6
ByLayer
370
18
48
1
60
0
100
AcDbLine
10
69.146921
20
51.824981
30
0
11
69.353079
21
51.824981
31
0
39
0
210
0
220
0
230
1
0
LINE
5
AE
100
AcDbEntity
8
1
62
256
6
ByLayer
370
18
48
1
60
0
100
AcDbLine
10
69.020481
20
51.751981
30
0
11
69.014521
21
51.741657
31
0
39
0
210
0
220
0
230
1
0
LINE
5
AF
100
AcDbEntity
8
1
62
256
6
ByLayer
370
18
48
1
60
0
100
AcDbLine
10
69.485479
20
51.741657
30
0
11
69.479519
21
51.751981
31
0
39
0
210
0
220
0
230
1
0
LINE
5
B0
100
AcDbEntity
8
1
62
256
6
ByLayer
370
18
48
1
60
0
100
AcDbLine
10
64.646921
20
51.824981
30
0
11
64.853079
21
51.824981
31
0
39
0
210
0
220
0
230
1
0
LINE
5
B1
100
AcDbEntity
8
1
62
256
6
ByLayer
370
18
48
1
60
0
100
AcDbLine
10
64.520481
20
51.751981
30
0
11
64.514521
21
51.741657
31
0
39
0
210
0
220
0
230
1
0
LINE
5
B2
100
AcDbEntity
8
1
62
256
6
ByLayer
370
18
48
1
60
0
100
AcDbLine
10
64.985479
20
51.741657
30
0
11
64.979519
21
51.751981
31
0
39
0
210
0
220
0
230
1
0
LINE
5
B3
100
AcDbEntity
8
1
62
256
6
ByLayer
370
18
48
1
60
0
100
AcDbLine
10
73.646921
20
51.824981
30
0
11
73.853079
21
51.824981
31
0
39
0
210
0
220
0
230
1
0
LINE
5
B4
100
AcDbEntity
8
1
62
256
6
ByLayer
370
18
48
1
60
0
100
AcDbLine
10
73.520481
20
51.751981
30
0
11
73.514521
21
51.741657
31
0
39
0
210
0
220
0
230
1
0
LINE
5
B5
100
AcDbEntity
8
1
62
256
6
ByLayer
370
18
48
1
60
0
100
AcDbLine
10
73.985479
20
51.741657
30
0
11
73.979519
21
51.751981
31
0
39
0
210
0
220
0
230
1
0
LINE
5
B6
100
AcDbEntity
8
1
62
256
6
ByLayer
370
18
48
1
60
0
100
AcDbLine
10
80.396927
20
50.8
30
0
11
90.25
21
50.8
31
0
39
0
210
0
220
0
230
1
0
LINE
5
B7
100
AcDbEntity
8
1
62
256
6
ByLayer
370
18
48
1
60
0
100
AcDbLine
10
59.38648
20
51
30
0
11
50
21
51
31
0
39
0
210
0
220
0
230
1
0
LINE
5
B8
100
AcDbEntity
8
1
62
256
6
ByLayer
370
18
48
1
60
0
100
AcDbLine
10
50
20
51
30
0
11
50.262163
21
51.262163
31
0
39
0
210
0
220
0
230
1
0
LINE
5
B9
100
AcDbEntity
8
1
62
256
6
ByLayer
370
18
48
1
60
0
100
AcDbLine
10
58.853079
20
51.824981
30
0
11
58.646921
21
51.824981
31
0
39
0
210
0
220
0
230
1
0
LINE
5
BA
100
AcDbEntity
8
1
62
256
6
ByLayer
370
18
48
1
60
0
100
AcDbLine
10
57.353079
20
51.824981
30
0
11
57.146921
21
51.824981
31
0
39
0
210
0
220
0
230
1
0
LINE
5
BB
100
AcDbEntity
8
1
62
256
6
ByLayer
370
18
48
1
60
0
100
AcDbLine
10
55.853079
20
51.824981
30
0
11
55.646921
21
51.824981
31
0
39
0
210
0
220
0
230
1
0
LINE
5
BC
100
AcDbEntity
8
1
62
256
6
ByLayer
370
18
48
1
60
0
100
AcDbLine
10
54.353079
20
51.824981
30
0
11
54.146921
21
51.824981
31
0
39
0
210
0
220
0
230
1
0
LINE
5
BD
100
AcDbEntity
8
1
62
256
6
ByLayer
370
18
48
1
60
0
100
AcDbLine
10
52.853079
20
51.824981
30
0
11
52.646921
21
51.824981
31
0
39
0
210
0
220
0
230
1
0
LINE
5
BE
100
AcDbEntity
8
1
62
256
6
ByLayer
370
18
48
1
60
0
100
AcDbLine
10
51.353079
20
51.824981
30
0
11
51.146921
21
51.824981
31
0
39
0
210
0
220
0
230
1
0
LINE
5
BF
100
AcDbEntity
8
1
62
256
6
ByLayer
370
18
48
1
60
0
100
AcDbLine
10
80.61352
20
51
30
0
11
90
21
51
31
0
39
0
210
0
220
0
230
1
0
LINE
5
C0
100
AcDbEntity
8
1
62
256
6
ByLayer
370
18
48
1
60
0
100
AcDbLine
10
50
20
50.8
30
0
11
50
21
51
31
0
39
0
210
0
220
0
230
1
0
LINE
5
C1
100
AcDbEntity
8
1
62
256
6
ByLayer
370
18
48
1
60
0
100
AcDbLine
10
90
20
51
30
0
11
90
21
50.8
31
0
39
0
210
0
220
0
230
1
0
LINE
5
C2
100
AcDbEntity
8
1
62
256
6
ByLayer
370
18
48
1
60
0
100
AcDbLine
10
89.737837
20
51.262163
30
0
11
90
21
51
31
0
39
0
210
0
220
0
230
1
0
LINE
5
C3
100
AcDbEntity
8
1
62
256
6
ByLayer
370
18
48
1
60
0
100
AcDbLine
10
88.853079
20
51.824981
30
0
11
88.646921
21
51.824981
31
0
39
0
210
0
220
0
230
1
0
LINE
5
C4
100
AcDbEntity
8
1
62
256
6
ByLayer
370
18
48
1
60
0
100
AcDbLine
10
87.353079
20
51.824981
30
0
11
87.146921
21
51.824981
31
0
39
0
210
0
220
0
230
1
0
LINE
5
C5
100
AcDbEntity
8
1
62
256
6
ByLayer
370
18
48
1
60
0
100
AcDbLine
10
85.853079
20
51.824981
30
0
11
85.646921
21
51.824981
31
0
39
0
210
0
220
0
230
1
0
LINE
5
C6
100
AcDbEntity
8
1
62
256
6
ByLayer
370
18
48
1
60
0
100
AcDbLine
10
84.353079
20
51.824981
30
0
11
84.146921
21
51.824981
31
0
39
0
210
0
220
0
230
1
0
LINE
5
C7
100
AcDbEntity
8
1
62
256
6
ByLayer
370
18
48
1
60
0
100
AcDbLine
10
82.853079
20
51.824981
30
0
11
82.646921
21
51.824981
31
0
39
0
210
0
220
0
230
1
0
LINE
5
C8
100
AcDbEntity
8
1
62
256
6
ByLayer
370
18
48
1
60
0
100
AcDbLine
10
81.353079
20
51.824981
30
0
11
81.146921
21
51.824981
31
0
39
0
210
0
220
0
230
1
0
LINE
5
C9
100
AcDbEntity
8
1
62
256
6
ByLayer
370
18
48
1
60
0
100
AcDbLine
10
69.132708
20
65.225019
30
0
11
69.132708
21
57.725019
31
0
39
0
210
0
220
0
230
1
0
LINE
5
CA
100
AcDbEntity
8
1
62
256
6
ByLayer
370
18
48
1
60
0
100
AcDbLine
10
69.132708
20
57.725019
30
0
11
56.132708
21
57.725019
31
0
39
0
210
0
220
0
230
1
0
LINE
5
CB
100
AcDbEntity
8
1
62
256
6
ByLayer
370
18
48
1
60
0
100
AcDbLine
10
56.132708
20
57.725019
30
0
11
56.132708
21
65.225019
31
0
39
0
210
0
220
0
230
1
0
LINE
5
CC
100
AcDbEntity
8
1
62
256
6
ByLayer
370
18
48
1
60
0
100
AcDbLine
10
56.132708
20
65.225019
30
0
11
69.132708
21
65.225019
31
0
39
0
210
0
220
0
230
1
0
LINE
5
CD
100
AcDbEntity
8
1
62
256
6
ByLayer
370
18
48
1
60
0
100
AcDbLine
10
68.632708
20
65.725019
30
0
11
56.632708
21
65.725019
31
0
39
0
210
0
220
0
230
1
0
LINE
5
CE
100
AcDbEntity
8
1
62
256
6
ByLayer
370
18
48
1
60
0
100
AcDbLine
10
58.632708
20
51.824121
30
0
11
58.632708
21
57.725019
31
0
39
0
210
0
220
0
230
1
0
LINE
5
CF
100
AcDbEntity
8
1
62
256
6
ByLayer
370
18
48
1
60
0
100
AcDbLine
10
66.632708
20
57.725019
30
0
11
66.632708
21
51.486511
31
0
39
0
210
0
220
0
230
1
0
LINE
5
D0
100
AcDbEntity
8
1
62
256
6
ByLayer
370
18
48
1
60
0
100
AcDbLine
10
83.867292
20
65.225019
30
0
11
83.867292
21
57.725019
31
0
39
0
210
0
220
0
230
1
0
LINE
5
D1
100
AcDbEntity
8
1
62
256
6
ByLayer
370
18
48
1
60
0
100
AcDbLine
10
83.867292
20
57.725019
30
0
11
70.867292
21
57.725019
31
0
39
0
210
0
220
0
230
1
0
LINE
5
D2
100
AcDbEntity
8
1
62
256
6
ByLayer
370
18
48
1
60
0
100
AcDbLine
10
70.867292
20
57.725019
30
0
11
70.867292
21
65.225019
31
0
39
0
210
0
220
0
230
1
0
LINE
5
D3
100
AcDbEntity
8
1
62
256
6
ByLayer
370
18
48
1
60
0
100
AcDbLine
10
70.867292
20
65.225019
30
0
11
83.867292
21
65.225019
31
0
39
0
210
0
220
0
230
1
0
LINE
5
D4
100
AcDbEntity
8
1
62
256
6
ByLayer
370
18
48
1
60
0
100
AcDbLine
10
83.367292
20
65.725019
30
0
11
71.367292
21
65.725019
31
0
39
0
210
0
220
0
230
1
0
LINE
5
D5
100
AcDbEntity
8
1
62
256
6
ByLayer
370
18
48
1
60
0
100
AcDbLine
10
73.367292
20
51.486511
30
0
11
73.367292
21
57.725019
31
0
39
0
210
0
220
0
230
1
0
LINE
5
D6
100
AcDbEntity
8
1
62
256
6
ByLayer
370
18
48
1
60
0
100
AcDbLine
10
81.367292
20
57.725019
30
0
11
81.367292
21
51.822667
31
0
39
0
210
0
220
0
230
1
0
LINE
5
D7
100
AcDbEntity
8
1
62
256
6
ByLayer
370
18
48
0.05
60
1
100
AcDbLine
10
59.596748
20
37.164331
30
0
11
59.596748
21
0
31
0
39
0
210
0
220
0
230
1
0
LINE
5
D8
100
AcDbEntity
8
1
62
256
6
ByLayer
370
18
48
1
60
0
100
AcDbLine
10
61.995403
20
50.79989
30
0
11
50.141931
21
50.79989
31
0
39
0
210
0
220
0
230
1
0
LINE
5
D9
100
AcDbEntity
8
1
62
256
6
ByLayer
370
18
48
0.05
60
1
100
AcDbLine
10
80.74125
20
-12.653283
30
0
11
80.74125
21
45.206793
31
0
39
0
210
0
220
0
230
1
0
LINE
5
DA
100
AcDbEntity
8
1
62
256
6
ByLayer
370
18
48
0.05
60
1
100
AcDbLine
10
50.141931
20
50.79989
30
0
11
37.406853
21
50.79989
31
0
39
0
210
0
220
0
230
1
0
LINE
5
DB
100
AcDbEntity
8
1
62
256
6
ByLayer
370
18
48
0.05
60
1
100
AcDbLine
10
50.141931
20
43.75
30
0
11
50.141931
21
57.385559
31
0
39
0
210
0
220
0
230
1
0
LINE
5
DC
100
AcDbEntity
8
1
62
256
6
ByLayer
370
18
48
1
60
0
100
AcDbLine
10
78.004713
20
50.8
30
0
11
61.995287
21
50.8
31
0
39
0
210
0
220
0
230
1
0
LINE
5
DD
100
AcDbEntity
8
1
62
256
6
ByLayer
370
18
48
0.05
60
1
100
AcDbLine
10
55.141931
20
43.75
30
0
11
59.596748
21
43.75
31
0
39
0
210
0
220
0
230
1
0
LINE
5
DE
100
AcDbEntity
8
1
62
256
6
ByLayer
370
18
48
0.05
60
1
100
AcDbLine
10
90.25
20
50.8
30
0
11
90.25
21
14.799497
31
0
39
0
210
0
220
0
230
1
0
LINE
5
DF
100
AcDbEntity
8
SK4
62
256
6
ByLayer
370
13
48
0.05
60
1
100
AcDbLine
10
-63.559855
20
0
30
0
11
94.337095
21
0
31
0
39
0
210
0
220
0
230
1
0
LINE
5
E1
100
AcDbEntity
8
1
62
256
6
ByLayer
370
18
48
0.05
60
1
100
AcDbLine
10
50.007018
20
59
30
0
11
46.159111
21
44.639417
31
0
39
0
210
0
220
0
230
1
0
LINE
5
E2
100
AcDbEntity
8
1
62
256
6
ByLayer
370
18
48
0.05
60
1
100
AcDbLine
10
76
20
-122.25
30
0
11
109.3
21
-122.25
31
0
39
0
210
0
220
0
230
1
0
LINE
5
E3
100
AcDbEntity
8
1
62
256
6
ByLayer
370
18
48
0.05
60
1
100
AcDbLine
10
45
20
29.210365
30
0
11
45
21
43.75
31
0
39
0
210
0
220
0
230
1
0
LINE
5
E4
100
AcDbEntity
8
1
62
256
6
ByLayer
370
18
48
0.05
60
1
100
AcDbLine
10
46.159112
20
36.703818
30
0
11
46.159112
21
50.889417
31
0
39
0
210
0
220
0
230
1
0
LINE
5
E5
100
AcDbEntity
8
1
62
256
6
ByLayer
370
18
48
0.05
60
1
100
AcDbLine
10
50.702194
20
-96.447832
30
0
11
109.3
21
-96.447832
31
0
39
0
210
0
220
0
230
1
0
LINE
5
E6
100
AcDbEntity
8
1
62
256
6
ByLayer
370
18
48
0.05
60
1
100
AcDbLine
10
109.3
20
-107.552168
30
0
11
76
21
-107.552168
31
0
39
0
210
0
220
0
230
1
0
LINE
5
E7
100
AcDbEntity
8
1
62
256
6
ByLayer
370
18
48
0.05
60
1
100
AcDbLine
10
76
20
22.3
30
0
11
54.743691
21
-36.101229
31
0
39
0
210
0
220
0
230
1
0
LINE
5
E8
100
AcDbEntity
8
1
62
256
6
ByLayer
370
18
48
0.05
60
1
100
AcDbLine
10
109.3
20
-91.17559
30
0
11
51.512391
21
-91.17559
31
0
39
0
210
0
220
0
230
1
0
LINE
5
E9
100
AcDbEntity
8
1
62
256
6
ByLayer
370
18
48
0.05
60
1
100
AcDbLine
10
50.512391
20
58.82441
30
0
11
108.3
21
58.82441
31
0
39
0
210
0
220
0
230
1
0
LINE
5
EA
100
AcDbEntity
8
1
62
256
6
ByLayer
370
18
48
0.05
60
1
100
AcDbLine
10
108.3
20
68.25
30
0
11
50.810866
21
68.25
31
0
39
0
210
0
220
0
230
1
0
LINE
5
EB
100
AcDbEntity
8
1
62
256
6
ByLayer
370
18
48
0.05
60
1
100
AcDbLine
10
76
20
-107.552168
30
0
11
109.3
21
-107.552168
31
0
39
0
210
0
220
0
230
1
0
LINE
5
EC
100
AcDbEntity
8
1
62
256
6
ByLayer
370
18
48
0.05
60
1
100
AcDbLine
10
76
20
-112.82441
30
0
11
109.3
21
-112.82441
31
0
39
0
210
0
220
0
230
1
0
LINE
5
ED
100
AcDbEntity
8
1
62
256
6
ByLayer
370
18
48
0.05
60
1
100
AcDbLine
10
50.007018
20
59
30
0
11
50.808229
21
61.916084
31
0
39
0
210
0
220
0
230
1
0
LINE
5
EE
100
AcDbEntity
8
1
62
256
6
ByLayer
370
18
48
0.05
60
1
100
AcDbLine
10
45
20
-35.460365
30
0
11
45
21
35.460365
31
0
39
0
210
0
220
0
230
1
0
LINE
5
EF
100
AcDbEntity
8
SK4
62
256
6
ByLayer
370
13
48
0.05
60
1
100
AcDbLine
10
-64.262516
20
-150
30
0
11
102.259074
21
-150
31
0
39
0
210
0
220
0
230
1
0
LINE
5
F0
100
AcDbEntity
8
SK3
62
256
6
ByLayer
370
13
48
0.05
60
0
100
AcDbLine
10
5.000013
20
-44
30
0
11
29.000013
21
-44
31
0
39
0
210
0
220
0
230
1
0
LINE
5
F2
100
AcDbEntity
8
1
62
256
6
ByLayer
370
18
48
0.05
60
1
100
AcDbLine
10
30.000013
20
43.75
30
0
11
119.7
21
43.75
31
0
39
0
210
0
220
0
230
1
0
LINE
5
F3
100
AcDbEntity
8
1
62
256
6
ByLayer
370
18
48
0.05
60
1
100
AcDbLine
10
30.000013
20
-43.75
30
0
11
119.7
21
-43.75
31
0
39
0
210
0
220
0
230
1
0
LINE
5
F4
100
AcDbEntity
8
SK3
62
256
6
ByLayer
370
13
48
0.05
60
0
100
AcDbLine
10
5.000013
20
44
30
0
11
29.000013
21
44
31
0
39
0
210
0
220
0
230
1
0
LINE
5
F5
100
AcDbEntity
8
SK3
62
256
6
ByLayer
370
13
48
0.05
60
0
100
AcDbLine
10
5.000013
20
-50
30
0
11
5.000013
21
-44
31
0
39
0
210
0
220
0
230
1
0
LINE
5
F6
100
AcDbEntity
8
SK3
62
256
6
ByLayer
370
13
48
0.05
60
0
100
AcDbLine
10
5.000013
20
50
30
0
11
5.000013
21
44
31
0
39
0
210
0
220
0
230
1
0
LINE
5
F7
100
AcDbEntity
8
SK1
62
256
6
ByLayer
370
18
48
1
60
0
100
AcDbLine
10
-49.999987
20
-33.597502
30
0
11
-49.999987
21
0
31
0
39
0
210
0
220
0
230
1
0
LINE
5
F9
100
AcDbEntity
8
1
62
256
6
ByLayer
370
18
48
1
60
0
100
AcDbLine
10
1.3E-05
20
-49.264971
30
0
11
1.3E-05
21
0
31
0
39
0
210
0
220
0
230
1
0
LINE
5
FA
100
AcDbEntity
8
1
62
256
6
ByLayer
370
18
48
1
60
0
100
AcDbLine
10
1.3E-05
20
49.264971
30
0
11
1.3E-05
21
0
31
0
39
0
210
0
220
0
230
1
0
LINE
5
FB
100
AcDbEntity
8
SK1
62
256
6
ByLayer
370
13
48
0.05
60
0
100
AcDbLine
10
-9.999987
20
-41.40822
30
0
11
-9.999987
21
0
31
0
39
0
210
0
220
0
230
1
0
LINE
5
FC
100
AcDbEntity
8
SK1
62
256
6
ByLayer
370
18
48
1
60
0
100
AcDbLine
10
-2.499938
20
-37.875002
30
0
11
-9.999987
21
-37.5
31
0
39
0
210
0
220
0
230
1
0
LINE
5
FD
100
AcDbEntity
8
SK1
62
256
6
ByLayer
370
13
48
0.05
60
0
100
AcDbLine
10
-9.999987
20
42.086628
30
0
11
-9.999987
21
0
31
0
39
0
210
0
220
0
230
1
0
LINE
5
FE
100
AcDbEntity
8
SK1
62
256
6
ByLayer
370
18
48
1
60
0
100
AcDbLine
10
-2.499938
20
37.875002
30
0
11
-9.999987
21
37.5
31
0
39
0
210
0
220
0
230
1
0
LINE
5
FF
100
AcDbEntity
8
SK1
62
256
6
ByLayer
370
18
48
1
60
0
100
AcDbLine
10
-49.999987
20
33.597502
30
0
11
-49.999987
21
0
31
0
39
0
210
0
220
0
230
1
0
LINE
5
100
100
AcDbEntity
8
SK1
62
256
6
ByLayer
370
18
48
1
60
0
100
AcDbLine
10
-9.999987
20
37.5
30
0
11
-48.099862
21
35.595006
31
0
39
0
210
0
220
0
230
1
0
LINE
5
101
100
AcDbEntity
8
SK1
62
256
6
ByLayer
370
18
48
1
60
0
100
AcDbLine
10
-9.999987
20
-37.5
30
0
11
-48.099862
21
-35.595006
31
0
39
0
210
0
220
0
230
1
0
LINE
5
102
100
AcDbEntity
8
1
62
256
6
ByLayer
370
18
48
1
60
0
100
AcDbLine
10
0.735042
20
50
30
0
11
16.75824
21
50
31
0
39
0
210
0
220
0
230
1
0
LINE
5
103
100
AcDbEntity
8
1
62
256
6
ByLayer
370
18
48
1
60
0
100
AcDbLine
10
29.000013
20
0
30
0
11
29.000013
21
49.215068
31
0
39
0
210
0
220
0
230
1
0
LINE
5
104
100
AcDbEntity
8
1
62
256
6
ByLayer
370
18
48
1
60
0
100
AcDbLine
10
28.215081
20
50
30
0
11
23.241884
21
50
31
0
39
0
210
0
220
0
230
1
0
LINE
5
105
100
AcDbEntity
8
1
62
256
6
ByLayer
370
18
48
1
60
0
100
AcDbLine
10
0.735042
20
-50
30
0
11
16.75824
21
-50
31
0
39
0
210
0
220
0
230
1
0
LINE
5
106
100
AcDbEntity
8
1
62
256
6
ByLayer
370
18
48
1
60
0
100
AcDbLine
10
16.75824
20
49.965019
30
0
11
18.085062
21
47.666897
31
0
39
0
210
0
220
0
230
1
0
LINE
5
107
100
AcDbEntity
8
1
62
256
6
ByLayer
370
18
48
1
60
0
100
AcDbLine
10
18.085062
20
47.666897
30
0
11
18.085062
21
34.173373
31
0
39
0
210
0
220
0
230
1
0
LINE
5
108
100
AcDbEntity
8
1
62
256
6
ByLayer
370
18
48
1
60
0
100
AcDbLine
10
18.485062
20
45.975019
30
0
11
21.515062
21
45.975019
31
0
39
0
210
0
220
0
230
1
0
LINE
5
109
100
AcDbEntity
8
1
62
256
6
ByLayer
370
18
48
1
60
0
100
AcDbLine
10
21.915062
20
34.173373
30
0
11
21.915062
21
47.666897
31
0
39
0
210
0
220
0
230
1
0
LINE
5
10A
100
AcDbEntity
8
1
62
256
6
ByLayer
370
18
48
1
60
0
100
AcDbLine
10
21.915062
20
47.666897
30
0
11
23.241884
21
49.965019
31
0
39
0
210
0
220
0
230
1
0
LINE
5
10B
100
AcDbEntity
8
1
62
256
6
ByLayer
370
18
48
1
60
0
100
AcDbLine
10
28.215081
20
50
30
0
11
29.000013
21
49.215068
31
0
39
0
210
0
220
0
230
1
0
LINE
5
10C
100
AcDbEntity
8
1
62
256
6
ByLayer
370
18
48
1
60
0
100
AcDbLine
10
0.735042
20
50
30
0
11
1.3E-05
21
49.264971
31
0
39
0
210
0
220
0
230
1
0
LINE
5
10D
100
AcDbEntity
8
SK1
62
256
6
ByLayer
370
18
48
1
60
0
100
AcDbLine
10
-1.753528
20
-37.681918
30
0
11
-2.499938
21
-37.881918
31
0
39
0
210
0
220
0
230
1
0
LINE
5
10E
100
AcDbEntity
8
SK1
62
256
6
ByLayer
370
18
48
1
60
0
100
AcDbLine
10
-1.753528
20
-37.681918
30
0
11
-0.874846
21
-37.681918
31
0
39
0
210
0
220
0
230
1
0
LINE
5
10F
100
AcDbEntity
8
SK1
62
256
6
ByLayer
370
18
48
1
60
0
100
AcDbLine
10
-2.499938
20
1.9E-05
30
0
11
-2.499938
21
37.875002
31
0
39
0
210
0
220
0
230
1
0
LINE
5
110
100
AcDbEntity
8
SK1
62
256
6
ByLayer
370
13
48
1
60
0
100
AcDbLine
10
-1.753528
20
1.9E-05
30
0
11
-1.753528
21
37.681957
31
0
39
0
210
0
220
0
230
1
0
LINE
5
111
100
AcDbEntity
8
1
62
256
6
ByLayer
370
18
48
1
60
0
100
AcDbLine
10
0.700062
20
1.9E-05
30
0
11
0.700062
21
49.965019
31
0
39
0
210
0
220
0
230
1
0
LINE
5
112
100
AcDbEntity
8
1
62
256
6
ByLayer
370
18
48
1
60
0
100
AcDbLine
10
23.241884
20
50
30
0
11
23.241884
21
38.906044
31
0
39
0
210
0
220
0
230
1
0
LINE
5
113
100
AcDbEntity
8
1
62
256
6
ByLayer
370
18
48
1
60
0
100
AcDbLine
10
28.250062
20
49.965019
30
0
11
28.250062
21
38.906044
31
0
39
0
210
0
220
0
230
1
0
LINE
5
114
100
AcDbEntity
8
1
62
256
6
ByLayer
370
18
48
1
60
0
100
AcDbLine
10
16.75824
20
50
30
0
11
16.75824
21
38.906044
31
0
39
0
210
0
220
0
230
1
0
LINE
5
115
100
AcDbEntity
8
1
62
256
6
ByLayer
370
18
48
1
60
0
100
AcDbLine
10
28.250062
20
38.906044
30
0
11
28.950062
21
38.206044
31
0
39
0
210
0
220
0
230
1
0
LINE
5
116
100
AcDbEntity
8
1
62
256
6
ByLayer
370
18
48
1
60
0
100
AcDbLine
10
28.215081
20
-50
30
0
11
29.000013
21
-49.215068
31
0
39
0
210
0
220
0
230
1
0
LINE
5
117
100
AcDbEntity
8
1
62
256
6
ByLayer
370
18
48
1
60
0
100
AcDbLine
10
21.915062
20
-47.666897
30
0
11
23.241884
21
-49.965019
31
0
39
0
210
0
220
0
230
1
0
LINE
5
118
100
AcDbEntity
8
1
62
256
6
ByLayer
370
18
48
1
60
0
100
AcDbLine
10
18.485062
20
-45.975019
30
0
11
21.515062
21
-45.975019
31
0
39
0
210
0
220
0
230
1
0
LINE
5
119
100
AcDbEntity
8
1
62
256
6
ByLayer
370
18
48
1
60
0
100
AcDbLine
10
16.75824
20
-49.965019
30
0
11
18.085062
21
-47.666897
31
0
39
0
210
0
220
0
230
1
0
LINE
5
11A
100
AcDbEntity
8
1
62
256
6
ByLayer
370
18
48
1
60
0
100
AcDbLine
10
28.215081
20
-50
30
0
11
23.241884
21
-50
31
0
39
0
210
0
220
0
230
1
0
LINE
5
11B
100
AcDbEntity
8
1
62
256
6
ByLayer
370
18
48
1
60
0
100
AcDbLine
10
16.75824
20
-50
30
0
11
16.75824
21
31.350019
31
0
39
0
210
0
220
0
230
1
0
LINE
5
11C
100
AcDbEntity
8
1
62
256
6
ByLayer
370
18
48
1
60
0
100
AcDbLine
10
18.085062
20
-47.666897
30
0
11
18.085062
21
31.350019
31
0
39
0
210
0
220
0
230
1
0
LINE
5
11D
100
AcDbEntity
8
1
62
256
6
ByLayer
370
18
48
1
60
0
100
AcDbLine
10
21.915062
20
31.350019
30
0
11
21.915062
21
-47.666897
31
0
39
0
210
0
220
0
230
1
0
LINE
5
11E
100
AcDbEntity
8
1
62
256
6
ByLayer
370
18
48
1
60
0
100
AcDbLine
10
23.241884
20
-50
30
0
11
23.241884
21
31.350019
31
0
39
0
210
0
220
0
230
1
0
LINE
5
11F
100
AcDbEntity
8
1
62
256
6
ByLayer
370
18
48
1
60
0
100
AcDbLine
10
28.250062
20
-49.965019
30
0
11
28.250062
21
31.350019
31
0
39
0
210
0
220
0
230
1
0
LINE
5
120
100
AcDbEntity
8
1
62
256
6
ByLayer
370
18
48
1
60
0
100
AcDbLine
10
29.000013
20
0
30
0
11
29.000013
21
-49.215068
31
0
39
0
210
0
220
0
230
1
0
LINE
5
121
100
AcDbEntity
8
1
62
256
6
ByLayer
370
18
48
1
60
0
100
AcDbLine
10
0.735042
20
-50
30
0
11
1.3E-05
21
-49.264971
31
0
39
0
210
0
220
0
230
1
0
LINE
5
122
100
AcDbEntity
8
1
62
256
6
ByLayer
370
18
48
1
60
0
100
AcDbLine
10
0.700062
20
-1.9E-05
30
0
11
0.700062
21
-49.965019
31
0
39
0
210
0
220
0
230
1
0
LINE
5
123
100
AcDbEntity
8
SK1
62
256
6
ByLayer
370
13
48
1
60
0
100
AcDbLine
10
-1.753528
20
-1.9E-05
30
0
11
-1.753528
21
-37.681957
31
0
39
0
210
0
220
0
230
1
0
LINE
5
124
100
AcDbEntity
8
SK1
62
256
6
ByLayer
370
18
48
1
60
0
100
AcDbLine
10
-2.499938
20
-1.9E-05
30
0
11
-2.499938
21
-37.875002
31
0
39
0
210
0
220
0
230
1
0
LINE
5
125
100
AcDbEntity
8
SK1
62
256
6
ByLayer
370
18
48
1
60
0
100
AcDbLine
10
-1.753528
20
37.681918
30
0
11
-0.874846
21
37.681918
31
0
39
0
210
0
220
0
230
1
0
LINE
5
126
100
AcDbEntity
8
SK1
62
256
6
ByLayer
370
18
48
1
60
0
100
AcDbLine
10
-1.753528
20
37.681918
30
0
11
-2.499938
21
37.881918
31
0
39
0
210
0
220
0
230
1
0
LINE
5
127
100
AcDbEntity
8
1
62
256
6
ByLayer
370
18
48
1
60
0
100
AcDbLine
10
28.950062
20
31.350019
30
0
11
14.646813
21
31.350019
31
0
39
0
210
0
220
0
230
1
0
LINE
5
128
100
AcDbEntity
8
1
62
256
6
ByLayer
370
18
48
1
60
0
100
AcDbLine
10
4.950062
20
38.906044
30
0
11
16.75824
21
38.906044
31
0
39
0
210
0
220
0
230
1
0
LINE
5
129
100
AcDbEntity
8
1
62
256
6
ByLayer
370
18
48
1
60
0
100
AcDbLine
10
28.250062
20
38.906044
30
0
11
23.241884
21
38.906044
31
0
39
0
210
0
220
0
230
1
0
LINE
5
12A
100
AcDbEntity
8
80
62
256
6
ByLayer
370
13
48
1
60
0
100
AcDbLine
10
0
20
0
30
0
11
-8.883338
21
0
31
0
39
0
210
0
220
0
230
1
0
LINE
5
12B
100
AcDbEntity
8
SK4
62
256
6
ByLayer
370
13
48
0.05
60
1
100
AcDbLine
10
-52.502471
20
-150
30
0
11
102.259074
21
-150
31
0
39
0
210
0
220
0
230
1
0
LINE
5
12C
100
AcDbEntity
8
1
62
256
6
ByLayer
370
18
48
1
60
0
100
AcDbLine
10
30.000013
20
43.75
30
0
11
45
21
43.75
31
0
39
0
210
0
220
0
230
1
0
LINE
5
12D
100
AcDbEntity
8
1
62
256
6
ByLayer
370
18
48
0.05
60
1
100
AcDbLine
10
52.548511
20
68.25
30
0
11
108.3
21
68.25
31
0
39
0
210
0
220
0
230
1
0
LINE
5
12E
100
AcDbEntity
8
1
62
256
6
ByLayer
370
18
48
0.05
60
1
100
AcDbLine
10
30.000013
20
-43.75
30
0
11
51.959766
21
-43.75
31
0
39
0
210
0
220
0
230
1
0
LINE
5
12F
100
AcDbEntity
8
1
62
256
6
ByLayer
370
18
48
1
60
0
100
AcDbLine
10
59.596748
20
43.75
30
0
11
59.596748
21
0
31
0
39
0
210
0
220
0
230
1
0
LINE
5
130
100
AcDbEntity
8
1
62
256
6
ByLayer
370
18
48
1
60
0
100
AcDbLine
10
50.141931
20
43.75
30
0
11
59.596748
21
43.75
31
0
39
0
210
0
220
0
230
1
0
LINE
5
131
100
AcDbEntity
8
1
62
256
6
ByLayer
370
18
48
1
60
0
100
AcDbLine
10
50.141931
20
43.75
30
0
11
46.159112
21
0
31
0
39
0
210
0
220
0
230
1
0
LINE
5
132
100
AcDbEntity
8
1
62
256
6
ByLayer
370
18
48
1
60
0
100
AcDbLine
10
90.25
20
15.6
30
0
11
40.500013
21
-43.75
31
0
39
0
210
0
220
0
230
1
0
LINE
5
133
100
AcDbEntity
8
1
62
256
6
ByLayer
370
18
48
0.05
60
1
100
AcDbLine
10
45
20
-43.75
30
0
11
45
21
43.75
31
0
39
0
210
0
220
0
230
1
0
LINE
5
134
100
AcDbEntity
8
1
62
256
6
ByLayer
370
18
48
1
60
0
100
AcDbLine
10
90.25
20
15.6
30
0
11
90.25
21
50.8
31
0
39
0
210
0
220
0
230
1
0
LINE
5
135
100
AcDbEntity
8
1
62
256
6
ByLayer
370
18
48
1
60
0
100
AcDbLine
10
45
20
-38.381673
30
0
11
45
21
43.75
31
0
39
0
210
0
220
0
230
1
0
LINE
5
136
100
AcDbEntity
8
1
62
256
6
ByLayer
370
18
48
1
60
0
100
AcDbLine
10
40.500013
20
-43.75
30
0
11
30.000013
21
-43.75
31
0
39
0
210
0
220
0
230
1
0
LINE
5
137
100
AcDbEntity
8
1
62
256
6
ByLayer
370
18
48
0.05
60
1
100
AcDbLine
10
46.159112
20
50.889417
30
0
11
46.159112
21
44.63942
31
0
39
0
210
0
220
0
230
1
0
LINE
5
138
100
AcDbEntity
8
1
62
256
6
ByLayer
370
18
48
1
60
0
100
AcDbLine
10
50.141931
20
50.79989
30
0
11
47.809805
21
50.79989
31
0
39
0
210
0
220
0
230
1
0
LINE
5
139
100
AcDbEntity
8
1
62
256
6
ByLayer
370
18
48
1
60
0
100
AcDbLine
10
47.809805
20
50.79989
30
0
11
46.159111
21
44.639417
31
0
39
0
210
0
220
0
230
1
0
LINE
5
13A
100
AcDbEntity
8
1
62
256
6
ByLayer
370
18
48
0.05
60
1
100
AcDbLine
10
46.159112
20
-43.75
30
0
11
46.159112
21
50.889417
31
0
39
0
210
0
220
0
230
1
0
LINE
5
13B
100
AcDbEntity
8
1
62
256
6
ByLayer
370
18
48
1
60
0
100
AcDbLine
10
50.141931
20
50.79989
30
0
11
50.141931
21
43.75
31
0
39
0
210
0
220
0
230
1
0
LINE
5
13C
100
AcDbEntity
8
1
62
256
6
ByLayer
370
18
48
0.05
60
1
100
AcDbLine
10
80.74125
20
50.79989
30
0
11
80.74125
21
-12.653283
31
0
39
0
210
0
220
0
230
1
0
LINE
5
13D
100
AcDbEntity
8
1
62
256
6
ByLayer
370
18
48
1
60
0
100
AcDbLine
10
80.74125
20
4.256392
30
0
11
80.74125
21
50.79989
31
0
39
0
210
0
220
0
230
1
0
LINE
5
13E
100
AcDbEntity
8
1
62
256
6
ByLayer
370
18
48
0.05
60
1
100
AcDbLine
10
46.159112
20
-36.998893
30
0
11
46.159112
21
50.889417
31
0
39
0
210
0
220
0
230
1
0
LINE
5
13F
100
AcDbEntity
8
1
62
256
6
ByLayer
370
18
48
1
60
0
100
AcDbLine
10
46.159112
20
44.63942
30
0
11
46.159112
21
-36.998893
31
0
39
0
210
0
220
0
230
1
0
LINE
5
140
100
AcDbEntity
8
SK4
62
256
6
ByLayer
370
13
48
0.05
60
0
100
AcDbLine
10
-53.892554
20
0
30
0
11
94.337095
21
0
31
0
39
0
210
0
220
0
230
1
0
LINE
5
141
100
AcDbEntity
8
81
62
256
6
ByLayer
370
13
48
1
60
0
100
AcDbLine
10
70
20
51.5
30
0
11
70
21
59
31
0
39
0
210
0
220
0
230
1
0
LINE
5
142
100
AcDbEntity
8
4
62
256
6
ByLayer
370
13
48
0.05
60
0
100
AcDbLine
10
0
20
0
30
0
11
70
21
0
31
0
39
0
210
0
220
0
230
1
0
MTEXT
5
1E2
100
AcDbEntity
8
SK6
62
256
6
ByLayer
370
18
48
1
60
0
100
AcDbMText
10
11.663047
20
-68.40375
30
0
210
0
220
0
230
1
1
\W0.7795;392.T100SL70RF
40
4
41
0
44
1.084337
50
0
71
7
72
5
7
iso_b_vert
0
DIMENSION
5
202
100
AcDbEntity
8
2
62
256
6
ByLayer
370
13
48
1
60
0
100
AcDbDimension
2
DimnDraft3D1
10
70
20
100.332828
30
0
11
35.000007
21
100.332828
31
0
70
32
71
5
72
1
41
1
210
0
220
0
230
1
3
Standard
100
AcDbAlignedDimension
13
1.3E-05
23
50.852471
33
0
14
70
24
60.5875
34
0
50
0
100
AcDbRotatedDimension
1001
ACAD
1000
DSTYLE
1002
{
1070
   279
1070
     0
1070
   172
1070
     1
1070
   173
1070
     1
1070
   340
1005
1E3
1070
   271
1070
     3
1070
   272
1070
     2
1070
    77
1070
     1
1070
    73
1070
     0
1070
   171
1070
     3
1070
   274
1070
     4
1070
   177
1070
     7
1070
   176
1070
     7
1070
   178
1070
     7
1070
    78
1070
     8
1070
    48
1040
-0.005
1070
    41
1041
3.175
1070
   147
1041
1.75006
1070
    42
1041
1.5875
1070
    44
1041
3.175
1070
   140
1041
3.50012
1070
   343
1005
1E7
1070
   344
1005
1E7
1002
}
0
DIMENSION
5
210
100
AcDbEntity
8
SK2
62
256
6
ByLayer
370
13
48
1
60
0
100
AcDbDimension
2
DimnDraft3D2
10
1.3E-05
20
69.148736
30
0
11
-26.752618
21
69.148736
31
0
70
32
71
5
72
1
41
1
210
0
220
0
230
1
3
Standard
100
AcDbAlignedDimension
13
-49.999987
23
35.097502
33
0
14
1.3E-05
24
50.764971
34
0
50
0
100
AcDbRotatedDimension
1001
ACAD
1000
DSTYLE
1002
{
1070
   279
1070
     0
1070
   173
1070
     1
1070
   340
1005
1E3
1070
   271
1070
     0
1070
   272
1070
     2
1070
    77
1070
     1
1070
    73
1070
     0
1070
   171
1070
     4
1070
   274
1070
     4
1070
   177
1070
     7
1070
   176
1070
     7
1070
   178
1070
     7
1070
    41
1041
3.0
1070
   147
1041
1.5
1070
    42
1041
1.5
1070
    44
1041
3.0
1070
   140
1041
3.0
1070
   343
1005
1E7
1070
   344
1005
1E7
1002
}
0
DIMENSION
5
21E
100
AcDbEntity
8
SK2
62
256
6
ByLayer
370
13
48
1
60
0
100
AcDbDimension
2
DimnDraft3D3
10
29.000013
20
69.115675
30
0
11
12.747382
21
69.115675
31
0
70
32
71
5
72
1
41
1
210
0
220
0
230
1
3
Standard
100
AcDbAlignedDimension
13
1.3E-05
23
50.764971
33
0
14
29.000013
24
50.715068
34
0
50
0
100
AcDbRotatedDimension
1001
ACAD
1000
DSTYLE
1002
{
1070
   279
1070
     0
1070
   173
1070
     1
1070
   340
1005
1E3
1070
   271
1070
     0
1070
   272
1070
     2
1070
    77
1070
     1
1070
    73
1070
     0
1070
   171
1070
     4
1070
   274
1070
     4
1070
   177
1070
     7
1070
   176
1070
     7
1070
   178
1070
     7
1070
    41
1041
3.0
1070
   147
1041
1.5
1070
    42
1041
1.5
1070
    44
1041
3.0
1070
   140
1041
3.0
1070
   343
1005
1E7
1070
   344
1005
1E7
1002
}
0
DIMENSION
5
22C
100
AcDbEntity
8
SK2
62
256
6
ByLayer
370
13
48
1
60
0
100
AcDbDimension
2
DimnDraft3D4
10
-81.220478
20
50
30
0
11
-81.220478
21
-4.8
31
0
70
32
71
5
72
1
41
1
210
0
220
0
230
1
3
Standard
100
AcDbAlignedDimension
13
-0.764958
23
-50
33
0
14
-0.764958
24
50
34
0
50
90
100
AcDbRotatedDimension
1001
ACAD
1000
DSTYLE
1002
{
1070
    74
1070
     0
1070
   279
1070
     0
1070
   173
1070
     1
1070
   340
1005
1E3
1070
   271
1070
     0
1070
   272
1070
     2
1070
    77
1070
     1
1070
    73
1070
     0
1070
   171
1070
     4
1070
   274
1070
     4
1070
   177
1070
     7
1070
   176
1070
     7
1070
   178
1070
     7
1070
    41
1041
3.0
1070
   147
1041
1.5
1070
    42
1041
1.5
1070
    44
1041
3.0
1070
   140
1041
3.0
1070
   343
1005
1E7
1070
   344
1005
1E7
1002
}
0
DIMENSION
5
23A
100
AcDbEntity
8
SK2
62
256
6
ByLayer
370
13
48
1
60
0
100
AcDbDimension
2
DimnDraft3D5
10
-65.856954
20
37.5
30
0
11
-65.856954
21
-4.073684
31
0
70
32
71
5
72
1
41
1
210
0
220
0
230
1
3
Standard
100
AcDbAlignedDimension
13
-11.499987
23
-37.5
33
0
14
-11.499987
24
37.5
34
0
50
90
100
AcDbRotatedDimension
1001
ACAD
1000
DSTYLE
1002
{
1070
    74
1070
     0
1070
   279
1070
     0
1070
   173
1070
     1
1070
   340
1005
1E3
1070
   271
1070
     0
1070
   272
1070
     2
1070
    77
1070
     1
1070
    73
1070
     0
1070
   171
1070
     4
1070
   274
1070
     4
1070
   177
1070
     7
1070
   176
1070
     7
1070
   178
1070
     7
1070
    41
1041
3.0
1070
   147
1041
1.5
1070
    42
1041
1.5
1070
    44
1041
3.0
1070
   140
1041
3.0
1070
   343
1005
1E7
1070
   344
1005
1E7
1002
}
0
DIMENSION
5
248
100
AcDbEntity
8
SK2
62
256
6
ByLayer
370
13
48
1
60
0
100
AcDbDimension
2
DimnDraft3D6
10
45
20
85.031884
30
0
11
22.500007
21
85.031884
31
0
70
32
71
5
72
1
41
1
210
0
220
0
230
1
3
Standard
100
AcDbAlignedDimension
13
1.3E-05
23
50.852471
33
0
14
45
24
45.3375
34
0
50
0
100
AcDbRotatedDimension
1001
ACAD
1000
DSTYLE
1002
{
1070
   279
1070
     0
1070
   172
1070
     1
1070
   173
1070
     1
1070
   340
1005
1E3
1070
   271
1070
     3
1070
   272
1070
     2
1070
    77
1070
     1
1070
    73
1070
     0
1070
   171
1070
     3
1070
   274
1070
     4
1070
   177
1070
     7
1070
   176
1070
     7
1070
   178
1070
     7
1070
    78
1070
     8
1070
    48
1040
-0.005
1070
    41
1041
3.175
1070
   147
1041
1.75006
1070
    42
1041
1.5875
1070
    44
1041
3.175
1070
   140
1041
3.50012
1070
   343
1005
1E7
1070
   344
1005
1E7
1002
}
0
DIMENSION
5
256
100
AcDbEntity
8
SK2
62
256
6
ByLayer
370
13
48
1
60
0
100
AcDbDimension
2
DimnDraft3D7
10
112.589241
20
51.5
30
0
11
112.589241
21
25.75
31
0
70
32
71
5
72
1
41
1
210
0
220
0
230
1
3
Standard
100
AcDbAlignedDimension
13
95.924595
23
0
33
0
14
71.5875
24
51.5
34
0
50
90
100
AcDbRotatedDimension
1001
ACAD
1000
DSTYLE
1002
{
1070
    74
1070
     0
1070
   279
1070
     0
1070
   172
1070
     1
1070
   173
1070
     1
1070
   340
1005
1E3
1070
   271
1070
     1
1070
   272
1070
     2
1070
    77
1070
     1
1070
    73
1070
     0
1070
   171
1070
     3
1070
   274
1070
     4
1070
   177
1070
     7
1070
   176
1070
     7
1070
   178
1070
     7
1070
    78
1070
     8
1070
    48
1040
-0.005
1070
    41
1041
3.175
1070
   147
1041
1.75006
1070
    42
1041
1.5875
1070
    44
1041
3.175
1070
   140
1041
3.50012
1070
   343
1005
0
1070
   344
1005
0
1002
}
0
DIMENSION
5
264
100
AcDbEntity
8
SK2
62
256
6
ByLayer
370
13
48
1
60
0
100
AcDbDimension
2
DimnDraft3D8
10
90
20
85.060313
30
0
11
76.479447
21
85.060313
31
0
70
32
71
5
72
1
41
1
210
0
220
0
230
1
3
Standard
100
AcDbAlignedDimension
13
50
23
52.5875
33
0
14
90
24
52.5875
34
0
50
0
100
AcDbRotatedDimension
1001
ACAD
1000
DSTYLE
1002
{
1070
   279
1070
     0
1070
   172
1070
     1
1070
   173
1070
     1
1070
   340
1005
1E3
1070
   271
1070
     1
1070
   272
1070
     2
1070
    77
1070
     1
1070
    73
1070
     0
1070
   171
1070
     3
1070
   274
1070
     4
1070
   177
1070
     7
1070
   176
1070
     7
1070
   178
1070
     7
1070
    78
1070
     8
1070
    48
1040
-0.005
1070
    41
1041
3.175
1070
   147
1041
1.75006
1070
    42
1041
1.5875
1070
    44
1041
3.175
1070
   140
1041
3.50012
1070
   343
1005
0
1070
   344
1005
0
1002
}
0
ENDSEC
0
SECTION
2
OBJECTS
0
DICTIONARY
5
2d0
330
0
100
AcDbDictionary
280
0
281
1
3
ACAD_GROUP
350
2d1
3
ACAD_MLINESTYLE
350
2d2
0
DICTIONARY
5
2d1
330
0
100
AcDbDictionary
280
0
281
1
0
DICTIONARY
5
2d2
330
0
100
AcDbDictionary
280
0
281
1
3
Standard
350
18
0
MLINESTYLE
5
18
330
2d2
100
AcDbMlineStyle
2
Standard
70
0
3

62
256
51
90
52
90
71
2
49
-0.5
62
256
6
ByLayer
49
0.5
62
256
6
ByLayer
0
RASTERVARIABLES
5
2bd
330

100
AcDbRasterVariables
90
0
70
1
71
1
72
1
0
ENDSEC
0
EOF
