0
SECTION
2
HEADER
9
$ACADVER
1
AC1015
9
$DWGCODEPAGE
3
ANSI_1252
9
$HANDSEED
5
2ae
9
$ANGBASE
50
0
9
$ANGDIR
70
0
9
$ATTMODE
70
1
9
$AUNITS
70
0
9
$AUPREC
70
0
9
$CECOLOR
62
256
9
$CELTSCALE
40
1
9
$CELTYPE
6
ByLayer
9
$CELWEIGHT
370
18
9
$CLAYER
8
0
9
$CMLJUST
70
0
9
$CMLSCALE
40
1
9
$CMLSTYLE
2
Standard
9
$DIMSTYLE
2
Standard
9
$TEXTSIZE
40
0.2
9
$TEXTSTYLE
7
Standard
9
$LUNITS
70
2
9
$LUPREC
70
4
9
$EXTNAMES
290
1
9
$INSUNITS
70
4
9
$LTSCALE
40
1
9
$LWDISPLAY
290
1
9
$PDMODE
70
0
9
$PDSIZE
40
0
9
$PLINEGEN
70
0
0
ENDSEC
0
SECTION
2
CLASSES
0
CLASS
1
RASTERVARIABLES
2
AcDbRasterVariables
3
ISM
90
0
280
0
281
0
0
ENDSEC
0
SECTION
2
TABLES
0
TABLE
2
VPORT
5
2a4
100
AcDbSymbolTable
0
VPORT
5
1
100
AcDbSymbolTableRecord
100
AcDbViewportTableRecord
2
*Active
70
0
10
0
20
0
11
1
21
1
12
-1
22
1
13
0
23
0
14
0.5
24
0.5
15
10
25
10
16
0
26
0
36
1
17
0
27
0
37
0
0
ENDTAB
0
TABLE
2
LTYPE
5
2a5
100
AcDbSymbolTable
0
LTYPE
5
14
100
AcDbSymbolTableRecord
100
AcDbLinetypeTableRecord
70
0
2
ByBlock
3

72
65
73
0
40
0
0
LTYPE
5
15
100
AcDbSymbolTableRecord
100
AcDbLinetypeTableRecord
70
0
2
ByLayer
3

72
65
73
0
40
0
0
LTYPE
5
16
100
AcDbSymbolTableRecord
100
AcDbLinetypeTableRecord
70
0
2
CONTINUOUS
3
Solid line
72
65
73
0
40
0
0
LTYPE
5
6A
100
AcDbSymbolTableRecord
100
AcDbLinetypeTableRecord
70
0
2
CENTER
3
____ _ ____ _ ____ _ ____
72
65
73
4
40
47.5
49
22
74
0
49
-8.5
74
0
49
8.5
74
0
49
-8.5
74
0
0
LTYPE
5
6B
100
AcDbSymbolTableRecord
100
AcDbLinetypeTableRecord
70
0
2
DASHED
3
__ __ __ __ __ __ __ __ __
72
65
73
2
40
25.72
49
12.86
74
0
49
-12.86
74
0
0
ENDTAB
0
TABLE
2
LAYER
5
2a6
100
AcDbSymbolTable
0
LAYER
5
10
100
AcDbSymbolTableRecord
100
AcDbLayerTableRecord
2
0
70
0
62
7
6
CONTINUOUS
290
1
370
-3
390
0
0
LAYER
5
6D
100
AcDbSymbolTableRecord
100
AcDbLayerTableRecord
2
80
70
0
62
-6
6
CONTINUOUS
290
1
370
-3
390
0
0
LAYER
5
6F
100
AcDbSymbolTableRecord
100
AcDbLayerTableRecord
2
81
70
0
62
-3
6
CONTINUOUS
290
1
370
-3
390
0
0
LAYER
5
75
100
AcDbSymbolTableRecord
100
AcDbLayerTableRecord
2
1
70
0
62
4
6
CONTINUOUS
290
1
370
-3
390
0
0
LAYER
5
12F
100
AcDbSymbolTableRecord
100
AcDbLayerTableRecord
2
4
70
0
62
-2
6
CENTER
290
1
370
-3
390
0
0
LAYER
5
21B
100
AcDbSymbolTableRecord
100
AcDbLayerTableRecord
2
2
70
0
62
7
6
CONTINUOUS
290
1
370
-3
390
0
0
LAYER
5
291
100
AcDbSymbolTableRecord
100
AcDbLayerTableRecord
2
SK1
70
0
62
4
6
CONTINUOUS
290
1
370
-3
390
0
0
LAYER
5
292
100
AcDbSymbolTableRecord
100
AcDbLayerTableRecord
2
SK4
70
0
62
2
6
CENTER
290
1
370
-3
390
0
0
LAYER
5
293
100
AcDbSymbolTableRecord
100
AcDbLayerTableRecord
2
SK6
70
0
62
5
6
CONTINUOUS
290
1
370
-3
390
0
0
ENDTAB
0
TABLE
2
STYLE
5
2a7
100
AcDbSymbolTable
0
STYLE
5
11
100
AcDbSymbolTableRecord
100
AcDbTextStyleTableRecord
2
Standard
3
txt
70
0
71
0
40
0
41
1
42
0
50
0
0
STYLE
5
216
100
AcDbSymbolTableRecord
100
AcDbTextStyleTableRecord
2
iso_b_vert
3
simplex.shx
70
0
71
0
40
0
41
1
42
0
50
0
0
STYLE
5
217
100
AcDbSymbolTableRecord
100
AcDbTextStyleTableRecord
2
DWGDirectTextStyle
3
simplex
70
0
71
0
40
0
41
1
42
0
50
0
0
ENDTAB
0
TABLE
2
DIMSTYLE
5
2a8
100
AcDbSymbolTable
100
AcDbDimStyleTable
0
DIMSTYLE
105
27
100
AcDbSymbolTableRecord
100
AcDbDimStyleTableRecord
2
Standard
70
0
3
<>
41
0.18
42
0.0625
44
0.18
140
0.18
147
0.09
73
0
74
0
77
1
271
2
275
0
278
52
280
0
340
11
0
ENDTAB
0
TABLE
2
VIEW
5
2a9
100
AcDbSymbolTable
0
ENDTAB
0
TABLE
2
UCS
5
2aa
100
AcDbSymbolTable
0
ENDTAB
0
TABLE
2
APPID
5
2ab
100
AcDbSymbolTable
0
APPID
5
12
100
AcDbSymbolTableRecord
100
AcDbRegAppTableRecord
2
ACAD
70
0
0
ENDTAB
0
TABLE
2
BLOCK_RECORD
5
2ac
100
AcDbSymbolTable
0
BLOCK_RECORD
5
1F
100
AcDbSymbolTableRecord
100
AcDbBlockTableRecord
2
*Model_Space
340
0
70
0
0
BLOCK_RECORD
5
1B
100
AcDbSymbolTableRecord
100
AcDbBlockTableRecord
2
*Paper_Space
340
0
70
0
0
BLOCK_RECORD
5
23
100
AcDbSymbolTableRecord
100
AcDbBlockTableRecord
2
*Paper_Space0
340
0
70
0
0
BLOCK_RECORD
5
219
100
AcDbSymbolTableRecord
100
AcDbBlockTableRecord
2
DimnDraft3D1
340
0
70
0
0
BLOCK_RECORD
5
224
100
AcDbSymbolTableRecord
100
AcDbBlockTableRecord
2
DimnDraft3D2
340
0
70
0
0
BLOCK_RECORD
5
22E
100
AcDbSymbolTableRecord
100
AcDbBlockTableRecord
2
DimnDraft3D3
340
0
70
0
0
ENDTAB
0
ENDSEC
0
SECTION
2
BLOCKS
0
BLOCK
5
20
100
AcDbEntity
8
0
100
AcDbBlockBegin
2
*Model_Space
70
0
10
0
20
0
30
0
3
*Model_Space
0
ENDBLK
5
21
100
AcDbEntity
8
0
100
AcDbBlockEnd
0
BLOCK
5
1C
100
AcDbEntity
8
0
100
AcDbBlockBegin
2
*Paper_Space
70
0
10
0
20
0
30
0
3
*Paper_Space
0
ENDBLK
5
1D
100
AcDbEntity
8
0
100
AcDbBlockEnd
0
BLOCK
5
24
100
AcDbEntity
8
0
100
AcDbBlockBegin
2
*Paper_Space0
70
0
10
0
20
0
30
0
3
*Paper_Space0
0
ENDBLK
5
25
100
AcDbEntity
8
0
100
AcDbBlockEnd
0
BLOCK
5
221
100
AcDbEntity
8
0
100
AcDbBlockBegin
2
DimnDraft3D1
70
0
10
0
20
0
30
0
3
DimnDraft3D1
0
MTEXT
5
21A
100
AcDbEntity
8
2
62
256
6
ByLayer
370
18
48
1
60
0
100
AcDbMText
10
18.992105
20
89.25
30
0
210
0
220
0
230
1
1
\W0.7836;44.0
40
3
41
0
44
1.084337
50
0
71
7
72
5
7
iso_b_vert
0
LINE
5
21C
100
AcDbEntity
8
2
62
256
6
ByLayer
370
13
48
1
60
0
100
AcDbLine
10
44
20
70.25
30
0
11
44
21
90.5
31
0
39
0
210
0
220
0
230
1
0
LINE
5
21D
100
AcDbEntity
8
2
62
256
6
ByLayer
370
13
48
1
60
0
100
AcDbLine
10
0
20
2
30
0
11
0
21
90.5
31
0
39
0
210
0
220
0
230
1
0
LINE
5
21E
100
AcDbEntity
8
2
62
256
6
ByLayer
370
13
48
1
60
0
100
AcDbLine
10
44
20
88.5
30
0
11
0
21
88.5
31
0
39
0
210
0
220
0
230
1
0
SOLID
5
21F
100
AcDbEntity
8
2
62
256
6
ByLayer
370
13
48
1
60
0
100
AcDbTrace
10
44
20
88.5
30
0
11
40.825002
21
88.082003
31
0
12
40.824998
22
88.917997
32
0
13
44
23
88.5
33
0
39
0
210
0
220
0
230
1
0
SOLID
5
220
100
AcDbEntity
8
2
62
256
6
ByLayer
370
13
48
1
60
0
100
AcDbTrace
10
0
20
88.5
30
0
11
3.174998
21
88.917997
31
0
12
3.175002
22
88.082003
32
0
13
0
23
88.5
33
0
39
0
210
0
220
0
230
1
0
ENDBLK
5
222
100
AcDbEntity
8
0
100
AcDbBlockEnd
0
BLOCK
5
22B
100
AcDbEntity
8
0
100
AcDbBlockBegin
2
DimnDraft3D2
70
0
10
0
20
0
30
0
3
DimnDraft3D2
0
MTEXT
5
225
100
AcDbEntity
8
2
62
256
6
ByLayer
370
18
48
1
60
0
100
AcDbMText
10
105.75
20
-15.959171
30
0
210
0
220
0
230
1
1
\W0.6637;Dc = 123.0 - 150.0
40
3
41
0
44
1.084337
50
90
71
7
72
5
7
iso_b_vert
0
LINE
5
226
100
AcDbEntity
8
2
62
256
6
ByLayer
370
13
48
1
60
0
100
AcDbLine
10
46
20
68.25
30
0
11
108.5
21
68.25
31
0
39
0
210
0
220
0
230
1
0
LINE
5
227
100
AcDbEntity
8
2
62
256
6
ByLayer
370
13
48
1
60
0
100
AcDbLine
10
45.605617
20
-68.249922
30
0
11
108.5
21
-68.249922
31
0
39
0
210
0
220
0
230
1
0
LINE
5
228
100
AcDbEntity
8
2
62
256
6
ByLayer
370
13
48
1
60
0
100
AcDbLine
10
106.5
20
68.25
30
0
11
106.5
21
-68.249922
31
0
39
0
210
0
220
0
230
1
0
SOLID
5
229
100
AcDbEntity
8
2
62
256
6
ByLayer
370
13
48
1
60
0
100
AcDbTrace
10
106.5
20
68.25
30
0
11
106.917997
21
65.075002
31
0
12
106.082003
22
65.074998
32
0
13
106.5
23
68.25
33
0
39
0
210
0
220
0
230
1
0
SOLID
5
22A
100
AcDbEntity
8
2
62
256
6
ByLayer
370
13
48
1
60
0
100
AcDbTrace
10
106.5
20
-68.249922
30
0
11
106.082003
21
-65.074923
31
0
12
106.917997
22
-65.07492
32
0
13
106.5
23
-68.249922
33
0
39
0
210
0
220
0
230
1
0
ENDBLK
5
22C
100
AcDbEntity
8
0
100
AcDbBlockEnd
0
BLOCK
5
235
100
AcDbEntity
8
0
100
AcDbBlockBegin
2
DimnDraft3D3
70
0
10
0
20
0
30
0
3
DimnDraft3D3
0
MTEXT
5
22F
100
AcDbEntity
8
2
62
256
6
ByLayer
370
18
48
1
60
0
100
AcDbMText
10
74.556812
20
37.857789
30
0
210
0
220
0
230
1
1
\W0.8896;84%%d
40
3
41
0
44
1.084337
50
47.9883405077056
71
7
72
5
7
iso_b_vert
0
LINE
5
230
100
AcDbEntity
8
2
62
256
6
ByLayer
370
13
48
1
60
0
100
AcDbLine
10
45.77565
20
51.050504
30
0
11
48.745259
21
22.685511
31
0
39
0
210
0
220
0
230
1
0
LINE
5
231
100
AcDbEntity
8
2
62
256
6
ByLayer
370
13
48
1
60
0
100
AcDbLine
10
46
20
68.25
30
0
11
89.788502
21
68.25
31
0
39
0
210
0
220
0
230
1
0
ARC
5
232
100
AcDbEntity
8
2
62
256
6
ByLayer
370
13
48
1
60
0
100
AcDbCircle
39
0
10
43.974987
20
68.25
30
0
40
43.8135149037894
210
0
220
0
230
1
100
AcDbArc
50
275.976681
51
0
0
SOLID
5
233
100
AcDbEntity
8
2
62
256
6
ByLayer
370
13
48
1
60
0
100
AcDbTrace
10
48.537012
20
24.67464
30
0
11
51.637204
21
25.477226
31
0
12
51.739295
22
24.647489
32
0
13
48.537012
23
24.67464
33
0
39
0
210
0
220
0
230
1
0
SOLID
5
234
100
AcDbEntity
8
2
62
256
6
ByLayer
370
13
48
1
60
0
100
AcDbTrace
10
87.788502
20
68.25
30
0
11
88.148938
21
65.067953
31
0
12
87.313082
22
65.083088
32
0
13
87.788502
23
68.25
33
0
39
0
210
0
220
0
230
1
0
ENDBLK
5
236
100
AcDbEntity
8
0
100
AcDbBlockEnd
0
ENDSEC
0
SECTION
2
ENTITIES
0
ARC
5
13F
100
AcDbEntity
8
1
62
256
6
ByLayer
370
18
48
1
60
0
100
AcDbCircle
39
0
10
-9.346848
20
-43.549875
30
-22.583152
40
3
210
-0.112443224320257
220
-0.164135893883636
230
-0.980008127335424
100
AcDbArc
50
0.028845
51
0.084562
0
ARC
5
140
100
AcDbEntity
8
1
62
256
6
ByLayer
370
18
48
1
60
0
100
AcDbCircle
39
0
10
3.335098
20
-51.50667
30
22.583152
40
3.1
210
0.112443224320257
220
0.164135893883635
230
0.980008127335424
100
AcDbArc
50
179.915438
51
179.971155
0
ARC
5
141
100
AcDbEntity
8
1
62
256
6
ByLayer
370
18
48
1
60
0
100
AcDbCircle
39
0
10
3.338787
20
-49.006673
30
22.583152
40
3.1
210
0.112443224320257
220
0.164135893883635
230
0.980008127335424
100
AcDbArc
50
359.915438
51
359.971155
0
ARC
5
142
100
AcDbEntity
8
SK1
62
256
6
ByLayer
370
18
48
1
60
0
100
AcDbCircle
39
0
10
-0.06
20
3.548516
30
11.218129
40
2
210
-0.999995770051602
220
0
230
0.00290858709738394
100
AcDbArc
50
359.970615
51
0
0
ARC
5
143
100
AcDbEntity
8
SK1
62
256
6
ByLayer
370
18
48
1
60
0
100
AcDbCircle
39
0
10
-0.06
20
3.548516
30
11.218129
40
2
210
-0.999995770051602
220
0
230
0.00290858709738394
100
AcDbArc
50
180
51
180.029385
0
ARC
5
144
100
AcDbEntity
8
SK1
62
256
6
ByLayer
370
18
48
1
60
0
100
AcDbCircle
39
0
10
-0.06
20
3.548516
30
12.518129
40
1.770774925079
210
-0.999995770051602
220
0
230
0.00290858709738394
100
AcDbArc
50
180
51
180.029385
0
ARC
5
145
100
AcDbEntity
8
SK1
62
256
6
ByLayer
370
18
48
1
60
0
100
AcDbCircle
39
0
10
0.06
20
-3.548516
30
11.218129
40
2
210
-0.999995770051602
220
0
230
-0.00290858709738394
100
AcDbArc
50
0
51
0.029385
0
ELLIPSE
5
146
100
AcDbEntity
8
1
62
256
6
ByLayer
370
18
48
1
60
0
100
AcDbEllipse
10
20.74437
20
45.699732
30
15.111839
11
-4.35838443649629
21
-0.175127462445415
31
-7.68216735102033
210
0.714646378978804
220
-0.579159674460966
230
-0.392243068123265
40
0.396191
41
0.0520286889361983
42
0.0530064903110764
0
ELLIPSE
5
147
100
AcDbEntity
8
SK1
62
256
6
ByLayer
370
18
48
1
60
0
100
AcDbEllipse
10
-12.507755
20
0.06
30
0
11
2.07438020447365E-15
21
1.770774925079
31
0
210
0
220
0
230
1
40
0.002909
41
3.14107978901591
42
-8.48640417681537E-14
0
ELLIPSE
5
148
100
AcDbEntity
8
SK1
62
256
6
ByLayer
370
18
48
1
60
0
100
AcDbEllipse
10
-12.507755
20
0.06
30
0
11
2.07438020447365E-15
21
1.770774925079
31
0
210
0
220
0
230
1
40
0.002909
41
0.000512864574255804
42
3.14107978901637
0
ELLIPSE
5
149
100
AcDbEntity
8
SK1
62
256
6
ByLayer
370
18
48
1
60
0
100
AcDbEllipse
10
-11.20776
20
-0.06
30
0
11
2.34290667684371E-15
21
1.99999999335113
31
0
210
0
220
0
230
1
40
0.002909
41
2.79291379028334
42
3.14107978903637
0
ELLIPSE
5
14A
100
AcDbEntity
8
SK1
62
256
6
ByLayer
370
18
48
1
60
0
100
AcDbEllipse
10
-11.20776
20
0.06
30
0
11
2.34290668463255E-15
21
2
31
0
210
0
220
0
230
1
40
0.002909
41
3.14159265358975
42
-8.46788358847393E-14
0
ELLIPSE
5
14B
100
AcDbEntity
8
1
62
256
6
ByLayer
370
18
48
1
60
0
100
AcDbEllipse
10
1.853246
20
-18.69
30
0
11
5.62297604311836E-14
21
48.000000000002
31
0
210
0
220
0
230
1
40
0.266598
41
1.5707963267949
42
2.55363423155034
0
ELLIPSE
5
14C
100
AcDbEntity
8
1
62
256
6
ByLayer
370
18
48
1
60
0
100
AcDbEllipse
10
-4.177712
20
9.81
30
0
11
2.34290668463296E-14
21
20.0000000000035
31
0
210
0
220
0
230
1
40
0.266598
41
0
42
0.940621870717514
0
ELLIPSE
5
14D
100
AcDbEntity
8
1
62
256
6
ByLayer
370
18
48
1
60
0
100
AcDbEllipse
10
1.853246
20
-6.69
30
0
11
5.62297604311882E-14
21
48.000000000006
31
0
210
0
220
0
230
1
40
0.266598
41
0.940621870717681
42
1.5707963267949
0
ELLIPSE
5
14E
100
AcDbEntity
8
1
62
256
6
ByLayer
370
18
48
1
60
0
100
AcDbEllipse
10
8.376296
20
40.475094
30
0
11
2.92863335579069E-15
21
2.5
31
0
210
0
220
0
230
1
40
0.999996
41
0
42
2.53951498995433
0
ELLIPSE
5
14F
100
AcDbEntity
8
1
62
256
6
ByLayer
370
18
48
1
60
0
100
AcDbEllipse
10
10.572076
20
45.806011
30
0
11
-3.36354443680084E-06
21
0.970684482337567
31
0
210
0
220
0
230
1
40
0.002397
41
-1.75528412398886
42
-0.184487796843066
0
ELLIPSE
5
150
100
AcDbEntity
8
1
62
256
6
ByLayer
370
18
48
1
60
0
100
AcDbEllipse
10
20.74437
20
45.699732
30
0
11
4.61605907007261
21
1.65935035046737
31
0
210
0
220
0
230
1
40
0.504041
41
2.53136417490746
42
-2.63482625947692
0
ELLIPSE
5
151
100
AcDbEntity
8
1
62
256
6
ByLayer
370
18
48
1
60
0
100
AcDbEllipse
10
18.628877
20
42.615098
30
0
11
-2.89026913923792
21
1.97391619993577
31
0
210
0
220
0
230
1
40
0.990716
41
0.395651051901533
42
1.56788588261261
0
ELLIPSE
5
152
100
AcDbEntity
8
1
62
256
6
ByLayer
370
18
48
1
60
0
100
AcDbEllipse
10
-421.116474
20
-18.69
30
0
11
-461.24407350085
21
47.5357308411846
31
0
210
0
220
0
230
1
40
0.014439
41
-2.84445737210424
42
-2.6928312630768
0
ELLIPSE
5
153
100
AcDbEntity
8
1
62
256
6
ByLayer
370
18
48
1
60
0
100
AcDbEllipse
10
22.631381
20
44.258219
30
0
11
3.11495125849897
21
4.53288831503656
31
0
210
0
220
0
230
1
40
0.000294
41
1.88416418766311
42
2.28958337079835
0
ELLIPSE
5
154
100
AcDbEntity
8
1
62
256
6
ByLayer
370
18
48
1
60
0
100
AcDbEllipse
10
23.127782
20
3.19
30
0
11
5.84881330529933
21
10.9999919550937
31
0
210
0
220
0
230
1
40
0.002268
41
-1.85914949122418
42
-1.56959065841776
0
ELLIPSE
5
155
100
AcDbEntity
8
1
62
256
6
ByLayer
370
18
48
1
60
0
100
AcDbEllipse
10
24.933494
20
-6.69
30
0
11
-25.5220945393304
21
47.9999651139179
31
0
210
0
220
0
230
1
40
0.002268
41
-1.57200199353971
42
-0.941827537473803
0
ELLIPSE
5
156
100
AcDbEntity
8
1
62
256
6
ByLayer
370
18
48
1
60
0
100
AcDbEllipse
10
28.046908
20
-65.591973
30
0
11
0.327548781117615
21
0.224322972513819
31
0
210
0
220
0
230
1
40
0.983331
41
3.14159265320284
42
-2.26731305726325
0
ELLIPSE
5
157
100
AcDbEntity
8
1
62
256
6
ByLayer
370
18
48
1
60
0
100
AcDbEllipse
10
28.046908
20
-65.591973
30
0
11
0.327548781141958
21
0.224322972441496
31
0
210
0
220
0
230
1
40
0.983331
41
2.44507592330815
42
3.14159265338387
0
ELLIPSE
5
158
100
AcDbEntity
8
1
62
256
6
ByLayer
370
18
48
1
60
0
100
AcDbEllipse
10
28.699298
20
66.544571
30
0
11
-0.327548781110356
21
0.224322972480674
31
0
210
0
220
0
230
1
40
0.983331
41
3.29878506624076E-10
42
0.696516730409484
0
ELLIPSE
5
159
100
AcDbEntity
8
1
62
256
6
ByLayer
370
18
48
1
60
0
100
AcDbEllipse
10
28.699298
20
-66.544571
30
0
11
0.327548781242856
21
0.224322972297278
31
0
210
0
220
0
230
1
40
0.983331
41
-3.14159265335995
42
-2.26731305662305
0
ELLIPSE
5
15A
100
AcDbEntity
8
1
62
256
6
ByLayer
370
18
48
1
60
0
100
AcDbEllipse
10
29.598182
20
-62.91045
30
0
11
1.96467389223176
21
1.34551405035194
31
0
210
0
220
0
230
1
40
0.983331
41
-3.0832459755508
42
-2.26731305687964
0
ELLIPSE
5
15B
100
AcDbEntity
8
1
62
256
6
ByLayer
370
18
48
1
60
0
100
AcDbEllipse
10
30.214614
20
-63.810543
30
0
11
1.96467389228648
21
1.34551405025952
31
0
210
0
220
0
230
1
40
0.983331
41
3.14159265358979
42
-2.26731305683399
0
ELLIPSE
5
15C
100
AcDbEntity
8
1
62
256
6
ByLayer
370
18
48
1
60
0
100
AcDbEllipse
10
33.54415
20
-18.69
30
0
11
5.62297603952219E-14
21
47.9999999693037
31
0
210
0
220
0
230
1
40
0.104512
41
2.40684830604097
42
2.51480508289782
0
ELLIPSE
5
15D
100
AcDbEntity
8
1
62
256
6
ByLayer
370
18
48
1
60
0
100
AcDbEllipse
10
28.065198
20
31.20709
30
0
11
3.96177075775551
21
5.76518482170991
31
0
210
0
220
0
230
1
40
0.000294
41
-0.876990569726817
42
-0.846296795015415
0
ELLIPSE
5
15E
100
AcDbEntity
8
1
62
256
6
ByLayer
370
18
48
1
60
0
100
AcDbEllipse
10
33.405683
20
31.157119
30
0
11
3.54612915008326
21
1.85433256872309
31
0
210
0
220
0
230
1
40
0.99946
41
-2.65490886559095
42
-2.05283120195425
0
ELLIPSE
5
15F
100
AcDbEntity
8
1
62
256
6
ByLayer
370
18
48
1
60
0
100
AcDbEllipse
10
33.405683
20
31.157119
30
0
11
3.54612914555452
21
1.85433257742186
31
0
210
0
220
0
230
1
40
0.99946
41
-2.05283120440507
42
-1.33783123621942
0
ELLIPSE
5
160
100
AcDbEntity
8
1
62
256
6
ByLayer
370
18
48
1
60
0
100
AcDbEllipse
10
46.470407
20
-18.69
30
0
11
5.62297604311837E-14
21
48.0000000000021
31
0
210
0
220
0
230
1
40
0.265039
41
1.66298631237426
42
2.70526034059119
0
ELLIPSE
5
161
100
AcDbEntity
8
1
62
256
6
ByLayer
370
18
48
1
60
0
100
AcDbEllipse
10
31.313981
20
-18.69
30
0
11
-25.5220929575786
21
47.999962140896
31
0
210
0
220
0
230
1
40
0.002268
41
-1.66419197829297
42
-1.57200198701634
0
ELLIPSE
5
162
100
AcDbEntity
8
1
62
256
6
ByLayer
370
18
48
1
60
0
100
AcDbEllipse
10
33.401735
20
31.157429
30
0
11
-1.88703284089476
21
3.54288307629106
31
0
210
0
220
0
230
1
40
0.984425
41
-2.67353916254287
42
-2.66436680323881
0
ELLIPSE
5
163
100
AcDbEntity
8
1
62
256
6
ByLayer
370
18
48
1
60
0
100
AcDbEllipse
10
33.402637
20
31.157119
30
0
11
-1.86716753707643
21
3.53943272173943
31
0
210
0
220
0
230
1
40
0.998005
41
-2.66601942650464
42
-2.54409534746356
0
ELLIPSE
5
164
100
AcDbEntity
8
1
62
256
6
ByLayer
370
18
48
1
60
0
100
AcDbEllipse
10
37.394341
20
60.442268
30
0
11
-1.59068694392368
21
2.41954744162776
31
0
210
0
220
0
230
1
40
0.740216
41
-1.72776053179197
42
-1.27805055577009
0
ELLIPSE
5
165
100
AcDbEntity
8
1
62
256
6
ByLayer
370
18
48
1
60
0
100
AcDbEllipse
10
37.394341
20
60.442268
30
0
11
-2.82910434612639
21
0.61323179178964
31
0
210
0
220
0
230
1
40
0.740112
41
-1.86539213497359
42
-1.41568215894316
0
ELLIPSE
5
166
100
AcDbEntity
8
1
62
256
6
ByLayer
370
18
48
1
60
0
100
AcDbEllipse
10
40.592337
20
-63.877882
30
0
11
1.96467389225406
21
1.34551405031572
31
0
210
0
220
0
230
1
40
0.983331
41
-2.26731305686147
42
-0.696516730066867
0
ELLIPSE
5
167
100
AcDbEntity
8
1
62
256
6
ByLayer
370
18
48
1
60
0
100
AcDbEllipse
10
40.556379
20
-63.825377
30
0
11
1.67590292646163
21
1.14774820565177
31
0
210
0
220
0
230
1
40
0.983331
41
-2.26731305686295
42
-0.696516730067928
0
ELLIPSE
5
168
100
AcDbEntity
8
1
62
256
6
ByLayer
370
18
48
1
60
0
100
AcDbEllipse
10
42.967299
20
-66.904895
30
0
11
0.327548781199486
21
0.224322972374745
31
0
210
0
220
0
230
1
40
0.983331
41
-2.26731305684986
42
-0.69651673005677
0
ELLIPSE
5
169
100
AcDbEntity
8
1
62
256
6
ByLayer
370
18
48
1
60
0
100
AcDbEllipse
10
41.208769
20
-64.777975
30
0
11
1.96467389225294
21
1.34551405031694
31
0
210
0
220
0
230
1
40
0.983331
41
-2.26731305686226
42
-0.69651673006748
0
ELLIPSE
5
16A
100
AcDbEntity
8
1
62
256
6
ByLayer
370
18
48
1
60
0
100
AcDbEllipse
10
41.738102
20
-52.933811
30
0
11
1.96467388846266
21
1.34551410016304
31
0
210
0
220
0
230
1
40
0.983331
41
0
42
0.114721768681197
0
ELLIPSE
5
16B
100
AcDbEntity
8
1
62
256
6
ByLayer
370
18
48
1
60
0
100
AcDbEllipse
10
41.738102
20
-52.933811
30
0
11
1.96467389241963
21
1.34551405011173
31
0
210
0
220
0
230
1
40
0.983331
41
-0.696516729955292
42
1.08404063201687E-10
0
ELLIPSE
5
16C
100
AcDbEntity
8
1
62
256
6
ByLayer
370
18
48
1
60
0
100
AcDbEllipse
10
43.619689
20
-67.857493
30
0
11
0.327548781197056
21
0.224322972377577
31
0
210
0
220
0
230
1
40
0.983331
41
-2.2673130568601
42
-0.696516730065131
0
ELLIPSE
5
16D
100
AcDbEntity
8
1
62
256
6
ByLayer
370
18
48
1
60
0
100
AcDbEllipse
10
44.52224
20
-52.052473
30
0
11
0.327548781204409
21
0.224322972363361
31
0
210
0
220
0
230
1
40
0.983331
41
0
42
0.874279596771307
0
ELLIPSE
5
16E
100
AcDbEntity
8
1
62
256
6
ByLayer
370
18
48
1
60
0
100
AcDbEllipse
10
44.52224
20
-52.052473
30
0
11
0.327548781137026
21
0.224322972450724
31
0
210
0
220
0
230
1
40
0.983331
41
-0.696516730306251
42
-2.31391826012925E-10
0
ELLIPSE
5
16F
100
AcDbEntity
8
1
62
256
6
ByLayer
370
18
48
1
60
0
100
AcDbEllipse
10
45.17463
20
53.005071
30
0
11
-0.327548781244956
21
0.224322972295599
31
0
210
0
220
0
230
1
40
0.983331
41
2.26731305661764
42
3.14159265335387
0
ELLIPSE
5
170
100
AcDbEntity
8
1
62
256
6
ByLayer
370
18
48
1
60
0
100
AcDbEllipse
10
29.562224
20
-62.857945
30
0
11
1.67590292634866
21
1.14774820583895
31
0
210
0
220
0
230
1
40
0.983331
41
-2.86312645593024
42
-2.26731305697127
0
ELLIPSE
5
171
100
AcDbEntity
8
1
62
256
6
ByLayer
370
18
48
1
60
0
100
AcDbEllipse
10
31.31398
20
18.69
30
0
11
25.5220948917871
21
47.9999657767905
31
0
210
0
220
0
230
1
40
0.002268
41
-1.56959066017449
42
-1.47740067587493
0
ELLIPSE
5
172
100
AcDbEntity
8
1
62
256
6
ByLayer
370
18
48
1
60
0
100
AcDbEllipse
10
24.933494
20
6.69
30
0
11
25.522094936376
21
47.9999658612915
31
0
210
0
220
0
230
1
40
0.002268
41
-1.70942114319077
42
-1.56959066241275
0
ELLIPSE
5
173
100
AcDbEntity
8
1
62
256
6
ByLayer
370
18
48
1
60
0
100
AcDbEllipse
10
45.17463
20
53.005071
30
0
11
-0.327548781185128
21
0.224322972396479
31
0
210
0
220
0
230
1
40
0.983331
41
3.14159265358979
42
-2.44507592346999
0
ELLIPSE
5
174
100
AcDbEntity
8
1
62
256
6
ByLayer
370
18
48
1
60
0
100
AcDbEllipse
10
43.619689
20
67.857493
30
0
11
-0.32754878119507
21
0.224322972379371
31
0
210
0
220
0
230
1
40
0.983331
41
-2.4450759235198
42
-0.874279596721603
0
ELLIPSE
5
175
100
AcDbEntity
8
1
62
256
6
ByLayer
370
18
48
1
60
0
100
AcDbEllipse
10
28.699298
20
66.544571
30
0
11
-0.327548781186945
21
0.224322972393829
31
0
210
0
220
0
230
1
40
0.983331
41
-0.874279596681315
42
0
0
ELLIPSE
5
176
100
AcDbEntity
8
1
62
256
6
ByLayer
370
18
48
1
60
0
100
AcDbEllipse
10
8.376296
20
40.475094
30
0
11
2.92863335577315E-15
21
2.49999999998503
31
0
210
0
220
0
230
1
40
0.999996
41
-0.602077663637342
42
0
0
ELLIPSE
5
177
100
AcDbEntity
8
1
62
256
6
ByLayer
370
18
48
1
60
0
100
AcDbEllipse
10
9.045933
20
9.81
30
0
11
2.34290668466192E-14
21
20.0000000002507
31
0
210
0
220
0
230
1
40
0.002909
41
-0.72273424780841
42
-9.15962619136121E-14
0
ELLIPSE
5
178
100
AcDbEntity
8
1
62
256
6
ByLayer
370
18
48
1
60
0
100
AcDbEllipse
10
16.226043
20
9.810152
30
0
11
-10.634114067543
21
19.9998117832269
31
0
210
0
220
0
230
1
40
0.002268
41
-0.941830638017717
42
-0.917005832696068
0
ELLIPSE
5
179
100
AcDbEntity
8
1
62
256
6
ByLayer
370
18
48
1
60
0
100
AcDbEllipse
10
34.838537
20
-56.750042
30
0
11
1.65011980451742
21
1.13009054094761
31
0
210
0
220
0
230
1
40
0.983331
41
0.521861358874973
42
2.61973129472924
0
ELLIPSE
5
17A
100
AcDbEntity
8
1
62
256
6
ByLayer
370
18
48
1
60
0
100
AcDbEllipse
10
36.936964
20
59.774821
30
0
11
-2.61956518967095
21
1.7940187337551
31
0
210
0
220
0
230
1
40
0.983331
41
-2.86596587292939
42
-0.278880245569195
0
ELLIPSE
5
17B
100
AcDbEntity
8
1
62
256
6
ByLayer
370
18
48
1
60
0
100
AcDbEllipse
10
28.171279
20
47.024058
30
0
11
-4.24864521336943
21
2.91058512342673
31
0
210
0
220
0
230
1
40
0.980008
41
-3.13266203843439
42
-3.08671474746335
0
ELLIPSE
5
17C
100
AcDbEntity
8
1
62
256
6
ByLayer
370
18
48
1
60
0
100
AcDbEllipse
10
33.626221
20
-54.97986
30
0
11
1.73262579474466
21
1.18659506799319
31
0
210
0
220
0
230
1
40
0.983331
41
0.978561698969291
42
3.14159265358979
0
ELLIPSE
5
17D
100
AcDbEntity
8
1
62
256
6
ByLayer
370
18
48
1
60
0
100
AcDbEllipse
10
33.626221
20
-54.97986
30
0
11
1.73262579474308
21
1.18659506799536
31
0
210
0
220
0
230
1
40
0.983331
41
3.14159265358979
42
0
0
ELLIPSE
5
17E
100
AcDbEntity
8
1
62
256
6
ByLayer
370
18
48
1
60
0
100
AcDbEllipse
10
33.626221
20
-54.97986
30
0
11
1.73262579474826
21
1.18659506798607
31
0
210
0
220
0
230
1
40
0.983331
41
0
42
0.978561698973181
0
ELLIPSE
5
17F
100
AcDbEntity
8
1
62
256
6
ByLayer
370
18
48
1
60
0
100
AcDbEllipse
10
45.17463
20
-53.005071
30
0
11
0.327548781102672
21
0.224322972492364
31
0
210
0
220
0
230
1
40
0.983331
41
-0.696516730443804
42
-3.64387977411696E-10
0
ELLIPSE
5
180
100
AcDbEntity
8
1
62
256
6
ByLayer
370
18
48
1
60
0
100
AcDbEllipse
10
42.354534
20
-53.833904
30
0
11
1.96467389225499
21
1.34551405030908
31
0
210
0
220
0
230
1
40
0.983331
41
-0.69651673006465
42
0
0
ELLIPSE
5
181
100
AcDbEntity
8
1
62
256
6
ByLayer
370
18
48
1
60
0
100
AcDbEllipse
10
1.853246
20
18.69
30
0
11
5.6229760431177E-14
21
47.9999999999964
31
0
210
0
220
0
230
1
40
0.266598
41
0.713082286552464
42
0.913946754535244
0
ELLIPSE
5
182
100
AcDbEntity
8
SK1
62
256
6
ByLayer
370
18
48
1
60
0
100
AcDbEllipse
10
1.853246
20
6.69
30
0
11
5.62297603766454E-14
21
47.999999953446
31
0
210
0
220
0
230
1
40
0.266598
41
1.5707963267949
42
1.66740486807964
0
ELLIPSE
5
183
100
AcDbEntity
8
1
62
256
6
ByLayer
370
18
48
1
60
0
100
AcDbEllipse
10
39.231358
20
53.732409
30
0
11
-3.86368389987919
21
0.497892484604082
31
0
210
0
220
0
230
1
40
0.411551
41
2.06047600669525
42
2.34789810224115
0
ELLIPSE
5
184
100
AcDbEntity
8
1
62
256
6
ByLayer
370
18
48
1
60
0
100
AcDbEllipse
10
33.414031
20
31.157119
30
0
11
4.68581336926429E-15
21
3.99999999999931
31
0
210
0
220
0
230
1
40
0.999996
41
3.14159265358979
42
-2.05948851735321
0
ELLIPSE
5
185
100
AcDbEntity
8
1
62
256
6
ByLayer
370
18
48
1
60
0
100
AcDbEllipse
10
34.889906
20
-56.82505
30
0
11
2.0626497556464
21
1.41261317618525
31
0
210
0
220
0
230
1
40
0.983331
41
0.773951470222155
42
2.36764118355778
0
ELLIPSE
5
186
100
AcDbEntity
8
1
62
256
6
ByLayer
370
18
48
1
60
0
100
AcDbEllipse
10
39.578643
20
-18.69
30
0
11
5.62297605988838E-14
21
48.0000001431577
31
0
210
0
220
0
230
1
40
0.104512
41
2.41051526293269
42
2.49988637605417
0
ELLIPSE
5
187
100
AcDbEntity
8
1
62
256
6
ByLayer
370
18
48
1
60
0
100
AcDbEllipse
10
-176.342297
20
-18.69002
30
0
11
452.146712482788
21
7.31960847904911
31
0
210
0
220
0
230
1
40
0.104919
41
-1.09709781743626
42
-1.08217910664828
0
ELLIPSE
5
188
100
AcDbEntity
8
1
62
256
6
ByLayer
370
18
48
1
60
0
100
AcDbEllipse
10
33.626221
20
-54.97986
30
0
11
2.47517970677538
21
1.69513581142261
31
0
210
0
220
0
230
1
40
0.983331
41
0.172967283500755
42
2.53324455100948
0
ELLIPSE
5
189
100
AcDbEntity
8
SK1
62
256
6
ByLayer
370
18
48
1
60
0
100
AcDbEllipse
10
-12.507755
20
0.06
30
0
11
1.2885986765479E-15
21
1.1
31
0
210
0
220
0
230
1
40
0.002909
41
3.14159265358975
42
-8.45704122792531E-14
0
ELLIPSE
5
18A
100
AcDbEntity
8
SK1
62
256
6
ByLayer
370
18
48
1
60
0
100
AcDbEllipse
10
-12.507755
20
0.06
30
0
11
1.2885986765479E-15
21
1.1
31
0
210
0
220
0
230
1
40
0.002909
41
0
42
3.14159265358975
0
ELLIPSE
5
18B
100
AcDbEntity
8
1
62
256
6
ByLayer
370
18
48
1
60
0
100
AcDbEllipse
10
30.305829
20
16.69
30
0
11
5.84881333174871
21
10.9999920049325
31
0
210
0
220
0
230
1
40
0.002268
41
-1.56959066004516
42
0.00120566675597336
0
ELLIPSE
5
18C
100
AcDbEntity
8
1
62
256
6
ByLayer
370
18
48
1
60
0
100
AcDbEllipse
10
30.305829
20
16.69
30
0
11
5.84881333181475
21
10.9999920050567
31
0
210
0
220
0
230
1
40
0.002268
41
0.00120566675646269
42
1.57200199354972
0
ELLIPSE
5
18D
100
AcDbEntity
8
1
62
256
6
ByLayer
370
18
48
1
60
0
100
AcDbEllipse
10
23.127782
20
3.19
30
0
11
5.84881329565252
21
10.9999919371313
31
0
210
0
220
0
230
1
40
0.002268
41
1.57200199210625
42
1.85609422824296
0
ELLIPSE
5
18E
100
AcDbEntity
8
SK1
62
256
6
ByLayer
370
18
48
1
60
0
100
AcDbEllipse
10
-12.507755
20
-0.06
30
0
11
2.07438020452504E-15
21
1.77077492512287
31
0
210
0
220
0
230
1
40
0.002909
41
1.53692490398126
42
3.14107978899942
0
ELLIPSE
5
18F
100
AcDbEntity
8
1
62
256
6
ByLayer
370
18
48
1
60
0
100
AcDbEllipse
10
34.531059
20
-56.301073
30
0
11
1.73262579474269
21
1.18659506799586
31
0
210
0
220
0
230
1
40
0.983331
41
0.398176190070603
42
2.74341646345531
0
ELLIPSE
5
190
100
AcDbEntity
8
1
62
256
6
ByLayer
370
18
48
1
60
0
100
AcDbEllipse
10
29.595865
20
39.617081
30
0
11
-0.110725886449133
21
4.90604331251515
31
0
210
0
220
0
230
1
40
0.504312
41
2.63396996032429
42
-2.53124267268488
0
ELLIPSE
5
191
100
AcDbEntity
8
1
62
256
6
ByLayer
370
18
48
1
60
0
100
AcDbEllipse
10
14.574917
20
44.097416
30
0
11
3.54612914631768
21
1.85433257593524
31
0
210
0
220
0
230
1
40
0.99946
41
2.65955777639637
42
-2.65490886762295
0
ELLIPSE
5
192
100
AcDbEntity
8
1
62
256
6
ByLayer
370
18
48
1
60
0
100
AcDbEllipse
10
8.37775
20
40.475094
30
0
11
2.9286333557907E-15
21
2.50000000000001
31
0
210
0
220
0
230
1
40
0.999996
41
0.000498387098414312
42
2.53951498995431
0
ELLIPSE
5
193
100
AcDbEntity
8
1
62
256
6
ByLayer
370
18
48
1
60
0
100
AcDbEllipse
10
27.57635
20
40.86009
30
0
11
3.11495121910912
21
4.53288825775674
31
0
210
0
220
0
230
1
40
0.000294
41
1.88416418218276
42
2.2895833698308
0
ELLIPSE
5
194
100
AcDbEntity
8
1
62
256
6
ByLayer
370
18
48
1
60
0
100
AcDbEllipse
10
41.702144
20
-52.881306
30
0
11
1.6759029260059
21
1.14774820620997
31
0
210
0
220
0
230
1
40
0.983331
41
-0.696516730426371
42
-0.100703331455432
0
ELLIPSE
5
195
100
AcDbEntity
8
1
62
256
6
ByLayer
370
18
48
1
60
0
100
AcDbEllipse
10
27.480371
20
36.532448
30
0
11
-2.89026913919735
21
1.97391619998992
31
0
210
0
220
0
230
1
40
0.990716
41
1.56788588263216
42
2.74012071334407
0
ELLIPSE
5
196
100
AcDbEntity
8
SK1
62
256
6
ByLayer
370
18
48
1
60
0
100
AcDbEllipse
10
1.853246
20
18.69
30
0
11
5.6229760431177E-14
21
47.9999999999964
31
0
210
0
220
0
230
1
40
0.266598
41
0.913946754535244
42
1.5707963267949
0
ELLIPSE
5
197
100
AcDbEntity
8
1
62
256
6
ByLayer
370
18
48
1
60
0
100
AcDbEllipse
10
28.065098
20
46.862946
30
0
11
-1.14481452843674
21
0.805853393989339
31
0
210
0
220
0
230
1
40
0.983028
41
2.01426026381116
42
2.19746258226906
0
ELLIPSE
5
198
100
AcDbEntity
8
1
62
256
6
ByLayer
370
18
48
1
60
0
100
AcDbEllipse
10
26.601575
20
46.995657
30
0
11
-0.367976094820963
21
0.25902431090594
31
0
210
0
220
0
230
1
40
0.983028
41
0
42
1.95164935041488
0
ELLIPSE
5
199
100
AcDbEntity
8
1
62
256
6
ByLayer
370
18
48
1
60
0
100
AcDbEllipse
10
28.893182
20
48.068824
30
0
11
-0.367976094821545
21
0.259024310905143
31
0
210
0
220
0
230
1
40
0.983028
41
-2.97591423039563
42
-0.142745751980521
0
ELLIPSE
5
19A
100
AcDbEntity
8
1
62
256
6
ByLayer
370
18
48
1
60
0
100
AcDbEllipse
10
29.748037
20
47.655426
30
0
11
-0.408862327621489
21
0.287804789844267
31
0
210
0
220
0
230
1
40
0.983028
41
0.165678423065083
42
0.679640075088738
0
ELLIPSE
5
19B
100
AcDbEntity
8
1
62
256
6
ByLayer
370
18
48
1
60
0
100
AcDbEllipse
10
27.938623
20
45.020154
30
0
11
-0.408862327438882
21
0.287804790036947
31
0
210
0
220
0
230
1
40
0.983028
41
-1.92871667882141
42
-1.41475502676036
0
ELLIPSE
5
19C
100
AcDbEntity
8
1
62
256
6
ByLayer
370
18
48
1
60
0
100
AcDbEllipse
10
28.200718
20
48.71873
30
0
11
-0.408862327617088
21
0.287804789853778
31
0
210
0
220
0
230
1
40
0.983028
41
1.21287597428408
42
1.7268376263033
0
ELLIPSE
5
19D
100
AcDbEntity
8
1
62
256
6
ByLayer
370
18
48
1
60
0
100
AcDbEllipse
10
27.938623
20
45.020154
30
0
11
-0.408862327566676
21
0.287804789914897
31
0
210
0
220
0
230
1
40
0.983028
41
-0.656707403959325
42
-0.142745751933464
0
ELLIPSE
5
19E
100
AcDbEntity
8
1
62
256
6
ByLayer
370
18
48
1
60
0
100
AcDbEllipse
10
28.439698
20
45.153804
30
0
11
-0.367976095567208
21
0.2590243099547
31
0
210
0
220
0
230
1
40
0.983028
41
-2.57218857176415
42
-2.23714085706882
0
ELLIPSE
5
19F
100
AcDbEntity
8
1
62
256
6
ByLayer
370
18
48
1
60
0
100
AcDbEllipse
10
26.391304
20
46.083458
30
0
11
-0.408862327610387
21
0.287804789831756
31
0
210
0
220
0
230
1
40
0.983028
41
-1.70390495534744
42
-1.18994330330937
0
ELLIPSE
5
1A0
100
AcDbEntity
8
1
62
256
6
ByLayer
370
18
48
1
60
0
100
AcDbEllipse
10
28.065098
20
46.862946
30
0
11
-1.14481452625499
21
0.805853400128914
31
0
210
0
220
0
230
1
40
0.983028
41
0.967062717185607
42
1.15026503545991
0
ELLIPSE
5
1A1
100
AcDbEntity
8
1
62
256
6
ByLayer
370
18
48
1
60
0
100
AcDbEllipse
10
27.795115
20
46.479402
30
0
11
-1.14481451722841
21
0.805853411697609
31
0
210
0
220
0
230
1
40
0.983028
41
-3.03852515881437
42
-2.17452992596821
0
ELLIPSE
5
1A2
100
AcDbEntity
8
1
62
256
6
ByLayer
370
18
48
1
60
0
100
AcDbEllipse
10
26.391304
20
46.083458
30
0
11
-0.408862327534807
21
0.287804789947531
31
0
210
0
220
0
230
1
40
0.983028
41
-2.97591423025899
42
-2.46195257822892
0
ELLIPSE
5
1A3
100
AcDbEntity
8
1
62
256
6
ByLayer
370
18
48
1
60
0
100
AcDbEllipse
10
27.896556
20
46.623511
30
0
11
-4.08862327579345
21
2.87804789894817
31
0
210
0
220
0
230
1
40
0.983028
41
-3.13012631798244
42
0
0
ELLIPSE
5
1A4
100
AcDbEntity
8
1
62
256
6
ByLayer
370
18
48
1
60
0
100
AcDbEllipse
10
27.795115
20
46.479402
30
0
11
-1.14481451732848
21
0.805853411578373
31
0
210
0
220
0
230
1
40
0.983028
41
0.103067494666162
42
0.53527893277116
0
ELLIPSE
5
1A5
100
AcDbEntity
8
1
62
256
6
ByLayer
370
18
48
1
60
0
100
AcDbEllipse
10
27.926162
20
48.32869
30
0
11
-0.408862327556732
21
0.287804789915574
31
0
210
0
220
0
230
1
40
0.983028
41
1.21287597444755
42
1.84685038900756
0
ELLIPSE
5
1A6
100
AcDbEntity
8
1
62
256
6
ByLayer
370
18
48
1
60
0
100
AcDbEllipse
10
28.065098
20
46.862946
30
0
11
-1.14481453585719
21
0.805853404350754
31
0
210
0
220
0
230
1
40
0.983028
41
0
42
0.103067482622777
0
ELLIPSE
5
1A7
100
AcDbEntity
8
1
62
256
6
ByLayer
370
18
48
1
60
0
100
AcDbEllipse
10
29.616989
20
45.806138
30
0
11
-0.408862328000397
21
0.287804789217523
31
0
210
0
220
0
230
1
40
0.983028
41
-0.881519129607849
42
-0.367557477552392
0
ELLIPSE
5
1A8
100
AcDbEntity
8
1
62
256
6
ByLayer
370
18
48
1
60
0
100
AcDbEllipse
10
27.795115
20
46.479402
30
0
11
-1.14481451722257
21
0.805853411706905
31
0
210
0
220
0
230
1
40
0.983028
41
-1.99132760760966
42
-1.12733237476406
0
ELLIPSE
5
1A9
100
AcDbEntity
8
1
62
256
6
ByLayer
370
18
48
1
60
0
100
AcDbEllipse
10
28.06967
20
46.869442
30
0
11
-1.16525763702642
21
0.82024364680871
31
0
210
0
220
0
230
1
40
0.983028
41
0.92846697866046
42
1.18886078713594
0
ELLIPSE
5
1AA
100
AcDbEntity
8
1
62
256
6
ByLayer
370
18
48
1
60
0
100
AcDbEllipse
10
29.748037
20
47.655426
30
0
11
-0.408862327565521
21
0.28780478993575
31
0
210
0
220
0
230
1
40
0.983028
41
1.43768769847403
42
1.95164935048782
0
ELLIPSE
5
1AB
100
AcDbEntity
8
1
62
256
6
ByLayer
370
18
48
1
60
0
100
AcDbEllipse
10
28.065098
20
46.862946
30
0
11
-1.14481450832075
21
0.805853314912474
31
0
210
0
220
0
230
1
40
0.983028
41
-0.0801348773505733
42
-5.19779291794809E-08
0
ELLIPSE
5
1AC
100
AcDbEntity
8
1
62
256
6
ByLayer
370
18
48
1
60
0
100
AcDbEllipse
10
28.06967
20
46.869442
30
0
11
-1.16525763011228
21
0.820243656704643
31
0
210
0
220
0
230
1
40
0.983028
41
-1.16592811525294
42
-0.90553430678273
0
ELLIPSE
5
1AD
100
AcDbEntity
8
1
62
256
6
ByLayer
370
18
48
1
60
0
100
AcDbEllipse
10
27.926162
20
48.32869
30
0
11
-0.408862327501807
21
0.287804790025921
31
0
210
0
220
0
230
1
40
0.983028
41
2.36487248736663
42
2.99884690190963
0
ELLIPSE
5
1AE
100
AcDbEntity
8
1
62
256
6
ByLayer
370
18
48
1
60
0
100
AcDbEllipse
10
28.065098
20
46.862946
30
0
11
-1.1448145223258
21
0.805853408387114
31
0
210
0
220
0
230
1
40
0.983028
41
3.14159264962191
42
-3.0385251628588
0
ELLIPSE
5
1AF
100
AcDbEntity
8
1
62
256
6
ByLayer
370
18
48
1
60
0
100
AcDbEllipse
10
27.150532
20
47.805
30
0
11
-0.367976094815843
21
0.259024310914135
31
0
210
0
220
0
230
1
40
0.983028
41
-1.92871667917454
42
-0.569404084470782
0
ELLIPSE
5
1B0
100
AcDbEntity
8
1
62
256
6
ByLayer
370
18
48
1
60
0
100
AcDbEllipse
10
28.165919
20
47.024059
30
0
11
-4.21423730430509
21
2.96018647098513
31
0
210
0
220
0
230
1
40
0.979677
41
-3.13110544005735
42
-0.0526284365714107
0
ELLIPSE
5
1B1
100
AcDbEntity
8
1
62
256
6
ByLayer
370
18
48
1
60
0
100
AcDbEllipse
10
26.522351
20
47.932746
30
0
11
-0.408862327913421
21
0.287804789356421
31
0
210
0
220
0
230
1
40
0.983028
41
2.26007352431154
42
2.77403517636145
0
ELLIPSE
5
1B2
100
AcDbEntity
8
1
62
256
6
ByLayer
370
18
48
1
60
0
100
AcDbEllipse
10
28.714253
20
45.543844
30
0
11
-0.367976094821748
21
0.259024310904941
31
0
210
0
220
0
230
1
40
0.983028
41
3.14159265358979
42
-2.23714085437441
0
ELLIPSE
5
1B3
100
AcDbEntity
8
1
62
256
6
ByLayer
370
18
48
1
60
0
100
AcDbEllipse
10
27.705356
20
46.351889
30
0
11
-1.14481451722215
21
0.805853411705512
31
0
210
0
220
0
230
1
40
0.983028
41
-3.06145783002203
42
-0.103067494782496
0
ELLIPSE
5
1B4
100
AcDbEntity
8
1
62
256
6
ByLayer
370
18
48
1
60
0
100
AcDbEllipse
10
29.537765
20
46.743226
30
0
11
-0.367976094811652
21
0.259024310921555
31
0
210
0
220
0
230
1
40
0.983028
41
2.26007352563058
42
3.14159265358979
0
ELLIPSE
5
1B5
100
AcDbEntity
8
1
62
256
6
ByLayer
370
18
48
1
60
0
100
AcDbEllipse
10
28.06967
20
46.869442
30
0
11
-1.16525763189088
21
0.820243653905907
31
0
210
0
220
0
230
1
40
0.983028
41
1.97566453599518
42
2.23605834448707
0
ELLIPSE
5
1B6
100
AcDbEntity
8
1
62
256
6
ByLayer
370
18
48
1
60
0
100
AcDbEllipse
10
28.065098
20
46.862946
30
0
11
-1.14481450365929
21
0.805853433120836
31
0
210
0
220
0
230
1
40
0.983028
41
-1.12733235660786
42
-0.944130038385604
0
ELLIPSE
5
1B7
100
AcDbEntity
8
1
62
256
6
ByLayer
370
18
48
1
60
0
100
AcDbEllipse
10
28.065098
20
46.862946
30
0
11
-1.14481451820796
21
0.805853410443294
31
0
210
0
220
0
230
1
40
0.983028
41
-2.17452992709965
42
-1.99132760875782
0
ELLIPSE
5
1B8
100
AcDbEntity
8
1
62
256
6
ByLayer
370
18
48
1
60
0
100
AcDbEllipse
10
27.425087
20
48.19504
30
0
11
-0.367976094839616
21
0.259024310883263
31
0
210
0
220
0
230
1
40
0.983028
41
0
42
0.904451799151892
0
ELLIPSE
5
1B9
100
AcDbEntity
8
1
62
256
6
ByLayer
370
18
48
1
60
0
100
AcDbEllipse
10
28.200718
20
48.71873
30
0
11
-0.4088623275592
21
0.287804789930205
31
0
210
0
220
0
230
1
40
0.983028
41
2.48488524966541
42
2.99884690169008
0
ELLIPSE
5
1BA
100
AcDbEntity
8
1
62
256
6
ByLayer
370
18
48
1
60
0
100
AcDbEllipse
10
26.522351
20
47.932746
30
0
11
-0.408862327355667
21
0.287804790177313
31
0
210
0
220
0
230
1
40
0.983028
41
-2.75110250568692
42
-2.23714085364729
0
ELLIPSE
5
1BB
100
AcDbEntity
8
1
62
256
6
ByLayer
370
18
48
1
60
0
100
AcDbEllipse
10
28.06967
20
46.869442
30
0
11
-1.1652576333546
21
0.820243651164807
31
0
210
0
220
0
230
1
40
0.983028
41
3.02286208500798
42
-2.99992941363565
0
ELLIPSE
5
1BC
100
AcDbEntity
8
1
62
256
6
ByLayer
370
18
48
1
60
0
100
AcDbEllipse
10
29.473481
20
47.265386
30
0
11
-0.408862327600608
21
0.287804789868831
31
0
210
0
220
0
230
1
40
0.983028
41
0.16567842312865
42
0.799652837678325
0
ELLIPSE
5
1BD
100
AcDbEntity
8
1
62
256
6
ByLayer
370
18
48
1
60
0
100
AcDbEllipse
10
27.795115
20
46.479402
30
0
11
-1.14481451687516
21
0.805853412343343
31
0
210
0
220
0
230
1
40
0.983028
41
2.63055276826711
42
3.06145783053059
0
ELLIPSE
5
1BE
100
AcDbEntity
8
1
62
256
6
ByLayer
370
18
48
1
60
0
100
AcDbEllipse
10
28.06967
20
46.869442
30
0
11
-1.16525763248695
21
0.820243652627069
31
0
210
0
220
0
230
1
40
0.983028
41
-2.21312566978193
42
-1.9527318612529
0
ELLIPSE
5
1BF
100
AcDbEntity
8
1
62
256
6
ByLayer
370
18
48
1
60
0
100
AcDbEllipse
10
27.795115
20
46.479402
30
0
11
-1.14481451722173
21
0.805853411706322
31
0
210
0
220
0
230
1
40
0.983028
41
-0.944130056413422
42
-0.103067494781843
0
ELLIPSE
5
1C0
100
AcDbEntity
8
1
62
256
6
ByLayer
370
18
48
1
60
0
100
AcDbEllipse
10
26.601575
20
46.995657
30
0
11
-0.367976094852591
21
0.259024310852517
31
0
210
0
220
0
230
1
40
0.983028
41
-0.881519128140549
42
-1.33462901056623E-10
0
ELLIPSE
5
1C1
100
AcDbEntity
8
1
62
256
6
ByLayer
370
18
48
1
60
0
100
AcDbEllipse
10
29.473481
20
47.265386
30
0
11
-0.408862327584316
21
0.287804789887836
31
0
210
0
220
0
230
1
40
0.983028
41
1.31767493584432
42
1.95164935039569
0
ELLIPSE
5
1C2
100
AcDbEntity
8
1
62
256
6
ByLayer
370
18
48
1
60
0
100
AcDbEllipse
10
29.26321
20
46.353186
30
0
11
-0.367976094817117
21
0.259024310910851
31
0
210
0
220
0
230
1
40
0.983028
41
-2.5721885690847
42
-1.18994330316051
0
ELLIPSE
5
1C3
100
AcDbEntity
8
1
62
256
6
ByLayer
370
18
48
1
60
0
100
AcDbEllipse
10
26.247796
20
47.542706
30
0
11
-0.408862327909292
21
0.287804789356554
31
0
210
0
220
0
230
1
40
0.983028
41
2.26007352431231
42
2.89404793889357
0
ELLIPSE
5
1C4
100
AcDbEntity
8
1
62
256
6
ByLayer
370
18
48
1
60
0
100
AcDbEllipse
10
28.065098
20
46.862946
30
0
11
-1.14481451757636
21
0.805853479172339
31
0
210
0
220
0
230
1
40
0.983028
41
3.06145786973659
42
-3.14159261499592
0
ELLIPSE
5
1C5
100
AcDbEntity
8
1
62
256
6
ByLayer
370
18
48
1
60
0
100
AcDbEllipse
10
29.342434
20
45.416098
30
0
11
-0.408862327636529
21
0.287804789823233
31
0
210
0
220
0
230
1
40
0.983028
41
0.270477384484307
42
0.904451799031535
0
ELLIPSE
5
1C6
100
AcDbEntity
8
1
62
256
6
ByLayer
370
18
48
1
60
0
100
AcDbEllipse
10
28.618627
20
47.678784
30
0
11
-0.36797609482139
21
0.259024310905361
31
0
210
0
220
0
230
1
40
0.983028
41
-2.97591423039502
42
-0.142745751979889
0
ELLIPSE
5
1C7
100
AcDbEntity
8
1
62
256
6
ByLayer
370
18
48
1
60
0
100
AcDbEllipse
10
27.246158
20
45.670059
30
0
11
-0.367976094821259
21
0.259024310905561
31
0
210
0
220
0
230
1
40
0.983028
41
0.165678423195386
42
2.99884690161035
0
ELLIPSE
5
1C8
100
AcDbEntity
8
1
62
256
6
ByLayer
370
18
48
1
60
0
100
AcDbEllipse
10
28.06967
20
46.869442
30
0
11
-1.1652576333339
21
0.820243651317982
31
0
210
0
220
0
230
1
40
0.983028
41
-0.118730568484197
42
0.141663240045218
0
ELLIPSE
5
1C9
100
AcDbEntity
8
1
62
256
6
ByLayer
370
18
48
1
60
0
100
AcDbEllipse
10
28.06967
20
46.869442
30
0
11
-2.04431163789664
21
1.43902394947421
31
0
210
0
220
0
230
1
40
0.983028
41
0
42
6.28318530717959
0
ELLIPSE
5
1CA
100
AcDbEntity
8
1
62
256
6
ByLayer
370
18
48
1
60
0
100
AcDbEllipse
10
27.795115
20
46.479402
30
0
11
-1.14481451727446
21
0.805853411663939
31
0
210
0
220
0
230
1
40
0.983028
41
1.42175404504704
42
1.75395624469257
0
ELLIPSE
5
1CB
100
AcDbEntity
8
1
62
256
6
ByLayer
370
18
48
1
60
0
100
AcDbEllipse
10
26.32702
20
46.605617
30
0
11
-0.367976097755554
21
0.259024306219791
31
0
210
0
220
0
230
1
40
0.983028
41
-0.881519140343312
42
-0.569404096702842
0
ELLIPSE
5
1CC
100
AcDbEntity
8
1
62
256
6
ByLayer
370
18
48
1
60
0
100
AcDbEllipse
10
29.616989
20
45.806138
30
0
11
-0.408862327638698
21
0.287804789820235
31
0
210
0
220
0
230
1
40
0.983028
41
0.390490147001194
42
0.904451799024351
0
ELLIPSE
5
1CD
100
AcDbEntity
8
1
62
256
6
ByLayer
370
18
48
1
60
0
100
AcDbEllipse
10
27.425087
20
48.19504
30
0
11
-0.367976094820453
21
0.25902431090679
31
0
210
0
220
0
230
1
40
0.983028
41
-1.9287166791945
42
0
0
ELLIPSE
5
1CE
100
AcDbEntity
8
1
62
256
6
ByLayer
370
18
48
1
60
0
100
AcDbEllipse
10
27.896556
20
46.623511
30
0
11
-4.08862327579349
21
2.87804789894813
31
0
210
0
220
0
230
1
40
0.983028
41
0
42
3.14159265358979
0
ELLIPSE
5
1CF
100
AcDbEntity
8
1
62
256
6
ByLayer
370
18
48
1
60
0
100
AcDbEllipse
10
28.714253
20
45.543844
30
0
11
-0.367976094818643
21
0.25902431090953
31
0
210
0
220
0
230
1
40
0.983028
41
1.21287597440277
42
3.14159265358979
0
ELLIPSE
5
1D0
100
AcDbEntity
8
1
62
256
6
ByLayer
370
18
48
1
60
0
100
AcDbEllipse
10
29.537765
20
46.743226
30
0
11
-0.367976094822072
21
0.259024310904448
31
0
210
0
220
0
230
1
40
0.983028
41
3.14159265358979
42
-1.18994330317914
0
POINT
5
6C
100
AcDbEntity
8
80
62
256
6
ByLayer
370
13
48
1
60
0
100
AcDbPoint
10
0
20
0
30
0
39
0
210
0
220
0
230
1
50
360
0
POINT
5
6E
100
AcDbEntity
8
81
62
256
6
ByLayer
370
18
48
1
60
0
100
AcDbPoint
10
44
20
68.25
30
0
39
0
210
0
220
0
230
1
50
360
0
SPLINE
5
1D1
100
AcDbEntity
8
1
62
256
6
ByLayer
370
18
48
1
60
0
100
AcDbSpline
70
4
71
2
72
6
73
3
40
0
40
0
40
0
40
1
40
1
40
1
41
1
10
17.1523412557309
20
43.103656701743
30
0
41
1
10
17.1331049334287
20
43.1119339042958
30
0
41
1
10
17.1144033173569
20
43.1196702520763
30
0
0
SPLINE
5
1D2
100
AcDbEntity
8
1
62
256
6
ByLayer
370
18
48
1
60
0
100
AcDbSpline
70
4
71
3
72
65
73
61
40
0
40
0
40
0
40
0
40
0.0106513753832605
40
0.0213141187323863
40
0.0319823637813938
40
0.0426482914852828
40
0.0533023405317916
40
0.0643085865921711
40
0.0753231202536008
40
0.0863417138737515
40
0.0973586696358088
40
0.108366948700839
40
0.12092515336369
40
0.133489248213788
40
0.146054243963392
40
0.158613677685708
40
0.171283245877079
40
0.183952933931707
40
0.196388981035086
40
0.2088251173712
40
0.222008275360145
40
0.235195099155369
40
0.248382373154279
40
0.261566145224241
40
0.277382881280957
40
0.293206286543421
40
0.309032775500503
40
0.32485779430512
40
0.340675884236963
40
0.353971949853531
40
0.36726912826186
40
0.380565317043466
40
0.400148354582713
40
0.419731524100722
40
0.440476214788356
40
0.461226706894297
40
0.481977871056149
40
0.502723478434553
40
0.521235988757446
40
0.539753111184526
40
0.558272209507051
40
0.576790156223323
40
0.595303358060255
40
0.618438147205371
40
0.641577793408228
40
0.664717953381215
40
0.687853443266222
40
0.710983482718859
40
0.734117374387686
40
0.757251655615227
40
0.780382226371126
40
0.805136445103275
40
0.829894417294691
40
0.854652788363813
40
0.879407551100974
40
0.903523094227266
40
0.927642498857518
40
0.951763607985937
40
0.975883798031269
40
1
40
1
40
1
40
1
41
1
10
18.0277596108392
20
42.4511951039382
30
0
41
1
10
18.0240360406838
20
42.454919828505
30
0
41
1
10
18.0165322614078
20
42.4623661160644
30
0
41
1
10
18.0051017835687
20
42.4735244758246
30
0
41
1
10
17.9935332647696
20
42.4846535469068
30
0
41
1
10
17.9818564074242
20
42.4957354151994
30
0
41
1
10
17.9699666870161
20
42.5068793840171
30
0
41
1
10
17.9578778487936
20
42.5180787155837
30
0
41
1
10
17.945601165164
20
42.5293280304494
30
0
41
1
10
17.9332849080474
20
42.5404990327046
30
0
41
1
10
17.9209512015642
20
42.5515804619971
30
0
41
1
10
17.908037165101
20
42.5630820653231
30
0
41
1
10
17.8945537610652
20
42.5749869789037
30
0
41
1
10
17.8805144956608
20
42.5872756184597
30
0
41
1
10
17.8665135867711
20
42.5994316692767
30
0
41
1
10
17.8525247353643
20
42.6114858197228
30
0
41
1
10
17.838559455725
20
42.6234346097773
30
0
41
1
10
17.824710876
20
42.6352034007156
30
0
41
1
10
17.8110259186727
20
42.6467594870912
30
0
41
1
10
17.7972386118397
20
42.6583318748976
30
0
41
1
10
17.7832743722229
20
42.6699833956394
30
0
41
1
10
17.7691452226154
20
42.6817029751176
30
0
41
1
10
17.7551259291133
20
42.6932647340245
30
0
41
1
10
17.7402963887099
20
42.7054265487735
30
0
41
1
10
17.7246865527087
20
42.7181522033086
30
0
41
1
10
17.7083304778296
20
42.7314005958661
30
0
41
1
10
17.6921493555934
20
42.7444235052397
30
0
41
1
10
17.6761507949516
20
42.7572175154136
30
0
41
1
10
17.6611781859827
20
42.7691151942682
30
0
41
1
10
17.6471996277246
20
42.7801580383358
30
0
41
1
10
17.6341831515321
20
42.7903848228822
30
0
41
1
10
17.6192672914739
20
42.8020392825876
30
0
41
1
10
17.6025344465432
20
42.8150226740596
30
0
41
1
10
17.5837171390367
20
42.8294993690959
30
0
41
1
10
17.5648375930068
20
42.8438926779023
30
0
41
1
10
17.5459148842801
20
42.8581791433907
30
0
41
1
10
17.5273075123645
20
42.8720853112658
30
0
41
1
10
17.5096705182226
20
42.8851266940058
30
0
41
1
10
17.4929617017314
20
42.8973519985666
30
0
41
1
10
17.4771404530261
20
42.908807784488
30
0
41
1
10
17.4615586670656
20
42.9199677682076
30
0
41
1
10
17.4462159213548
20
42.930831729023
30
0
41
1
10
17.429852563384
20
42.9422805117242
30
0
41
1
10
17.4125353484617
20
42.9542261824638
30
0
41
1
10
17.3943361374359
20
42.9665731942967
30
0
41
1
10
17.3764846164324
20
42.9784726573987
30
0
41
1
10
17.3589761834035
20
42.9899270456895
30
0
41
1
10
17.3418023238883
20
43.0009412409125
30
0
41
1
10
17.3249546939115
20
43.0115210732609
30
0
41
1
10
17.3084255647714
20
43.0216718270511
30
0
41
1
10
17.291828826529
20
43.0316255945343
30
0
41
1
10
17.2751810915016
20
43.0413529256541
30
0
41
1
10
17.2584987831202
20
43.0508254793803
30
0
41
1
10
17.2421457744269
20
43.0598326018656
30
0
41
1
10
17.2262515798007
20
43.0683075587911
30
0
41
1
10
17.2107965030256
20
43.0762714152952
30
0
41
1
10
17.1957623790067
20
43.0837455882682
30
0
41
1
10
17.1810058978173
20
43.0908074976296
30
0
41
1
10
17.1665213437109
20
43.0974632079188
30
0
41
1
10
17.1570384208014
20
43.1016366249449
30
0
41
1
10
17.152341255726
20
43.1036567017549
30
0
0
SPLINE
5
1D3
100
AcDbEntity
8
1
62
256
6
ByLayer
370
18
48
1
60
0
100
AcDbSpline
70
4
71
3
72
92
73
88
40
0
40
0
40
0
40
0
40
0.010750261194032
40
0.0215013341049345
40
0.0322524307494941
40
0.043002724310032
40
0.0538336864990371
40
0.0646654262833948
40
0.0754971897934645
40
0.0863281843380227
40
0.0971589048089755
40
0.107990351941395
40
0.118821821760801
40
0.129652573170613
40
0.140578961939499
40
0.151506046913861
40
0.162433154091464
40
0.173359573139416
40
0.184513553068448
40
0.195668223023254
40
0.206822915515856
40
0.217976926180131
40
0.229130679650403
40
0.240285075414714
40
0.2514394920561
40
0.262593273996737
40
0.273746818315542
40
0.284900960842613
40
0.296055122578849
40
0.307208693093363
40
0.3185695968454
40
0.329931089748759
40
0.341292601560583
40
0.352653531098224
40
0.364836091653185
40
0.377019328331697
40
0.389202587671217
40
0.401385179129258
40
0.413567514823853
40
0.42575047923399
40
0.437933464029581
40
0.450115827523946
40
0.462380941486326
40
0.474646653524683
40
0.486912384337532
40
0.499177523902734
40
0.509299539314635
40
0.51942187036502
40
0.529544209274913
40
0.539666235404654
40
0.549798131201525
40
0.559930327006631
40
0.570062529990849
40
0.580194435577712
40
0.590325460582364
40
0.600456770459461
40
0.610588086856827
40
0.620719120753007
40
0.634219222588356
40
0.647720557451288
40
0.661222544822258
40
0.674724574186711
40
0.688226005962163
40
0.701726172411838
40
0.712232144176068
40
0.722738391866739
40
0.733244645155376
40
0.743750624553396
40
0.757770201004555
40
0.771790095390824
40
0.785809682004331
40
0.799160479505868
40
0.812511795429304
40
0.825863122969296
40
0.839213936312206
40
0.85258101282693
40
0.865948585628597
40
0.879316168560207
40
0.892683258889009
40
0.90609005163289
40
0.919497324069075
40
0.932904605344395
40
0.946311410142067
40
0.959733321551255
40
0.973155696100048
40
0.986578078239524
40
1
40
1
40
1
40
1
41
1
10
17.1523412557309
20
43.103656701743
30
0
41
1
10
17.1645449392149
20
43.1066455231681
30
0
41
1
10
17.189160905988
20
43.1126378160995
30
0
41
1
10
17.2267134074345
20
43.1216707460318
30
0
41
1
10
17.2648790530164
20
43.1307447714052
30
0
41
1
10
17.303744604098
20
43.1398804005052
30
0
41
1
10
17.3433057560279
20
43.1490758363254
30
0
41
1
10
17.3835577784113
20
43.158329391472
30
0
41
1
10
17.4243905544873
20
43.1676157431437
30
0
41
1
10
17.4657923199142
20
43.1769324160752
30
0
41
1
10
17.5077537791092
20
43.1862774739653
30
0
41
1
10
17.5502652441388
20
43.1956490743296
30
0
41
1
10
17.593315767388
20
43.2050450617271
30
0
41
1
10
17.6370225153762
20
43.2144909548844
30
0
41
1
10
17.6813818856003
20
43.2239852063831
30
0
41
1
10
17.7263897256485
20
43.2335263082098
30
0
41
1
10
17.7719050784782
20
43.2430843858362
30
0
41
1
10
17.8182363965584
20
43.2527238316018
30
0
41
1
10
17.8653868220045
20
43.2624433433904
30
0
41
1
10
17.9133587182423
20
43.2722415921745
30
0
41
1
10
17.9618179299995
20
43.2820500078408
30
0
41
1
10
18.0107529657466
20
43.2918665238153
30
0
41
1
10
18.0601548555018
20
43.3016895666075
30
0
41
1
10
18.110014570689
20
43.311517670082
30
0
41
1
10
18.1603217764787
20
43.321349083436
30
0
41
1
10
18.2110655899052
20
43.3311819386954
30
0
41
1
10
18.2622375513704
20
43.3410148258436
30
0
41
1
10
18.3138292156008
20
43.3508464369528
30
0
41
1
10
18.3658308587
20
43.3606751963626
30
0
41
1
10
18.4185572562111
20
43.3705603561765
30
0
41
1
10
18.4720091052749
20
43.3805005437435
30
0
41
1
10
18.526186650014
20
43.3904943889257
30
0
41
1
10
18.5807527598797
20
43.4004794921813
30
0
41
1
10
18.6370221213121
20
43.4106947685851
30
0
41
1
10
18.6950191606956
20
43.4211380936206
30
0
41
1
10
18.7547670150201
20
43.4318070506611
30
0
41
1
10
18.8149204174335
20
43.442459746736
30
0
41
1
10
18.8754676605658
20
43.4530944087839
30
0
41
1
10
18.9363998271559
20
43.4637097421289
30
0
41
1
10
18.9977081770254
20
43.4743045642384
30
0
41
1
10
19.0593824804418
20
43.4848774111677
30
0
41
1
10
19.1215527176939
20
43.4954506545189
30
0
41
1
10
19.184213458477
20
43.5060229589638
30
0
41
1
10
19.2473592596643
20
43.51659305886
30
0
41
1
10
19.3108388006047
20
43.5271357212503
30
0
41
1
10
19.3709261103287
20
43.5370372113388
30
0
41
1
10
19.4275516438829
20
43.5463021822705
30
0
41
1
10
19.4806553620739
20
43.5549355272825
30
0
41
1
10
19.5339648902209
20
43.5635473038475
30
0
41
1
10
19.5874924353855
20
43.5721396033815
30
0
41
1
10
19.6412341837389
20
43.5807118779056
30
0
41
1
10
19.6951864040564
20
43.5892636160467
30
0
41
1
10
19.7493266808485
20
43.597791381057
30
0
41
1
10
19.8036485492868
20
43.6062942819472
30
0
41
1
10
19.8581482131937
20
43.6147718456596
30
0
41
1
10
19.91282196584
20
43.6232236332375
30
0
41
1
10
19.9676667431101
20
43.6316492926529
30
0
41
1
10
20.0287758130797
20
43.6409792393764
30
0
41
1
10
20.0962168727265
20
43.6512017889952
30
0
41
1
10
20.1700602567874
20
43.6623029769107
30
0
41
1
10
20.2441780015846
20
43.6733542202228
30
0
41
1
10
20.318557807516
20
43.6843539257232
30
0
41
1
10
20.393187376071
20
43.6953005044956
30
0
41
1
10
20.4625231165062
20
43.70538765212
30
0
41
1
10
20.5265007917428
20
43.7146278099806
30
0
41
1
10
20.5850676164161
20
43.7230328190834
30
0
41
1
10
20.6437697468894
20
43.7314037917518
30
0
41
1
10
20.7091614797834
20
43.7406695288991
30
0
41
1
10
20.781294570872
20
43.7508147671583
30
0
41
1
10
20.8602218001492
20
43.76182156084
30
0
41
1
10
20.9381011343323
20
43.7725901375741
30
0
41
1
10
21.0149134696938
20
43.7831231224936
30
0
41
1
10
21.0906415502565
20
43.7934232942658
30
0
41
1
10
21.1665389853583
20
43.8036626971506
30
0
41
1
10
21.242628881999
20
43.8138445308773
30
0
41
1
10
21.3189057120882
20
43.8239680347201
30
0
41
1
10
21.3953640981037
20
43.8340324926274
30
0
41
1
10
21.4719656808114
20
43.844032916951
30
0
41
1
10
21.5487791176461
20
43.8539782704877
30
0
41
1
10
21.6257995070484
20
43.8638676958094
30
0
41
1
10
21.7030220356089
20
43.8737003676269
30
0
41
1
10
21.7803635711352
20
43.8834656785313
30
0
41
1
10
21.8578462447913
20
43.8931664379268
30
0
41
1
10
21.9354651860676
20
43.9028019564038
30
0
41
1
10
22.0132154363234
20
43.9123715513116
30
0
41
1
10
22.0910617855042
20
43.9218708799124
30
0
41
1
10
22.143017840027
20
43.9281562468313
30
0
41
1
10
22.1690105547336
20
43.9312870590992
30
0
0
SPLINE
5
1D4
100
AcDbEntity
8
1
62
256
6
ByLayer
370
18
48
1
60
0
100
AcDbSpline
70
4
71
3
72
93
73
89
40
0
40
0
40
0
40
0
40
0.0082400908071935
40
0.0164803985507861
40
0.0247208839341349
40
0.0329614486168367
40
0.0412019393617323
40
0.0494421521734583
40
0.0593294630427326
40
0.0692169380786594
40
0.0791044937679728
40
0.0889920176315619
40
0.0988793694537623
40
0.11127689039811
40
0.123674576012443
40
0.136072277261466
40
0.148469819526126
40
0.160975177504423
40
0.1734806795863
40
0.185986187837871
40
0.198491554229483
40
0.2109968717463
40
0.223502324734869
40
0.236007779021479
40
0.248513098308367
40
0.261036245699955
40
0.273559529222221
40
0.286082811005449
40
0.298605956025598
40
0.311486357600606
40
0.324366913929434
40
0.337247465651063
40
0.350127860943451
40
0.363013383336169
40
0.375899073002977
40
0.388784755569887
40
0.401670268280803
40
0.412368407428257
40
0.423066708397545
40
0.433765056440533
40
0.444463344340164
40
0.455161472525803
40
0.465859715200989
40
0.47655814197814
40
0.487256621064466
40
0.497955030595605
40
0.50865325880615
40
0.519374363614306
40
0.530095642531085
40
0.540816994172005
40
0.551538300839683
40
0.562259428923169
40
0.573585372704008
40
0.584911482901713
40
0.596237660414359
40
0.607563793001093
40
0.618889755560105
40
0.630220980364349
40
0.641552346284494
40
0.652883766681443
40
0.664215146675815
40
0.675546383284398
40
0.687055820987696
40
0.698565390412736
40
0.710075008170215
40
0.721584585974834
40
0.73309403070625
40
0.747486235362024
40
0.761878602654834
40
0.776270972192082
40
0.790663179908487
40
0.803736616222789
40
0.81681044625284
40
0.829884525528997
40
0.842958716548787
40
0.856032888872778
40
0.869106919221153
40
0.882180691570994
40
0.895254097254223
40
0.908344524297561
40
0.92143510452167
40
0.934525668950844
40
0.947616074455375
40
0.958092765154331
40
0.968569608178119
40
0.979046494045139
40
0.989523321967195
40
1
40
1
40
1
40
1
41
1
10
20.4602039257954
20
51.4405543970491
30
0
41
1
10
20.4775216898049
20
51.4654223332115
30
0
41
1
10
20.5123138711082
20
51.5150484976403
30
0
41
1
10
20.5649865491725
20
51.5891487070794
30
0
41
1
10
20.6180984630347
20
51.6629368327732
30
0
41
1
10
20.6716200334664
20
51.736429762226
30
0
41
1
10
20.7255179773878
20
51.8096463665895
30
0
41
1
10
20.7833727043998
20
51.8874695825581
30
0
41
1
10
20.8452399296885
20
51.9698567907064
30
0
41
1
10
20.9111951167259
20
52.0567497996694
30
0
41
1
10
20.9775789191693
20
52.1433178864941
30
0
41
1
10
21.0443721757034
20
52.2295710442493
30
0
41
1
10
21.1172402443167
20
52.3227949875018
30
0
41
1
10
21.1962856908633
20
52.4229079302354
30
0
41
1
10
21.2816250620954
20
52.5298146580961
30
0
41
1
10
21.3675194254004
20
52.6362783364713
30
0
41
1
10
21.4542021036476
20
52.742614911326
30
0
41
1
10
21.54166306982
20
52.8488288819923
30
0
41
1
10
21.6299007965402
20
52.9549180914387
30
0
41
1
10
21.7186544998635
20
53.0605787951134
30
0
41
1
10
21.8079156292093
20
53.1658131443901
30
0
41
1
10
21.8976769234908
20
53.2706239034801
30
0
41
1
10
21.98793583313
20
53.3750099914801
30
0
41
1
10
22.0786887877119
20
53.4789701091751
30
0
41
1
10
22.1699755625595
20
53.5825519643115
30
0
41
1
10
22.2617942754939
20
53.6857539297391
30
0
41
1
10
22.3541459342799
20
53.7885718027831
30
0
41
1
10
22.4469862519884
20
53.890952514487
30
0
41
1
10
22.5412020381048
20
53.9938612850868
30
0
41
1
10
22.6368098130455
20
54.0972797543484
30
0
41
1
10
22.733828446297
20
54.2011868132348
30
0
41
1
10
22.8313672194686
20
54.304610615843
30
0
41
1
10
22.9294405747168
20
54.4075579673379
30
0
41
1
10
23.02805103552
20
54.5100225250778
30
0
41
1
10
23.1272028778544
20
54.6119960228312
30
0
41
1
10
23.2268861077865
20
54.7134559186631
30
0
41
1
10
23.3214330159283
20
54.8086816839191
30
0
41
1
10
23.4107459260499
20
54.8977650075187
30
0
41
1
10
23.4947346520181
20
54.9807929145996
30
0
41
1
10
23.5791004936684
20
55.0634431400107
30
0
41
1
10
23.6638453831023
20
55.1457087060689
30
0
41
1
10
23.7489722187006
20
55.2275835620469
30
0
41
1
10
23.8344843281797
20
55.3090620314401
30
0
41
1
10
23.9203858407588
20
55.3901373016464
30
0
41
1
10
24.0066797656141
20
55.4708014654108
30
0
41
1
10
24.0933685637722
20
55.5510460616503
30
0
41
1
10
24.1805174830332
20
55.6309202935327
30
0
41
1
10
24.268131643542
20
55.7104157687862
30
0
41
1
10
24.3562020436522
20
55.7895394260047
30
0
41
1
10
24.4446554523469
20
55.8682423340791
30
0
41
1
10
24.5334803548093
20
55.9465314300241
30
0
41
1
10
24.6243431873249
20
56.0258790205246
30
0
41
1
10
24.7172578313384
20
56.1062669999851
30
0
41
1
10
24.8122397941515
20
56.1876751534626
30
0
41
1
10
24.9075959239071
20
56.2686531133532
30
0
41
1
10
25.0033162624786
20
56.3492067237214
30
0
41
1
10
25.099406568028
20
56.4293550058474
30
0
41
1
10
25.1958588590877
20
56.5091048877472
30
0
41
1
10
25.2926675041481
20
56.5884609068009
30
0
41
1
10
25.3898109722814
20
56.6674150233452
30
0
41
1
10
25.4872820745061
20
56.7459709954843
30
0
41
1
10
25.5855869807577
20
56.8245429181465
30
0
41
1
10
25.6847257957387
20
56.9031285211421
30
0
41
1
10
25.784700411855
20
56.9817233922395
30
0
41
1
10
25.8849919276134
20
57.0599221646799
30
0
41
1
10
25.9855951510056
20
57.1377266772895
30
0
41
1
10
26.0949305000984
20
57.2216023797519
30
0
41
1
10
26.2130892684949
20
57.311430512901
30
0
41
1
10
26.3401715797266
20
57.4070774236383
30
0
41
1
10
26.4677187025117
20
57.5021165751498
30
0
41
1
10
26.5918164811751
20
57.5936625622204
30
0
41
1
10
26.7124115457937
20
57.6817829402878
30
0
41
1
10
26.8294588307714
20
57.7665360354832
30
0
41
1
10
26.9468837575887
20
57.850781400013
30
0
41
1
10
27.0646862770447
20
57.9345119320296
30
0
41
1
10
27.1828665726631
20
58.0177202091406
30
0
41
1
10
27.3014247226175
20
58.1003989558763
30
0
41
1
10
27.4203609938195
20
58.1825406295418
30
0
41
1
10
27.5397282088053
20
58.2641749958976
30
0
41
1
10
27.6595311751381
20
58.3452926308646
30
0
41
1
10
27.7797818982527
20
58.4258729826801
30
0
41
1
10
27.9004362568392
20
58.5058624752739
30
0
41
1
10
28.0134430560167
20
58.5799614004474
30
0
41
1
10
28.1187233900853
20
58.6482819826921
30
0
41
1
10
28.2162003305066
20
58.7109369695052
30
0
41
1
10
28.313957608889
20
58.7731658490142
30
0
41
1
10
28.4119966177399
20
58.8349608654885
30
0
41
1
10
28.4775457404594
20
58.8758614567526
30
0
41
1
10
28.5103674233072
20
58.8962382034341
30
0
0
SPLINE
5
1D5
100
AcDbEntity
8
1
62
256
6
ByLayer
370
18
48
1
60
0
100
AcDbSpline
70
4
71
1
72
4
73
2
40
0
40
0
40
1
40
1
41
1
10
22.5348234510343
20
51.0065677374212
30
0
41
1
10
20.4602039257954
20
51.4405543970491
30
0
0
SPLINE
5
1D6
100
AcDbEntity
8
1
62
256
6
ByLayer
370
18
48
1
60
0
100
AcDbSpline
70
4
71
3
72
27
73
23
40
0
40
0
40
0
40
0
40
0.0392468888372356
40
0.078493786059972
40
0.117760830465161
40
0.157027883617607
40
0.213057648047315
40
0.269097666086468
40
0.325141422798616
40
0.38118204127732
40
0.437212309394097
40
0.48408574166967
40
0.530961088480058
40
0.57783459017049
40
0.624346772569504
40
0.670860738238559
40
0.717372988636778
40
0.774722656792452
40
0.832081357580766
40
0.889443436584945
40
0.946802827347488
40
1
40
1
40
1
40
1
41
1
10
22.0632938088314
20
43.5950027644468
30
0
41
1
10
22.0592330328023
20
43.5847285325766
30
0
41
1
10
22.0510169508378
20
43.5642306425084
30
0
41
1
10
22.0384050441358
20
43.533628906769
30
0
41
1
10
22.0255113001213
20
43.5031765345726
30
0
41
1
10
22.0104655177615
20
43.468564495721
30
0
41
1
10
21.993121212961
20
43.4298875872636
30
0
41
1
10
21.9733154406475
20
43.3872568168651
30
0
41
1
10
21.9529834633458
20
43.3449637076056
30
0
41
1
10
21.9321412600119
20
43.3030202501838
30
0
41
1
10
21.9119647490431
20
43.2636992447025
30
0
41
1
10
21.8925548329394
20
43.2269404559334
30
0
41
1
10
21.8740004534761
20
43.1926836795039
30
0
41
1
10
21.8551713513373
20
43.1587721441376
30
0
41
1
10
21.8360781857367
20
43.1252064712663
30
0
41
1
10
21.8167316049426
20
43.0919867029152
30
0
41
1
10
21.7955645828752
20
43.0564687663035
30
0
41
1
10
21.7724999723415
20
43.0187297827643
30
0
41
1
10
21.7474604273366
20
42.9788559619904
30
0
41
1
10
21.7220114318111
20
42.9393877556812
30
0
41
1
10
21.6967921405964
20
42.9012745693379
30
0
41
1
10
21.6799547239439
20
42.876437579541
30
0
41
1
10
21.6717980560258
20
42.8645458132772
30
0
0
SPLINE
5
1D7
100
AcDbEntity
8
1
62
256
6
ByLayer
370
18
48
1
60
0
100
AcDbSpline
70
4
71
1
72
4
73
2
40
0
40
0
40
1
40
1
41
1
10
21.6717980560258
20
42.8645458132772
30
0
41
1
10
21.6698869894756
20
42.8617617659138
30
0
0
SPLINE
5
1D8
100
AcDbEntity
8
1
62
256
6
ByLayer
370
18
48
1
60
0
100
AcDbSpline
70
4
71
3
72
28
73
24
40
0
40
0
40
0
40
0
40
0.0249801892245943
40
0.0539280577814637
40
0.0865401113162631
40
0.122484022576093
40
0.161412604666299
40
0.202970885890388
40
0.254837995928791
40
0.30927047079111
40
0.365681510550904
40
0.423490649946263
40
0.498130293751734
40
0.57259102586516
40
0.645327651550247
40
0.714778196190424
40
0.766019953466685
40
0.8135084915948
40
0.856837753425572
40
0.89623720759062
40
0.934252069746339
40
0.968594640299633
40
1
40
1
40
1
40
1
41
1
10
22.5348234510343
20
51.0065677374212
30
0
41
1
10
22.609901561525
20
51.0948869663451
30
0
41
1
10
22.7761089030479
20
51.2818643849848
30
0
41
1
10
23.0604114361403
20
51.5668124062179
30
0
41
1
10
23.3912355431083
20
51.8769833741192
30
0
41
1
10
23.765629844948
20
52.2085029355469
30
0
41
1
10
24.179009730522
20
52.5584825634992
30
0
41
1
10
24.6562130751457
20
52.9473230068406
30
0
41
1
10
25.1966620358328
20
53.3719995160846
30
0
41
1
10
25.798567197688
20
53.8289447942821
30
0
41
1
10
26.4286815480053
20
54.2924292309487
30
0
41
1
10
27.1401531639164
20
54.8002750685347
30
0
41
1
10
27.9255852191449
20
55.342443771135
30
0
41
1
10
28.7718638094496
20
55.909662571858
30
0
41
1
10
29.6001631028128
20
56.4521326356368
30
0
41
1
10
30.3393771549333
20
56.9277809018704
30
0
41
1
10
30.9800335336303
20
57.3355487684957
30
0
41
1
10
31.5184305587803
20
57.6759713075712
30
0
41
1
10
32.0072696495017
20
57.9851907970485
30
0
41
1
10
32.4519724279326
20
58.2731282164439
30
0
41
1
10
32.8498676596573
20
58.5451408945556
30
0
41
1
10
33.1995048160929
20
58.8084182196018
30
0
41
1
10
33.3998263155867
20
58.9861668253517
30
0
41
1
10
33.4914396203451
20
59.0731916595945
30
0
0
SPLINE
5
1D9
100
AcDbEntity
8
1
62
256
6
ByLayer
370
18
48
1
60
0
100
AcDbSpline
70
4
71
3
72
12
73
8
40
0
40
0
40
0
40
0
40
0.158767555627575
40
0.36907566672068
40
0.57938377781379
40
0.789691888906892
40
1
40
1
40
1
40
1
41
1
10
24.2178242398974
20
50.3558453157654
30
0
41
1
10
24.1083143018507
20
50.4097961386639
30
0
41
1
10
23.8606989650654
20
50.5282512417089
30
0
41
1
10
23.4957015589793
20
50.6895485330644
30
0
41
1
10
23.1333558470866
20
50.8320499004723
30
0
41
1
10
22.8092049330936
20
50.9401920060698
30
0
41
1
10
22.6216928229952
20
50.9883722273142
30
0
41
1
10
22.5348234510343
20
51.0065677374212
30
0
0
SPLINE
5
1DA
100
AcDbEntity
8
1
62
256
6
ByLayer
370
18
48
1
60
0
100
AcDbSpline
70
4
71
1
72
4
73
2
40
0
40
0
40
1
40
1
41
1
10
22.8615258406496
20
48.3911955544754
30
0
41
1
10
22.8643169682489
20
48.3952610348895
30
0
0
SPLINE
5
1DB
100
AcDbEntity
8
1
62
256
6
ByLayer
370
18
48
1
60
0
100
AcDbSpline
70
4
71
3
72
27
73
23
40
0
40
0
40
0
40
0
40
0.0390845677241727
40
0.0781691437991481
40
0.117273783729906
40
0.156378432371729
40
0.212176463433598
40
0.267984705697029
40
0.323796671170678
40
0.379605511390319
40
0.435404044056044
40
0.482083612615908
40
0.528765087792251
40
0.575444725479857
40
0.621764538255647
40
0.668086126926038
40
0.714406007419786
40
0.771518483220985
40
0.828639954296753
40
0.885764789616465
40
0.942886947812794
40
1
40
1
40
1
40
1
41
1
10
27.1582361620893
20
40.0938141199381
30
0
41
1
10
27.1501013584656
20
40.0863395152595
30
0
41
1
10
27.1339128839885
20
40.0713201661048
30
0
41
1
10
27.109868892879
20
40.0485744336989
30
0
41
1
10
27.0860654718069
20
40.0256190722203
30
0
41
1
10
27.0591508306514
20
39.9991631832831
30
0
41
1
10
27.0292660338818
20
39.9691039637091
30
0
41
1
10
26.9965731890609
20
39.9353290485481
30
0
41
1
10
26.9643844018427
20
39.9011838093451
30
0
41
1
10
26.9327051370786
20
39.8666874619765
30
0
41
1
10
26.9032353113963
20
39.8337527206937
30
0
41
1
10
26.8758824843346
20
39.8024522134366
30
0
41
1
10
26.8505585343597
20
39.7728474118003
30
0
41
1
10
26.8256554915874
20
39.7431098219888
30
0
41
1
10
26.8011701134175
20
39.7132496185919
30
0
41
1
10
26.7770986200213
20
39.6832767585268
30
0
41
1
10
26.7515348324967
20
39.6507802308815
30
0
41
1
10
26.7245784415198
20
39.6157156369902
30
0
41
1
10
26.6963376987083
20
39.5780416415895
30
0
41
1
10
26.6686225916686
20
39.5401306925176
30
0
41
1
10
26.6414339404315
20
39.501999523034
30
0
41
1
10
26.6236567737817
20
39.4764445123362
30
0
41
1
10
26.6148560254489
20
39.4636331442767
30
0
0
SPLINE
5
1DC
100
AcDbEntity
8
1
62
256
6
ByLayer
370
18
48
1
60
0
100
AcDbSpline
70
4
71
3
72
25
73
21
40
0
40
0
40
0
40
0
40
0.0598938131583968
40
0.119805642053124
40
0.179716322336708
40
0.23960856873058
40
0.299889697166736
40
0.360170575926293
40
0.419722637826855
40
0.479274441159319
40
0.541862042790685
40
0.604477115078565
40
0.66709027962899
40
0.729675278643927
40
0.774620257879821
40
0.81957082518706
40
0.864515464271866
40
0.909675053303542
40
0.954840756153988
40
1
40
1
40
1
40
1
41
1
10
27.1582361620893
20
40.0938141199381
30
0
41
1
10
27.1634105477124
20
40.0985689008225
30
0
41
1
10
27.1738133531179
20
40.108052976755
30
0
41
1
10
27.1895783580202
20
40.1222040685213
30
0
41
1
10
27.2054954089165
20
40.1362640235495
30
0
41
1
10
27.2215921938962
20
40.1502510586456
30
0
41
1
10
27.2378630348049
20
40.1641519655278
30
0
41
1
10
27.2542363684592
20
40.1778996350372
30
0
41
1
10
27.2706670711685
20
40.1914529683141
30
0
41
1
10
27.2874241560872
20
40.2050284768492
30
0
41
1
10
27.3045740007295
20
40.2186598731626
30
0
41
1
10
27.3221099566017
20
40.2323220199712
30
0
41
1
10
27.3397337808971
20
40.2457737176788
30
0
41
1
10
27.3557664981762
20
40.2577546767374
30
0
41
1
10
27.3701749717577
20
40.2683216281452
30
0
41
1
10
27.3829401167587
20
40.277535063906
30
0
41
1
10
27.3957425812621
20
40.2866257655129
30
0
41
1
10
27.4085754482865
20
40.2955864480786
30
0
41
1
10
27.4214321115807
20
40.3044111139313
30
0
41
1
10
27.429998539131
20
40.3101884579334
30
0
41
1
10
27.4342808270552
20
40.313050932064
30
0
0
SPLINE
5
1DD
100
AcDbEntity
8
1
62
256
6
ByLayer
370
18
48
1
60
0
100
AcDbSpline
70
4
71
3
72
76
73
72
40
0
40
0
40
0
40
0
40
0.0125160530044526
40
0.0250329842301383
40
0.0375502331587296
40
0.0500672114859539
40
0.062583303997706
40
0.0751625148957657
40
0.0877425508823656
40
0.100322885293096
40
0.112902965435269
40
0.125482213369478
40
0.138088405818918
40
0.150695367257511
40
0.163302606525024
40
0.175909608552115
40
0.188515835045609
40
0.201156186775969
40
0.213797257396278
40
0.226438587322632
40
0.239079695097539
40
0.251720077991602
40
0.264512240256883
40
0.277305094478977
40
0.290098197933845
40
0.302891087246685
40
0.315683278944515
40
0.331701879686765
40
0.347721331725075
40
0.363740811199964
40
0.379759449357711
40
0.395899511476064
40
0.412040385735299
40
0.428181285242089
40
0.44432138179065
40
0.460486743541139
40
0.476652868432488
40
0.492819015933717
40
0.508984408517311
40
0.524164893675627
40
0.539345972794125
40
0.554527067578466
40
0.569707574100123
40
0.584887904379546
40
0.600068795967019
40
0.615249701533547
40
0.630430050876017
40
0.645683798664835
40
0.660938086370319
40
0.676192386762973
40
0.69144615185309
40
0.706790700635103
40
0.722135772122249
40
0.737480855140491
40
0.752825419647257
40
0.768186381216426
40
0.783547843144214
40
0.798909315316573
40
0.81427029085607
40
0.829727256223203
40
0.845184709700212
40
0.860642172431132
40
0.87609915041763
40
0.891556024953002
40
0.907013368447042
40
0.92247072005318
40
0.93792760565084
40
0.953445471213112
40
0.968963794341674
40
0.98448212464867
40
1
40
1
40
1
40
1
41
1
10
27.5379797352758
20
35.9158758799309
30
0
41
1
10
27.537228483788
20
35.9302841856375
30
0
41
1
10
27.5357011438977
20
35.9592236106079
30
0
41
1
10
27.5333355042372
20
36.003002366798
30
0
41
1
10
27.5308958980801
20
36.047141023979
30
0
41
1
10
27.5283828537463
20
36.0916313238928
30
0
41
1
10
27.5257925125244
20
36.1365412372098
30
0
41
1
10
27.5231248035072
20
36.1818674634743
30
0
41
1
10
27.5203797441846
20
36.2276065059171
30
0
41
1
10
27.5175623246174
20
36.27367540975
30
0
41
1
10
27.5146731616783
20
36.3200655485478
30
0
41
1
10
27.5117106441901
20
36.3668034253631
30
0
41
1
10
27.5086749783288
20
36.413884743832
30
0
41
1
10
27.50556643491
20
36.4613052014637
30
0
41
1
10
27.5023877105766
20
36.5090246451432
30
0
41
1
10
27.4991394385808
20
36.5570349432218
30
0
41
1
10
27.4958191402009
20
36.6053732527317
30
0
41
1
10
27.4924269897904
20
36.6540357411738
30
0
41
1
10
27.4889632144325
20
36.7030185970556
30
0
41
1
10
27.4854314040764
20
36.7522718302237
30
0
41
1
10
27.481832198245
20
36.8017877912498
30
0
41
1
10
27.4781514415566
20
36.8517596819021
30
0
41
1
10
27.4743885883727
20
36.902186706733
30
0
41
1
10
27.4705431477109
20
36.9530679509647
30
0
41
1
10
27.4666306049391
20
37.0041972811013
30
0
41
1
10
27.4626516142811
20
37.0555673308162
30
0
41
1
10
27.4582666477329
20
37.1115107694228
30
0
41
1
10
27.4534553927367
20
37.1720967440822
30
0
41
1
10
27.4481960629256
20
37.2373958038064
30
0
41
1
10
27.442835997816
20
37.3030364311272
30
0
41
1
10
27.4373624615857
20
37.3691742488346
30
0
41
1
10
27.4317754175773
20
37.4358035615735
30
0
41
1
10
27.426074898008
20
37.5029186551399
30
0
41
1
10
27.4202760153625
20
37.5703414029546
30
0
41
1
10
27.4143767368744
20
37.6380967033253
30
0
41
1
10
27.408377711356
20
37.706177034026
30
0
41
1
10
27.4022796272298
20
37.7745750686006
30
0
41
1
10
27.3960866387309
20
37.8432454588096
30
0
41
1
10
27.3899274270583
20
37.9107785979991
30
0
41
1
10
27.3838093076613
20
37.9771489898978
30
0
41
1
10
27.3777392635995
20
38.0423335692253
30
0
41
1
10
27.3715885954665
20
38.1077297222419
30
0
41
1
10
27.3653581225315
20
38.1733297562643
30
0
41
1
10
27.3590484652883
20
38.2391279996509
30
0
41
1
10
27.3526602589843
20
38.3051189562041
30
0
41
1
10
27.3461942519548
20
38.3712958443983
30
0
41
1
10
27.3396406571991
20
38.4377586768097
30
0
41
1
10
27.3329996254836
20
38.5045032120058
30
0
41
1
10
27.3262713294074
20
38.5715252668446
30
0
41
1
10
27.3194671827345
20
38.6387109598755
30
0
41
1
10
27.3125742696142
20
38.7061873242184
30
0
41
1
10
27.3055926264587
20
38.7739505144197
30
0
41
1
10
27.2985223104052
20
38.8419967156399
30
0
41
1
10
27.2913778362671
20
38.9101856939385
30
0
41
1
10
27.284157339335
20
38.9785355369354
30
0
41
1
10
27.2768612592849
20
39.0470417598962
30
0
41
1
10
27.269490043949
20
39.1156999973992
30
0
41
1
10
27.2620469735689
20
39.1844799057125
30
0
41
1
10
27.2545170676812
20
39.2535191072445
30
0
41
1
10
27.2469003054471
20
39.3228140863079
30
0
41
1
10
27.2391966821458
20
39.3923613393553
30
0
41
1
10
27.2314226560239
20
39.4620114135502
30
0
41
1
10
27.2235788920038
20
39.5317585079414
30
0
41
1
10
27.2156658628231
20
39.6015984794099
30
0
41
1
10
27.2076840439159
20
39.6715272997045
30
0
41
1
10
27.1996340404285
20
39.7415397288344
30
0
41
1
10
27.1915057911302
20
39.8117225916176
30
0
41
1
10
27.1832994207477
20
39.882072383749
30
0
41
1
10
27.1750150804806
20
39.9525854795043
30
0
41
1
10
27.1666640782624
20
40.0231648876315
30
0
41
1
10
27.1610527948057
20
40.0702576960275
30
0
41
1
10
27.1582361620893
20
40.0938141199381
30
0
0
SPLINE
5
1DE
100
AcDbEntity
8
1
62
256
6
ByLayer
370
18
48
1
60
0
100
AcDbSpline
70
4
71
3
72
19
73
15
40
0
40
0
40
0
40
0
40
0.0823786345780706
40
0.164780038479114
40
0.24718183354236
40
0.329561001670363
40
0.412403604885729
40
0.495246377830887
40
0.577169174232026
40
0.659092179452095
40
0.744307898409589
40
0.829544181898514
40
0.9147820794815
40
1
40
1
40
1
40
1
41
1
10
27.1875531562362
20
36.1115364945191
30
0
41
1
10
27.1967162446075
20
36.1052401531513
30
0
41
1
10
27.2151368469352
20
36.0927921552971
30
0
41
1
10
27.2430525837224
20
36.0745549466892
30
0
41
1
10
27.2712285762724
20
36.0567644774756
30
0
41
1
10
27.2997012800107
20
36.0393976339467
30
0
41
1
10
27.3284553906794
20
36.0224653178312
30
0
41
1
10
27.3573696701909
20
36.0060333014658
30
0
41
1
10
27.3863712012109
20
35.9901319622913
30
0
41
1
10
27.4158302596403
20
35.9745506343065
30
0
41
1
10
27.4458498322668
20
35.9592535514668
30
0
41
1
10
27.4764196761526
20
35.9442622512878
30
0
41
1
10
27.5071306033978
20
35.9297756062562
30
0
41
1
10
27.5276834428063
20
35.9204528859801
30
0
41
1
10
27.5379797352758
20
35.9158758799309
30
0
0
SPLINE
5
1DF
100
AcDbEntity
8
1
62
256
6
ByLayer
370
18
48
1
60
0
100
AcDbSpline
70
4
71
2
72
6
73
3
40
0
40
0
40
0
40
1
40
1
40
1
41
1
10
28.4899291180186
20
35.3025333745363
30
0
41
1
10
28.4759805090612
20
35.3172336056252
30
0
41
1
10
28.461335853478
20
35.3322393389671
30
0
0
SPLINE
5
1E0
100
AcDbEntity
8
1
62
256
6
ByLayer
370
18
48
1
60
0
100
AcDbSpline
70
4
71
3
72
92
73
88
40
0
40
0
40
0
40
0
40
0.0128135922532336
40
0.0256275848026725
40
0.0384415710700595
40
0.0512551547565905
40
0.0640817810438647
40
0.0769088235244154
40
0.0897358586747776
40
0.102562474966014
40
0.11542946126144
40
0.128296884881229
40
0.141164299938821
40
0.154031274558131
40
0.166912556025066
40
0.179794296166032
40
0.19267602644095
40
0.205557294453704
40
0.218492166040695
40
0.231427525168334
40
0.244362872834682
40
0.257297728792055
40
0.270248600513458
40
0.283199988139667
40
0.296151362646021
40
0.309102216475998
40
0.322097828236098
40
0.335093991859991
40
0.348090140369241
40
0.361085731517586
40
0.37409952648761
40
0.387113910608188
40
0.400128277494257
40
0.413142048961609
40
0.424710971164272
40
0.436280333710498
40
0.44784968416134
40
0.459418589869665
40
0.471002016039384
40
0.482585911965644
40
0.494169794349403
40
0.505753202051326
40
0.517402235013979
40
0.529051777285815
40
0.540701304152268
40
0.552350316106656
40
0.563999516187091
40
0.575649260743844
40
0.587298988203672
40
0.598948164969019
40
0.610666208340134
40
0.622384845652315
40
0.634103463591816
40
0.645821480544289
40
0.657588326332076
40
0.669355818231998
40
0.68112328840452
40
0.692890104562397
40
0.704678374131422
40
0.716467343011378
40
0.72825628785913
40
0.740044524655009
40
0.749504310022358
40
0.758964685857395
40
0.768425242448564
40
0.777885587623502
40
0.787345347274331
40
0.797919336792136
40
0.808494220529874
40
0.81906937507668
40
0.829644206732373
40
0.840218152564787
40
0.85082287082578
40
0.861428571003632
40
0.872034568701006
40
0.882640211951822
40
0.893244882463156
40
0.903850015755303
40
0.914456216770329
40
0.925062742023305
40
0.935668882476926
40
0.946273964970547
40
0.957018400186746
40
0.967764040219046
40
0.97851004709295
40
0.989255620592061
40
1
40
1
40
1
40
1
41
1
10
27.4342808270552
20
40.313050932064
30
0
41
1
10
27.4403876324616
20
40.2888131929271
30
0
41
1
10
27.4525715526987
20
40.2403548336378
30
0
41
1
10
27.4707584417809
20
40.1677183174232
30
0
41
1
10
27.4888545546106
20
40.0951399284758
30
0
41
1
10
27.5068646966387
20
40.0226002196538
30
0
41
1
10
27.5247876535544
20
39.9501035814569
30
0
41
1
10
27.5426222343625
20
39.8776543699901
30
0
41
1
10
27.5603608647497
20
39.8052830939653
30
0
41
1
10
27.578020536009
20
39.7329199008982
30
0
41
1
10
27.5955997344116
20
39.6605695637672
30
0
41
1
10
27.6130969142076
20
39.5882370549848
30
0
41
1
10
27.6304920716133
20
39.516004446148
30
0
41
1
10
27.6477899906944
20
39.4438514130441
30
0
41
1
10
27.6649892825524
20
39.371782911645
30
0
41
1
10
27.6820885356308
20
39.2998040787946
30
0
41
1
10
27.6990796739142
20
39.2279483637769
30
0
41
1
10
27.7159843795231
20
39.1561231277562
30
0
41
1
10
27.7328007589648
20
39.0843342115912
30
0
41
1
10
27.7495268768458
20
39.0125877323262
30
0
41
1
10
27.7661376321105
20
38.9409903118173
30
0
41
1
10
27.7826379610349
20
38.8695198926416
30
0
41
1
10
27.7990262100603
20
38.7981823973068
30
0
41
1
10
27.8153007015555
20
38.726983981513
30
0
41
1
10
27.8314527078482
20
38.6559619557546
30
0
41
1
10
27.8474986879509
20
38.5850427334412
30
0
41
1
10
27.8634365273957
20
38.5142332764511
30
0
41
1
10
27.8792640735293
20
38.4435408665704
30
0
41
1
10
27.8949608844018
20
38.373055485373
30
0
41
1
10
27.9105320638191
20
38.3027530642808
30
0
41
1
10
27.9259756359176
20
38.2326407992316
30
0
41
1
10
27.9412896044773
20
38.162726172849
30
0
41
1
10
27.956464485853
20
38.0930512413789
30
0
41
1
10
27.9709416119324
20
38.0261947572514
30
0
41
1
10
27.9847369583487
20
37.9621324780045
30
0
41
1
10
27.9978663704306
20
37.9008388062014
30
0
41
1
10
28.010879481341
20
37.8397605545573
30
0
41
1
10
28.0237799548016
20
37.7788794596827
30
0
41
1
10
28.036566183424
20
37.718201586592
30
0
41
1
10
28.0492365554464
20
37.6577332036372
30
0
41
1
10
28.0617839166227
20
37.5975073342112
30
0
41
1
10
28.0742298844796
20
37.5374185038995
30
0
41
1
10
28.0865720900233
20
37.4774746399022
30
0
41
1
10
28.098808137729
20
37.4176840031394
30
0
41
1
10
28.1109128639968
20
37.3581677580256
30
0
41
1
10
28.1228843535563
20
37.2989341196241
30
0
41
1
10
28.1347209384114
20
37.2399899997348
30
0
41
1
10
28.1464209706389
20
37.1813424935964
30
0
41
1
10
28.1579823387468
20
37.1230009574287
30
0
41
1
10
28.1694254608193
20
37.0648602469648
30
0
41
1
10
28.1807475867472
20
37.0069300729801
30
0
41
1
10
28.1919459584448
20
36.9492205080446
30
0
41
1
10
28.202996166163
20
36.8918551608658
30
0
41
1
10
28.2139111194586
20
36.8347649298197
30
0
41
1
10
28.2246881736712
20
36.7779598557175
30
0
41
1
10
28.2353247074381
20
36.7214502783778
30
0
41
1
10
28.2458034818192
20
36.6653256613157
30
0
41
1
10
28.2561284093956
20
36.6095631190662
30
0
41
1
10
28.2662971141776
20
36.5541726086015
30
0
41
1
10
28.2763072881298
20
36.499164266833
30
0
41
1
10
28.2861503465599
20
36.4445833579555
30
0
41
1
10
28.2951869407014
20
36.3940063386479
30
0
41
1
10
28.3034521935463
20
36.3473458720907
30
0
41
1
10
28.3109792282022
20
36.3045171712268
30
0
41
1
10
28.3183935240501
20
36.2619883725511
30
0
41
1
10
28.325693583761
20
36.2197671188897
30
0
41
1
10
28.3331602233896
20
36.176214349059
30
0
41
1
10
28.3407759119574
20
36.1313798105124
30
0
41
1
10
28.3485218669633
20
36.0853182654561
30
0
41
1
10
28.3561191341954
20
36.0396708528656
30
0
41
1
10
28.36356559057
20
35.9944489405699
30
0
41
1
10
28.3708665223268
20
35.9496184254026
30
0
41
1
10
28.3780198998546
20
35.9051882221151
30
0
41
1
10
28.3850238513141
20
35.8611671954972
30
0
41
1
10
28.3918697108268
20
35.8176080768471
30
0
41
1
10
28.398555349388
20
35.7745229734585
30
0
41
1
10
28.4050790590251
20
35.7319212692797
30
0
41
1
10
28.4114392935741
20
35.6898110260664
30
0
41
1
10
28.4176347426631
20
35.6481999989805
30
0
41
1
10
28.4236636259232
20
35.6070989804462
30
0
41
1
10
28.4295238787844
20
35.5665206149844
30
0
41
1
10
28.4352386705654
20
35.5262999901692
30
0
41
1
10
28.4408038437625
20
35.4864539164841
30
0
41
1
10
28.4462154862111
20
35.4469990695109
30
0
41
1
10
28.4514477496307
20
35.4081196781221
30
0
41
1
10
28.4564988117579
20
35.3698280849576
30
0
41
1
10
28.4597438481356
20
35.3447021934042
30
0
41
1
10
28.461335853478
20
35.3322393389671
30
0
0
SPLINE
5
1E1
100
AcDbEntity
8
1
62
256
6
ByLayer
370
18
48
1
60
0
100
AcDbSpline
70
4
71
3
72
65
73
61
40
0
40
0
40
0
40
0
40
0.0231533668401805
40
0.0463102394267771
40
0.0694679337890364
40
0.0926241427047611
40
0.115776952834756
40
0.138935549784293
40
0.162098778059431
40
0.185263096356763
40
0.208425455514761
40
0.231583323383768
40
0.232199446737149
40
0.255241835033517
40
0.27829026761792
40
0.301340111148676
40
0.324387385889918
40
0.347428802841208
40
0.368097672929895
40
0.388774666318955
40
0.409454958958068
40
0.43013432930658
40
0.450809193931014
40
0.471476644309835
40
0.489919443959244
40
0.508367939131646
40
0.526817773199766
40
0.545265194747822
40
0.563707093664225
40
0.582362403110885
40
0.601025731219852
40
0.6196907975518
40
0.638352329264537
40
0.657006131420338
40
0.672371460023128
40
0.687740652334686
40
0.703109373736319
40
0.718474060024145
40
0.733925346009529
40
0.749376510740047
40
0.764672180353215
40
0.779967702188963
40
0.792779970560306
40
0.80559881296329
40
0.818418971161423
40
0.831236128815814
40
0.844046983462094
40
0.858029817412053
40
0.872020610561261
40
0.886009946356002
40
0.899990791835395
40
0.911430377234744
40
0.922880442950563
40
0.934332418249143
40
0.945779421318687
40
0.95721643574865
40
0.96790906218857
40
0.978609614799512
40
0.98930898591588
40
1
40
1
40
1
40
1
41
1
10
28.461335853478
20
35.3322393389671
30
0
41
1
10
28.4579034932861
20
35.3357575510066
30
0
41
1
10
28.4508950271231
20
35.3428260605327
30
0
41
1
10
28.4399563405237
20
35.3535218008841
30
0
41
1
10
28.4285791635949
20
35.3643168323049
30
0
41
1
10
28.4167566557282
20
35.3752139347693
30
0
41
1
10
28.4044789327559
20
35.3862181902755
30
0
41
1
10
28.3917360092728
20
35.3973345793383
30
0
41
1
10
28.3785185274879
20
35.4085691076002
30
0
41
1
10
28.3648195645137
20
35.4199256486087
30
0
41
1
10
28.3506327590895
20
35.4314075671738
30
0
41
1
10
28.3407138039752
20
35.4392520902954
30
0
41
1
10
28.3306457717736
20
35.4471232480165
30
0
41
1
10
28.3204275563728
20
35.4550227620058
30
0
41
1
10
28.304794114576
20
35.4668562059152
30
0
41
1
10
28.2886447500602
20
35.478835770694
30
0
41
1
10
28.2719752532563
20
35.4909644498252
30
0
41
1
10
28.2553693693038
20
35.5028252821518
30
0
41
1
10
28.2388804090866
20
35.5144060091063
30
0
41
1
10
28.2225609742525
20
35.5256946027461
30
0
41
1
10
28.2057991768148
20
35.5371214261907
30
0
41
1
10
28.1885941337136
20
35.5486877195722
30
0
41
1
10
28.1709449897247
20
35.5603947213114
30
0
41
1
10
28.1534972453525
20
35.5718203295653
30
0
41
1
10
28.1363002840541
20
35.5829510753667
30
0
41
1
10
28.1194015397738
20
35.5937737048666
30
0
41
1
10
28.1021346498932
20
35.6047197402169
30
0
41
1
10
28.0845010805765
20
35.6157885408823
30
0
41
1
10
28.0664302278666
20
35.6270241757708
30
0
41
1
10
28.0479126156145
20
35.6384315130897
30
0
41
1
10
28.0289388074195
20
35.6500144198001
30
0
41
1
10
28.0095789955797
20
35.661728645383
30
0
41
1
10
27.989837650636
20
35.6735705004847
30
0
41
1
10
27.9708975417502
20
35.6848354843475
30
0
41
1
10
27.9528321001709
20
35.6954985353475
30
0
41
1
10
27.9357069466936
20
35.7055369735741
30
0
41
1
10
27.9183209169004
20
35.7156578761568
30
0
41
1
10
27.9006431614862
20
35.7258771516589
30
0
41
1
10
27.8826732085547
20
35.7361923968948
30
0
41
1
10
27.864470067775
20
35.7465659593183
30
0
41
1
10
27.8460727560546
20
35.7569730286906
30
0
41
1
10
27.8284920897091
20
35.7668423169477
30
0
41
1
10
27.8117122074338
20
35.7761939093617
30
0
41
1
10
27.7957756790672
20
35.7850140869967
30
0
41
1
10
27.779668162063
20
35.7938636653471
30
0
41
1
10
27.7633986261553
20
35.8027333269626
30
0
41
1
10
27.7464716991264
20
35.8118864244482
30
0
41
1
10
27.728871354806
20
35.8213186357896
30
0
41
1
10
27.7105857585456
20
35.831018059585
30
0
41
1
10
27.6921344450357
20
35.8406964149007
30
0
41
1
10
27.6746604344691
20
35.8497511489259
30
0
41
1
10
27.6582029118131
20
35.8581771428915
30
0
41
1
10
27.6427917649739
20
35.8659742812409
30
0
41
1
10
27.6273067305768
20
35.873707637748
30
0
41
1
10
27.6117708131574
20
35.8813569012586
30
0
41
1
10
27.5965388972302
20
35.8887410201962
30
0
41
1
10
27.5816257556695
20
35.8958524885421
30
0
41
1
10
27.567046572945
20
35.9026833824212
30
0
41
1
10
27.5524840386371
20
35.909376710948
30
0
41
1
10
27.5428091221518
20
35.9137274284395
30
0
41
1
10
27.5379797352758
20
35.9158758799309
30
0
0
SPLINE
5
1E2
100
AcDbEntity
8
1
62
256
6
ByLayer
370
18
48
1
60
0
100
AcDbSpline
70
4
71
3
72
212
73
208
40
0
40
0
40
0
40
0
40
0.0071458474703761
40
0.0142920000981511
40
0.0214382441496719
40
0.0285843771587131
40
0.035730208173969
40
0.0428865686957852
40
0.0500432688362917
40
0.0572000688343921
40
0.0643567435329202
40
0.0715130827152965
40
0.0786592819392184
40
0.0858058617688952
40
0.092952551394297
40
0.100099098675218
40
0.10724527059874
40
0.114404717641908
40
0.121564602442221
40
0.128724610955398
40
0.135884453405851
40
0.14304386492763
40
0.150190650045458
40
0.157337941592186
40
0.164485373260461
40
0.171632610074014
40
0.178779349283374
40
0.185943966594923
40
0.19310918787694
40
0.200274572376944
40
0.207439720922985
40
0.214604277225076
40
0.221059242520797
40
0.227514545438098
40
0.233969826614043
40
0.240424762260894
40
0.246879975032938
40
0.25333557748465
40
0.259791152992935
40
0.266246329021698
40
0.27144920985012
40
0.276652455710382
40
0.281855802263879
40
0.287059008090588
40
0.292261855340146
40
0.297455088814309
40
0.302648751099874
40
0.307842530112919
40
0.313036142374657
40
0.318229333889921
40
0.323422955996625
40
0.328617090103751
40
0.333811361696807
40
0.339005432443899
40
0.34419900140474
40
0.349393116856558
40
0.354587849983073
40
0.359782746824458
40
0.364977399367647
40
0.370171447225495
40
0.375540872222949
40
0.380911131139787
40
0.386281606566488
40
0.391651747942545
40
0.397021074342272
40
0.401350645383048
40
0.405680945657798
40
0.410011566422539
40
0.414342134249972
40
0.418672312351682
40
0.423001801930429
40
0.42733220077004
40
0.431663498892013
40
0.435995191682402
40
0.440326818406654
40
0.444657964052896
40
0.448988261221508
40
0.453319682641886
40
0.457652212042559
40
0.461985228894504
40
0.466318165597236
40
0.470650510015139
40
0.474981808083006
40
0.478478440462836
40
0.481975400881653
40
0.485472345117265
40
0.488968955427005
40
0.492476644518095
40
0.495984701405104
40
0.499492740949892
40
0.503000406389996
40
0.506418577912694
40
0.509837327292539
40
0.513256245593127
40
0.516674949570594
40
0.520093083007481
40
0.523511572679999
40
0.526930705891398
40
0.530350030429601
40
0.533769119145154
40
0.537187571491585
40
0.54060636372544
40
0.544025861282915
40
0.547445573008945
40
0.550865030273869
40
0.554283788707034
40
0.557925049868041
40
0.56156722855308
40
0.565209691823657
40
0.568851829339608
40
0.572493055963033
40
0.575912315713385
40
0.579332373454027
40
0.582752687001161
40
0.586172724760989
40
0.589591967749336
40
0.59301132759215
40
0.596431503281141
40
0.59985194818784
40
0.60327211803652
40
0.606691472979836
40
0.610110830352657
40
0.613531000055304
40
0.616951445621616
40
0.620371624325569
40
0.623790989249668
40
0.627495119573671
40
0.631200249599351
40
0.634905730130817
40
0.638610891999271
40
0.642315049037344
40
0.645516573155653
40
0.648718707774369
40
0.651921059851488
40
0.655123220538982
40
0.658324766525609
40
0.662326501728983
40
0.666328985086725
40
0.670331495465723
40
0.674333267523107
40
0.678334710376262
40
0.682336839824571
40
0.686338998586825
40
0.690340481420346
40
0.693738955855617
40
0.697137991374723
40
0.700537237122373
40
0.703936316270706
40
0.707334827304307
40
0.711025622676635
40
0.714717241295351
40
0.718409313447059
40
0.722101434178136
40
0.725793164915897
40
0.729484035051303
40
0.733912268949137
40
0.73834141930945
40
0.742770932362976
40
0.747200190315994
40
0.75162851447172
40
0.756056034970788
40
0.760484327208578
40
0.764912925864233
40
0.769341310674048
40
0.773768908827831
40
0.778521561988441
40
0.783275012839316
40
0.78802878400341
40
0.792782337327301
40
0.797535076447592
40
0.801578091844456
40
0.805621393468477
40
0.809664711132576
40
0.8137077484038
40
0.817759474797283
40
0.821811456005153
40
0.825863451222052
40
0.829915196719947
40
0.835309294305576
40
0.840704357608513
40
0.84609997562702
40
0.851495677235239
40
0.856890933455384
40
0.862285159676277
40
0.867678197694608
40
0.873072008076729
40
0.878466258158773
40
0.883860570598447
40
0.889254524893432
40
0.894647658867839
40
0.900424130154165
40
0.906201366320936
40
0.911979037315633
40
0.917756769380214
40
0.923534146487116
40
0.929310711746352
40
0.935752586038916
40
0.942194922123878
40
0.948637289069406
40
0.955079205447538
40
0.961535001572025
40
0.967991200226115
40
0.974447424057745
40
0.980903254517357
40
0.98734459765406
40
0.993786290439897
40
1
40
1
40
1
40
1
41
1
10
30.181038211302
20
-54.3061039901671
30
0
41
1
10
30.1792210569773
20
-54.2903995922636
30
0
41
1
10
30.1757573994404
20
-54.2589565100245
30
0
41
1
10
30.1710716461959
20
-54.211689434481
30
0
41
1
10
30.1669028759942
20
-54.164323004012
30
0
41
1
10
30.1632559380508
20
-54.1168606918509
30
0
41
1
10
30.1601347710699
20
-54.0692818496152
30
0
41
1
10
30.1575455541255
20
-54.0215878053052
30
0
41
1
10
30.155495344521
20
-53.9737802052614
30
0
41
1
10
30.1539917064476
20
-53.9258855087618
30
0
41
1
10
30.153041003094
20
-53.8779080914441
30
0
41
1
10
30.1526497784522
20
-53.8298738407909
30
0
41
1
10
30.1528235045693
20
-53.781784803745
30
0
41
1
10
30.1535685303965
20
-53.7336433874189
30
0
41
1
10
30.1548923326059
20
-53.685430573785
30
0
41
1
10
30.1568022932586
20
-53.6371515764214
30
0
41
1
10
30.159307421986
20
-53.5887803523861
30
0
41
1
10
30.1624166210719
20
-53.5403192163758
30
0
41
1
10
30.1661398730363
20
-53.4917710166294
30
0
41
1
10
30.1704839721173
20
-53.4431703621705
30
0
41
1
10
30.1754575141951
20
-53.3945236384851
30
0
41
1
10
30.181065980915
20
-53.345864337913
30
0
41
1
10
30.1873170941574
20
-53.2971957570024
30
0
41
1
10
30.194219714966
20
-53.2485218379077
30
0
41
1
10
30.201787640027
20
-53.1998197555644
30
0
41
1
10
30.210030714506
20
-53.1510973710556
30
0
41
1
10
30.2189665585326
20
-53.1023201712019
30
0
41
1
10
30.2286078373575
20
-53.053492316637
30
0
41
1
10
30.2389686607993
20
-53.0046189424945
30
0
41
1
10
30.2500528427228
20
-52.9557481858944
30
0
41
1
10
30.2618717390918
20
-52.9068900131927
30
0
41
1
10
30.2740223706895
20
-52.859664566535
30
0
41
1
10
30.2864320148136
20
-52.8140755548778
30
0
41
1
10
30.2990294992335
20
-52.7701250622327
30
0
41
1
10
30.3122631223069
20
-52.7262089491619
30
0
41
1
10
30.3261427915395
20
-52.6823341128997
30
0
41
1
10
30.3406788055507
20
-52.6385066367214
30
0
41
1
10
30.3558823415071
20
-52.5947334130028
30
0
41
1
10
30.3717638552824
20
-52.5510239142689
30
0
41
1
10
30.3872625141571
20
-52.5102089611882
30
0
41
1
10
30.402239947936
20
-52.4722792049739
30
0
41
1
10
30.4165664730032
20
-52.4372225334524
30
0
41
1
10
30.4313606650667
20
-52.4022272617564
30
0
41
1
10
30.4466281600536
20
-52.3673001825496
30
0
41
1
10
30.4623654439406
20
-52.3324683352555
30
0
41
1
10
30.4785783681073
20
-52.2977357988327
30
0
41
1
10
30.4952732128385
20
-52.2631072752107
30
0
41
1
10
30.5124666635873
20
-52.2285678588217
30
0
41
1
10
30.5301646151298
20
-52.1941257735697
30
0
41
1
10
30.5483742091001
20
-52.1597868749255
30
0
41
1
10
30.5671031103173
20
-52.1255564500475
30
0
41
1
10
30.5863593825914
20
-52.0914405939201
30
0
41
1
10
30.6061496168731
20
-52.0574482709313
30
0
41
1
10
30.6264798277116
20
-52.0235895246592
30
0
41
1
10
30.6473577668247
20
-51.9898715602002
30
0
41
1
10
30.6687918645803
20
-51.9563010162437
30
0
41
1
10
30.6907907985547
20
-51.9228855034434
30
0
41
1
10
30.7133611424546
20
-51.889636086088
30
0
41
1
10
30.736508715445
20
-51.8565650569619
30
0
41
1
10
30.7605077791536
20
-51.8233127048437
30
0
41
1
10
30.7853911168469
20
-51.789894983402
30
0
41
1
10
30.8111924457896
20
-51.7563304629944
30
0
41
1
10
30.8376457980699
20
-51.7230004196949
30
0
41
1
10
30.8647567395494
20
-51.689921542193
30
0
41
1
10
30.8907401286155
20
-51.6592258900764
30
0
41
1
10
30.9154615832927
20
-51.6308666920478
30
0
41
1
10
30.9387959931133
20
-51.6047953944758
30
0
41
1
10
30.9625794894966
20
-51.5789185034903
30
0
41
1
10
30.9868140264361
20
-51.5532466596153
30
0
41
1
10
31.011501550376
20
-51.5277905217584
30
0
41
1
10
31.0366475503722
20
-51.5025571079533
30
0
41
1
10
31.062258445095
20
-51.4775532996099
30
0
41
1
10
31.0883397898037
20
-51.4527866409848
30
0
41
1
10
31.1148927785523
20
-51.4282688481596
30
0
41
1
10
31.1419176006458
20
-51.4040126976788
30
0
41
1
10
31.1694144539084
20
-51.3800309734623
30
0
41
1
10
31.197388384444
20
-51.3563322266251
30
0
41
1
10
31.225845696057
20
-51.3329250053455
30
0
41
1
10
31.2547910652075
20
-51.3098182655457
30
0
41
1
10
31.2842231522739
20
-51.2870257229524
30
0
41
1
10
31.3141392858902
20
-51.2645623299669
30
0
41
1
10
31.3445367212821
20
-51.2424430295488
30
0
41
1
10
31.373432932674
20
-51.2220781563441
30
0
41
1
10
31.4007266944712
20
-51.2034014165846
30
0
41
1
10
31.4263257277953
20
-51.1863463757447
30
0
41
1
10
31.4522402370818
20
-51.169544071359
30
0
41
1
10
31.4784963880161
20
-51.1529846481758
30
0
41
1
10
31.5050955387445
20
-51.1366758755285
30
0
41
1
10
31.5320380980375
20
-51.1206253686318
30
0
41
1
10
31.5592934206255
20
-51.1048582134775
30
0
41
1
10
31.5866243044122
20
-51.089514054523
30
0
41
1
10
31.6140213907208
20
-51.0745911370061
30
0
41
1
10
31.6414745296828
20
-51.0600866827862
30
0
41
1
10
31.6692173635932
20
-51.0458787162491
30
0
41
1
10
31.6972439018552
20
-51.0319758774946
30
0
41
1
10
31.7255515772372
20
-51.0183850996231
30
0
41
1
10
31.7541397034525
20
-51.0051128583729
30
0
41
1
10
31.7830061352686
20
-50.9921647518917
30
0
41
1
10
31.812144798143
20
-50.9795482490871
30
0
41
1
10
31.8415475203492
20
-50.9672718488899
30
0
41
1
10
31.8712100032979
20
-50.9553424376121
30
0
41
1
10
31.9011302464994
20
-50.9437664474223
30
0
41
1
10
31.9313046679178
20
-50.9325489709699
30
0
41
1
10
31.9617253427264
20
-50.9216968527641
30
0
41
1
10
31.9923818265022
20
-50.9112179791575
30
0
41
1
10
32.0239369486403
20
-50.9008999963697
30
0
41
1
10
32.0564053110612
20
-50.8907786487186
30
0
41
1
10
32.0897981665476
20
-50.8808897891424
30
0
41
1
10
32.1234299118478
20
-50.8714503332532
30
0
41
1
10
32.1572851896691
20
-50.8624683441401
30
0
41
1
10
32.1906610783033
20
-50.8541237728769
30
0
41
1
10
32.2235365030639
20
-50.8463899724075
30
0
41
1
10
32.2558916623556
20
-50.8392374134735
30
0
41
1
10
32.2884124808081
20
-50.8325062140829
30
0
41
1
10
32.3210844165053
20
-50.8262012723182
30
0
41
1
10
32.3538974495443
20
-50.8203266644314
30
0
41
1
10
32.3868454528258
20
-50.8148861626387
30
0
41
1
10
32.4199213160755
20
-50.8098808628526
30
0
41
1
10
32.4531133487834
20
-50.8053128764776
30
0
41
1
10
32.4864058561156
20
-50.8011849909963
30
0
41
1
10
32.5197875447082
20
-50.7974995060695
30
0
41
1
10
32.5532515011174
20
-50.7942585609236
30
0
41
1
10
32.5867903243729
20
-50.7914614708418
30
0
41
1
10
32.6203923360145
20
-50.7891082933682
30
0
41
1
10
32.6540415007827
20
-50.7871995163436
30
0
41
1
10
32.6886612246529
20
-50.7856947631952
30
0
41
1
10
32.7242480405801
20
-50.7846388029809
30
0
41
1
10
32.7607949018215
20
-50.7840745042992
30
0
41
1
10
32.797351621007
20
-50.7840271008359
30
0
41
1
10
32.8338984118623
20
-50.7844942208089
30
0
41
1
10
32.8687693877586
20
-50.785429453921
30
0
41
1
10
32.901959401735
20
-50.7867530998123
30
0
41
1
10
32.9334693692936
20
-50.7883888356811
30
0
41
1
10
32.9649411440248
20
-50.7903995567071
30
0
41
1
10
32.9963630125088
20
-50.7927821032564
30
0
41
1
10
33.0303393683825
20
-50.795762888653
30
0
41
1
10
33.0668464664477
20
-50.7994541341011
30
0
41
1
10
33.1058504507542
20
-50.8039737739786
30
0
41
1
10
33.1447287667727
20
-50.8090503147586
30
0
41
1
10
33.1834648788512
20
-50.8146759397026
30
0
41
1
10
33.22204822441
20
-50.8208438897878
30
0
41
1
10
33.2604697278675
20
-50.8275449909469
30
0
41
1
10
33.2987170738724
20
-50.834770097997
30
0
41
1
10
33.3348656298602
20
-50.8421213759694
30
0
41
1
10
33.3689391990328
20
-50.8495055193504
30
0
41
1
10
33.4009658499069
20
-50.8568373709895
30
0
41
1
10
33.4328421078877
20
-50.8645231478859
30
0
41
1
10
33.4645591560651
20
-50.8725561481316
30
0
41
1
10
33.4970156878417
20
-50.8811705096448
30
0
41
1
10
33.5301925946679
20
-50.8903962723153
30
0
41
1
10
33.564069536049
20
-50.9002619604736
30
0
41
1
10
33.5977420233728
20
-50.9105095523124
30
0
41
1
10
33.6312014087788
20
-50.9211301788189
30
0
41
1
10
33.6644390923411
20
-50.9321149573401
30
0
41
1
10
33.699648577061
20
-50.9442116468532
30
0
41
1
10
33.7367739775313
20
-50.9575008079289
30
0
41
1
10
33.7757524523305
20
-50.9720631518438
30
0
41
1
10
33.8143962772142
20
-50.9871044628199
30
0
41
1
10
33.8526950766045
20
-51.0026098041962
30
0
41
1
10
33.8906409310603
20
-51.0185653715926
30
0
41
1
10
33.9282326616246
20
-51.0349601872655
30
0
41
1
10
33.9654708398558
20
-51.051782977311
30
0
41
1
10
34.0023542738355
20
-51.0690224049823
30
0
41
1
10
34.0388762173172
20
-51.0866646246379
30
0
41
1
10
34.0759184757853
20
-51.1051390156889
30
0
41
1
10
34.1134503015662
20
-51.1244691573536
30
0
41
1
10
34.1514404943097
20
-51.1446769218385
30
0
41
1
10
34.1890118426055
20
-51.165297731245
30
0
41
1
10
34.2261594201278
20
-51.1863161965909
30
0
41
1
10
34.2610542851982
20
-51.2066539133256
30
0
41
1
10
34.2937679959177
20
-51.2262368726115
30
0
41
1
10
34.3243689395147
20
-51.2450007580703
30
0
41
1
10
34.3546650915558
20
-51.2640204195227
30
0
41
1
10
34.3846777683233
20
-51.2833021499396
30
0
41
1
10
34.4144074436861
20
-51.302840050068
30
0
41
1
10
34.4438548914924
20
-51.3226284353753
30
0
41
1
10
34.4729991578895
20
-51.3426463553336
30
0
41
1
10
34.5050256113418
20
-51.3651221393317
30
0
41
1
10
34.5398104994037
20
-51.3901429648772
30
0
41
1
10
34.5772142530445
20
-51.4177993968364
30
0
41
1
10
34.6140938202107
20
-51.445814903289
30
0
41
1
10
34.6504492283899
20
-51.4741737436079
30
0
41
1
10
34.686280543571
20
-51.5028602031191
30
0
41
1
10
34.7215888347746
20
-51.5318594395545
30
0
41
1
10
34.7563809334239
20
-51.5611613770741
30
0
41
1
10
34.7906639837297
20
-51.5907572101374
30
0
41
1
10
34.8244445015327
20
-51.6206382547307
30
0
41
1
10
34.8577242031267
20
-51.6507917378948
30
0
41
1
10
34.8905048065266
20
-51.6812048931921
30
0
41
1
10
34.9235555339474
20
-51.7125939051573
30
0
41
1
10
34.9568419788598
20
-51.7449715679261
30
0
41
1
10
34.9903291379412
20
-51.7783501138827
30
0
41
1
10
35.0232692862897
20
-51.8119865269009
30
0
41
1
10
35.0556655805525
20
-51.8458681278278
30
0
41
1
10
35.0875211771062
20
-51.8799822614187
30
0
41
1
10
35.1200439643392
20
-51.9156369717339
30
0
41
1
10
35.1531678701324
20
-51.9528542696432
30
0
41
1
10
35.186824644955
20
-51.99165475385
30
0
41
1
10
35.2198398082655
20
-52.0306986717263
30
0
41
1
10
35.2522431853262
20
-52.0700016806889
30
0
41
1
10
35.2840412607621
20
-52.1095538485293
30
0
41
1
10
35.3152401251172
20
-52.1493461943075
30
0
41
1
10
35.3458233045729
20
-52.1893393259479
30
0
41
1
10
35.3757747588768
20
-52.2294924959671
30
0
41
1
10
35.4051038194585
20
-52.2697960580593
30
0
41
1
10
35.4334797271822
20
-52.3097651643616
30
0
41
1
10
35.4519086927321
20
-52.3363558394765
30
0
41
1
10
35.460866135141
20
-52.349437154555
30
0
0
SPLINE
5
1E3
100
AcDbEntity
8
1
62
256
6
ByLayer
370
18
48
1
60
0
100
AcDbSpline
70
4
71
3
72
128
73
124
40
0
40
0
40
0
40
0
40
0.0089801200078369
40
0.017960872618193
40
0.026941607833618
40
0.0359217041194111
40
0.0449149739898799
40
0.053908241034495
40
0.0628762143858339
40
0.0718441855523476
40
0.0807669056739177
40
0.0896903044658918
40
0.0986136966885312
40
0.107536407851234
40
0.116481059678737
40
0.125426403617485
40
0.134371747347546
40
0.143316398890455
40
0.152064304885891
40
0.16081285419973
40
0.169561408066743
40
0.178309320271513
40
0.187077713094883
40
0.195846740342283
40
0.20461577574246
40
0.21338417968406
40
0.22139851910396
40
0.22941355628249
40
0.237428837178023
40
0.24544389525368
40
0.253458252201738
40
0.261495636171444
40
0.269533691112093
40
0.277571982206414
40
0.285610060631412
40
0.293647464299318
40
0.301849254597206
40
0.310051721317919
40
0.318254426845597
40
0.326456918609765
40
0.33465872991358
40
0.342882814132002
40
0.351107545787914
40
0.3593325051538
40
0.367557259123332
40
0.375781362057875
40
0.384204415627418
40
0.392628133794281
40
0.401052083642578
40
0.409475820767997
40
0.417898890239522
40
0.426343949876299
40
0.434789657383884
40
0.443235587204089
40
0.451681306462507
40
0.460126375955572
40
0.468844052912429
40
0.477562431238319
40
0.486281045362378
40
0.494999427125453
40
0.503717106965341
40
0.512458267468963
40
0.521200138873694
40
0.529942243429691
40
0.538684107196014
40
0.547425261292704
40
0.556264977054915
40
0.565105449454384
40
0.573946163592398
40
0.582786615666633
40
0.591626314380422
40
0.600491725273773
40
0.609357939655057
40
0.618224404472965
40
0.627090585350922
40
0.635955968142168
40
0.644981968877033
40
0.654008880784606
40
0.66303607031501
40
0.672062932084814
40
0.681088890764422
40
0.690146226629613
40
0.699204568350797
40
0.708263211501523
40
0.717321488279351
40
0.726378769669906
40
0.735157503711727
40
0.743936896118004
40
0.752716264546566
40
0.761494965889029
40
0.770271480977336
40
0.779048708801123
40
0.787825909927068
40
0.796602388606256
40
0.803642522794146
40
0.810683262246783
40
0.817724185878235
40
0.824764891706367
40
0.831804997690646
40
0.837666563653093
40
0.843528250815619
40
0.849389812997832
40
0.855230668133649
40
0.86107164800645
40
0.866912499372458
40
0.873998259799038
40
0.881084740563492
40
0.888171442630619
40
0.89525788736719
40
0.902343617573776
40
0.909454034714507
40
0.916565231516359
40
0.92367667004918
40
0.930787832033087
40
0.937898219968482
40
0.945648989311603
40
0.953400465708882
40
0.961151926373395
40
0.968902674260778
40
0.976676640653216
40
0.984451353053473
40
0.992226051981098
40
1
40
1
40
1
40
1
41
1
10
24.2178242398974
20
50.3558453157654
30
0
41
1
10
24.2298454265399
20
50.3717697626615
30
0
41
1
10
24.2540788453811
20
50.4034803074792
30
0
41
1
10
24.2910014231751
20
50.4506288754031
30
0
41
1
10
24.3284917628536
20
50.4973576468592
30
0
41
1
10
24.3665650588084
20
50.5436866987584
30
0
41
1
10
24.4052186097995
20
50.5896130078004
30
0
41
1
10
24.4444118297955
20
50.6350908747115
30
0
41
1
10
24.4841190859757
20
50.6800959530817
30
0
41
1
10
24.5242647575578
20
50.7245510429866
30
0
41
1
10
24.5648782877804
20
50.7684981117457
30
0
41
1
10
24.6059496748101
20
50.8119356691269
30
0
41
1
10
24.6475393588722
20
50.8549326346024
30
0
41
1
10
24.6896738784578
20
50.8975185129378
30
0
41
1
10
24.7323488921457
20
50.939688620976
30
0
41
1
10
24.7755587611553
20
50.9814384716309
30
0
41
1
10
24.8192594824883
20
51.0227281162111
30
0
41
1
10
24.8631181216738
20
51.0632527263431
30
0
41
1
10
24.907115805128
20
51.1030206183925
30
0
41
1
10
24.9512335776755
20
51.1420408459933
30
0
41
1
10
24.9957898199881
20
51.1806043894579
30
0
41
1
10
25.0408107395427
20
51.2187360236544
30
0
41
1
10
25.0862908958675
20
51.2564312788708
30
0
41
1
10
25.1322242262565
20
51.2936861687693
30
0
41
1
10
25.1785660695976
20
51.3304666942074
30
0
41
1
10
25.2239674949615
20
51.3657276520023
30
0
41
1
10
25.2683834082995
20
51.3995132293481
30
0
41
1
10
25.3117722060435
20
51.4318675255459
30
0
41
1
10
25.3554779444185
20
51.4638150068008
30
0
41
1
10
25.3994920490714
20
51.495351237233
30
0
41
1
10
25.4438505801643
20
51.5265031141586
30
0
41
1
10
25.4885503689402
20
51.5572677722186
30
0
41
1
10
25.5335880736278
20
51.5876427377478
30
0
41
1
10
25.5789146810882
20
51.6175959788379
30
0
41
1
10
25.624521872536
20
51.6471234886572
30
0
41
1
10
25.6707163108897
20
51.6764210132214
30
0
41
1
10
25.7175006453677
20
51.7054769416208
30
0
41
1
10
25.7648771633943
20
51.7342797366372
30
0
41
1
10
25.8125249948106
20
51.762631433827
30
0
41
1
10
25.8604358095163
20
51.7905281901948
30
0
41
1
10
25.9086471573837
20
51.8179922836101
30
0
41
1
10
25.9571560702548
20
51.8450208879128
30
0
41
1
10
26.0059596343939
20
51.8716114239741
30
0
41
1
10
26.0550082774418
20
51.897737031943
30
0
41
1
10
26.1042941800664
20
51.9233941303086
30
0
41
1
10
26.1542110299562
20
51.9487833445797
30
0
41
1
10
26.2047620658117
20
51.9738898671455
30
0
41
1
10
26.2559502649095
20
51.9986987089715
30
0
41
1
10
26.3073688636162
20
52.0230080221659
30
0
41
1
10
26.3590100481061
20
52.0468141101562
30
0
41
1
10
26.4109134597977
20
52.0701345893176
30
0
41
1
10
26.4630766130673
20
52.0929661848062
30
0
41
1
10
26.5154971219028
20
52.1153056797424
30
0
41
1
10
26.5681244758904
20
52.1371304629369
30
0
41
1
10
26.6209512841099
20
52.1584368034053
30
0
41
1
10
26.6745429302426
20
52.1794455021103
30
0
41
1
10
26.728904078808
20
52.2001346697402
30
0
41
1
10
26.7840389906627
20
52.2204818169588
30
0
41
1
10
26.839369723729
20
52.2402656855732
30
0
41
1
10
26.894888470909
20
52.2594820052198
30
0
41
1
10
26.9506399302079
20
52.2781440814524
30
0
41
1
10
27.0066219205191
20
52.2962473734702
30
0
41
1
10
27.0628322299781
20
52.3137872685446
30
0
41
1
10
27.1192154259954
20
52.3307437789732
30
0
41
1
10
27.175763702726
20
52.3471123153442
30
0
41
1
10
27.232684915983
20
52.3629482938574
30
0
41
1
10
27.2899785449852
20
52.3782405442055
30
0
41
1
10
27.3476437562917
20
52.3929776725144
30
0
41
1
10
27.405461262451
20
52.4070982791536
30
0
41
1
10
27.4634227236206
20
52.4205972584534
30
0
41
1
10
27.5215788231306
20
52.4334825958743
30
0
41
1
10
27.5799271962464
20
52.4457480657964
30
0
41
1
10
27.6384651796132
20
52.4573874267738
30
0
41
1
10
27.6971302788059
20
52.4683839592651
30
0
41
1
10
27.7559134495875
20
52.4787321614268
30
0
41
1
10
27.8151641577561
20
52.4884855705944
30
0
41
1
10
27.8748816408874
20
52.4976254477405
30
0
41
1
10
27.9350643182761
20
52.5061328284742
30
0
41
1
10
27.9953487236354
20
52.5139476680519
30
0
41
1
10
28.055724228332
20
52.5210638947235
30
0
41
1
10
28.116253485863
20
52.5274832431271
30
0
41
1
10
28.1769328417071
20
52.5331971757973
30
0
41
1
10
28.237757983814
20
52.5381975304828
30
0
41
1
10
28.2986504101148
20
52.5424719294549
30
0
41
1
10
28.3595978622699
20
52.5460142084213
30
0
41
1
10
28.4199664119749
20
52.5487896118097
30
0
41
1
10
28.479748553127
20
52.550818550639
30
0
41
1
10
28.5389372340432
20
52.5521222715942
30
0
41
1
10
28.5981485268537
20
52.5527167257517
30
0
41
1
10
28.6573677036446
20
52.5525965663211
30
0
41
1
10
28.7165878018498
20
52.5517563705322
30
0
41
1
10
28.7758013662102
20
52.5501915512686
30
0
41
1
10
28.835002484914
20
52.5478971339237
30
0
41
1
10
28.890277703825
20
52.5450678481357
30
0
41
1
10
28.9416252211923
20
52.541859433699
30
0
41
1
10
28.9890484445174
20
52.5384162334852
30
0
41
1
10
29.0364421028858
20
52.5344923026303
30
0
41
1
10
29.0837980583249
20
52.5300855609758
30
0
41
1
10
29.1284703501475
20
52.5254666219039
30
0
41
1
10
29.1704627212205
20
52.520723805504
30
0
41
1
10
29.2097812197887
20
52.515939857774
30
0
41
1
10
29.2490137147093
20
52.5108217336805
30
0
41
1
10
29.288156906498
20
52.5053696523744
30
0
41
1
10
29.3272074833318
20
52.4995840596265
30
0
41
1
10
29.3689788791836
20
52.4930223391303
30
0
41
1
10
29.4134547709334
20
52.4855927676806
30
0
41
1
10
29.4606138620846
20
52.4771959026403
30
0
41
1
10
29.5076823765736
20
52.4682928450653
30
0
41
1
10
29.5546503151454
20
52.4588829247424
30
0
41
1
10
29.6015646563155
20
52.4489534563663
30
0
41
1
10
29.6484200694364
20
52.4385004095738
30
0
41
1
10
29.6952110815222
20
52.4275209579457
30
0
41
1
10
29.7418755442003
20
52.4160269913786
30
0
41
1
10
29.7884026627909
20
52.404018927602
30
0
41
1
10
29.8361766873141
20
52.3911205223275
30
0
41
1
10
29.8851758827488
20
52.3772750799522
30
0
41
1
10
29.9353751833267
20
52.3624255064069
30
0
41
1
10
29.9853755010681
20
52.3469650557234
30
0
41
1
10
30.035214849637
20
52.3308788259748
30
0
41
1
10
30.0848837475324
20
52.3141645959141
30
0
41
1
10
30.1343725485196
20
52.2968219864741
30
0
41
1
10
30.1836210342885
20
52.278870079658
30
0
41
1
10
30.2162828676519
20
52.2664978969825
30
0
41
1
10
30.2325713280634
20
52.2602108583938
30
0
0
SPLINE
5
1E4
100
AcDbEntity
8
1
62
256
6
ByLayer
370
18
48
1
60
0
100
AcDbSpline
70
4
71
3
72
51
73
47
40
0
40
0
40
0
40
0
40
0.0228037699762036
40
0.0456089911422743
40
0.0684142125160656
40
0.0912179827755507
40
0.114051555186521
40
0.136885127624199
40
0.159660543261676
40
0.182435958919577
40
0.205426943929804
40
0.228419415547032
40
0.251411887240275
40
0.274402872354169
40
0.297206638867619
40
0.32001185583611
40
0.342817072842006
40
0.365620839406462
40
0.388424605638756
40
0.411229822266091
40
0.434035038908447
40
0.456838805161229
40
0.479829722219718
40
0.502822125662482
40
0.525814529104783
40
0.548805446162652
40
0.571188465158274
40
0.593573541513297
40
0.615959303965719
40
0.638344380272824
40
0.660727399228264
40
0.683110418777695
40
0.705495495818706
40
0.727881258957957
40
0.750266335868087
40
0.772649355307727
40
0.79503237616285
40
0.817417454810542
40
0.839803219580836
40
0.862188297951912
40
0.88457131857501
40
0.907655549731784
40
0.930742038874226
40
0.953829280767882
40
0.976915769329998
40
1
40
1
40
1
40
1
41
1
10
30.2325713280634
20
52.2602108583937
30
0
41
1
10
30.250656987821
20
52.2532285372987
30
0
41
1
10
30.2867570924867
20
52.2390682548714
30
0
41
1
10
30.3406937963443
20
52.2172405147769
30
0
41
1
10
30.3944072290406
20
52.1948301005867
30
0
41
1
10
30.447913540206
20
52.1718301233199
30
0
41
1
10
30.5012054845791
20
52.1482428227319
30
0
41
1
10
30.5542322753119
20
52.1240908068649
30
0
41
1
10
30.6069647588117
20
52.099389199101
30
0
41
1
10
30.659562618269
20
52.0740635233587
30
0
41
1
10
30.7120623145677
20
52.0480891388835
30
0
41
1
10
30.7644542991323
20
52.0214634906381
30
0
41
1
10
30.816566244252
20
51.9942723030007
30
0
41
1
10
30.8682496922421
20
51.9665950769271
30
0
41
1
10
30.9195017599235
20
51.9384399900153
30
0
41
1
10
30.9703200593041
20
51.9098156676643
30
0
41
1
10
31.0208370361456
20
51.8806496979326
30
0
41
1
10
31.0710452275849
20
51.8509464379746
30
0
41
1
10
31.1209392188284
20
51.820708865449
30
0
41
1
10
31.1705139185526
20
51.7899405162725
30
0
41
1
10
31.2197620544496
20
51.758646078396
30
0
41
1
10
31.268810120503
20
51.7267431399646
30
0
41
1
10
31.3176495676123
20
51.6942298571941
30
0
41
1
10
31.3662719965854
20
51.6611050496536
30
0
41
1
10
31.4145372432931
20
51.6274622376785
30
0
41
1
10
31.4620158318888
20
51.5936074629713
30
0
41
1
10
31.5087140387804
20
51.5595593985804
30
0
41
1
10
31.5546390421033
20
51.5253366727879
30
0
41
1
10
31.6002037500903
20
51.4906384443334
30
0
41
1
10
31.6453997491943
20
51.4554710237071
30
0
41
1
10
31.690220915816
20
51.4198389112122
30
0
41
1
10
31.7346632991864
20
51.3837446620202
30
0
41
1
10
31.778723428115
20
51.3471914076116
30
0
41
1
10
31.8223954636925
20
51.3101839871146
30
0
41
1
10
31.8656712989703
20
51.2727290812717
30
0
41
1
10
31.9085450160097
20
51.2348314362003
30
0
41
1
10
31.9510127629275
20
51.1964937460448
30
0
41
1
10
31.9930712055257
20
51.157719252282
30
0
41
1
10
32.0347147340723
20
51.1185130264999
30
0
41
1
10
32.0759355719913
20
51.0788820933358
30
0
41
1
10
32.1171539893035
20
51.0384132241139
30
0
41
1
10
32.1583504348979
20
50.9970937204892
30
0
41
1
10
32.1995051549307
20
50.9549117810228
30
0
41
1
10
32.2401907421411
20
50.9122959948808
30
0
41
1
10
32.2803996582147
20
50.8692539005251
30
0
41
1
10
32.3068827738858
20
50.8402796405494
30
0
41
1
10
32.3200436031209
20
50.8257227487334
30
0
0
SPLINE
5
1E5
100
AcDbEntity
8
1
62
256
6
ByLayer
370
18
48
1
60
0
100
AcDbSpline
70
4
71
3
72
23
73
19
40
0
40
0
40
0
40
0
40
0.0759776021441376
40
0.163949393584641
40
0.252190822971653
40
0.339275736414035
40
0.42375374546776
40
0.504157269088405
40
0.579007125051003
40
0.647171054174409
40
0.708913311033986
40
0.755673552214137
40
0.798731750267628
40
0.838456776576011
40
0.876234381557797
40
0.914265180911537
40
0.954777165992644
40
1
40
1
40
1
40
1
41
1
10
30.2325713280142
20
52.2602108583283
30
0
41
1
10
30.3779542056714
20
52.4531898746154
30
0
41
1
10
30.6908752142158
20
52.8666830081532
30
0
41
1
10
31.1696532703597
20
53.4927839102222
30
0
41
1
10
31.6663952854476
20
54.1360093358151
30
0
41
1
10
32.1535570248668
20
54.7610940973042
30
0
41
1
10
32.6230921594364
20
55.3582954668507
30
0
41
1
10
33.0669595395529
20
55.9178696089327
30
0
41
1
10
33.4777556952037
20
56.4309323438345
30
0
41
1
10
33.8512281881707
20
56.8923051890481
30
0
41
1
10
34.1697941183224
20
57.2836192807765
30
0
41
1
10
34.4392221871282
20
57.6154244812323
30
0
41
1
10
34.665903506523
20
57.8972236270958
30
0
41
1
10
34.8727647212989
20
58.1599005668188
30
0
41
1
10
35.0667420439946
20
58.4118211555692
30
0
41
1
10
35.2585474415012
20
58.6633178576072
30
0
41
1
10
35.4601779459683
20
58.9269462832705
30
0
41
1
10
35.5995462003913
20
59.1063504351895
30
0
41
1
10
35.6728360910416
20
59.2001059148443
30
0
0
SPLINE
5
1E6
100
AcDbEntity
8
1
62
256
6
ByLayer
370
18
48
1
60
0
100
AcDbSpline
70
4
71
3
72
47
73
43
40
0
40
0
40
0
40
0
40
0.0260827970291826
40
0.0521655871595751
40
0.0782572144616593
40
0.104348834272624
40
0.130467898004439
40
0.156586953610762
40
0.182715628293099
40
0.208844294218317
40
0.234976988247858
40
0.261110317704254
40
0.28724297828734
40
0.313399749402497
40
0.339557201328846
40
0.36571393545522
40
0.391837275690948
40
0.417960604593574
40
0.444095952218516
40
0.470231287835354
40
0.49635908759512
40
0.522486874714676
40
0.548627863858779
40
0.57476883970416
40
0.597750689560233
40
0.620732531128321
40
0.643724189896593
40
0.666715840055323
40
0.689742743093255
40
0.712770982490826
40
0.735799171901015
40
0.758826006770359
40
0.781897341075162
40
0.804970131856739
40
0.828042869586842
40
0.851114131544136
40
0.87591013570818
40
0.900707092690637
40
0.925503050292391
40
0.950335043641027
40
0.975168054288373
40
1
40
1
40
1
40
1
41
1
10
30.5999239243902
20
34.892845150813
30
0
41
1
10
30.5919968636649
20
34.8813018235094
30
0
41
1
10
30.5760204235409
20
34.858190493899
30
0
41
1
10
30.551688625311
20
34.8234417529724
30
0
41
1
10
30.5269818330535
20
34.7886226138229
30
0
41
1
10
30.5018861802271
20
34.7537284148909
30
0
41
1
10
30.4763983268361
20
34.7187717901572
30
0
41
1
10
30.4505092042925
20
34.6837571508741
30
0
41
1
10
30.4242221035429
20
34.6487056737804
30
0
41
1
10
30.3975301081494
20
34.6136247626942
30
0
41
1
10
30.370430757628
20
34.5785277311826
30
0
41
1
10
30.3429189463373
20
34.5434245190757
30
0
41
1
10
30.3149822562878
20
34.5083159254472
30
0
41
1
10
30.2866149939628
20
34.4732118474682
30
0
41
1
10
30.2578117081888
20
34.4381226600931
30
0
41
1
10
30.2285885619762
20
34.4030845237983
30
0
41
1
10
30.1989415166353
20
34.3681083037188
30
0
41
1
10
30.168861650971
20
34.3331991990805
30
0
41
1
10
30.1383314005964
20
34.2983534182971
30
0
41
1
10
30.1073490436525
20
34.2635857383226
30
0
41
1
10
30.0759149812739
20
34.2289130413683
30
0
41
1
10
30.0440198408791
20
34.194341335878
30
0
41
1
10
30.0116562165715
20
34.1598794152822
30
0
41
1
10
29.9801427504512
20
34.1269229988453
30
0
41
1
10
29.9495453189727
20
34.0954714136087
30
0
41
1
10
29.9199179615997
20
34.0655109205379
30
0
41
1
10
29.8899176396969
20
34.0356724624978
30
0
41
1
10
29.8595266095956
20
34.0059499369954
30
0
41
1
10
29.8287457530226
20
33.9763564324468
30
0
41
1
10
29.7975726935298
20
33.9469015934504
30
0
41
1
10
29.7660221691352
20
33.9176106074908
30
0
41
1
10
29.7340726709945
20
33.8884749079241
30
0
41
1
10
29.7017210995622
20
33.859504064583
30
0
41
1
10
29.6689650585649
20
33.8307079095434
30
0
41
1
10
29.6358251749591
20
33.8021157818164
30
0
41
1
10
29.6014659641844
20
33.7730314150763
30
0
41
1
10
29.5658517939227
20
33.7434847463015
30
0
41
1
10
29.5289469844691
20
33.7135092447515
30
0
41
1
10
29.4915786365987
20
33.6838048788521
30
0
41
1
10
29.4537459304068
20
33.6543859333564
30
0
41
1
10
29.4154488547326
20
33.6252648895313
30
0
41
1
10
29.3896207233772
20
33.6060715067263
30
0
41
1
10
29.3766327249522
20
33.5965291543355
30
0
0
SPLINE
5
1E7
100
AcDbEntity
8
1
62
256
6
ByLayer
370
18
48
1
60
0
100
AcDbSpline
70
4
71
3
72
13
73
9
40
0
40
0
40
0
40
0
40
0.255506871099852
40
0.511063272987142
40
0.638917242750052
40
0.766771208253119
40
0.894650449023711
40
1
40
1
40
1
40
1
41
1
10
32.6984557456245
20
44.5280481264354
30
0
41
1
10
32.6885193350571
20
44.5121245272794
30
0
41
1
10
32.6684853616193
20
44.4804075007022
30
0
41
1
10
32.6430394618388
20
44.4410844206086
30
0
41
1
10
32.6224406996073
20
44.4098234303253
30
0
41
1
10
32.6068678146444
20
44.3864728031288
30
0
41
1
10
32.5920978162934
20
44.3645909720721
30
0
41
1
10
32.582492845039
20
44.350516365474
30
0
41
1
10
32.5781410211768
20
44.3441708678382
30
0
0
SPLINE
5
1E8
100
AcDbEntity
8
1
62
256
6
ByLayer
370
18
48
1
60
0
100
AcDbSpline
70
4
71
3
72
12
73
8
40
0
40
0
40
0
40
0
40
0.158767531158604
40
0.369075648368952
40
0.579383765579302
40
0.789691882789651
40
1
40
1
40
1
40
1
41
1
10
32.6984557948425
20
44.5280480809238
30
0
41
1
10
32.7881243682508
20
44.4451256133836
30
0
41
1
10
32.9875842169402
20
44.2563555437926
30
0
41
1
10
33.2692000257743
20
43.9733073125545
30
0
41
1
10
33.5323552099916
20
43.6859713073778
30
0
41
1
10
33.7497600553996
20
43.4219622199468
30
0
41
1
10
33.8621322408317
20
43.2640652341539
30
0
41
1
10
33.910349251696
20
43.1894308598812
30
0
0
SPLINE
5
1E9
100
AcDbEntity
8
1
62
256
6
ByLayer
370
18
48
1
60
0
100
AcDbSpline
70
4
71
3
72
123
73
119
40
0
40
0
40
0
40
0
40
0.007943555020837
40
0.0158882974998479
40
0.0238334585753622
40
0.0317782436026149
40
0.0397218343144266
40
0.047665062621796
40
0.0556094090015218
40
0.0635541554356878
40
0.0714985531076244
40
0.0794418244403429
40
0.0875406712259508
40
0.0956406187267316
40
0.103740965400649
40
0.111840973488571
40
0.119939871096135
40
0.127615225667321
40
0.135291166409572
40
0.142967124835213
40
0.150642503521946
40
0.158336137340655
40
0.166030322854455
40
0.173724525871018
40
0.181418183558835
40
0.189920304479382
40
0.198423117201339
40
0.206925954710409
40
0.215428109434296
40
0.223951698707772
40
0.232475932227606
40
0.241000188749241
40
0.249523809391166
40
0.257102866460567
40
0.264682344142514
40
0.272261834734031
40
0.27984090940836
40
0.287433073388689
40
0.295025633216351
40
0.302618204490622
40
0.310210384080779
40
0.31952736442152
40
0.328845352246112
40
0.338163707759417
40
0.34748175534218
40
0.356798785808124
40
0.365742126137568
40
0.374686025978359
40
0.383629939379996
40
0.392573298202655
40
0.401534205267366
40
0.410495648892518
40
0.419457102285648
40
0.428418022671123
40
0.437106006935424
40
0.445794464109814
40
0.454482926571629
40
0.463170918046446
40
0.471873935557129
40
0.480577419770551
40
0.489280906085443
40
0.497983926461926
40
0.507717298920744
40
0.517451322007549
40
0.52718534328127
40
0.536918713267536
40
0.546673068038024
40
0.556428086284404
40
0.566183097662418
40
0.575937443066314
40
0.585408500539046
40
0.59488050428444
40
0.604352808254402
40
0.613824782603476
40
0.623295815418773
40
0.632682942132025
40
0.642071379425623
40
0.651460445224611
40
0.66084947840285
40
0.670237840412581
40
0.679624916929648
40
0.688187332871693
40
0.696750268872561
40
0.70531319415006
40
0.713875595468437
40
0.722455035976167
40
0.731035023301234
40
0.739614999856975
40
0.748194425678318
40
0.756756295033995
40
0.765318730458088
40
0.773881156161255
40
0.782443012260249
40
0.791215274956021
40
0.799988167725299
40
0.808761051984068
40
0.817533303073763
40
0.826326035953646
40
0.835119419085029
40
0.843912797089868
40
0.852705522978493
40
0.861636528175077
40
0.870568222252437
40
0.879499915891597
40
0.88843092049059
40
0.897361903169732
40
0.906293570183825
40
0.915225243024371
40
0.924156233649284
40
0.93330953071657
40
0.942463543807084
40
0.951617571122891
40
0.960770887589813
40
0.968616273141451
40
0.976462293488474
40
0.984308541293865
40
0.99215459035968
40
1
40
1
40
1
40
1
41
1
10
32.3200436031209
20
50.8257227487334
30
0
41
1
10
32.3320066792081
20
50.8124885301992
30
0
41
1
10
32.3557684057333
20
50.7858611011146
30
0
41
1
10
32.3909164364268
20
50.7454425306136
30
0
41
1
10
32.425562249528
20
50.704559974862
30
0
41
1
10
32.4596972190043
20
50.6632260533569
30
0
41
1
10
32.4933143054757
20
50.6214517872773
30
0
41
1
10
32.5264098335327
20
50.5792436374776
30
0
41
1
10
32.5589821379033
20
50.5366093565715
30
0
41
1
10
32.5910271824335
20
50.4935590079024
30
0
41
1
10
32.6225379476898
20
50.4501065215239
30
0
41
1
10
32.6537120860683
20
50.4059760310356
30
0
41
1
10
32.6845349928223
20
50.3611653585578
30
0
41
1
10
32.7149936470921
20
50.3156737897825
30
0
41
1
10
32.7448864218072
20
50.2698012767758
30
0
41
1
10
32.7742080986503
20
50.2235623288282
30
0
41
1
10
32.8024545375302
20
50.1777798987793
30
0
41
1
10
32.8296589763728
20
50.1324831255405
30
0
41
1
10
32.8558558323773
20
50.0876991949878
30
0
41
1
10
32.8815347113937
20
50.0426196248818
30
0
41
1
10
32.9067139163185
20
49.9972179121839
30
0
41
1
10
32.9313915417882
20
49.9515003089007
30
0
41
1
10
32.9555666786078
20
49.9054732858995
30
0
41
1
10
32.9792190351574
20
49.8591822502631
30
0
41
1
10
33.0031579728082
20
49.8110059350198
30
0
41
1
10
33.0273178979645
20
49.7609191823304
30
0
41
1
10
33.0516311053673
20
49.7088988592069
30
0
41
1
10
33.0753068428788
20
49.6565960741587
30
0
41
1
10
33.0983645080094
20
49.6039780277141
30
0
41
1
10
33.1208034290391
20
49.5510523164256
30
0
41
1
10
33.1426239415977
20
49.4978265291485
30
0
41
1
10
33.1638081304424
20
49.4443558750869
30
0
41
1
10
33.1835978746609
20
49.3926346187905
30
0
41
1
10
33.2020741638511
20
49.3426993770143
30
0
41
1
10
33.2193144744307
20
49.2945819139355
30
0
41
1
10
33.2360567613878
20
49.2462975521242
30
0
41
1
10
33.2523114238861
20
49.1978252155557
30
0
41
1
10
33.2680790408571
20
49.1491695450212
30
0
41
1
10
33.2833605666007
20
49.1003350833191
30
0
41
1
10
33.2981482430551
20
49.0513562292615
30
0
41
1
10
33.3135258817593
20
48.9985199413893
30
0
41
1
10
33.3293570297216
20
48.9417914180671
30
0
41
1
10
33.3454940377056
20
48.8811378314398
30
0
41
1
10
33.3608987636768
20
48.8202998714228
30
0
41
1
10
33.3755731641689
20
48.7592911249117
30
0
41
1
10
33.3893335951934
20
48.6989390516566
30
0
41
1
10
33.4022169134851
20
48.6392576765027
30
0
41
1
10
33.4142594681978
20
48.5802593026852
30
0
41
1
10
33.4256406337305
20
48.5211326956268
30
0
41
1
10
33.4363698083423
20
48.4618475181517
30
0
41
1
10
33.4464481926887
20
48.4024093727025
30
0
41
1
10
33.455877141366
20
48.342823710372
30
0
41
1
10
33.464652371352
20
48.2831373507684
30
0
41
1
10
33.4726936455377
20
48.2239650830445
30
0
41
1
10
33.480026250345
20
48.1653155703949
30
0
41
1
10
33.4866750325728
20
48.1071965453563
30
0
41
1
10
33.4927178464369
20
48.0490071234499
30
0
41
1
10
33.4981596379036
20
47.9907205547052
30
0
41
1
10
33.5030010862081
20
47.9323414028593
30
0
41
1
10
33.507242865461
20
47.8738742140729
30
0
41
1
10
33.510883780891
20
47.8153593133925
30
0
41
1
10
33.5140453938716
20
47.7544926578592
30
0
41
1
10
33.5166438812937
20
47.6912730606812
30
0
41
1
10
33.5185917315434
20
47.6257020604725
30
0
41
1
10
33.5197956798908
20
47.5601012554679
30
0
41
1
10
33.5202577324302
20
47.4944328592102
30
0
41
1
10
33.5199775293494
20
47.428703259449
30
0
41
1
10
33.5189546768307
20
47.3629190425911
30
0
41
1
10
33.5171906783469
20
47.2971370029476
30
0
41
1
10
33.5147109919116
20
47.2320035133707
30
0
41
1
10
33.5115412765607
20
47.1675241438717
30
0
41
1
10
33.5077068195895
20
47.1037037913337
30
0
41
1
10
33.5031771102418
20
47.0399145391774
30
0
41
1
10
33.4979530742451
20
46.9761685768447
30
0
41
1
10
33.492052839335
20
46.912662741854
30
0
41
1
10
33.4854834471283
20
46.8494010114156
30
0
41
1
10
33.4782521139222
20
46.7863874584299
30
0
41
1
10
33.4703397018229
20
46.7234425831665
30
0
41
1
10
33.4617470096777
20
46.6605793029857
30
0
41
1
10
33.4524748593642
20
46.5978105487291
30
0
41
1
10
33.4428147643831
20
46.5369800192104
30
0
41
1
10
33.4328343320103
20
46.4780834368599
30
0
41
1
10
33.4225987383906
20
46.4211144031648
30
0
41
1
10
33.4117978523731
20
46.3642492329886
30
0
41
1
10
33.4004244273105
20
46.3074586303679
30
0
41
1
10
33.3884768301198
20
46.2507490061772
30
0
41
1
10
33.3759537842361
20
46.1941269591136
30
0
41
1
10
33.3628636491076
20
46.1376388520163
30
0
41
1
10
33.3492161366585
20
46.081332037593
30
0
41
1
10
33.3350122742941
20
46.0252127916764
30
0
41
1
10
33.3202535424997
20
45.9692873752233
30
0
41
1
10
33.3049308923754
20
45.9135266218129
30
0
41
1
10
33.2889148044273
20
45.8574844861337
30
0
41
1
10
33.2721887193728
20
45.8011730048385
30
0
41
1
10
33.2547365669031
20
45.7446049521397
30
0
41
1
10
33.2366941756411
20
45.6882443029642
30
0
41
1
10
33.2180480131441
20
45.6320576276799
30
0
41
1
10
33.1987963825591
20
45.5760532272351
30
0
41
1
10
33.1789382840867
20
45.5202391747051
30
0
41
1
10
33.1584900953295
20
45.4646692434103
30
0
41
1
10
33.1373428902236
20
45.409063812672
30
0
41
1
10
33.1154859335486
20
45.3534353815967
30
0
41
1
10
33.0929092486358
20
45.2977964138761
30
0
41
1
10
33.0697281015294
20
45.2424458900655
30
0
41
1
10
33.04594429456
20
45.1873943080179
30
0
41
1
10
33.0215582397965
20
45.1326494463462
30
0
41
1
10
32.9965710386255
20
45.0782180683931
30
0
41
1
10
32.9709848171363
20
45.0241096736072
30
0
41
1
10
32.9445843585155
20
44.9698876144084
30
0
41
1
10
32.9173527146444
20
44.9155686894842
30
0
41
1
10
32.8892734150158
20
44.8611688487317
30
0
41
1
10
32.8605709725836
20
44.8071399408994
30
0
41
1
10
32.8326440709211
20
44.756045563603
30
0
41
1
10
32.805592622626
20
44.7078304992243
30
0
41
1
10
32.7795091466117
20
44.6624378628262
30
0
41
1
10
32.7529701698762
20
44.61733224417
30
0
41
1
10
32.7259774387366
20
44.5725182001932
30
0
41
1
10
32.7076798666656
20
44.5428385789508
30
0
41
1
10
32.6984557456245
20
44.5280481264354
30
0
0
SPLINE
5
1EA
100
AcDbEntity
8
1
62
256
6
ByLayer
370
18
48
1
60
0
100
AcDbSpline
70
4
71
1
72
4
73
2
40
0
40
0
40
1
40
1
41
1
10
33.910349251696
20
43.1894308598812
30
0
41
1
10
35.0613495845876
20
41.4068068425371
30
0
0
SPLINE
5
1EB
100
AcDbEntity
8
1
62
256
6
ByLayer
370
18
48
1
60
0
100
AcDbSpline
70
4
71
3
72
28
73
24
40
0
40
0
40
0
40
0
40
0.0249801892263969
40
0.0539280577849346
40
0.086540111321254
40
0.122484022582437
40
0.161412604673815
40
0.202970885898875
40
0.254837995938146
40
0.309270470801001
40
0.365681510560974
40
0.423490649956124
40
0.498130293760763
40
0.57259102587287
40
0.645327651556329
40
0.714778196194748
40
0.766019953469649
40
0.813508491596514
40
0.856837753426191
40
0.896237207590279
40
0.934252069746192
40
0.968594640299565
40
1
40
1
40
1
40
1
41
1
10
33.910349251696
20
43.1894308598812
30
0
41
1
10
33.965889691642
20
43.2911761622644
30
0
41
1
10
34.0808681617026
20
43.5133575009301
30
0
41
1
10
34.2449724931911
20
43.880904411321
30
0
41
1
10
34.4159459093183
20
44.300923025168
30
0
41
1
10
34.5912300554582
20
44.7692689072767
30
0
41
1
10
34.7697728923401
20
45.2806259859053
30
0
41
1
10
34.9617171788524
20
45.8654933331572
30
0
41
1
10
35.1644478305361
20
46.5222461695969
30
0
41
1
10
35.3752781742646
20
47.2479337843142
30
0
41
1
10
35.5821076006794
20
48.0022949897924
30
0
41
1
10
35.8011973917622
20
48.848500230551
30
0
41
1
10
36.0258323708255
20
49.7760425485441
30
0
41
1
10
36.2520582591804
20
50.7693547824101
30
0
41
1
10
36.46163623722
20
51.7370033650017
30
0
41
1
10
36.6407705459652
20
52.5975323033655
30
0
41
1
10
36.7918646039681
20
53.3417220407442
30
0
41
1
10
36.9167413776103
20
53.9663111725613
30
0
41
1
10
37.030256335821
20
54.5334492996879
30
0
41
1
10
37.1397290121212
20
55.051753177707
30
0
41
1
10
37.2511188773393
20
55.5206492091949
30
0
41
1
10
37.3716584777554
20
55.9413598683193
30
0
41
1
10
37.4658528549146
20
56.1920378714645
30
0
41
1
10
37.5142877843063
20
56.3087344128697
30
0
0
SPLINE
5
1EC
100
AcDbEntity
8
1
62
256
6
ByLayer
370
18
48
1
60
0
100
AcDbSpline
70
4
71
3
72
63
73
59
40
0
40
0
40
0
40
0
40
0.0177788766855048
40
0.0355642137683963
40
0.0533494620755592
40
0.0711282176591548
40
0.0889080267865561
40
0.106694493109578
40
0.12448087053911
40
0.142260558402583
40
0.160927433487762
40
0.179602234351977
40
0.198276938903187
40
0.21694368259657
40
0.234725177096938
40
0.252513685127406
40
0.270302130992921
40
0.288083540689444
40
0.305865592704288
40
0.323654776413369
40
0.341443918655238
40
0.359225914101179
40
0.377964305509573
40
0.396711127940323
40
0.415457925643468
40
0.434196283317202
40
0.451566739003412
40
0.468943935611589
40
0.486321130245338
40
0.503691583238122
40
0.521062007348106
40
0.538439165985272
40
0.555816333577819
40
0.573186769904447
40
0.591463371799489
40
0.609747788368863
40
0.628032223022936
40
0.646308849589477
40
0.663569835733104
40
0.680837369973375
40
0.698104919594568
40
0.715365926720151
40
0.732626760710798
40
0.749894110583421
40
0.76716147367761
40
0.784422325704474
40
0.80256024374398
40
0.820705692642753
40
0.838851153093346
40
0.856989086891864
40
0.874746735495949
40
0.89251143134649
40
0.91027613348084
40
0.928033790657156
40
0.946021684105504
40
0.964016891594182
40
0.98201210224199
40
1
40
1
40
1
40
1
41
1
10
36.0276199521025
20
28.136746436756
30
0
41
1
10
36.0332040186617
20
28.1415913735474
30
0
41
1
10
36.0443683292836
20
28.1513333819699
30
0
41
1
10
36.0611041120634
20
28.1661029399467
30
0
41
1
10
36.0778105152939
20
28.1810145994123
30
0
41
1
10
36.0944743104407
20
28.1960582150586
30
0
41
1
10
36.1110840715605
20
28.2112257623801
30
0
41
1
10
36.1276296468257
20
28.2265077545025
30
0
41
1
10
36.144096256132
20
28.2418906866554
30
0
41
1
10
36.1607415672523
20
28.257618587289
30
0
41
1
10
36.177549002244
20
28.2736871577192
30
0
41
1
10
36.1945007447254
20
28.2900880389152
30
0
41
1
10
36.2113103170476
20
28.3065454589374
30
0
41
1
10
36.2276982897765
20
28.3227814788575
30
0
41
1
10
36.2436616023736
20
28.3387814826956
30
0
41
1
10
36.2592012512831
20
28.354532340803
30
0
41
1
10
36.2745648514063
20
28.3702790203382
30
0
41
1
10
36.2897394756233
20
28.3860054749736
30
0
41
1
10
36.3047155874911
20
28.4016993858494
30
0
41
1
10
36.319485763642
20
28.4173478765147
30
0
41
1
10
36.3340381704924
20
28.4329337498638
30
0
41
1
10
36.3486176529873
20
28.4487178182052
30
0
41
1
10
36.3632009231363
20
28.4646813481191
30
0
41
1
10
36.377764926643
20
28.4808023728203
30
0
41
1
10
36.3920455174179
20
28.4967843811018
30
0
41
1
10
36.4056903163699
20
28.512221994348
30
0
41
1
10
36.4187157237392
20
28.5271130601428
30
0
41
1
10
36.4311427038057
20
28.5414603248319
30
0
41
1
10
36.4432964245112
20
28.5556286193495
30
0
41
1
10
36.4551687893163
20
28.5696018515733
30
0
41
1
10
36.4667543447642
20
28.5833671132773
30
0
41
1
10
36.4780500946797
20
28.5969128405021
30
0
41
1
10
36.4890496586587
20
28.6102237575502
30
0
41
1
10
36.4999324027954
20
28.6235114782318
30
0
41
1
10
36.5106753275127
20
28.6367475086033
30
0
41
1
10
36.5212565547356
20
28.649902428673
30
0
41
1
10
36.5314898719256
20
28.6627373610438
30
0
41
1
10
36.5411862589819
20
28.6750040402923
30
0
41
1
10
36.5503645694684
20
28.6867106579918
30
0
41
1
10
36.5590465773479
20
28.6978701860192
30
0
41
1
10
36.5674051651729
20
28.7086952032437
30
0
41
1
10
36.5754364741025
20
28.7191729067736
30
0
41
1
10
36.5831382663692
20
28.7292925894061
30
0
41
1
10
36.5905103652995
20
28.7390462708539
30
0
41
1
10
36.5975501973432
20
28.74842304773
30
0
41
1
10
36.604368470963
20
28.7575639429562
30
0
41
1
10
36.6109434700389
20
28.766435614969
30
0
41
1
10
36.6172546627396
20
28.7750058343908
30
0
41
1
10
36.623192336785
20
28.7831187998283
30
0
41
1
10
36.6287152707292
20
28.7907101731458
30
0
41
1
10
36.6338312517693
20
28.7977819483299
30
0
41
1
10
36.6385501477601
20
28.8043405787744
30
0
41
1
10
36.6429069960272
20
28.8104285298799
30
0
41
1
10
36.6469175649154
20
28.8160620278275
30
0
41
1
10
36.6505753996502
20
28.8212264627973
30
0
41
1
10
36.653875753116
20
28.8259108248949
30
0
41
1
10
36.6568023987801
20
28.8300882013125
30
0
41
1
10
36.6585035118841
20
28.8325297849023
30
0
41
1
10
36.6592915230148
20
28.8336650141528
30
0
0
SPLINE
5
1ED
100
AcDbEntity
8
1
62
256
6
ByLayer
370
18
48
1
60
0
100
AcDbSpline
70
4
71
3
72
19
73
15
40
0
40
0
40
0
40
0
40
0.077916978428309
40
0.155833971279233
40
0.233756850896161
40
0.311679739605116
40
0.397704828345035
40
0.483730793027586
40
0.569756766703192
40
0.655781867706493
40
0.741836007529496
40
0.827891126239164
40
0.913946082161842
40
1
40
1
40
1
40
1
41
1
10
36.9316335033349
20
59.7695862844054
30
0
41
1
10
36.9288964007832
20
59.7343914429397
30
0
41
1
10
36.9235255665974
20
59.6638990283191
30
0
41
1
10
36.9157832875066
20
59.5578445174057
30
0
41
1
10
36.9083428474496
20
59.4514892018408
30
0
41
1
10
36.9009523234879
20
59.3411428151744
30
0
41
1
10
36.8936406632015
20
59.2267816263843
30
0
41
1
10
36.8864433309512
20
59.1083736705819
30
0
41
1
10
36.8795966345043
20
58.9896292594973
30
0
41
1
10
36.8730999602956
20
58.87053787349
30
0
41
1
10
36.8669487267721
20
58.7511058515228
30
0
41
1
10
36.8611564576179
20
58.6313227503376
30
0
41
1
10
36.8557398678262
20
58.5111899712026
30
0
41
1
10
36.8523946653045
20
58.4308571297581
30
0
41
1
10
36.8507872519059
20
58.3906307643537
30
0
0
SPLINE
5
1EE
100
AcDbEntity
8
1
62
256
6
ByLayer
370
18
48
1
60
0
100
AcDbSpline
70
4
71
3
72
23
73
19
40
0
40
0
40
0
40
0
40
0.0759776021478456
40
0.163949393589936
40
0.252190822978461
40
0.339275736422291
40
0.423753745477402
40
0.504157269099377
40
0.579007125063255
40
0.647171054187887
40
0.708913311048609
40
0.75567355222701
40
0.79873175027907
40
0.838456776586215
40
0.876234381566553
40
0.914265180918315
40
0.954777165996604
40
1
40
1
40
1
40
1
41
1
10
32.3200436030773
20
50.8257227486637
30
0
41
1
10
32.4481202236037
20
51.0305944355224
30
0
41
1
10
32.7220461425916
20
51.4708845679895
30
0
41
1
10
33.1350538694784
20
52.1421821207774
30
0
41
1
10
33.5576264886349
20
52.8363759438092
30
0
41
1
10
33.9667062493623
20
53.5151177868043
30
0
41
1
10
34.3560781412295
20
54.1674064597149
30
0
41
1
10
34.7195242487588
20
54.7822452204755
30
0
41
1
10
35.0514008012463
20
55.3495406432571
30
0
41
1
10
35.3483954247095
20
55.8634682436942
30
0
41
1
10
35.5996534200336
20
56.3010356118509
30
0
41
1
10
35.8129552256277
20
56.6714101663254
30
0
41
1
10
35.9948816050364
20
56.9839644172872
30
0
41
1
10
36.1660552751777
20
57.2711654472252
30
0
41
1
10
36.3318032220941
20
57.5424849541474
30
0
41
1
10
36.4979373708038
20
57.8116226574773
30
0
41
1
10
36.671884962871
20
58.0942744776446
30
0
41
1
10
36.7894902985382
20
58.2886338692115
30
0
41
1
10
36.8507872518171
20
58.3906307642058
30
0
0
SPLINE
5
1EF
100
AcDbEntity
8
1
62
256
6
ByLayer
370
18
48
1
60
0
100
AcDbSpline
70
4
71
3
72
102
73
98
40
0
40
0
40
0
40
0
40
0.0223643180341744
40
0.0447307586157713
40
0.0670975222929701
40
0.0894632255440577
40
0.111826925114951
40
0.13046935246512
40
0.14911477596481
40
0.167761217416964
40
0.186407078504807
40
0.205051162601846
40
0.22369269688409
40
0.224081873530362
40
0.237960554581389
40
0.251840103549092
40
0.265719527908468
40
0.279598039028139
40
0.293606713596324
40
0.307616607379313
40
0.321626318344176
40
0.33563474359264
40
0.350477403320469
40
0.365322087659503
40
0.380166436259998
40
0.395008638098198
40
0.406943945800669
40
0.418881642118012
40
0.430819819162235
40
0.442756910962981
40
0.45469171155213
40
0.466394531472495
40
0.478099376598151
40
0.489803919013877
40
0.501506326074586
40
0.51325476221282
40
0.525003122400858
40
0.536670242999908
40
0.548337271695153
40
0.557978885769878
40
0.56762409735392
40
0.577270015970795
40
0.586914282290933
40
0.596555103274104
40
0.6045068249545
40
0.612460341173838
40
0.620413626508807
40
0.628365033274169
40
0.636356728768881
40
0.644348370384523
40
0.652267680629012
40
0.660186930984442
40
0.668436230643442
40
0.676689047730007
40
0.684941398711861
40
0.69319006249595
40
0.700592335756685
40
0.707999863919856
40
0.715408638444707
40
0.722815190347051
40
0.730216644235754
40
0.737815850035366
40
0.745422189739493
40
0.753030455316209
40
0.760635911739493
40
0.768234376034333
40
0.775647387908052
40
0.783067713707784
40
0.790490409650295
40
0.797910582426319
40
0.805323465831159
40
0.811712449342973
40
0.8181072252604
40
0.824505164343718
40
0.830903398132724
40
0.837298854456076
40
0.843688291991102
40
0.850576431385218
40
0.857469069382485
40
0.864363621614455
40
0.871257033170899
40
0.87814582178614
40
0.885176650872691
40
0.892211047487683
40
0.899247069352007
40
0.906282282505164
40
0.913313796784053
40
0.921913144581586
40
0.93051690624781
40
0.93912287484113
40
0.947728013680308
40
0.95632851713382
40
0.965060408169091
40
0.973795243966267
40
0.982531558482754
40
0.991267326680724
40
1
40
1
40
1
40
1
41
1
10
36.8507872519058
20
58.3906307643537
30
0
41
1
10
36.8501046959832
20
58.373654142408
30
0
41
1
10
36.8488525263405
20
58.3395980642182
30
0
41
1
10
36.8473044505707
20
58.2882144608765
30
0
41
1
10
36.8461130660648
20
58.2365155678836
30
0
41
1
10
36.8452955848974
20
58.1844955674498
30
0
41
1
10
36.844895356573
20
58.1350485381027
30
0
41
1
10
36.8448548797087
20
58.0882266752456
30
0
41
1
10
36.84511921167
20
58.0440779641276
30
0
41
1
10
36.8457019509742
20
57.9996746960898
30
0
41
1
10
36.8466191321096
20
57.9550142409648
30
0
41
1
10
36.8478868189671
20
57.910094101256
30
0
41
1
10
36.8489877675751
20
57.8796555431464
30
0
41
1
10
36.8500644931832
20
57.8529858610469
30
0
41
1
10
36.8510596553444
20
57.8301224831704
30
0
41
1
10
36.8527538855823
20
57.7961478531218
30
0
41
1
10
36.854678825843
20
57.7620178680552
30
0
41
1
10
36.8568498009947
20
57.7276247596324
30
0
41
1
10
36.8592781907196
20
57.6929648285465
30
0
41
1
10
36.8619770869385
20
57.6580345282139
30
0
41
1
10
36.8649492688546
20
57.6229420051381
30
0
41
1
10
36.8682696992828
20
57.5869886231729
30
0
41
1
10
36.871969666411
20
57.5501619352725
30
0
41
1
10
36.8760850039684
20
57.512450439779
30
0
41
1
10
36.8805595306922
20
57.4745611238271
30
0
41
1
10
36.8850911831137
20
57.4389837388806
30
0
41
1
10
36.8896109354224
20
57.4057578790329
30
0
41
1
10
36.8940518016114
20
57.3749169931572
30
0
41
1
10
36.8987621447545
20
57.3439707215599
30
0
41
1
10
36.9037504289792
20
57.312927316952
30
0
41
1
10
36.908991365193
20
57.2819940603353
30
0
41
1
10
36.914487810378
20
57.2511763141662
30
0
41
1
10
36.920243666701
20
57.2204805145374
30
0
41
1
10
36.9263047642109
20
57.1897136819324
30
0
41
1
10
36.9326890512247
20
57.1588458763306
30
0
41
1
10
36.9394081980464
20
57.127886638919
30
0
41
1
10
36.9464593920598
20
57.0969168565144
30
0
41
1
10
36.9538421355414
20
57.0659906680137
30
0
41
1
10
36.9611186541134
20
57.0369091302068
30
0
41
1
10
36.9682471029678
20
57.0096142681837
30
0
41
1
10
36.9751694317902
20
56.9841151090648
30
0
41
1
10
36.9823590500845
20
56.9586393936098
30
0
41
1
10
36.9898212953251
20
56.9332069436369
30
0
41
1
10
36.9971106792396
20
56.9093150220793
30
0
41
1
10
37.0041789689805
20
56.8869640081428
30
0
41
1
10
37.0109799890887
20
56.8661485124765
30
0
41
1
10
37.0179844095931
20
56.8454038841275
30
0
41
1
10
37.0252075995384
20
56.824709284972
30
0
41
1
10
37.0326543915591
20
56.8040787693457
30
0
41
1
10
37.0403068745584
20
56.7835884129056
30
0
41
1
10
37.0481534005531
20
56.7632881599871
30
0
41
1
10
37.0563059409673
20
56.7429147555629
30
0
41
1
10
37.0648031651513
20
56.7224307346056
30
0
41
1
10
37.0736576442823
20
56.7018675792098
30
0
41
1
10
37.0827542444829
20
56.6815298601518
30
0
41
1
10
37.0917727225496
20
56.6621337722465
30
0
41
1
10
37.1006873882609
20
56.6436723977304
30
0
41
1
10
37.109471355572
20
56.6261314917861
30
0
41
1
10
37.1184481277324
20
56.6088572230013
30
0
41
1
10
37.1276105285144
20
56.5918815029989
30
0
41
1
10
37.1370373623534
20
56.5750820216383
30
0
41
1
10
37.1467347857283
20
56.5584914423638
30
0
41
1
10
37.1567030591778
20
56.5421410918494
30
0
41
1
10
37.1668469853923
20
56.5262036157278
30
0
41
1
10
37.1771509376086
20
56.5107165072696
30
0
41
1
10
37.1875190280521
20
56.4958318832405
30
0
41
1
10
37.1979414722884
20
56.4815614808852
30
0
41
1
10
37.208404815238
20
56.4679025957788
30
0
41
1
10
37.2189804660665
20
56.4547565639215
30
0
41
1
10
37.2296480101182
20
56.4421508245455
30
0
41
1
10
37.2398983505212
20
56.4306605728508
30
0
41
1
10
37.2497108922166
20
56.420213905984
30
0
41
1
10
37.2590710748754
20
56.4107236672804
30
0
41
1
10
37.2684670192686
20
56.4016632639356
30
0
41
1
10
37.2778854909292
20
56.3930398739861
30
0
41
1
10
37.287313244396
20
56.384860516042
30
0
41
1
10
37.2969868557093
20
56.3769280549064
30
0
41
1
10
37.3069013807135
20
56.3692832764828
30
0
41
1
10
37.3170505899509
20
56.3619573258657
30
0
41
1
10
37.3271799275218
20
56.3551339183517
30
0
41
1
10
37.337276698896
20
56.3488094187774
30
0
41
1
10
37.3474014101328
20
56.342938376602
30
0
41
1
10
37.3575482038859
20
56.3375243125989
30
0
41
1
10
37.3677127900509
20
56.3325634873032
30
0
41
1
10
37.3778203890338
20
56.3280808062202
30
0
41
1
10
37.3878626489348
20
56.3240652235567
30
0
41
1
10
37.3985754105293
20
56.3202404436224
30
0
41
1
10
37.4099377893712
20
56.3167150284229
30
0
41
1
10
37.4219254879013
20
56.3135949600834
30
0
41
1
10
37.4337989962971
20
56.3110838841476
30
0
41
1
10
37.445551154507
20
56.3091577445107
30
0
41
1
10
37.4572380512114
20
56.3077855408914
30
0
41
1
10
37.4688581158838
20
56.3069519985663
30
0
41
1
10
37.4804112084528
20
56.3066426890034
30
0
41
1
10
37.4918383122639
20
56.3068389500768
30
0
41
1
10
37.5031371667029
20
56.3075205432605
30
0
41
1
10
37.5105853677811
20
56.3082781839546
30
0
41
1
10
37.5142877843063
20
56.3087344128697
30
0
0
SPLINE
5
1F0
100
AcDbEntity
8
1
62
256
6
ByLayer
370
18
48
1
60
0
100
AcDbSpline
70
4
71
3
72
101
73
97
40
0
40
0
40
0
40
0
40
0.0239370227384
40
0.047874048938177
40
0.0718110434042387
40
0.0897203021772401
40
0.107629543408838
40
0.125559204051288
40
0.143488838574127
40
0.158413016373829
40
0.173337451151457
40
0.188261795664511
40
0.2031858503739
40
0.215069730580216
40
0.226953984832468
40
0.238838305026959
40
0.250722446828119
40
0.262606232717717
40
0.274490845833004
40
0.286375987249992
40
0.298261253130306
40
0.31014629596534
40
0.322030826395367
40
0.332712928782236
40
0.34339549697754
40
0.35407819720787
40
0.364760721124017
40
0.375442786371922
40
0.385966319969134
40
0.396490338534094
40
0.407014513254514
40
0.417538521298478
40
0.428062046071221
40
0.438585481666005
40
0.449109386672342
40
0.459633454233401
40
0.470157370709074
40
0.480680815923731
40
0.491143928685079
40
0.501607501848361
40
0.512071224643278
40
0.522534790455214
40
0.532997897050645
40
0.543394776041475
40
0.553792130541249
40
0.564189631094157
40
0.574586961859854
40
0.584983820943777
40
0.595380955747015
40
0.605778615094072
40
0.61617642717368
40
0.626574044367018
40
0.636971143813753
40
0.647264025150709
40
0.657557492094295
40
0.667851121165364
40
0.678144525040313
40
0.68843735347801
40
0.698708618181768
40
0.708980579944704
40
0.719252724823625
40
0.729524592637262
40
0.739795778539543
40
0.748271249889734
40
0.756747198091747
40
0.76522327214774
40
0.773699157218806
40
0.782174575617514
40
0.790632114991488
40
0.799090239370156
40
0.807548512212068
40
0.816006547763748
40
0.824464012632576
40
0.833604969356123
40
0.842746877593365
40
0.851889009651157
40
0.861030739476942
40
0.870171546549734
40
0.877381951809704
40
0.884593208821549
40
0.891804818141855
40
0.899016339294989
40
0.906227392832553
40
0.913437662427618
40
0.920649739129276
40
0.927862987127149
40
0.935076713408405
40
0.942290310792271
40
0.949503261311432
40
0.956715139663101
40
0.96392819284706
40
0.971142620584606
40
0.978357693375996
40
0.985572715187635
40
0.992787025268537
40
1
40
1
40
1
40
1
41
1
10
33.4914396203451
20
59.0731916595945
30
0
41
1
10
33.4855714644533
20
59.0982740228318
30
0
41
1
10
33.473836551016
20
59.1484388783903
30
0
41
1
10
33.4561095465938
20
59.2236751101313
30
0
41
1
10
33.4401104274919
20
59.2926172948137
30
0
41
1
10
33.4259472397162
20
59.3552745155148
30
0
41
1
10
33.4136098004861
20
59.411667238885
30
0
41
1
10
33.4017817767062
20
59.4681246474328
30
0
41
1
10
33.3911984198532
20
59.5214960215771
30
0
41
1
10
33.3818376812357
20
59.5717564380071
30
0
41
1
10
33.3736316455331
20
59.6188990983101
30
0
41
1
10
33.3660481012583
20
59.6660879892761
30
0
41
1
10
33.3596128787056
20
59.7101176084739
30
0
41
1
10
33.3542185516247
20
59.7509788667203
30
0
41
1
10
33.3497394752356
20
59.7886622883134
30
0
41
1
10
33.3457754737593
20
59.826378385374
30
0
41
1
10
33.342350488788
20
59.8641263053138
30
0
41
1
10
33.3394882285926
20
59.9019065533309
30
0
41
1
10
33.3372128732368
20
59.9397193745275
30
0
41
1
10
33.335541994676
20
59.9775642140761
30
0
41
1
10
33.3344929722067
20
60.0154387116326
30
0
41
1
10
33.3340832629791
20
60.0533403352564
30
0
41
1
10
33.3343220669727
20
60.0899882810437
30
0
41
1
10
33.3351493738431
20
60.1253786338264
30
0
41
1
10
33.3364987571894
20
60.1595078424581
30
0
41
1
10
33.3384078739148
20
60.1936539013212
30
0
41
1
10
33.3408844776694
20
60.2278140755086
30
0
41
1
10
33.3439208623763
20
60.2618173375146
30
0
41
1
10
33.3475161805888
20
60.2956623014653
30
0
41
1
10
33.3516631887587
20
60.3293474473679
30
0
41
1
10
33.3563810541651
20
60.3630396622698
30
0
41
1
10
33.3616708897123
20
60.3967358655428
30
0
41
1
10
33.3675354804413
20
60.4304337298972
30
0
41
1
10
33.37397167798
20
60.4641318341854
30
0
41
1
10
33.3809721633641
20
60.4978288319352
30
0
41
1
10
33.388535755042
20
60.5315226454264
30
0
41
1
10
33.3966594475454
20
60.5652102800774
30
0
41
1
10
33.4053242647146
20
60.5988252312894
30
0
41
1
10
33.4145244532559
20
60.6323662623092
30
0
41
1
10
33.4242572090297
20
60.6658321360472
30
0
41
1
10
33.4345407452304
20
60.6992850493253
30
0
41
1
10
33.4453754506523
20
60.7327220291813
30
0
41
1
10
33.4567379359955
20
60.7660704003086
30
0
41
1
10
33.4686251768133
20
60.7993289522689
30
0
41
1
10
33.4810365500632
20
60.8324963737182
30
0
41
1
10
33.4940003905948
20
60.8656408050977
30
0
41
1
10
33.5075195508846
20
60.8987590494704
30
0
41
1
10
33.5215973509971
20
60.9318490068308
30
0
41
1
10
33.5362374230323
20
60.9649091290735
30
0
41
1
10
33.5514457171618
20
60.9979376063372
30
0
41
1
10
33.5672277291507
20
61.030931385754
30
0
41
1
10
33.5835886430775
20
61.0638867325637
30
0
41
1
10
33.6004774859799
20
61.0966907992837
30
0
41
1
10
33.617893504144
20
61.129342116076
30
0
41
1
10
33.6358382041413
20
61.1618389195406
30
0
41
1
10
33.6543781301528
20
61.1942876856508
30
0
41
1
10
33.6735206332308
20
61.2266839658425
30
0
41
1
10
33.6932598774623
20
61.259001652335
30
0
41
1
10
33.713602897551
20
61.2912383860916
30
0
41
1
10
33.7345594044542
20
61.3233912446252
30
0
41
1
10
33.7561543239118
20
61.3554784320786
30
0
41
1
10
33.7783974947937
20
61.3874942823803
30
0
41
1
10
33.7999648811255
20
61.4175729202036
30
0
41
1
10
33.8207379466813
20
61.4457258426994
30
0
41
1
10
33.8406056055857
20
61.471965245644
30
0
41
1
10
33.8609457412304
20
61.4981449783825
30
0
41
1
10
33.8817653521269
20
61.5242609346573
30
0
41
1
10
33.903057059489
20
61.5502914061874
30
0
41
1
10
33.9248278833524
20
61.5762339837654
30
0
41
1
10
33.9470866249129
20
61.6020856945312
30
0
41
1
10
33.9698579963116
20
61.6278606031838
30
0
41
1
10
33.9931504157734
20
61.6535534255423
30
0
41
1
10
34.0176149100553
20
61.6798494820794
30
0
41
1
10
34.043313831228
20
61.7067369007302
30
0
41
1
10
34.0703164977886
20
61.7342010457031
30
0
41
1
10
34.0979806588367
20
61.76154747727
30
0
41
1
10
34.1263191038606
20
61.7887672080813
30
0
41
1
10
34.1533028587706
20
61.8139460059059
30
0
41
1
10
34.1787843120599
20
61.8371097902453
30
0
41
1
10
34.2026266483323
20
61.8582849830406
30
0
41
1
10
34.2269264134996
20
61.8793645736832
30
0
41
1
10
34.251691006741
20
61.9003424708171
30
0
41
1
10
34.2769279098644
20
61.9212125528178
30
0
41
1
10
34.3026476621186
20
61.9419715033805
30
0
41
1
10
34.3288617523617
20
61.9626152226758
30
0
41
1
10
34.355582843816
20
61.9831385605986
30
0
41
1
10
34.3828182972526
20
62.003533348464
30
0
41
1
10
34.4105756949292
20
62.0237911884571
30
0
41
1
10
34.4388622823022
20
62.0439037732865
30
0
41
1
10
34.4676896992278
20
62.0638649044901
30
0
41
1
10
34.4970669561235
20
62.0836696700332
30
0
41
1
10
34.5269926056618
20
62.1033155962337
30
0
41
1
10
34.5574647531893
20
62.1227964418965
30
0
41
1
10
34.5884792316715
20
62.1421051539612
30
0
41
1
10
34.6200322554915
20
62.161235342187
30
0
41
1
10
34.6414262989413
20
62.1738652225172
30
0
41
1
10
34.6522123997531
20
62.1801493108883
30
0
0
SPLINE
5
1F1
100
AcDbEntity
8
1
62
256
6
ByLayer
370
18
48
1
60
0
100
AcDbSpline
70
4
71
3
72
101
73
97
40
0
40
0
40
0
40
0
40
0.022219077290709
40
0.0444393852036923
40
0.0666594555191266
40
0.0888782087945837
40
0.105909476380188
40
0.12294208488427
40
0.139974938357869
40
0.157007160065508
40
0.174038103216233
40
0.191073295463077
40
0.208110587556701
40
0.225148242915271
40
0.242184889705303
40
0.259219540664723
40
0.273420763458945
40
0.287624690701127
40
0.301829604174216
40
0.316034076255551
40
0.330236984809971
40
0.344437528357797
40
0.35772294545455
40
0.371009867185368
40
0.384296565074423
40
0.397581676896893
40
0.41003216596621
40
0.422484351890218
40
0.434936288640831
40
0.447386437880692
40
0.459840355034537
40
0.472296616876156
40
0.484752508817336
40
0.497205921463799
40
0.50717293358914
40
0.517142633430358
40
0.527112882959196
40
0.537081918827729
40
0.547048373925576
40
0.557242801478937
40
0.567439817809724
40
0.577636435766829
40
0.587830319941523
40
0.597442602621791
40
0.607054808163478
40
0.616850830340291
40
0.626646751608807
40
0.634413892147179
40
0.642184549972382
40
0.649955957054991
40
0.65772580133233
40
0.665492259236995
40
0.672570474622584
40
0.679652355474663
40
0.686735073420526
40
0.693816213727264
40
0.700893807693879
40
0.707831793669961
40
0.714774308077452
40
0.721717941839552
40
0.728659702607666
40
0.735597056092047
40
0.742995821053906
40
0.750401310311875
40
0.757808665215532
40
0.765213418727194
40
0.77261156605558
40
0.779782863217843
40
0.78696079280731
40
0.794140911439216
40
0.801318779109316
40
0.808490024291216
40
0.815842661979119
40
0.82320194759452
40
0.830563806694613
40
0.837923748773981
40
0.845276937546308
40
0.852439199190922
40
0.859606431386556
40
0.866775809005183
40
0.873943952321418
40
0.881106978669806
40
0.889290608049627
40
0.897479549871064
40
0.905671039655816
40
0.913861434220206
40
0.922046282837868
40
0.928509211916112
40
0.934972849525625
40
0.941435880745957
40
0.951236334179226
40
0.961036915245824
40
0.970775984505029
40
0.980517868736364
40
0.99026025117592
40
1
40
1
40
1
40
1
41
1
10
35.6728360910416
20
59.2001059148444
30
0
41
1
10
35.6573281774205
20
59.1934304020132
30
0
41
1
10
35.6261782530429
20
59.1801472885668
30
0
41
1
10
35.5790608878177
20
59.1604213268997
30
0
41
1
10
35.5315289886431
20
59.1409123797744
30
0
41
1
10
35.4873020888086
20
59.1231332786216
30
0
41
1
10
35.4464770804268
20
59.1070360103019
30
0
41
1
10
35.409144247545
20
59.0925728073249
30
0
41
1
10
35.3715325178853
20
59.078268519435
30
0
41
1
10
35.3336355234466
20
59.0641323523185
30
0
41
1
10
35.2954424280845
20
59.0501719299923
30
0
41
1
10
35.2569438626412
20
59.0363954180965
30
0
41
1
10
35.2181284741852
20
59.0228136347843
30
0
41
1
10
35.1789907097552
20
59.009439654926
30
0
41
1
10
35.1395250285453
20
58.9962865133045
30
0
41
1
10
35.1019304240399
20
58.9840829060965
30
0
41
1
10
35.0662610280159
20
58.9727952681155
30
0
41
1
10
35.0325676360895
20
58.9623899494631
30
0
41
1
10
34.998621223196
20
58.9521726714033
30
0
41
1
10
34.9644206193246
20
58.9421541254733
30
0
41
1
10
34.9299646349017
20
58.932345045269
30
0
41
1
10
34.8959955335266
20
58.9229613931286
30
0
41
1
10
34.8625276780828
20
58.9139963685435
30
0
41
1
10
34.8295750084934
20
58.9054435811015
30
0
41
1
10
34.7963856555723
20
58.8971126832579
30
0
41
1
10
34.7636594849551
20
58.8891844693141
30
0
41
1
10
34.7314117654361
20
58.8816522260052
30
0
41
1
10
34.6996573292814
20
58.8745092544053
30
0
41
1
10
34.6676931152193
20
58.8676023138505
30
0
41
1
10
34.635518481116
20
58.860942403146
30
0
41
1
10
34.6031333252568
20
58.8545408025927
30
0
41
1
10
34.5705384985181
20
58.8484109210377
30
0
41
1
10
34.5377428994125
20
58.8425679669973
30
0
41
1
10
34.5069487328358
20
58.8373955961672
30
0
41
1
10
34.4782019962468
20
58.8328389483482
30
0
41
1
10
34.4515410373526
20
58.8288433434907
30
0
41
1
10
34.4247646624934
20
58.825068563135
30
0
41
1
10
34.3978828753
20
58.8215248918041
30
0
41
1
10
34.3706968638264
20
58.8181970100226
30
0
41
1
10
34.3432079633973
20
58.8151014940763
30
0
41
1
10
34.3154204206826
20
58.8122575824836
30
0
41
1
10
34.2875535033188
20
58.8097017846422
30
0
41
1
10
34.260152761731
20
58.8074905192944
30
0
41
1
10
34.2332355082974
20
58.8056170959546
30
0
41
1
10
34.2066473764728
20
58.8040642063174
30
0
41
1
10
34.1798710580935
20
58.802814853569
30
0
41
1
10
34.1547843565008
20
58.8019544060711
30
0
41
1
10
34.1315697839106
20
58.801426978431
30
0
41
1
10
34.1102337039524
20
58.8011687142314
30
0
41
1
10
34.0889313424853
20
58.8011454029589
30
0
41
1
10
34.0676830352978
20
58.8013653186725
30
0
41
1
10
34.0471302614919
20
58.8018227613475
30
0
41
1
10
34.027277227624
20
58.8025005773427
30
0
41
1
10
34.0081257059216
20
58.8033797465473
30
0
41
1
10
33.9890688013412
20
58.8044874473118
30
0
41
1
10
33.9701290256095
20
58.8058295489982
30
0
41
1
10
33.9514479156211
20
58.8074016722739
30
0
41
1
10
33.9330358278729
20
58.8092056313786
30
0
41
1
10
33.9149030394922
20
58.8112403972662
30
0
41
1
10
33.8969471844772
20
58.8135217068244
30
0
41
1
10
33.8791960363743
20
58.8160528496879
30
0
41
1
10
33.8612832156533
20
58.8188993137409
30
0
41
1
10
33.8432446962006
20
58.8220882647572
30
0
41
1
10
33.8251202820433
20
58.8256420092944
30
0
41
1
10
33.8073199354161
20
58.829492199537
30
0
41
1
10
33.7898811986703
20
58.8336367860017
30
0
41
1
10
33.7730077061084
20
58.8380302019729
30
0
41
1
10
33.756708888976
20
58.8426647124468
30
0
41
1
10
33.7409819293716
20
58.8475250554319
30
0
41
1
10
33.7256771454294
20
58.8526527673061
30
0
41
1
10
33.7108232777712
20
58.8580387939088
30
0
41
1
10
33.696320632146
20
58.8637244788366
30
0
41
1
10
33.6821991653299
20
58.8697143474437
30
0
41
1
10
33.6684756060219
20
58.8760052849645
30
0
41
1
10
33.6552767466071
20
58.8825353769716
30
0
41
1
10
33.642618760379
20
58.8892894150177
30
0
41
1
10
33.6306166538965
20
58.8961959427466
30
0
41
1
10
33.6192578389914
20
58.9032404903481
30
0
41
1
10
33.6085156852836
20
58.9104063748134
30
0
41
1
10
33.598287680468
20
58.9177435496424
30
0
41
1
10
33.5885743613055
20
58.9252373601452
30
0
41
1
10
33.5789359941405
20
58.9332393933029
30
0
41
1
10
33.5694519290267
20
58.9417659262364
30
0
41
1
10
33.5601942224115
20
58.9508282651766
30
0
41
1
10
33.5515589361967
20
58.9600417456275
30
0
41
1
10
33.5435331987072
20
58.9693885916217
30
0
41
1
10
33.5366225257206
20
58.9781916989176
30
0
41
1
10
33.530676395387
20
58.9864142415869
30
0
41
1
10
33.5255627011977
20
58.9940295482049
30
0
41
1
10
33.5199655959777
20
59.0030239158176
30
0
41
1
10
33.5141029628441
20
59.0134296574295
30
0
41
1
10
33.5082261344027
20
59.0252505195607
30
0
41
1
10
33.5030475983499
20
59.037140949168
30
0
41
1
10
33.4985317739052
20
59.0490881999263
30
0
41
1
10
33.4946423751698
20
59.0611064332102
30
0
41
1
10
33.4924404816037
20
59.0691567337603
30
0
41
1
10
33.491439620345
20
59.0731916595945
30
0
0
SPLINE
5
1F2
100
AcDbEntity
8
1
62
256
6
ByLayer
370
18
48
1
60
0
100
AcDbSpline
70
4
71
3
72
20
73
16
40
0
40
0
40
0
40
0
40
0.0850452133527891
40
0.161320285304765
40
0.237595706061923
40
0.313870810816953
40
0.39013460746132
40
0.466398713887395
40
0.542662520172219
40
0.61889149606891
40
0.695120771985809
40
0.771349729591718
40
0.847566408442449
40
0.923783410939291
40
1
40
1
40
1
40
1
41
1
10
36.9316335033179
20
59.7695862843973
30
0
41
1
10
36.8968288097974
20
59.753035949064
30
0
41
1
10
36.8306587772577
20
59.721709268937
30
0
41
1
10
36.7327780479914
20
59.6757603739254
30
0
41
1
10
36.6381399444186
20
59.6316753464047
30
0
41
1
10
36.5431438508243
20
59.5877581251142
30
0
41
1
10
36.4477996669787
20
59.5440056934352
30
0
41
1
10
36.3521113317215
20
59.5004176264442
30
0
41
1
10
36.2560925756664
20
59.4569980065622
30
0
41
1
10
36.1597476918538
20
59.4137462062518
30
0
41
1
10
36.0630745204329
20
59.3706646630508
30
0
41
1
10
35.9660600398183
20
59.3277522432751
30
0
41
1
10
35.8687040848856
20
59.2850105544749
30
0
41
1
10
35.7709937861734
20
59.2424472509135
30
0
41
1
10
35.7055970794257
20
59.2141990022574
30
0
41
1
10
35.6728360910416
20
59.2001059148444
30
0
0
SPLINE
5
1F3
100
AcDbEntity
8
1
62
256
6
ByLayer
370
18
48
1
60
0
100
AcDbSpline
70
4
71
1
72
4
73
2
40
0
40
0
40
1
40
1
41
1
10
32.5753472294184
20
44.340101502774
30
0
41
1
10
32.5781410211768
20
44.3441708678382
30
0
0
SPLINE
5
1F4
100
AcDbEntity
8
1
62
256
6
ByLayer
370
18
48
1
60
0
100
AcDbSpline
70
4
71
3
72
78
73
74
40
0
40
0
40
0
40
0
40
0.0158442305972393
40
0.0316900111052897
40
0.0475363156653897
40
0.0633821093119459
40
0.0792263509296529
40
0.0950193119515712
40
0.110813805120413
40
0.1266088056959
40
0.142403291621854
40
0.158196246568507
40
0.174148568711087
40
0.190103049782655
40
0.206058588183406
40
0.222014098379469
40
0.237968514358916
40
0.253920793100897
40
0.269089038668854
40
0.284259242552022
40
0.299430389892879
40
0.314601493270486
40
0.329771595693504
40
0.3449397736127
40
0.360108852391912
40
0.375280048594341
40
0.390452250368956
40
0.405624387349345
40
0.42079543401631
40
0.435964413091463
40
0.451134601234909
40
0.466307120196098
40
0.481480736044379
40
0.49665426868656
40
0.511826595619116
40
0.526996655724068
40
0.538939113732815
40
0.550882175253704
40
0.562825221670582
40
0.574767659081904
40
0.586690083070825
40
0.59861314081992
40
0.61053618310407
40
0.622458586003305
40
0.637300741990254
40
0.652145570473119
40
0.666991665530145
40
0.681837675958606
40
0.696682309127387
40
0.71152433488178
40
0.726382547150876
40
0.741241453579289
40
0.756099646108834
40
0.767244002450476
40
0.778388971000685
40
0.789533931502559
40
0.800678276868597
40
0.811812772221236
40
0.822947893670536
40
0.834083009370522
40
0.845217496882745
40
0.856331765014871
40
0.867446665940826
40
0.878561563810509
40
0.88967582777476
40
0.903485117181378
40
0.917295628078515
40
0.931106139454177
40
0.944915429513382
40
0.958685965608801
40
0.972457704028045
40
0.98622945152492
40
1
40
1
40
1
40
1
41
1
10
28.4285870367679
20
40.7054953458992
30
0
41
1
10
28.4469342429852
20
40.7083147173038
30
0
41
1
10
28.4835648016883
20
40.7141674664625
30
0
41
1
10
28.5383167324245
20
40.7235874941209
30
0
41
1
10
28.5928703802008
20
40.7336502882539
30
0
41
1
10
28.6472191711872
20
40.7443565223279
30
0
41
1
10
28.7013006364485
20
40.7556954005998
30
0
41
1
10
28.7551144979267
20
40.7676666891133
30
0
41
1
10
28.8086608444361
20
40.7802698938089
30
0
41
1
10
28.8619941711462
20
40.7935194466313
30
0
41
1
10
28.9151078891844
20
40.8074161987222
30
0
41
1
10
28.9681761569196
20
40.8220106743522
30
0
41
1
10
29.0211959854851
20
40.8373134524192
30
0
41
1
10
29.0741644937764
20
40.8533348562975
30
0
41
1
10
29.1269013695217
20
40.8700256368182
30
0
41
1
10
29.1793997826819
20
40.8873866515836
30
0
41
1
10
29.2316529046298
20
40.905418751926
30
0
41
1
10
29.2828054040166
20
40.9238175864917
30
0
41
1
10
29.3328710092295
20
40.9425483907026
30
0
41
1
10
29.3818640798465
20
40.9615765507583
30
0
41
1
10
29.430629545776
20
40.9812209977272
30
0
41
1
10
29.479161150448
20
41.0014822206716
30
0
41
1
10
29.5274526300304
20
41.0223607130751
30
0
41
1
10
29.5755016446953
20
41.0438586886173
30
0
41
1
10
29.6233079234126
20
41.0659797242981
30
0
41
1
10
29.6708712345375
20
41.0887266575037
30
0
41
1
10
29.7181870653493
20
41.1121004470267
30
0
41
1
10
29.7652484146257
20
41.1361009329172
30
0
41
1
10
29.8120482803223
20
41.1607279604185
30
0
41
1
10
29.8585839626539
20
41.1859836562724
30
0
41
1
10
29.904854655746
20
41.2118717416451
30
0
41
1
10
29.9508595318865
20
41.2383947298135
30
0
41
1
10
29.9965930101259
20
41.2655525260936
30
0
41
1
10
30.0420470613504
20
41.2933437326461
30
0
41
1
10
30.0872136437485
20
41.3217668939249
30
0
41
1
10
30.1289056353676
20
41.3487622495508
30
0
41
1
10
30.1671880495654
20
41.3741831028836
30
0
41
1
10
30.2021228626477
20
41.3978968498802
30
0
41
1
10
30.2368705759751
20
41.4220037488616
30
0
41
1
10
30.2714086879164
20
41.4464895076644
30
0
41
1
10
30.305735444302
20
41.4713536633633
30
0
41
1
10
30.3398491349216
20
41.4965951856917
30
0
41
1
10
30.3737655823753
20
41.5222269198805
30
0
41
1
10
30.410233558311
20
41.5503716835775
30
0
41
1
10
30.4491905419041
20
41.5811504732536
30
0
41
1
10
30.4905642942531
20
41.6146928566778
30
0
41
1
10
30.5316155283864
20
41.6488361169137
30
0
41
1
10
30.5723345640565
20
41.6835743946738
30
0
41
1
10
30.6127117852929
20
41.7189017411271
30
0
41
1
10
30.652755418887
20
41.7548285160718
30
0
41
1
10
30.6924604805416
20
41.7913537020146
30
0
41
1
10
30.7318222850787
20
41.8284742160755
30
0
41
1
10
30.7675708771037
20
41.8630315339239
30
0
41
1
10
30.7997996426001
20
41.894865554595
30
0
41
1
10
30.8285956202473
20
41.923837351742
30
0
41
1
10
30.8571775872457
20
41.9531264577955
30
0
41
1
10
30.885533889884
20
41.9827211371415
30
0
41
1
10
30.9136624139188
20
42.0126191702379
30
0
41
1
10
30.941561260758
20
42.0428177193577
30
0
41
1
10
30.9692354906404
20
42.0733220076852
30
0
41
1
10
30.996665211945
20
42.1041098102841
30
0
41
1
10
31.0238485968752
20
42.1351781158155
30
0
41
1
10
31.0507840859237
20
42.1665233170737
30
0
41
1
10
31.0774850317242
20
42.1981601661393
30
0
41
1
10
31.106087169401
20
42.2326648523426
30
0
41
1
10
31.136516264443
20
42.2701215664157
30
0
41
1
10
31.1686883568162
20
42.3106175467445
30
0
41
1
10
31.2004806927762
20
42.3515378598129
30
0
41
1
10
31.2318581558834
20
42.3928350671724
30
0
41
1
10
31.2628180575827
20
42.4345016699495
30
0
41
1
10
31.2933584136225
20
42.4765287972149
30
0
41
1
10
31.3235036480876
20
42.5189467882645
30
0
41
1
10
31.3433328265723
20
42.5474780299335
30
0
41
1
10
31.3531804800031
20
42.5618069010791
30
0
0
SPLINE
5
1F5
100
AcDbEntity
8
1
62
256
6
ByLayer
370
18
48
1
60
0
100
AcDbSpline
70
4
71
3
72
44
73
40
40
0
40
0
40
0
40
0
40
0.0078238092097112
40
0.0417616298308686
40
0.0757064450469161
40
0.109654693489436
40
0.14360286043267
40
0.177547487554122
40
0.211485182753162
40
0.245679832954604
40
0.279881879391332
40
0.314087554377074
40
0.348293140573978
40
0.382494982091348
40
0.41668949565048
40
0.416717915726787
40
0.417030535684596
40
0.417513675611292
40
0.417996815537996
40
0.418309435495813
40
0.418337855572127
40
0.45227808921701
40
0.486225790167226
40
0.520177159722352
40
0.554128445543392
40
0.58807595323985
40
0.622016058020686
40
0.658694457105166
40
0.69538255958278
40
0.732075441902837
40
0.768768228500337
40
0.805456110050602
40
0.84213436181136
40
0.868428632729806
40
0.894723806501343
40
0.921018072294191
40
0.947345078617442
40
0.973672997634638
40
1
40
1
40
1
40
1
41
1
10
27.4342808270552
20
40.313050932064
30
0
41
1
10
27.4366768654126
20
40.3146524904955
30
0
41
1
10
27.4494784968363
20
40.323178989742
30
0
41
1
10
27.4728049687487
20
40.3384219887832
30
0
41
1
10
27.5044329865483
20
40.3584513984542
30
0
41
1
10
27.536309252083
20
40.3780049782165
30
0
41
1
10
27.5684228413909
20
40.3970757510215
30
0
41
1
10
27.6007634049303
20
40.4156570382507
30
0
41
1
10
27.6334042823187
20
40.4337889190466
30
0
41
1
10
27.6663485455125
20
40.4514655655535
30
0
41
1
10
27.6995738316685
20
40.4686727131923
30
0
41
1
10
27.7330600181661
20
40.4853908296615
30
0
41
1
10
27.7665293526146
20
40.5015056403478
30
0
41
1
10
27.8009607140947
20
40.5174147265294
30
0
41
1
10
27.8220948538476
20
40.5268807611649
30
0
41
1
10
27.8346232561659
20
40.532315676423
30
0
41
1
10
27.8340196100357
20
40.5320525209702
30
0
41
1
10
27.8337248983835
20
40.5319235084417
30
0
41
1
10
27.8334300077139
20
40.53179506605
30
0
41
1
10
27.8328266000549
20
40.5315311510905
30
0
41
1
10
27.8452431762185
20
40.536988412207
30
0
41
1
10
27.8663502357887
20
40.5459705802395
30
0
41
1
10
27.9010033741092
20
40.560241010306
30
0
41
1
10
27.9350433370102
20
40.573627157168
30
0
41
1
10
27.9694248576455
20
40.5865756745574
30
0
41
1
10
28.0038756294163
20
40.5989607984912
30
0
41
1
10
28.0393856780713
20
40.6111301461972
30
0
41
1
10
28.0759421324996
20
40.6230200491453
30
0
41
1
10
28.1135524823818
20
40.6345778894865
30
0
41
1
10
28.1512697675928
20
40.6454972345641
30
0
41
1
10
28.1890767769826
20
40.6557742015067
30
0
41
1
10
28.2269557398392
20
40.6654047703532
30
0
41
1
10
28.2613142219079
20
40.6735383947282
30
0
41
1
10
28.2921252670985
20
40.6803706014675
30
0
41
1
10
28.319373776366
20
40.6860739285117
30
0
41
1
10
28.3466502768126
20
40.6914446870424
30
0
41
1
10
28.3739498043604
20
40.6964818687757
30
0
41
1
10
28.4012679657055
20
40.7011849011483
30
0
41
1
10
28.4194804808998
20
40.7040959273242
30
0
41
1
10
28.4285870367679
20
40.7054953458992
30
0
0
SPLINE
5
1F6
100
AcDbEntity
8
1
62
256
6
ByLayer
370
18
48
1
60
0
100
AcDbSpline
70
4
71
3
72
57
73
53
40
0
40
0
40
0
40
0
40
0.0189908690072127
40
0.0379832118064382
40
0.0569760875752014
40
0.0759685089538367
40
0.0949594438714942
40
0.113949769289046
40
0.132941456589638
40
0.151933637954674
40
0.170925400857618
40
0.189915789688165
40
0.208905594596829
40
0.227896654397864
40
0.246888170635798
40
0.265879302370362
40
0.28486916761438
40
0.304322698135509
40
0.323777467591449
40
0.343232689565755
40
0.362687533616606
40
0.382141126705215
40
0.401821571826116
40
0.421503191091892
40
0.441185240341384
40
0.46086693245428
40
0.480547438676432
40
0.500227388289155
40
0.519908410598495
40
0.53958982615844
40
0.559270915831805
40
0.578950921946484
40
0.598630414615066
40
0.618310886512033
40
0.637991717597528
40
0.657672251390128
40
0.677351795973778
40
0.697395794511418
40
0.717440736420445
40
0.737486024998644
40
0.757531027742202
40
0.777575077304762
40
0.799797906181782
40
0.822021900048909
40
0.844246326243598
40
0.866470403179835
40
0.888693301731394
40
0.910953901442026
40
0.933215557869987
40
0.955477606185447
40
0.977739337488172
40
1
40
1
40
1
40
1
41
1
10
9.79437718902783
20
21.9931706232847
30
0
41
1
10
9.78461957755719
20
22.0114472091642
30
0
41
1
10
9.7653297835073
20
22.0480257030196
30
0
41
1
10
9.73707484797083
20
22.1029708686809
30
0
41
1
10
9.70949419547962
20
22.1579802795715
30
0
41
1
10
9.68258587129667
20
22.2130426174025
30
0
41
1
10
9.65634651695059
20
22.2681471552106
30
0
41
1
10
9.63077156847136
20
22.3232864960256
30
0
41
1
10
9.60585553440116
20
22.3784536803968
30
0
41
1
10
9.5815939031564
20
22.4336401970751
30
0
41
1
10
9.55798339364416
20
22.4888348217073
30
0
41
1
10
9.53502002485619
20
22.5440280654338
30
0
41
1
10
9.51269872192736
20
22.5992132180296
30
0
41
1
10
9.49101369169394
20
22.6543841415272
30
0
41
1
10
9.46995993440686
20
22.7095332484534
30
0
41
1
10
9.44953344769998
20
22.7646504395025
30
0
41
1
10
9.4295683091744
20
22.8201759797321
30
0
41
1
10
9.41007678844133
20
22.8761027048107
30
0
41
1
10
9.39107040336772
20
22.9324234084284
30
0
41
1
10
9.37269969557698
20
22.9886824629702
30
0
41
1
10
9.35495976724259
20
23.044870197769
30
0
41
1
10
9.33777857706046
20
23.1011971162443
30
0
41
1
10
9.32115851136184
20
23.1576565184599
30
0
41
1
10
9.30510133506584
20
23.2142420628048
30
0
41
1
10
9.28966511602509
20
23.2707289677899
30
0
41
1
10
9.27484433350837
20
23.3271084147363
30
0
41
1
10
9.2606331212488
20
23.3833730112179
30
0
41
1
10
9.24702505183232
20
23.4395177727846
30
0
41
1
10
9.23401335750231
20
23.4955383547832
30
0
41
1
10
9.22159171508997
20
23.5514292144121
30
0
41
1
10
9.20975430966678
20
23.6071826555005
30
0
41
1
10
9.1984950791813
20
23.662792264054
30
0
41
1
10
9.18780756258953
20
23.7182538052347
30
0
41
1
10
9.17768507814662
20
23.7735636427763
30
0
41
1
10
9.16812128469635
20
23.8287170557544
30
0
41
1
10
9.15911020471185
20
23.883707378463
30
0
41
1
10
9.15059337352407
20
23.9388679505991
30
0
41
1
10
9.14257612009939
20
23.9941915418632
30
0
41
1
10
9.13506339207645
20
24.0496711531966
30
0
41
1
10
9.1280975081437
20
24.104964775264
30
0
41
1
10
9.12167209214421
20
24.1600663602517
30
0
41
1
10
9.11556715217036
20
24.2169607042024
30
0
41
1
10
9.10984497169892
20
24.2756189295634
30
0
41
1
10
9.10456855922637
20
24.3360098643755
30
0
41
1
10
9.09992243288268
20
24.3961465232855
30
0
41
1
10
9.09589794757375
20
24.4560219374794
30
0
41
1
10
9.09248443978322
20
24.5156646871346
30
0
41
1
10
9.08967431646457
20
24.5750708447227
30
0
41
1
10
9.0874600544071
20
24.6342372005724
30
0
41
1
10
9.08583441051388
20
24.6931257693794
30
0
41
1
10
9.08478974266285
20
24.7517311428261
30
0
41
1
10
9.08447270747089
20
24.7906091210497
30
0
41
1
10
9.08440969631909
20
24.81
30
0
0
SPLINE
5
1F7
100
AcDbEntity
8
1
62
256
6
ByLayer
370
18
48
1
60
0
100
AcDbSpline
70
4
71
3
72
64
73
60
40
0
40
0
40
0
40
0
40
0.0155787558836183
40
0.0339615939911186
40
0.052347457372222
40
0.0707342109974383
40
0.0891198479539421
40
0.107502496125874
40
0.124832951813063
40
0.142166210091268
40
0.159500309313506
40
0.176833388775487
40
0.194163694463657
40
0.211495361084887
40
0.228830083254565
40
0.24616573639726
40
0.263500290357705
40
0.280831815875461
40
0.298164557777623
40
0.315500582791677
40
0.332837626932835
40
0.350173506877372
40
0.367506127085354
40
0.386959387992379
40
0.406417562968064
40
0.425877289428638
40
0.445335295832385
40
0.464788415320883
40
0.482816551108925
40
0.500848735920221
40
0.518882238593084
40
0.536914359937082
40
0.554942442482547
40
0.572970697753965
40
0.591003041077954
40
0.609036750324376
40
0.627069096669656
40
0.645097354475636
40
0.663125258907194
40
0.681157192983474
40
0.699190508318806
40
0.717222511529495
40
0.735250473957737
40
0.753196584936816
40
0.771146525207696
40
0.789097809055693
40
0.807047873898561
40
0.82499408937973
40
0.839523910089654
40
0.854054390857341
40
0.868584226921126
40
0.883222774424274
40
0.897861976429157
40
0.912500541470397
40
0.929998275998113
40
0.947499121685608
40
0.965001097806604
40
0.982502118590775
40
1
40
1
40
1
40
1
41
1
10
39.4119688697132
20
61.2270201356984
30
0
41
1
10
39.4160565945037
20
61.2173923395825
30
0
41
1
10
39.4249145893738
20
61.196361598414
30
0
41
1
10
39.4383913826338
20
61.163801344184
30
0
41
1
10
39.4523825485944
20
61.129337464368
30
0
41
1
10
39.4661612161275
20
61.0947200503098
30
0
41
1
10
39.4797203701967
20
61.0599589142679
30
0
41
1
10
39.4927999500332
20
61.0257265044456
30
0
41
1
10
39.5054102187807
20
60.9920355210099
30
0
41
1
10
39.517562547121
20
60.9588978483604
30
0
41
1
10
39.5295023748664
20
60.9256518718146
30
0
41
1
10
39.5412238540713
20
60.8923073052909
30
0
41
1
10
39.5527224311165
20
60.8588701601383
30
0
41
1
10
39.5639940711358
20
60.8253443106256
30
0
41
1
10
39.5750353670091
20
60.791734371006
30
0
41
1
10
39.5858414798131
20
60.7580490752562
30
0
41
1
10
39.596406700995
20
60.7242996723286
30
0
41
1
10
39.6067265486003
20
60.6904934688784
30
0
41
1
10
39.6167970716902
20
60.6566352838934
30
0
41
1
10
39.6266152078185
20
60.6227305436051
30
0
41
1
10
39.63617655053
20
60.588788984182
30
0
41
1
10
39.645475811327
20
60.5548231911715
30
0
41
1
10
39.6548770254502
20
60.5194566189613
30
0
41
1
10
39.6643368298194
20
60.4826923842339
30
0
41
1
10
39.6738094930763
20
60.4445386957727
30
0
41
1
10
39.6829334656491
20
60.4063954758459
30
0
41
1
10
39.6917023811358
20
60.3682820436577
30
0
41
1
10
39.6999057363322
20
60.3311419373818
30
0
41
1
10
39.707569574058
20
60.2949805116178
30
0
41
1
10
39.7147219247463
20
60.2597997731438
30
0
41
1
10
39.7215566415873
20
60.2246829907918
30
0
41
1
10
39.72806993825
20
60.189646051972
30
0
41
1
10
39.7342588066484
20
60.1547004459882
30
0
41
1
10
39.740120734878
20
60.1198535768371
30
0
41
1
10
39.745655071704
20
60.0851123599337
30
0
41
1
10
39.7508602170202
20
60.0504881925253
30
0
41
1
10
39.7557338487183
20
60.015996744736
30
0
41
1
10
39.76027418221
20
59.981649588098
30
0
41
1
10
39.7644798207672
20
59.9474539138356
30
0
41
1
10
39.768351294273
20
59.9134159569111
30
0
41
1
10
39.7718883929226
20
59.8795460092303
30
0
41
1
10
39.7750903731926
20
59.8458587754069
30
0
41
1
10
39.7779524965341
20
59.8124154407918
30
0
41
1
10
39.7804763157623
20
59.7792214898847
30
0
41
1
10
39.7826652145545
20
59.7462809317161
30
0
41
1
10
39.7845240557234
20
59.7135525059609
30
0
41
1
10
39.7860536293608
20
59.6810491675089
30
0
41
1
10
39.7871785280696
20
59.6508274767997
30
0
41
1
10
39.7879686299733
20
59.62284434342
30
0
41
1
10
39.7884881675694
20
59.5970553094453
30
0
41
1
10
39.7887962245901
20
59.5713666038924
30
0
41
1
10
39.7888918917606
20
59.5457834604796
30
0
41
1
10
39.7887746259262
20
59.5203108583584
30
0
41
1
10
39.7884240744334
20
59.4933689038835
30
0
41
1
10
39.7877904601786
20
59.4650032158461
30
0
41
1
10
39.786821670264
20
59.4352651638287
30
0
41
1
10
39.7855571180283
20
59.4057941297946
30
0
41
1
10
39.7839993782895
20
59.3765979524379
30
0
41
1
10
39.7827678007158
20
59.3573212853491
30
0
41
1
10
39.782103597318
20
59.3477300687445
30
0
0
SPLINE
5
1F8
100
AcDbEntity
8
1
62
256
6
ByLayer
370
18
48
1
60
0
100
AcDbSpline
70
4
71
3
72
93
73
89
40
0
40
0
40
0
40
0
40
0.011115132329955
40
0.0222304422620455
40
0.0333458223148789
40
0.0444611528996102
40
0.0555763025514147
40
0.0675094572677821
40
0.07944278243754
40
0.0913761791584595
40
0.10330953216349
40
0.115242710225908
40
0.127181274735548
40
0.139119984618982
40
0.151058748548422
40
0.162997469011373
40
0.174936042394266
40
0.187338590553912
40
0.1997412935187
40
0.212144048671826
40
0.224546752743273
40
0.236949301831097
40
0.249351867811425
40
0.2617545940361
40
0.274157369729258
40
0.286560088447648
40
0.298962648132303
40
0.311365291953841
40
0.323768113953175
40
0.33617098673291
40
0.348573792337539
40
0.360976422408483
40
0.37343419798115
40
0.38589218747293
40
0.398350233279782
40
0.410808194203539
40
0.42326594581552
40
0.433777820715516
40
0.44428985359677
40
0.454801927184499
40
0.465313937281028
40
0.475825793070969
40
0.486343188324176
40
0.496860761084113
40
0.507378397202274
40
0.517895977893798
40
0.528413379799416
40
0.540618245747576
40
0.552823279329867
40
0.565028321598646
40
0.577233199392179
40
0.589437984691168
40
0.601642920591472
40
0.613847863095607
40
0.626052657399929
40
0.638277426912774
40
0.65050233503293
40
0.662727247876087
40
0.674952023829465
40
0.687253079512753
40
0.699554520309157
40
0.711856223068026
40
0.724158061799963
40
0.736459907719999
40
0.748761629290477
40
0.761063092263636
40
0.77336415972392
40
0.785935610480721
40
0.79850720020683
40
0.811078786766842
40
0.82365023320619
40
0.836226289042656
40
0.848802496344584
40
0.861378693786448
40
0.873954736177209
40
0.884452385633072
40
0.894950140447517
40
0.905447883843774
40
0.915945517729217
40
0.926443346402651
40
0.936941318172893
40
0.947439261610891
40
0.957937051648898
40
0.966349549765216
40
0.974762266379243
40
0.983174996267836
40
0.991587598129768
40
1
40
1
40
1
40
1
41
1
10
39.1365956335539
20
51.5940104324204
30
0
41
1
10
39.1288935151096
20
51.5537553978971
30
0
41
1
10
39.1132967626334
20
51.47328501859
30
0
41
1
10
39.089319745641
20
51.3526995348166
30
0
41
1
10
39.0647745751093
20
51.2322350164605
30
0
41
1
10
39.0396710663498
20
51.1118930783905
30
0
41
1
10
39.0133877410887
20
50.9887258916815
30
0
41
1
10
38.9858966027968
20
50.8627415184377
30
0
41
1
10
38.9571731209549
20
50.7339474563796
30
0
41
1
10
38.9278715691932
20
50.6052898933505
30
0
41
1
10
38.8980067838981
20
50.4767692079724
30
0
41
1
10
38.8675881811516
20
50.3483654309831
30
0
41
1
10
38.8366282532918
20
50.2200771143371
30
0
41
1
10
38.8051316574199
20
50.0919045178511
30
0
41
1
10
38.7731093810563
20
49.9638677497741
30
0
41
1
10
38.7405676099388
20
49.8359685303593
30
0
41
1
10
38.7070842673799
20
49.7065525507291
30
0
41
1
10
38.6726415365041
20
49.5756260345084
30
0
41
1
10
38.6372164625571
20
49.44319685478
30
0
41
1
10
38.6012452699768
20
49.3109204610684
30
0
41
1
10
38.5647293906042
20
49.1788000065844
30
0
41
1
10
38.52767005946
20
49.0468376420866
30
0
41
1
10
38.4900680435275
20
48.9150346969828
30
0
41
1
10
38.4519198962162
20
48.7833937889123
30
0
41
1
10
38.4132226344736
20
48.6519185219323
30
0
41
1
10
38.3739734865127
20
48.5206134285134
30
0
41
1
10
38.3341693249475
20
48.3894818391415
30
0
41
1
10
38.2938068102762
20
48.2585264234998
30
0
41
1
10
38.252878740724
20
48.1277512493816
30
0
41
1
10
38.2113782929816
20
47.9971617724141
30
0
41
1
10
38.1692989133746
20
47.8667642519095
30
0
41
1
10
38.1265704449018
20
47.7363710416509
30
0
41
1
10
38.0831827155125
20
47.6059873820269
30
0
41
1
10
38.0391211942099
20
47.4756203785768
30
0
41
1
10
37.9944387378814
20
47.3454701114575
30
0
41
1
10
37.9491245853552
20
47.2155453399942
30
0
41
1
10
37.9055603893751
20
47.0926061731645
30
0
41
1
10
37.8638485044838
20
46.9766177941179
30
0
41
1
10
37.8240847198766
20
46.8675463084012
30
0
41
1
10
37.7838355120895
20
46.7586568391273
30
0
41
1
10
37.7430909638438
20
46.6499568297923
30
0
41
1
10
37.7018369821199
20
46.5414325546968
30
0
41
1
10
37.6600535243634
20
46.4330935608196
30
0
41
1
10
37.6177345252912
20
46.3249442735531
30
0
41
1
10
37.5748943208751
20
46.217004015501
30
0
41
1
10
37.5315372883248
20
46.1092752410847
30
0
41
1
10
37.4853207152644
20
45.9960094974196
30
0
41
1
10
37.4361533981641
20
45.8772467854285
30
0
41
1
10
37.3839450990734
20
45.7530283565736
30
0
41
1
10
37.3310811000655
20
45.6290925203575
30
0
41
1
10
37.2775728473273
20
45.5054393033959
30
0
41
1
10
37.2234307030616
20
45.3820674034664
30
0
41
1
10
37.1686633415605
20
45.2589760038927
30
0
41
1
10
37.1132796551033
20
45.1361649724353
30
0
41
1
10
37.0572580637278
20
45.0135675497821
30
0
41
1
10
37.0006059267343
20
44.891183292401
30
0
41
1
10
36.9433287380365
20
44.7690124495764
30
0
41
1
10
36.8854645124191
20
44.6471222748442
30
0
41
1
10
36.8268982183553
20
44.5252606051572
30
0
41
1
10
36.7676334680925
20
44.4034274153132
30
0
41
1
10
36.7076705424559
20
44.281624203486
30
0
41
1
10
36.6471348630434
20
44.1601046957175
30
0
41
1
10
36.58603049372
20
44.0388716523048
30
0
41
1
10
36.524361333757
20
43.9179279146691
30
0
41
1
10
36.4621313576598
20
43.7972762863237
30
0
41
1
10
36.3993444035708
20
43.6769196413039
30
0
41
1
10
36.3355397813707
20
43.5559792139528
30
0
41
1
10
36.2707043463538
20
43.4344635432517
30
0
41
1
10
36.2048194679717
20
43.3123844129003
30
0
41
1
10
36.1383518468554
20
43.1906241585401
30
0
41
1
10
36.0712911125167
20
43.0691732579108
30
0
41
1
10
36.0036353383038
20
42.9480357131016
30
0
41
1
10
35.9353756902753
20
42.8272196094258
30
0
41
1
10
35.8665115930311
20
42.7067492631317
30
0
41
1
10
35.8008617189209
20
42.5932512216879
30
0
41
1
10
35.7385317660591
20
42.486667343165
30
0
41
1
10
35.6796153289563
20
42.3869446916144
30
0
41
1
10
35.6202417497938
20
42.2874949011445
30
0
41
1
10
35.5603982756737
20
42.1883280827519
30
0
41
1
10
35.5000748903416
20
42.0894526359277
30
0
41
1
10
35.4392470744258
20
41.9908864570132
30
0
41
1
10
35.3778893547796
20
41.8926504643031
30
0
41
1
10
35.3200736925068
20
41.8012478522687
30
0
41
1
10
35.2659078980741
20
41.7166132799643
30
0
41
1
10
35.2154774775529
20
41.6386939090328
30
0
41
1
10
35.1646109860084
20
41.5610585576718
30
0
41
1
10
35.1132786115308
20
41.4837317109186
30
0
41
1
10
35.0787144936667
20
41.4324112802222
30
0
41
1
10
35.0613495845876
20
41.4068068425371
30
0
0
SPLINE
5
1F9
100
AcDbEntity
8
1
62
256
6
ByLayer
370
18
48
1
60
0
100
AcDbSpline
70
4
71
3
72
52
73
48
40
0
40
0
40
0
40
0
40
0.0217633358563243
40
0.0435298684534149
40
0.0652974179413498
40
0.0870638559691933
40
0.108827112497752
40
0.129657164424262
40
0.150490114087403
40
0.171324021739264
40
0.192156954830871
40
0.212986992856735
40
0.233816139526806
40
0.254648030934617
40
0.275480913471855
40
0.296312948060829
40
0.31714221483422
40
0.33797038164061
40
0.358801089005141
40
0.37963271609479
40
0.400463560472923
40
0.421291842208031
40
0.444428647202376
40
0.467567631328013
40
0.490706683461842
40
0.513843581203311
40
0.53691425291641
40
0.559986943958285
40
0.58305969572276
40
0.606130450246617
40
0.627890649834714
40
0.649653196452645
40
0.671416589019511
40
0.69317925531206
40
0.714939555283289
40
0.738692253119479
40
0.762448670456094
40
0.786207052181482
40
0.809965555036096
40
0.833722251923877
40
0.857475136157068
40
0.881226319659949
40
0.904980923490869
40
0.928737324352295
40
0.95249382578869
40
0.976248661732591
40
1
40
1
40
1
40
1
41
1
10
39.7759443800937
20
53.7061912534905
30
0
41
1
10
39.7699472471163
20
53.6939513080443
30
0
41
1
10
39.7579924759624
20
53.6692948344526
30
0
41
1
10
39.7401753455313
20
53.6317821956883
30
0
41
1
10
39.7224893203233
20
53.5937473515266
30
0
41
1
10
39.7049469387011
20
53.5551976407252
30
0
41
1
10
39.6878082345082
20
53.5166967249828
30
0
41
1
10
39.6710791446482
20
53.4782697656889
30
0
41
1
10
39.6547610319994
20
53.439943946626
30
0
41
1
10
39.6386147014466
20
53.4011613717787
30
0
41
1
10
39.6226490067878
20
53.3619321195567
30
0
41
1
10
39.606873334014
20
53.322263037668
30
0
41
1
10
39.5912890410876
20
53.2821606525184
30
0
41
1
10
39.5758886926636
20
53.241636208174
30
0
41
1
10
39.5606726335269
20
53.2006996902748
30
0
41
1
10
39.5456406994371
20
53.1593653921512
30
0
41
1
10
39.5307923717376
20
53.1176448934875
30
0
41
1
10
39.5161256067267
20
53.0755459900553
30
0
41
1
10
39.5016380680376
20
53.0330768136092
30
0
41
1
10
39.4873283222061
20
52.9902473425096
30
0
41
1
10
39.4731961174272
20
52.9470710614659
30
0
41
1
10
39.4587246701681
20
52.9019508674671
30
0
41
1
10
39.4439350381429
20
52.8548502062397
30
0
41
1
10
39.428848988262
20
52.8057349145472
30
0
41
1
10
39.4139738318762
20
52.7562397827348
30
0
41
1
10
39.3993220592337
20
52.7064265975453
30
0
41
1
10
39.3848905843092
20
52.6563074568204
30
0
41
1
10
39.3706764443433
20
52.6058942688019
30
0
41
1
10
39.3566644767343
20
52.5551525368072
30
0
41
1
10
39.3431147980902
20
52.5050621504953
30
0
41
1
10
39.3300122128372
20
52.4556527680005
30
0
41
1
10
39.3173422081941
20
52.4069511744082
30
0
41
1
10
39.3048458182249
20
52.357994877716
30
0
41
1
10
39.2925226539521
20
52.3087965154008
30
0
41
1
10
39.280000757504
20
52.2578571057626
30
0
41
1
10
39.2672966112928
20
52.2051570450097
30
0
41
1
10
39.254427520503
20
52.1506787396226
30
0
41
1
10
39.2417576560774
20
52.0959488990845
30
0
41
1
10
39.22928676016
20
52.0409825518734
30
0
41
1
10
39.2170145775926
20
51.9857947174785
30
0
41
1
10
39.2049401386207
20
51.9303971530084
30
0
41
1
10
39.1930613262832
20
51.8747959016115
30
0
41
1
10
39.1813763788779
20
51.8189966805975
30
0
41
1
10
39.1698842175025
20
51.7630077931915
30
0
41
1
10
39.1585848518147
20
51.706843074068
30
0
41
1
10
39.1474783893305
20
51.6505151512472
30
0
41
1
10
39.1402017802515
20
51.6128620432698
30
0
41
1
10
39.1365956335539
20
51.5940104324204
30
0
0
SPLINE
5
1FA
100
AcDbEntity
8
1
62
256
6
ByLayer
370
18
48
1
60
0
100
AcDbSpline
70
4
71
3
72
15
73
11
40
0
40
0
40
0
40
0
40
0.124968852312742
40
0.249937728199347
40
0.374920501208617
40
0.499903314518951
40
0.624922611038885
40
0.749941959930756
40
0.874970951579676
40
1
40
1
40
1
40
1
41
1
10
39.9680710869654
20
54.1226203042377
30
0
41
1
10
39.960510851969
20
54.1050325322814
30
0
41
1
10
39.9452729076183
20
54.069919984064
30
0
41
1
10
39.9220592043897
20
54.0174392306547
30
0
41
1
10
39.8984991863709
20
53.9651435067643
30
0
41
1
10
39.8746028299654
20
53.9130226065186
30
0
41
1
10
39.8503840328041
20
53.8610729951307
30
0
41
1
10
39.8258609799852
20
53.8092844269176
30
0
41
1
10
39.8010519569845
20
53.7576542928443
30
0
41
1
10
39.7843429461875
20
53.7233290475089
30
0
41
1
10
39.7759443800937
20
53.7061912534905
30
0
0
SPLINE
5
1FB
100
AcDbEntity
8
1
62
256
6
ByLayer
370
18
48
1
60
0
100
AcDbSpline
70
4
71
3
72
65
73
61
40
0
40
0
40
0
40
0
40
0.0189665873689437
40
0.0379371968341008
40
0.0569090215226112
40
0.0758793895914517
40
0.0948457744562293
40
0.113673243874312
40
0.132504961647521
40
0.151337993209755
40
0.170169513301045
40
0.188996816884119
40
0.20903382108962
40
0.229076246532034
40
0.249120388716658
40
0.269162637620251
40
0.289199493720981
40
0.307692302439619
40
0.326189507746329
40
0.344688150832243
40
0.363185299931854
40
0.381678061497836
40
0.4001708882245
40
0.418668131722184
40
0.437166860055579
40
0.455664123867942
40
0.474156967636796
40
0.492649281764501
40
0.5111459224397
40
0.529644056756916
40
0.548140791627734
40
0.566633184776733
40
0.586359794344689
40
0.606091416314407
40
0.625824819355965
40
0.645556646087002
40
0.665283427434027
40
0.683773334407192
40
0.702267093047946
40
0.720762244217699
40
0.739256206051353
40
0.757746283480006
40
0.757750710323174
40
0.757914501495457
40
0.758131414128006
40
0.758295205300294
40
0.758299632143469
40
0.776898601733013
40
0.795501170391718
40
0.814105062742922
40
0.832707863994747
40
0.851307028700324
40
0.869793739323464
40
0.888283646464264
40
0.906774743554998
40
0.925264884557235
40
0.943751791356353
40
0.962500825583907
40
0.981250910908404
40
1
40
1
40
1
40
1
41
1
10
35.5183843988318
20
62.2777112551988
30
0
41
1
10
35.5278458340311
20
62.2821126807998
30
0
41
1
10
35.5469131398635
20
62.2908488289403
30
0
41
1
10
35.5759452253484
20
62.303753244757
30
0
41
1
10
35.6054023858947
20
62.3164507475611
30
0
41
1
10
35.6352763932323
20
62.3289346708625
30
0
41
1
10
35.6654878191524
20
62.3411691252329
30
0
41
1
10
35.696031625982
20
62.3531514270088
30
0
41
1
10
35.7269004859667
20
62.3648798747773
30
0
41
1
10
35.7581618189641
20
62.3763786796903
30
0
41
1
10
35.7898042424145
20
62.3876410875853
30
0
41
1
10
35.8225057675175
20
62.3988977186105
30
0
41
1
10
35.8562920774657
20
62.4101256453841
30
0
41
1
10
35.8911846323012
20
62.4213016654668
30
0
41
1
10
35.9264777195039
20
62.4321897557941
30
0
41
1
10
35.9621541667603
20
62.4427826535285
30
0
41
1
10
35.9972762746549
20
62.452810270137
30
0
41
1
10
36.0318046547133
20
62.4622947719663
30
0
41
1
10
36.0657020102038
20
62.4712603869776
30
0
41
1
10
36.0998919780363
20
62.4799604934356
30
0
41
1
10
36.1343588765844
20
62.4883904724947
30
0
41
1
10
36.1690915883628
20
62.4965467730348
30
0
41
1
10
36.2040836382681
20
62.5044266825672
30
0
41
1
10
36.2393269337663
20
62.5120291536948
30
0
41
1
10
36.2748089696507
20
62.5193519134976
30
0
41
1
10
36.3105126589369
20
62.5263916564963
30
0
41
1
10
36.3464253545534
20
62.5331459043887
30
0
41
1
10
36.3825395521615
20
62.5396129504349
30
0
41
1
10
36.4188466835305
20
62.5457928336975
30
0
41
1
10
36.4553341053215
20
62.5516845934251
30
0
41
1
10
36.4919841593507
20
62.5572863832048
30
0
41
1
10
36.529602854856
20
62.5627152082392
30
0
41
1
10
36.5681935967562
20
62.5679472829571
30
0
41
1
10
36.6077595680879
20
62.5729601222281
30
0
41
1
10
36.64745366882
20
62.577642037045
30
0
41
1
10
36.687291104595
20
62.5819947444916
30
0
41
1
10
36.726289399452
20
62.58592647292
30
0
41
1
10
36.7649070844413
20
62.5894895543952
30
0
41
1
10
36.8014106318358
20
62.592607594986
30
0
41
1
10
36.8429987644884
20
62.595735808602
30
0
41
1
10
36.8658751331023
20
62.5974704878172
30
0
41
1
10
36.9278118230173
20
62.601193802797
30
0
41
1
10
36.9151270211693
20
62.6004293034102
30
0
41
1
10
36.9148652289039
20
62.6004144735908
30
0
41
1
10
36.9144950355936
20
62.6003930082742
30
0
41
1
10
36.9142333048097
20
62.6003774820591
30
0
41
1
10
36.9014693507191
20
62.5996665288549
30
0
41
1
10
36.9637938667431
20
62.6031470603955
30
0
41
1
10
36.9868771034348
20
62.6040772272329
30
0
41
1
10
37.0288371428902
20
62.6057995405179
30
0
41
1
10
37.0657335050734
20
62.6069547050441
30
0
41
1
10
37.103890173235
20
62.6079077259407
30
0
41
1
10
37.1415844005141
20
62.6085650269942
30
0
41
1
10
37.1792694134365
20
62.608957725009
30
0
41
1
10
37.2168901281714
20
62.6090829843908
30
0
41
1
10
37.2544666840762
20
62.6089454464488
30
0
41
1
10
37.29215885707
20
62.608545365275
30
0
41
1
10
37.3299613857724
20
62.6078814259308
30
0
41
1
10
37.3678672046604
20
62.6069524436488
30
0
41
1
10
37.3930821529808
20
62.6061614018599
30
0
41
1
10
37.4056758885988
20
62.6057227226955
30
0
0
SPLINE
5
1FC
100
AcDbEntity
8
1
62
256
6
ByLayer
370
18
48
1
60
0
100
AcDbSpline
70
4
71
3
72
11
73
7
40
0
40
0
40
0
40
0
40
0.232953930659624
40
0.476451715047549
40
0.730786732318194
40
1
40
1
40
1
40
1
41
1
10
30.5746780286415
20
60.5771691661
30
0
41
1
10
30.8815971724681
20
60.7247199730843
30
0
41
1
10
31.5142805775375
20
61.015495514527
30
0
41
1
10
32.5021120087957
20
61.4239481634894
30
0
41
1
10
33.5519739044779
20
61.8212885501011
30
0
41
1
10
34.279320336088
20
62.062900371277
30
0
41
1
10
34.6560514284928
20
62.1799257290962
30
0
0
SPLINE
5
1FD
100
AcDbEntity
8
1
62
256
6
ByLayer
370
18
48
1
60
0
100
AcDbSpline
70
4
71
3
72
47
73
43
40
0
40
0
40
0
40
0
40
0.0249066002718682
40
0.0498142686810754
40
0.0747209167331664
40
0.0995914207008033
40
0.124462927053666
40
0.149333477723582
40
0.170431148272187
40
0.191528825584672
40
0.212617601484719
40
0.23370638400507
40
0.256807358490119
40
0.27990903603187
40
0.303010042852114
40
0.326087274748644
40
0.349165166273518
40
0.372242428921416
40
0.398926302011526
40
0.425610190084472
40
0.452279440310759
40
0.478948704820324
40
0.505165137535828
40
0.531381582948965
40
0.557585396393111
40
0.583789221862794
40
0.610002255629693
40
0.636215300783018
40
0.662416834491322
40
0.688618378909638
40
0.710468328355647
40
0.732318675761256
40
0.754168642092166
40
0.776005070508281
40
0.797841874668958
40
0.819678318570971
40
0.850248925145345
40
0.880820506247104
40
0.911391166215391
40
0.941929228600616
40
0.972468194947855
40
1
40
1
40
1
40
1
41
1
10
15.2081907875248
20
43.3329274454724
30
0
41
1
10
15.2124398163054
20
43.3484751221952
30
0
41
1
10
15.2210922728638
20
43.3794714407994
30
0
41
1
10
15.2345393091988
20
43.4256691598464
30
0
41
1
10
15.2484307320611
20
43.4715402931102
30
0
41
1
10
15.2627548884236
20
43.5170803760797
30
0
41
1
10
15.2774981430489
20
43.5622850527484
30
0
41
1
10
15.2918888017458
20
43.6049020688171
30
0
41
1
10
15.305846393818
20
43.6449808059502
30
0
41
1
10
15.3192983490033
20
43.6825652720194
30
0
41
1
10
15.3330223210394
20
43.7199078951579
30
0
41
1
10
15.3474556299327
20
43.7581866729312
30
0
41
1
10
15.3626226876539
20
43.7973777939483
30
0
41
1
10
15.3785444454904
20
43.8374499308257
30
0
41
1
10
15.3947522524641
20
43.8772154186987
30
0
41
1
10
15.4112363093939
20
43.9166725232293
30
0
41
1
10
15.4279868612521
20
43.9558200471376
30
0
41
1
10
15.4458865521662
20
43.9966938339288
30
0
41
1
10
15.4649743845406
20
44.0392352849193
30
0
41
1
10
15.4852840007937
20
44.0833743156037
30
0
41
1
10
15.5059007403408
20
44.127102620082
30
0
41
1
10
15.5266922834522
20
44.1701742360699
30
0
41
1
10
15.5476432268399
20
44.2126041893407
30
0
41
1
10
15.568731906498
20
44.2543932231741
30
0
41
1
10
15.5900655408981
20
44.2957840712276
30
0
41
1
10
15.611634142871
20
44.3367817465913
30
0
41
1
10
15.6334290081763
20
44.3773928171518
30
0
41
1
10
15.65543497348
20
44.4176116460734
30
0
41
1
10
15.6776374841081
20
44.4574341580634
30
0
41
1
10
15.6987854199905
20
44.4946786616191
30
0
41
1
10
15.7188379677809
20
44.5294236541286
30
0
41
1
10
15.7377583765144
20
44.5617360699456
30
0
41
1
10
15.7567845348697
20
44.5937729362475
30
0
41
1
10
15.775909913743
20
44.6255351574895
30
0
41
1
10
15.7951281582412
20
44.657023814359
30
0
41
1
10
15.8170113293115
20
44.692409105864
30
0
41
1
10
15.8415973835397
20
44.7315545095872
30
0
41
1
10
15.8689200622918
20
44.7743033085738
30
0
41
1
10
15.8963655508461
20
44.8165231835701
30
0
41
1
10
15.9239170804219
20
44.8582178720781
30
0
41
1
10
15.9506533252644
20
44.8980400914772
30
0
41
1
10
15.9682238668742
20
44.9238355321918
30
0
41
1
10
15.9765661077065
20
44.9359971415646
30
0
0
SPLINE
5
1FE
100
AcDbEntity
8
1
62
256
6
ByLayer
370
18
48
1
60
0
100
AcDbSpline
70
4
71
3
72
59
73
55
40
0
40
0
40
0
40
0
40
0.0176831161775026
40
0.0353673615562523
40
0.0530515928267672
40
0.0707346897645366
40
0.0884545059228788
40
0.106175490918844
40
0.123896460470087
40
0.141616255566061
40
0.159491691260025
40
0.177368352271863
40
0.195245020375014
40
0.213120465739616
40
0.231034676928018
40
0.248950075792141
40
0.266865502503425
40
0.284779751667741
40
0.302931952441398
40
0.321085325575819
40
0.339238727571436
40
0.357390967703784
40
0.375579923537575
40
0.393769996536133
40
0.411960097316624
40
0.430149091037187
40
0.448539543850081
40
0.466931090040998
40
0.485322663401523
40
0.503713153266087
40
0.522137878077866
40
0.540563644602564
40
0.558989436396183
40
0.577414195667519
40
0.598336222400103
40
0.619260379803711
40
0.64018530392662
40
0.661109567655859
40
0.682031683573898
40
0.703023662687204
40
0.724017648666467
40
0.745012353662973
40
0.76600643387434
40
0.786998492028613
40
0.807954517054251
40
0.828912412445194
40
0.849870974641849
40
0.870828951641445
40
0.891785045119177
40
0.913426706526309
40
0.93507030481422
40
0.956714591676152
40
0.978358270793961
40
1
40
1
40
1
40
1
41
1
10
30.253451925356
20
60.2499438886167
30
0
41
1
10
30.2459100459558
20
60.2418332933725
30
0
41
1
10
30.2307086055714
20
60.2255944986937
30
0
41
1
10
30.2075546505368
20
60.2011817585775
30
0
41
1
10
30.1840489642118
20
60.1767238334832
30
0
41
1
10
30.160175400137
20
60.1522101393633
30
0
41
1
10
30.1359322373849
20
60.1276469028543
30
0
41
1
10
30.1113181265672
20
60.1030405886564
30
0
41
1
10
30.0863502660654
20
60.0784159254737
30
0
41
1
10
30.0609555667499
20
60.0537079902024
30
0
41
1
10
30.0351278216955
20
60.0289250617015
30
0
41
1
10
30.0088645903298
20
60.0040729987294
30
0
41
1
10
29.9822459162965
20
59.9792285308036
30
0
41
1
10
29.9552558413897
20
59.9543794572925
30
0
41
1
10
29.9278981758943
20
59.9295281565589
30
0
41
1
10
29.9001799218545
20
59.9046742943556
30
0
41
1
10
29.872127515014
20
59.8798386174189
30
0
41
1
10
29.8436224883707
20
59.8549134461719
30
0
41
1
10
29.8146655042651
20
59.8299003006771
30
0
41
1
10
29.78525781021
20
59.804800660038
30
0
41
1
10
29.7555338179524
20
59.7797264861405
30
0
41
1
10
29.7254805050881
20
59.7546630223405
30
0
41
1
10
29.6951030087092
20
59.7296113582661
30
0
41
1
10
29.6644066441614
20
59.7045725511564
30
0
41
1
10
29.6334190013056
20
59.6795654638845
30
0
41
1
10
29.6020316630605
20
59.6544998404987
30
0
41
1
10
29.5702466706902
20
59.6293770053977
30
0
41
1
10
29.5380663298557
20
59.6041983594859
30
0
41
1
10
29.5056141747072
20
59.5790578828179
30
0
41
1
10
29.4728768518207
20
59.5539418593858
30
0
41
1
10
29.4398593719975
20
59.5288512221607
30
0
41
1
10
29.4065667548911
20
59.5037869494509
30
0
41
1
10
29.3730261707514
20
59.4787663972293
30
0
41
1
10
29.3377180476076
20
59.452663017422
30
0
41
1
10
29.3006080583088
20
59.4254846008593
30
0
41
1
10
29.2616628002646
20
59.3972404086628
30
0
41
1
10
29.2224286218347
20
59.3690587699272
30
0
41
1
10
29.1829164028558
20
59.3409434661269
30
0
41
1
10
29.1430903909234
20
59.312865407927
30
0
41
1
10
29.1029557314845
20
59.2848254006677
30
0
41
1
10
29.062517445082
20
59.2568244017381
30
0
41
1
10
29.0218281702196
20
59.2288957347782
30
0
41
1
10
28.9808980450123
20
59.2010430269711
30
0
41
1
10
28.9397584860831
20
59.1732842643701
30
0
41
1
10
28.8984155563775
20
59.1456199299104
30
0
41
1
10
28.8568750412372
20
59.1180506104144
30
0
41
1
10
28.8151205740807
20
59.0905625938631
30
0
41
1
10
28.7731614575784
20
59.0631593441816
30
0
41
1
10
28.7305451383013
20
59.0355450555422
30
0
41
1
10
28.6872690400041
20
59.007723730593
30
0
41
1
10
28.6433309828292
20
58.9796997842821
30
0
41
1
10
28.5992003208397
20
58.9517724938637
30
0
41
1
10
28.554885822508
20
58.9239453392557
30
0
41
1
10
28.5252263223874
20
58.9054623996845
30
0
41
1
10
28.5103674233072
20
58.8962382034341
30
0
0
SPLINE
5
1FF
100
AcDbEntity
8
1
62
256
6
ByLayer
370
18
48
1
60
0
100
AcDbSpline
70
4
71
3
72
15
73
11
40
0
40
0
40
0
40
0
40
0.125028659987742
40
0.250057343598805
40
0.375072471845342
40
0.500087640443763
40
0.625070187745193
40
0.750052787362138
40
0.875026365345577
40
1
40
1
40
1
40
1
41
1
10
30.5735155567865
20
60.5784560844765
30
0
41
1
10
30.5597926518219
20
60.5650923279907
30
0
41
1
10
30.5324478528567
20
60.5382776536012
30
0
41
1
10
30.4917373766641
20
60.4977927143876
30
0
41
1
10
30.4513269447786
20
60.4570536125828
30
0
41
1
10
30.411210757925
20
60.4160736301307
30
0
41
1
10
30.3713773867829
20
60.3748616534942
30
0
41
1
10
30.3318125477522
20
60.3334331893484
30
0
41
1
10
30.2924998772633
20
60.2917968033846
30
0
41
1
10
30.2664419522798
20
60.2639163270827
30
0
41
1
10
30.253451925356
20
60.2499438886167
30
0
0
SPLINE
5
200
100
AcDbEntity
8
1
62
256
6
ByLayer
370
18
48
1
60
0
100
AcDbSpline
70
4
71
3
72
13
73
9
40
0
40
0
40
0
40
0
40
0.125061637609
40
0.250123278863168
40
0.375160201746955
40
0.500197128796693
40
0.75012278412918
40
1
40
1
40
1
40
1
41
1
10
24.0864837176643
20
50.1735556365844
30
0
41
1
10
24.0917731221779
20
50.1812518478953
30
0
41
1
10
24.1023989666535
20
50.1966205242986
30
0
41
1
10
24.1184782467691
20
50.2196012507863
30
0
41
1
10
24.1346966076375
20
50.2425083104309
30
0
41
1
10
24.1564985838137
20
50.2729424664646
30
0
41
1
10
24.1840897989901
20
50.3107913087391
30
0
41
1
10
24.2065196893939
20
50.3408618875781
30
0
41
1
10
24.2178242399908
20
50.3558453158896
30
0
0
SPLINE
5
201
100
AcDbEntity
8
1
62
256
6
ByLayer
370
18
48
1
60
0
100
AcDbSpline
70
4
71
3
72
78
73
74
40
0
40
0
40
0
40
0
40
0.0137939523000663
40
0.0275889253552212
40
0.0413842432489933
40
0.0551792245456659
40
0.0689731837584839
40
0.0828184085791059
40
0.0966646615840604
40
0.110511256600124
40
0.12435750775381
40
0.138202731021642
40
0.15208244222291
40
0.165963201145803
40
0.179844302574237
40
0.193725048188888
40
0.207604748227568
40
0.221812245253565
40
0.236020506675083
40
0.250228758519069
40
0.264436242484095
40
0.278668587920409
40
0.292901726600552
40
0.307134851436895
40
0.321367177994248
40
0.335590113050142
40
0.349813045011964
40
0.364004367961256
40
0.378195687460481
40
0.392596993199868
40
0.406999201266318
40
0.421401385924974
40
0.435802659742633
40
0.450233677621619
40
0.464665658661637
40
0.479097612037753
40
0.493528592190712
40
0.508348731573981
40
0.52316998374888
40
0.537991201514621
40
0.552811293972765
40
0.567668249377592
40
0.582526403863822
40
0.597384521452133
40
0.612241426537534
40
0.627407191902925
40
0.642574319392253
40
0.65774140695204
40
0.672907117863146
40
0.686342018972793
40
0.699777923205018
40
0.713213804702435
40
0.726648674807752
40
0.74008379754506
40
0.753519970126837
40
0.766956123488118
40
0.780391220013603
40
0.793960088801616
40
0.807530077825923
40
0.821100052268675
40
0.834668901171105
40
0.848148041963437
40
0.861629442614936
40
0.875111963022657
40
0.888594470025
40
0.902075839738421
40
0.915554959901923
40
0.929844176886432
40
0.944136070872998
40
0.958429320394746
40
0.972722588242061
40
0.987014524522373
40
1
40
1
40
1
40
1
41
1
10
22.1791169667648
20
45.0000628063731
30
0
41
1
10
22.1756903125386
20
45.0158310677075
30
0
41
1
10
22.1690053015072
20
45.0473804360041
30
0
41
1
10
22.1594825368098
20
45.0947413259286
30
0
41
1
10
22.1504667012674
20
45.1421367920297
30
0
41
1
10
22.1419597549735
20
45.1895629459201
30
0
41
1
10
22.1339536244633
20
45.2370764084451
30
0
41
1
10
22.1264520904642
20
45.2846771801885
30
0
41
1
10
22.1194587550476
20
45.3323653513886
30
0
41
1
10
22.1129846892974
20
45.380080125537
30
0
41
1
10
22.1070320041583
20
45.4278175612736
30
0
41
1
10
22.1015980784586
20
45.4756153343957
30
0
41
1
10
22.0966862232303
20
45.5234735186777
30
0
41
1
10
22.0922995588442
20
45.5713922626432
30
0
41
1
10
22.0884440735268
20
45.6193299841825
30
0
41
1
10
22.0851218898791
20
45.6672827527365
30
0
41
1
10
22.0823130868535
20
45.7156262069601
30
0
41
1
10
22.0800345697038
20
45.7643604534059
30
0
41
1
10
22.078303331119
20
45.813485426641
30
0
41
1
10
22.077139223424
20
45.8626208813657
30
0
41
1
10
22.0765441418391
20
45.9117928819366
30
0
41
1
10
22.0765216041758
20
45.9610005974915
30
0
41
1
10
22.0770748994817
20
46.0102431567552
30
0
41
1
10
22.078206260427
20
46.0594891447453
30
0
41
1
10
22.0799176215402
20
46.1087249070079
30
0
41
1
10
22.0822108899401
20
46.1579484800235
30
0
41
1
10
22.0850856659534
20
46.2071223301326
30
0
41
1
10
22.0885433148028
20
46.2562551793385
30
0
41
1
10
22.0926044058278
20
46.3055869982623
30
0
41
1
10
22.0972842418793
20
46.3551528561602
30
0
41
1
10
22.1025953048452
20
46.4049500840845
30
0
41
1
10
22.1085168334718
20
46.4547329652867
30
0
41
1
10
22.1150555117195
20
46.5045319870926
30
0
41
1
10
22.122215447386
20
46.5543453744173
30
0
41
1
10
22.130000164331
20
46.6041710790442
30
0
41
1
10
22.1384065694924
20
46.6539705619752
30
0
41
1
10
22.1475177114881
20
46.7041867299695
30
0
41
1
10
22.1573559524652
20
46.7548163837513
30
0
41
1
10
22.1679431627748
20
46.8058555133835
30
0
41
1
10
22.1791938992031
20
46.8568515770283
30
0
41
1
10
22.1911195292063
20
46.9078411339074
30
0
41
1
10
22.2037243052783
20
46.9588208411703
30
0
41
1
10
22.2170113410596
20
47.0097868849841
30
0
41
1
10
22.230970821994
20
47.0606905568391
30
0
41
1
10
22.2457048111754
20
47.1118773889183
30
0
41
1
10
22.2612315258863
20
47.1633416443793
30
0
41
1
10
22.277567824507
20
47.2150765885471
30
0
41
1
10
22.2946070401482
20
47.2667224192291
30
0
41
1
10
22.3116738352257
20
47.3163099588283
30
0
41
1
10
22.3286781449773
20
47.3638464489104
30
0
41
1
10
22.3455335072363
20
47.4093411164059
30
0
41
1
10
22.3629387230406
20
47.4547448500607
30
0
41
1
10
22.3808926064733
20
47.5000514803217
30
0
41
1
10
22.3993949255281
20
47.5452567104379
30
0
41
1
10
22.418444166151
20
47.5903560233051
30
0
41
1
10
22.438037832278
20
47.635342194584
30
0
41
1
10
22.4582404131107
20
47.6803570697118
30
0
41
1
10
22.4790571113633
20
47.7253944348527
30
0
41
1
10
22.5004916441702
20
47.7704476941037
30
0
41
1
10
22.5224718033849
20
47.8153607241698
30
0
41
1
10
22.5449442905036
20
47.8600271577082
30
0
41
1
10
22.5679038617876
20
47.9044439840007
30
0
41
1
10
22.591343563473
20
47.9486083559681
30
0
41
1
10
22.6153097752808
20
47.9926120593363
30
0
41
1
10
22.6397962813129
20
48.0364448200333
30
0
41
1
10
22.6647968361184
20
48.0800963739624
30
0
41
1
10
22.6908183050794
20
48.1244307064242
30
0
41
1
10
22.7178955363399
20
48.1694315422659
30
0
41
1
10
22.7460608598437
20
48.2150809508751
30
0
41
1
10
22.7747859562807
20
48.2605045602042
30
0
41
1
10
22.8040612647612
20
48.3056901722779
30
0
41
1
10
22.8329713008629
20
48.3492601149491
30
0
41
1
10
22.8522663140599
20
48.3776941429947
30
0
41
1
10
22.8615258406496
20
48.3911955544754
30
0
0
SPLINE
5
202
100
AcDbEntity
8
1
62
256
6
ByLayer
370
18
48
1
60
0
100
AcDbSpline
70
4
71
3
72
36
73
32
40
0
40
0
40
0
40
0
40
0.039046444695419
40
0.0780981219724456
40
0.117149740214811
40
0.156196104397588
40
0.195073082537923
40
0.233955355833216
40
0.27283756774441
40
0.311714462167745
40
0.347604969165904
40
0.383501920488209
40
0.419400955229968
40
0.455297779180591
40
0.491188179331738
40
0.524909904087543
40
0.558637118582999
40
0.592366115490854
40
0.626093236243361
40
0.659814882363272
40
0.660788923769951
40
0.694705994670482
40
0.72862878017066
40
0.762553429788633
40
0.796476134065436
40
0.830393136831677
40
0.864310659839298
40
0.898233996478726
40
0.932159243546864
40
0.966082524067664
40
1
40
1
40
1
40
1
41
1
10
22.1690105547336
20
43.9312870590992
30
0
41
1
10
22.1721776492738
20
43.9452709903639
30
0
41
1
10
22.1782789838713
20
43.9732692440829
30
0
41
1
10
22.1867325535047
20
44.0153591072003
30
0
41
1
10
22.1944836389026
20
44.05752249323
30
0
41
1
10
22.2015188511986
20
44.0996848125172
30
0
41
1
10
22.2078384642961
20
44.1418342450253
30
0
41
1
10
22.2134448580001
20
44.1839590872949
30
0
41
1
10
22.2183450542012
20
44.2261050156594
30
0
41
1
10
22.2224294597709
20
44.2671773149294
30
0
41
1
10
22.2257578651575
20
44.3071649920463
30
0
41
1
10
22.2283904244162
20
44.3460603277526
30
0
41
1
10
22.2304165251477
20
44.3849304776263
30
0
41
1
10
22.2318353402873
20
44.4237596001394
30
0
41
1
10
22.2326297999144
20
44.4617547130083
30
0
41
1
10
22.2328411364554
20
44.4989112917198
30
0
41
1
10
22.2325114134177
20
44.5352269848452
30
0
41
1
10
22.231645711477
20
44.5714713132409
30
0
41
1
10
22.2302446814158
20
44.6076306051976
30
0
41
1
10
22.2289353865274
20
44.6320213182227
30
0
41
1
10
22.2274358970983
20
44.6564435703673
30
0
41
1
10
22.2257437899957
20
44.6809016119134
30
0
41
1
10
22.2227024752394
20
44.7169568235459
30
0
41
1
10
22.2191238919797
20
44.7528902719714
30
0
41
1
10
22.2150101670483
20
44.7886878232601
30
0
41
1
10
22.2103629790185
20
44.8243389676506
30
0
41
1
10
22.2051832918517
20
44.8598361296275
30
0
41
1
10
22.1994740726116
20
44.8951722349348
30
0
41
1
10
22.1932386628754
20
44.9303362719884
30
0
41
1
10
22.1864805140196
20
44.9653153607946
30
0
41
1
10
22.1816291643143
20
44.98850234414
30
0
41
1
10
22.1791169667648
20
45.0000628063731
30
0
0
SPLINE
5
203
100
AcDbEntity
8
1
62
256
6
ByLayer
370
18
48
1
60
0
100
AcDbSpline
70
4
71
3
72
23
73
19
40
0
40
0
40
0
40
0
40
0.0677340266437945
40
0.135467728024568
40
0.202987853479738
40
0.270507615503573
40
0.33361127898421
40
0.396739762333213
40
0.459866481855888
40
0.522967739160588
40
0.582012985463646
40
0.641057959035367
40
0.701252172244977
40
0.761446078209295
40
0.821071600390685
40
0.880724994725271
40
0.940376734754893
40
1
40
1
40
1
40
1
41
1
10
22.0632938088314
20
43.5950027644468
30
0
41
1
10
22.0662155894491
20
43.602393902563
30
0
41
1
10
22.0720024811317
20
43.6172258005778
30
0
41
1
10
22.0805096878996
20
43.6396052345137
30
0
41
1
10
22.0888270307948
20
43.6620971539008
30
0
41
1
10
22.0967675885792
20
43.6841952188592
30
0
41
1
10
22.1043428102695
20
43.7059018819375
30
0
41
1
10
22.1115578964634
20
43.7271954222475
30
0
41
1
10
22.1185747014368
20
43.7485525790756
30
0
41
1
10
22.1252359251378
20
43.7694962553528
30
0
41
1
10
22.1315470364227
20
43.7900070475133
30
0
41
1
10
22.1375559506107
20
43.8102008258989
30
0
41
1
10
22.143390549724
20
43.8305207753978
30
0
41
1
10
22.1490204450654
20
43.8508845657064
30
0
41
1
10
22.1544023797716
20
43.8711468939658
30
0
41
1
10
22.1595316819386
20
43.8912880749435
30
0
41
1
10
22.1644187034382
20
43.9113512260238
30
0
41
1
10
22.1675078671098
20
43.9246536900176
30
0
41
1
10
22.1690105547336
20
43.9312870590992
30
0
0
SPLINE
5
204
100
AcDbEntity
8
1
62
256
6
ByLayer
370
18
48
1
60
0
100
AcDbSpline
70
4
71
3
72
74
73
70
40
0
40
0
40
0
40
0
40
0.0132778355817462
40
0.0265563811988444
40
0.0398349481136978
40
0.0531128127393807
40
0.0678838367454733
40
0.0826557733539447
40
0.0974277402301957
40
0.112198805513067
40
0.126942191984551
40
0.141686422542791
40
0.156430680678127
40
0.171174104756887
40
0.184088111918723
40
0.197002900903061
40
0.209917972514916
40
0.222832803072985
40
0.235746845105235
40
0.248635994808984
40
0.261525865222868
40
0.274415995536995
40
0.287305903083878
40
0.300195083933181
40
0.31461322712555
40
0.329032003730176
40
0.343450798935033
40
0.357868967492465
40
0.372267790052157
40
0.386667204700468
40
0.401066636077855
40
0.415465481450852
40
0.430478602307478
40
0.44549265342524
40
0.460507040844848
40
0.475521141451654
40
0.490534303817806
40
0.505517830368661
40
0.520502215484215
40
0.535486909455563
40
0.550471337369603
40
0.565454899818025
40
0.580141121062216
40
0.594828097110569
40
0.609515342964521
40
0.624202353390505
40
0.638888603469032
40
0.65355064398009
40
0.668213389610907
40
0.682876385994699
40
0.697539161300049
40
0.712201226700623
40
0.726605761501771
40
0.741010927482931
40
0.755416316547595
40
0.769821506496203
40
0.784226061399965
40
0.802206367664158
40
0.820187456114739
40
0.838168562412119
40
0.856148893013911
40
0.874141471631909
40
0.892134797318387
40
0.910128138387221
40
0.928120737982032
40
0.946090189350633
40
0.964060353563756
40
0.982030530830415
40
1
40
1
40
1
40
1
41
1
10
18.0277596108391
20
42.4511951039382
30
0
41
1
10
18.0423081891215
20
42.4559351685314
30
0
41
1
10
18.0715439853346
20
42.465438544537
30
0
41
1
10
18.1158154607663
20
42.4797638884913
30
0
41
1
10
18.1604930463153
20
42.4941559018497
30
0
41
1
10
18.2072585276789
20
42.5091540217316
30
0
41
1
10
18.2561580655783
20
42.5247645342126
30
0
41
1
10
18.3072371063822
20
42.5409932366054
30
0
41
1
10
18.3587789933978
20
42.5572922952982
30
0
41
1
10
18.4107399263373
20
42.5736480460627
30
0
41
1
10
18.4631098867066
20
42.5900576099504
30
0
41
1
10
18.5158789351114
20
42.6065182367176
30
0
41
1
10
18.5690690273548
20
42.6230369877648
30
0
41
1
10
18.6204526633051
20
42.6389252325148
30
0
41
1
10
18.66996516718
20
42.6541731149683
30
0
41
1
10
18.717548646085
20
42.6687723469068
30
0
41
1
10
18.7654291421559
20
42.6834085830516
30
0
41
1
10
18.8135986612506
20
42.6980794837721
30
0
41
1
10
18.8620197733924
20
42.7127737756463
30
0
41
1
10
18.9106872363114
20
42.7274900654953
30
0
41
1
10
18.9595959286272
20
42.7422270494923
30
0
41
1
10
19.0087712062744
20
42.756992509209
30
0
41
1
10
19.0582056602439
20
42.7717843200171
30
0
41
1
10
19.109858150249
20
42.7871866808869
30
0
41
1
10
19.1637601588198
20
42.8032017957731
30
0
41
1
10
19.2199424771418
20
42.8198313953567
30
0
41
1
10
19.2764218971804
20
42.8364863842955
30
0
41
1
10
19.3331650416793
20
42.8531570720346
30
0
41
1
10
19.3901652294988
20
42.8698416991042
30
0
41
1
10
19.447415942951
20
42.8865386005387
30
0
41
1
10
19.5049351649924
20
42.903253175357
30
0
41
1
10
19.5635371208147
20
42.9202212904936
30
0
41
1
10
19.6232294693846
20
42.9374422392941
30
0
41
1
10
19.6840192335398
20
42.9549151402661
30
0
41
1
10
19.7450735578992
20
42.9723998642906
30
0
41
1
10
19.8063829302989
20
42.9898938109486
30
0
41
1
10
19.8678995513059
20
43.0073834939676
30
0
41
1
10
19.9296177386748
20
43.0248675378079
30
0
41
1
10
19.9915320565293
20
43.0423446839945
30
0
41
1
10
20.0536763702148
20
43.0598246485766
30
0
41
1
10
20.1160419811961
20
43.0773050910307
30
0
41
1
10
20.1782083216447
20
43.0946686313019
30
0
41
1
10
20.2401658949631
20
43.1119141054076
30
0
41
1
10
20.3019058557226
20
43.1290405509488
30
0
41
1
10
20.3638376725016
20
43.1461620364383
30
0
41
1
10
20.4259537877623
20
43.1632765550857
30
0
41
1
10
20.4882142595939
20
43.1803732065137
30
0
41
1
10
20.5506148544814
20
43.1974509993057
30
0
41
1
10
20.6131515292701
20
43.2145090235023
30
0
41
1
10
20.6758532593565
20
43.2315552850915
30
0
41
1
10
20.7387130741499
20
43.2485879531376
30
0
41
1
10
20.801356828478
20
43.2655060337948
30
0
41
1
10
20.8637779059152
20
43.2823089305024
30
0
41
1
10
20.9259701573193
20
43.2989961849902
30
0
41
1
10
20.9882986843498
20
43.3156661309164
30
0
41
1
10
21.0507573468311
20
43.3323171693852
30
0
41
1
10
21.1185200249007
20
43.3503242242735
30
0
41
1
10
21.1916221674665
20
43.3696801705003
30
0
41
1
10
21.2700982680445
20
43.3903760449413
30
0
41
1
10
21.3487494847224
20
43.4110353679122
30
0
41
1
10
21.4275848343636
20
43.4316605299736
30
0
41
1
10
21.5065979453199
20
43.4522498185682
30
0
41
1
10
21.5857826231203
20
43.4728015984594
30
0
41
1
10
21.6651125172815
20
43.4933090336085
30
0
41
1
10
21.7445452284804
20
43.5137612047902
30
0
41
1
10
21.824074554389
20
43.5341566243109
30
0
41
1
10
21.9036942664465
20
43.5544938227021
30
0
41
1
10
21.983431312835
20
43.5747797069426
30
0
41
1
10
22.0366609847929
20
43.5882677153393
30
0
41
1
10
22.0632938088314
20
43.5950027644468
30
0
0
SPLINE
5
205
100
AcDbEntity
8
1
62
256
6
ByLayer
370
18
48
1
60
0
100
AcDbSpline
70
4
71
3
72
19
73
15
40
0
40
0
40
0
40
0
40
0.0823786345780229
40
0.164780038479075
40
0.247181833542312
40
0.329561001670314
40
0.412403604885701
40
0.495246377830882
40
0.577169174232058
40
0.659092179452092
40
0.744307898409597
40
0.829544181898497
40
0.914782079481488
40
1
40
1
40
1
40
1
41
1
10
18.3360585818439
20
42.1941867272496
30
0
41
1
10
18.3268958971749
20
42.2004836566241
30
0
41
1
10
18.3086716510529
20
42.2132175977155
30
0
41
1
10
18.2816387772487
20
42.2327404731469
30
0
41
1
10
18.2549293693149
20
42.2526666506782
30
0
41
1
10
18.2285087805919
20
42.2730218771746
30
0
41
1
10
18.2023926750686
20
42.2937957733248
30
0
41
1
10
18.1766859248412
20
42.3148987310207
30
0
41
1
10
18.1514430381248
20
42.3362735622597
30
0
41
1
10
18.1263345943454
20
42.358190424803
30
0
41
1
10
18.1012902713664
20
42.3807326486031
30
0
41
1
10
18.0763338430843
20
42.4038983951788
30
0
41
1
10
18.0517976906364
20
42.4273769388879
30
0
41
1
10
18.0357245832767
20
42.4432231685286
30
0
41
1
10
18.0277596108392
20
42.4511951039382
30
0
0
SPLINE
5
206
100
AcDbEntity
8
1
62
256
6
ByLayer
370
18
48
1
60
0
100
AcDbSpline
70
4
71
3
72
53
73
49
40
0
40
0
40
0
40
0
40
0.0237417930864143
40
0.0474849509076835
40
0.0712287644692489
40
0.0949725462131422
40
0.118715630606917
40
0.142457374738877
40
0.165645027062031
40
0.188834054143487
40
0.212023733564614
40
0.235213371162391
40
0.258402301725598
40
0.281589889699481
40
0.30477828786677
40
0.327968203727721
40
0.351158830314055
40
0.3743493994643
40
0.397539182776158
40
0.420727492571689
40
0.443916901337433
40
0.467108021657231
40
0.490299932804784
40
0.513491766401722
40
0.536682707752087
40
0.559871997196225
40
0.581686737957387
40
0.603502254537541
40
0.625317738411949
40
0.647132434572778
40
0.668920625379605
40
0.690709666236063
40
0.712498667768958
40
0.734286804950629
40
0.754678088474703
40
0.775070142880521
40
0.795462160921206
40
0.815853394854575
40
0.836218096701796
40
0.85658365193113
40
0.876949163610982
40
0.897313806070022
40
0.917713219341087
40
0.938113594095723
40
0.958513915758996
40
0.978913256629303
40
0.999279106188564
40
1
40
1
40
1
40
1
41
1
10
36.2292036515377
20
-54.4238635506029
30
0
41
1
10
36.2272887357545
20
-54.407428127702
30
0
41
1
10
36.2232787855269
20
-54.374538872499
30
0
41
1
10
36.2167249120981
20
-54.3251502020595
30
0
41
1
10
36.2096283334195
20
-54.2757106814577
30
0
41
1
10
36.2019868147018
20
-54.2262246115421
30
0
41
1
10
36.1937977754981
20
-54.1766967119979
30
0
41
1
10
36.1851264747622
20
-54.1275158151699
30
0
41
1
10
36.1759847933361
20
-54.0786848183128
30
0
41
1
10
36.1663839506374
20
-54.0302066661832
30
0
41
1
10
36.1562483104664
20
-53.9816989375028
30
0
41
1
10
36.1455747500364
20
-53.9331665590452
30
0
41
1
10
36.1343601480174
20
-53.8846144582557
30
0
41
1
10
36.1226009140315
20
-53.8360456396661
30
0
41
1
10
36.1102931427604
20
-53.7874621990365
30
0
41
1
10
36.0974322058209
20
-53.7388666786101
30
0
41
1
10
36.084013923131
20
-53.6902637491279
30
0
41
1
10
36.0700343914275
20
-53.6416591627284
30
0
41
1
10
36.0554897079325
20
-53.593058671219
30
0
41
1
10
36.040375266075
20
-53.5444657823747
30
0
41
1
10
36.0246860827334
20
-53.4958831413161
30
0
41
1
10
36.0084163923165
20
-53.4473139727516
30
0
41
1
10
35.9915611328865
20
-53.3987640295811
30
0
41
1
10
35.9741156072963
20
-53.3502401642887
30
0
41
1
10
35.9560751061185
20
-53.301749240049
30
0
41
1
10
35.9378026327153
20
-53.2542537701136
30
0
41
1
10
35.9193334776756
20
-53.2077552463074
30
0
41
1
10
35.9007021228659
20
-53.1622546625942
30
0
41
1
10
35.8815237645651
20
-53.1168010188638
30
0
41
1
10
35.8618014735153
20
-53.0714183426943
30
0
41
1
10
35.8415306191686
20
-53.0261111567823
30
0
41
1
10
35.8207060995149
20
-52.9808844287037
30
0
41
1
10
35.7993142766691
20
-52.9357261101347
30
0
41
1
10
35.7778191200753
20
-52.8916060607833
30
0
41
1
10
35.7562571584704
20
-52.8485238770021
30
0
41
1
10
35.7346642561301
20
-52.8064784960641
30
0
41
1
10
35.7125541952094
20
-52.7645140959771
30
0
41
1
10
35.689931934886
20
-52.7226548986997
30
0
41
1
10
35.6667928105602
20
-52.6809058227408
30
0
41
1
10
35.6431317519443
20
-52.6392722667701
30
0
41
1
10
35.6189334428433
20
-52.5977429090718
30
0
41
1
10
35.5941785600718
20
-52.5563011246842
30
0
41
1
10
35.5688600382805
20
-52.5149529836244
30
0
41
1
10
35.5429703021548
20
-52.4737052327985
30
0
41
1
10
35.5165181422653
20
-52.4325891835593
30
0
41
1
10
35.4895122767349
20
-52.3916356914796
30
0
41
1
10
35.4708068538413
20
-52.3639573174248
30
0
41
1
10
35.4611948615818
20
-52.3499171160694
30
0
41
1
10
35.460866135141
20
-52.349437154555
30
0
0
SPLINE
5
207
100
AcDbEntity
8
1
62
256
6
ByLayer
370
18
48
1
60
0
100
AcDbSpline
70
4
71
3
72
16
73
12
40
0
40
0
40
0
40
0
40
0.151413036965921
40
0.311581431091714
40
0.480605145864138
40
0.592816935866329
40
0.689496412316608
40
0.775088618469472
40
0.856062304963718
40
0.932429977314693
40
1
40
1
40
1
40
1
41
1
10
39.9999586823497
20
58.5075412658904
30
0
41
1
10
40.0149022037269
20
58.28623603365
30
0
41
1
10
40.0399219931515
20
57.8307049898213
30
0
41
1
10
40.0589309923827
20
57.1274341087285
30
0
41
1
10
40.0613630402401
20
56.48158878232
30
0
41
1
10
40.0537863866072
20
55.9288585996013
30
0
41
1
10
40.0429526414508
20
55.498329250297
30
0
41
1
10
40.0291259254701
20
55.1136574082296
30
0
41
1
10
40.0121513086839
20
54.7589070447756
30
0
41
1
10
39.9921945655357
20
54.4307579399696
30
0
41
1
10
39.9762040834333
20
54.2210313946426
30
0
41
1
10
39.9680444003006
20
54.1226306102761
30
0
0
SPLINE
5
208
100
AcDbEntity
8
1
62
256
6
ByLayer
370
18
48
1
60
0
100
AcDbSpline
70
4
71
3
72
99
73
95
40
0
40
0
40
0
40
0
40
0.007267060685917
40
0.0145351648433243
40
0.0218036493098709
40
0.0290718145205985
40
0.0363389264199144
40
0.0435681725528445
40
0.0507983157639282
40
0.0580288311066635
40
0.0652591121309704
40
0.0724884738637036
40
0.0796921527597405
40
0.0868965144937198
40
0.0941011700581782
40
0.101305656648737
40
0.108509440273268
40
0.115683151427045
40
0.122857389229677
40
0.13003184828543
40
0.137206172327304
40
0.14437995581615
40
0.153281434403582
40
0.162183466748116
40
0.171085551274831
40
0.179987101024135
40
0.188888144029939
40
0.197789640134747
40
0.206691174515961
40
0.215592269719478
40
0.225117201036549
40
0.234642974786934
40
0.244169239295255
40
0.253695584989241
40
0.263221546099762
40
0.272746602335049
40
0.282067284625177
40
0.291388598652278
40
0.30071026922723
40
0.310031987386913
40
0.319353411228762
40
0.328674166733829
40
0.339858446715897
40
0.351043424817908
40
0.362228675357543
40
0.373413728505692
40
0.384598071433648
40
0.395770479330162
40
0.406943499712325
40
0.418116747826602
40
0.429289812744298
40
0.440462257995255
40
0.451559796706162
40
0.462657892044278
40
0.473756183277968
40
0.48485429815329
40
0.495951853251067
40
0.507049369166376
40
0.518147431958088
40
0.529245675075677
40
0.540343734043938
40
0.551441246752323
40
0.562503111831641
40
0.573565539513047
40
0.584628146759947
40
0.595690559210065
40
0.606752411514103
40
0.617796050230499
40
0.628840216811696
40
0.639884581683869
40
0.650928790482814
40
0.661972464609347
40
0.674154554967492
40
0.686337235555139
40
0.698520166458691
40
0.710702948171265
40
0.722885123348034
40
0.735050903638341
40
0.747217105960545
40
0.759383513869761
40
0.771549838412689
40
0.783715721214339
40
0.797748671361757
40
0.811781978154221
40
0.825815512828835
40
0.839849023467841
40
0.853882144587869
40
0.871415398826273
40
0.888948837388142
40
0.906482390629394
40
0.924015801250229
40
0.949343837406262
40
0.974671919915869
40
1
40
1
40
1
40
1
41
1
10
40.0014841711029
20
58.504188273771
30
0
41
1
10
39.9994639873766
20
58.4917776234999
30
0
41
1
10
39.9953004028266
20
58.4671032186216
30
0
41
1
10
39.9886837848947
20
58.4305347233911
30
0
41
1
10
39.9817022743456
20
58.3944134061964
30
0
41
1
10
39.9743602879228
20
58.3587457577099
30
0
41
1
10
39.9666763963482
20
58.3235958579124
30
0
41
1
10
39.9586540386415
20
58.2889651036238
30
0
41
1
10
39.9503016048229
20
58.2548477994137
30
0
41
1
10
39.9416146596301
20
58.2211792441021
30
0
41
1
10
39.9326026349476
20
58.1879580144807
30
0
41
1
10
39.9232848153952
20
58.1552196413787
30
0
41
1
10
39.9136724199953
20
58.1229534282609
30
0
41
1
10
39.9037771617319
20
58.0911466240733
30
0
41
1
10
39.8935959742867
20
58.0597554112107
30
0
41
1
10
39.8831383177762
20
58.0287747959536
30
0
41
1
10
39.8724277609957
20
57.998240720987
30
0
41
1
10
39.8614735279416
20
57.9681431110309
30
0
41
1
10
39.8502833797333
20
57.9384731567926
30
0
41
1
10
39.8388489983901
20
57.909183232216
30
0
41
1
10
39.8271777231155
20
57.8802688153004
30
0
41
1
10
39.8143209814606
20
57.8494326125168
30
0
41
1
10
39.8002175839146
20
57.8167762983334
30
0
41
1
10
39.7848041610411
20
57.7824091311018
30
0
41
1
10
39.7690670269003
20
57.7485807745378
30
0
41
1
10
39.7530171030441
20
57.715282495557
30
0
41
1
10
39.7366641774483
20
57.682503578199
30
0
41
1
10
39.7200165122353
20
57.650235036252
30
0
41
1
10
39.703082560765
20
57.6184682616065
30
0
41
1
10
39.6854687669599
20
57.5864647180764
30
0
41
1
10
39.6671604853501
20
57.5542546210723
30
0
41
1
10
39.6481425127987
20
57.5218698825881
30
0
41
1
10
39.6288314128102
20
57.4900211722827
30
0
41
1
10
39.6092359836796
20
57.4587014378925
30
0
41
1
10
39.5893649886468
20
57.4279036853484
30
0
41
1
10
39.5693702184556
20
57.397835870845
30
0
41
1
10
39.5492648584588
20
57.3684758856607
30
0
41
1
10
39.5290599797029
20
57.3398044028275
30
0
41
1
10
39.5086152070262
20
57.3116025066165
30
0
41
1
10
39.4879366357786
20
57.2838652767013
30
0
41
1
10
39.4670303619161
20
57.2565877805072
30
0
41
1
10
39.4444936290923
20
57.2279764440427
30
0
41
1
10
39.4202769580698
20
57.1981345328441
30
0
41
1
10
39.394328594379
20
57.1671734226554
30
0
41
1
10
39.3680796603263
20
57.1368410185101
30
0
41
1
10
39.3415380491683
20
57.1071314672726
30
0
41
1
10
39.3147201933068
20
57.0780481305932
30
0
41
1
10
39.2876322721739
20
57.0495824185828
30
0
41
1
10
39.260278874439
20
57.0217285714997
30
0
41
1
10
39.2326554307883
20
56.9944723654871
30
0
41
1
10
39.2047677881579
20
56.967810551516
30
0
41
1
10
39.1766837908896
20
56.9417973007341
30
0
41
1
10
39.1484094542851
20
56.9164232393543
30
0
41
1
10
39.119949349224
20
56.8916818111526
30
0
41
1
10
39.0912433624974
20
56.8675148822495
30
0
41
1
10
39.062295622622
20
56.843921956541
30
0
41
1
10
39.0331094426324
20
56.8209019415997
30
0
41
1
10
39.0036872820943
20
56.7984530148505
30
0
41
1
10
38.9740302904278
20
56.7765764349756
30
0
41
1
10
38.9441403378745
20
56.7552742272173
30
0
41
1
10
38.9140200753914
20
56.734549219486
30
0
41
1
10
38.883704103191
20
56.714424549056
30
0
41
1
10
38.8531934507427
20
56.694901827341
30
0
41
1
10
38.8224886925941
20
56.6759839551285
30
0
41
1
10
38.7915586735566
20
56.6576530843953
30
0
41
1
10
38.7604056558398
20
56.6399133704043
30
0
41
1
10
38.7290480152032
20
56.6227785529649
30
0
41
1
10
38.6974876278119
20
56.6062483676734
30
0
41
1
10
38.6657297466028
20
56.5903130828852
30
0
41
1
10
38.6337614646371
20
56.574958664682
30
0
41
1
10
38.601588308436
20
56.5601797594425
30
0
41
1
10
38.5681024821989
20
56.5454825155338
30
0
41
1
10
38.5332830197698
20
56.530931105653
30
0
41
1
10
38.4971118485552
20
56.5165833691644
30
0
41
1
10
38.4607165720468
20
56.5028921019353
30
0
41
1
10
38.424106156076
20
56.4898427087012
30
0
41
1
10
38.3873049289228
20
56.4774258422664
30
0
41
1
10
38.3503201007331
20
56.4656250717206
30
0
41
1
10
38.313160770168
20
56.4544166651178
30
0
41
1
10
38.275819662289
20
56.4437731461255
30
0
41
1
10
38.238306705285
20
56.4336724335112
30
0
41
1
10
38.1987036251189
20
56.4236021618527
30
0
41
1
10
38.1569895928826
20
56.4136329793369
30
0
41
1
10
38.1131489833745
20
56.403819856539
30
0
41
1
10
38.0691329786018
20
56.3945815377311
30
0
41
1
10
38.0249573309076
20
56.3858741383484
30
0
41
1
10
37.9769520284771
20
56.3769705113964
30
0
41
1
10
37.925090568835
20
56.3679634311902
30
0
41
1
10
37.8693588225861
20
56.3589045190005
30
0
41
1
10
37.8134840846885
20
56.3503367956557
30
0
41
1
10
37.7491989457805
20
56.3409515903227
30
0
41
1
10
37.6764858350677
20
56.3308122814063
30
0
41
1
10
37.5953699115021
20
56.3198325455163
30
0
41
1
10
37.5413159382228
20
56.3124310634393
30
0
41
1
10
37.5142877843063
20
56.3087344128697
30
0
0
SPLINE
5
209
100
AcDbEntity
8
1
62
256
6
ByLayer
370
18
48
1
60
0
100
AcDbSpline
70
4
71
3
72
13
73
9
40
0
40
0
40
0
40
0
40
0.181161590442628
40
0.362319331505533
40
0.542683498704083
40
0.723042456613866
40
0.861586283504605
40
1
40
1
40
1
40
1
41
1
10
27.7875275235555
20
45.4934759199407
30
0
41
1
10
27.7904595556571
20
45.4940187012992
30
0
41
1
10
27.7964226845529
20
45.4950667861473
30
0
41
1
10
27.8056457331045
20
45.4965278047058
30
0
41
1
10
27.8151619409131
20
45.4978680154172
30
0
41
1
10
27.824221997388
20
45.4989865534094
30
0
41
1
10
27.8327645056974
20
45.4999105165693
30
0
41
1
10
27.8380700870317
20
45.5004130886506
30
0
41
1
10
27.8407543015731
20
45.5006503620226
30
0
0
SPLINE
5
20A
100
AcDbEntity
8
1
62
256
6
ByLayer
370
18
48
1
60
0
100
AcDbSpline
70
4
71
3
72
13
73
9
40
0
40
0
40
0
40
0
40
0.11529730140179
40
0.23067092771977
40
0.422508613768553
40
0.614353172610494
40
0.807174089593717
40
1
40
1
40
1
40
1
41
1
10
26.9873699733168
20
47.7562993638662
30
0
41
1
10
26.9883229255113
20
47.7587897671148
30
0
41
1
10
26.9901917598024
20
47.7637600498493
30
0
41
1
10
26.9934748640728
20
47.7728205958644
30
0
41
1
10
26.997141082142
20
47.7834483209388
30
0
41
1
10
27.0010844310386
20
47.795608006466
30
0
41
1
10
27.0047552622827
20
47.807665664096
30
0
41
1
10
27.0070325435409
20
47.8156326156501
30
0
41
1
10
27.0081266018113
20
47.819595101888
30
0
0
SPLINE
5
20B
100
AcDbEntity
8
1
62
256
6
ByLayer
370
18
48
1
60
0
100
AcDbSpline
70
4
71
3
72
13
73
9
40
0
40
0
40
0
40
0
40
0.13417200235797
40
0.2683460985256
40
0.402952501210109
40
0.537560597305356
40
0.768593904578928
40
1
40
1
40
1
40
1
41
1
10
26.7630265950514
20
46.3940037614202
30
0
41
1
10
26.7613543762982
20
46.3964176346503
30
0
41
1
10
26.7580130334702
20
46.4011917983482
30
0
41
1
10
26.7530036295826
20
46.408198609215
30
0
41
1
10
26.748000941796
20
46.4150537556963
30
0
41
1
10
26.7418147569064
20
46.4233607177706
30
0
41
1
10
26.7344629523179
20
46.4329666036678
30
0
41
1
10
26.7288059151432
20
46.4401216285494
30
0
41
1
10
26.7259839059458
20
46.4436291989105
30
0
0
SPLINE
5
20C
100
AcDbEntity
8
1
62
256
6
ByLayer
370
18
48
1
60
0
100
AcDbSpline
70
4
71
3
72
13
73
9
40
0
40
0
40
0
40
0
40
0.191882123401984
40
0.383759354636353
40
0.576547708617993
40
0.769329059219074
40
0.884627528906208
40
1
40
1
40
1
40
1
41
1
10
26.8022409167035
20
47.5197383662051
30
0
41
1
10
26.8048935927518
20
47.5212443331924
30
0
41
1
10
26.810227400607
20
47.5243846891361
30
0
41
1
10
26.8183268283164
20
47.5294785492822
30
0
41
1
10
26.8265241615732
20
47.534988121355
30
0
41
1
10
26.8337067333234
20
47.5401408997927
30
0
41
1
10
26.8398248313852
20
47.5447628804295
30
0
41
1
10
26.8431750930812
20
47.5473937825028
30
0
41
1
10
26.8448552330254
20
47.5487375569922
30
0
0
SPLINE
5
20D
100
AcDbEntity
8
1
62
256
6
ByLayer
370
18
48
1
60
0
100
AcDbSpline
70
4
71
3
72
13
73
9
40
0
40
0
40
0
40
0
40
0.134172002357854
40
0.268346098525366
40
0.402952501209887
40
0.537560597304946
40
0.7685939045788
40
1
40
1
40
1
40
1
41
1
10
29.3671687646267
20
47.3318881675159
30
0
41
1
10
29.3691991399173
20
47.3299830999787
30
0
41
1
10
29.3732719018454
20
47.3262480076452
30
0
41
1
10
29.3794265529111
20
47.3208681621497
30
0
41
1
10
29.3856180179237
20
47.315701820861
30
0
41
1
10
29.3933273180291
20
47.3095586324769
30
0
41
1
10
29.4025713661759
20
47.30264091277
30
0
41
1
10
29.4097546095883
20
47.2976540527579
30
0
41
1
10
29.4133565328961
20
47.2952544469258
30
0
0
SPLINE
5
20E
100
AcDbEntity
8
1
62
256
6
ByLayer
370
18
48
1
60
0
100
AcDbSpline
70
4
71
3
72
13
73
9
40
0
40
0
40
0
40
0
40
0.191882123402417
40
0.383759354637233
40
0.576547708619192
40
0.769329059220715
40
0.884627528906699
40
1
40
1
40
1
40
1
41
1
10
29.3370995221384
20
46.2191452796311
30
0
41
1
10
29.3338004977602
20
46.2167210948383
30
0
41
1
10
29.3271956950186
20
46.2117751333389
30
0
41
1
10
29.3172486722293
20
46.2040565356927
30
0
41
1
10
29.3072728033225
20
46.1960203335877
30
0
41
1
10
29.2986168513679
20
46.1887744361994
30
0
41
1
10
29.2913052853088
20
46.1824569865489
30
0
41
1
10
29.2873281505372
20
46.1789355336791
30
0
41
1
10
29.2853401266526
20
46.1771543719432
30
0
0
SPLINE
5
20F
100
AcDbEntity
8
1
62
256
6
ByLayer
370
18
48
1
60
0
100
AcDbSpline
70
4
71
3
72
13
73
9
40
0
40
0
40
0
40
0
40
0.11529730140185
40
0.230670927719827
40
0.422508613768673
40
0.614353172610511
40
0.807174089593708
40
1
40
1
40
1
40
1
41
1
10
29.1428253863611
20
45.9695925650696
30
0
41
1
10
29.1421801173402
20
45.9675392638533
30
0
41
1
10
29.1409381484607
20
45.9634595210272
30
0
41
1
10
29.1388458400544
20
45.9560906479299
30
0
41
1
10
29.1366474818736
20
45.9475481995138
30
0
41
1
10
29.1344791949487
20
45.9379102092287
30
0
41
1
10
29.1326585000884
20
45.9284808993358
30
0
41
1
10
29.1316583598159
20
45.9223282846322
30
0
41
1
10
29.1312138370306
20
45.9192885439483
30
0
0
SPLINE
5
210
100
AcDbEntity
8
1
62
256
6
ByLayer
370
18
48
1
60
0
100
AcDbSpline
70
4
71
3
72
13
73
9
40
0
40
0
40
0
40
0
40
0.161256445920355
40
0.322517166198939
40
0.483103044012202
40
0.643692122171251
40
0.821923685720126
40
1
40
1
40
1
40
1
41
1
10
29.2556190355296
20
47.5612925107686
30
0
41
1
10
29.2551784800841
20
47.5649285654331
30
0
41
1
10
29.2543849693927
20
47.5721623522761
30
0
41
1
10
29.2534656136424
20
47.5828850264949
30
0
41
1
10
29.2527955779432
20
47.5934738434275
30
0
41
1
10
29.2523453601504
20
47.6043101189645
30
0
41
1
10
29.2521314268783
20
47.6153881123807
30
0
41
1
10
29.2521516141512
20
47.6229246046828
30
0
41
1
10
29.2522048348198
20
47.626666273386
30
0
0
SPLINE
5
211
100
AcDbEntity
8
1
62
256
6
ByLayer
370
18
48
1
60
0
100
AcDbSpline
70
4
71
3
72
12
73
8
40
0
40
0
40
0
40
0
40
0.201793765036873
40
0.400750416856162
40
0.599700258134322
40
0.799855042584332
40
1
40
1
40
1
40
1
41
1
10
28.1545649067396
20
45.4619208291633
30
0
41
1
10
28.1508163763442
20
45.4631286473458
30
0
41
1
10
28.1432656269882
20
45.4655004454554
30
0
41
1
10
28.1316551352853
20
45.4689736661882
30
0
41
1
10
28.1197534189099
20
45.4723508349934
30
0
41
1
10
28.1074968356733
20
45.4756403642477
30
0
41
1
10
28.099082287234
20
45.4777637580359
30
0
41
1
10
28.0948187709621
20
45.4788078256427
30
0
0
SPLINE
5
212
100
AcDbEntity
8
1
62
256
6
ByLayer
370
18
48
1
60
0
100
AcDbSpline
70
4
71
3
72
12
73
8
40
0
40
0
40
0
40
0
40
0.201793765036675
40
0.400750416855957
40
0.599700258134176
40
0.799855042584178
40
1
40
1
40
1
40
1
41
1
10
27.9847755321024
20
48.276962816673
30
0
41
1
10
27.987844265025
20
48.2747892620374
30
0
41
1
10
27.9940689374058
20
48.270533607447
30
0
41
1
10
28.003762363872
20
48.2643369582574
30
0
41
1
10
28.0138304868494
20
48.2583549430742
30
0
41
1
10
28.0243356468654
20
48.2525773003497
30
0
41
1
10
28.0316480438269
20
48.2488881639665
30
0
41
1
10
28.035376588716
20
48.2470841032935
30
0
0
SPLINE
5
213
100
AcDbEntity
8
1
62
256
6
ByLayer
370
18
48
1
60
0
100
AcDbSpline
70
4
71
3
72
13
73
9
40
0
40
0
40
0
40
0
40
0.138413716494377
40
0.27695754338455
40
0.457316501294664
40
0.637680668493704
40
0.818838409556947
40
1
40
1
40
1
40
1
41
1
10
28.289441058104
20
48.225241566914
30
0
41
1
10
28.2924947810641
20
48.2260037727303
30
0
41
1
10
28.2985557617048
20
48.2275794830258
30
0
41
1
10
28.3084004645784
20
48.2303533747462
30
0
41
1
10
28.3189440233307
20
48.2335794113463
30
0
41
1
10
28.3301392160491
20
48.2373048279413
30
0
41
1
10
28.3411064923264
20
48.241243737879
30
0
41
1
10
28.3482707272016
20
48.2439981424399
30
0
41
1
10
28.3518129152864
20
48.2454077258956
30
0
0
SPLINE
5
214
100
AcDbEntity
8
1
62
256
6
ByLayer
370
18
48
1
60
0
100
AcDbSpline
70
4
71
3
72
13
73
9
40
0
40
0
40
0
40
0
40
0.178076314279834
40
0.356307877828574
40
0.516896955987847
40
0.677482833801016
40
0.83874355407967
40
1
40
1
40
1
40
1
41
1
10
26.8871356040221
20
46.1122173724503
30
0
41
1
10
26.886589087494
20
46.1151070402321
30
0
41
1
10
26.8854277917075
20
46.1209650896083
30
0
41
1
10
26.8835511031467
20
46.1296809333264
30
0
41
1
10
26.8815483859775
20
46.138311691336
30
0
41
1
10
26.8794324456096
20
46.1468464217173
30
0
41
1
10
26.8771238414365
20
46.155595496595
30
0
41
1
10
26.8754475491748
20
46.1615751829494
30
0
41
1
10
26.8745763241485
20
46.1645994181676
30
0
0
LINE
5
70
100
AcDbEntity
8
SK1
62
256
6
ByLayer
370
18
48
1
60
0
100
AcDbLine
10
-12.507757
20
-1.710775
30
0
11
-11.207763
21
-1.94
31
0
39
0
210
0
220
0
230
1
0
LINE
5
72
100
AcDbEntity
8
SK1
62
256
6
ByLayer
370
18
48
1
60
0
100
AcDbLine
10
-12.507757
20
-1.830775
30
0
11
-11.207763
21
-2.06
31
0
39
0
210
0
220
0
230
1
0
LINE
5
73
100
AcDbEntity
8
SK1
62
256
6
ByLayer
370
18
48
1
60
0
100
AcDbLine
10
-11.20776
20
-1.94
30
0
11
-10.880661
21
-1.94
31
0
39
0
210
0
220
0
230
1
0
LINE
5
74
100
AcDbEntity
8
1
62
256
6
ByLayer
370
18
48
1
60
0
100
AcDbLine
10
-10.943473
20
-18.69
30
0
11
-10.943473
21
-6.69
31
0
39
0
210
0
220
0
230
1
0
LINE
5
76
100
AcDbEntity
8
1
62
256
6
ByLayer
370
18
48
1
60
0
100
AcDbLine
10
31.453593
20
-18.69
30
0
11
-10.943473
21
-18.69
31
0
39
0
210
0
220
0
230
1
0
LINE
5
77
100
AcDbEntity
8
1
62
256
6
ByLayer
370
18
48
1
60
0
100
AcDbLine
10
10.006573
20
21.595714
30
0
11
-8.48554
21
21.595714
31
0
39
0
210
0
220
0
230
1
0
LINE
5
78
100
AcDbEntity
8
1
62
256
6
ByLayer
370
18
48
1
60
0
100
AcDbLine
10
-6.51796
20
-62.266244
30
0
11
-6.51796
21
-54.994759
31
0
39
0
210
0
220
0
230
1
0
LINE
5
79
100
AcDbEntity
8
1
62
256
6
ByLayer
370
18
48
1
60
0
100
AcDbLine
10
-6.51796
20
-62.266244
30
0
11
-6.497746
21
-61.284105
31
0
39
0
210
0
220
0
230
1
0
LINE
5
7A
100
AcDbEntity
8
1
62
256
6
ByLayer
370
18
48
1
60
0
100
AcDbLine
10
10.581967
20
-64.063526
30
0
11
-6.51796
21
-62.266244
31
0
39
0
210
0
220
0
230
1
0
LINE
5
7B
100
AcDbEntity
8
SK1
62
256
6
ByLayer
370
18
48
1
60
0
100
AcDbLine
10
-4.177712
20
29.81
30
0
11
-6.497746
21
29.81
31
0
39
0
210
0
220
0
230
1
0
LINE
5
7C
100
AcDbEntity
8
SK1
62
256
6
ByLayer
370
18
48
1
60
0
100
AcDbLine
10
-6.497746
20
27.817471
30
0
11
-6.497746
21
29.81
31
0
39
0
210
0
220
0
230
1
0
LINE
5
7D
100
AcDbEntity
8
SK1
62
256
6
ByLayer
370
18
48
1
60
0
100
AcDbLine
10
-6.497746
20
29.81
30
0
11
-6.51796
21
29.81
31
0
39
0
210
0
220
0
230
1
0
LINE
5
7E
100
AcDbEntity
8
1
62
256
6
ByLayer
370
18
48
1
60
0
100
AcDbLine
10
6.960412
20
38.414692
30
0
11
6.961866
21
38.414692
31
0
39
0
210
0
220
0
230
1
0
LINE
5
7F
100
AcDbEntity
8
1
62
256
6
ByLayer
370
18
48
1
60
0
100
AcDbLine
10
6.960412
20
38.414692
30
0
11
9.481972
21
36.681891
31
0
39
0
210
0
220
0
230
1
0
LINE
5
80
100
AcDbEntity
8
1
62
256
6
ByLayer
370
18
48
1
60
0
100
AcDbLine
10
9.483426
20
36.681891
30
0
11
9.483426
21
22.674529
31
0
39
0
210
0
220
0
230
1
0
LINE
5
81
100
AcDbEntity
8
1
62
256
6
ByLayer
370
18
48
1
60
0
100
AcDbLine
10
6.961866
20
38.414692
30
0
11
9.483426
21
36.681891
31
0
39
0
210
0
220
0
230
1
0
LINE
5
82
100
AcDbEntity
8
1
62
256
6
ByLayer
370
18
48
1
60
0
100
AcDbLine
10
9.481972
20
36.681891
30
0
11
9.483426
21
36.681891
31
0
39
0
210
0
220
0
230
1
0
LINE
5
83
100
AcDbEntity
8
1
62
256
6
ByLayer
370
18
48
1
60
0
100
AcDbLine
10
10.571822
20
46.868559
30
0
11
10.579507
21
64.183052
31
0
39
0
210
0
220
0
230
1
0
LINE
5
84
100
AcDbEntity
8
1
62
256
6
ByLayer
370
18
48
1
60
0
100
AcDbLine
10
16.34963
20
45.479967
30
0
11
10.571822
21
46.868559
31
0
39
0
210
0
220
0
230
1
0
LINE
5
85
100
AcDbEntity
8
1
62
256
6
ByLayer
370
18
48
1
60
0
100
AcDbLine
10
10.571927
20
46.80474
30
0
11
10.571822
21
46.868559
31
0
39
0
210
0
220
0
230
1
0
LINE
5
86
100
AcDbEntity
8
1
62
256
6
ByLayer
370
18
48
1
60
0
100
AcDbLine
10
15.268168
20
43.533411
30
0
11
10.572499
21
46.760223
31
0
39
0
210
0
220
0
230
1
0
LINE
5
87
100
AcDbEntity
8
1
62
256
6
ByLayer
370
18
48
1
60
0
100
AcDbLine
10
10.572499
20
46.760223
30
0
11
10.571927
21
46.80474
31
0
39
0
210
0
220
0
230
1
0
LINE
5
88
100
AcDbEntity
8
1
62
256
6
ByLayer
370
18
48
1
60
0
100
AcDbLine
10
10.579454
20
-64.063262
30
0
11
10.579507
21
-64.183052
31
0
39
0
210
0
220
0
230
1
0
LINE
5
89
100
AcDbEntity
8
1
62
256
6
ByLayer
370
18
48
1
60
0
100
AcDbLine
10
10.579507
20
-64.183052
30
0
11
10.581967
21
-64.063526
31
0
39
0
210
0
220
0
230
1
0
LINE
5
8A
100
AcDbEntity
8
1
62
256
6
ByLayer
370
18
48
1
60
0
100
AcDbLine
10
10.579507
20
-64.183052
30
0
11
21.511797
21
-65.632096
31
0
39
0
210
0
220
0
230
1
0
LINE
5
8B
100
AcDbEntity
8
1
62
256
6
ByLayer
370
18
48
1
60
0
100
AcDbLine
10
16.482139
20
45.673181
30
0
11
15.976557
21
44.935983
31
0
39
0
210
0
220
0
230
1
0
LINE
5
8C
100
AcDbEntity
8
1
62
256
6
ByLayer
370
18
48
1
60
0
100
AcDbLine
10
18.336059
20
42.194187
30
0
11
16.664883
21
39.75742
31
0
39
0
210
0
220
0
230
1
0
LINE
5
8D
100
AcDbEntity
8
1
62
256
6
ByLayer
370
18
48
1
60
0
100
AcDbLine
10
25.516378
20
33.67477
30
0
11
16.664883
21
39.75742
31
0
39
0
210
0
220
0
230
1
0
LINE
5
8E
100
AcDbEntity
8
1
62
256
6
ByLayer
370
18
48
1
60
0
100
AcDbLine
10
18.83422
20
38.995431
30
0
11
18.902278
21
38.829716
31
0
39
0
210
0
220
0
230
1
0
LINE
5
8F
100
AcDbEntity
8
1
62
256
6
ByLayer
370
18
48
1
60
0
100
AcDbLine
10
18.902278
20
38.829716
30
0
11
23.847247
21
35.431588
31
0
39
0
210
0
220
0
230
1
0
LINE
5
90
100
AcDbEntity
8
1
62
256
6
ByLayer
370
18
48
1
60
0
100
AcDbLine
10
18.902278
20
38.829716
30
0
11
19.530719
21
39.746056
31
0
39
0
210
0
220
0
230
1
0
LINE
5
91
100
AcDbEntity
8
1
62
256
6
ByLayer
370
18
48
1
60
0
100
AcDbLine
10
19.513615
20
39.986069
30
0
11
19.530719
21
39.746056
31
0
39
0
210
0
220
0
230
1
0
LINE
5
92
100
AcDbEntity
8
1
62
256
6
ByLayer
370
18
48
1
60
0
100
AcDbLine
10
18.83422
20
38.995431
30
0
11
19.513615
21
39.986069
31
0
39
0
210
0
220
0
230
1
0
LINE
5
93
100
AcDbEntity
8
1
62
256
6
ByLayer
370
18
48
1
60
0
100
AcDbLine
10
19.513615
20
39.986069
30
0
11
24.705833
21
36.418034
31
0
39
0
210
0
220
0
230
1
0
LINE
5
94
100
AcDbEntity
8
1
62
256
6
ByLayer
370
18
48
1
60
0
100
AcDbLine
10
41.093902
20
-62.192774
30
0
11
20.116448
21
-62.192774
31
0
39
0
210
0
220
0
230
1
0
LINE
5
95
100
AcDbEntity
8
1
62
256
6
ByLayer
370
18
48
1
60
0
100
AcDbLine
10
41.218112
20
-65.378045
30
0
11
20.116448
21
-62.192774
31
0
39
0
210
0
220
0
230
1
0
LINE
5
96
100
AcDbEntity
8
1
62
256
6
ByLayer
370
18
48
1
60
0
100
AcDbLine
10
20.460204
20
51.440554
30
0
11
17.592536
21
47.268
31
0
39
0
210
0
220
0
230
1
0
LINE
5
97
100
AcDbEntity
8
1
62
256
6
ByLayer
370
18
48
1
60
0
100
AcDbLine
10
20.57927
20
41.274126
30
0
11
25.524239
21
37.875997
31
0
39
0
210
0
220
0
230
1
0
LINE
5
98
100
AcDbEntity
8
1
62
256
6
ByLayer
370
18
48
1
60
0
100
AcDbLine
10
21.421532
20
42.499632
30
0
11
20.57927
21
41.274126
31
0
39
0
210
0
220
0
230
1
0
LINE
5
99
100
AcDbEntity
8
1
62
256
6
ByLayer
370
18
48
1
60
0
100
AcDbLine
10
10.579507
20
64.183052
30
0
11
21.511797
21
65.632096
31
0
39
0
210
0
220
0
230
1
0
LINE
5
9A
100
AcDbEntity
8
1
62
256
6
ByLayer
370
18
48
1
60
0
100
AcDbLine
10
28.21413
20
66.221868
30
0
11
21.511797
21
65.632096
31
0
39
0
210
0
220
0
230
1
0
LINE
5
9B
100
AcDbEntity
8
1
62
256
6
ByLayer
370
18
48
1
60
0
100
AcDbLine
10
21.511797
20
65.632096
30
0
11
21.506104
21
52.805466
31
0
39
0
210
0
220
0
230
1
0
LINE
5
9C
100
AcDbEntity
8
1
62
256
6
ByLayer
370
18
48
1
60
0
100
AcDbLine
10
21.42315
20
42.501989
30
0
11
21.671801
21
42.86455
31
0
39
0
210
0
220
0
230
1
0
LINE
5
9D
100
AcDbEntity
8
1
62
256
6
ByLayer
370
18
48
1
60
0
100
AcDbLine
10
17.114403
20
43.11967
30
0
11
22.534823
21
51.006568
31
0
39
0
210
0
220
0
230
1
0
LINE
5
9E
100
AcDbEntity
8
1
62
256
6
ByLayer
370
18
48
1
60
0
100
AcDbLine
10
22.864317
20
48.395261
30
0
11
24.086484
21
50.173556
31
0
39
0
210
0
220
0
230
1
0
LINE
5
9F
100
AcDbEntity
8
1
62
256
6
ByLayer
370
18
48
1
60
0
100
AcDbLine
10
22.864317
20
48.395261
30
0
11
22.855942
21
48.383049
31
0
39
0
210
0
220
0
230
1
0
LINE
5
A0
100
AcDbEntity
8
1
62
256
6
ByLayer
370
18
48
1
60
0
100
AcDbLine
10
23.159777
20
3.19
30
0
11
23.095788
21
3.19
31
0
39
0
210
0
220
0
230
1
0
LINE
5
A1
100
AcDbEntity
8
1
62
256
6
ByLayer
370
18
48
1
60
0
100
AcDbLine
10
30.337824
20
16.69
30
0
11
23.159777
21
3.19
31
0
39
0
210
0
220
0
230
1
0
LINE
5
A2
100
AcDbEntity
8
1
62
256
6
ByLayer
370
18
48
1
60
0
100
AcDbLine
10
22.836512
20
48.354331
30
0
11
23.926846
21
49.940786
31
0
39
0
210
0
220
0
230
1
0
LINE
5
A3
100
AcDbEntity
8
1
62
256
6
ByLayer
370
18
48
1
60
0
100
AcDbLine
10
24.086484
20
50.173556
30
0
11
23.926846
21
49.940786
31
0
39
0
210
0
220
0
230
1
0
LINE
5
A4
100
AcDbEntity
8
1
62
256
6
ByLayer
370
18
48
1
60
0
100
AcDbLine
10
24.371326
20
46.968182
30
0
11
24.372997
21
46.970618
31
0
39
0
210
0
220
0
230
1
0
LINE
5
A5
100
AcDbEntity
8
1
62
256
6
ByLayer
370
18
48
1
60
0
100
AcDbLine
10
23.847247
20
35.431588
30
0
11
24.475688
21
36.347927
31
0
39
0
210
0
220
0
230
1
0
LINE
5
A6
100
AcDbEntity
8
1
62
256
6
ByLayer
370
18
48
1
60
0
100
AcDbLine
10
19.530719
20
39.746056
30
0
11
24.475688
21
36.347927
31
0
39
0
210
0
220
0
230
1
0
LINE
5
A7
100
AcDbEntity
8
1
62
256
6
ByLayer
370
18
48
1
60
0
100
AcDbLine
10
24.705833
20
36.418034
30
0
11
24.475688
21
36.347927
31
0
39
0
210
0
220
0
230
1
0
LINE
5
A8
100
AcDbEntity
8
1
62
256
6
ByLayer
370
18
48
1
60
0
100
AcDbLine
10
25.073106
20
-6.69
30
0
11
-10.943473
21
-6.69
31
0
39
0
210
0
220
0
230
1
0
LINE
5
A9
100
AcDbEntity
8
1
62
256
6
ByLayer
370
18
48
1
60
0
100
AcDbLine
10
31.453593
20
-18.69
30
0
11
25.073106
21
-6.69
31
0
39
0
210
0
220
0
230
1
0
LINE
5
AA
100
AcDbEntity
8
1
62
256
6
ByLayer
370
18
48
1
60
0
100
AcDbLine
10
27.187553
20
36.111536
30
0
11
25.516378
21
33.67477
31
0
39
0
210
0
220
0
230
1
0
LINE
5
AB
100
AcDbEntity
8
1
62
256
6
ByLayer
370
18
48
1
60
0
100
AcDbLine
10
18.336059
20
42.194187
30
0
11
27.187553
21
36.111536
31
0
39
0
210
0
220
0
230
1
0
LINE
5
AC
100
AcDbEntity
8
1
62
256
6
ByLayer
370
18
48
1
60
0
100
AcDbLine
10
27.465408
20
-64.964746
30
0
11
26.979842
21
-64.322875
31
0
39
0
210
0
220
0
230
1
0
LINE
5
AD
100
AcDbEntity
8
1
62
256
6
ByLayer
370
18
48
1
60
0
100
AcDbLine
10
27.465408
20
-64.964746
30
0
11
27.45586
21
-64.963906
31
0
39
0
210
0
220
0
230
1
0
LINE
5
AE
100
AcDbEntity
8
1
62
256
6
ByLayer
370
18
48
1
60
0
100
AcDbLine
10
27.465408
20
-64.964746
30
0
11
27.527061
21
-64.349882
31
0
39
0
210
0
220
0
230
1
0
LINE
5
AF
100
AcDbEntity
8
1
62
256
6
ByLayer
370
18
48
1
60
0
100
AcDbLine
10
27.719359
20
-65.816296
30
0
11
28.371749
21
-66.768894
31
0
39
0
210
0
220
0
230
1
0
LINE
5
B0
100
AcDbEntity
8
1
62
256
6
ByLayer
370
18
48
1
60
0
100
AcDbLine
10
28.306526
20
66.510009
30
0
11
28.102462
21
66.212042
31
0
39
0
210
0
220
0
230
1
0
LINE
5
B1
100
AcDbEntity
8
1
62
256
6
ByLayer
370
18
48
1
60
0
100
AcDbLine
10
28.306526
20
66.510009
30
0
11
29.06565
21
59.259035
31
0
39
0
210
0
220
0
230
1
0
LINE
5
B2
100
AcDbEntity
8
1
62
256
6
ByLayer
370
18
48
1
60
0
100
AcDbLine
10
43.578756
20
-68.248475
30
0
11
28.658365
21
-66.935554
31
0
39
0
210
0
220
0
230
1
0
LINE
5
B3
100
AcDbEntity
8
1
62
256
6
ByLayer
370
18
48
1
60
0
100
AcDbLine
10
28.005975
20
-65.982956
30
0
11
28.658365
21
-66.935554
31
0
39
0
210
0
220
0
230
1
0
LINE
5
B4
100
AcDbEntity
8
1
62
256
6
ByLayer
370
18
48
1
60
0
100
AcDbLine
10
29.969093
20
-66.155701
30
0
11
29.352661
21
-65.255608
31
0
39
0
210
0
220
0
230
1
0
LINE
5
B5
100
AcDbEntity
8
1
62
256
6
ByLayer
370
18
48
1
60
0
100
AcDbLine
10
40.346816
20
-66.22304
30
0
11
29.352661
21
-65.255608
31
0
39
0
210
0
220
0
230
1
0
LINE
5
B6
100
AcDbEntity
8
1
62
256
6
ByLayer
370
18
48
1
60
0
100
AcDbLine
10
29.352661
20
-65.255608
30
0
11
29.35279
21
-64.858408
31
0
39
0
210
0
220
0
230
1
0
LINE
5
B7
100
AcDbEntity
8
1
62
256
6
ByLayer
370
18
48
1
60
0
100
AcDbLine
10
29.969093
20
-66.155701
30
0
11
40.963248
21
-67.123133
31
0
39
0
210
0
220
0
230
1
0
LINE
5
B8
100
AcDbEntity
8
1
62
256
6
ByLayer
370
18
48
1
60
0
100
AcDbLine
10
29.969093
20
-66.155701
30
0
11
28.005975
21
-65.982956
31
0
39
0
210
0
220
0
230
1
0
LINE
5
B9
100
AcDbEntity
8
1
62
256
6
ByLayer
370
18
48
1
60
0
100
AcDbLine
10
40.963248
20
-67.123133
30
0
11
29.969093
21
-66.155701
31
0
39
0
210
0
220
0
230
1
0
LINE
5
BA
100
AcDbEntity
8
1
62
256
6
ByLayer
370
18
48
1
60
0
100
AcDbLine
10
30.181038
20
-54.306104
30
0
11
30.642463
21
-54.97986
31
0
39
0
210
0
220
0
230
1
0
LINE
5
BB
100
AcDbEntity
8
1
62
256
6
ByLayer
370
18
48
1
60
0
100
AcDbLine
10
31.104683
20
35.628842
30
0
11
30.599924
21
34.892845
31
0
39
0
210
0
220
0
230
1
0
LINE
5
BC
100
AcDbEntity
8
1
62
256
6
ByLayer
370
18
48
1
60
0
100
AcDbLine
10
32.188821
20
37.2063
30
0
11
32.193682
21
37.234252
31
0
39
0
210
0
220
0
230
1
0
LINE
5
BD
100
AcDbEntity
8
1
62
256
6
ByLayer
370
18
48
1
60
0
100
AcDbLine
10
31.104683
20
35.628842
30
0
11
32.188821
21
37.2063
31
0
39
0
210
0
220
0
230
1
0
LINE
5
BE
100
AcDbEntity
8
1
62
256
6
ByLayer
370
18
48
1
60
0
100
AcDbLine
10
32.188821
20
37.2063
30
0
11
30.692172
21
35.027157
31
0
39
0
210
0
220
0
230
1
0
LINE
5
BF
100
AcDbEntity
8
1
62
256
6
ByLayer
370
18
48
1
60
0
100
AcDbLine
10
33.403907
20
27.157119
30
0
11
33.414031
21
27.157119
31
0
39
0
210
0
220
0
230
1
0
LINE
5
C0
100
AcDbEntity
8
1
62
256
6
ByLayer
370
18
48
1
60
0
100
AcDbLine
10
33.802536
20
-23.108854
30
0
11
43.85651
21
-42.225218
31
0
39
0
210
0
220
0
230
1
0
LINE
5
C1
100
AcDbEntity
8
1
62
256
6
ByLayer
370
18
48
1
60
0
100
AcDbLine
10
28.489929
20
35.302533
30
0
11
33.910349
21
43.189431
31
0
39
0
210
0
220
0
230
1
0
LINE
5
C2
100
AcDbEntity
8
1
62
256
6
ByLayer
370
18
48
1
60
0
100
AcDbLine
10
36.659292
20
28.833665
30
0
11
29.542248
21
33.72442
31
0
39
0
210
0
220
0
230
1
0
LINE
5
C3
100
AcDbEntity
8
1
62
256
6
ByLayer
370
18
48
1
60
0
100
AcDbLine
10
36.933535
20
29.279233
30
0
11
36.945806
21
29.279233
31
0
39
0
210
0
220
0
230
1
0
LINE
5
C4
100
AcDbEntity
8
1
62
256
6
ByLayer
370
18
48
1
60
0
100
AcDbLine
10
38.625454
20
32.474772
30
0
11
36.933535
21
29.279233
31
0
39
0
210
0
220
0
230
1
0
LINE
5
C5
100
AcDbEntity
8
1
62
256
6
ByLayer
370
18
48
1
60
0
100
AcDbLine
10
36.931634
20
59.769586
30
0
11
38.650088
21
62.267864
31
0
39
0
210
0
220
0
230
1
0
LINE
5
C6
100
AcDbEntity
8
1
62
256
6
ByLayer
370
18
48
1
60
0
100
AcDbLine
10
40.346816
20
-66.22304
30
0
11
40.346945
21
-65.82584
31
0
39
0
210
0
220
0
230
1
0
LINE
5
C7
100
AcDbEntity
8
1
62
256
6
ByLayer
370
18
48
1
60
0
100
AcDbLine
10
40.963248
20
-67.123133
30
0
11
40.346816
21
-66.22304
31
0
39
0
210
0
220
0
230
1
0
LINE
5
C8
100
AcDbEntity
8
1
62
256
6
ByLayer
370
18
48
1
60
0
100
AcDbLine
10
42.119284
20
-64.931121
30
0
11
41.346801
21
-65.565951
31
0
39
0
210
0
220
0
230
1
0
LINE
5
C9
100
AcDbEntity
8
1
62
256
6
ByLayer
370
18
48
1
60
0
100
AcDbLine
10
41.218112
20
-65.378045
30
0
11
41.346801
21
-65.565951
31
0
39
0
210
0
220
0
230
1
0
LINE
5
CA
100
AcDbEntity
8
1
62
256
6
ByLayer
370
18
48
1
60
0
100
AcDbLine
10
27.112836
20
-64.313432
30
0
11
41.346801
21
-65.565951
31
0
39
0
210
0
220
0
230
1
0
LINE
5
CB
100
AcDbEntity
8
1
62
256
6
ByLayer
370
18
48
1
60
0
100
AcDbLine
10
43.829108
20
-48.513554
30
0
11
41.53609
21
-62.970755
31
0
39
0
210
0
220
0
230
1
0
LINE
5
CC
100
AcDbEntity
8
1
62
256
6
ByLayer
370
18
48
1
60
0
100
AcDbLine
10
41.093902
20
-62.192774
30
0
11
41.53609
21
-62.970755
31
0
39
0
210
0
220
0
230
1
0
LINE
5
CD
100
AcDbEntity
8
1
62
256
6
ByLayer
370
18
48
1
60
0
100
AcDbLine
10
41.53609
20
-62.970755
30
0
11
41.776939
21
-64.43124
31
0
39
0
210
0
220
0
230
1
0
LINE
5
CE
100
AcDbEntity
8
1
62
256
6
ByLayer
370
18
48
1
60
0
100
AcDbLine
10
42.565996
20
-64.002213
30
0
11
43.711761
21
-53.058142
31
0
39
0
210
0
220
0
230
1
0
LINE
5
CF
100
AcDbEntity
8
1
62
256
6
ByLayer
370
18
48
1
60
0
100
AcDbLine
10
42.948227
20
-64.085189
30
0
11
42.565996
21
-64.002213
31
0
39
0
210
0
220
0
230
1
0
LINE
5
D0
100
AcDbEntity
8
1
62
256
6
ByLayer
370
18
48
1
60
0
100
AcDbLine
10
42.926366
20
-67.295877
30
0
11
40.963248
21
-67.123133
31
0
39
0
210
0
220
0
230
1
0
LINE
5
D1
100
AcDbEntity
8
1
62
256
6
ByLayer
370
18
48
1
60
0
100
AcDbLine
10
43.578756
20
-68.248475
30
0
11
42.926366
21
-67.295877
31
0
39
0
210
0
220
0
230
1
0
LINE
5
D2
100
AcDbEntity
8
1
62
256
6
ByLayer
370
18
48
1
60
0
100
AcDbLine
10
43.564659
20
-64.985281
30
0
11
42.948227
21
-64.085189
31
0
39
0
210
0
220
0
230
1
0
LINE
5
D3
100
AcDbEntity
8
1
62
256
6
ByLayer
370
18
48
1
60
0
100
AcDbLine
10
43.564659
20
-64.985281
30
0
11
43.360071
21
-66.939457
31
0
39
0
210
0
220
0
230
1
0
LINE
5
D4
100
AcDbEntity
8
1
62
256
6
ByLayer
370
18
48
1
60
0
100
AcDbLine
10
43.564659
20
-64.985281
30
0
11
44.710424
21
-54.04121
31
0
39
0
210
0
220
0
230
1
0
LINE
5
D5
100
AcDbEntity
8
1
62
256
6
ByLayer
370
18
48
1
60
0
100
AcDbLine
10
44.710424
20
-54.04121
30
0
11
43.564659
21
-64.985281
31
0
39
0
210
0
220
0
230
1
0
LINE
5
D6
100
AcDbEntity
8
1
62
256
6
ByLayer
370
18
48
1
60
0
100
AcDbLine
10
44.319208
20
-52.48839
30
0
11
43.702776
21
-51.588297
31
0
39
0
210
0
220
0
230
1
0
LINE
5
D7
100
AcDbEntity
8
1
62
256
6
ByLayer
370
18
48
1
60
0
100
AcDbLine
10
43.360071
20
-66.939457
30
0
11
44.012461
21
-67.892055
31
0
39
0
210
0
220
0
230
1
0
LINE
5
D8
100
AcDbEntity
8
1
62
256
6
ByLayer
370
18
48
1
60
0
100
AcDbLine
10
45.567402
20
-53.039633
30
0
11
44.012461
21
-67.892055
31
0
39
0
210
0
220
0
230
1
0
LINE
5
D9
100
AcDbEntity
8
1
62
256
6
ByLayer
370
18
48
1
60
0
100
AcDbLine
10
44.068353
20
-51.292017
30
0
11
43.636813
21
-50.605748
31
0
39
0
210
0
220
0
230
1
0
LINE
5
DA
100
AcDbEntity
8
1
62
256
6
ByLayer
370
18
48
1
60
0
100
AcDbLine
10
44.069349
20
-51.282512
30
0
11
44.068353
21
-51.292017
31
0
39
0
210
0
220
0
230
1
0
LINE
5
DB
100
AcDbEntity
8
1
62
256
6
ByLayer
370
18
48
1
60
0
100
AcDbLine
10
44.068353
20
-51.292017
30
0
11
43.551957
21
-51.246577
31
0
39
0
210
0
220
0
230
1
0
LINE
5
DC
100
AcDbEntity
8
1
62
256
6
ByLayer
370
18
48
1
60
0
100
AcDbLine
10
44.093992
20
-53.141118
30
0
11
43.711761
21
-53.058142
31
0
39
0
210
0
220
0
230
1
0
LINE
5
DD
100
AcDbEntity
8
1
62
256
6
ByLayer
370
18
48
1
60
0
100
AcDbLine
10
42.948227
20
-64.085189
30
0
11
44.093992
21
-53.141118
31
0
39
0
210
0
220
0
230
1
0
LINE
5
DE
100
AcDbEntity
8
1
62
256
6
ByLayer
370
18
48
1
60
0
100
AcDbLine
10
44.710424
20
-54.04121
30
0
11
44.093992
21
-53.141118
31
0
39
0
210
0
220
0
230
1
0
LINE
5
DF
100
AcDbEntity
8
1
62
256
6
ByLayer
370
18
48
1
60
0
100
AcDbLine
10
45.502179
20
-52.780748
30
0
11
44.849789
21
-51.82815
31
0
39
0
210
0
220
0
230
1
0
LINE
5
E0
100
AcDbEntity
8
1
62
256
6
ByLayer
370
18
48
1
60
0
100
AcDbLine
10
39.206077
20
51.935429
30
0
11
44.94894
21
52.440773
31
0
39
0
210
0
220
0
230
1
0
LINE
5
E1
100
AcDbEntity
8
1
62
256
6
ByLayer
370
18
48
1
60
0
100
AcDbLine
10
45.157085
20
50.452621
30
0
11
44.94894
21
52.440773
31
0
39
0
210
0
220
0
230
1
0
LINE
5
E2
100
AcDbEntity
8
1
62
256
6
ByLayer
370
18
48
1
60
0
100
AcDbLine
10
44.94894
20
52.440773
30
0
11
44.869558
21
52.520203
31
0
39
0
210
0
220
0
230
1
0
LINE
5
E3
100
AcDbEntity
8
1
62
256
6
ByLayer
370
18
48
1
60
0
100
AcDbLine
10
45.157085
20
-50.452621
30
0
11
45.25876
21
-44.935963
31
0
39
0
210
0
220
0
230
1
0
LINE
5
E4
100
AcDbEntity
8
1
62
256
6
ByLayer
370
18
48
1
60
0
100
AcDbLine
10
45.157085
20
-50.452621
30
0
11
44.991425
21
-52.034963
31
0
39
0
210
0
220
0
230
1
0
LINE
5
E5
100
AcDbEntity
8
1
62
256
6
ByLayer
370
18
48
1
60
0
100
AcDbLine
10
43.829108
20
-48.513554
30
0
11
45.157085
21
-50.452621
31
0
39
0
210
0
220
0
230
1
0
LINE
5
E6
100
AcDbEntity
8
1
62
256
6
ByLayer
370
18
48
1
60
0
100
AcDbLine
10
39.240058
20
52.088273
30
0
11
45.215563
21
52.614088
31
0
39
0
210
0
220
0
230
1
0
LINE
5
E7
100
AcDbEntity
8
1
62
256
6
ByLayer
370
18
48
1
60
0
100
AcDbLine
10
44.968555
20
52.253415
30
0
11
45.215563
21
52.614088
31
0
39
0
210
0
220
0
230
1
0
LINE
5
E8
100
AcDbEntity
8
1
62
256
6
ByLayer
370
18
48
1
60
0
100
AcDbLine
10
45.157085
20
50.452621
30
0
11
45.25876
21
44.935963
31
0
39
0
210
0
220
0
230
1
0
LINE
5
E9
100
AcDbEntity
8
1
62
256
6
ByLayer
370
18
48
1
60
0
100
AcDbLine
10
45.25876
20
44.935963
30
0
11
43.85651
21
42.225218
31
0
39
0
210
0
220
0
230
1
0
LINE
5
EA
100
AcDbEntity
8
1
62
256
6
ByLayer
370
18
48
1
60
0
100
AcDbLine
10
45.25876
20
44.935963
30
0
11
38.625454
21
32.474772
31
0
39
0
210
0
220
0
230
1
0
LINE
5
EB
100
AcDbEntity
8
1
62
256
6
ByLayer
370
18
48
1
60
0
100
AcDbLine
10
29.35279
20
-64.858408
30
0
11
40.346945
21
-65.82584
31
0
39
0
210
0
220
0
230
1
0
LINE
5
EC
100
AcDbEntity
8
SK1
62
256
6
ByLayer
370
18
48
1
60
0
100
AcDbLine
10
-11.20776
20
2.06
30
0
11
-10.729058
21
2.06
31
0
39
0
210
0
220
0
230
1
0
LINE
5
ED
100
AcDbEntity
8
SK1
62
256
6
ByLayer
370
18
48
1
60
0
100
AcDbLine
10
-12.507757
20
1.830775
30
0
11
-11.207763
21
2.06
31
0
39
0
210
0
220
0
230
1
0
LINE
5
EE
100
AcDbEntity
8
1
62
256
6
ByLayer
370
18
48
1
60
0
100
AcDbLine
10
33.802536
20
23.108854
30
0
11
43.85651
21
42.225218
31
0
39
0
210
0
220
0
230
1
0
LINE
5
EF
100
AcDbEntity
8
1
62
256
6
ByLayer
370
18
48
1
60
0
100
AcDbLine
10
25.073106
20
6.69
30
0
11
31.453593
21
18.69
31
0
39
0
210
0
220
0
230
1
0
LINE
5
F0
100
AcDbEntity
8
1
62
256
6
ByLayer
370
18
48
1
60
0
100
AcDbLine
10
45.502179
20
52.780748
30
0
11
44.991425
21
52.034963
31
0
39
0
210
0
220
0
230
1
0
LINE
5
F1
100
AcDbEntity
8
1
62
256
6
ByLayer
370
18
48
1
60
0
100
AcDbLine
10
44.012461
20
67.892055
30
0
11
45.567402
21
53.039633
31
0
39
0
210
0
220
0
230
1
0
LINE
5
F2
100
AcDbEntity
8
1
62
256
6
ByLayer
370
18
48
1
60
0
100
AcDbLine
10
28.658365
20
66.935554
30
0
11
43.578756
21
68.248475
31
0
39
0
210
0
220
0
230
1
0
LINE
5
F3
100
AcDbEntity
8
1
62
256
6
ByLayer
370
18
48
1
60
0
100
AcDbLine
10
27.9832
20
66.201548
30
0
11
28.371749
21
66.768894
31
0
39
0
210
0
220
0
230
1
0
LINE
5
F4
100
AcDbEntity
8
1
62
256
6
ByLayer
370
18
48
1
60
0
100
AcDbLine
10
9.79218
20
42.535496
30
0
11
12.142047
21
40.92068
31
0
39
0
210
0
220
0
230
1
0
LINE
5
F5
100
AcDbEntity
8
1
62
256
6
ByLayer
370
18
48
1
60
0
100
AcDbLine
10
31.35318
20
42.561807
30
0
11
32.575347
21
44.340102
31
0
39
0
210
0
220
0
230
1
0
LINE
5
F6
100
AcDbEntity
8
1
62
256
6
ByLayer
370
18
48
1
60
0
100
AcDbLine
10
9.045933
20
29.81
30
0
11
-4.177712
21
29.81
31
0
39
0
210
0
220
0
230
1
0
LINE
5
F7
100
AcDbEntity
8
1
62
256
6
ByLayer
370
18
48
1
60
0
100
AcDbLine
10
-6.51796
20
62.266244
30
0
11
10.579454
21
64.063262
31
0
39
0
210
0
220
0
230
1
0
LINE
5
F8
100
AcDbEntity
8
SK1
62
256
6
ByLayer
370
18
48
1
60
0
100
AcDbLine
10
-6.51796
20
29.81
30
0
11
-6.51796
21
42.956012
31
0
39
0
210
0
220
0
230
1
0
LINE
5
F9
100
AcDbEntity
8
1
62
256
6
ByLayer
370
18
48
1
60
0
100
AcDbLine
10
27.769586
20
-64.45466
30
0
11
27.654136
21
-65.557411
31
0
39
0
210
0
220
0
230
1
0
LINE
5
FA
100
AcDbEntity
8
1
62
256
6
ByLayer
370
18
48
1
60
0
100
AcDbLine
10
21.511797
20
-65.632096
30
0
11
27.9832
21
-66.201548
31
0
39
0
210
0
220
0
230
1
0
LINE
5
FB
100
AcDbEntity
8
1
62
256
6
ByLayer
370
18
48
1
60
0
100
AcDbLine
10
39.782104
20
59.34773
30
0
11
39.999722
21
58.510964
31
0
39
0
210
0
220
0
230
1
0
LINE
5
FC
100
AcDbEntity
8
1
62
256
6
ByLayer
370
18
48
1
60
0
100
AcDbLine
10
35.06135
20
41.406807
30
0
11
32.193682
21
37.234252
31
0
39
0
210
0
220
0
230
1
0
LINE
5
FD
100
AcDbEntity
8
1
62
256
6
ByLayer
370
18
48
1
60
0
100
AcDbLine
10
44.915012
20
-52.087035
30
0
11
45.567402
21
-53.039633
31
0
39
0
210
0
220
0
230
1
0
LINE
5
FE
100
AcDbEntity
8
1
62
256
6
ByLayer
370
18
48
1
60
0
100
AcDbLine
10
44.710424
20
-54.04121
30
0
11
44.915012
21
-52.087035
31
0
39
0
210
0
220
0
230
1
0
LINE
5
FF
100
AcDbEntity
8
1
62
256
6
ByLayer
370
18
48
1
60
0
100
AcDbLine
10
43.605937
20
-50.730972
30
0
11
43.636813
21
-50.605748
31
0
39
0
210
0
220
0
230
1
0
LINE
5
100
100
AcDbEntity
8
1
62
256
6
ByLayer
370
18
48
1
60
0
100
AcDbLine
10
42.119284
20
-64.931121
30
0
11
43.605937
21
-50.730972
31
0
39
0
210
0
220
0
230
1
0
LINE
5
101
100
AcDbEntity
8
1
62
256
6
ByLayer
370
18
48
1
60
0
100
AcDbLine
10
41.776939
20
-64.43124
30
0
11
42.119284
21
-64.931121
31
0
39
0
210
0
220
0
230
1
0
LINE
5
102
100
AcDbEntity
8
1
62
256
6
ByLayer
370
18
48
1
60
0
100
AcDbLine
10
41.218112
20
-65.378045
30
0
11
41.776939
21
-64.43124
31
0
39
0
210
0
220
0
230
1
0
LINE
5
103
100
AcDbEntity
8
1
62
256
6
ByLayer
370
18
48
1
60
0
100
AcDbLine
10
34.659482
20
62.180968
30
0
11
35.518384
21
62.277711
31
0
39
0
210
0
220
0
230
1
0
LINE
5
104
100
AcDbEntity
8
SK1
62
256
6
ByLayer
370
18
48
1
60
0
100
AcDbLine
10
-10.943473
20
6.69
30
0
11
-10.943473
21
18.69
31
0
39
0
210
0
220
0
230
1
0
LINE
5
105
100
AcDbEntity
8
1
62
256
6
ByLayer
370
18
48
1
60
0
100
AcDbLine
10
40.867787
20
52.094989
30
0
11
39.209041
21
51.949027
31
0
39
0
210
0
220
0
230
1
0
LINE
5
106
100
AcDbEntity
8
1
62
256
6
ByLayer
370
18
48
1
60
0
100
AcDbLine
10
44.869558
20
52.520203
30
0
11
41.794546
21
52.249617
31
0
39
0
210
0
220
0
230
1
0
LINE
5
107
100
AcDbEntity
8
1
62
256
6
ByLayer
370
18
48
1
60
0
100
AcDbLine
10
-6.497746
20
-61.284105
30
0
11
-6.497746
21
-55.060201
31
0
39
0
210
0
220
0
230
1
0
LINE
5
108
100
AcDbEntity
8
1
62
256
6
ByLayer
370
18
48
1
60
0
100
AcDbLine
10
0.000388
20
-61.967089
30
0
11
-6.497746
21
-61.284105
31
0
39
0
210
0
220
0
230
1
0
LINE
5
109
100
AcDbEntity
8
1
62
256
6
ByLayer
370
18
48
1
60
0
100
AcDbLine
10
-5.244626
20
-58.62959
30
0
11
0.000388
21
-61.967089
31
0
39
0
210
0
220
0
230
1
0
LINE
5
10A
100
AcDbEntity
8
1
62
256
6
ByLayer
370
18
48
1
60
0
100
AcDbLine
10
17.568196
20
47.253433
30
0
11
16.484058
21
45.675975
31
0
39
0
210
0
220
0
230
1
0
LINE
5
10B
100
AcDbEntity
8
1
62
256
6
ByLayer
370
18
48
1
60
0
100
AcDbLine
10
17.592536
20
47.268
30
0
11
17.568196
21
47.253433
31
0
39
0
210
0
220
0
230
1
0
LINE
5
10C
100
AcDbEntity
8
1
62
256
6
ByLayer
370
18
48
1
60
0
100
AcDbLine
10
36.945806
20
29.279233
30
0
11
21.446199
21
0.128588
31
0
39
0
210
0
220
0
230
1
0
LINE
5
10D
100
AcDbEntity
8
1
62
256
6
ByLayer
370
18
48
1
60
0
100
AcDbLine
10
30.642463
20
-54.97986
30
0
11
30.601687
21
-57.565964
31
0
39
0
210
0
220
0
230
1
0
LINE
5
10E
100
AcDbEntity
8
1
62
256
6
ByLayer
370
18
48
1
60
0
100
AcDbLine
10
30.337824
20
16.69
30
0
11
30.273835
21
16.69
31
0
39
0
210
0
220
0
230
1
0
LINE
5
10F
100
AcDbEntity
8
1
62
256
6
ByLayer
370
18
48
1
60
0
100
AcDbLine
10
23.095788
20
3.19
30
0
11
30.273835
21
16.69
31
0
39
0
210
0
220
0
230
1
0
LINE
5
110
100
AcDbEntity
8
1
62
256
6
ByLayer
370
18
48
1
60
0
100
AcDbLine
10
9.481972
20
22.678339
30
0
11
9.481972
21
36.681891
31
0
39
0
210
0
220
0
230
1
0
LINE
5
111
100
AcDbEntity
8
1
62
256
6
ByLayer
370
18
48
1
60
0
100
AcDbLine
10
29.571608
20
33.748367
30
0
11
36.679895
21
28.86363
31
0
39
0
210
0
220
0
230
1
0
LINE
5
112
100
AcDbEntity
8
SK1
62
256
6
ByLayer
370
18
48
1
60
0
100
AcDbLine
10
-10.883802
20
-2.06
30
0
11
-11.20776
21
-2.06
31
0
39
0
210
0
220
0
230
1
0
LINE
5
113
100
AcDbEntity
8
1
62
256
6
ByLayer
370
18
48
1
60
0
100
AcDbLine
10
27.429262
20
-64.965795
30
0
11
27.681206
21
-65.298841
31
0
39
0
210
0
220
0
230
1
0
LINE
5
114
100
AcDbEntity
8
1
62
256
6
ByLayer
370
18
48
1
60
0
100
AcDbLine
10
27.45586
20
-64.963906
30
0
11
27.429262
21
-64.965795
31
0
39
0
210
0
220
0
230
1
0
LINE
5
115
100
AcDbEntity
8
1
62
256
6
ByLayer
370
18
48
1
60
0
100
AcDbLine
10
12.307331
20
40.800773
30
0
11
31.138097
21
27.860477
31
0
39
0
210
0
220
0
230
1
0
LINE
5
116
100
AcDbEntity
8
1
62
256
6
ByLayer
370
18
48
1
60
0
100
AcDbLine
10
10.574364
20
45.627946
30
0
11
10.573684
21
44.097416
31
0
39
0
210
0
220
0
230
1
0
LINE
5
117
100
AcDbEntity
8
1
62
256
6
ByLayer
370
18
48
1
60
0
100
AcDbLine
10
15.142722
20
42.48862
30
0
11
10.574364
21
45.627946
31
0
39
0
210
0
220
0
230
1
0
LINE
5
118
100
AcDbEntity
8
1
62
256
6
ByLayer
370
18
48
1
60
0
100
AcDbLine
10
44.075524
20
-51.257467
30
0
11
44.315899
21
-51.639732
31
0
39
0
210
0
220
0
230
1
0
LINE
5
119
100
AcDbEntity
8
1
62
256
6
ByLayer
370
18
48
1
60
0
100
AcDbLine
10
44.069349
20
-51.282512
30
0
11
44.075524
21
-51.257467
31
0
39
0
210
0
220
0
230
1
0
LINE
5
11A
100
AcDbEntity
8
1
62
256
6
ByLayer
370
18
48
1
60
0
100
AcDbLine
10
44.563173
20
-51.66149
30
0
11
43.700938
21
-51.585618
31
0
39
0
210
0
220
0
230
1
0
LINE
5
11B
100
AcDbEntity
8
1
62
256
6
ByLayer
370
18
48
1
60
0
100
AcDbLine
10
27.112836
20
-64.313432
30
0
11
26.979842
21
-64.322875
31
0
39
0
210
0
220
0
230
1
0
LINE
5
11C
100
AcDbEntity
8
SK1
62
256
6
ByLayer
370
18
48
1
60
0
100
AcDbLine
10
-6.51796
20
29.81
30
0
11
-6.51796
21
27.780631
31
0
39
0
210
0
220
0
230
1
0
LINE
5
11D
100
AcDbEntity
8
1
62
256
6
ByLayer
370
18
48
1
60
0
100
AcDbLine
10
43.85651
20
-42.225218
30
0
11
45.25876
21
-44.935963
31
0
39
0
210
0
220
0
230
1
0
LINE
5
11E
100
AcDbEntity
8
1
62
256
6
ByLayer
370
18
48
1
60
0
100
AcDbLine
10
43.829108
20
-48.513554
30
0
11
43.85651
21
-42.225218
31
0
39
0
210
0
220
0
230
1
0
LINE
5
11F
100
AcDbEntity
8
1
62
256
6
ByLayer
370
18
48
1
60
0
100
AcDbLine
10
28.611846
20
33.232785
30
0
11
36.02762
21
28.136746
31
0
39
0
210
0
220
0
230
1
0
LINE
5
120
100
AcDbEntity
8
1
62
256
6
ByLayer
370
18
48
1
60
0
100
AcDbLine
10
28.24994
20
-65.156057
30
0
11
27.708779
21
-64.365872
31
0
39
0
210
0
220
0
230
1
0
LINE
5
121
100
AcDbEntity
8
1
62
256
6
ByLayer
370
18
48
1
60
0
100
AcDbLine
10
32.04495
20
36.996822
30
0
11
38.625454
21
32.474772
31
0
39
0
210
0
220
0
230
1
0
LINE
5
122
100
AcDbEntity
8
1
62
256
6
ByLayer
370
18
48
1
60
0
100
AcDbLine
10
21.421532
20
42.499632
30
0
11
21.669887
21
42.861762
31
0
39
0
210
0
220
0
230
1
0
LINE
5
123
100
AcDbEntity
8
1
62
256
6
ByLayer
370
18
48
1
60
0
100
AcDbLine
10
10.571927
20
46.80474
30
0
11
15.279991
21
43.56941
31
0
39
0
210
0
220
0
230
1
0
LINE
5
124
100
AcDbEntity
8
1
62
256
6
ByLayer
370
18
48
1
60
0
100
AcDbLine
10
24.026437
20
35.427396
30
0
11
23.847247
21
35.431588
31
0
39
0
210
0
220
0
230
1
0
LINE
5
125
100
AcDbEntity
8
1
62
256
6
ByLayer
370
18
48
1
60
0
100
AcDbLine
10
24.705833
20
36.418034
30
0
11
24.026437
21
35.427396
31
0
39
0
210
0
220
0
230
1
0
LINE
5
126
100
AcDbEntity
8
1
62
256
6
ByLayer
370
18
48
1
60
0
100
AcDbLine
10
-4.177712
20
29.81
30
0
11
0.000388
21
29.81
31
0
39
0
210
0
220
0
230
1
0
LINE
5
127
100
AcDbEntity
8
1
62
256
6
ByLayer
370
18
48
1
60
0
100
AcDbLine
10
28.21413
20
66.221868
30
0
11
28.922079
21
59.161492
31
0
39
0
210
0
220
0
230
1
0
LINE
5
128
100
AcDbEntity
8
1
62
256
6
ByLayer
370
18
48
1
60
0
100
AcDbLine
10
28.322703
20
66.146837
30
0
11
28.21413
21
66.221868
31
0
39
0
210
0
220
0
230
1
0
LINE
5
129
100
AcDbEntity
8
1
62
256
6
ByLayer
370
18
48
1
60
0
100
AcDbLine
10
29.016715
20
59.225456
30
0
11
28.322703
21
66.146837
31
0
39
0
210
0
220
0
230
1
0
LINE
5
12A
100
AcDbEntity
8
1
62
256
6
ByLayer
370
18
48
1
60
0
100
AcDbLine
10
-6.51796
20
42.956012
30
0
11
-6.51796
21
62.266244
31
0
39
0
210
0
220
0
230
1
0
LINE
5
12B
100
AcDbEntity
8
SK4
62
256
6
ByLayer
370
13
48
0.05
60
0
100
AcDbLine
10
49
20
0
30
0
11
-16
21
0
31
0
39
0
210
0
220
0
230
1
0
LINE
5
12D
100
AcDbEntity
8
81
62
256
6
ByLayer
370
13
48
1
60
0
100
AcDbLine
10
44
20
68.25
30
0
11
49
21
68.25
31
0
39
0
210
0
220
0
230
1
0
LINE
5
12E
100
AcDbEntity
8
4
62
256
6
ByLayer
370
13
48
0.05
60
0
100
AcDbLine
10
44
20
0
30
0
11
0
21
0
31
0
39
0
210
0
220
0
230
1
0
LINE
5
130
100
AcDbEntity
8
80
62
256
6
ByLayer
370
13
48
1
60
0
100
AcDbLine
10
0
20
0
30
0
11
-5
21
0
31
0
39
0
210
0
220
0
230
1
0
LINE
5
131
100
AcDbEntity
8
1
62
256
6
ByLayer
370
18
48
1
60
0
100
AcDbLine
10
28.035377
20
48.247084
30
0
11
27.765394
21
47.86354
31
0
39
0
210
0
220
0
230
1
0
LINE
5
132
100
AcDbEntity
8
1
62
256
6
ByLayer
370
18
48
1
60
0
100
AcDbLine
10
26.860544
20
47.576127
30
0
11
26.98737
21
47.756299
31
0
39
0
210
0
220
0
230
1
0
LINE
5
133
100
AcDbEntity
8
1
62
256
6
ByLayer
370
18
48
1
60
0
100
AcDbLine
10
29.28534
20
46.177154
30
0
11
29.015357
21
45.79361
31
0
39
0
210
0
220
0
230
1
0
LINE
5
134
100
AcDbEntity
8
1
62
256
6
ByLayer
370
18
48
1
60
0
100
AcDbLine
10
26.844855
20
47.548738
30
0
11
26.574872
21
47.165193
31
0
39
0
210
0
220
0
230
1
0
LINE
5
135
100
AcDbEntity
8
1
62
256
6
ByLayer
370
18
48
1
60
0
100
AcDbLine
10
28.867309
20
45.278048
30
0
11
29.141865
21
45.668088
31
0
39
0
210
0
220
0
230
1
0
LINE
5
136
100
AcDbEntity
8
1
62
256
6
ByLayer
370
18
48
1
60
0
100
AcDbLine
10
29.255619
20
47.561293
30
0
11
28.985636
21
47.177748
31
0
39
0
210
0
220
0
230
1
0
LINE
5
137
100
AcDbEntity
8
1
62
256
6
ByLayer
370
18
48
1
60
0
100
AcDbLine
10
28.019458
20
47.841697
30
0
11
28.289441
21
48.225242
31
0
39
0
210
0
220
0
230
1
0
LINE
5
138
100
AcDbEntity
8
1
62
256
6
ByLayer
370
18
48
1
60
0
100
AcDbLine
10
28.290617
20
47.986634
30
0
11
28.565173
21
48.376674
31
0
39
0
210
0
220
0
230
1
0
LINE
5
139
100
AcDbEntity
8
1
62
256
6
ByLayer
370
18
48
1
60
0
100
AcDbLine
10
29.097186
20
46.948344
30
0
11
29.367169
21
47.331888
31
0
39
0
210
0
220
0
230
1
0
LINE
5
13A
100
AcDbEntity
8
1
62
256
6
ByLayer
370
18
48
1
60
0
100
AcDbLine
10
28.872842
20
45.586048
30
0
11
29.142825
21
45.969593
31
0
39
0
210
0
220
0
230
1
0
LINE
5
13B
100
AcDbEntity
8
1
62
256
6
ByLayer
370
18
48
1
60
0
100
AcDbLine
10
29.362812
20
46.785281
30
0
11
29.637367
21
47.175321
31
0
39
0
210
0
220
0
230
1
0
LINE
5
13C
100
AcDbEntity
8
1
62
256
6
ByLayer
370
18
48
1
60
0
100
AcDbLine
10
26.289492
20
47.049501
30
0
11
26.564048
21
47.439542
31
0
39
0
210
0
220
0
230
1
0
LINE
5
13D
100
AcDbEntity
8
1
62
256
6
ByLayer
370
18
48
1
60
0
100
AcDbLine
10
27.792491
20
48.443104
30
0
11
27.517936
21
48.053064
31
0
39
0
210
0
220
0
230
1
0
LINE
5
13E
100
AcDbEntity
8
1
62
256
6
ByLayer
370
18
48
1
60
0
100
AcDbLine
10
29.023558
20
47.482964
30
0
11
29.298113
21
47.873004
31
0
39
0
210
0
220
0
230
1
0
MTEXT
5
215
100
AcDbEntity
8
SK6
62
256
6
ByLayer
370
18
48
1
60
0
100
AcDbMText
10
46.700444
20
78.005834
30
0
210
0
220
0
230
1
1
\W0.7021;391.68D-7-150 44 S15 B
40
3
41
0
44
1.084337
50
0
71
7
72
5
7
iso_b_vert
0
DIMENSION
5
223
100
AcDbEntity
8
2
62
256
6
ByLayer
370
13
48
1
60
0
100
AcDbDimension
2
DimnDraft3D1
10
0
20
88.5
30
0
11
18.242105
21
88.5
31
0
70
32
71
5
72
1
41
1
210
0
220
0
230
1
3
Standard
100
AcDbAlignedDimension
13
44
23
70.25
33
0
14
0
24
2
34
0
50
0
100
AcDbRotatedDimension
1001
ACAD
1000
DSTYLE
1002
{
1070
   279
1070
     0
1070
   172
1070
     1
1070
   173
1070
     1
1070
   340
1005
216
1070
   271
1070
     1
1070
    77
1070
     1
1070
    73
1070
     0
1070
   171
1070
     4
1070
   274
1070
     4
1070
   177
1070
     7
1070
   176
1070
     7
1070
   178
1070
     7
1070
    41
1041
3.175
1070
   147
1041
1.5
1070
    42
1041
2.0
1070
    44
1041
2.0
1070
   140
1041
3.0
1070
   343
1005
0
1070
   344
1005
0
1002
}
0
DIMENSION
5
22D
100
AcDbEntity
8
2
62
256
6
ByLayer
370
13
48
1
60
0
100
AcDbDimension
2
DimnDraft3D2
10
106.5
20
-68.249922
30
0
11
106.5
21
-16.709171
31
0
70
32
71
5
72
1
41
1
210
0
220
0
230
1
3
Standard
100
AcDbAlignedDimension
13
46
23
68.25
33
0
14
45.605617
24
-68.249922
34
0
50
90
100
AcDbRotatedDimension
1001
ACAD
1000
DSTYLE
1002
{
1070
    74
1070
     0
1070
   279
1070
     0
1070
   172
1070
     1
1070
   173
1070
     1
1070
   340
1005
216
1070
   271
1070
     0
1070
    77
1070
     1
1070
    73
1070
     0
1070
   171
1070
     4
1070
   274
1070
     4
1070
   177
1070
     7
1070
   176
1070
     7
1070
   178
1070
     7
1070
    78
1070
     8
1070
    41
1041
3.175
1070
   147
1041
1.5
1070
    42
1041
2.0
1070
    44
1041
2.0
1070
   140
1041
3.0
1070
   343
1005
0
1070
   344
1005
0
1002
}
0
DIMENSION
5
237
100
AcDbEntity
8
2
62
256
6
ByLayer
370
13
48
1
60
0
100
AcDbDimension
2
DimnDraft3D3
10
45
20
68.25
30
0
11
74.299781
21
40.934256
31
0
70
34
71
5
72
1
41
1
210
0
220
0
230
1
3
Standard
100
AcDb2LineAngularDimension
13
44.012461
23
67.892055
33
0
14
45.567402
24
53.039633
34
0
15
44
25
68.25
35
0
16
76.528807
26
38.926411
36
0
40
0
0
ENDSEC
0
SECTION
2
OBJECTS
0
DICTIONARY
5
2a1
330
0
100
AcDbDictionary
280
0
281
1
3
ACAD_GROUP
350
2a2
3
ACAD_MLINESTYLE
350
2a3
0
DICTIONARY
5
2a2
330
0
100
AcDbDictionary
280
0
281
1
0
DICTIONARY
5
2a3
330
0
100
AcDbDictionary
280
0
281
1
3
Standard
350
18
0
MLINESTYLE
5
18
330
2a3
100
AcDbMlineStyle
2
Standard
70
0
3

62
256
51
90
52
90
71
2
49
-0.5
62
256
6
ByLayer
49
0.5
62
256
6
ByLayer
0
RASTERVARIABLES
5
290
330

100
AcDbRasterVariables
90
0
70
1
71
1
72
1
0
ENDSEC
0
EOF
