0
SECTION
2
HEADER
9
$ACADVER
1
AC1015
9
$DWGCODEPAGE
3
ANSI_1252
9
$HANDSEED
5
214
9
$ANGBASE
50
0
9
$ANGDIR
70
0
9
$ATTMODE
70
1
9
$AUNITS
70
0
9
$AUPREC
70
0
9
$CECOLOR
62
256
9
$CELTSCALE
40
1
9
$CELTYPE
6
ByLayer
9
$CELWEIGHT
370
18
9
$CLAYER
8
0
9
$CMLJUST
70
0
9
$CMLSCALE
40
1
9
$CMLSTYLE
2
Standard
9
$DIMSTYLE
2
Standard
9
$TEXTSIZE
40
0.2
9
$TEXTSTYLE
7
Standard
9
$LUNITS
70
2
9
$LUPREC
70
4
9
$EXTNAMES
290
1
9
$INSUNITS
70
4
9
$LTSCALE
40
1
9
$LWDISPLAY
290
1
9
$PDMODE
70
0
9
$PDSIZE
40
0
9
$PLINEGEN
70
0
0
ENDSEC
0
SECTION
2
CLASSES
0
CLASS
1
RASTERVARIABLES
2
AcDbRasterVariables
3
ISM
90
0
280
0
281
0
0
ENDSEC
0
SECTION
2
TABLES
0
TABLE
2
VPORT
5
20a
100
AcDbSymbolTable
0
VPORT
5
1
100
AcDbSymbolTableRecord
100
AcDbViewportTableRecord
2
*Active
70
0
10
0
20
0
11
1
21
1
12
-1
22
1
13
0
23
0
14
0.5
24
0.5
15
10
25
10
16
0
26
0
36
1
17
0
27
0
37
0
0
ENDTAB
0
TABLE
2
LTYPE
5
20b
100
AcDbSymbolTable
0
LTYPE
5
14
100
AcDbSymbolTableRecord
100
AcDbLinetypeTableRecord
70
0
2
ByBlock
3

72
65
73
0
40
0
0
LTYPE
5
15
100
AcDbSymbolTableRecord
100
AcDbLinetypeTableRecord
70
0
2
ByLayer
3

72
65
73
0
40
0
0
LTYPE
5
16
100
AcDbSymbolTableRecord
100
AcDbLinetypeTableRecord
70
0
2
CONTINUOUS
3
Solid line
72
65
73
0
40
0
0
LTYPE
5
6A
100
AcDbSymbolTableRecord
100
AcDbLinetypeTableRecord
70
0
2
CENTER
3
____ _ ____ _ ____ _ ____
72
65
73
4
40
47.5
49
22
74
0
49
-8.5
74
0
49
8.5
74
0
49
-8.5
74
0
0
LTYPE
5
6B
100
AcDbSymbolTableRecord
100
AcDbLinetypeTableRecord
70
0
2
DASHED
3
__ __ __ __ __ __ __ __ __
72
65
73
2
40
25.72
49
12.86
74
0
49
-12.86
74
0
0
ENDTAB
0
TABLE
2
LAYER
5
20c
100
AcDbSymbolTable
0
LAYER
5
10
100
AcDbSymbolTableRecord
100
AcDbLayerTableRecord
2
0
70
0
62
7
6
CONTINUOUS
290
1
370
-3
390
0
0
LAYER
5
6D
100
AcDbSymbolTableRecord
100
AcDbLayerTableRecord
2
80
70
0
62
-6
6
CONTINUOUS
290
1
370
-3
390
0
0
LAYER
5
6F
100
AcDbSymbolTableRecord
100
AcDbLayerTableRecord
2
81
70
0
62
-3
6
CONTINUOUS
290
1
370
-3
390
0
0
LAYER
5
75
100
AcDbSymbolTableRecord
100
AcDbLayerTableRecord
2
1
70
0
62
4
6
CONTINUOUS
290
1
370
-3
390
0
0
LAYER
5
F3
100
AcDbSymbolTableRecord
100
AcDbLayerTableRecord
2
4
70
0
62
-2
6
CENTER
290
1
370
-3
390
0
0
LAYER
5
181
100
AcDbSymbolTableRecord
100
AcDbLayerTableRecord
2
2
70
0
62
7
6
CONTINUOUS
290
1
370
-3
390
0
0
LAYER
5
1f7
100
AcDbSymbolTableRecord
100
AcDbLayerTableRecord
2
SK1
70
0
62
4
6
CONTINUOUS
290
1
370
-3
390
0
0
LAYER
5
1f8
100
AcDbSymbolTableRecord
100
AcDbLayerTableRecord
2
SK4
70
0
62
2
6
CENTER
290
1
370
-3
390
0
0
LAYER
5
1f9
100
AcDbSymbolTableRecord
100
AcDbLayerTableRecord
2
SK6
70
0
62
5
6
CONTINUOUS
290
1
370
-3
390
0
0
ENDTAB
0
TABLE
2
STYLE
5
20d
100
AcDbSymbolTable
0
STYLE
5
11
100
AcDbSymbolTableRecord
100
AcDbTextStyleTableRecord
2
Standard
3
txt
70
0
71
0
40
0
41
1
42
0
50
0
0
STYLE
5
17C
100
AcDbSymbolTableRecord
100
AcDbTextStyleTableRecord
2
iso_b_vert
3
simplex.shx
70
0
71
0
40
0
41
1
42
0
50
0
0
STYLE
5
17D
100
AcDbSymbolTableRecord
100
AcDbTextStyleTableRecord
2
DWGDirectTextStyle
3
simplex
70
0
71
0
40
0
41
1
42
0
50
0
0
ENDTAB
0
TABLE
2
DIMSTYLE
5
20e
100
AcDbSymbolTable
100
AcDbDimStyleTable
0
DIMSTYLE
105
27
100
AcDbSymbolTableRecord
100
AcDbDimStyleTableRecord
2
Standard
70
0
3
<>
41
0.18
42
0.0625
44
0.18
140
0.18
147
0.09
73
0
74
0
77
1
271
2
275
0
278
52
280
0
340
11
0
ENDTAB
0
TABLE
2
VIEW
5
20f
100
AcDbSymbolTable
0
ENDTAB
0
TABLE
2
UCS
5
210
100
AcDbSymbolTable
0
ENDTAB
0
TABLE
2
APPID
5
211
100
AcDbSymbolTable
0
APPID
5
12
100
AcDbSymbolTableRecord
100
AcDbRegAppTableRecord
2
ACAD
70
0
0
ENDTAB
0
TABLE
2
BLOCK_RECORD
5
212
100
AcDbSymbolTable
0
BLOCK_RECORD
5
1F
100
AcDbSymbolTableRecord
100
AcDbBlockTableRecord
2
*Model_Space
340
0
70
0
0
BLOCK_RECORD
5
1B
100
AcDbSymbolTableRecord
100
AcDbBlockTableRecord
2
*Paper_Space
340
0
70
0
0
BLOCK_RECORD
5
23
100
AcDbSymbolTableRecord
100
AcDbBlockTableRecord
2
*Paper_Space0
340
0
70
0
0
BLOCK_RECORD
5
17F
100
AcDbSymbolTableRecord
100
AcDbBlockTableRecord
2
DimnDraft3D1
340
0
70
0
0
BLOCK_RECORD
5
18A
100
AcDbSymbolTableRecord
100
AcDbBlockTableRecord
2
DimnDraft3D2
340
0
70
0
0
BLOCK_RECORD
5
194
100
AcDbSymbolTableRecord
100
AcDbBlockTableRecord
2
DimnDraft3D3
340
0
70
0
0
ENDTAB
0
ENDSEC
0
SECTION
2
BLOCKS
0
BLOCK
5
20
100
AcDbEntity
8
0
100
AcDbBlockBegin
2
*Model_Space
70
0
10
0
20
0
30
0
3
*Model_Space
0
ENDBLK
5
21
100
AcDbEntity
8
0
100
AcDbBlockEnd
0
BLOCK
5
1C
100
AcDbEntity
8
0
100
AcDbBlockBegin
2
*Paper_Space
70
0
10
0
20
0
30
0
3
*Paper_Space
0
ENDBLK
5
1D
100
AcDbEntity
8
0
100
AcDbBlockEnd
0
BLOCK
5
24
100
AcDbEntity
8
0
100
AcDbBlockBegin
2
*Paper_Space0
70
0
10
0
20
0
30
0
3
*Paper_Space0
0
ENDBLK
5
25
100
AcDbEntity
8
0
100
AcDbBlockEnd
0
BLOCK
5
187
100
AcDbEntity
8
0
100
AcDbBlockBegin
2
DimnDraft3D1
70
0
10
0
20
0
30
0
3
DimnDraft3D1
0
MTEXT
5
180
100
AcDbEntity
8
2
62
256
6
ByLayer
370
18
48
1
60
0
100
AcDbMText
10
17.15
20
89.25
30
0
210
0
220
0
230
1
1
\W0.7493;40.0
40
3
41
0
44
1.084337
50
0
71
7
72
5
7
iso_b_vert
0
LINE
5
182
100
AcDbEntity
8
2
62
256
6
ByLayer
370
13
48
1
60
0
100
AcDbLine
10
40
20
70.25
30
0
11
40
21
90.5
31
0
39
0
210
0
220
0
230
1
0
LINE
5
183
100
AcDbEntity
8
2
62
256
6
ByLayer
370
13
48
1
60
0
100
AcDbLine
10
0
20
2
30
0
11
0
21
90.5
31
0
39
0
210
0
220
0
230
1
0
LINE
5
184
100
AcDbEntity
8
2
62
256
6
ByLayer
370
13
48
1
60
0
100
AcDbLine
10
40
20
88.5
30
0
11
0
21
88.5
31
0
39
0
210
0
220
0
230
1
0
SOLID
5
185
100
AcDbEntity
8
2
62
256
6
ByLayer
370
13
48
1
60
0
100
AcDbTrace
10
40
20
88.5
30
0
11
36.825002
21
88.082003
31
0
12
36.824998
22
88.917997
32
0
13
40
23
88.5
33
0
39
0
210
0
220
0
230
1
0
SOLID
5
186
100
AcDbEntity
8
2
62
256
6
ByLayer
370
13
48
1
60
0
100
AcDbTrace
10
0
20
88.5
30
0
11
3.174998
21
88.917997
31
0
12
3.175002
22
88.082003
32
0
13
0
23
88.5
33
0
39
0
210
0
220
0
230
1
0
ENDBLK
5
188
100
AcDbEntity
8
0
100
AcDbBlockEnd
0
BLOCK
5
191
100
AcDbEntity
8
0
100
AcDbBlockBegin
2
DimnDraft3D2
70
0
10
0
20
0
30
0
3
DimnDraft3D2
0
MTEXT
5
18B
100
AcDbEntity
8
2
62
256
6
ByLayer
370
18
48
1
60
0
100
AcDbMText
10
90.75
20
-15.959211
30
0
210
0
220
0
230
1
1
\W0.6637;Dc = 123.0 - 150.0
40
3
41
0
44
1.084337
50
90
71
7
72
5
7
iso_b_vert
0
LINE
5
18C
100
AcDbEntity
8
2
62
256
6
ByLayer
370
13
48
1
60
0
100
AcDbLine
10
42
20
68.25
30
0
11
93.5
21
68.25
31
0
39
0
210
0
220
0
230
1
0
LINE
5
18D
100
AcDbEntity
8
2
62
256
6
ByLayer
370
13
48
1
60
0
100
AcDbLine
10
41.183942
20
-68.25
30
0
11
93.5
21
-68.25
31
0
39
0
210
0
220
0
230
1
0
LINE
5
18E
100
AcDbEntity
8
2
62
256
6
ByLayer
370
13
48
1
60
0
100
AcDbLine
10
91.5
20
68.25
30
0
11
91.5
21
-68.25
31
0
39
0
210
0
220
0
230
1
0
SOLID
5
18F
100
AcDbEntity
8
2
62
256
6
ByLayer
370
13
48
1
60
0
100
AcDbTrace
10
91.5
20
68.25
30
0
11
91.917997
21
65.075002
31
0
12
91.082003
22
65.074998
32
0
13
91.5
23
68.25
33
0
39
0
210
0
220
0
230
1
0
SOLID
5
190
100
AcDbEntity
8
2
62
256
6
ByLayer
370
13
48
1
60
0
100
AcDbTrace
10
91.5
20
-68.25
30
0
11
91.082003
21
-65.075002
31
0
12
91.917997
22
-65.074998
32
0
13
91.5
23
-68.25
33
0
39
0
210
0
220
0
230
1
0
ENDBLK
5
192
100
AcDbEntity
8
0
100
AcDbBlockEnd
0
BLOCK
5
19B
100
AcDbEntity
8
0
100
AcDbBlockBegin
2
DimnDraft3D3
70
0
10
0
20
0
30
0
3
DimnDraft3D3
0
MTEXT
5
195
100
AcDbEntity
8
2
62
256
6
ByLayer
370
18
48
1
60
0
100
AcDbMText
10
61.457457
20
44.004392
30
0
210
0
220
0
230
1
1
\W0.8385;90%%d
40
3
41
0
44
1.084337
50
45
71
7
72
5
7
iso_b_vert
0
LINE
5
196
100
AcDbEntity
8
2
62
256
6
ByLayer
370
13
48
1
60
0
100
AcDbLine
10
39.977939
20
51.708713
30
0
11
39.977939
21
33.167453
31
0
39
0
210
0
220
0
230
1
0
LINE
5
197
100
AcDbEntity
8
2
62
256
6
ByLayer
370
13
48
1
60
0
100
AcDbLine
10
42
20
68.25
30
0
11
75.060486
21
68.25
31
0
39
0
210
0
220
0
230
1
0
ARC
5
198
100
AcDbEntity
8
2
62
256
6
ByLayer
370
13
48
1
60
0
100
AcDbCircle
39
0
10
39.977939
20
68.25
30
0
40
33.082546837006
210
0
220
0
230
1
100
AcDbArc
50
270
51
0
0
SOLID
5
199
100
AcDbEntity
8
2
62
256
6
ByLayer
370
13
48
1
60
0
100
AcDbTrace
10
39.977939
20
35.167453
30
0
11
43.142004
21
35.661442
31
0
12
43.162048
22
34.825689
32
0
13
39.977939
23
35.167453
33
0
39
0
210
0
220
0
230
1
0
SOLID
5
19A
100
AcDbEntity
8
2
62
256
6
ByLayer
370
13
48
1
60
0
100
AcDbTrace
10
73.060486
20
68.25
30
0
11
73.40225
21
65.065894
31
0
12
72.566497
22
65.085931
32
0
13
73.060486
23
68.25
33
0
39
0
210
0
220
0
230
1
0
ENDBLK
5
19C
100
AcDbEntity
8
0
100
AcDbBlockEnd
0
ENDSEC
0
SECTION
2
ENTITIES
0
ARC
5
F5
100
AcDbEntity
8
SK1
62
256
6
ByLayer
370
18
48
1
60
0
100
AcDbCircle
39
0
10
-0.649
20
3.538516
30
11.228129
40
2
210
-0.999995770051602
220
0
230
0.00290858709738391
100
AcDbArc
50
359.970615
51
0
0
ARC
5
F6
100
AcDbEntity
8
SK1
62
256
6
ByLayer
370
18
48
1
60
0
100
AcDbCircle
39
0
10
-0.649
20
3.538516
30
11.228129
40
2
210
-0.999995770051602
220
0
230
0.00290858709738391
100
AcDbArc
50
180
51
180.029385
0
ARC
5
F7
100
AcDbEntity
8
SK1
62
256
6
ByLayer
370
18
48
1
60
0
100
AcDbCircle
39
0
10
-0.649
20
3.538516
30
12.528129
40
1.770774925079
210
-0.999995770051602
220
0
230
0.00290858709738391
100
AcDbArc
50
180
51
180.029385
0
ARC
5
F8
100
AcDbEntity
8
SK1
62
256
6
ByLayer
370
18
48
1
60
0
100
AcDbCircle
39
0
10
0.649
20
-3.538516
30
11.228129
40
2
210
-0.999995770051602
220
0
230
-0.00290858709738391
100
AcDbArc
50
0
51
0.029385
0
ELLIPSE
5
F9
100
AcDbEntity
8
1
62
256
6
ByLayer
370
18
48
1
60
0
100
AcDbEllipse
10
35.215459
20
60.582356
30
0
11
3.59791434446895E-15
21
3.07132534818238
31
0
210
0
220
0
230
1
40
0.999996
41
0
42
6.28318530717959
0
ELLIPSE
5
FA
100
AcDbEntity
8
1
62
256
6
ByLayer
370
18
48
1
60
0
100
AcDbEllipse
10
35.218174
20
60.582356
30
0
11
3.52144974849323E-15
21
3.00605207334198
31
0
210
0
220
0
230
1
40
0.999996
41
0
42
6.28318530717959
0
ELLIPSE
5
FB
100
AcDbEntity
8
1
62
256
6
ByLayer
370
18
48
1
60
0
100
AcDbEllipse
10
35.218622
20
60.582356
30
0
11
3.45636802829292E-15
21
2.95049568210609
31
0
210
0
220
0
230
1
40
0.999996
41
0
42
6.28318530717959
0
ELLIPSE
5
FC
100
AcDbEntity
8
1
62
256
6
ByLayer
370
18
48
1
60
0
100
AcDbEllipse
10
35.21579
20
60.582356
30
0
11
2.1086160161693E-15
21
1.8
31
0
210
0
220
0
230
1
40
0.999996
41
0
42
6.28318530717959
0
ELLIPSE
5
FD
100
AcDbEntity
8
1
62
256
6
ByLayer
370
18
48
1
60
0
100
AcDbEllipse
10
35.250693
20
-60.582356
30
0
11
1.58146201212697E-15
21
1.35
31
0
210
0
220
0
230
1
40
0.999996
41
0
42
6.28318530717959
0
ELLIPSE
5
FE
100
AcDbEntity
8
1
62
256
6
ByLayer
370
18
48
1
60
0
100
AcDbEllipse
10
34.902472
20
-60.632356
30
0
11
2.57719735309581E-15
21
2.2
31
0
210
0
220
0
230
1
40
0.999996
41
0
42
6.28318530717959
0
ELLIPSE
5
FF
100
AcDbEntity
8
1
62
256
6
ByLayer
370
18
48
1
60
0
100
AcDbEllipse
10
34.902472
20
-60.632356
30
0
11
2.16718868328512E-15
21
1.85000000000001
31
0
210
0
220
0
230
1
40
0.999996
41
0
42
6.28318530717959
0
ELLIPSE
5
100
100
AcDbEntity
8
SK1
62
256
6
ByLayer
370
18
48
1
60
0
100
AcDbEllipse
10
-12.517784
20
0.649
30
0
11
2.07438020447363E-15
21
1.77077492507899
31
0
210
0
220
0
230
1
40
0.002909
41
0.000512864569545178
42
3.14107978902111
0
ELLIPSE
5
101
100
AcDbEntity
8
SK1
62
256
6
ByLayer
370
18
48
1
60
0
100
AcDbEllipse
10
-12.517784
20
0.649
30
0
11
2.07438020447365E-15
21
1.770774925079
31
0
210
0
220
0
230
1
40
0.002909
41
3.14107978901805
42
-8.62110900501879E-14
0
ELLIPSE
5
102
100
AcDbEntity
8
SK1
62
256
6
ByLayer
370
18
48
1
60
0
100
AcDbEllipse
10
-11.217789
20
-0.649
30
0
11
2.34290668467032E-15
21
2.00000000003224
31
0
210
0
220
0
230
1
40
0.002909
41
1.92892239123932
42
3.14107978901057
0
ELLIPSE
5
103
100
AcDbEntity
8
SK1
62
256
6
ByLayer
370
18
48
1
60
0
100
AcDbEllipse
10
-11.217789
20
0.649
30
0
11
2.34290668463255E-15
21
2
31
0
210
0
220
0
230
1
40
0.002909
41
3.14159265358975
42
-7.63302182623002E-14
0
ELLIPSE
5
104
100
AcDbEntity
8
SK1
62
256
6
ByLayer
370
18
48
1
60
0
100
AcDbEllipse
10
-6.527989
20
-6.75
30
0
11
4.68581337309525E-14
21
40.0000000326957
31
0
210
0
220
0
230
1
40
0.002909
41
-0.174890186147331
42
-0.00707108254058437
0
ELLIPSE
5
105
100
AcDbEntity
8
1
62
256
6
ByLayer
370
18
48
1
60
0
100
AcDbEllipse
10
19.480061
20
-6.75
30
0
11
4.68581336927347E-14
21
40.0000000000714
31
0
210
0
220
0
230
1
40
0.002909
41
-1.5707963267949
42
-0.00707108254363427
0
ELLIPSE
5
106
100
AcDbEntity
8
1
62
256
6
ByLayer
370
18
48
1
60
0
100
AcDbEllipse
10
35.596337
20
15.551
30
0
11
1.87432534770608E-14
21
16.0000000000003
31
0
210
0
220
0
230
1
40
0.999996
41
0.174532925199445
42
1.5707963267949
0
ELLIPSE
5
107
100
AcDbEntity
8
1
62
256
6
ByLayer
370
18
48
1
60
0
100
AcDbEllipse
10
35.558162
20
15.551
30
0
11
1.87432534770612E-14
21
16.0000000000007
31
0
210
0
220
0
230
1
40
0.999996
41
0.174532925199463
42
1.47697122798391
0
ELLIPSE
5
108
100
AcDbEntity
8
1
62
256
6
ByLayer
370
18
48
1
60
0
100
AcDbEllipse
10
35.479092
20
15.551
30
0
11
1.87432534770567E-14
21
15.9999999999968
31
0
210
0
220
0
230
1
40
0.999996
41
0.17453292519938
42
1.13553537845681
0
ELLIPSE
5
109
100
AcDbEntity
8
1
62
256
6
ByLayer
370
18
48
1
60
0
100
AcDbEllipse
10
25.966632
20
60.582356
30
0
11
-3.8945853529012E-05
21
1.49999999452998
31
0
210
0
220
0
230
1
40
0.999996
41
-0.123447932897567
42
-2.59637924303025E-05
0
ELLIPSE
5
10A
100
AcDbEntity
8
1
62
256
6
ByLayer
370
18
48
1
60
0
100
AcDbEllipse
10
27.921802
20
61.497354
30
0
11
2.18020341198886E-15
21
1.8611098993307
31
0
210
0
220
0
230
1
40
0.999996
41
-0.523598775598257
42
1.25749698836746
0
ELLIPSE
5
10B
100
AcDbEntity
8
1
62
256
6
ByLayer
370
18
48
1
60
0
100
AcDbEllipse
10
25.986294
20
60.582356
30
0
11
1.75718001346847E-15
21
1.49999999999493
31
0
210
0
220
0
230
1
40
0.999996
41
-0.948438261132076
42
-0.282103538768836
0
ELLIPSE
5
10C
100
AcDbEntity
8
1
62
256
6
ByLayer
370
18
48
1
60
0
100
AcDbEllipse
10
27.941464
20
61.497354
30
0
11
1.90361168126424E-15
21
1.62500000000025
31
0
210
0
220
0
230
1
40
0.999996
41
0.00414624868654113
42
1.24135530626312
0
ELLIPSE
5
10D
100
AcDbEntity
8
1
62
256
6
ByLayer
370
18
48
1
60
0
100
AcDbEllipse
10
27.927989
20
61.497354
30
0
11
1.90361168125858E-15
21
1.62499999999542
31
0
210
0
220
0
230
1
40
0.999996
41
-0.523598775599063
42
0
0
ELLIPSE
5
10E
100
AcDbEntity
8
1
62
256
6
ByLayer
370
18
48
1
60
0
100
AcDbEllipse
10
35.512352
20
15.551
30
0
11
1.87432534770613E-14
21
16.0000000000008
31
0
210
0
220
0
230
1
40
0.999996
41
0.17453292519947
42
1.47697122798391
0
ELLIPSE
5
10F
100
AcDbEntity
8
1
62
256
6
ByLayer
370
18
48
1
60
0
100
AcDbEllipse
10
35.21579
20
60.582356
30
0
11
1.96394152839444E-15
21
1.67650000000103
31
0
210
0
220
0
230
1
40
0.999996
41
0.520808227917536
42
1.57358687447606
0
ELLIPSE
5
110
100
AcDbEntity
8
1
62
256
6
ByLayer
370
18
48
1
60
0
100
AcDbEllipse
10
35.21579
20
60.582356
30
0
11
1.96394152839491E-15
21
1.67650000000143
31
0
210
0
220
0
230
1
40
0.999996
41
1.57358687447654
42
2.61799387799083
0
ELLIPSE
5
111
100
AcDbEntity
8
1
62
256
6
ByLayer
370
18
48
1
60
0
100
AcDbEllipse
10
33.582311
20
59.633821
30
0
11
8.03616992831057E-16
21
0.686000000001786
31
0
210
0
220
0
230
1
40
0.999996
41
-1.04580227735488
42
-0.261811633736057
0
ELLIPSE
5
112
100
AcDbEntity
8
1
62
256
6
ByLayer
370
18
48
1
60
0
100
AcDbEllipse
10
33.835446
20
60.578493
30
0
11
3.42064375956356E-16
21
0.292000000000003
31
0
210
0
220
0
230
1
40
0.999996
41
0.255936216275395
42
2.87978101985466
0
ELLIPSE
5
113
100
AcDbEntity
8
1
62
256
6
ByLayer
370
18
48
1
60
0
100
AcDbEllipse
10
35.216579
20
60.582356
30
0
11
0.000821107408590724
21
1.20649971059391
31
0
210
0
220
0
230
1
40
0.999996
41
0.97884548716035
42
1.11691075489845
0
ELLIPSE
5
114
100
AcDbEntity
8
1
62
256
6
ByLayer
370
18
48
1
60
0
100
AcDbEllipse
10
35.219935
20
60.582356
30
0
11
1.41335845750846E-15
21
1.20650000000331
31
0
210
0
220
0
230
1
40
0.999996
41
1.11623018460985
42
2.09579037623228
0
ELLIPSE
5
115
100
AcDbEntity
8
1
62
256
6
ByLayer
370
18
48
1
60
0
100
AcDbEllipse
10
35.219935
20
60.582356
30
0
11
0.00083619595068138
21
1.20649970002549
31
0
210
0
220
0
230
1
40
0.999996
41
0.978857993170988
42
1.11692326093046
0
ELLIPSE
5
116
100
AcDbEntity
8
1
62
256
6
ByLayer
370
18
48
1
60
0
100
AcDbEllipse
10
33.587865
20
61.524636
30
0
11
8.03616992838052E-16
21
0.686000000007757
31
0
210
0
220
0
230
1
40
0.999996
41
-2.88565643731332
42
-2.21600914361478
0
ELLIPSE
5
117
100
AcDbEntity
8
1
62
256
6
ByLayer
370
18
48
1
60
0
100
AcDbEllipse
10
35.219935
20
60.582356
30
0
11
1.4133584575075E-15
21
1.20650000000249
31
0
210
0
220
0
230
1
40
0.999996
41
0.000615069881809157
42
0.978164917783616
0
ELLIPSE
5
118
100
AcDbEntity
8
1
62
256
6
ByLayer
370
18
48
1
60
0
100
AcDbEllipse
10
33.587865
20
61.524636
30
0
11
8.03616992829238E-16
21
0.686000000000233
31
0
210
0
220
0
230
1
40
0.999996
41
-1.97278106117614
42
-1.30313376747204
0
ELLIPSE
5
119
100
AcDbEntity
8
1
62
256
6
ByLayer
370
18
48
1
60
0
100
AcDbEllipse
10
35.216591
20
60.582356
30
0
11
3.07506502358022E-15
21
2.625
31
0
210
0
220
0
230
1
40
0.999996
41
3.14159265358979
42
0
0
ELLIPSE
5
11A
100
AcDbEntity
8
1
62
256
6
ByLayer
370
18
48
1
60
0
100
AcDbEllipse
10
35.216591
20
60.582356
30
0
11
3.07506502361313E-15
21
2.62500000002809
31
0
210
0
220
0
230
1
40
0.999996
41
2.6179938779944
42
3.14159265358979
0
ELLIPSE
5
11B
100
AcDbEntity
8
1
62
256
6
ByLayer
370
18
48
1
60
0
100
AcDbEllipse
10
35.219935
20
60.582356
30
0
11
1.41335845750282E-15
21
1.20649999999849
31
0
210
0
220
0
230
1
40
0.999996
41
3.14019737974902
42
-2.17546827434903
0
ELLIPSE
5
11C
100
AcDbEntity
8
1
62
256
6
ByLayer
370
18
48
1
60
0
100
AcDbEllipse
10
35.217294
20
58.689858
30
0
11
8.03616992830054E-16
21
0.68600000000093
31
0
210
0
220
0
230
1
40
0.999996
41
-0.785385917460913
42
-0.00139527384073855
0
ELLIPSE
5
11D
100
AcDbEntity
8
1
62
256
6
ByLayer
370
18
48
1
60
0
100
AcDbEllipse
10
35.219929
20
60.580982
30
0
11
-1.2057948692344
21
0.00554094625604311
31
0
210
0
220
0
230
1
40
0.999435
41
1.56731323889991
42
1.57399808952268
0
ELLIPSE
5
11E
100
AcDbEntity
8
1
62
256
6
ByLayer
370
18
48
1
60
0
100
AcDbEllipse
10
35.24953
20
-60.582356
30
0
11
2.05004334905348E-15
21
1.75
31
0
210
0
220
0
230
1
40
0.999996
41
3.14159265358979
42
0
0
ELLIPSE
5
11F
100
AcDbEntity
8
1
62
256
6
ByLayer
370
18
48
1
60
0
100
AcDbEllipse
10
35.24953
20
-60.582356
30
0
11
2.05004334905349E-15
21
1.75000000000001
31
0
210
0
220
0
230
1
40
0.999996
41
0.523598775598291
42
3.14159265358979
0
ELLIPSE
5
120
100
AcDbEntity
8
1
62
256
6
ByLayer
370
18
48
1
60
0
100
AcDbEllipse
10
35.26406
20
31.750006
30
0
11
44.6604274001384
21
7.87486962511839
31
0
210
0
220
0
230
1
40
8.8E-05
41
-1.57029970118376
42
-1.52522286394152
0
ELLIPSE
5
121
100
AcDbEntity
8
1
62
256
6
ByLayer
370
18
48
1
60
0
100
AcDbEllipse
10
35.222575
20
62.474855
30
0
11
8.03616992827419E-16
21
0.68599999999868
31
0
210
0
220
0
230
1
40
0.999996
41
3.14159265358979
42
-2.35899728380888
0
ELLIPSE
5
122
100
AcDbEntity
8
1
62
256
6
ByLayer
370
18
48
1
60
0
100
AcDbEllipse
10
35.912182
20
61.781369
30
0
11
3.42064375952347E-16
21
0.291999999996581
31
0
210
0
220
0
230
1
40
0.999996
41
0.00864973282786503
42
0.782595369784982
0
ELLIPSE
5
123
100
AcDbEntity
8
1
62
256
6
ByLayer
370
18
48
1
60
0
100
AcDbEllipse
10
35.21579
20
60.582356
30
0
11
1.96394152839489E-15
21
1.67650000000141
31
0
210
0
220
0
230
1
40
0.999996
41
2.61799387799172
42
-2.62078442567305
0
ELLIPSE
5
124
100
AcDbEntity
8
1
62
256
6
ByLayer
370
18
48
1
60
0
100
AcDbEllipse
10
35.21579
20
60.582356
30
0
11
1.96394152839466E-15
21
1.67650000000122
31
0
210
0
220
0
230
1
40
0.999996
41
-2.62078442567206
42
-1.56800577911372
0
ELLIPSE
5
125
100
AcDbEntity
8
1
62
256
6
ByLayer
370
18
48
1
60
0
100
AcDbEllipse
10
35.21579
20
60.582356
30
0
11
1.9639415283932E-15
21
1.67649999999997
31
0
210
0
220
0
230
1
40
0.999996
41
-1.56800577911356
42
-0.523598775598302
0
ELLIPSE
5
126
100
AcDbEntity
8
1
62
256
6
ByLayer
370
18
48
1
60
0
100
AcDbEllipse
10
35.21579
20
60.582356
30
0
11
1.96394152839431E-15
21
1.67650000000092
31
0
210
0
220
0
230
1
40
0.999996
41
-0.523598775598152
42
0.520808227916823
0
ELLIPSE
5
127
100
AcDbEntity
8
1
62
256
6
ByLayer
370
18
48
1
60
0
100
AcDbEllipse
10
38.327007
20
-66.607932
30
0
11
9.37162673809549E-16
21
0.799999999962891
31
0
210
0
220
0
230
1
40
0.999996
41
2.61799387797893
42
3.14159265358979
0
ELLIPSE
5
128
100
AcDbEntity
8
1
62
256
6
ByLayer
370
18
48
1
60
0
100
AcDbEllipse
10
38.335079
20
-66.607932
30
0
11
9.37162673809549E-16
21
0.799999999962891
31
0
210
0
220
0
230
1
40
0.999996
41
2.61799387797893
42
3.14159265358979
0
ELLIPSE
5
129
100
AcDbEntity
8
1
62
256
6
ByLayer
370
18
48
1
60
0
100
AcDbEllipse
10
37.964764
20
-31.75
30
0
11
9.22519507073908E-15
21
7.87499999999864
31
0
210
0
220
0
230
1
40
0.08458
41
3.14159265358979
42
-1.64672320026334
0
ELLIPSE
5
12A
100
AcDbEntity
8
1
62
256
6
ByLayer
370
18
48
1
60
0
100
AcDbEllipse
10
35.263472
20
-31.749902
30
0
11
-44.6660478018743
21
7.87586070562932
31
0
210
0
220
0
230
1
40
8.8E-05
41
1.61640883911937
42
1.6462299357085
0
ELLIPSE
5
12B
100
AcDbEntity
8
1
62
256
6
ByLayer
370
18
48
1
60
0
100
AcDbEllipse
10
39.183942
20
-67.456
30
0
11
9.30133953799162E-16
21
0.794000000000034
31
0
210
0
220
0
230
1
40
0.999996
41
2.6179938779916
42
-1.5707963267949
0
ELLIPSE
5
12C
100
AcDbEntity
8
1
62
256
6
ByLayer
370
18
48
1
60
0
100
AcDbEllipse
10
39.195489
20
-53.708713
30
0
11
3.5910350830854E-16
21
0.306545293215432
31
0
210
0
220
0
230
1
40
0.999996
41
-1.5707963267949
42
0.52359877559845
0
ELLIPSE
5
12D
100
AcDbEntity
8
1
62
256
6
ByLayer
370
18
48
1
60
0
100
AcDbEllipse
10
38.335079
20
-66.607932
30
0
11
9.37162673858544E-16
21
0.800000000004715
31
0
210
0
220
0
230
1
40
0.999996
41
-2.09852256870885
42
-1.5707963267949
0
ELLIPSE
5
12E
100
AcDbEntity
8
1
62
256
6
ByLayer
370
18
48
1
60
0
100
AcDbEllipse
10
39.195489
20
-67.456
30
0
11
3.59103508308689E-16
21
0.306545293215559
31
0
210
0
220
0
230
1
40
0.999996
41
2.61799387799186
42
-1.5707963267949
0
ELLIPSE
5
12F
100
AcDbEntity
8
1
62
256
6
ByLayer
370
18
48
1
60
0
100
AcDbEllipse
10
39.183942
20
-53.708713
30
0
11
9.30133953798621E-16
21
0.793999999999572
31
0
210
0
220
0
230
1
40
0.999996
41
-1.5707963267949
42
-0.319503459273381
0
ELLIPSE
5
130
100
AcDbEntity
8
1
62
256
6
ByLayer
370
18
48
1
60
0
100
AcDbEllipse
10
34.884933
20
-60.632356
30
0
11
2.05004334942836E-15
21
1.75000000032001
31
0
210
0
220
0
230
1
40
0.999996
41
-3.13666458690298
42
-2.89996487994295
0
ELLIPSE
5
131
100
AcDbEntity
8
1
62
256
6
ByLayer
370
18
48
1
60
0
100
AcDbEllipse
10
35.263996
20
31.749995
30
0
11
44.6615342817627
21
7.87506479819016
31
0
210
0
220
0
230
1
40
8.8E-05
41
1.4953668333638
42
1.57129307349251
0
ELLIPSE
5
132
100
AcDbEntity
8
1
62
256
6
ByLayer
370
18
48
1
60
0
100
AcDbEllipse
10
35.219935
20
60.582356
30
0
11
1.4133584575107E-15
21
1.20650000000522
31
0
210
0
220
0
230
1
40
0.999996
41
-2.0150194315349
42
-1.08574344265829
0
ELLIPSE
5
133
100
AcDbEntity
8
1
62
256
6
ByLayer
370
18
48
1
60
0
100
AcDbEllipse
10
39.183942
20
53.708713
30
0
11
9.30133953798927E-16
21
0.793999999999833
31
0
210
0
220
0
230
1
40
0.999996
41
2.61799387799139
42
-1.5707963267949
0
ELLIPSE
5
134
100
AcDbEntity
8
1
62
256
6
ByLayer
370
18
48
1
60
0
100
AcDbEllipse
10
27.278492
20
60.582356
30
0
11
9.30133953799123E-16
21
0.794
31
0
210
0
220
0
230
1
40
0.999996
41
0.523598775598261
42
2.61799387799141
0
ELLIPSE
5
135
100
AcDbEntity
8
1
62
256
6
ByLayer
370
18
48
1
60
0
100
AcDbEllipse
10
39.183942
20
67.456
30
0
11
9.30133953799162E-16
21
0.794000000000034
31
0
210
0
220
0
230
1
40
0.999996
41
-1.5707963267949
42
0.523598775598196
0
ELLIPSE
5
136
100
AcDbEntity
8
1
62
256
6
ByLayer
370
18
48
1
60
0
100
AcDbEllipse
10
34.9016
20
-60.632356
30
0
11
2.92863335579069E-15
21
2.5
31
0
210
0
220
0
230
1
40
0.999996
41
-2.6179938779915
42
-0.0021682357241839
0
ELLIPSE
5
137
100
AcDbEntity
8
1
62
256
6
ByLayer
370
18
48
1
60
0
100
AcDbEllipse
10
34.9016
20
-60.632356
30
0
11
2.92863335577628E-15
21
2.4999999999877
31
0
210
0
220
0
230
1
40
0.999996
41
-3.13942417970074
42
-2.61799387799016
0
ELLIPSE
5
138
100
AcDbEntity
8
1
62
256
6
ByLayer
370
18
48
1
60
0
100
AcDbEllipse
10
35.596337
20
-15.551
30
0
11
1.87432534770606E-14
21
16.0000000000002
31
0
210
0
220
0
230
1
40
0.999996
41
1.5707963267949
42
2.96705972839036
0
ELLIPSE
5
139
100
AcDbEntity
8
1
62
256
6
ByLayer
370
18
48
1
60
0
100
AcDbEllipse
10
35.219862
20
60.582356
30
0
11
3.07506502358022E-15
21
2.625
31
0
210
0
220
0
230
1
40
0.999996
41
3.14159265358979
42
0
0
ELLIPSE
5
13A
100
AcDbEntity
8
1
62
256
6
ByLayer
370
18
48
1
60
0
100
AcDbEllipse
10
35.216591
20
60.582356
30
0
11
3.0750650235802E-15
21
2.62499999999998
31
0
210
0
220
0
230
1
40
0.999996
41
0
42
2.61799387799151
0
ELLIPSE
5
13B
100
AcDbEntity
8
1
62
256
6
ByLayer
370
18
48
1
60
0
100
AcDbEllipse
10
35.908833
20
59.381417
30
0
11
3.42064375956138E-16
21
0.291999999999817
31
0
210
0
220
0
230
1
40
0.999996
41
2.35620673612809
42
3.13233094043775
0
ELLIPSE
5
13C
100
AcDbEntity
8
1
62
256
6
ByLayer
370
18
48
1
60
0
100
AcDbEllipse
10
38.335079
20
-54.656781
30
0
11
9.37162673848668E-16
21
0.799999999996285
31
0
210
0
220
0
230
1
40
0.999996
41
-1.5707963267949
42
-1.04307008487587
0
ELLIPSE
5
13D
100
AcDbEntity
8
1
62
256
6
ByLayer
370
18
48
1
60
0
100
AcDbEllipse
10
34.93534
20
-60.632356
30
0
11
1.9445381739174
21
1.94780632720839
31
0
210
0
220
0
230
1
40
0.998322
41
0.783718889058567
42
2.35451521585347
0
ELLIPSE
5
13E
100
AcDbEntity
8
1
62
256
6
ByLayer
370
18
48
1
60
0
100
AcDbEllipse
10
1.855912
20
-6.75
30
0
11
4.68581336926507E-14
21
39.9999999999997
31
0
210
0
220
0
230
1
40
0.266598
41
0.174890186219472
42
1.5707963267949
0
ELLIPSE
5
13F
100
AcDbEntity
8
1
62
256
6
ByLayer
370
18
48
1
60
0
100
AcDbEllipse
10
34.902181
20
-60.632356
30
0
11
2.05004334905348E-15
21
1.75
31
0
210
0
220
0
230
1
40
0.999996
41
0
42
3.14159265358979
0
ELLIPSE
5
140
100
AcDbEntity
8
1
62
256
6
ByLayer
370
18
48
1
60
0
100
AcDbEllipse
10
34.902181
20
-60.632356
30
0
11
2.05004334905349E-15
21
1.75000000000001
31
0
210
0
220
0
230
1
40
0.999996
41
-2.61799387799148
42
0
0
ELLIPSE
5
141
100
AcDbEntity
8
1
62
256
6
ByLayer
370
18
48
1
60
0
100
AcDbEllipse
10
34.902181
20
-60.632356
30
0
11
2.05004334906904E-15
21
1.75000000001328
31
0
210
0
220
0
230
1
40
0.999996
41
3.14159265358979
42
-2.61799387799355
0
ELLIPSE
5
142
100
AcDbEntity
8
SK1
62
256
6
ByLayer
370
18
48
1
60
0
100
AcDbEllipse
10
-12.517784
20
0.649
30
0
11
1.2885986765479E-15
21
1.1
31
0
210
0
220
0
230
1
40
0.002909
41
3.14159265358976
42
-6.9391107511182E-14
0
ELLIPSE
5
143
100
AcDbEntity
8
SK1
62
256
6
ByLayer
370
18
48
1
60
0
100
AcDbEllipse
10
-12.517784
20
0.649
30
0
11
1.2885986765479E-15
21
1.1
31
0
210
0
220
0
230
1
40
0.002909
41
0
42
3.14159265358976
0
ELLIPSE
5
144
100
AcDbEntity
8
1
62
256
6
ByLayer
370
18
48
1
60
0
100
AcDbEllipse
10
35.216579
20
60.582356
30
0
11
-0.000948031786559253
21
1.20649963908144
31
0
210
0
220
0
230
1
40
0.999996
41
-2.16421350557856
42
-2.02614823981332
0
ELLIPSE
5
145
100
AcDbEntity
8
1
62
256
6
ByLayer
370
18
48
1
60
0
100
AcDbEllipse
10
35.223928
20
-60.582356
30
0
11
-0.00247808697214477
21
1.81794754947686
31
0
210
0
220
0
230
1
40
0.999996
41
0.451566667989882
42
0.52223565231914
0
ELLIPSE
5
146
100
AcDbEntity
8
1
62
256
6
ByLayer
370
18
48
1
60
0
100
AcDbEllipse
10
35.223928
20
-60.582356
30
0
11
2.12964265763461E-15
21
1.81794919243112
31
0
210
0
220
0
230
1
40
0.999996
41
0.523598775598295
42
2.99502063466038
0
ELLIPSE
5
147
100
AcDbEntity
8
1
62
256
6
ByLayer
370
18
48
1
60
0
100
AcDbEllipse
10
35.227425
20
-60.582356
30
0
11
2.05004334857399E-15
21
1.74999999959069
31
0
210
0
220
0
230
1
40
0.999996
41
0.246694049365236
42
0.523598775654927
0
ELLIPSE
5
148
100
AcDbEntity
8
1
62
256
6
ByLayer
370
18
48
1
60
0
100
AcDbEllipse
10
35.227425
20
-60.582356
30
0
11
2.05004334905349E-15
21
1.75000000000001
31
0
210
0
220
0
230
1
40
0.999996
41
0.523598775598312
42
3.14159265358979
0
ELLIPSE
5
149
100
AcDbEntity
8
SK1
62
256
6
ByLayer
370
18
48
1
60
0
100
AcDbEllipse
10
1.855912
20
6.75
30
0
11
4.68581336637673E-14
21
39.9999999753437
31
0
210
0
220
0
230
1
40
0.266598
41
1.5707963267949
42
1.67350179493481
0
ELLIPSE
5
14A
100
AcDbEntity
8
1
62
256
6
ByLayer
370
18
48
1
60
0
100
AcDbEllipse
10
35.219935
20
60.582356
30
0
11
1.41335845750636E-15
21
1.20650000000151
31
0
210
0
220
0
230
1
40
0.999996
41
2.09579037623457
42
3.13351633725778
0
ELLIPSE
5
14B
100
AcDbEntity
8
1
62
256
6
ByLayer
370
18
48
1
60
0
100
AcDbEllipse
10
33.582311
20
59.633821
30
0
11
8.0361699282414E-16
21
0.685999999995881
31
0
210
0
220
0
230
1
40
0.999996
41
-1.82979292097836
42
-1.04580227735252
0
ELLIPSE
5
14C
100
AcDbEntity
8
1
62
256
6
ByLayer
370
18
48
1
60
0
100
AcDbEllipse
10
34.527688
20
59.383344
30
0
11
3.42064375956135E-16
21
0.291999999999814
31
0
210
0
220
0
230
1
40
0.999996
41
1.31179973261258
42
3.13800519240894
0
ELLIPSE
5
14D
100
AcDbEntity
8
1
62
256
6
ByLayer
370
18
48
1
60
0
100
AcDbEllipse
10
27.927989
20
61.497354
30
0
11
1.90361168126283E-15
21
1.62499999999905
31
0
210
0
220
0
230
1
40
0.999996
41
0
42
1.24135530626359
0
ELLIPSE
5
14E
100
AcDbEntity
8
1
62
256
6
ByLayer
370
18
48
1
60
0
100
AcDbEllipse
10
19.480061
20
6.75
30
0
11
4.68581346603682E-14
21
40.0000008260826
31
0
210
0
220
0
230
1
40
0.002909
41
-1.74035766739812
42
-1.5707963267949
0
ELLIPSE
5
14F
100
AcDbEntity
8
SK1
62
256
6
ByLayer
370
18
48
1
60
0
100
AcDbEllipse
10
-12.517784
20
-0.649
30
0
11
2.07438020447285E-15
21
1.77077492507832
31
0
210
0
220
0
230
1
40
0.002909
41
1.19554518563116
42
3.14107978901682
0
ELLIPSE
5
150
100
AcDbEntity
8
1
62
256
6
ByLayer
370
18
48
1
60
0
100
AcDbEllipse
10
37.964764
20
-31.75
30
0
11
9.22519507073945E-15
21
7.87499999999896
31
0
210
0
220
0
230
1
40
0.08458
41
1.61587242362949
42
3.14159265358979
0
ELLIPSE
5
151
100
AcDbEntity
8
1
62
256
6
ByLayer
370
18
48
1
60
0
100
AcDbEllipse
10
34.531036
20
61.783296
30
0
11
3.4206437595652E-16
21
0.292000000000143
31
0
210
0
220
0
230
1
40
0.999996
41
0.00828708482457441
42
1.83845888611751
0
ELLIPSE
5
152
100
AcDbEntity
8
1
62
256
6
ByLayer
370
18
48
1
60
0
100
AcDbEllipse
10
25.966632
20
60.582356
30
0
11
1.75718001347218E-15
21
1.49999999999809
31
0
210
0
220
0
230
1
40
0.999996
41
3.14159265358979
42
-2.18657035596411
0
ELLIPSE
5
153
100
AcDbEntity
8
1
62
256
6
ByLayer
370
18
48
1
60
0
100
AcDbEllipse
10
25.966632
20
60.582356
30
0
11
1.75718001347441E-15
21
1.5
31
0
210
0
220
0
230
1
40
0.999996
41
0
42
3.14159265358979
0
ELLIPSE
5
154
100
AcDbEntity
8
1
62
256
6
ByLayer
370
18
48
1
60
0
100
AcDbEllipse
10
34.912434
20
-60.632356
30
0
11
2.92863335579075E-15
21
2.50000000000005
31
0
210
0
220
0
230
1
40
0.999996
41
3.14159265358979
42
-1.5707963267949
0
ELLIPSE
5
155
100
AcDbEntity
8
1
62
256
6
ByLayer
370
18
48
1
60
0
100
AcDbEllipse
10
34.912434
20
-60.632356
30
0
11
2.92863335579061E-15
21
2.49999999999993
31
0
210
0
220
0
230
1
40
0.999996
41
-1.5707963267949
42
0
0
ELLIPSE
5
156
100
AcDbEntity
8
1
62
256
6
ByLayer
370
18
48
1
60
0
100
AcDbEllipse
10
34.912434
20
-60.632356
30
0
11
2.92863335579069E-15
21
2.5
31
0
210
0
220
0
230
1
40
0.999996
41
0
42
3.14159265358979
0
ELLIPSE
5
157
100
AcDbEntity
8
1
62
256
6
ByLayer
370
18
48
1
60
0
100
AcDbEllipse
10
35.479994
20
15.551
30
0
11
1.87432534768173E-14
21
15.9999999997925
31
0
210
0
220
0
230
1
40
0.999996
41
1.13553537845135
42
1.46291127817806
0
ELLIPSE
5
158
100
AcDbEntity
8
1
62
256
6
ByLayer
370
18
48
1
60
0
100
AcDbEllipse
10
38.335079
20
-66.607932
30
0
11
9.37162673827002E-16
21
0.79999999997779
31
0
210
0
220
0
230
1
40
0.999996
41
3.14159265358979
42
-2.49771486179284
0
ELLIPSE
5
159
100
AcDbEntity
8
1
62
256
6
ByLayer
370
18
48
1
60
0
100
AcDbEllipse
10
35.24953
20
-60.582356
30
0
11
2.05004334927438E-15
21
1.75000000018857
31
0
210
0
220
0
230
1
40
0.999996
41
0.243399518515731
42
0.52359877557254
0
ELLIPSE
5
15A
100
AcDbEntity
8
1
62
256
6
ByLayer
370
18
48
1
60
0
100
AcDbEllipse
10
25.988185
20
60.582356
30
0
11
1.75718001347441E-15
21
1.5
31
0
210
0
220
0
230
1
40
0.999996
41
0.00718435851381426
42
3.13440830037286
0
ELLIPSE
5
15B
100
AcDbEntity
8
1
62
256
6
ByLayer
370
18
48
1
60
0
100
AcDbEllipse
10
35.219278
20
60.581219
30
0
11
1.04485964966809
21
0.603250000001246
31
0
210
0
220
0
230
1
40
0.999996
41
0.000615069881809153
42
0.97816491778362
0
POINT
5
6C
100
AcDbEntity
8
80
62
256
6
ByLayer
370
13
48
1
60
0
100
AcDbPoint
10
0
20
0
30
0
39
0
210
0
220
0
230
1
50
360
0
POINT
5
6E
100
AcDbEntity
8
81
62
256
6
ByLayer
370
18
48
1
60
0
100
AcDbPoint
10
40
20
68.25
30
0
39
0
210
0
220
0
230
1
50
360
0
SPLINE
5
15C
100
AcDbEntity
8
1
62
256
6
ByLayer
370
18
48
1
60
0
100
AcDbSpline
70
4
71
3
72
18
73
14
40
0
40
0
40
0
40
0
40
0.0980974146743742
40
0.196203039334668
40
0.294311378104472
40
0.392416957632553
40
0.490514334450954
40
0.588611979120948
40
0.686717875330345
40
0.784826515261614
40
0.882932396226791
40
0.981030028110246
40
1
40
1
40
1
40
1
41
1
10
19.6286029874537
20
17.05
30
0
41
1
10
19.6262613799029
20
17.0251154562652
30
0
41
1
10
19.6216941627875
20
16.9753365131436
30
0
41
1
10
19.6151916185997
20
16.9006391711225
30
0
41
1
10
19.6090378563052
20
16.8259241880747
30
0
41
1
10
19.6032336364874
20
16.7512032190181
30
0
41
1
10
19.5977795037736
20
16.6764855085572
30
0
41
1
10
19.592675835925
20
16.6017766191364
30
0
41
1
10
19.5879221012935
20
16.5270822455188
30
0
41
1
10
19.5835181000929
20
16.4524115605382
30
0
41
1
10
19.579463857298
20
16.3777773291428
30
0
41
1
10
19.576755302375
20
16.3232427305834
30
0
41
1
10
19.5753645931473
20
16.2935850430302
30
0
41
1
10
19.5751414161528
20
16.2887795245843
30
0
0
SPLINE
5
15D
100
AcDbEntity
8
1
62
256
6
ByLayer
370
18
48
1
60
0
100
AcDbSpline
70
4
71
3
72
15
73
11
40
0
40
0
40
0
40
0
40
0.124994961371997
40
0.249990222683435
40
0.374985479314959
40
0.499980434305243
40
0.624985173854478
40
0.749990226928202
40
0.874995271730292
40
1
40
1
40
1
40
1
41
1
10
26.3903830354166
20
62.0230643516292
30
0
41
1
10
26.3806650121741
20
62.0258065400592
30
0
41
1
10
26.361167081932
20
62.0311060498188
30
0
41
1
10
26.3317338518651
20
62.0385021523124
30
0
41
1
10
26.302116524003
20
62.0453407187181
30
0
41
1
10
26.272315771479
20
62.051619101099
30
0
41
1
10
26.2423332072299
20
62.0573339883692
30
0
41
1
10
26.2121715030903
20
62.0624798628241
30
0
41
1
10
26.1818338058575
20
62.0670518553009
30
0
41
1
10
26.1614937890716
20
62.069712348946
30
0
41
1
10
26.1512948671538
20
62.07094612873
30
0
0
SPLINE
5
15E
100
AcDbEntity
8
1
62
256
6
ByLayer
370
18
48
1
60
0
100
AcDbSpline
70
4
71
3
72
41
73
37
40
0
40
0
40
0
40
0
40
0.0285489142322695
40
0.0570978449591975
40
0.0845575062608943
40
0.112040831621633
40
0.139524451707936
40
0.166984515253672
40
0.195225317528983
40
0.223490897066687
40
0.251757076411995
40
0.27999869732121
40
0.30780802210315
40
0.33563958778979
40
0.363471884500441
40
0.391282206925784
40
0.419809088037904
40
0.448358142701167
40
0.476908086591499
40
0.505436181221607
40
0.535011633624781
40
0.564609589421338
40
0.594208560867263
40
0.623785399291928
40
0.654077655783881
40
0.68439175499961
40
0.714706874309729
40
0.745000522834029
40
0.776511334830235
40
0.808044328302179
40
0.839578340387501
40
0.871090542371559
40
0.903306632960024
40
0.935544222427903
40
0.967782698967391
40
1
40
1
40
1
40
1
41
1
10
33.5393038289762
20
60.5776780230469
30
0
41
1
10
33.5393146679111
20
60.5738628382823
30
0
41
1
10
33.5394855665022
20
60.5662411723017
30
0
41
1
10
33.5401804930435
20
60.5549698840828
30
0
41
1
10
33.5412949879767
20
60.5438849305825
30
0
41
1
10
33.5428051488571
20
60.5330007725458
30
0
41
1
10
33.5447196980324
20
60.5221947179427
30
0
41
1
10
33.5470560794828
20
60.5113865278246
30
0
41
1
10
33.5498255136652
20
60.5005955250788
30
0
41
1
10
33.5530311816966
20
60.4898403346664
30
0
41
1
10
33.5566369664049
20
60.4792418658509
30
0
41
1
10
33.5606130155062
20
60.4688738396063
30
0
41
1
10
33.5649461199207
20
60.4587481296968
30
0
41
1
10
33.5696173636939
20
60.448871707154
30
0
41
1
10
33.5746361554335
20
60.4392085152976
30
0
41
1
10
33.5800362515862
20
60.4296936336196
30
0
41
1
10
33.5858191001992
20
60.4203458332557
30
0
41
1
10
33.5919803367771
20
60.4111806406358
30
0
41
1
10
33.598455329771
20
60.4022900519928
30
0
41
1
10
33.6053118809099
20
60.3935819676637
30
0
41
1
10
33.6125518199358
20
60.3850783498466
30
0
41
1
10
33.6201716457811
20
60.3767976343334
30
0
41
1
10
33.6280666680896
20
60.3688513109218
30
0
41
1
10
33.63628515738
20
60.3611881976999
30
0
41
1
10
33.6448215097823
20
60.3538251086029
30
0
41
1
10
33.6536664388115
20
60.346774333395
30
0
41
1
10
33.6627332169919
20
60.3401006500207
30
0
41
1
10
33.6721276697316
20
60.3337264273945
30
0
41
1
10
33.6818457888468
20
60.3276742436212
30
0
41
1
10
33.6918800188387
20
60.3219625331602
30
0
41
1
10
33.702083740746
20
60.3166734994707
30
0
41
1
10
33.712514771654
20
60.3117745983858
30
0
41
1
10
33.7231629783539
20
60.3072792188298
30
0
41
1
10
33.7340159806345
20
60.3031962524892
30
0
41
1
10
33.7449780834411
20
60.2995590884057
30
0
41
1
10
33.7523430886042
20
60.2974322138574
30
0
41
1
10
33.7560400340787
20
60.296443446146
30
0
0
SPLINE
5
15F
100
AcDbEntity
8
1
62
256
6
ByLayer
370
18
48
1
60
0
100
AcDbSpline
70
4
71
3
72
36
73
32
40
0
40
0
40
0
40
0
40
0.0347956634946267
40
0.0696184338143956
40
0.104439972397006
40
0.139233954930667
40
0.174980893752311
40
0.210760551741526
40
0.246538446311789
40
0.28228297824845
40
0.31720721963106
40
0.352165838815523
40
0.387122551041687
40
0.422044189440885
40
0.458199290040244
40
0.494397454045936
40
0.530593251797757
40
0.566745121805206
40
0.598371827140239
40
0.630030600458247
40
0.661688058793264
40
0.69331296913785
40
0.72606903903687
40
0.758863745292674
40
0.791657264856285
40
0.824411714619202
40
0.859479733751487
40
0.894623405776279
40
0.92979163157371
40
0.964933498272483
40
1
40
1
40
1
40
1
41
1
10
33.7577035386178
20
60.8609814628054
30
0
41
1
10
33.7536709448368
20
60.8599282718111
30
0
41
1
10
33.7456396163335
20
60.8576446145255
30
0
41
1
10
33.7336926363335
20
60.8536886846494
30
0
41
1
10
33.7218761931496
20
60.8492038101098
30
0
41
1
10
33.7101066119398
20
60.8441448757514
30
0
41
1
10
33.6984097163566
20
60.8384908838089
30
0
41
1
10
33.6868124833451
20
60.8322285749561
30
0
41
1
10
33.6754486694812
20
60.8254147852864
30
0
41
1
10
33.6644332922102
20
60.8181113564841
30
0
41
1
10
33.6537842857466
20
60.8103323089094
30
0
41
1
10
33.6435147998979
20
60.8021002681222
30
0
41
1
10
33.6335710590037
20
60.7933669282513
30
0
41
1
10
33.6238705090283
20
60.7840356735644
30
0
41
1
10
33.6144553430436
20
60.7740896202585
30
0
41
1
10
33.6053655534761
20
60.7635251332719
30
0
41
1
10
33.5967413231115
20
60.7524796901825
30
0
41
1
10
33.5889556225518
20
60.7414555511563
30
0
41
1
10
33.5819657739514
20
60.7305307538279
30
0
41
1
10
33.575712981532
20
60.7197791847847
30
0
41
1
10
33.5698986998274
20
60.7087261175425
30
0
41
1
10
33.5644795698559
20
60.6972590344277
30
0
41
1
10
33.5594953058215
20
60.6853803748767
30
0
41
1
10
33.5549772578147
20
60.6731031870109
30
0
41
1
10
33.5509996031627
20
60.6605976971654
30
0
41
1
10
33.5474984747061
20
60.647597492341
30
0
41
1
10
33.5445429756157
20
60.634104255022
30
0
41
1
10
33.5421871128217
20
60.6201353792882
30
0
41
1
10
33.5405026980808
20
60.6060384788692
30
0
41
1
10
33.5394983811612
20
60.5918687716992
30
0
41
1
10
33.5392922355332
20
60.5824099599869
30
0
41
1
10
33.5393038289762
20
60.5776780230469
30
0
0
SPLINE
5
160
100
AcDbEntity
8
1
62
256
6
ByLayer
370
18
48
1
60
0
100
AcDbSpline
70
4
71
3
72
33
73
29
40
0
40
0
40
0
40
0
40
0.0406570894635176
40
0.0813260012088353
40
0.121994320414551
40
0.162650601632422
40
0.203315073462889
40
0.243992922540622
40
0.28466988935483
40
0.325333157698103
40
0.367735305678963
40
0.410155245160822
40
0.452573686213826
40
0.494973790012122
40
0.534860802864445
40
0.574776030722079
40
0.614698327173826
40
0.654609030263626
40
0.69449224549938
40
0.735435466988472
40
0.776417142024081
40
0.81740870982075
40
0.858384686519762
40
0.89932312432329
40
0.924465380760885
40
0.949607591559816
40
0.974803815632584
40
1
40
1
40
1
40
1
41
1
10
33.7577035386178
20
60.8609814628054
30
0
41
1
10
33.7634045969887
20
60.8624705118221
30
0
41
1
10
33.7747845540444
20
60.8656010198447
30
0
41
1
10
33.7917877145195
20
60.8707520190464
30
0
41
1
10
33.8087113942533
20
60.8763610306999
30
0
41
1
10
33.8255468905106
20
60.8824302024641
30
0
41
1
10
33.8422862246294
20
60.8889633431405
30
0
41
1
10
33.8589216733773
20
60.8959632162918
30
0
41
1
10
33.8754403003088
20
60.9034310374217
30
0
41
1
10
33.8920632689361
20
60.9114815856426
30
0
41
1
10
33.9087746648672
20
60.9201431388929
30
0
41
1
10
33.9255562203564
20
60.9294425607673
30
0
41
1
10
33.9421602070006
20
60.9392604441675
30
0
41
1
10
33.9582453922472
20
60.9493929331492
30
0
41
1
10
33.9738130023636
20
60.9598098254624
30
0
41
1
10
33.9888669747762
20
60.9704781118891
30
0
41
1
10
34.003711864249
20
60.9816097152908
30
0
41
1
10
34.018325382775
20
60.9931984102479
30
0
41
1
10
34.0328175122771
20
61.0053481493345
30
0
41
1
10
34.0471673628648
20
61.0180779893361
30
0
41
1
10
34.0613530217537
20
61.0313984531513
30
0
41
1
10
34.0752288936805
20
61.0451884387492
30
0
41
1
10
34.0887658130571
20
61.0594304856893
30
0
41
1
10
34.1002465897509
20
61.0722266749365
30
0
41
1
10
34.1098012138274
20
61.0833912992164
30
0
41
1
10
34.1175596839432
20
61.0927893176516
30
0
41
1
10
34.1251711130398
20
61.1023513681031
30
0
41
1
10
34.1301426462436
20
61.1088316657936
30
0
41
1
10
34.1326021888697
20
61.1120974076398
30
0
0
SPLINE
5
161
100
AcDbEntity
8
1
62
256
6
ByLayer
370
18
48
1
60
0
100
AcDbSpline
70
4
71
3
72
36
73
32
40
0
40
0
40
0
40
0
40
0.0350163753312006
40
0.0700600385354677
40
0.105102450140306
40
0.140117117403825
40
0.176091460625332
40
0.212098765482674
40
0.248104288978204
40
0.284076200822254
40
0.31919606377903
40
0.354350480940644
40
0.389502988091839
40
0.424620243900352
40
0.460976862274806
40
0.497376730791587
40
0.533774244883537
40
0.570127648821229
40
0.601945371610629
40
0.633795306071538
40
0.665643940648508
40
0.697459889061109
40
0.730411088254254
40
0.76340102567178
40
0.796389805499463
40
0.829339424295102
40
0.863426724966447
40
0.897582249236358
40
0.931759958422545
40
0.965913970311479
40
1
40
1
40
1
40
1
41
1
10
34.2416001499204
20
59.4581285350861
30
0
41
1
10
34.240529735846
20
59.4541135653462
30
0
41
1
10
34.2385592116529
20
59.4460256555801
30
0
41
1
10
34.236112338684
20
59.4337192128307
30
0
41
1
10
34.2341881888866
20
59.4212653822659
30
0
41
1
10
34.2327847698394
20
59.4085693164896
30
0
41
1
10
34.2319330798116
20
59.3956430579618
30
0
41
1
10
34.2316579288962
20
59.382503476762
30
0
41
1
10
34.2319758679133
20
59.3692946400001
30
0
41
1
10
34.2328896592109
20
59.3561500131992
30
0
41
1
10
34.2343954690066
20
59.3430921016752
30
0
41
1
10
34.2364795953377
20
59.3301434174234
30
0
41
1
10
34.2391578098865
20
59.3172302329355
30
0
41
1
10
34.2424731656236
20
59.3042335679094
30
0
41
1
10
34.2464609496066
20
59.2911816364372
30
0
41
1
10
34.2511438474608
20
59.2781072277556
30
0
41
1
10
34.2564716300823
20
59.2651992469244
30
0
41
1
10
34.2621933462648
20
59.2530262232171
30
0
41
1
10
34.2682207181739
20
59.2415896413527
30
0
41
1
10
34.2744611088595
20
59.2308750187337
30
0
41
1
10
34.2811779477982
20
59.2203916343802
30
0
41
1
10
34.2884471205913
20
59.2100466720496
30
0
41
1
10
34.296285883179
20
59.19987559125
30
0
41
1
10
34.3046982299992
20
59.1899117917388
30
0
41
1
10
34.3135733163773
20
59.1803029297277
30
0
41
1
10
34.3229984964214
20
59.1709732043088
30
0
41
1
10
34.3329859038986
20
59.1619654086443
30
0
41
1
10
34.3435304223528
20
59.1533134651177
30
0
41
1
10
34.3544877466751
20
59.1451427119942
30
0
41
1
10
34.3658188731189
20
59.1374843997446
30
0
41
1
10
34.3735984973449
20
59.1327441871581
30
0
41
1
10
34.37754375567
20
59.1304647807183
30
0
0
SPLINE
5
162
100
AcDbEntity
8
1
62
256
6
ByLayer
370
18
48
1
60
0
100
AcDbSpline
70
4
71
3
72
67
73
63
40
0
40
0
40
0
40
0
40
0.0174334664526151
40
0.0348719851024081
40
0.052310246355267
40
0.0697433617094193
40
0.0871800252711437
40
0.104622414458964
40
0.122064422874775
40
0.139500567029378
40
0.157680526484077
40
0.175868104254513
40
0.194055040260612
40
0.212234124209765
40
0.229410647230536
40
0.246599405136022
40
0.263791233018734
40
0.280978037929329
40
0.298152921802557
40
0.315787232553396
40
0.333438181037025
40
0.3510934331275
40
0.36874196051741
40
0.386374238779933
40
0.400672383532318
40
0.414977261181096
40
0.429281859838987
40
0.443579623968738
40
0.457879957075391
40
0.472187487755528
40
0.486494914578029
40
0.50079510598914
40
0.516052045161651
40
0.531317756435894
40
0.546583618406892
40
0.561840763192755
40
0.576965354128382
40
0.592101597346899
40
0.607242316448834
40
0.622379649352121
40
0.637505154926282
40
0.653015187570545
40
0.66853578694684
40
0.684060695128342
40
0.699582756579928
40
0.715094016325564
40
0.731694296755544
40
0.748301882134678
40
0.764910066985857
40
0.781511165232078
40
0.798105786069478
40
0.814706513302633
40
0.831307705494378
40
0.847902960596308
40
0.865364917245866
40
0.882832925127016
40
0.900301342280414
40
0.917763857219495
40
0.938318315277493
40
0.958881318294015
40
0.97944483760908
40
1
40
1
40
1
40
1
41
1
10
34.2416001499205
20
59.4581285350861
30
0
41
1
10
34.2431089128442
20
59.463788095071
30
0
41
1
10
34.2459843011328
20
59.475162953021
30
0
41
1
10
34.2498725756551
20
59.492391197348
30
0
41
1
10
34.2533273434023
20
59.5097758848879
30
0
41
1
10
34.256342441279
20
59.527310623767
30
0
41
1
10
34.2589106125309
20
59.5449904522305
30
0
41
1
10
34.2610256377752
20
59.5628100839411
30
0
41
1
10
34.262680083072
20
59.5807589560422
30
0
41
1
10
34.2638832587958
20
59.5990840626588
30
0
41
1
10
34.2646029950287
20
59.6177855693881
30
0
41
1
10
34.2648072272624
20
59.6368608773065
30
0
41
1
10
34.2644775493565
20
59.6560377781285
30
0
41
1
10
34.2636213361326
20
59.6749475828018
30
0
41
1
10
34.2622626093016
20
59.6935769099572
30
0
41
1
10
34.2604292852867
20
59.7119130638009
30
0
41
1
10
34.25808978579
20
59.7302966621904
30
0
41
1
10
34.2552385552149
20
59.748705067641
30
0
41
1
10
34.2518394377066
20
59.7672859744806
30
0
41
1
10
34.2478654568506
20
59.7860305206762
30
0
41
1
10
34.2432967023911
20
59.804924706939
30
0
41
1
10
34.238166929453
20
59.8237810897848
30
0
41
1
10
34.2324770037737
20
59.8425655533112
30
0
41
1
10
34.2266185248416
20
59.8600752413542
30
0
41
1
10
34.2207065112817
20
59.8763122144194
30
0
41
1
10
34.2148514534583
20
59.8912912199001
30
0
41
1
10
34.2086306499351
20
59.9061662867259
30
0
41
1
10
34.2020474702666
20
59.9209211755579
30
0
41
1
10
34.1951028261486
20
59.9355426451828
30
0
41
1
10
34.1878028527969
20
59.9500185299707
30
0
41
1
10
34.1801559516769
20
59.9643308600027
30
0
41
1
10
34.1719918002149
20
59.9787772715502
30
0
41
1
10
34.1632877635616
20
59.9933295599878
30
0
41
1
10
34.1540282440218
20
60.0079583504416
30
0
41
1
10
34.1444129547489
20
60.0223346637241
30
0
41
1
10
34.1344842040596
20
60.0363992408993
30
0
41
1
10
34.124253210247
20
60.0501417735592
30
0
41
1
10
34.1137354774892
20
60.0635580236467
30
0
41
1
10
34.1029162819487
20
60.0766765016117
30
0
41
1
10
34.0918146574771
20
60.0894801703838
30
0
41
1
10
34.0803480182264
20
60.1020632370662
30
0
41
1
10
34.0685171499228
20
60.1144096304978
30
0
41
1
10
34.0563263069845
20
60.1265087317101
30
0
41
1
10
34.0438891530956
20
60.1382515095283
30
0
41
1
10
34.0312250285739
20
60.1496278091157
30
0
41
1
10
34.0180464436002
20
60.1608891544245
30
0
41
1
10
34.0043454390799
20
60.172002766043
30
0
41
1
10
33.9901174453467
20
60.1829386804498
30
0
41
1
10
33.9756849354817
20
60.1934455065148
30
0
41
1
10
33.9610652379614
20
60.2035193450515
30
0
41
1
10
33.9462690936212
20
60.2131605018707
30
0
41
1
10
33.9313070205315
20
60.2223722003701
30
0
41
1
10
33.9161904396933
20
60.2311556843896
30
0
41
1
10
33.9006664068747
20
60.2396564894001
30
0
41
1
10
33.884734802891
20
60.2478502798698
30
0
41
1
10
33.8683972298342
20
60.2557139078357
30
0
41
1
10
33.851934436262
20
60.2631110721478
30
0
41
1
10
33.8343805220461
20
60.2704523341351
30
0
41
1
10
33.8157190748345
20
60.2776404688327
30
0
41
1
10
33.7959404418926
20
60.2845733608453
30
0
41
1
10
33.7760457660046
20
60.2908745594454
30
0
41
1
10
33.7627191368308
20
60.2946572053661
30
0
41
1
10
33.7560400340787
20
60.296443446146
30
0
0
SPLINE
5
163
100
AcDbEntity
8
1
62
256
6
ByLayer
370
18
48
1
60
0
100
AcDbSpline
70
4
71
3
72
41
73
37
40
0
40
0
40
0
40
0
40
0.0312912309161676
40
0.06258248889903
40
0.0897745970740483
40
0.116990085417869
40
0.144205879919988
40
0.171398405941652
40
0.199361716094769
40
0.227349467560265
40
0.255337823975529
40
0.283301959777929
40
0.310882037469695
40
0.338484135554376
40
0.366086967189815
40
0.393668045971885
40
0.42195822368176
40
0.450270332629697
40
0.47858332773296
40
0.506874714766263
40
0.536238179786298
40
0.565623965566456
40
0.595010763226464
40
0.624375609122849
40
0.654449925623922
40
0.684545899357718
40
0.714642885326822
40
0.744718583134271
40
0.776258721861904
40
0.807821392844908
40
0.839385103451034
40
0.870926660850799
40
0.903183535630768
40
0.935462265717666
40
0.967741896361724
40
1
40
1
40
1
40
1
41
1
10
34.3815985697581
20
62.0365814801157
30
0
41
1
10
34.3779367654385
20
62.0344805980725
30
0
41
1
10
34.3707138804159
20
62.0301262792967
30
0
41
1
10
34.3606301279218
20
62.0234357113681
30
0
41
1
10
34.3512825022533
20
62.0166702698973
30
0
41
1
10
34.3426370640469
20
62.0099032606035
30
0
41
1
10
34.33426279877
20
62.0028272351892
30
0
41
1
10
34.3260992423917
20
61.9953870867729
30
0
41
1
10
34.3181686265968
20
61.9875829391698
30
0
41
1
10
34.3104885235551
20
61.9794214402695
30
0
41
1
10
34.303144912115
20
61.9709941839996
30
0
41
1
10
34.2961826959672
20
61.9623593372786
30
0
41
1
10
34.2896060367188
20
61.953533795462
30
0
41
1
10
34.2834120631899
20
61.9445369869798
30
0
41
1
10
34.2775777808706
20
61.9353474155923
30
0
41
1
10
34.2720640511463
20
61.9259034907393
30
0
41
1
10
34.2668877569289
20
61.9162134248401
30
0
41
1
10
34.262060068344
20
61.9062887903435
30
0
41
1
10
34.2576278971994
20
61.8962314155822
30
0
41
1
10
34.2535440526407
20
61.8859324614768
30
0
41
1
10
34.2498289631388
20
61.8754012243057
30
0
41
1
10
34.2464973700488
20
61.8646498877001
30
0
41
1
10
34.2435944210907
20
61.853828919249
30
0
41
1
10
34.2411001140734
20
61.8428709531943
30
0
41
1
10
34.2390261518902
20
61.8317892963775
30
0
41
1
10
34.2373784866114
20
61.8205981534771
30
0
41
1
10
34.2361694808293
20
61.8094049546775
30
0
41
1
10
34.2353830486829
20
61.798047476009
30
0
41
1
10
34.235041148392
20
61.7865407576485
30
0
41
1
10
34.2351603327712
20
61.7749013610369
30
0
41
1
10
34.2357386149141
20
61.7633294098466
30
0
41
1
10
34.2367770968882
20
61.7517570177857
30
0
41
1
10
34.2382825433649
20
61.7402000801079
30
0
41
1
10
34.2402565565952
20
61.7286741693716
30
0
41
1
10
34.2426792243181
20
61.7172811106919
30
0
41
1
10
34.2445859278766
20
61.7097886522695
30
0
41
1
10
34.2456124521438
20
61.7060680651705
30
0
0
SPLINE
5
164
100
AcDbEntity
8
1
62
256
6
ByLayer
370
18
48
1
60
0
100
AcDbSpline
70
4
71
3
72
33
73
29
40
0
40
0
40
0
40
0
40
0.0343891243264945
40
0.0687954543886876
40
0.103202643002984
40
0.137592938662792
40
0.171972232653355
40
0.206366661348663
40
0.240762102839647
40
0.275142778515757
40
0.311644254722503
40
0.348161168002454
40
0.384679287971446
40
0.421182410349162
40
0.462839216931451
40
0.504523277567917
40
0.546218812782615
40
0.587907324195703
40
0.629567866161604
40
0.672106947970778
40
0.714669481051635
40
0.757241507596498
40
0.799807163441563
40
0.84234886580258
40
0.881717930886771
40
0.921087099821057
40
0.960543507103246
40
1
40
1
40
1
40
1
41
1
10
34.2158235733633
20
61.2562416835819
30
0
41
1
10
34.21800431407
20
61.2613769719033
30
0
41
1
10
34.2222350652473
20
61.2716850607978
30
0
41
1
10
34.2281868284578
20
61.2872610762813
30
0
41
1
10
34.2337416442129
20
61.302926961933
30
0
41
1
10
34.2388961544112
20
61.3186648451885
30
0
41
1
10
34.2436489437191
20
61.3344616327433
30
0
41
1
10
34.2480034803707
20
61.3503056675541
30
0
41
1
10
34.2519613423609
20
61.3661828611837
30
0
41
1
10
34.2555966968169
20
61.3824049430053
30
0
41
1
10
34.258882423371
20
61.398962889906
30
0
41
1
10
34.2617947689858
20
61.415846178442
30
0
41
1
10
34.2642730535704
20
61.4327131730699
30
0
41
1
10
34.2664177554165
20
61.4503421026611
30
0
41
1
10
34.2681598703897
20
61.4687199706329
30
0
41
1
10
34.2694317999842
20
61.4878287362682
30
0
41
1
10
34.2701673121345
20
61.506863668855
30
0
41
1
10
34.2703744673977
20
61.5258040998059
30
0
41
1
10
34.2700588281206
20
61.5447693711807
30
0
41
1
10
34.2692148529462
20
61.5637510041881
30
0
41
1
10
34.2678398099637
20
61.5827414261346
30
0
41
1
10
34.265948343136
20
61.6015983813316
30
0
41
1
10
34.2635497287095
20
61.6203059050803
30
0
41
1
10
34.260723991161
20
61.6383933147717
30
0
41
1
10
34.2575206483319
20
61.6558673487081
30
0
41
1
10
34.2539842393293
20
61.6727512125886
30
0
41
1
10
34.2500349520391
20
61.689496306803
30
0
41
1
10
34.2471316737013
20
61.7005615728869
30
0
41
1
10
34.2456124521438
20
61.7060680651705
30
0
0
SPLINE
5
165
100
AcDbEntity
8
1
62
256
6
ByLayer
370
18
48
1
60
0
100
AcDbSpline
70
4
71
3
72
37
73
33
40
0
40
0
40
0
40
0
40
0.0304692027490103
40
0.0610521961717336
40
0.0916354914975753
40
0.122201323009517
40
0.152501601868925
40
0.182825224656405
40
0.213157814331166
40
0.243483620170329
40
0.273785731397451
40
0.304858195707592
40
0.335951829175758
40
0.367054094809463
40
0.398150657367414
40
0.429225580025696
40
0.462482227030268
40
0.495753508613748
40
0.529025991166804
40
0.562284276567007
40
0.595529585264623
40
0.628787127384838
40
0.66204560099316
40
0.69529218036266
40
0.73027509108182
40
0.765270124709122
40
0.800265978263531
40
0.835250007447846
40
0.876369107847258
40
0.917488418290801
40
0.95874412538208
40
1
40
1
40
1
40
1
41
1
10
35.2139389308781
20
59.3758582123117
30
0
41
1
10
35.2081836288868
20
59.3758578112687
30
0
41
1
10
35.1966589678575
20
59.3757124522955
30
0
41
1
10
35.1793744027289
20
59.3750581148466
30
0
41
1
10
35.1621123470752
20
59.3739699023339
30
0
41
1
10
35.1449613358372
20
59.3724549273778
30
0
41
1
10
35.1279364926369
20
59.3705177943207
30
0
41
1
10
35.1110491400602
20
59.3681697186655
30
0
41
1
10
35.0942672779415
20
59.3654122880937
30
0
41
1
10
35.0776152046713
20
59.3622533711474
30
0
41
1
10
35.0609699513864
20
59.3586689379433
30
0
41
1
10
35.0443458048394
20
59.3546515980647
30
0
41
1
10
35.0277540909099
20
59.3501996831326
30
0
41
1
10
35.0113462500347
20
59.345356581269
30
0
41
1
10
34.9951408018364
20
59.3401338734094
30
0
41
1
10
34.9787756881463
20
59.3344096081319
30
0
41
1
10
34.9622752357185
20
59.3281604632568
30
0
41
1
10
34.945663046298
20
59.3213674501855
30
0
41
1
10
34.9293186932503
20
59.3141827409291
30
0
41
1
10
34.9132542797292
20
59.3066193144682
30
0
41
1
10
34.8974749593173
20
59.2986865736986
30
0
41
1
10
34.8819832507294
20
59.2903951953133
30
0
41
1
10
34.8667838375492
20
59.2817556427985
30
0
41
1
10
34.8516236423411
20
59.2726226119742
30
0
41
1
10
34.8365236466792
20
59.2629837730998
30
0
41
1
10
34.8215046748084
20
59.2528288707506
30
0
41
1
10
34.8068258276474
20
59.242331829569
30
0
41
1
10
34.7916542760594
20
59.2308710040183
30
0
41
1
10
34.7760671341543
20
59.218386324077
30
0
41
1
10
34.7601292894924
20
59.2048040371936
30
0
41
1
10
34.7446620818897
20
59.1907886501113
30
0
41
1
10
34.7346691132706
20
59.1811687229865
30
0
41
1
10
34.729754802326
20
59.1762911229553
30
0
0
SPLINE
5
166
100
AcDbEntity
8
1
62
256
6
ByLayer
370
18
48
1
60
0
100
AcDbSpline
70
4
71
3
72
38
73
34
40
0
40
0
40
0
40
0
40
0.034808247927219
40
0.0696265832517953
40
0.104444404648227
40
0.139251951559288
40
0.174066582952844
40
0.208892646336929
40
0.243717949457429
40
0.278531543783415
40
0.314830266476789
40
0.351144200176382
40
0.387456852505059
40
0.423753827130964
40
0.458049033104777
40
0.492368667649896
40
0.526694431812155
40
0.561010166944039
40
0.595302100142479
40
0.630511340068861
40
0.665753799435307
40
0.701004851524566
40
0.736242476858222
40
0.771447658653762
40
0.799995800704827
40
0.828557385875334
40
0.857118414004134
40
0.885665796092421
40
0.914218307476614
40
0.94278518976837
40
0.971351864695206
40
0.999904093166302
40
1
40
1
40
1
40
1
41
1
10
35.6985337986451
20
59.1749394043698
30
0
41
1
10
35.694402830261
20
59.1790797377031
30
0
41
1
10
35.6860212325824
20
59.1872656094878
30
0
41
1
10
35.6730917497242
20
59.1992607823221
30
0
41
1
10
35.6598090146545
20
59.2109600565035
30
0
41
1
10
35.6461754430707
20
59.2223549169366
30
0
41
1
10
35.6321916638525
20
59.2334366228695
30
0
41
1
10
35.6178591059505
20
59.2441971704845
30
0
41
1
10
35.6031831462329
20
59.2546248618992
30
0
41
1
10
35.5879550488512
20
59.2648515912067
30
0
41
1
10
35.5721584743881
20
59.2748496847826
30
0
41
1
10
35.5557795209803
20
59.2845901810754
30
0
41
1
10
35.5390441110797
20
59.2939207305501
30
0
41
1
10
35.5222745067757
20
59.3026628619443
30
0
41
1
10
35.5054943470194
20
59.3108306224963
30
0
41
1
10
35.4887286384845
20
59.3184417648655
30
0
41
1
10
35.4716671676956
20
59.3256398377656
30
0
41
1
10
35.4543266856297
20
59.3324087176141
30
0
41
1
10
35.4365613700032
20
59.3387912722356
30
0
41
1
10
35.418365285627
20
59.3447598013358
30
0
41
1
10
35.3997404924392
20
59.3502901276571
30
0
41
1
10
35.3808659251241
20
59.3553174230604
30
0
41
1
10
35.3617714840917
20
59.3598253513007
30
0
41
1
10
35.3436935816761
20
59.3635487772071
30
0
41
1
10
35.3266883376722
20
59.3665879861129
30
0
41
1
10
35.3107986372678
20
59.3690457043035
30
0
41
1
10
35.2948145805287
20
59.371135782576
30
0
41
1
10
35.2787518861011
20
59.3728529938702
30
0
41
1
10
35.2626224654674
20
59.3741914953527
30
0
41
1
10
35.2464398554644
20
59.3751504801075
30
0
41
1
10
35.2302240407572
20
59.3757282051557
30
0
41
1
10
35.2193843635212
20
59.3758579969164
30
0
41
1
10
35.2139571000221
20
59.3758582123138
30
0
41
1
10
35.2139389308781
20
59.3758582123117
30
0
0
SPLINE
5
167
100
AcDbEntity
8
1
62
256
6
ByLayer
370
18
48
1
60
0
100
AcDbSpline
70
4
71
3
72
12
73
8
40
0
40
0
40
0
40
0
40
0.250001119726734
40
0.250001119726734
40
0.500002239424781
40
0.500002239424781
40
1
40
1
40
1
40
1
41
1
10
35.2172944028122
20
59.3758582123118
30
0
41
1
10
35.2173741659875
20
59.3758582123118
30
0
41
1
10
35.2174539291639
20
59.3758581984002
30
0
41
1
10
35.2176134555046
20
59.375858142754
30
0
41
1
10
35.2176932186714
20
59.3758581010193
30
0
41
1
10
35.2179325067025
20
59.3758579340817
30
0
41
1
10
35.2180920315488
20
59.375857767145
30
0
41
1
10
35.2182515563077
20
59.3758575445632
30
0
0
SPLINE
5
168
100
AcDbEntity
8
1
62
256
6
ByLayer
370
18
48
1
60
0
100
AcDbSpline
70
4
71
3
72
37
73
33
40
0
40
0
40
0
40
0
40
0.0304692027490031
40
0.0610521961717021
40
0.091635491497559
40
0.122201323009507
40
0.15250160186891
40
0.182825224656394
40
0.213157814331172
40
0.243483620170316
40
0.273785731397432
40
0.304858195707599
40
0.335951829175733
40
0.367054094809461
40
0.398150657367375
40
0.429225580025696
40
0.462482227030257
40
0.49575350861374
40
0.529025991166803
40
0.562284276567015
40
0.595529585264623
40
0.628787127384837
40
0.662045600993151
40
0.69529218036266
40
0.730275091081829
40
0.765270124709104
40
0.800265978263531
40
0.835250007447853
40
0.876369107847276
40
0.9174884182908
40
0.958744125382106
40
1
40
1
40
1
40
1
41
1
10
35.2192200025666
20
61.788854528014
30
0
41
1
10
35.2249752592695
20
61.7888549290571
30
0
41
1
10
35.2364990694125
20
61.7890002880302
30
0
41
1
10
35.2537800601529
20
61.7896546254791
30
0
41
1
10
35.27103626719
20
61.7907428379918
30
0
41
1
10
35.2881792006861
20
61.792257812948
30
0
41
1
10
35.3051937691618
20
61.794194946005
30
0
41
1
10
35.3220687298571
20
61.7965430216603
30
0
41
1
10
35.3388361123408
20
61.7993004522321
30
0
41
1
10
35.3554716810817
20
61.8024593691783
30
0
41
1
10
35.3720983012613
20
61.8060438023825
30
0
41
1
10
35.3887016751715
20
61.8100611422611
30
0
41
1
10
35.405270504208
20
61.8145130571932
30
0
41
1
10
35.4216536025746
20
61.8193561590568
30
0
41
1
10
35.4378325416815
20
61.8245788669164
30
0
41
1
10
35.45416879692
20
61.8303031321938
30
0
41
1
10
35.4706379758319
20
61.8365522770689
30
0
41
1
10
35.4872164381833
20
61.8433452901402
30
0
41
1
10
35.5035254102472
20
61.8505299993966
30
0
41
1
10
35.5195528923563
20
61.8580934258575
30
0
41
1
10
35.5352938179281
20
61.8660261666271
30
0
41
1
10
35.5507457538387
20
61.8743175450125
30
0
41
1
10
35.5659041009394
20
61.8829570975272
30
0
41
1
10
35.581021288023
20
61.8920901283515
30
0
41
1
10
35.5960763379023
20
61.9017289672259
30
0
41
1
10
35.6110484358839
20
61.9118838695751
30
0
41
1
10
35.6256793237937
20
61.9223809107567
30
0
41
1
10
35.6407990545135
20
61.9338417363074
30
0
41
1
10
35.65633038836
20
61.9463264162488
30
0
41
1
10
35.6722082676908
20
61.9599087031322
30
0
41
1
10
35.6876143665933
20
61.9739240902145
30
0
41
1
10
35.6975659227629
20
61.9835440173392
30
0
41
1
10
35.702459362721
20
61.9884216173704
30
0
0
SPLINE
5
169
100
AcDbEntity
8
1
62
256
6
ByLayer
370
18
48
1
60
0
100
AcDbSpline
70
4
71
3
72
38
73
34
40
0
40
0
40
0
40
0
40
0.034808247927198
40
0.0696265832517847
40
0.104444404648181
40
0.139251951559258
40
0.174066582952817
40
0.208892646336899
40
0.243717949457431
40
0.278531543783406
40
0.31483026647677
40
0.351144200176347
40
0.387456852505033
40
0.423753827130941
40
0.458049033104751
40
0.492368667649859
40
0.526694431812116
40
0.561010166944018
40
0.595302100142472
40
0.630511340068838
40
0.665753799435285
40
0.701004851524543
40
0.736242476858225
40
0.771447658653752
40
0.799995800704783
40
0.828557385875322
40
0.857118414004144
40
0.885665796092405
40
0.914218307476578
40
0.942785189768376
40
0.971351864695185
40
0.999904093166306
40
1
40
1
40
1
40
1
41
1
10
34.7336803664018
20
61.9897733359559
30
0
41
1
10
34.7378290008258
20
61.9856330026227
30
0
41
1
10
34.7462457037029
20
61.9774471308379
30
0
41
1
10
34.7592271785765
20
61.9654519580037
30
0
41
1
10
34.7725611529522
20
61.9537526838222
30
0
41
1
10
34.7862451531026
20
61.9423578233891
30
0
41
1
10
34.8002784887777
20
61.9312761174562
30
0
41
1
10
34.8146596625694
20
61.9205155698413
30
0
41
1
10
34.8293832127601
20
61.9100878784265
30
0
41
1
10
34.8446584525965
20
61.899861149119
30
0
41
1
10
34.8605015865898
20
61.8898630555431
30
0
41
1
10
34.876926358863
20
61.8801225592503
30
0
41
1
10
34.8937060913867
20
61.8707920097756
30
0
41
1
10
34.9105176225211
20
61.8620498783814
30
0
41
1
10
34.92733731324
20
61.8538821178295
30
0
41
1
10
34.944140171892
20
61.8462709754602
30
0
41
1
10
34.9612370616622
20
61.8390729025601
30
0
41
1
10
34.9786111081519
20
61.8323040227116
30
0
41
1
10
34.9964083059899
20
61.8259214680902
30
0
41
1
10
35.014634412837
20
61.8199529389899
30
0
41
1
10
35.0332872040635
20
61.8144226126687
30
0
41
1
10
35.0521873737519
20
61.8093953172653
30
0
41
1
10
35.0713048930343
20
61.8048873890251
30
0
41
1
10
35.089401942123
20
61.8011639631187
30
0
41
1
10
35.1064228603778
20
61.7981247542128
30
0
41
1
10
35.1223252629976
20
61.7956670360223
30
0
41
1
10
35.1383201364284
20
61.7935769577496
30
0
41
1
10
35.1543917188051
20
61.7918597464561
30
0
41
1
10
35.1705280514711
20
61.7905212449708
30
0
41
1
10
35.1867155870366
20
61.7895622602263
30
0
41
1
10
35.202934326198
20
61.78898453514
30
0
41
1
10
35.2137746088064
20
61.7888547434743
30
0
41
1
10
35.2192018335563
20
61.7888545280115
30
0
41
1
10
35.2192200025666
20
61.788854528014
30
0
0
SPLINE
5
16A
100
AcDbEntity
8
1
62
256
6
ByLayer
370
18
48
1
60
0
100
AcDbSpline
70
4
71
3
72
20
73
16
40
0
40
0
40
0
40
0
40
0.0446677893434194
40
0.127750504415336
40
0.210747951935037
40
0.296706898762062
40
0.382766900988432
40
0.468823883443103
40
0.554778707532306
40
0.628352448761535
40
0.70195909861487
40
0.775532220851418
40
0.850343096074367
40
0.925189354847001
40
1
40
1
40
1
40
1
41
1
10
35.904736055459
20
59.0894171130233
30
0
41
1
10
35.9069576622002
20
59.0894180339682
30
0
41
1
10
35.9133159602504
20
59.0894931800729
30
0
41
1
10
35.9238343560744
20
59.0899548211346
30
0
41
1
10
35.9364269850009
20
59.0910494539149
30
0
41
1
10
35.9491561156425
20
59.0927227631293
30
0
41
1
10
35.9619944302407
20
59.0949958255658
30
0
41
1
10
35.9747587743814
20
59.0978462888556
30
0
41
1
10
35.9868055044974
20
59.1011092641634
30
0
41
1
10
35.998125123435
20
59.1046919404861
30
0
41
1
10
36.0087236093312
20
59.1085001497118
30
0
41
1
10
36.0192410176895
20
59.1127432912401
30
0
41
1
10
36.0296532534524
20
59.1174254610805
30
0
41
1
10
36.0399398760409
20
59.1225450856757
30
0
41
1
10
36.0466574704753
20
59.1262246895926
30
0
41
1
10
36.0499818500733
20
59.12813126021
30
0
0
SPLINE
5
16B
100
AcDbEntity
8
1
62
256
6
ByLayer
370
18
48
1
60
0
100
AcDbSpline
70
4
71
3
72
41
73
37
40
0
40
0
40
0
40
0
40
0.0312912309161516
40
0.0625824888990192
40
0.0897745970740364
40
0.116990085417854
40
0.144205879919975
40
0.17139840594165
40
0.199361716094754
40
0.227349467560254
40
0.255337823975523
40
0.283301959777907
40
0.310882037469689
40
0.338484135554352
40
0.366086967189825
40
0.393668045971886
40
0.42195822368173
40
0.450270332629686
40
0.478583327732946
40
0.506874714766247
40
0.536238179786276
40
0.565623965566438
40
0.595010763226437
40
0.62437560912282
40
0.654449925623893
40
0.684545899357705
40
0.714642885326793
40
0.744718583134239
40
0.776258721861891
40
0.807821392844931
40
0.839385103451077
40
0.870926660850861
40
0.903183535630837
40
0.935462265717696
40
0.967741896361746
40
1
40
1
40
1
40
1
41
1
10
36.0499818500733
20
59.12813126021
30
0
41
1
10
36.0536436550552
20
59.1302321422532
30
0
41
1
10
36.0608670474057
20
59.1345864610291
30
0
41
1
10
36.0709529790246
20
59.1412770289577
30
0
41
1
10
36.0803039805783
20
59.1480424704285
30
0
41
1
10
36.0889537705627
20
59.1548094797222
30
0
41
1
10
36.0973335113851
20
59.1618855051366
30
0
41
1
10
36.1055037192379
20
59.1693256535528
30
0
41
1
10
36.1134421963211
20
59.1771298011559
30
0
41
1
10
36.1211313848352
20
59.1852913000563
30
0
41
1
10
36.128485209544
20
59.1937185563262
30
0
41
1
10
36.1354586939291
20
59.2023534030472
30
0
41
1
10
36.1420476469423
20
59.2111789448637
30
0
41
1
10
36.1482548955885
20
59.220175753346
30
0
41
1
10
36.1541034618809
20
59.2293653247334
30
0
41
1
10
36.1596325879921
20
59.2388092495865
30
0
41
1
10
36.1648254040145
20
59.2484993154857
30
0
41
1
10
36.1696707376552
20
59.2584239499823
30
0
41
1
10
36.1741215020025
20
59.2684813247435
30
0
41
1
10
36.1782251005219
20
59.2787802788489
30
0
41
1
10
36.1819611241889
20
59.28931151602
30
0
41
1
10
36.1853148363263
20
59.3000628526256
30
0
41
1
10
36.1882407893921
20
59.3108838210767
30
0
41
1
10
36.1907591380396
20
59.3218417871314
30
0
41
1
10
36.1928581779132
20
59.3329234439483
30
0
41
1
10
36.1945319438007
20
59.3441145868486
30
0
41
1
10
36.1957678298459
20
59.3553077856483
30
0
41
1
10
36.1965823277419
20
59.3666652643168
30
0
41
1
10
36.1969534945256
20
59.3781719826773
30
0
41
1
10
36.1968647793498
20
59.3898113792888
30
0
41
1
10
36.1963176599552
20
59.4013833304791
30
0
41
1
10
36.1953112277418
20
59.4129557225401
30
0
41
1
10
36.1938387054639
20
59.4245126602178
30
0
41
1
10
36.1918984679363
20
59.4360385709542
30
0
41
1
10
36.1895101364399
20
59.4474316296339
30
0
41
1
10
36.1876266582284
20
59.4549240880564
30
0
41
1
10
36.1866118299505
20
59.4586446751554
30
0
0
SPLINE
5
16C
100
AcDbEntity
8
1
62
256
6
ByLayer
370
18
48
1
60
0
100
AcDbSpline
70
4
71
3
72
36
73
32
40
0
40
0
40
0
40
0
40
0.0350163753312123
40
0.0700600385354688
40
0.105102450140327
40
0.140117117403827
40
0.176091460625334
40
0.212098765482677
40
0.248104288978221
40
0.284076200822257
40
0.319196063779034
40
0.354350480940658
40
0.38950298809184
40
0.424620243900368
40
0.460976862274809
40
0.4973767307916
40
0.533774244883543
40
0.570127648821238
40
0.601945371610631
40
0.633795306071546
40
0.6656439406485
40
0.697459889061119
40
0.730411088254275
40
0.76340102567177
40
0.796389805499467
40
0.829339424295106
40
0.863426724966428
40
0.897582249236335
40
0.931759958422529
40
0.965913970311488
40
1
40
1
40
1
40
1
41
1
10
36.1906140151265
20
61.7065842052397
30
0
41
1
10
36.191671901039
20
61.7105991749795
30
0
41
1
10
36.1936175667855
20
61.7186870847456
30
0
41
1
10
36.196027748287
20
61.730993527495
30
0
41
1
10
36.1979158759435
20
61.7434473580598
30
0
41
1
10
36.1992836773358
20
61.7561434238362
30
0
41
1
10
36.2001002276436
20
61.7690696823639
30
0
41
1
10
36.2003407861401
20
61.7822092635637
30
0
41
1
10
36.199989185
20
61.7954181003257
30
0
41
1
10
36.1990429916875
20
61.8085627271266
30
0
41
1
10
36.1975060697961
20
61.8216206386505
30
0
41
1
10
36.1953921328414
20
61.8345693229024
30
0
41
1
10
36.1926852250943
20
61.8474825073902
30
0
41
1
10
36.1893420398896
20
61.8604791724164
30
0
41
1
10
36.1853274002168
20
61.8735311038886
30
0
41
1
10
36.1806187190452
20
61.8866055125701
30
0
41
1
10
36.1752666043349
20
61.8995134934014
30
0
41
1
10
36.1695230321784
20
61.9116865171087
30
0
41
1
10
36.1634761271183
20
61.923123098973
30
0
41
1
10
36.157218334464
20
61.933837721592
30
0
41
1
10
36.1504853815641
20
61.9443211059455
30
0
41
1
10
36.1432012523365
20
61.9546660682762
30
0
41
1
10
36.1353487910646
20
61.9648371490757
30
0
41
1
10
36.1269240812679
20
61.974800948587
30
0
41
1
10
36.1180381610134
20
61.984409810598
30
0
41
1
10
36.1086036060103
20
61.993739536017
30
0
41
1
10
36.0986083925474
20
62.0027473316815
30
0
41
1
10
36.0880577067811
20
62.0113992752081
30
0
41
1
10
36.0770959510801
20
62.0195700283316
30
0
41
1
10
36.0657621464369
20
62.0272283405811
30
0
41
1
10
36.0579819258771
20
62.0319685531677
30
0
41
1
10
36.0540366641615
20
62.0342479596075
30
0
0
SPLINE
5
16D
100
AcDbEntity
8
1
62
256
6
ByLayer
370
18
48
1
60
0
100
AcDbSpline
70
4
71
3
72
21
73
17
40
0
40
0
40
0
40
0
40
0.0818571068477511
40
0.163903020298472
40
0.235119135161735
40
0.306396482677728
40
0.377674632020789
40
0.448891841222488
40
0.522127733808378
40
0.595427638185124
40
0.668729126923888
40
0.741967181883437
40
0.814199384931734
40
0.886489259376154
40
0.958781054988651
40
1
40
1
40
1
40
1
41
1
10
36.0540366641615
20
62.0342479596075
30
0
41
1
10
36.0503847322865
20
62.0363562241576
30
0
41
1
10
36.0429913302873
20
62.0404142155415
30
0
41
1
10
36.032140811454
20
62.0457723862154
30
0
41
1
10
36.0215913254306
20
62.0504590720621
30
0
41
1
10
36.0113978914262
20
62.0545362010075
30
0
41
1
10
36.0010738076889
20
62.0582241213377
30
0
41
1
10
35.9905410473318
20
62.0615474175535
30
0
41
1
10
35.9798108989878
20
62.0644869524119
30
0
41
1
10
35.9688979433563
20
62.0670308769449
30
0
41
1
10
35.9579245412799
20
62.0691508264028
30
0
41
1
10
35.94696355263
20
62.0708371748249
30
0
41
1
10
35.9360315762128
20
62.0720947741951
30
0
41
1
10
35.9251443012847
20
62.0729359439397
30
0
41
1
10
35.915825849798
20
62.0733074141804
30
0
41
1
10
35.9101474627639
20
62.0733683738993
30
0
41
1
10
35.9080869326535
20
62.0733685416626
30
0
0
SPLINE
5
16E
100
AcDbEntity
8
1
62
256
6
ByLayer
370
18
48
1
60
0
100
AcDbSpline
70
4
71
3
72
12
73
8
40
0
40
0
40
0
40
0
40
0.25026020638563
40
0.25026020638563
40
0.500520412771134
40
0.500520412771134
40
1
40
1
40
1
40
1
41
1
10
37.2994064674162
20
32.1129300415873
30
0
41
1
10
37.2994038385667
20
32.1122563432152
30
0
41
1
10
37.2994012170525
20
32.1115826448145
30
0
41
1
10
37.299395988694
20
32.1102352479561
30
0
41
1
10
37.2993933818498
20
32.1095615494985
30
0
41
1
10
37.2993855941327
20
32.107543255935
30
0
41
1
10
37.2993804351422
20
32.1061986607444
30
0
41
1
10
37.2993753053669
20
32.1048540654426
30
0
0
SPLINE
5
16F
100
AcDbEntity
8
1
62
256
6
ByLayer
370
18
48
1
60
0
100
AcDbSpline
70
4
71
3
72
25
73
21
40
0
40
0
40
0
40
0
40
0.0567826128235301
40
0.113609475798501
40
0.170434309171319
40
0.227214152180803
40
0.285550210762565
40
0.34393972011383
40
0.402326340795588
40
0.460658456637628
40
0.517608820713473
40
0.574615217881344
40
0.631618517777097
40
0.688564654102311
40
0.747520540504817
40
0.806546561327862
40
0.865568764217558
40
0.924519438091847
40
0.976115053013052
40
1
40
1
40
1
40
1
41
1
10
35.6985337986452
20
59.1749394043698
30
0
41
1
10
35.7014643284585
20
59.1720021250121
30
0
41
1
10
35.7074611232515
20
59.1662456058469
30
0
41
1
10
35.7168630943926
20
59.1579628813965
30
0
41
1
10
35.7266552915489
20
59.1500577809237
30
0
41
1
10
35.7369186553301
20
59.1424810433372
30
0
41
1
10
35.7476583658377
20
59.1352654893616
30
0
41
1
10
35.75887231902
20
59.1284410164552
30
0
41
1
10
35.7704443613952
20
59.1220941510883
30
0
41
1
10
35.7822605606678
20
59.1162941964655
30
0
41
1
10
35.794299539033
20
59.1110491313313
30
0
41
1
10
35.8065349502402
20
59.1063584128394
30
0
41
1
10
35.8190384246675
20
59.102198714605
30
0
41
1
10
35.8319343994459
20
59.0985475891249
30
0
41
1
10
35.8452162487807
20
59.0954496921371
30
0
41
1
10
35.8588669963967
20
59.0929410015989
30
0
41
1
10
35.8726983490712
20
59.0910730870447
30
0
41
1
10
35.886092262592
20
59.0899132385229
30
0
41
1
10
35.8967949573829
20
59.0894788070053
30
0
41
1
10
35.9028252730532
20
59.0894179292367
30
0
41
1
10
35.9047360554589
20
59.0894171130233
30
0
0
SPLINE
5
170
100
AcDbEntity
8
1
62
256
6
ByLayer
370
18
48
1
60
0
100
AcDbSpline
70
4
71
3
72
21
73
17
40
0
40
0
40
0
40
0
40
0.0412189450113819
40
0.113510740623963
40
0.185800615068262
40
0.258032818116612
40
0.33127087307618
40
0.404572361815017
40
0.477872266191705
40
0.551108158777522
40
0.622325367979211
40
0.693603517322237
40
0.764880864838237
40
0.836096979701621
40
0.918142893152258
40
1
40
1
40
1
40
1
41
1
10
34.5236030646503
20
59.0913441986631
30
0
41
1
10
34.5215396188373
20
59.0913443664263
30
0
41
1
10
34.5158533503827
20
59.0914053261454
30
0
41
1
10
34.5065226571033
20
59.091776796386
30
0
41
1
10
34.4956221074309
20
59.0926179661307
30
0
41
1
10
34.4846778371588
20
59.0938755655008
30
0
41
1
10
34.4737055803062
20
59.0955619139229
30
0
41
1
10
34.462721964962
20
59.0976818633808
30
0
41
1
10
34.451799923868
20
59.1002257879138
30
0
41
1
10
34.4410619142446
20
59.1031653227722
30
0
41
1
10
34.4305225024177
20
59.106488618988
30
0
41
1
10
34.4201929431574
20
59.1101765393183
30
0
41
1
10
34.4099951573304
20
59.1142536682636
30
0
41
1
10
34.3994422942235
20
59.1189403541103
30
0
41
1
10
34.3885895962204
20
59.1242985247843
30
0
41
1
10
34.3811956878951
20
59.1283565161681
30
0
41
1
10
34.37754375567
20
59.1304647807183
30
0
0
SPLINE
5
171
100
AcDbEntity
8
1
62
256
6
ByLayer
370
18
48
1
60
0
100
AcDbSpline
70
4
71
3
72
28
73
24
40
0
40
0
40
0
40
0
40
0.0510088514456486
40
0.102049410848635
40
0.153088680767208
40
0.204095772723759
40
0.254049252282919
40
0.304035417219745
40
0.354020100517898
40
0.403971558327671
40
0.45336875506259
40
0.502800916092012
40
0.552231414596875
40
0.601626342634169
40
0.649856015567408
40
0.698121742713978
40
0.746385807919946
40
0.794613212862129
40
0.841079807691867
40
0.887581892245919
40
0.934082521352999
40
0.980547129955143
40
1
40
1
40
1
40
1
41
1
10
34.7297548023264
20
59.1762911229557
30
0
41
1
10
34.7271128509494
20
59.1736690766398
30
0
41
1
10
34.7217204403608
20
59.1685195119526
30
0
41
1
10
34.7133066656681
20
59.1610771937341
30
0
41
1
10
34.7045794935425
20
59.153935287982
30
0
41
1
10
34.6956095540418
20
59.1471545852034
30
0
41
1
10
34.6864094569406
20
59.1407410195673
30
0
41
1
10
34.6769943083595
20
59.1346967959732
30
0
41
1
10
34.6673116263095
20
59.1289908520566
30
0
41
1
10
34.6574099275215
20
59.1236573324281
30
0
41
1
10
34.6472995658676
20
59.1187048715737
30
0
41
1
10
34.6369940534519
20
59.1141382157156
30
0
41
1
10
34.6264705132077
20
59.10995152765
30
0
41
1
10
34.6158282284436
20
59.1061879957853
30
0
41
1
10
34.6050824805097
20
59.1028496025357
30
0
41
1
10
34.5942506553308
20
59.0999329147782
30
0
41
1
10
34.5832643447225
20
59.0974214470158
30
0
41
1
10
34.5722765478013
20
59.0953516314848
30
0
41
1
10
34.5613052256457
20
59.0937168425591
30
0
41
1
10
34.5503685766308
20
59.0925041074068
30
0
41
1
10
34.5393489554711
20
59.0916995965186
30
0
41
1
10
34.5304117285347
20
59.0913860729289
30
0
41
1
10
34.5251557636711
20
59.0913442664445
30
0
41
1
10
34.5236030646503
20
59.0913441986631
30
0
0
SPLINE
5
172
100
AcDbEntity
8
1
62
256
6
ByLayer
370
18
48
1
60
0
100
AcDbSpline
70
4
71
3
72
67
73
63
40
0
40
0
40
0
40
0
40
0.0205551623909146
40
0.0411186817059795
40
0.0616816847224975
40
0.0822361427804915
40
0.0996986577195836
40
0.11716707487298
40
0.134635082754129
40
0.152097039403691
40
0.168692294505606
40
0.185293486697361
40
0.201894213930513
40
0.218488834767925
40
0.235089933014138
40
0.251698117865323
40
0.268305703244447
40
0.284905983674432
40
0.30041724342007
40
0.315939304871659
40
0.331464213053162
40
0.346984812429455
40
0.362494845073723
40
0.377620350647881
40
0.392757683551155
40
0.407898402653092
40
0.423034645871617
40
0.438159236807248
40
0.453416381593097
40
0.468682243564096
40
0.483947954838348
40
0.499204894010856
40
0.513505085421968
40
0.527812512244463
40
0.542120042924603
40
0.556420376031253
40
0.570718140161013
40
0.585022738818898
40
0.599327616467687
40
0.613625761220062
40
0.631258039482589
40
0.648906566872505
40
0.666561818962978
40
0.68421276744661
40
0.701847078197445
40
0.719021962070669
40
0.736208766981265
40
0.753400594863976
40
0.770589352769468
40
0.787765875790239
40
0.805944959739393
40
0.824131895745486
40
0.842319473515928
40
0.860499432970627
40
0.877935577125225
40
0.895377585541042
40
0.912819974728863
40
0.930256638290586
40
0.947689753644734
40
0.9651280148976
40
0.982566533547391
40
1
40
1
40
1
40
1
41
1
10
36.6761741309682
20
60.8682692941797
30
0
41
1
10
36.6695158609474
20
60.8700555349594
30
0
41
1
10
36.6562305773426
20
60.8738381808805
30
0
41
1
10
36.6363969849285
20
60.8801393794804
30
0
41
1
10
36.6166783556862
20
60.887072271493
30
0
41
1
10
36.5980727809446
20
60.8942604061907
30
0
41
1
10
36.5805707154435
20
60.901601668178
30
0
41
1
10
36.5641558810593
20
60.9089988324901
30
0
41
1
10
36.5478651818972
20
60.9168624604559
30
0
41
1
10
36.5319785236831
20
60.9250562509256
30
0
41
1
10
36.5164974989807
20
60.9335570559361
30
0
41
1
10
36.5014219842127
20
60.9423405399557
30
0
41
1
10
36.486499683791
20
60.951552238455
30
0
41
1
10
36.4717419342815
20
60.9611933952742
30
0
41
1
10
36.4571591681635
20
60.9712672338109
30
0
41
1
10
36.4427620392729
20
60.9817740598759
30
0
41
1
10
36.428567772599
20
60.9927099742827
30
0
41
1
10
36.4148980415862
20
61.0038235859012
30
0
41
1
10
36.4017483150566
20
61.01508493121
30
0
41
1
10
36.38911069962
20
61.0264612307974
30
0
41
1
10
36.3766982882327
20
61.0382040086156
30
0
41
1
10
36.3645303301801
20
61.0503031098279
30
0
41
1
10
36.3527202345055
20
61.0626495032596
30
0
41
1
10
36.3412722283522
20
61.0752325699419
30
0
41
1
10
36.3301871084009
20
61.0880362387141
30
0
41
1
10
36.3193823924889
20
61.101154716679
30
0
41
1
10
36.3088770515949
20
61.1145709667665
30
0
41
1
10
36.29865633253
20
61.1283134994265
30
0
41
1
10
36.2887356594519
20
61.1423780766016
30
0
41
1
10
36.2791262192408
20
61.1567543898841
30
0
41
1
10
36.2698702761339
20
61.1713831803379
30
0
41
1
10
36.2611674936288
20
61.1859354687755
30
0
41
1
10
36.253002415212
20
61.200381880323
30
0
41
1
10
36.245352589698
20
61.214694210355
30
0
41
1
10
36.2380476907532
20
61.2291700951429
30
0
41
1
10
36.2310961345964
20
61.2437915647679
30
0
41
1
10
36.2245040669654
20
61.2585464535998
30
0
41
1
10
36.2182724467387
20
61.2734215204257
30
0
41
1
10
36.2124046866873
20
61.2884005259063
30
0
41
1
10
36.2064769988632
20
61.3046374989715
30
0
41
1
10
36.2005993732435
20
61.3221471870145
30
0
41
1
10
36.1948863692987
20
61.3409316505409
30
0
41
1
10
36.1897309939719
20
61.3597880333867
30
0
41
1
10
36.1851342414584
20
61.3786822196495
30
0
41
1
10
36.1811302381163
20
61.3974267658451
30
0
41
1
10
36.1776992383817
20
61.4160076726847
30
0
41
1
10
36.1748144433685
20
61.4344160781353
30
0
41
1
10
36.1724395248763
20
61.4527996765248
30
0
41
1
10
36.1705690507303
20
61.4711358303685
30
0
41
1
10
36.1691707929314
20
61.4897651575239
30
0
41
1
10
36.1682726528816
20
61.5086749621972
30
0
41
1
10
36.167898652368
20
61.5278518630193
30
0
41
1
10
36.1680570657539
20
61.5469271709376
30
0
41
1
10
36.168730242475
20
61.5656286776669
30
0
41
1
10
36.1698862757635
20
61.5839537842836
30
0
41
1
10
36.1714931306064
20
61.6019026563847
30
0
41
1
10
36.1735595399819
20
61.6197222880952
30
0
41
1
10
36.1760781547985
20
61.6374021165587
30
0
41
1
10
36.1790428241315
20
61.6549368554379
30
0
41
1
10
36.182446352596
20
61.6723215429777
30
0
41
1
10
36.1862826351274
20
61.6895497873048
30
0
41
1
10
36.1891229182342
20
61.7009246452547
30
0
41
1
10
36.1906140151264
20
61.7065842052397
30
0
0
SPLINE
5
173
100
AcDbEntity
8
1
62
256
6
ByLayer
370
18
48
1
60
0
100
AcDbSpline
70
4
71
3
72
41
73
37
40
0
40
0
40
0
40
0
40
0.0285489142322697
40
0.0570978449591795
40
0.0845575062608935
40
0.112040831621628
40
0.139524451707919
40
0.166984515253641
40
0.195225317528968
40
0.223490897066683
40
0.251757076411991
40
0.279998697321192
40
0.307808022103131
40
0.335639587789773
40
0.36347188450041
40
0.391282206925754
40
0.419809088037894
40
0.448358142701148
40
0.476908086591471
40
0.505436181221558
40
0.535011633624764
40
0.564609589421315
40
0.594208560867234
40
0.623785399291884
40
0.654077655783873
40
0.684391754999593
40
0.714706874309728
40
0.745000522833965
40
0.77651133483022
40
0.808044328302145
40
0.83957834038746
40
0.871090542371549
40
0.903306632959987
40
0.935544222427908
40
0.967782698967341
40
1
40
1
40
1
40
1
41
1
10
36.8922765908553
20
60.5870347172788
30
0
41
1
10
36.8922657523625
20
60.5908499020435
30
0
41
1
10
36.892095268235
20
60.5984715680241
30
0
41
1
10
36.8914021797629
20
60.6097428562429
30
0
41
1
10
36.8902906874957
20
60.6208278097432
30
0
41
1
10
36.8887846300318
20
60.6317119677799
30
0
41
1
10
36.8868753111527
20
60.642518022383
30
0
41
1
10
36.8845453374747
20
60.6533262125011
30
0
41
1
10
36.8817835231135
20
60.6641172152469
30
0
41
1
10
36.8785867018867
20
60.6748724056594
30
0
41
1
10
36.8749908970353
20
60.6854708744749
30
0
41
1
10
36.8710258836864
20
60.6958389007195
30
0
41
1
10
36.8667048397064
20
60.7059646106289
30
0
41
1
10
36.8620466350789
20
60.7158410331717
30
0
41
1
10
36.8570418944598
20
60.7255042250282
30
0
41
1
10
36.8516569636592
20
60.7350191067062
30
0
41
1
10
36.8458904080964
20
60.74436690707
30
0
41
1
10
36.8397465904511
20
60.7535320996899
30
0
41
1
10
36.833289969066
20
60.7624226883329
30
0
41
1
10
36.8264529447623
20
60.771130772662
30
0
41
1
10
36.8192337063599
20
60.7796343904791
30
0
41
1
10
36.8116357587411
20
60.7879151059924
30
0
41
1
10
36.8037635033753
20
60.7958614294039
30
0
41
1
10
36.7955688208429
20
60.8035245426258
30
0
41
1
10
36.7870573138859
20
60.8108876317228
30
0
41
1
10
36.7782382561096
20
60.8179384069307
30
0
41
1
10
36.7691981335495
20
60.8246120903051
30
0
41
1
10
36.7598314455755
20
60.8309863129313
30
0
41
1
10
36.7501422084834
20
60.8370384967045
30
0
41
1
10
36.7401379737146
20
60.8427502071656
30
0
41
1
10
36.7299649357495
20
60.848039240855
30
0
41
1
10
36.7195654650545
20
60.8529381419399
30
0
41
1
10
36.7089496827087
20
60.857433521496
30
0
41
1
10
36.6981299467389
20
60.8615164878366
30
0
41
1
10
36.6872016698045
20
60.8651536519199
30
0
41
1
10
36.6798595502131
20
60.8672805264684
30
0
41
1
10
36.6761741309682
20
60.8682692941797
30
0
0
SPLINE
5
174
100
AcDbEntity
8
1
62
256
6
ByLayer
370
18
48
1
60
0
100
AcDbSpline
70
4
71
3
72
36
73
32
40
0
40
0
40
0
40
0
40
0.0347956634946393
40
0.0696184338143925
40
0.104439972397018
40
0.139233954930674
40
0.174980893752318
40
0.21076055174155
40
0.246538446311782
40
0.282282978248441
40
0.31720721963105
40
0.352165838815527
40
0.387122551041689
40
0.42204418944088
40
0.458199290040238
40
0.494397454045961
40
0.530593251797752
40
0.566745121805202
40
0.598371827140255
40
0.630030600458237
40
0.661688058793251
40
0.693312969137832
40
0.726069039036861
40
0.758863745292667
40
0.79165726485627
40
0.824411714619184
40
0.859479733751467
40
0.894623405776279
40
0.929791631573711
40
0.964933498272484
40
1
40
1
40
1
40
1
41
1
10
36.6745207434762
20
60.3037312775203
30
0
41
1
10
36.6785407207772
20
60.3047844685146
30
0
41
1
10
36.686547010868
20
60.3070681258002
30
0
41
1
10
36.6984570194846
20
60.3110240556763
30
0
41
1
10
36.7102371510819
20
60.3155089302159
30
0
41
1
10
36.7219708134608
20
60.3205678645743
30
0
41
1
10
36.7336322562516
20
60.3262218565169
30
0
41
1
10
36.7451945718204
20
60.3324841653696
30
0
41
1
10
36.7565243895831
20
60.3392979550394
30
0
41
1
10
36.7675070168978
20
60.3466013838417
30
0
41
1
10
36.7781245506543
20
60.3543804314164
30
0
41
1
10
36.7883638541571
20
60.3626124722035
30
0
41
1
10
36.7982785247871
20
60.3713458120745
30
0
41
1
10
36.80795085884
20
60.3806770667613
30
0
41
1
10
36.8173387735959
20
60.3906231200672
30
0
41
1
10
36.8264023758082
20
60.4011876070539
30
0
41
1
10
36.8350018673973
20
60.4122330501432
30
0
41
1
10
36.8427653238569
20
60.4232571891695
30
0
41
1
10
36.8497352700663
20
60.4341819864978
30
0
41
1
10
36.8559703101511
20
60.444933555541
30
0
41
1
10
36.8617681273448
20
60.4559866227832
30
0
41
1
10
36.8671719464649
20
60.467453705898
30
0
41
1
10
36.8721421544453
20
60.4793323654491
30
0
41
1
10
36.8766474801835
20
60.4916095533148
30
0
41
1
10
36.8806139455396
20
60.5041150431603
30
0
41
1
10
36.8841052285766
20
60.5171152479847
30
0
41
1
10
36.8870524084528
20
60.5306084853038
30
0
41
1
10
36.8894016233039
20
60.5445773610376
30
0
41
1
10
36.8910812591065
20
60.5586742614566
30
0
41
1
10
36.8920826861681
20
60.5728439686266
30
0
41
1
10
36.8922881882367
20
60.5823027803387
30
0
41
1
10
36.8922765908553
20
60.5870347172788
30
0
0
SPLINE
5
175
100
AcDbEntity
8
1
62
256
6
ByLayer
370
18
48
1
60
0
100
AcDbSpline
70
4
71
3
72
33
73
29
40
0
40
0
40
0
40
0
40
0.0251961843674405
40
0.0503924084401923
40
0.0755346192391378
40
0.100676875676736
40
0.141615313480247
40
0.182591290179252
40
0.223582857975949
40
0.264564533011561
40
0.305507754500631
40
0.345390969736388
40
0.385301672826181
40
0.42522396927794
40
0.465139197135578
40
0.50502620998792
40
0.547426313786205
40
0.589844754839181
40
0.632264694321038
40
0.674666842301911
40
0.715330110645215
40
0.7560070774594
40
0.796684926537134
40
0.837349398367607
40
0.878005679585478
40
0.918673998791159
40
0.95934291053648
40
1
40
1
40
1
40
1
41
1
10
36.3005567480928
20
60.0526153326859
30
0
41
1
10
36.3030136876756
20
60.0558810745324
30
0
41
1
10
36.3079796507626
20
60.0623613722225
30
0
41
1
10
36.3155816311585
20
60.0719234226742
30
0
41
1
10
36.3233295863134
20
60.0813214411094
30
0
41
1
10
36.3328702342866
20
60.0924860653892
30
0
41
1
10
36.3443326782154
20
60.1052822546365
30
0
41
1
10
36.3578459233676
20
60.1195243015766
30
0
41
1
10
36.3716956081395
20
60.1333142871745
30
0
41
1
10
36.3858526972883
20
60.1466347509896
30
0
41
1
10
36.4001719721256
20
60.1593645909913
30
0
41
1
10
36.4146316853952
20
60.1715143300779
30
0
41
1
10
36.4292111240385
20
60.183103025035
30
0
41
1
10
36.4440200952682
20
60.1942346284366
30
0
41
1
10
36.4590364350744
20
60.2049029148633
30
0
41
1
10
36.4745639793871
20
60.2153198071765
30
0
41
1
10
36.4906066435284
20
60.2254522961582
30
0
41
1
10
36.5071656471433
20
60.2352701795585
30
0
41
1
10
36.5239007303068
20
60.2445696014328
30
0
41
1
10
36.5405649317059
20
60.2532311546831
30
0
41
1
10
36.5571401419987
20
60.261281702904
30
0
41
1
10
36.5736105816889
20
60.268749524034
30
0
41
1
10
36.5901968271684
20
60.2757493971853
30
0
41
1
10
36.6068860273443
20
60.2822825378617
30
0
41
1
10
36.6236705277674
20
60.2883517096259
30
0
41
1
10
36.6405424112062
20
60.2939607212793
30
0
41
1
10
36.6574930331787
20
60.299111720481
30
0
41
1
10
36.6688375279009
20
60.3022422285036
30
0
41
1
10
36.6745207434762
20
60.3037312775203
30
0
0
SPLINE
5
176
100
AcDbEntity
8
1
62
256
6
ByLayer
370
18
48
1
60
0
100
AcDbSpline
70
4
71
3
72
33
73
29
40
0
40
0
40
0
40
0
40
0.0394564928967708
40
0.0789129001790038
40
0.118282069113302
40
0.157651134197508
40
0.200192836558512
40
0.242758492403576
40
0.285330518948434
40
0.327893052029307
40
0.370432133838466
40
0.412092675804378
40
0.453781187217452
40
0.495476722432165
40
0.537160783068615
40
0.578817589650915
40
0.61532071202862
40
0.651838831997583
40
0.688355745277544
40
0.72485722148426
40
0.759237897160391
40
0.793633338651365
40
0.828027767346666
40
0.862407061337228
40
0.896797356997031
40
0.931204545611322
40
0.965610875673504
40
1
40
1
40
1
40
1
41
1
10
36.1866118299505
20
59.4586446751554
30
0
41
1
10
36.1851099237833
20
59.4641511674387
30
0
41
1
10
36.1822410617808
20
59.4752164335229
30
0
41
1
10
36.1783427432037
20
59.4919615277371
30
0
41
1
10
36.1748565737174
20
59.5088453916177
30
0
41
1
10
36.1717040184145
20
59.526319425554
30
0
41
1
10
36.1689295260971
20
59.5444068352455
30
0
41
1
10
36.1665824539809
20
59.5631143589942
30
0
41
1
10
36.1647414278481
20
59.5819713141912
30
0
41
1
10
36.1634156138944
20
59.6009617361377
30
0
41
1
10
36.162619230154
20
59.6199433691451
30
0
41
1
10
36.1623494908598
20
59.6389086405198
30
0
41
1
10
36.1626007960306
20
59.6578490714708
30
0
41
1
10
36.163378918716
20
59.6768840040575
30
0
41
1
10
36.1646917902059
20
59.6959927696929
30
0
41
1
10
36.1664714482804
20
59.7143706376647
30
0
41
1
10
36.1686504437686
20
59.7319995672559
30
0
41
1
10
36.1711599510608
20
59.7488665618837
30
0
41
1
10
36.1741019030501
20
59.7657498504198
30
0
41
1
10
36.177414990415
20
59.7823077973204
30
0
41
1
10
36.1810754915504
20
59.798529879142
30
0
41
1
10
36.1850563416185
20
59.8144070727717
30
0
41
1
10
36.1894321444967
20
59.8302511075824
30
0
41
1
10
36.194204408094
20
59.8460478951372
30
0
41
1
10
36.1993765274881
20
59.8617857783927
30
0
41
1
10
36.2049470366552
20
59.8774516640444
30
0
41
1
10
36.210912527449
20
59.8930276795279
30
0
41
1
10
36.2151510662558
20
59.9033357684225
30
0
41
1
10
36.2173353635991
20
59.9084710567439
30
0
0
SPLINE
5
177
100
AcDbEntity
8
1
62
256
6
ByLayer
370
18
48
1
60
0
100
AcDbSpline
70
4
71
2
72
6
73
3
40
0
40
0
40
0
40
1
40
1
40
1
41
1
10
19.5827927406699
20
17.05
30
0
41
1
10
19.5781157089712
20
17.0002948561501
30
0
41
1
10
19.5737506471061
20
16.9505661717766
30
0
0
SPLINE
5
178
100
AcDbEntity
8
1
62
256
6
ByLayer
370
18
48
1
60
0
100
AcDbSpline
70
4
71
3
72
28
73
24
40
0
40
0
40
0
40
0
40
0.0510088514456903
40
0.102049410848697
40
0.153088680767218
40
0.204095772723846
40
0.254049252282945
40
0.304035417219798
40
0.354020100517924
40
0.403971558327728
40
0.453368755062589
40
0.502800916092033
40
0.552231414596896
40
0.601626342634157
40
0.649856015567407
40
0.698121742713952
40
0.746385807919925
40
0.794613212862131
40
0.841079807691816
40
0.887581892245879
40
0.93408252135301
40
0.980547129955105
40
1
40
1
40
1
40
1
41
1
10
35.7024593627205
20
61.9884216173701
30
0
41
1
10
35.7050900986873
20
61.9910436636859
30
0
41
1
10
35.7104602362845
20
61.9961932283731
30
0
41
1
10
35.7188410766071
20
62.0036355465917
30
0
41
1
10
35.7275358420952
20
62.0107774523438
30
0
41
1
10
35.7364741628672
20
62.0175581551223
30
0
41
1
10
35.7456434499308
20
62.0239717207584
30
0
41
1
10
35.7550286090137
20
62.0300159443525
30
0
41
1
10
35.7646819492089
20
62.0357218882692
30
0
41
1
10
35.7745551038708
20
62.0410554078977
30
0
41
1
10
35.7846377445871
20
62.046007868752
30
0
41
1
10
35.7949163767663
20
62.0505745246102
30
0
41
1
10
35.8054138164046
20
62.0547612126757
30
0
41
1
10
35.8160310234875
20
62.0585247445404
30
0
41
1
10
35.826752729799
20
62.06186313779
30
0
41
1
10
35.8375615508783
20
62.0647798255475
30
0
41
1
10
35.8485257424483
20
62.0672912933099
30
0
41
1
10
35.859492605209
20
62.0693611088409
30
0
41
1
10
35.870444173424
20
62.0709958977666
30
0
41
1
10
35.8813622291983
20
62.0722086329189
30
0
41
1
10
35.8923642054798
20
62.0730131438072
30
0
41
1
10
35.9012879986695
20
62.0733266673968
30
0
41
1
10
35.9065364281373
20
62.0733684738812
30
0
41
1
10
35.9080869326535
20
62.0733685416626
30
0
0
SPLINE
5
179
100
AcDbEntity
8
1
62
256
6
ByLayer
370
18
48
1
60
0
100
AcDbSpline
70
4
71
3
72
25
73
21
40
0
40
0
40
0
40
0
40
0.0238849469869468
40
0.0754805619081989
40
0.134431235782512
40
0.193453438672108
40
0.252479459495224
40
0.311435345897702
40
0.368381482222947
40
0.425384782118673
40
0.482391179286569
40
0.539341543362355
40
0.597673659204407
40
0.656060279886125
40
0.714449789237418
40
0.772785847819161
40
0.829565690828636
40
0.886390524201483
40
0.943217387176432
40
1
40
1
40
1
40
1
41
1
10
34.5269527947051
20
62.0752956273025
30
0
41
1
10
34.5288662695866
20
62.0752948110891
30
0
41
1
10
34.5349052330216
20
62.0752339333204
30
0
41
1
10
34.545624114994
20
62.0747995018028
30
0
41
1
10
34.5590398853759
20
62.0736396532811
30
0
41
1
10
34.5728955698731
20
62.0717717387269
30
0
41
1
10
34.5865721008604
20
62.0692630481886
30
0
41
1
10
34.5998808058532
20
62.0661651512008
30
0
41
1
10
34.6128046100907
20
62.0625140257207
30
0
41
1
10
34.6253367777021
20
62.0583543274864
30
0
41
1
10
34.6376019995204
20
62.0536636089945
30
0
41
1
10
34.6496720899811
20
62.0484185438603
30
0
41
1
10
34.6615206912826
20
62.0426185892375
30
0
41
1
10
34.6731263958104
20
62.0362717238706
30
0
41
1
10
34.6843749414435
20
62.0294472509641
30
0
41
1
10
34.6951497917038
20
62.0222316969886
30
0
41
1
10
34.7054487731738
20
62.0146549594021
30
0
41
1
10
34.7152769925054
20
62.0067498589293
30
0
41
1
10
34.7247156551496
20
61.9984671344789
30
0
41
1
10
34.730737308414
20
61.9927106153136
30
0
41
1
10
34.7336803664018
20
61.9897733359559
30
0
0
SPLINE
5
17A
100
AcDbEntity
8
1
62
256
6
ByLayer
370
18
48
1
60
0
100
AcDbSpline
70
4
71
3
72
20
73
16
40
0
40
0
40
0
40
0
40
0.0748106451529456
40
0.149656903925585
40
0.22446777914869
40
0.298040901385191
40
0.371647551238557
40
0.44522129246767
40
0.531176116556817
40
0.617233099011622
40
0.703293101237984
40
0.789252048064974
40
0.872249495584775
40
0.955332210656671
40
1
40
1
40
1
40
1
41
1
10
34.3815985697581
20
62.0365814801157
30
0
41
1
10
34.384922950228
20
62.0384880507332
30
0
41
1
10
34.3916409632354
20
62.04216765465
30
0
41
1
10
34.4019294667444
20
62.0472872792452
30
0
41
1
10
34.4123448120363
20
62.0519694490856
30
0
41
1
10
34.4228665352112
20
62.056212590614
30
0
41
1
10
34.4334705014879
20
62.0600207998396
30
0
41
1
10
34.4447971508953
20
62.0636034761623
30
0
41
1
10
34.4568527024887
20
62.0668664514701
30
0
41
1
10
34.469627881086
20
62.0697169147599
30
0
41
1
10
34.4824785583904
20
62.0719899771964
30
0
41
1
10
34.495221388138
20
62.0736632864109
30
0
41
1
10
34.5078289720553
20
62.0747579191911
30
0
41
1
10
34.5183610017189
20
62.0752195602528
30
0
41
1
10
34.5247280620233
20
62.0752947063575
30
0
41
1
10
34.5269527947051
20
62.0752956273025
30
0
0
LINE
5
70
100
AcDbEntity
8
SK1
62
256
6
ByLayer
370
18
48
1
60
0
100
AcDbLine
10
-12.517786
20
-1.121775
30
0
11
-11.217792
21
-1.351
31
0
39
0
210
0
220
0
230
1
0
LINE
5
72
100
AcDbEntity
8
SK1
62
256
6
ByLayer
370
18
48
1
60
0
100
AcDbLine
10
-12.517786
20
-2.419775
30
0
11
-11.217792
21
-2.649
31
0
39
0
210
0
220
0
230
1
0
LINE
5
73
100
AcDbEntity
8
SK1
62
256
6
ByLayer
370
18
48
1
60
0
100
AcDbLine
10
-11.217789
20
-1.351
30
0
11
-8.710435
21
-1.351
31
0
39
0
210
0
220
0
230
1
0
LINE
5
74
100
AcDbEntity
8
1
62
256
6
ByLayer
370
18
48
1
60
0
100
AcDbLine
10
-5.050338
20
-56.164124
30
0
11
-8.808021
21
-31.751
31
0
39
0
210
0
220
0
230
1
0
LINE
5
76
100
AcDbEntity
8
1
62
256
6
ByLayer
370
18
48
1
60
0
100
AcDbLine
10
-8.808021
20
-31.751
30
0
11
-8.808021
21
-6.75
31
0
39
0
210
0
220
0
230
1
0
LINE
5
77
100
AcDbEntity
8
1
62
256
6
ByLayer
370
18
48
1
60
0
100
AcDbLine
10
-8.808021
20
-31.751
30
0
11
35.330776
21
-31.751
31
0
39
0
210
0
220
0
230
1
0
LINE
5
78
100
AcDbEntity
8
1
62
256
6
ByLayer
370
18
48
1
60
0
100
AcDbLine
10
20.971894
20
-66.81043
30
0
11
-6.527989
21
-61.961438
31
0
39
0
210
0
220
0
230
1
0
LINE
5
79
100
AcDbEntity
8
1
62
256
6
ByLayer
370
18
48
1
60
0
100
AcDbLine
10
-6.527989
20
-61.961438
30
0
11
-6.507745
21
-61.961438
31
0
39
0
210
0
220
0
230
1
0
LINE
5
7A
100
AcDbEntity
8
1
62
256
6
ByLayer
370
18
48
1
60
0
100
AcDbLine
10
-6.527989
20
-61.961438
30
0
11
-6.527989
21
-47.464606
31
0
39
0
210
0
220
0
230
1
0
LINE
5
7B
100
AcDbEntity
8
1
62
256
6
ByLayer
370
18
48
1
60
0
100
AcDbLine
10
-6.527167
20
33.249
30
0
11
-6.527989
21
33.249
31
0
39
0
210
0
220
0
230
1
0
LINE
5
7C
100
AcDbEntity
8
1
62
256
6
ByLayer
370
18
48
1
60
0
100
AcDbLine
10
19.480884
20
33.249
30
0
11
-0.105177
21
33.249
31
0
39
0
210
0
220
0
230
1
0
LINE
5
7D
100
AcDbEntity
8
1
62
256
6
ByLayer
370
18
48
1
60
0
100
AcDbLine
10
23.48921
20
-67.251
30
0
11
-0.050117
21
-63.1
31
0
39
0
210
0
220
0
230
1
0
LINE
5
7E
100
AcDbEntity
8
1
62
256
6
ByLayer
370
18
48
1
60
0
100
AcDbLine
10
-0.050117
20
-63.1
30
0
11
-5.050338
21
-56.164124
31
0
39
0
210
0
220
0
230
1
0
LINE
5
7F
100
AcDbEntity
8
1
62
256
6
ByLayer
370
18
48
1
60
0
100
AcDbLine
10
0.000388
20
-63.109003
30
0
11
-0.050117
21
-63.1
31
0
39
0
210
0
220
0
230
1
0
LINE
5
80
100
AcDbEntity
8
1
62
256
6
ByLayer
370
18
48
1
60
0
100
AcDbLine
10
19.596405
20
-15.551
30
0
11
19.596405
21
-6.75
31
0
39
0
210
0
220
0
230
1
0
LINE
5
81
100
AcDbEntity
8
1
62
256
6
ByLayer
370
18
48
1
60
0
100
AcDbLine
10
19.596405
20
-6.75
30
0
11
-8.808021
21
-6.75
31
0
39
0
210
0
220
0
230
1
0
LINE
5
82
100
AcDbEntity
8
1
62
256
6
ByLayer
370
18
48
1
60
0
100
AcDbLine
10
19.576645
20
15.551
30
0
11
19.596405
21
15.551
31
0
39
0
210
0
220
0
230
1
0
LINE
5
83
100
AcDbEntity
8
1
62
256
6
ByLayer
370
18
48
1
60
0
100
AcDbLine
10
19.596405
20
15.551
30
0
11
19.596405
21
6.75
31
0
39
0
210
0
220
0
230
1
0
LINE
5
84
100
AcDbEntity
8
1
62
256
6
ByLayer
370
18
48
1
60
0
100
AcDbLine
10
19.628603
20
17.05
30
0
11
19.582793
21
17.05
31
0
39
0
210
0
220
0
230
1
0
LINE
5
85
100
AcDbEntity
8
1
62
256
6
ByLayer
370
18
48
1
60
0
100
AcDbLine
10
20.970993
20
-66.81043
30
0
11
20.970993
21
-66.810271
31
0
39
0
210
0
220
0
230
1
0
LINE
5
86
100
AcDbEntity
8
1
62
256
6
ByLayer
370
18
48
1
60
0
100
AcDbLine
10
20.970993
20
-66.81043
30
0
11
20.971894
21
-66.81043
31
0
39
0
210
0
220
0
230
1
0
LINE
5
87
100
AcDbEntity
8
1
62
256
6
ByLayer
370
18
48
1
60
0
100
AcDbLine
10
23.469577
20
-67.251
30
0
11
20.970993
21
-66.81043
31
0
39
0
210
0
220
0
230
1
0
LINE
5
88
100
AcDbEntity
8
1
62
256
6
ByLayer
370
18
48
1
60
0
100
AcDbLine
10
20.970993
20
66.81043
30
0
11
20.970993
21
22.297353
31
0
39
0
210
0
220
0
230
1
0
LINE
5
89
100
AcDbEntity
8
1
62
256
6
ByLayer
370
18
48
1
60
0
100
AcDbLine
10
20.970993
20
22.297353
30
0
11
20.971894
21
22.297353
31
0
39
0
210
0
220
0
230
1
0
LINE
5
8A
100
AcDbEntity
8
1
62
256
6
ByLayer
370
18
48
1
60
0
100
AcDbLine
10
36.036223
20
-67.251
30
0
11
23.48921
21
-67.251
31
0
39
0
210
0
220
0
230
1
0
LINE
5
8B
100
AcDbEntity
8
1
62
256
6
ByLayer
370
18
48
1
60
0
100
AcDbLine
10
23.48921
20
-67.251
30
0
11
23.469577
21
-67.251
31
0
39
0
210
0
220
0
230
1
0
LINE
5
8C
100
AcDbEntity
8
1
62
256
6
ByLayer
370
18
48
1
60
0
100
AcDbLine
10
23.535982
20
-62.02607
30
0
11
23.48921
21
-67.251
31
0
39
0
210
0
220
0
230
1
0
LINE
5
8D
100
AcDbEntity
8
1
62
256
6
ByLayer
370
18
48
1
60
0
100
AcDbLine
10
26.390383
20
62.023064
30
0
11
26.403858
21
62.023064
31
0
39
0
210
0
220
0
230
1
0
LINE
5
8E
100
AcDbEntity
8
1
62
256
6
ByLayer
370
18
48
1
60
0
100
AcDbLine
10
29.226645
20
62.62396
30
0
11
28.740486
21
62.904645
31
0
39
0
210
0
220
0
230
1
0
LINE
5
8F
100
AcDbEntity
8
1
62
256
6
ByLayer
370
18
48
1
60
0
100
AcDbLine
10
28.852353
20
63.109122
30
0
11
28.740486
21
62.904645
31
0
39
0
210
0
220
0
230
1
0
LINE
5
90
100
AcDbEntity
8
1
62
256
6
ByLayer
370
18
48
1
60
0
100
AcDbLine
10
23.535982
20
-62.02607
30
0
11
32.183011
21
-62.02607
31
0
39
0
210
0
220
0
230
1
0
LINE
5
91
100
AcDbEntity
8
1
62
256
6
ByLayer
370
18
48
1
60
0
100
AcDbLine
10
32.183011
20
-62.02607
30
0
11
32.185352
21
-60.632356
31
0
39
0
210
0
220
0
230
1
0
LINE
5
92
100
AcDbEntity
8
1
62
256
6
ByLayer
370
18
48
1
60
0
100
AcDbLine
10
32.162446
20
-64.323474
30
0
11
32.183011
21
-62.02607
31
0
39
0
210
0
220
0
230
1
0
LINE
5
93
100
AcDbEntity
8
1
62
256
6
ByLayer
370
18
48
1
60
0
100
AcDbLine
10
32.700733
20
31.307924
30
0
11
32.733993
21
31.307924
31
0
39
0
210
0
220
0
230
1
0
LINE
5
94
100
AcDbEntity
8
1
62
256
6
ByLayer
370
18
48
1
60
0
100
AcDbLine
10
35.241119
20
31.75
30
0
11
32.733993
21
31.307924
31
0
39
0
210
0
220
0
230
1
0
LINE
5
95
100
AcDbEntity
8
1
62
256
6
ByLayer
370
18
48
1
60
0
100
AcDbLine
10
33.759868
20
60.296443
30
0
11
33.75604
21
60.296443
31
0
39
0
210
0
220
0
230
1
0
LINE
5
96
100
AcDbEntity
8
1
62
256
6
ByLayer
370
18
48
1
60
0
100
AcDbLine
10
34.132602
20
61.112097
30
0
11
34.135958
21
61.112097
31
0
39
0
210
0
220
0
230
1
0
LINE
5
97
100
AcDbEntity
8
1
62
256
6
ByLayer
370
18
48
1
60
0
100
AcDbLine
10
34.219179
20
61.256242
30
0
11
34.215824
21
61.256242
31
0
39
0
210
0
220
0
230
1
0
LINE
5
98
100
AcDbEntity
8
1
62
256
6
ByLayer
370
18
48
1
60
0
100
AcDbLine
10
34.245428
20
59.458129
30
0
11
34.2416
21
59.458129
31
0
39
0
210
0
220
0
230
1
0
LINE
5
99
100
AcDbEntity
8
1
62
256
6
ByLayer
370
18
48
1
60
0
100
AcDbLine
10
34.249435
20
61.706068
30
0
11
34.245612
21
61.706068
31
0
39
0
210
0
220
0
230
1
0
LINE
5
9A
100
AcDbEntity
8
1
62
256
6
ByLayer
370
18
48
1
60
0
100
AcDbLine
10
35.217294
20
59.375858
30
0
11
35.213939
21
59.375858
31
0
39
0
210
0
220
0
230
1
0
LINE
5
9B
100
AcDbEntity
8
1
62
256
6
ByLayer
370
18
48
1
60
0
100
AcDbLine
10
35.216591
20
57.957356
30
0
11
35.219862
21
57.957356
31
0
39
0
210
0
220
0
230
1
0
LINE
5
9C
100
AcDbEntity
8
1
62
256
6
ByLayer
370
18
48
1
60
0
100
AcDbLine
10
35.21922
20
61.788855
30
0
11
35.222575
21
61.788855
31
0
39
0
210
0
220
0
230
1
0
LINE
5
9D
100
AcDbEntity
8
1
62
256
6
ByLayer
370
18
48
1
60
0
100
AcDbLine
10
35.227425
20
-62.332356
30
0
11
35.24953
21
-62.332356
31
0
39
0
210
0
220
0
230
1
0
LINE
5
9E
100
AcDbEntity
8
1
62
256
6
ByLayer
370
18
48
1
60
0
100
AcDbLine
10
32.779803
20
31.307924
30
0
11
35.28693
21
31.75
31
0
39
0
210
0
220
0
230
1
0
LINE
5
9F
100
AcDbEntity
8
1
62
256
6
ByLayer
370
18
48
1
60
0
100
AcDbLine
10
35.28693
20
31.75
30
0
11
35.241119
21
31.75
31
0
39
0
210
0
220
0
230
1
0
LINE
5
A0
100
AcDbEntity
8
1
62
256
6
ByLayer
370
18
48
1
60
0
100
AcDbLine
10
35.706287
20
61.988422
30
0
11
35.702459
21
61.988422
31
0
39
0
210
0
220
0
230
1
0
LINE
5
A1
100
AcDbEntity
8
1
62
256
6
ByLayer
370
18
48
1
60
0
100
AcDbLine
10
36.022777
20
67.251
30
0
11
35.780481
21
67.251
31
0
39
0
210
0
220
0
230
1
0
LINE
5
A2
100
AcDbEntity
8
1
62
256
6
ByLayer
370
18
48
1
60
0
100
AcDbLine
10
35.780481
20
67.251
30
0
11
23.469577
21
67.251
31
0
39
0
210
0
220
0
230
1
0
LINE
5
A3
100
AcDbEntity
8
1
62
256
6
ByLayer
370
18
48
1
60
0
100
AcDbLine
10
35.780481
20
67.251
30
0
11
35.780481
21
66.407835
31
0
39
0
210
0
220
0
230
1
0
LINE
5
A4
100
AcDbEntity
8
1
62
256
6
ByLayer
370
18
48
1
60
0
100
AcDbLine
10
36.036252
20
67.247751
30
0
11
36.036223
21
67.251
31
0
39
0
210
0
220
0
230
1
0
LINE
5
A5
100
AcDbEntity
8
1
62
256
6
ByLayer
370
18
48
1
60
0
100
AcDbLine
10
36.036252
20
67.247751
30
0
11
37.235252
21
67.247751
31
0
39
0
210
0
220
0
230
1
0
LINE
5
A6
100
AcDbEntity
8
1
62
256
6
ByLayer
370
18
48
1
60
0
100
AcDbLine
10
36.036252
20
67.247751
30
0
11
36.036252
21
66.555505
31
0
39
0
210
0
220
0
230
1
0
LINE
5
A7
100
AcDbEntity
8
1
62
256
6
ByLayer
370
18
48
1
60
0
100
AcDbLine
10
36.196043
20
-31.903616
30
0
11
37.299375
21
-32.104854
31
0
39
0
210
0
220
0
230
1
0
LINE
5
A8
100
AcDbEntity
8
1
62
256
6
ByLayer
370
18
48
1
60
0
100
AcDbLine
10
35.330776
20
-31.751
30
0
11
36.196043
21
-31.903616
31
0
39
0
210
0
220
0
230
1
0
LINE
5
A9
100
AcDbEntity
8
1
62
256
6
ByLayer
370
18
48
1
60
0
100
AcDbLine
10
36.196043
20
-31.903616
30
0
11
37.46464
21
-57.882356
31
0
39
0
210
0
220
0
230
1
0
LINE
5
AA
100
AcDbEntity
8
1
62
256
6
ByLayer
370
18
48
1
60
0
100
AcDbLine
10
37.927009
20
-67.300752
30
0
11
37.835209
21
-67.247751
31
0
39
0
210
0
220
0
230
1
0
LINE
5
AB
100
AcDbEntity
8
1
62
256
6
ByLayer
370
18
48
1
60
0
100
AcDbLine
10
37.927009
20
-67.300752
30
0
11
37.93508
21
-67.300752
31
0
39
0
210
0
220
0
230
1
0
LINE
5
AC
100
AcDbEntity
8
1
62
256
6
ByLayer
370
18
48
1
60
0
100
AcDbLine
10
37.93508
20
-67.300752
30
0
11
37.965859
21
-67.247751
31
0
39
0
210
0
220
0
230
1
0
LINE
5
AD
100
AcDbEntity
8
1
62
256
6
ByLayer
370
18
48
1
60
0
100
AcDbLine
10
37.93508
20
-67.300752
30
0
11
37.84328
21
-67.247751
31
0
39
0
210
0
220
0
230
1
0
LINE
5
AE
100
AcDbEntity
8
1
62
256
6
ByLayer
370
18
48
1
60
0
100
AcDbLine
10
38.265022
20
-57.882356
30
0
11
38.265022
21
-64.323474
31
0
39
0
210
0
220
0
230
1
0
LINE
5
AF
100
AcDbEntity
8
1
62
256
6
ByLayer
370
18
48
1
60
0
100
AcDbLine
10
38.265022
20
-64.323474
30
0
11
32.162446
21
-64.323474
31
0
39
0
210
0
220
0
230
1
0
LINE
5
B0
100
AcDbEntity
8
1
62
256
6
ByLayer
370
18
48
1
60
0
100
AcDbLine
10
38.265022
20
-64.323474
30
0
11
39.026239
21
-67.247751
31
0
39
0
210
0
220
0
230
1
0
LINE
5
B1
100
AcDbEntity
8
1
62
256
6
ByLayer
370
18
48
1
60
0
100
AcDbLine
10
38.62891
20
-32.34735
30
0
11
39.571815
21
-32.519327
31
0
39
0
210
0
220
0
230
1
0
LINE
5
B2
100
AcDbEntity
8
1
62
256
6
ByLayer
370
18
48
1
60
0
100
AcDbLine
10
38.786944
20
-68.143624
30
0
11
37.235252
21
-67.247751
31
0
39
0
210
0
220
0
230
1
0
LINE
5
B3
100
AcDbEntity
8
1
62
256
6
ByLayer
370
18
48
1
60
0
100
AcDbLine
10
38.786944
20
-68.143624
30
0
11
39.042217
21
-67.721476
31
0
39
0
210
0
220
0
230
1
0
LINE
5
B4
100
AcDbEntity
8
1
62
256
6
ByLayer
370
18
48
1
60
0
100
AcDbLine
10
39.026239
20
-53.416814
30
0
11
39.042217
21
-53.443237
31
0
39
0
210
0
220
0
230
1
0
LINE
5
B5
100
AcDbEntity
8
1
62
256
6
ByLayer
370
18
48
1
60
0
100
AcDbLine
10
39.026239
20
-53.452462
30
0
11
39.042217
21
-53.443237
31
0
39
0
210
0
220
0
230
1
0
LINE
5
B6
100
AcDbEntity
8
1
62
256
6
ByLayer
370
18
48
1
60
0
100
AcDbLine
10
39.135075
20
-54.656781
30
0
11
39.135075
21
-66.607932
31
0
39
0
210
0
220
0
230
1
0
LINE
5
B7
100
AcDbEntity
8
1
62
256
6
ByLayer
370
18
48
1
60
0
100
AcDbLine
10
39.135075
20
-66.607932
30
0
11
39.026239
21
-66.607932
31
0
39
0
210
0
220
0
230
1
0
LINE
5
B8
100
AcDbEntity
8
1
62
256
6
ByLayer
370
18
48
1
60
0
100
AcDbLine
10
39.977939
20
-67.456
30
0
11
39.502033
21
-67.456
31
0
39
0
210
0
220
0
230
1
0
LINE
5
B9
100
AcDbEntity
8
1
62
256
6
ByLayer
370
18
48
1
60
0
100
AcDbLine
10
39.502033
20
-53.708713
30
0
11
39.502033
21
-67.456
31
0
39
0
210
0
220
0
230
1
0
LINE
5
BA
100
AcDbEntity
8
1
62
256
6
ByLayer
370
18
48
1
60
0
100
AcDbLine
10
39.570914
20
32.519327
30
0
11
39.571815
21
32.519327
31
0
39
0
210
0
220
0
230
1
0
LINE
5
BB
100
AcDbEntity
8
1
62
256
6
ByLayer
370
18
48
1
60
0
100
AcDbLine
10
39.570914
20
52.622683
30
0
11
39.570914
21
32.519327
31
0
39
0
210
0
220
0
230
1
0
LINE
5
BC
100
AcDbEntity
8
1
62
256
6
ByLayer
370
18
48
1
60
0
100
AcDbLine
10
32.700733
20
31.307924
30
0
11
39.570914
21
32.519327
31
0
39
0
210
0
220
0
230
1
0
LINE
5
BD
100
AcDbEntity
8
1
62
256
6
ByLayer
370
18
48
1
60
0
100
AcDbLine
10
39.570914
20
52.622683
30
0
11
39.571815
21
52.662358
31
0
39
0
210
0
220
0
230
1
0
LINE
5
BE
100
AcDbEntity
8
1
62
256
6
ByLayer
370
18
48
1
60
0
100
AcDbLine
10
39.571815
20
32.519327
30
0
11
39.571815
21
52.662358
31
0
39
0
210
0
220
0
230
1
0
LINE
5
BF
100
AcDbEntity
8
1
62
256
6
ByLayer
370
18
48
1
60
0
100
AcDbLine
10
39.433333
20
52.954896
30
0
11
39.571815
21
52.662358
31
0
39
0
210
0
220
0
230
1
0
LINE
5
C0
100
AcDbEntity
8
1
62
256
6
ByLayer
370
18
48
1
60
0
100
AcDbLine
10
39.977939
20
-53.708713
30
0
11
39.502033
21
-53.708713
31
0
39
0
210
0
220
0
230
1
0
LINE
5
C1
100
AcDbEntity
8
1
62
256
6
ByLayer
370
18
48
1
60
0
100
AcDbLine
10
39.977939
20
-53.708713
30
0
11
39.977939
21
-67.456
31
0
39
0
210
0
220
0
230
1
0
LINE
5
C2
100
AcDbEntity
8
1
62
256
6
ByLayer
370
18
48
1
60
0
100
AcDbLine
10
38.62891
20
32.34735
30
0
11
39.571815
21
32.519327
31
0
39
0
210
0
220
0
230
1
0
LINE
5
C3
100
AcDbEntity
8
1
62
256
6
ByLayer
370
18
48
1
60
0
100
AcDbLine
10
39.977939
20
53.708713
30
0
11
39.977939
21
67.456
31
0
39
0
210
0
220
0
230
1
0
LINE
5
C4
100
AcDbEntity
8
1
62
256
6
ByLayer
370
18
48
1
60
0
100
AcDbLine
10
26.881494
20
59.894732
30
0
11
38.786944
21
53.021089
31
0
39
0
210
0
220
0
230
1
0
LINE
5
C5
100
AcDbEntity
8
1
62
256
6
ByLayer
370
18
48
1
60
0
100
AcDbLine
10
38.786944
20
68.143624
30
0
11
26.881494
21
61.269981
31
0
39
0
210
0
220
0
230
1
0
LINE
5
C6
100
AcDbEntity
8
SK1
62
256
6
ByLayer
370
18
48
1
60
0
100
AcDbLine
10
-11.217789
20
2.649
30
0
11
-8.509446
21
2.649
31
0
39
0
210
0
220
0
230
1
0
LINE
5
C7
100
AcDbEntity
8
SK1
62
256
6
ByLayer
370
18
48
1
60
0
100
AcDbLine
10
-12.517786
20
2.419775
30
0
11
-11.217792
21
2.649
31
0
39
0
210
0
220
0
230
1
0
LINE
5
C8
100
AcDbEntity
8
1
62
256
6
ByLayer
370
18
48
1
60
0
100
AcDbLine
10
32.817978
20
-31.307924
30
0
11
35.330776
21
-31.751
31
0
39
0
210
0
220
0
230
1
0
LINE
5
C9
100
AcDbEntity
8
1
62
256
6
ByLayer
370
18
48
1
60
0
100
AcDbLine
10
36.036252
20
-67.247751
30
0
11
36.036223
21
-67.251
31
0
39
0
210
0
220
0
230
1
0
LINE
5
CA
100
AcDbEntity
8
1
62
256
6
ByLayer
370
18
48
1
60
0
100
AcDbLine
10
39.026239
20
-67.247751
30
0
11
36.036252
21
-67.247751
31
0
39
0
210
0
220
0
230
1
0
LINE
5
CB
100
AcDbEntity
8
1
62
256
6
ByLayer
370
18
48
1
60
0
100
AcDbLine
10
39.026239
20
-53.22114
30
0
11
39.026239
21
-67.247751
31
0
39
0
210
0
220
0
230
1
0
LINE
5
CC
100
AcDbEntity
8
1
62
256
6
ByLayer
370
18
48
1
60
0
100
AcDbLine
10
39.418071
20
-52.987136
30
0
11
39.026239
21
-53.22114
31
0
39
0
210
0
220
0
230
1
0
LINE
5
CD
100
AcDbEntity
8
1
62
256
6
ByLayer
370
18
48
1
60
0
100
AcDbLine
10
39.571815
20
-52.662358
30
0
11
39.418071
21
-52.987136
31
0
39
0
210
0
220
0
230
1
0
LINE
5
CE
100
AcDbEntity
8
1
62
256
6
ByLayer
370
18
48
1
60
0
100
AcDbLine
10
39.571815
20
-32.519327
30
0
11
39.571815
21
-52.662358
31
0
39
0
210
0
220
0
230
1
0
LINE
5
CF
100
AcDbEntity
8
1
62
256
6
ByLayer
370
18
48
1
60
0
100
AcDbLine
10
36.196043
20
31.903616
30
0
11
37.299375
21
32.104854
31
0
39
0
210
0
220
0
230
1
0
LINE
5
D0
100
AcDbEntity
8
1
62
256
6
ByLayer
370
18
48
1
60
0
100
AcDbLine
10
35.330776
20
31.751
30
0
11
36.196043
21
31.903616
31
0
39
0
210
0
220
0
230
1
0
LINE
5
D1
100
AcDbEntity
8
1
62
256
6
ByLayer
370
18
48
1
60
0
100
AcDbLine
10
32.817978
20
31.307924
30
0
11
35.330776
21
31.751
31
0
39
0
210
0
220
0
230
1
0
LINE
5
D2
100
AcDbEntity
8
1
62
256
6
ByLayer
370
18
48
1
60
0
100
AcDbLine
10
32.779803
20
31.307924
30
0
11
32.817978
21
31.307924
31
0
39
0
210
0
220
0
230
1
0
LINE
5
D3
100
AcDbEntity
8
1
62
256
6
ByLayer
370
18
48
1
60
0
100
AcDbLine
10
-6.527989
20
61.961438
30
0
11
20.970993
21
66.810271
31
0
39
0
210
0
220
0
230
1
0
LINE
5
D4
100
AcDbEntity
8
SK1
62
256
6
ByLayer
370
18
48
1
60
0
100
AcDbLine
10
-6.527989
20
33.249
30
0
11
-6.527989
21
42.952362
31
0
39
0
210
0
220
0
230
1
0
LINE
5
D5
100
AcDbEntity
8
1
62
256
6
ByLayer
370
18
48
1
60
0
100
AcDbLine
10
35.216591
20
63.207356
30
0
11
35.219862
21
63.207356
31
0
39
0
210
0
220
0
230
1
0
LINE
5
D6
100
AcDbEntity
8
1
62
256
6
ByLayer
370
18
48
1
60
0
100
AcDbLine
10
35.702362
20
59.174939
30
0
11
35.698534
21
59.174939
31
0
39
0
210
0
220
0
230
1
0
LINE
5
D7
100
AcDbEntity
8
1
62
256
6
ByLayer
370
18
48
1
60
0
100
AcDbLine
10
36.022777
20
67.251
30
0
11
36.022777
21
66.547725
31
0
39
0
210
0
220
0
230
1
0
LINE
5
D8
100
AcDbEntity
8
1
62
256
6
ByLayer
370
18
48
1
60
0
100
AcDbLine
10
36.036223
20
67.251
30
0
11
36.022777
21
67.251
31
0
39
0
210
0
220
0
230
1
0
LINE
5
D9
100
AcDbEntity
8
1
62
256
6
ByLayer
370
18
48
1
60
0
100
AcDbLine
10
39.026239
20
-54.656781
30
0
11
39.135075
21
-54.656781
31
0
39
0
210
0
220
0
230
1
0
LINE
5
DA
100
AcDbEntity
8
1
62
256
6
ByLayer
370
18
48
1
60
0
100
AcDbLine
10
37.46464
20
-57.882356
30
0
11
34.939958
21
-57.882356
31
0
39
0
210
0
220
0
230
1
0
LINE
5
DB
100
AcDbEntity
8
1
62
256
6
ByLayer
370
18
48
1
60
0
100
AcDbLine
10
38.265022
20
-57.882356
30
0
11
37.46464
21
-57.882356
31
0
39
0
210
0
220
0
230
1
0
LINE
5
DC
100
AcDbEntity
8
SK1
62
256
6
ByLayer
370
18
48
1
60
0
100
AcDbLine
10
-6.507745
20
32.639826
30
0
11
0.000388
21
32.639826
31
0
39
0
210
0
220
0
230
1
0
LINE
5
DD
100
AcDbEntity
8
SK1
62
256
6
ByLayer
370
18
48
1
60
0
100
AcDbLine
10
-6.507745
20
18.065577
30
0
11
-6.507745
21
32.639826
31
0
39
0
210
0
220
0
230
1
0
LINE
5
DE
100
AcDbEntity
8
1
62
256
6
ByLayer
370
18
48
1
60
0
100
AcDbLine
10
20.970993
20
66.81043
30
0
11
23.469577
21
67.251
31
0
39
0
210
0
220
0
230
1
0
LINE
5
DF
100
AcDbEntity
8
1
62
256
6
ByLayer
370
18
48
1
60
0
100
AcDbLine
10
33.757704
20
60.860981
30
0
11
33.761526
21
60.860981
31
0
39
0
210
0
220
0
230
1
0
LINE
5
E0
100
AcDbEntity
8
1
62
256
6
ByLayer
370
18
48
1
60
0
100
AcDbLine
10
38.477127
20
-67.39522
30
0
11
39.042217
21
-67.721476
31
0
39
0
210
0
220
0
230
1
0
LINE
5
E1
100
AcDbEntity
8
1
62
256
6
ByLayer
370
18
48
1
60
0
100
AcDbLine
10
-6.507745
20
-61.961438
30
0
11
-6.507745
21
-47.464496
31
0
39
0
210
0
220
0
230
1
0
LINE
5
E2
100
AcDbEntity
8
1
62
256
6
ByLayer
370
18
48
1
60
0
100
AcDbLine
10
0.000388
20
-63.109003
30
0
11
-6.507745
21
-61.961438
31
0
39
0
210
0
220
0
230
1
0
LINE
5
E3
100
AcDbEntity
8
SK1
62
256
6
ByLayer
370
18
48
1
60
0
100
AcDbLine
10
-8.808021
20
31.751
30
0
11
-6.527989
21
46.564035
31
0
39
0
210
0
220
0
230
1
0
LINE
5
E4
100
AcDbEntity
8
SK1
62
256
6
ByLayer
370
18
48
1
60
0
100
AcDbLine
10
-8.808021
20
6.75
30
0
11
-8.808021
21
31.751
31
0
39
0
210
0
220
0
230
1
0
LINE
5
E5
100
AcDbEntity
8
1
62
256
6
ByLayer
370
18
48
1
60
0
100
AcDbLine
10
39.570914
20
52.622683
30
0
11
39.043386
21
52.927253
31
0
39
0
210
0
220
0
230
1
0
LINE
5
E6
100
AcDbEntity
8
1
62
256
6
ByLayer
370
18
48
1
60
0
100
AcDbLine
10
23.535982
20
-62.02607
30
0
11
-5.050338
21
-56.164124
31
0
39
0
210
0
220
0
230
1
0
LINE
5
E7
100
AcDbEntity
8
1
62
256
6
ByLayer
370
18
48
1
60
0
100
AcDbLine
10
28.852353
20
63.109122
30
0
11
29.45966
21
62.758492
31
0
39
0
210
0
220
0
230
1
0
LINE
5
E8
100
AcDbEntity
8
SK1
62
256
6
ByLayer
370
18
48
1
60
0
100
AcDbLine
10
-6.527989
20
33.249
30
0
11
-6.527989
21
17.96928
31
0
39
0
210
0
220
0
230
1
0
LINE
5
E9
100
AcDbEntity
8
1
62
256
6
ByLayer
370
18
48
1
60
0
100
AcDbLine
10
38.335079
20
-67.407932
30
0
11
38.327007
21
-67.407932
31
0
39
0
210
0
220
0
230
1
0
LINE
5
EA
100
AcDbEntity
8
SK1
62
256
6
ByLayer
370
18
48
1
60
0
100
AcDbLine
10
-8.751826
20
-2.649
30
0
11
-11.217789
21
-2.649
31
0
39
0
210
0
220
0
230
1
0
LINE
5
EB
100
AcDbEntity
8
SK1
62
256
6
ByLayer
370
18
48
1
60
0
100
AcDbLine
10
-0.105177
20
33.249
30
0
11
-6.527167
21
33.249
31
0
39
0
210
0
220
0
230
1
0
LINE
5
EC
100
AcDbEntity
8
1
62
256
6
ByLayer
370
18
48
1
60
0
100
AcDbLine
10
-6.527989
20
42.952362
30
0
11
-6.527989
21
61.961438
31
0
39
0
210
0
220
0
230
1
0
LINE
5
ED
100
AcDbEntity
8
SK1
62
256
6
ByLayer
370
18
48
1
60
0
100
AcDbLine
10
-6.527989
20
-47.464606
30
0
11
-6.527989
21
-46.564035
31
0
39
0
210
0
220
0
230
1
0
LINE
5
EE
100
AcDbEntity
8
SK1
62
256
6
ByLayer
370
18
48
1
60
0
100
AcDbLine
10
-6.507745
20
-47.464496
30
0
11
-6.507745
21
-46.695556
31
0
39
0
210
0
220
0
230
1
0
LINE
5
EF
100
AcDbEntity
8
SK4
62
256
6
ByLayer
370
13
48
0.05
60
0
100
AcDbLine
10
46
20
0
30
0
11
-16
21
0
31
0
39
0
210
0
220
0
230
1
0
LINE
5
F1
100
AcDbEntity
8
81
62
256
6
ByLayer
370
13
48
1
60
0
100
AcDbLine
10
40
20
68.25
30
0
11
46
21
68.25
31
0
39
0
210
0
220
0
230
1
0
LINE
5
F2
100
AcDbEntity
8
4
62
256
6
ByLayer
370
13
48
0.05
60
0
100
AcDbLine
10
40
20
0
30
0
11
0
21
0
31
0
39
0
210
0
220
0
230
1
0
LINE
5
F4
100
AcDbEntity
8
80
62
256
6
ByLayer
370
13
48
1
60
0
100
AcDbLine
10
0
20
0
30
0
11
-4
21
0
31
0
39
0
210
0
220
0
230
1
0
MTEXT
5
17B
100
AcDbEntity
8
SK6
62
256
6
ByLayer
370
18
48
1
60
0
100
AcDbMText
10
48.598852
20
76.347157
30
0
210
0
220
0
230
1
1
\W0.7141;391.68A-7-150 40 T16 B
40
3
41
0
44
1.084337
50
0
71
7
72
5
7
iso_b_vert
0
DIMENSION
5
189
100
AcDbEntity
8
2
62
256
6
ByLayer
370
13
48
1
60
0
100
AcDbDimension
2
DimnDraft3D1
10
0
20
88.5
30
0
11
16.4
21
88.5
31
0
70
32
71
5
72
1
41
1
210
0
220
0
230
1
3
Standard
100
AcDbAlignedDimension
13
40
23
70.25
33
0
14
0
24
2
34
0
50
0
100
AcDbRotatedDimension
1001
ACAD
1000
DSTYLE
1002
{
1070
   279
1070
     0
1070
   172
1070
     1
1070
   173
1070
     1
1070
   340
1005
17C
1070
   271
1070
     1
1070
    77
1070
     1
1070
    73
1070
     0
1070
   171
1070
     4
1070
   274
1070
     4
1070
   177
1070
     7
1070
   176
1070
     7
1070
   178
1070
     7
1070
    41
1041
3.175
1070
   147
1041
1.5
1070
    42
1041
2.0
1070
    44
1041
2.0
1070
   140
1041
3.0
1070
   343
1005
0
1070
   344
1005
0
1002
}
0
DIMENSION
5
193
100
AcDbEntity
8
2
62
256
6
ByLayer
370
13
48
1
60
0
100
AcDbDimension
2
DimnDraft3D2
10
91.5
20
-68.25
30
0
11
91.5
21
-16.709211
31
0
70
32
71
5
72
1
41
1
210
0
220
0
230
1
3
Standard
100
AcDbAlignedDimension
13
42
23
68.25
33
0
14
41.183942
24
-68.25
34
0
50
90
100
AcDbRotatedDimension
1001
ACAD
1000
DSTYLE
1002
{
1070
    74
1070
     0
1070
   279
1070
     0
1070
   172
1070
     1
1070
   173
1070
     1
1070
   340
1005
17C
1070
   271
1070
     0
1070
    77
1070
     1
1070
    73
1070
     0
1070
   171
1070
     4
1070
   274
1070
     4
1070
   177
1070
     7
1070
   176
1070
     7
1070
   178
1070
     7
1070
    41
1041
3.175
1070
   147
1041
1.5
1070
    42
1041
2.0
1070
    44
1041
2.0
1070
   140
1041
3.0
1070
   343
1005
0
1070
   344
1005
0
1002
}
0
DIMENSION
5
19D
100
AcDbEntity
8
2
62
256
6
ByLayer
370
13
48
1
60
0
100
AcDbDimension
2
DimnDraft3D3
10
41
20
68.25
30
0
11
61.249512
21
46.978427
31
0
70
34
71
5
72
1
41
1
210
0
220
0
230
1
3
Standard
100
AcDb2LineAngularDimension
13
39.977939
23
53.708713
33
0
14
39.977939
24
67.456
34
0
15
40
25
68.25
35
0
16
63.370832
26
44.857107
36
0
40
0
0
ENDSEC
0
SECTION
2
OBJECTS
0
DICTIONARY
5
207
330
0
100
AcDbDictionary
280
0
281
1
3
ACAD_GROUP
350
208
3
ACAD_MLINESTYLE
350
209
0
DICTIONARY
5
208
330
0
100
AcDbDictionary
280
0
281
1
0
DICTIONARY
5
209
330
0
100
AcDbDictionary
280
0
281
1
3
Standard
350
18
0
MLINESTYLE
5
18
330
209
100
AcDbMlineStyle
2
Standard
70
0
3

62
256
51
90
52
90
71
2
49
-0.5
62
256
6
ByLayer
49
0.5
62
256
6
ByLayer
0
RASTERVARIABLES
5
1f6
330

100
AcDbRasterVariables
90
0
70
1
71
1
72
1
0
ENDSEC
0
EOF
