0
SECTION
2
HEADER
9
$ACADVER
1
AC1015
9
$DWGCODEPAGE
3
ANSI_1252
9
$HANDSEED
5
1c5
9
$ANGBASE
50
0
9
$ANGDIR
70
0
9
$ATTMODE
70
1
9
$AUNITS
70
0
9
$AUPREC
70
0
9
$CECOLOR
62
256
9
$CELTSCALE
40
1
9
$CELTYPE
6
ByLayer
9
$CELWEIGHT
370
18
9
$CLAYER
8
0
9
$CMLJUST
70
0
9
$CMLSCALE
40
1
9
$CMLSTYLE
2
Standard
9
$DIMSTYLE
2
Standard
9
$TEXTSIZE
40
0.2
9
$TEXTSTYLE
7
Standard
9
$LUNITS
70
2
9
$LUPREC
70
4
9
$EXTNAMES
290
1
9
$INSUNITS
70
4
9
$LTSCALE
40
1
9
$LWDISPLAY
290
1
9
$PDMODE
70
0
9
$PDSIZE
40
0
9
$PLINEGEN
70
0
0
ENDSEC
0
SECTION
2
CLASSES
0
CLASS
1
RASTERVARIABLES
2
AcDbRasterVariables
3
ISM
90
0
280
0
281
0
0
ENDSEC
0
SECTION
2
TABLES
0
TABLE
2
VPORT
5
1bb
100
AcDbSymbolTable
0
VPORT
5
1
100
AcDbSymbolTableRecord
100
AcDbViewportTableRecord
2
*Active
70
0
10
0
20
0
11
1
21
1
12
-1
22
1
13
0
23
0
14
0.5
24
0.5
15
10
25
10
16
0
26
0
36
1
17
0
27
0
37
0
0
ENDTAB
0
TABLE
2
LTYPE
5
1bc
100
AcDbSymbolTable
0
LTYPE
5
14
100
AcDbSymbolTableRecord
100
AcDbLinetypeTableRecord
70
0
2
ByBlock
3

72
65
73
0
40
0
0
LTYPE
5
15
100
AcDbSymbolTableRecord
100
AcDbLinetypeTableRecord
70
0
2
ByLayer
3

72
65
73
0
40
0
0
LTYPE
5
16
100
AcDbSymbolTableRecord
100
AcDbLinetypeTableRecord
70
0
2
CONTINUOUS
3
Solid line
72
65
73
0
40
0
0
LTYPE
5
6A
100
AcDbSymbolTableRecord
100
AcDbLinetypeTableRecord
70
0
2
CENTER
3
____ _ ____ _ ____ _ ____
72
65
73
4
40
47.5
49
22
74
0
49
-8.5
74
0
49
8.5
74
0
49
-8.5
74
0
0
LTYPE
5
6B
100
AcDbSymbolTableRecord
100
AcDbLinetypeTableRecord
70
0
2
DASHED
3
__ __ __ __ __ __ __ __ __
72
65
73
2
40
25.72
49
12.86
74
0
49
-12.86
74
0
0
ENDTAB
0
TABLE
2
LAYER
5
1bd
100
AcDbSymbolTable
0
LAYER
5
10
100
AcDbSymbolTableRecord
100
AcDbLayerTableRecord
2
0
70
0
62
7
6
CONTINUOUS
290
1
370
-3
390
0
0
LAYER
5
6D
100
AcDbSymbolTableRecord
100
AcDbLayerTableRecord
2
80
70
0
62
-6
6
CONTINUOUS
290
1
370
-3
390
0
0
LAYER
5
6F
100
AcDbSymbolTableRecord
100
AcDbLayerTableRecord
2
81
70
0
62
-3
6
CONTINUOUS
290
1
370
-3
390
0
0
LAYER
5
71
100
AcDbSymbolTableRecord
100
AcDbLayerTableRecord
2
1
70
0
62
4
6
CONTINUOUS
290
1
370
-3
390
0
0
LAYER
5
D8
100
AcDbSymbolTableRecord
100
AcDbLayerTableRecord
2
4
70
0
62
-2
6
CENTER
290
1
370
-3
390
0
0
LAYER
5
127
100
AcDbSymbolTableRecord
100
AcDbLayerTableRecord
2
2
70
0
62
7
6
CONTINUOUS
290
1
370
-3
390
0
0
LAYER
5
1a7
100
AcDbSymbolTableRecord
100
AcDbLayerTableRecord
2
SK1
70
0
62
4
6
CONTINUOUS
290
1
370
-3
390
0
0
LAYER
5
1a8
100
AcDbSymbolTableRecord
100
AcDbLayerTableRecord
2
SK4
70
0
62
2
6
CENTER
290
1
370
-3
390
0
0
LAYER
5
1a9
100
AcDbSymbolTableRecord
100
AcDbLayerTableRecord
2
SK6
70
0
62
5
6
CONTINUOUS
290
1
370
-3
390
0
0
LAYER
5
1aa
100
AcDbSymbolTableRecord
100
AcDbLayerTableRecord
2
SK2
70
0
62
7
6
CONTINUOUS
290
1
370
-3
390
0
0
ENDTAB
0
TABLE
2
STYLE
5
1be
100
AcDbSymbolTable
0
STYLE
5
11
100
AcDbSymbolTableRecord
100
AcDbTextStyleTableRecord
2
Standard
3
txt
70
0
71
0
40
0
41
1
42
0
50
0
0
STYLE
5
117
100
AcDbSymbolTableRecord
100
AcDbTextStyleTableRecord
2
iso_b_vert
3
simplex.shx
70
0
71
0
40
0
41
1
42
0
50
0
0
STYLE
5
118
100
AcDbSymbolTableRecord
100
AcDbTextStyleTableRecord
2
DWGDirectTextStyle
3
simplex
70
0
71
0
40
0
41
1
42
0
50
0
0
ENDTAB
0
TABLE
2
DIMSTYLE
5
1bf
100
AcDbSymbolTable
100
AcDbDimStyleTable
0
DIMSTYLE
105
27
100
AcDbSymbolTableRecord
100
AcDbDimStyleTableRecord
2
Standard
70
0
3
<>
41
0.18
42
0.0625
44
0.18
140
0.18
147
0.09
73
0
74
0
77
1
271
2
275
0
278
52
280
0
340
11
0
ENDTAB
0
TABLE
2
VIEW
5
1c0
100
AcDbSymbolTable
0
ENDTAB
0
TABLE
2
UCS
5
1c1
100
AcDbSymbolTable
0
ENDTAB
0
TABLE
2
APPID
5
1c2
100
AcDbSymbolTable
0
APPID
5
12
100
AcDbSymbolTableRecord
100
AcDbRegAppTableRecord
2
ACAD
70
0
0
ENDTAB
0
TABLE
2
BLOCK_RECORD
5
1c3
100
AcDbSymbolTable
0
BLOCK_RECORD
5
1F
100
AcDbSymbolTableRecord
100
AcDbBlockTableRecord
2
*Model_Space
340
0
70
0
0
BLOCK_RECORD
5
1B
100
AcDbSymbolTableRecord
100
AcDbBlockTableRecord
2
*Paper_Space
340
0
70
0
0
BLOCK_RECORD
5
23
100
AcDbSymbolTableRecord
100
AcDbBlockTableRecord
2
*Paper_Space0
340
0
70
0
0
BLOCK_RECORD
5
11A
100
AcDbSymbolTableRecord
100
AcDbBlockTableRecord
2
DimnDraft3D1
340
0
70
0
0
BLOCK_RECORD
5
125
100
AcDbSymbolTableRecord
100
AcDbBlockTableRecord
2
DimnDraft3D2
340
0
70
0
0
BLOCK_RECORD
5
130
100
AcDbSymbolTableRecord
100
AcDbBlockTableRecord
2
DimnDraft3D3
340
0
70
0
0
BLOCK_RECORD
5
13A
100
AcDbSymbolTableRecord
100
AcDbBlockTableRecord
2
DimnDraft3D4
340
0
70
0
0
BLOCK_RECORD
5
144
100
AcDbSymbolTableRecord
100
AcDbBlockTableRecord
2
DimnDraft3D5
340
0
70
0
0
ENDTAB
0
ENDSEC
0
SECTION
2
BLOCKS
0
BLOCK
5
20
100
AcDbEntity
8
0
100
AcDbBlockBegin
2
*Model_Space
70
0
10
0
20
0
30
0
3
*Model_Space
0
ENDBLK
5
21
100
AcDbEntity
8
0
100
AcDbBlockEnd
0
BLOCK
5
1C
100
AcDbEntity
8
0
100
AcDbBlockBegin
2
*Paper_Space
70
0
10
0
20
0
30
0
3
*Paper_Space
0
ENDBLK
5
1D
100
AcDbEntity
8
0
100
AcDbBlockEnd
0
BLOCK
5
24
100
AcDbEntity
8
0
100
AcDbBlockBegin
2
*Paper_Space0
70
0
10
0
20
0
30
0
3
*Paper_Space0
0
ENDBLK
5
25
100
AcDbEntity
8
0
100
AcDbBlockEnd
0
BLOCK
5
122
100
AcDbEntity
8
0
100
AcDbBlockBegin
2
DimnDraft3D1
70
0
10
0
20
0
30
0
3
DimnDraft3D1
0
MTEXT
5
11B
100
AcDbEntity
8
SK2
62
256
6
ByLayer
370
18
48
1
60
0
100
AcDbMText
10
3.482895
20
52.568428
30
0
210
0
220
0
230
1
1
\W0.6044;125
40
3.5
41
0
44
1.084337
50
0
71
7
72
5
7
iso_b_vert
0
LINE
5
11D
100
AcDbEntity
8
SK2
62
256
6
ByLayer
370
13
48
1
60
0
100
AcDbLine
10
68
20
21.083948
30
0
11
68
21
53.693428
31
0
39
0
210
0
220
0
230
1
0
LINE
5
11E
100
AcDbEntity
8
SK2
62
256
6
ByLayer
370
13
48
1
60
0
100
AcDbLine
10
-57
20
6.277916
30
0
11
-57
21
53.693428
31
0
39
0
210
0
220
0
230
1
0
LINE
5
11F
100
AcDbEntity
8
SK2
62
256
6
ByLayer
370
13
48
1
60
0
100
AcDbLine
10
68
20
51.693428
30
0
11
-57
21
51.693428
31
0
39
0
210
0
220
0
230
1
0
SOLID
5
120
100
AcDbEntity
8
SK2
62
256
6
ByLayer
370
13
48
1
60
0
100
AcDbTrace
10
68
20
51.693428
30
0
11
64.500002
21
51.232644
31
0
12
64.499998
22
52.154212
32
0
13
68
23
51.693428
33
0
39
0
210
0
220
0
230
1
0
SOLID
5
121
100
AcDbEntity
8
SK2
62
256
6
ByLayer
370
13
48
1
60
0
100
AcDbTrace
10
-57
20
51.693428
30
0
11
-53.500002
21
52.154212
31
0
12
-53.499998
22
51.232644
32
0
13
-57
23
51.693428
33
0
39
0
210
0
220
0
230
1
0
ENDBLK
5
123
100
AcDbEntity
8
0
100
AcDbBlockEnd
0
BLOCK
5
12D
100
AcDbEntity
8
0
100
AcDbBlockBegin
2
DimnDraft3D2
70
0
10
0
20
0
30
0
3
DimnDraft3D2
0
MTEXT
5
126
100
AcDbEntity
8
2
62
256
6
ByLayer
370
18
48
1
60
0
100
AcDbMText
10
32.830263
20
39.730525
30
0
210
0
220
0
230
1
1
\W0.6562;68
40
3.5
41
0
44
1.084337
50
0
71
7
72
5
7
iso_b_vert
0
LINE
5
128
100
AcDbEntity
8
2
62
256
6
ByLayer
370
13
48
1
60
0
100
AcDbLine
10
68
20
21.083948
30
0
11
68
21
40.855525
31
0
39
0
210
0
220
0
230
1
0
LINE
5
129
100
AcDbEntity
8
2
62
256
6
ByLayer
370
13
48
1
60
0
100
AcDbLine
10
0
20
1.5875
30
0
11
0
21
40.855525
31
0
39
0
210
0
220
0
230
1
0
LINE
5
12A
100
AcDbEntity
8
2
62
256
6
ByLayer
370
13
48
1
60
0
100
AcDbLine
10
68
20
38.855525
30
0
11
0
21
38.855525
31
0
39
0
210
0
220
0
230
1
0
SOLID
5
12B
100
AcDbEntity
8
2
62
256
6
ByLayer
370
13
48
1
60
0
100
AcDbTrace
10
68
20
38.855525
30
0
11
64.500002
21
38.394741
31
0
12
64.499998
22
39.316308
32
0
13
68
23
38.855525
33
0
39
0
210
0
220
0
230
1
0
SOLID
5
12C
100
AcDbEntity
8
2
62
256
6
ByLayer
370
13
48
1
60
0
100
AcDbTrace
10
0
20
38.855525
30
0
11
3.499998
21
39.316308
31
0
12
3.500002
22
38.394741
32
0
13
0
23
38.855525
33
0
39
0
210
0
220
0
230
1
0
ENDBLK
5
12E
100
AcDbEntity
8
0
100
AcDbBlockEnd
0
BLOCK
5
137
100
AcDbEntity
8
0
100
AcDbBlockBegin
2
DimnDraft3D3
70
0
10
0
20
0
30
0
3
DimnDraft3D3
0
MTEXT
5
131
100
AcDbEntity
8
2
62
256
6
ByLayer
370
18
48
1
60
0
100
AcDbMText
10
88.385596
20
-5.194737
30
0
210
0
220
0
230
1
1
\W1.3185;%%c39
40
3.5
41
0
44
1.084337
50
90
71
7
72
5
7
iso_b_vert
0
LINE
5
132
100
AcDbEntity
8
2
62
256
6
ByLayer
370
13
48
1
60
0
100
AcDbLine
10
69.687485
20
19.498255
30
0
11
92.135596
21
19.498255
31
0
39
0
210
0
220
0
230
1
0
LINE
5
133
100
AcDbEntity
8
2
62
256
6
ByLayer
370
13
48
1
60
0
100
AcDbLine
10
69.687485
20
-19.498255
30
0
11
92.135596
21
-19.498255
31
0
39
0
210
0
220
0
230
1
0
LINE
5
134
100
AcDbEntity
8
2
62
256
6
ByLayer
370
13
48
1
60
0
100
AcDbLine
10
90.135596
20
19.498255
30
0
11
90.135596
21
-19.498255
31
0
39
0
210
0
220
0
230
1
0
SOLID
5
135
100
AcDbEntity
8
2
62
256
6
ByLayer
370
13
48
1
60
0
100
AcDbTrace
10
90.135596
20
19.498255
30
0
11
90.59638
21
15.998256
31
0
12
89.674812
22
15.998253
32
0
13
90.135596
23
19.498255
33
0
39
0
210
0
220
0
230
1
0
SOLID
5
136
100
AcDbEntity
8
2
62
256
6
ByLayer
370
13
48
1
60
0
100
AcDbTrace
10
90.135596
20
-19.498255
30
0
11
89.674812
21
-15.998256
31
0
12
90.59638
22
-15.998253
32
0
13
90.135596
23
-19.498255
33
0
39
0
210
0
220
0
230
1
0
ENDBLK
5
138
100
AcDbEntity
8
0
100
AcDbBlockEnd
0
BLOCK
5
141
100
AcDbEntity
8
0
100
AcDbBlockBegin
2
DimnDraft3D4
70
0
10
0
20
0
30
0
3
DimnDraft3D4
0
MTEXT
5
13B
100
AcDbEntity
8
SK2
62
256
6
ByLayer
370
18
48
1
60
0
100
AcDbMText
10
-75.115244
20
-5.76945
30
0
210
0
220
0
230
1
1
\W1.2949;%%c25
40
3.5
41
0
44
1.084337
50
90
71
7
72
5
7
iso_b_vert
0
LINE
5
13C
100
AcDbEntity
8
SK2
62
256
6
ByLayer
370
13
48
1
60
0
100
AcDbLine
10
-57.5875
20
12.5
30
0
11
-75.365244
21
12.5
31
0
39
0
210
0
220
0
230
1
0
LINE
5
13D
100
AcDbEntity
8
SK2
62
256
6
ByLayer
370
13
48
1
60
0
100
AcDbLine
10
-57.5875
20
-12.5
30
0
11
-75.365244
21
-12.5
31
0
39
0
210
0
220
0
230
1
0
LINE
5
13E
100
AcDbEntity
8
SK2
62
256
6
ByLayer
370
13
48
1
60
0
100
AcDbLine
10
-73.365244
20
12.5
30
0
11
-73.365244
21
-12.5
31
0
39
0
210
0
220
0
230
1
0
SOLID
5
13F
100
AcDbEntity
8
SK2
62
256
6
ByLayer
370
13
48
1
60
0
100
AcDbTrace
10
-73.365244
20
12.5
30
0
11
-72.90446
21
9.000002
31
0
12
-73.826028
22
8.999998
32
0
13
-73.365244
23
12.5
33
0
39
0
210
0
220
0
230
1
0
SOLID
5
140
100
AcDbEntity
8
SK2
62
256
6
ByLayer
370
13
48
1
60
0
100
AcDbTrace
10
-73.365244
20
-12.5
30
0
11
-73.826028
21
-9.000002
31
0
12
-72.90446
22
-8.999998
32
0
13
-73.365244
23
-12.5
33
0
39
0
210
0
220
0
230
1
0
ENDBLK
5
142
100
AcDbEntity
8
0
100
AcDbBlockEnd
0
BLOCK
5
14B
100
AcDbEntity
8
0
100
AcDbBlockBegin
2
DimnDraft3D5
70
0
10
0
20
0
30
0
3
DimnDraft3D5
0
MTEXT
5
145
100
AcDbEntity
8
SK2
62
256
6
ByLayer
370
18
48
1
60
0
100
AcDbMText
10
40.244696
20
28.020881
30
0
210
0
220
0
230
1
1
\W0.5211;3
40
3.5
41
0
44
1.084337
50
90
71
7
72
5
7
iso_b_vert
0
LINE
5
146
100
AcDbEntity
8
SK2
62
256
6
ByLayer
370
13
48
1
60
0
100
AcDbLine
10
65.197307
20
19.521211
30
0
11
39.119696
21
19.521211
31
0
39
0
210
0
220
0
230
1
0
LINE
5
147
100
AcDbEntity
8
SK2
62
256
6
ByLayer
370
13
48
1
60
0
100
AcDbLine
10
65.197307
20
16.521211
30
0
11
39.119696
21
16.521211
31
0
39
0
210
0
220
0
230
1
0
LINE
5
148
100
AcDbEntity
8
SK2
62
256
6
ByLayer
370
13
48
1
60
0
100
AcDbLine
10
41.119696
20
7.771211
30
0
11
41.119696
21
28.665618
31
0
39
0
210
0
220
0
230
1
0
SOLID
5
149
100
AcDbEntity
8
SK2
62
256
6
ByLayer
370
13
48
1
60
0
100
AcDbTrace
10
41.119696
20
19.521211
30
0
11
40.658913
21
23.02121
31
0
12
41.58048
22
23.021213
32
0
13
41.119696
23
19.521211
33
0
39
0
210
0
220
0
230
1
0
SOLID
5
14A
100
AcDbEntity
8
SK2
62
256
6
ByLayer
370
13
48
1
60
0
100
AcDbTrace
10
41.119696
20
16.521211
30
0
11
41.58048
21
13.021213
31
0
12
40.658913
22
13.02121
32
0
13
41.119696
23
16.521211
33
0
39
0
210
0
220
0
230
1
0
ENDBLK
5
14C
100
AcDbEntity
8
0
100
AcDbBlockEnd
0
ENDSEC
0
SECTION
2
ENTITIES
0
ARC
5
DB
100
AcDbEntity
8
1
62
256
6
ByLayer
370
18
48
1
60
0
100
AcDbCircle
39
0
10
44.827318
20
-13
30
0
40
0.5
210
0
220
0
230
1
100
AcDbArc
50
52.215667
51
90
0
ARC
5
DC
100
AcDbEntity
8
1
62
256
6
ByLayer
370
18
48
1
60
0
100
AcDbCircle
39
0
10
54.324028
20
-0.75
30
0
40
15
210
0
220
0
230
1
100
AcDbArc
50
232.215667
51
270
0
ARC
5
DD
100
AcDbEntity
8
1
62
256
6
ByLayer
370
18
48
1
60
0
100
AcDbCircle
39
0
10
-54.324028
20
0.75
30
0
40
15
210
0
220
0
230
-1
100
AcDbArc
50
52.215667
51
90
0
ARC
5
DE
100
AcDbEntity
8
1
62
256
6
ByLayer
370
18
48
1
60
0
100
AcDbCircle
39
0
10
-44.827318
20
13
30
0
40
0.5
210
0
220
0
230
-1
100
AcDbArc
50
232.215667
51
270
0
ELLIPSE
5
DF
100
AcDbEntity
8
1
62
256
6
ByLayer
370
18
48
1
60
0
100
AcDbEllipse
10
66.781447
20
-14.186167
30
0
11
-0.0999847695156393
21
-0.00174524064369954
31
0
210
0
220
0
230
1
40
0.999591
41
-2.24827054530174
42
-1.57079632679447
0
POINT
5
6C
100
AcDbEntity
8
80
62
256
6
ByLayer
370
13
48
1
60
0
100
AcDbPoint
10
0
20
0
30
0
39
0
210
0
220
0
230
1
50
360
0
POINT
5
6E
100
AcDbEntity
8
81
62
256
6
ByLayer
370
13
48
1
60
0
100
AcDbPoint
10
68
20
19.496448
30
0
39
0
210
0
220
0
230
1
50
360
0
POINT
5
70
100
AcDbEntity
8
1
62
256
6
ByLayer
370
18
48
1
60
1
100
AcDbPoint
10
66.784807
20
16.521211
30
0
39
0
210
0
220
0
230
1
50
360
0
POINT
5
72
100
AcDbEntity
8
1
62
256
6
ByLayer
370
18
48
1
60
1
100
AcDbPoint
10
66.784807
20
19.521211
30
0
39
0
210
0
220
0
230
1
50
360
0
SPLINE
5
E0
100
AcDbEntity
8
1
62
256
6
ByLayer
370
13
48
1
60
0
100
AcDbSpline
70
4
71
1
72
4
73
2
40
0
40
0
40
1
40
1
41
1
10
67.8269571826965
20
-15.316252468113
30
0
41
1
10
67.8769495674544
20
-15.3153798477911
30
0
0
SPLINE
5
E1
100
AcDbEntity
8
1
62
256
6
ByLayer
370
13
48
1
60
0
100
AcDbSpline
70
4
71
3
72
8
73
4
40
0
40
0
40
0
40
0
40
1
40
1
40
1
40
1
41
1
10
66.8969459468175
20
16.2303108790454
30
0
41
0.999988664887055
10
66.9035132584722
20
16.2227694776706
30
0
41
0.999988664887055
10
66.9101028857573
20
16.214590383753
30
0
41
1
10
66.9167146045905
20
16.2057738754256
30
0
0
SPLINE
5
E2
100
AcDbEntity
8
1
62
256
6
ByLayer
370
13
48
1
60
0
100
AcDbSpline
70
4
71
3
72
16
73
12
40
0
40
0
40
0
40
0
40
0.19801276246634
40
0.19801276246634
40
0.39704845400685
40
0.39704845400685
40
0.599329837011449
40
0.599329837011449
40
0.808293333015127
40
0.808293333015127
40
1
40
1
40
1
40
1
41
1
10
68.0999847698249
20
19.4982547595887
30
0
41
1
10
68.1106457439158
20
19.4980686715937
30
0
41
1
10
68.1214198831676
20
19.4960654847526
30
0
41
1
10
68.1414783171257
20
19.4887734853816
30
0
41
1
10
68.1510263379166
20
19.4833719467994
30
0
41
1
10
68.1677617938552
20
19.4699147192256
30
0
41
1
10
68.1751344551606
20
19.4616413789217
30
0
41
1
10
68.1868808341649
20
19.4431699155533
30
0
41
1
10
68.1913095283927
20
19.4326699058343
30
0
41
1
10
68.1962513415595
20
19.4120013422734
30
0
41
1
10
68.197120563472
20
19.4016522888591
30
0
41
1
10
68.1964416934351
20
19.3915095605061
30
0
0
SPLINE
5
E3
100
AcDbEntity
8
1
62
256
6
ByLayer
370
13
48
1
60
0
100
AcDbSpline
70
4
71
3
72
14
73
10
40
0
40
0
40
0
40
0
40
0.25
40
0.25
40
0.5
40
0.5
40
0.75
40
0.75
40
1
40
1
40
1
40
1
41
1
10
66.7901160967916
20
19.4143174573436
30
0
41
1
10
66.7894494031705
20
19.4278873200456
30
0
41
1
10
66.7914960551321
20
19.4413249256834
30
0
41
1
10
66.8007218132309
20
19.4666678415617
30
0
41
1
10
66.8079090748954
20
19.4784150055774
30
0
41
1
10
66.8263340739008
20
19.4981060250948
30
0
41
1
10
66.8377239775837
20
19.5061523108822
30
0
41
1
10
66.8626288168279
20
19.5168461776222
30
0
41
1
10
66.8763647696905
20
19.5196131261418
30
0
41
1
10
66.8901690586848
20
19.5193721713813
30
0
0
SPLINE
5
E4
100
AcDbEntity
8
1
62
256
6
ByLayer
370
13
48
1
60
0
100
AcDbSpline
70
4
71
3
72
8
73
4
40
0
40
0
40
0
40
0
40
1
40
1
40
1
40
1
41
1
10
66.8969459468175
20
16.2303108790454
30
0
41
0.975916198677752
10
66.8794862314339
20
17.2504437099532
30
0
41
0.975916198677752
10
66.8429974939205
20
18.3379710279108
30
0
41
1
10
66.7901160967916
20
19.4143174573436
30
0
0
SPLINE
5
E5
100
AcDbEntity
8
1
62
256
6
ByLayer
370
13
48
1
60
0
100
AcDbSpline
70
4
71
3
72
14
73
10
40
0
40
0
40
0
40
0
40
0.25
40
0.25
40
0.5
40
0.5
40
0.75
40
0.75
40
1
40
1
40
1
40
1
41
1
10
67.901952197003
20
16.7477795357705
30
0
41
1
10
67.9023333659894
20
16.7696166923747
30
0
41
1
10
67.9056140251032
20
16.7910058334194
30
0
41
1
10
67.9185613107783
20
16.8327821796981
30
0
41
1
10
67.9281172750112
20
16.8526641885915
30
0
41
1
10
67.9542983465011
20
16.8883683802703
30
0
41
1
10
67.9708766399244
20
16.9039272708767
30
0
41
1
10
68.0099751100586
20
16.925902189416
30
0
41
1
10
68.0323627482502
20
16.9320621414811
30
0
41
1
10
68.0551847576638
20
16.931663781825
30
0
0
SPLINE
5
E6
100
AcDbEntity
8
1
62
256
6
ByLayer
370
13
48
1
60
0
100
AcDbSpline
70
4
71
3
72
8
73
4
40
0
40
0
40
0
40
0
40
1
40
1
40
1
40
1
41
1
10
68.1964416934351
20
19.3915095605061
30
0
41
0.985803566528153
10
68.1415931967745
20
18.5720398947438
30
0
41
0.985803566528153
10
68.0961053749026
20
17.7402435990988
30
0
41
1
10
68.0619155223302
20
16.9315462958907
30
0
0
SPLINE
5
E7
100
AcDbEntity
8
1
62
256
6
ByLayer
370
18
48
1
60
0
100
AcDbSpline
70
4
71
3
72
12
73
8
40
0
40
0
40
0
40
0
40
0.249999999999991
40
0.249999999999991
40
0.499999999999981
40
0.499999999999981
40
1
40
1
40
1
40
1
41
1
10
66.8054925024179
20
-9.83386390899793
30
0
41
1
10
66.8055851553568
20
-9.83917199231448
30
0
41
1
10
66.8048504269191
20
-9.84439722875683
30
0
41
1
10
66.8017843275504
20
-9.85468782755746
30
0
41
1
10
66.7994067784708
20
-9.85980499902905
30
0
41
1
10
66.7900970642138
20
-9.87423716548449
30
0
41
1
10
66.7808305568359
20
-9.88295508932453
30
0
41
1
10
66.7691478503743
20
-9.88991229779143
30
0
0
SPLINE
5
E8
100
AcDbEntity
8
1
62
256
6
ByLayer
370
18
48
1
60
0
100
AcDbSpline
70
4
71
3
72
12
73
8
40
0
40
0
40
0
40
0
40
0.494802769565318
40
0.494802769565318
40
0.989605539130636
40
0.989605539130636
40
1
40
1
40
1
40
1
41
1
10
67.8754412061036
20
-15.4603765211693
30
0
41
1
10
67.8747278674163
20
-15.4633772343886
30
0
41
1
10
67.8740145292514
20
-15.4663779554445
30
0
41
1
10
67.8725483200408
20
-15.4717863234233
30
0
41
1
10
67.8717905503897
20
-15.4741204812379
30
0
41
1
10
67.8710018853542
20
-15.4762789921409
30
0
41
1
10
67.8709856571308
20
-15.4763233786539
30
0
41
1
10
67.870969427262
20
-15.4763677357122
30
0
0
SPLINE
5
E9
100
AcDbEntity
8
1
62
256
6
ByLayer
370
18
48
1
60
0
100
AcDbSpline
70
4
71
3
72
22
73
18
40
0
40
0
40
0
40
0
40
0.0034449824173779
40
0.0034449824173779
40
0.169537485347818
40
0.169537485347818
40
0.335629988278257
40
0.335629988278257
40
0.501722491208696
40
0.501722491208696
40
0.667814994139135
40
0.667814994139135
40
0.833907497069574
40
0.833907497069574
40
0.916953748534787
40
0.916953748534787
40
1
40
1
40
1
40
1
41
1
10
67.8662419095148
20
-15.4843691865601
30
0
41
1
10
67.866205089177
20
-15.4843706824227
30
0
41
1
10
67.866168173095
20
-15.4843704498143
30
0
41
1
10
67.8643466206462
20
-15.4842722392555
30
0
41
1
10
67.8623554415957
20
-15.480446497657
30
0
41
1
10
67.8581057366287
20
-15.4679698323832
30
0
41
1
10
67.8558659585721
20
-15.458695964613
30
0
41
1
10
67.8511900160128
20
-15.433754570586
30
0
41
1
10
67.8487236698649
20
-15.4181238945478
30
0
41
1
10
67.843789841605
20
-15.3815109704202
30
0
41
1
10
67.8413110120912
20
-15.3604882369187
30
0
41
1
10
67.8363305267298
20
-15.3132392012515
30
0
41
1
10
67.8338750898887
20
-15.2877306416073
30
0
41
1
10
67.8303012477371
20
-15.2480410920973
30
0
41
1
10
67.8291261512432
20
-15.2344824161958
30
0
41
1
10
67.8268133548518
20
-15.20660525187
30
0
41
1
10
67.8256744189711
20
-15.192311875771
30
0
41
1
10
67.8245419915869
20
-15.1778862620416
30
0
0
SPLINE
5
EA
100
AcDbEntity
8
1
62
256
6
ByLayer
370
18
48
1
60
0
100
AcDbSpline
70
4
71
3
72
30
73
26
40
0
40
0
40
0
40
0
40
0.250000000000001
40
0.250000000000001
40
0.500000000000002
40
0.500000000000002
40
0.625000000000002
40
0.625000000000002
40
0.750000000000002
40
0.750000000000002
40
0.875000000000002
40
0.875000000000002
40
0.937500000000003
40
0.937500000000003
40
0.968750000000003
40
0.968750000000003
40
0.984375000000003
40
0.984375000000003
40
0.992187500000002
40
0.992187500000002
40
0.996093750000001
40
0.996093750000001
40
0.998046875000001
40
0.998046875000001
40
1
40
1
40
1
40
1
41
1
10
68.0564030703512
20
-17.0014608684784
30
0
41
1
10
68.0482788936677
20
-17.1001108021242
30
0
41
1
10
68.0393250752406
20
-17.1884837976378
30
0
41
1
10
68.0198030225334
20
-17.3429030451165
30
0
41
1
10
68.0092257608196
20
-17.4091451606778
30
0
41
1
10
67.9920336820438
20
-17.4904513697468
30
0
41
1
10
67.9860965878515
20
-17.5144599879535
30
0
41
1
10
67.9737752353781
20
-17.5557753255252
30
0
41
1
10
67.9673873930537
20
-17.5731183747903
30
0
41
1
10
67.9541188375239
20
-17.5998487406794
30
0
41
1
10
67.9472442409142
20
-17.6094539765873
30
0
41
1
10
67.9363992664361
20
-17.6147416412544
30
0
41
1
10
67.9326992868552
20
-17.6150760662906
30
0
41
1
10
67.9268930011791
20
-17.6109057902507
30
0
41
1
10
67.9249187181467
20
-17.6088162545815
30
0
41
1
10
67.9218070258446
20
-17.6026544609652
30
0
41
1
10
67.9207462025022
20
-17.6001717521656
30
0
41
1
10
67.9190558982951
20
-17.594102017455
30
0
41
1
10
67.9184768409129
20
-17.591775820669
30
0
41
1
10
67.9175444233704
20
-17.5861664579666
30
0
41
1
10
67.9172165681615
20
-17.5839543784714
30
0
41
1
10
67.9167416372698
20
-17.578975132048
30
0
41
1
10
67.9165931243813
20
-17.5770189288193
30
0
41
1
10
67.916382488549
20
-17.5730420751607
30
0
41
1
10
67.9163242307414
20
-17.5711527967619
30
0
41
1
10
67.9162951484405
20
-17.56948667286
30
0
0
SPLINE
5
EB
100
AcDbEntity
8
1
62
256
6
ByLayer
370
18
48
1
60
0
100
AcDbSpline
70
4
71
3
72
8
73
4
40
0
40
0
40
0
40
0
40
1
40
1
40
1
40
1
41
1
10
63.0558686552352
20
-14.149544161015
30
0
41
0.999984207944873
10
62.93932502873
20
-14.1479103031862
30
0
41
0.999984207944873
10
62.8225959695096
20
-14.1454595398946
30
0
41
1
10
62.7056870077494
20
-14.1421919872481
30
0
0
SPLINE
5
EC
100
AcDbEntity
8
1
62
256
6
ByLayer
370
18
48
1
60
0
100
AcDbSpline
70
4
71
3
72
12
73
8
40
0
40
0
40
0
40
0
40
0.25
40
0.25
40
0.500000000000001
40
0.500000000000001
40
1
40
1
40
1
40
1
41
1
10
66.8814231631452
20
-14.1839285486726
30
0
41
1
10
66.8812937459317
20
-14.1765142414738
30
0
41
1
10
66.8803410163004
20
-14.169250197908
30
0
41
1
10
66.8768467666347
20
-14.1550120826181
30
0
41
1
10
66.8742569353256
20
-14.1479676133077
30
0
41
1
10
66.864350414038
20
-14.1282087278872
30
0
41
1
10
66.8547260575952
20
-14.1164254925306
30
0
41
1
10
66.8427609052132
20
-14.107201385061
30
0
0
SPLINE
5
ED
100
AcDbEntity
8
1
62
256
6
ByLayer
370
18
48
1
60
0
100
AcDbSpline
70
4
71
3
72
14
73
10
40
0
40
0
40
0
40
0
40
0.25
40
0.25
40
0.5
40
0.5
40
0.75
40
0.75
40
1
40
1
40
1
40
1
41
1
10
66.5553638126294
20
-5.96536810449024
30
0
41
1
10
66.554378228812
20
-5.96066876007845
30
0
41
1
10
66.5561087360763
20
-5.95599444813843
30
0
41
1
10
66.5647373189612
20
-5.94712521892819
30
0
41
1
10
66.5716472529932
20
-5.94298429351409
30
0
41
1
10
66.5896054924601
20
-5.9359346769794
30
0
41
1
10
66.6008034948022
20
-5.93298694231927
30
0
41
1
10
66.6254494835439
20
-5.92885127370414
30
0
41
1
10
66.6391155981433
20
-5.92761719080343
30
0
41
1
10
66.6529198871376
20
-5.92737623604273
30
0
0
SPLINE
5
EE
100
AcDbEntity
8
1
62
256
6
ByLayer
370
18
48
1
60
0
100
AcDbSpline
70
4
71
3
72
8
73
4
40
0
40
0
40
0
40
0
40
1
40
1
40
1
40
1
41
1
10
68.196441693435
20
-19.3915095600399
30
0
41
0.985803566528153
10
68.1415931967745
20
-18.5720398942777
30
0
41
0.985803566528153
10
68.0961053749025
20
-17.7402435986326
30
0
41
1
10
68.0619155223302
20
-16.9315462954246
30
0
0
SPLINE
5
EF
100
AcDbEntity
8
1
62
256
6
ByLayer
370
18
48
1
60
0
100
AcDbSpline
70
4
71
3
72
10
73
6
40
0
40
0
40
0
40
0
40
0.0457839164452007
40
0.551780971390002
40
1
40
1
40
1
40
1
41
1
10
67.8766288937176
20
-15.297008461719
30
0
41
1
10
67.8766524126396
20
-15.298355859854
30
0
41
1
10
67.8769358399982
20
-15.3145934023572
30
0
41
1
10
67.8774489810778
20
-15.343991235119
30
0
41
1
10
67.8779379901304
20
-15.3720065449824
30
0
41
1
10
67.8781676898456
20
-15.3851660328486
30
0
0
SPLINE
5
F0
100
AcDbEntity
8
1
62
256
6
ByLayer
370
18
48
1
60
0
100
AcDbSpline
70
4
71
3
72
19
73
15
40
0
40
0
40
0
40
0
40
0.0999933362254267
40
0.195991188141777
40
0.289605536567028
40
0.380786724502811
40
0.467828977833975
40
0.549104134018525
40
0.628513095476844
40
0.706746490957602
40
0.783396588407645
40
0.856483273758994
40
0.928171683475366
40
1
40
1
40
1
40
1
41
1
10
67.8789181569682
20
-15.4281602655093
30
0
41
1
10
67.8790613340353
20
-15.4363628741913
30
0
41
1
10
67.8793419671711
20
-15.4524403357717
30
0
41
1
10
67.8798616417736
20
-15.482212473811
30
0
41
1
10
67.8804430201411
20
-15.5155196181768
30
0
41
1
10
67.8810852128317
20
-15.5523108127797
30
0
41
1
10
67.8817914142506
20
-15.5927690649744
30
0
41
1
10
67.8826085028462
20
-15.6395800392635
30
0
41
1
10
67.8835051738705
20
-15.6909502878448
30
0
41
1
10
67.8844833837436
20
-15.7469918939379
30
0
41
1
10
67.8854843911319
20
-15.8043395688042
30
0
41
1
10
67.8864825303881
20
-15.8615229284952
30
0
41
1
10
67.8874673362898
20
-15.9179424208163
30
0
41
1
10
67.8880961385639
20
-15.9539664789738
30
0
41
1
10
67.8884108461939
20
-15.9719960670198
30
0
0
SPLINE
5
F1
100
AcDbEntity
8
1
62
256
6
ByLayer
370
18
48
1
60
0
100
AcDbSpline
70
4
71
3
72
14
73
10
40
0
40
0
40
0
40
0
40
0.25
40
0.25
40
0.5
40
0.5
40
0.75
40
0.75
40
1
40
1
40
1
40
1
41
1
10
66.7901160967915
20
-19.4143174568775
30
0
41
1
10
66.7894494031705
20
-19.4278873195795
30
0
41
1
10
66.791496055132
20
-19.4413249252172
30
0
41
1
10
66.8007218132308
20
-19.4666678410956
30
0
41
1
10
66.8079090748953
20
-19.4784150051113
30
0
41
1
10
66.8263340739008
20
-19.4981060246287
30
0
41
1
10
66.8377239775837
20
-19.5061523104161
30
0
41
1
10
66.8626288168279
20
-19.5168461771561
30
0
41
1
10
66.8763647696904
20
-19.5196131256757
30
0
41
1
10
66.8901690586847
20
-19.5193721709152
30
0
0
SPLINE
5
F2
100
AcDbEntity
8
1
62
256
6
ByLayer
370
18
48
1
60
0
100
AcDbSpline
70
4
71
3
72
16
73
12
40
0
40
0
40
0
40
0
40
0.198012762466348
40
0.198012762466348
40
0.397048454006852
40
0.397048454006852
40
0.599329837011445
40
0.599329837011445
40
0.808293333015123
40
0.808293333015123
40
1
40
1
40
1
40
1
41
1
10
67.8627355982778
20
-5.90625882425576
30
0
41
1
10
67.8733965723687
20
-5.90607273626051
30
0
41
1
10
67.8842128783843
20
-5.9064852816997
30
0
41
1
10
67.9044327193773
20
-5.90844028516577
30
0
41
1
10
67.9141025017702
20
-5.91001446409257
30
0
41
1
10
67.9311445960029
20
-5.91412453261782
30
0
41
1
10
67.9387071434114
20
-5.91672975987345
30
0
41
1
10
67.950880131536
20
-5.9226987166405
30
0
41
1
10
67.9555526079844
20
-5.92616498098673
30
0
41
1
10
67.9609767755462
20
-5.93313048221154
30
0
41
1
10
67.9620885779687
20
-5.93667885690536
30
0
41
1
10
67.9616484975928
20
-5.94021637906775
30
0
0
SPLINE
5
F3
100
AcDbEntity
8
1
62
256
6
ByLayer
370
18
48
1
60
0
100
AcDbSpline
70
4
71
3
72
8
73
4
40
0
40
0
40
0
40
0
40
1
40
1
40
1
40
1
41
1
10
62.6593251236332
20
-11.4861214250926
30
0
41
0.999809401453161
10
62.7822646364169
20
-11.3006585399988
30
0
41
0.999809401453161
10
62.8955828620755
20
-11.1065339835321
30
0
41
1
10
62.9992150057414
20
-10.9038587552676
30
0
0
SPLINE
5
F4
100
AcDbEntity
8
1
62
256
6
ByLayer
370
18
48
1
60
0
100
AcDbSpline
70
4
71
3
72
14
73
10
40
0
40
0
40
0
40
0
40
0.25
40
0.25
40
0.5
40
0.5
40
0.75
40
0.75
40
1
40
1
40
1
40
1
41
1
10
67.7384401461606
20
-7.38018041637241
30
0
41
1
10
67.7381576946978
20
-7.36399878290408
30
0
41
1
10
67.7407888241427
20
-7.34817639413978
30
0
41
1
10
67.7524676388674
20
-7.31728208834298
30
0
41
1
10
67.7614200231851
20
-7.30258502705286
30
0
41
1
10
67.7865149706139
20
-7.27606521294095
30
0
41
1
10
67.8026186659521
20
-7.26443439746478
30
0
41
1
10
67.8410394380349
20
-7.24758402064074
30
0
41
1
10
67.8632315790106
20
-7.24254394470748
30
0
41
1
10
67.8860535884242
20
-7.24214558505139
30
0
0
SPLINE
5
F5
100
AcDbEntity
8
1
62
256
6
ByLayer
370
18
48
1
60
0
100
AcDbSpline
70
4
71
3
72
8
73
4
40
0
40
0
40
0
40
0
40
1
40
1
40
1
40
1
41
1
10
68.0564030703512
20
-17.0014608684784
30
0
41
0.999971440293316
10
68.0582813171674
20
-16.978653766786
30
0
41
0.999971440293316
10
68.0601188536399
20
-16.9553482435025
30
0
41
1
10
68.0619155223302
20
-16.9315462954246
30
0
0
SPLINE
5
F6
100
AcDbEntity
8
1
62
256
6
ByLayer
370
18
48
1
60
0
100
AcDbSpline
70
4
71
3
72
9
73
5
40
0
40
0
40
0
40
0
40
0.526956880278409
40
1
40
1
40
1
40
1
41
1
10
67.8781676898456
20
-15.3851660328486
30
0
41
1
10
67.8782984741297
20
-15.3926586594687
30
0
41
1
10
67.8785466619588
20
-15.4068773306742
30
0
41
1
10
67.8787988575697
20
-15.4213256075442
30
0
41
1
10
67.8789181569682
20
-15.4281602655093
30
0
0
SPLINE
5
F7
100
AcDbEntity
8
1
62
256
6
ByLayer
370
18
48
1
60
0
100
AcDbSpline
70
4
71
3
72
22
73
18
40
0
40
0
40
0
40
0
40
0.124999999999995
40
0.124999999999995
40
0.249999999999991
40
0.249999999999991
40
0.374999999999986
40
0.374999999999986
40
0.499999999999981
40
0.499999999999981
40
0.624999999999991
40
0.624999999999991
40
0.749999999999994
40
0.749999999999994
40
0.874999999999997
40
0.874999999999997
40
1
40
1
40
1
40
1
41
1
10
67.8889385384389
20
-16.0022275300935
30
0
41
1
10
67.8871918962742
20
-15.9748959243884
30
0
41
1
10
67.8855832187044
20
-15.9474761311476
30
0
41
1
10
67.8825340685546
20
-15.8925290278823
30
0
41
1
10
67.8810877408119
20
-15.8650589280792
30
0
41
1
10
67.8785925530517
20
-15.8115233551828
30
0
41
1
10
67.8774720081674
20
-15.7851437857606
30
0
41
1
10
67.8756018409979
20
-15.7335180558615
30
0
41
1
10
67.8748410520086
20
-15.7081478332051
30
0
41
1
10
67.873740393318
20
-15.6607717341003
30
0
41
1
10
67.8734045386423
20
-15.6385720297338
30
0
41
1
10
67.8731023498901
20
-15.5967369061256
30
0
41
1
10
67.873134348912
20
-15.5770314495281
30
0
41
1
10
67.8735159617076
20
-15.5410085388426
30
0
41
1
10
67.8738493979545
20
-15.5243812537028
30
0
41
1
10
67.8745975705123
20
-15.4919156706287
30
0
41
1
10
67.8750196193549
20
-15.4761483381244
30
0
41
1
10
67.8754412061036
20
-15.4603765211693
30
0
0
SPLINE
5
F8
100
AcDbEntity
8
1
62
256
6
ByLayer
370
18
48
1
60
0
100
AcDbSpline
70
4
71
3
72
8
73
4
40
0
40
0
40
0
40
0
40
1
40
1
40
1
40
1
41
1
10
67.9616484975928
20
-5.94021637906775
30
0
41
0.985803566528153
10
67.9260927273921
20
-6.22602627194376
30
0
41
0.985803566528153
10
67.9028074445899
20
-6.66621258770715
30
0
41
1
10
67.8927843530906
20
-7.24202809911711
30
0
0
SPLINE
5
F9
100
AcDbEntity
8
1
62
256
6
ByLayer
370
18
48
1
60
0
100
AcDbSpline
70
4
71
3
72
8
73
4
40
0
40
0
40
0
40
0
40
1
40
1
40
1
40
1
41
1
10
68.0999847698248
20
-19.4982547591226
30
0
41
0.629776940994185
10
68.1487210077052
20
-19.497404064926
30
0
41
0.629776940994185
10
68.1688358256289
20
-19.4078538881466
30
0
41
1
10
68.1379883153269
20
-19.3290648499298
30
0
0
SPLINE
5
FA
100
AcDbEntity
8
1
62
256
6
ByLayer
370
18
48
1
60
0
100
AcDbSpline
70
4
71
3
72
16
73
12
40
0
40
0
40
0
40
0
40
0.19801276246634
40
0.19801276246634
40
0.39704845400685
40
0.39704845400685
40
0.599329837011449
40
0.599329837011449
40
0.808293333015127
40
0.808293333015127
40
1
40
1
40
1
40
1
41
1
10
68.0999847698248
20
-19.4982547591226
30
0
41
1
10
68.1106457439158
20
-19.4980686711276
30
0
41
1
10
68.1214198831675
20
-19.4960654842865
30
0
41
1
10
68.1414783171256
20
-19.4887734849154
30
0
41
1
10
68.1510263379165
20
-19.4833719463333
30
0
41
1
10
68.1677617938551
20
-19.4699147187595
30
0
41
1
10
68.1751344551605
20
-19.4616413784556
30
0
41
1
10
68.1868808341649
20
-19.4431699150872
30
0
41
1
10
68.1913095283926
20
-19.4326699053682
30
0
41
1
10
68.1962513415594
20
-19.4120013418073
30
0
41
1
10
68.1971205634719
20
-19.401652288393
30
0
41
1
10
68.196441693435
20
-19.3915095600399
30
0
0
SPLINE
5
FB
100
AcDbEntity
8
1
62
256
6
ByLayer
370
18
48
1
60
0
100
AcDbSpline
70
4
71
3
72
8
73
4
40
0
40
0
40
0
40
0
40
1
40
1
40
1
40
1
41
1
10
66.8466979715334
20
-19.3504523999762
30
0
41
0.625636970244831
10
66.8177819564213
20
-19.4302325941706
30
0
41
0.625636970244831
10
66.8409429316725
20
-19.5202314161549
30
0
41
1
10
66.8901690586856
20
-19.5193721709117
30
0
0
SPLINE
5
FC
100
AcDbEntity
8
1
62
256
6
ByLayer
370
18
48
1
60
0
100
AcDbSpline
70
4
71
3
72
8
73
4
40
0
40
0
40
0
40
0
40
1
40
1
40
1
40
1
41
1
10
67.8665094814566
20
-14.7172677215669
30
0
41
1
10
67.8504911976889
20
-14.7180599722229
30
0
41
1
10
67.83447289031
20
-14.7188524005016
30
0
41
1
10
67.8184545599313
20
-14.7196450043047
30
0
0
SPLINE
5
FD
100
AcDbEntity
8
1
62
256
6
ByLayer
370
18
48
1
60
0
100
AcDbSpline
70
4
71
3
72
8
73
4
40
0
40
0
40
0
40
0
40
1
40
1
40
1
40
1
41
1
10
62.9820323476141
20
-9.91946493043844
30
0
41
0.999984207944873
10
62.8637838829413
20
-9.82016095939986
30
0
41
0.999984207944873
10
62.7453718766666
20
-9.72129422394103
30
0
41
1
10
62.626801938697
20
-9.62286940798876
30
0
0
SPLINE
5
FE
100
AcDbEntity
8
1
62
256
6
ByLayer
370
18
48
1
60
0
100
AcDbSpline
70
4
71
3
72
14
73
10
40
0
40
0
40
0
40
0
40
0.25
40
0.25
40
0.5
40
0.5
40
0.75
40
0.75
40
1
40
1
40
1
40
1
41
1
10
67.901952197003
20
-16.7477795353044
30
0
41
1
10
67.9023333659894
20
-16.7696166919086
30
0
41
1
10
67.9056140251032
20
-16.7910058329533
30
0
41
1
10
67.9185613107782
20
-16.832782179232
30
0
41
1
10
67.9281172750112
20
-16.8526641881254
30
0
41
1
10
67.9542983465011
20
-16.8883683798042
30
0
41
1
10
67.9708766399244
20
-16.9039272704106
30
0
41
1
10
68.0099751100586
20
-16.9259021889499
30
0
41
1
10
68.0323627482502
20
-16.932062141015
30
0
41
1
10
68.0551847576637
20
-16.9316637813589
30
0
0
SPLINE
5
FF
100
AcDbEntity
8
1
62
256
6
ByLayer
370
18
48
1
60
0
100
AcDbSpline
70
4
71
3
72
20
73
16
40
0
40
0
40
0
40
0
40
0.0625000000000191
40
0.0625000000000191
40
0.125000000000038
40
0.125000000000038
40
0.250000000000033
40
0.250000000000033
40
0.375000000000027
40
0.375000000000027
40
0.500000000000022
40
0.500000000000022
40
0.750000000000011
40
0.750000000000011
40
1
40
1
40
1
40
1
41
1
10
66.7210066924726
20
-10.7235439487481
30
0
41
1
10
66.7299911632175
20
-10.7233871242279
30
0
41
1
10
66.7381180388754
20
-10.7267121247952
30
0
41
1
10
66.7510132989696
20
-10.7350133568168
30
0
41
1
10
66.7561825839721
20
-10.7400157957749
30
0
41
1
10
66.769819573911
20
-10.7555981406265
30
0
41
1
10
66.7764193208269
20
-10.7667662688715
30
0
41
1
10
66.7879470287034
20
-10.7896258171079
30
0
41
1
10
66.7927000444027
20
-10.801347989329
30
0
41
1
10
66.80091306916
20
-10.824785606075
30
0
41
1
10
66.8043819046352
20
-10.8365683640378
30
0
41
1
10
66.8134327824198
20
-10.8720525874876
30
0
41
1
10
66.817681127092
20
-10.8958878031801
30
0
41
1
10
66.8236213237775
20
-10.9438146130785
30
0
41
1
10
66.8252873296092
20
-10.9679087992754
30
0
41
1
10
66.8257100715092
20
-10.9921276665106
30
0
0
SPLINE
5
100
100
AcDbEntity
8
1
62
256
6
ByLayer
370
18
48
1
60
0
100
AcDbSpline
70
4
71
3
72
16
73
12
40
0
40
0
40
0
40
0
40
0.250000000000002
40
0.250000000000002
40
0.500000000000003
40
0.500000000000003
40
0.750000000000005
40
0.750000000000005
40
0.875000000000002
40
0.875000000000002
40
1
40
1
40
1
40
1
41
1
10
67.8184545599313
20
-14.7196450043047
30
0
41
1
10
67.8187810315272
20
-14.7454958856157
30
0
41
1
10
67.8193356833751
20
-14.7728310151015
30
0
41
1
10
67.8209821848804
20
-14.8309955942879
30
0
41
1
10
67.8220625870497
20
-14.8611636329281
30
0
41
1
10
67.8248070605603
20
-14.9235590122413
30
0
41
1
10
67.8265007936715
20
-14.9562047606627
30
0
41
1
10
67.8293796542711
20
-15.0037467441995
30
0
41
1
10
67.8304037717449
20
-15.0194684600993
30
0
41
1
10
67.8325613201785
20
-15.0506989979436
30
0
41
1
10
67.8336880854184
20
-15.0662264172306
30
0
41
1
10
67.8348131075757
20
-15.0817274874373
30
0
0
SPLINE
5
101
100
AcDbEntity
8
1
62
256
6
ByLayer
370
18
48
1
60
0
100
AcDbSpline
70
4
71
3
72
8
73
4
40
0
40
0
40
0
40
0
40
1
40
1
40
1
40
1
41
1
10
66.8969459468174
20
-16.2303108785793
30
0
41
0.999988664887055
10
66.9035132584721
20
-16.2227694772045
30
0
41
0.999988664887055
10
66.9101028857573
20
-16.2145903832869
30
0
41
1
10
66.9167146045904
20
-16.2057738749595
30
0
0
SPLINE
5
102
100
AcDbEntity
8
1
62
256
6
ByLayer
370
18
48
1
60
0
100
AcDbSpline
70
4
71
3
72
8
73
4
40
0
40
0
40
0
40
0
40
1
40
1
40
1
40
1
41
1
10
67.8627355982778
20
-5.90625882425576
30
0
41
0.629776940994224
10
67.9114718361581
20
-5.90540813005919
30
0
41
0.629776940994224
10
67.926276690004
20
-5.51165031499244
30
0
41
1
10
67.8907068649785
20
-5.16232004745984
30
0
0
SPLINE
5
103
100
AcDbEntity
8
1
62
256
6
ByLayer
370
18
48
1
60
0
100
AcDbSpline
70
4
71
3
72
8
73
4
40
0
40
0
40
0
40
0
40
1
40
1
40
1
40
1
41
1
10
66.5993479429548
20
-5.17977875333608
30
0
41
0.625636970244864
10
66.5751511458344
20
-5.52992276520055
30
0
41
0.625636970244864
10
66.6036937601255
20
-5.92823548128803
30
0
41
1
10
66.6529198871386
20
-5.92737623604458
30
0
0
SPLINE
5
104
100
AcDbEntity
8
1
62
256
6
ByLayer
370
18
48
1
60
0
100
AcDbSpline
70
4
71
3
72
8
73
4
40
0
40
0
40
0
40
0
40
1
40
1
40
1
40
1
41
1
10
66.8969459468174
20
-16.2303108785793
30
0
41
0.975916198677752
10
66.8794862314338
20
-17.2504437094871
30
0
41
0.975916198677752
10
66.8429974939205
20
-18.3379710274447
30
0
41
1
10
66.7901160967915
20
-19.4143174568775
30
0
0
SPLINE
5
105
100
AcDbEntity
8
1
62
256
6
ByLayer
370
18
48
1
60
0
100
AcDbSpline
70
4
71
3
72
24
73
20
40
0
40
0
40
0
40
0
40
0.0624999999999995
40
0.0624999999999995
40
0.124999999999999
40
0.124999999999999
40
0.187499999999998
40
0.187499999999998
40
0.249999999999998
40
0.249999999999998
40
0.374999999999998
40
0.374999999999998
40
0.499999999999999
40
0.499999999999999
40
0.624999999999999
40
0.624999999999999
40
0.749999999999999
40
0.749999999999999
40
1
40
1
40
1
40
1
41
1
10
67.8348131075757
20
-15.0817274874373
30
0
41
1
10
67.8357451248096
20
-15.0937129889088
30
0
41
1
10
67.8366771564164
20
-15.105698262834
30
0
41
1
10
67.8385797545633
20
-15.1290587454579
30
0
41
1
10
67.8395542527367
20
-15.1403717105608
30
0
41
1
10
67.841551361965
20
-15.1622359423901
30
0
41
1
10
67.8425756551919
20
-15.1728883472794
30
0
41
1
10
67.8446253184442
20
-15.1933732635389
30
0
41
1
10
67.8456526694574
20
-15.2031761538205
30
0
41
1
10
67.8487448946973
20
-15.230810038833
30
0
41
1
10
67.8508463320718
20
-15.2471178085331
30
0
41
1
10
67.8549060555389
20
-15.2746217986271
30
0
41
1
10
67.8568599111901
20
-15.285438544124
30
0
41
1
10
67.8606325629319
20
-15.3018562220892
30
0
41
1
10
67.8624065677387
20
-15.3073829063362
30
0
41
1
10
67.8657509498257
20
-15.3145566533633
30
0
41
1
10
67.8673228030189
20
-15.3160671647395
30
0
41
1
10
67.8717634657619
20
-15.3149100641018
30
0
41
1
10
67.8743063069864
20
-15.3075424995574
30
0
41
1
10
67.8766226736562
20
-15.2966521146349
30
0
0
SPLINE
5
106
100
AcDbEntity
8
1
62
256
6
ByLayer
370
18
48
1
60
0
100
AcDbSpline
70
4
71
3
72
8
73
4
40
0
40
0
40
0
40
0
40
1
40
1
40
1
40
1
41
1
10
66.7501024166892
20
-7.81765067180572
30
0
41
0.975916198677752
10
66.7000540229334
20
-6.97077936916426
30
0
41
0.975916198677752
10
66.6335392257532
20
-6.33811488088643
30
0
41
1
10
66.5553638126294
20
-5.96536810449024
30
0
0
SPLINE
5
107
100
AcDbEntity
8
SK1
62
256
6
ByLayer
370
18
48
1
60
0
100
AcDbSpline
70
4
71
3
72
10
73
6
40
0
40
0
40
0
40
0
40
0.5
40
0.5
40
1
40
1
40
1
40
1
41
1
10
-55.9999999996913
20
-6.78232998289121
30
0
41
1
10
-56.1845385475439
20
-6.442220926874
30
0
41
1
10
-56.3613323512346
20
-6.09840964249787
30
0
41
1
10
-56.6959631310616
20
-5.40172512113634
30
0
41
1
10
-56.8538062427771
20
-5.04885481714842
30
0
41
1
10
-56.9999999996912
20
-4.69041575958934
30
0
0
SPLINE
5
108
100
AcDbEntity
8
1
62
256
6
ByLayer
370
18
48
1
60
0
100
AcDbSpline
70
4
71
3
72
8
73
4
40
0
40
0
40
0
40
0
40
1
40
1
40
1
40
1
41
1
10
68.0000000003089
20
15.1712189988041
30
0
41
1
10
67.8361311637072
20
15.3464518297806
30
0
41
1
10
67.669315421871
20
15.5225495251636
30
0
41
1
10
67.500000000309
20
15.6996410776304
30
0
0
SPLINE
5
109
100
AcDbEntity
8
1
62
256
6
ByLayer
370
18
48
1
60
0
100
AcDbSpline
70
4
71
3
72
82
73
78
40
0
40
0
40
0
40
0
40
0.0625000000000075
40
0.0625000000000075
40
0.125000000000015
40
0.125000000000015
40
0.156250000000019
40
0.156250000000019
40
0.171875000000021
40
0.171875000000021
40
0.187500000000023
40
0.187500000000023
40
0.250000000000025
40
0.250000000000025
40
0.281250000000026
40
0.281250000000026
40
0.296875000000027
40
0.296875000000027
40
0.312500000000028
40
0.312500000000028
40
0.343750000000029
40
0.343750000000029
40
0.359375000000028
40
0.359375000000028
40
0.367187500000028
40
0.367187500000028
40
0.375000000000028
40
0.375000000000028
40
0.406250000000026
40
0.406250000000026
40
0.437500000000024
40
0.437500000000024
40
0.468750000000022
40
0.468750000000022
40
0.50000000000002
40
0.50000000000002
40
0.507812500000019
40
0.507812500000019
40
0.515625000000019
40
0.515625000000019
40
0.531250000000017
40
0.531250000000017
40
0.546875000000016
40
0.546875000000016
40
0.554687500000016
40
0.554687500000016
40
0.562500000000015
40
0.562500000000015
40
0.593750000000012
40
0.593750000000012
40
0.60937500000001
40
0.60937500000001
40
0.617187500000009
40
0.617187500000009
40
0.625000000000008
40
0.625000000000008
40
0.656250000000006
40
0.656250000000006
40
0.687500000000005
40
0.687500000000005
40
0.703125000000005
40
0.703125000000005
40
0.718750000000005
40
0.718750000000005
40
0.750000000000004
40
0.750000000000004
40
0.812500000000006
40
0.812500000000006
40
0.828125000000005
40
0.828125000000005
40
0.843750000000005
40
0.843750000000005
40
0.875000000000004
40
0.875000000000004
40
0.937500000000002
40
0.937500000000002
40
1
40
1
40
1
40
1
41
1
10
54.3240280997948
20
15.6996410776304
30
0
41
1
10
53.8118310148927
20
15.6996410776304
30
0
41
1
10
53.3045778827056
20
15.6723143299787
30
0
41
1
10
52.2997746348375
20
15.5648241322656
30
0
41
1
10
51.8022220317505
20
15.4846636345752
30
0
41
1
10
51.0636144930958
20
15.3241959542431
30
0
41
1
10
50.8187050199518
20
15.2639820871246
30
0
41
1
10
50.4534043044902
20
15.1632816657142
30
0
41
1
10
50.3317927220845
20
15.127921065974
30
0
41
1
10
50.090866675995
20
15.0541649369499
30
0
41
1
10
49.9714192688857
20
15.0157386310126
30
0
41
1
10
49.3793434824403
20
14.8159557241976
30
0
41
1
10
48.9220394347646
20
14.6317659661676
30
0
41
1
10
48.2639398069605
20
14.3193024245054
30
0
41
1
10
48.0492445516045
20
14.2090961378942
30
0
41
1
10
47.7350166549694
20
14.0344737505964
30
0
41
1
10
47.6314320519797
20
13.9746118087527
30
0
41
1
10
47.4290420640234
20
13.8529366763684
30
0
41
1
10
47.3300068435612
20
13.7910029350695
30
0
41
1
10
47.0396258604084
20
13.6020475939909
30
0
41
1
10
46.8549728605805
20
13.4718781140367
30
0
41
1
10
46.5928521256548
20
13.2707613862327
30
0
41
1
10
46.5079621295604
20
13.2027439452488
30
0
41
1
10
46.3846191891963
20
13.0992886824924
30
0
41
1
10
46.3441709162018
20
13.0645652858725
30
0
41
1
10
46.2646606249402
20
12.9946466115206
30
0
41
1
10
46.2255290552832
20
12.9593861152732
30
0
41
1
10
46.0345033435939
20
12.7828569130054
30
0
41
1
10
45.8965151420859
20
12.6410466188397
30
0
41
1
10
45.6526672147457
20
12.3578392219901
30
0
41
1
10
45.5467661434657
20
12.2164386182738
30
0
41
1
10
45.3717692342299
20
11.9356240843024
30
0
41
1
10
45.3055036022015
20
11.8006820770806
30
0
41
1
10
45.2160592377992
20
11.5432543173231
30
0
41
1
10
45.1928215630341
20
11.4207050708918
30
0
41
1
10
45.1926410838513
20
11.2760513301462
30
0
41
1
10
45.1940698482692
20
11.2474961934734
30
0
41
1
10
45.1998151423086
20
11.1919181399953
30
0
41
1
10
45.2041257552925
20
11.1648167477821
30
0
41
1
10
45.2212761579626
20
11.0855224473237
30
0
41
1
10
45.2383285908412
20
11.0353380162408
30
0
41
1
10
45.2833175591373
20
10.9400813170919
30
0
41
1
10
45.311254930966
20
10.8950094005354
30
0
41
1
10
45.3611953415815
20
10.8310832062442
30
0
41
1
10
45.3791825307853
20
10.8103883731695
30
0
41
1
10
45.4178313057701
20
10.7702040686735
30
0
41
1
10
45.4385459951637
20
10.7506724747612
30
0
41
1
10
45.547952587979
20
10.6566811686158
30
0
41
1
10
45.6541059162091
20
10.592905453765
30
0
41
1
10
45.8381103776051
20
10.5111740259544
30
0
41
1
10
45.9035966183092
20
10.4862644186107
30
0
41
1
10
46.007819887634
20
10.4520867998976
30
0
41
1
10
46.043627242264
20
10.4412077640495
30
0
41
1
10
46.1168613208333
20
10.4205620026558
30
0
41
1
10
46.1542535251638
20
10.4108013275833
30
0
41
1
10
46.3449270205905
20
10.3646059375225
30
0
41
1
10
46.50928107177
20
10.335937264922
30
0
41
1
10
46.8586257208785
20
10.2910472294443
30
0
41
1
10
47.0436379666694
20
10.2748467424189
30
0
41
1
10
47.3353433627913
20
10.2576240412366
30
0
41
1
10
47.4351971616641
20
10.2530615906624
30
0
41
1
10
47.6382714892644
20
10.2460288396868
30
0
41
1
10
47.741273111059
20
10.2435586654488
30
0
41
1
10
48.0543954602786
20
10.2387309857174
30
0
41
1
10
48.2686200648588
20
10.238936706759
30
0
41
1
10
48.9261438117528
20
10.246297669546
30
0
41
1
10
49.3841753260739
20
10.2600450113734
30
0
41
1
10
49.9786698877315
20
10.2801727692008
30
0
41
1
10
50.0989045313556
20
10.2843669361894
30
0
41
1
10
50.3399780249794
20
10.2928639973056
30
0
41
1
10
50.460898435899
20
10.2971692651318
30
0
41
1
10
50.8247671041191
20
10.3100462960069
30
0
41
1
10
51.0688205319277
20
10.3185712863638
30
0
41
1
10
51.8051496337968
20
10.3426334935315
30
0
41
1
10
52.3015678906492
20
10.3565723613328
30
0
41
1
10
53.3048775882256
20
10.3757573432086
30
0
41
1
10
53.8117710100009
20
10.3810215201017
30
0
41
1
10
54.3240280997948
20
10.3810215201017
30
0
0
SPLINE
5
10A
100
AcDbEntity
8
1
62
256
6
ByLayer
370
18
48
1
60
0
100
AcDbSpline
70
4
71
3
72
8
73
4
40
0
40
0
40
0
40
0
40
1
40
1
40
1
40
1
41
1
10
67.500000000309
20
10.3810215201016
30
0
41
1
10
67.6693154198212
20
10.347707198078
30
0
41
1
10
67.8361311616617
20
10.3199032390126
30
0
41
1
10
68.0000000003089
20
10.2979632706994
30
0
0
SPLINE
5
10B
100
AcDbEntity
8
1
62
256
6
ByLayer
370
18
48
1
60
0
100
AcDbSpline
70
4
71
3
72
8
73
4
40
0
40
0
40
0
40
0
40
1
40
1
40
1
40
1
41
1
10
62.7331163799494
20
-15.713619668141
30
0
41
0.999999868450736
10
64.1244722777847
20
-15.7140390027701
30
0
41
0.999999852116019
10
65.5160920426877
20
-15.7144547164548
30
0
41
0.99999995099585
10
66.9079751936675
20
-15.7148668090514
30
0
0
SPLINE
5
10C
100
AcDbEntity
8
1
62
256
6
ByLayer
370
18
48
1
60
0
100
AcDbSpline
70
4
71
3
72
8
73
4
40
0
40
0
40
0
40
0
40
1
40
1
40
1
40
1
41
1
10
67.8772231762755
20
-15.3302196921267
30
0
41
1
10
67.918157974726
20
-15.2884073144315
30
0
41
1
10
67.9590836584425
20
-15.2465865397492
30
0
41
1
10
68.0000000003088
20
-15.2047571687476
30
0
0
SPLINE
5
10D
100
AcDbEntity
8
SK1
62
256
6
ByLayer
370
18
48
1
60
0
100
AcDbSpline
70
4
71
3
72
8
73
4
40
0
40
0
40
0
40
0
40
1
40
1
40
1
40
1
41
1
10
-30.9999999996912
20
-6.78232998289133
30
0
41
0.893333333333334
10
-33.7462686564076
20
-2.53072014272324
30
0
41
0.893333333333334
10
-33.7462686564075
20
2.53072014319118
30
0
41
1
10
-30.9999999996911
20
6.78232998335923
30
0
0
SPLINE
5
10E
100
AcDbEntity
8
SK1
62
256
6
ByLayer
370
18
48
1
60
0
100
AcDbSpline
70
4
71
3
72
8
73
4
40
0
40
0
40
0
40
0
40
1
40
1
40
1
40
1
41
1
10
-18.9999999996911
20
6.78232998335915
30
0
41
0.893333333333333
10
-16.2537313429747
20
2.53072014319105
30
0
41
0.893333333333333
10
-16.2537313429747
20
-2.53072014272334
30
0
41
1
10
-18.9999999996912
20
-6.78232998289138
30
0
0
SPLINE
5
10F
100
AcDbEntity
8
SK1
62
256
6
ByLayer
370
18
48
1
60
0
100
AcDbSpline
70
4
71
3
72
8
73
4
40
0
40
0
40
0
40
0
40
1
40
1
40
1
40
1
41
1
10
-39.9999999996911
20
6.78232998335943
30
0
41
0.893333333333327
10
-37.2537313429744
20
2.53072014319126
30
0
41
0.893333333333327
10
-37.2537313429744
20
-2.53072014272332
30
0
41
1
10
-39.9999999996912
20
-6.78232998289147
30
0
0
SPLINE
5
110
100
AcDbEntity
8
SK1
62
256
6
ByLayer
370
18
48
1
60
0
100
AcDbSpline
70
4
71
3
72
10
73
6
40
0
40
0
40
0
40
0
40
0.5
40
0.5
40
1
40
1
40
1
40
1
41
1
10
-56.9999999996911
20
4.6904157600575
30
0
41
1
10
-56.8538062427771
20
5.04885481761656
30
0
41
1
10
-56.6959631310615
20
5.40172512160447
30
0
41
1
10
-56.3613323512345
20
6.09840964296603
30
0
41
1
10
-56.1845385475438
20
6.44222092734213
30
0
41
1
10
-55.9999999996912
20
6.78232998335935
30
0
0
SPLINE
5
111
100
AcDbEntity
8
1
62
256
6
ByLayer
370
18
48
1
60
0
100
AcDbSpline
70
4
71
3
72
8
73
4
40
0
40
0
40
0
40
0
40
1
40
1
40
1
40
1
41
1
10
62.7331163799496
20
15.713619668608
30
0
41
0.99999984980014
10
64.3217338934004
20
15.714098455047
30
0
41
0.99999984980014
10
65.9106953388483
20
15.7145725210111
30
0
41
1
10
67.500000000309
20
15.7150418662865
30
0
0
SPLINE
5
112
100
AcDbEntity
8
1
62
256
6
ByLayer
370
18
48
1
60
0
100
AcDbSpline
70
4
71
3
72
8
73
4
40
0
40
0
40
0
40
0
40
1
40
1
40
1
40
1
41
1
10
67.500000000309
20
15.7150418662865
30
0
41
1
10
67.6668111849305
20
15.5450803859305
30
0
41
1
10
67.833482954444
20
15.3749899654976
30
0
41
1
10
68.0000000003089
20
15.2047571692146
30
0
0
SPLINE
5
113
100
AcDbEntity
8
1
62
256
6
ByLayer
370
18
48
1
60
0
100
AcDbSpline
70
4
71
3
72
8
73
4
40
0
40
0
40
0
40
0
40
1
40
1
40
1
40
1
41
1
10
67.5000000003089
20
-4.71539584066386
30
0
41
0.999997673936728
10
65.8473910575247
20
-4.74186067717834
30
0
41
0.999997673936728
10
64.1948959964446
20
-4.7683034847236
30
0
41
1
10
62.5425263484926
20
-4.79472407877671
30
0
0
SPLINE
5
114
100
AcDbEntity
8
1
62
256
6
ByLayer
370
18
48
1
60
0
100
AcDbSpline
70
4
71
3
72
8
73
4
40
0
40
0
40
0
40
0
40
1
40
1
40
1
40
1
41
0.979337700574708
10
62.7337489527196
20
-15.7498597378737
30
0
41
0.858430629327117
10
62.7342763331251
20
-15.7800733410686
30
0
41
0.865318062468881
10
62.6606103562574
20
-11.5597523528321
30
0
41
1
10
62.5425263484926
20
-4.79472407877671
30
0
0
SPLINE
5
115
100
AcDbEntity
8
1
62
256
6
ByLayer
370
18
48
1
60
0
100
AcDbSpline
70
4
71
3
72
8
73
4
40
0
40
0
40
0
40
0
40
1
40
1
40
1
40
1
41
1
10
62.7331163799496
20
15.713619668608
30
0
41
0.999615910787842
10
62.7335385472417
20
15.7378056165779
30
0
41
0.999614914317965
10
62.7337504918322
20
15.7499479140491
30
0
41
0.99999701059037
10
62.7337513159483
20
15.7499951276055
30
0
0
LINE
5
73
100
AcDbEntity
8
1
62
256
6
ByLayer
370
18
48
1
60
1
100
AcDbLine
10
0
20
0
30
0
11
0
21
297
31
0
39
0
210
0
220
0
230
1
0
LINE
5
74
100
AcDbEntity
8
1
62
256
6
ByLayer
370
18
48
1
60
1
100
AcDbLine
10
420
20
297
30
0
11
0
21
297
31
0
39
0
210
0
220
0
230
1
0
LINE
5
75
100
AcDbEntity
8
1
62
256
6
ByLayer
370
18
48
1
60
1
100
AcDbLine
10
420
20
297
30
0
11
420
21
0
31
0
39
0
210
0
220
0
230
1
0
LINE
5
76
100
AcDbEntity
8
1
62
256
6
ByLayer
370
18
48
1
60
1
100
AcDbLine
10
0
20
0
30
0
11
420
21
0
31
0
39
0
210
0
220
0
230
1
0
LINE
5
77
100
AcDbEntity
8
SK1
62
256
6
ByLayer
370
18
48
1
60
0
100
AcDbLine
10
-57
20
-4.690416
30
0
11
-57
21
-11.5
31
0
39
0
210
0
220
0
230
1
0
LINE
5
79
100
AcDbEntity
8
1
62
256
6
ByLayer
370
18
48
0.05
60
1
100
AcDbLine
10
-56
20
-12.5
30
0
11
44.827318
21
-12.5
31
0
39
0
210
0
220
0
230
1
0
LINE
5
7A
100
AcDbEntity
8
1
62
256
6
ByLayer
370
13
48
1
60
0
100
AcDbLine
10
66.597612
20
-5.207454
30
0
11
66.55512
21
-5.962056
31
0
39
0
210
0
220
0
230
1
0
LINE
5
7B
100
AcDbEntity
8
1
62
256
6
ByLayer
370
13
48
1
60
0
100
AcDbLine
10
67.961693
20
-5.937575
30
0
11
67.892892
21
-5.184925
31
0
39
0
210
0
220
0
230
1
0
LINE
5
7C
100
AcDbEntity
8
1
62
256
6
ByLayer
370
18
48
1
60
0
100
AcDbLine
10
54.324028
20
-15.75
30
0
11
62.733568
21
-15.75
31
0
39
0
210
0
220
0
230
1
0
LINE
5
7D
100
AcDbEntity
8
1
62
256
6
ByLayer
370
13
48
1
60
0
100
AcDbLine
10
68.099985
20
19.498255
30
0
11
66.890169
21
19.519372
31
0
39
0
210
0
220
0
230
1
0
LINE
5
7E
100
AcDbEntity
8
1
62
256
6
ByLayer
370
13
48
1
60
0
100
AcDbLine
10
68.061916
20
16.931546
30
0
11
68.055185
21
16.931664
31
0
39
0
210
0
220
0
230
1
0
LINE
5
7F
100
AcDbEntity
8
1
62
256
6
ByLayer
370
13
48
1
60
0
100
AcDbLine
10
66.917137
20
16.229958
30
0
11
66.896946
21
16.230311
31
0
39
0
210
0
220
0
230
1
0
LINE
5
80
100
AcDbEntity
8
1
62
256
6
ByLayer
370
13
48
1
60
0
100
AcDbLine
10
67.87691
20
15.313098
30
0
11
67.901952
21
16.74778
31
0
39
0
210
0
220
0
230
1
0
LINE
5
81
100
AcDbEntity
8
1
62
256
6
ByLayer
370
13
48
1
60
0
100
AcDbLine
10
66.908089
20
15.71164
30
0
11
66.917137
21
16.229958
31
0
39
0
210
0
220
0
230
1
0
LINE
5
82
100
AcDbEntity
8
1
62
256
6
ByLayer
370
18
48
1
60
0
100
AcDbLine
10
66.905577
20
-15.567678
30
0
11
66.889139
21
-14.625947
31
0
39
0
210
0
220
0
230
1
0
LINE
5
83
100
AcDbEntity
8
1
62
256
6
ByLayer
370
18
48
1
60
0
100
AcDbLine
10
62.98267
20
-9.956006
30
0
11
66.769148
21
-9.889912
31
0
39
0
210
0
220
0
230
1
0
LINE
5
84
100
AcDbEntity
8
1
62
256
6
ByLayer
370
18
48
1
60
0
100
AcDbLine
10
67.815881
20
-14.681686
30
0
11
67.865845
21
-14.679192
31
0
39
0
210
0
220
0
230
1
0
LINE
5
85
100
AcDbEntity
8
1
62
256
6
ByLayer
370
18
48
1
60
0
100
AcDbLine
10
67.892784
20
-7.242028
30
0
11
67.886054
21
-7.242146
31
0
39
0
210
0
220
0
230
1
0
LINE
5
86
100
AcDbEntity
8
1
62
256
6
ByLayer
370
18
48
1
60
0
100
AcDbLine
10
67.868243
20
-14.816553
30
0
11
67.866509
21
-14.717268
31
0
39
0
210
0
220
0
230
1
0
LINE
5
87
100
AcDbEntity
8
1
62
256
6
ByLayer
370
18
48
1
60
0
100
AcDbLine
10
67.865845
20
-14.679193
30
0
11
67.854542
21
-14.031662
31
0
39
0
210
0
220
0
230
1
0
LINE
5
88
100
AcDbEntity
8
1
62
256
6
ByLayer
370
18
48
1
60
0
100
AcDbLine
10
67.822867
20
-15.081936
30
0
11
67.834813
21
-15.081727
31
0
39
0
210
0
220
0
230
1
0
LINE
5
89
100
AcDbEntity
8
1
62
256
6
ByLayer
370
18
48
1
60
0
100
AcDbLine
10
62.999215
20
-10.903859
30
0
11
62.997202
21
-10.788543
31
0
39
0
210
0
220
0
230
1
0
LINE
5
8A
100
AcDbEntity
8
1
62
256
6
ByLayer
370
18
48
1
60
0
100
AcDbLine
10
67.476304
20
-14.053678
30
0
11
68.077948
21
-19.175714
31
0
39
0
210
0
220
0
230
1
0
LINE
5
8B
100
AcDbEntity
8
1
62
256
6
ByLayer
370
18
48
1
60
0
100
AcDbLine
10
68.061916
20
-16.931546
30
0
11
68.055185
21
-16.931664
31
0
39
0
210
0
220
0
230
1
0
LINE
5
8C
100
AcDbEntity
8
1
62
256
6
ByLayer
370
18
48
1
60
0
100
AcDbLine
10
67.864544
20
-15.460567
30
0
11
67.875441
21
-15.460377
31
0
39
0
210
0
220
0
230
1
0
LINE
5
8D
100
AcDbEntity
8
1
62
256
6
ByLayer
370
18
48
1
60
0
100
AcDbLine
10
67.350245
20
-14.646049
30
0
11
66.905577
21
-15.567678
31
0
39
0
210
0
220
0
230
1
0
LINE
5
8E
100
AcDbEntity
8
1
62
256
6
ByLayer
370
18
48
1
60
0
100
AcDbLine
10
67.476304
20
-14.053678
30
0
11
67.816476
21
-14.715794
31
0
39
0
210
0
220
0
230
1
0
LINE
5
8F
100
AcDbEntity
8
1
62
256
6
ByLayer
370
18
48
1
60
0
100
AcDbLine
10
62.997202
20
-10.788543
30
0
11
66.721007
21
-10.723544
31
0
39
0
210
0
220
0
230
1
0
LINE
5
90
100
AcDbEntity
8
1
62
256
6
ByLayer
370
18
48
1
60
0
100
AcDbLine
10
63.056283
20
-14.173295
30
0
11
66.842761
21
-14.107201
31
0
39
0
210
0
220
0
230
1
0
LINE
5
91
100
AcDbEntity
8
1
62
256
6
ByLayer
370
18
48
1
60
0
100
AcDbLine
10
66.780616
20
-8.408703
30
0
11
66.770293
21
-7.817298
31
0
39
0
210
0
220
0
230
1
0
LINE
5
92
100
AcDbEntity
8
1
62
256
6
ByLayer
370
18
48
1
60
0
100
AcDbLine
10
67.350245
20
-14.646049
30
0
11
66.889139
21
-14.625947
31
0
39
0
210
0
220
0
230
1
0
LINE
5
93
100
AcDbEntity
8
1
62
256
6
ByLayer
370
18
48
1
60
0
100
AcDbLine
10
66.82571
20
-10.992128
30
0
11
66.889139
21
-14.625947
31
0
39
0
210
0
220
0
230
1
0
LINE
5
94
100
AcDbEntity
8
1
62
256
6
ByLayer
370
18
48
1
60
0
100
AcDbLine
10
67.824542
20
-15.177886
30
0
11
67.816476
21
-14.715794
31
0
39
0
210
0
220
0
230
1
0
LINE
5
95
100
AcDbEntity
8
1
62
256
6
ByLayer
370
13
48
1
60
0
100
AcDbLine
10
66.779702
20
-14.086224
30
0
11
66.721007
21
-10.723544
31
0
39
0
210
0
220
0
230
1
0
LINE
5
96
100
AcDbEntity
8
1
62
256
6
ByLayer
370
18
48
1
60
0
100
AcDbLine
10
66.902595
20
-19.19623
30
0
11
66.846698
21
-19.350452
31
0
39
0
210
0
220
0
230
1
0
LINE
5
97
100
AcDbEntity
8
1
62
256
6
ByLayer
370
18
48
1
60
0
100
AcDbLine
10
66.902595
20
-19.19623
30
0
11
67.350245
21
-14.646049
31
0
39
0
210
0
220
0
230
1
0
LINE
5
98
100
AcDbEntity
8
1
62
256
6
ByLayer
370
18
48
1
60
0
100
AcDbLine
10
66.916715
20
-16.205774
30
0
11
66.905577
21
-15.567678
31
0
39
0
210
0
220
0
230
1
0
LINE
5
99
100
AcDbEntity
8
1
62
256
6
ByLayer
370
18
48
1
60
0
100
AcDbLine
10
67.816476
20
-14.715794
30
0
11
67.815881
21
-14.681685
31
0
39
0
210
0
220
0
230
1
0
LINE
5
9A
100
AcDbEntity
8
1
62
256
6
ByLayer
370
18
48
1
60
0
100
AcDbLine
10
68.077948
20
-19.175714
30
0
11
66.902595
21
-19.19623
31
0
39
0
210
0
220
0
230
1
0
LINE
5
9B
100
AcDbEntity
8
1
62
256
6
ByLayer
370
18
48
1
60
0
100
AcDbLine
10
67.777973
20
-9.645031
30
0
11
67.73844
21
-7.38018
31
0
39
0
210
0
220
0
230
1
0
LINE
5
9C
100
AcDbEntity
8
1
62
256
6
ByLayer
370
13
48
1
60
0
100
AcDbLine
10
68.055185
20
-16.931664
30
0
11
68.056403
21
-17.001461
31
0
39
0
210
0
220
0
230
1
0
LINE
5
9D
100
AcDbEntity
8
1
62
256
6
ByLayer
370
18
48
1
60
0
100
AcDbLine
10
66.802494
20
-9.662058
30
0
11
66.780616
21
-8.408703
31
0
39
0
210
0
220
0
230
1
0
LINE
5
9E
100
AcDbEntity
8
1
62
256
6
ByLayer
370
13
48
1
60
0
100
AcDbLine
10
66.846698
20
-19.350452
30
0
11
66.790116
21
-19.414317
31
0
39
0
210
0
220
0
230
1
0
LINE
5
9F
100
AcDbEntity
8
1
62
256
6
ByLayer
370
13
48
1
60
0
100
AcDbLine
10
68.137988
20
-19.329065
30
0
11
68.196442
21
-19.39151
31
0
39
0
210
0
220
0
230
1
0
LINE
5
A0
100
AcDbEntity
8
1
62
256
6
ByLayer
370
18
48
1
60
0
100
AcDbLine
10
67.828175
20
-15.386039
30
0
11
67.878168
21
-15.385166
31
0
39
0
210
0
220
0
230
1
0
LINE
5
A1
100
AcDbEntity
8
1
62
256
6
ByLayer
370
18
48
1
60
0
100
AcDbLine
10
66.770293
20
-7.817298
30
0
11
66.750102
21
-7.817651
31
0
39
0
210
0
220
0
230
1
0
LINE
5
A2
100
AcDbEntity
8
1
62
256
6
ByLayer
370
18
48
1
60
0
100
AcDbLine
10
62.997202
20
-10.788543
30
0
11
62.98267
21
-9.956006
31
0
39
0
210
0
220
0
230
1
0
LINE
5
A3
100
AcDbEntity
8
1
62
256
6
ByLayer
370
18
48
1
60
0
100
AcDbLine
10
67.916295
20
-17.569487
30
0
11
67.888939
21
-16.002228
31
0
39
0
210
0
220
0
230
1
0
LINE
5
A4
100
AcDbEntity
8
1
62
256
6
ByLayer
370
18
48
1
60
0
100
AcDbLine
10
66.630477
20
-4.729318
30
0
11
66.599348
21
-5.179779
31
0
39
0
210
0
220
0
230
1
0
LINE
5
A5
100
AcDbEntity
8
1
62
256
6
ByLayer
370
18
48
1
60
0
100
AcDbLine
10
67.890707
20
-5.16232
30
0
11
67.835241
21
-4.617589
31
0
39
0
210
0
220
0
230
1
0
LINE
5
A6
100
AcDbEntity
8
1
62
256
6
ByLayer
370
18
48
1
60
0
100
AcDbLine
10
68.137988
20
-19.329065
30
0
11
68.077948
21
-19.175714
31
0
39
0
210
0
220
0
230
1
0
LINE
5
A7
100
AcDbEntity
8
1
62
256
6
ByLayer
370
13
48
1
60
0
100
AcDbLine
10
66.706677
20
-9.902589
30
0
11
66.648665
21
-6.579079
31
0
39
0
210
0
220
0
230
1
0
LINE
5
A8
100
AcDbEntity
8
1
62
256
6
ByLayer
370
13
48
1
60
0
100
AcDbLine
10
66.619221
20
-4.892228
30
0
11
66.616347
21
-4.727604
31
0
39
0
210
0
220
0
230
1
0
LINE
5
A9
100
AcDbEntity
8
1
62
256
6
ByLayer
370
18
48
1
60
0
100
AcDbLine
10
67.876623
20
-15.296652
30
0
11
67.868243
21
-14.816553
31
0
39
0
210
0
220
0
230
1
0
LINE
5
AA
100
AcDbEntity
8
1
62
256
6
ByLayer
370
18
48
1
60
0
100
AcDbLine
10
67.854542
20
-14.031662
30
0
11
67.476304
21
-14.053678
31
0
39
0
210
0
220
0
230
1
0
LINE
5
AB
100
AcDbEntity
8
1
62
256
6
ByLayer
370
18
48
1
60
0
100
AcDbLine
10
67.818455
20
-14.719645
30
0
11
67.868243
21
-14.816553
31
0
39
0
210
0
220
0
230
1
0
LINE
5
AC
100
AcDbEntity
8
1
62
256
6
ByLayer
370
18
48
1
60
0
100
AcDbLine
10
66.802494
20
-9.662058
30
0
11
67.777973
21
-9.645031
31
0
39
0
210
0
220
0
230
1
0
LINE
5
AD
100
AcDbEntity
8
1
62
256
6
ByLayer
370
18
48
1
60
0
100
AcDbLine
10
67.862736
20
-5.906259
30
0
11
66.65292
21
-5.927376
31
0
39
0
210
0
220
0
230
1
0
LINE
5
AE
100
AcDbEntity
8
1
62
256
6
ByLayer
370
18
48
1
60
0
100
AcDbLine
10
63.055898
20
-14.151223
30
0
11
63.056283
21
-14.173295
31
0
39
0
210
0
220
0
230
1
0
LINE
5
AF
100
AcDbEntity
8
1
62
256
6
ByLayer
370
18
48
1
60
0
100
AcDbLine
10
62.982872
20
-9.967588
30
0
11
62.982032
21
-9.919465
31
0
39
0
210
0
220
0
230
1
0
LINE
5
B0
100
AcDbEntity
8
1
62
256
6
ByLayer
370
18
48
1
60
0
100
AcDbLine
10
68.099985
20
-19.498255
30
0
11
66.890169
21
-19.519372
31
0
39
0
210
0
220
0
230
1
0
LINE
5
B1
100
AcDbEntity
8
1
62
256
6
ByLayer
370
18
48
1
60
0
100
AcDbLine
10
67.777973
20
-9.645031
30
0
11
67.854542
21
-14.031662
31
0
39
0
210
0
220
0
230
1
0
LINE
5
B2
100
AcDbEntity
8
1
62
256
6
ByLayer
370
18
48
1
60
0
100
AcDbLine
10
66.779702
20
-14.086224
30
0
11
63.055898
21
-14.151223
31
0
39
0
210
0
220
0
230
1
0
LINE
5
B3
100
AcDbEntity
8
1
62
256
6
ByLayer
370
18
48
1
60
0
100
AcDbLine
10
63.055898
20
-14.151223
30
0
11
63.055869
21
-14.149544
31
0
39
0
210
0
220
0
230
1
0
LINE
5
B4
100
AcDbEntity
8
1
62
256
6
ByLayer
370
18
48
1
60
0
100
AcDbLine
10
66.802494
20
-9.662058
30
0
11
66.805493
21
-9.833864
31
0
39
0
210
0
220
0
230
1
0
LINE
5
B5
100
AcDbEntity
8
SK1
62
256
6
ByLayer
370
18
48
1
60
0
100
AcDbLine
10
-57
20
-11.5
30
0
11
-56
21
-12.5
31
0
39
0
210
0
220
0
230
1
0
LINE
5
B6
100
AcDbEntity
8
1
62
256
6
ByLayer
370
18
48
1
60
0
100
AcDbLine
10
54.324028
20
10.381022
30
0
11
67.5
21
10.381022
31
0
39
0
210
0
220
0
230
1
0
LINE
5
B7
100
AcDbEntity
8
1
62
256
6
ByLayer
370
18
48
1
60
0
100
AcDbLine
10
68
20
-15.204757
30
0
11
68
21
-4.569756
31
0
39
0
210
0
220
0
230
1
0
LINE
5
B8
100
AcDbEntity
8
SK1
62
256
6
ByLayer
370
18
48
1
60
0
100
AcDbLine
10
-57
20
11.5
30
0
11
-56
21
12.5
31
0
39
0
210
0
220
0
230
1
0
LINE
5
B9
100
AcDbEntity
8
SK1
62
256
6
ByLayer
370
18
48
1
60
0
100
AcDbLine
10
-19
20
-6.78233
30
0
11
-31
21
-6.78233
31
0
39
0
210
0
220
0
230
1
0
LINE
5
BA
100
AcDbEntity
8
SK1
62
256
6
ByLayer
370
18
48
1
60
0
100
AcDbLine
10
-31
20
6.78233
30
0
11
-19
21
6.78233
31
0
39
0
210
0
220
0
230
1
0
LINE
5
BB
100
AcDbEntity
8
SK1
62
256
6
ByLayer
370
18
48
1
60
0
100
AcDbLine
10
-56
20
-6.78233
30
0
11
-56
21
-12.5
31
0
39
0
210
0
220
0
230
1
0
LINE
5
BC
100
AcDbEntity
8
SK1
62
256
6
ByLayer
370
18
48
1
60
0
100
AcDbLine
10
-56
20
12.5
30
0
11
-56
21
6.78233
31
0
39
0
210
0
220
0
230
1
0
LINE
5
BD
100
AcDbEntity
8
SK1
62
256
6
ByLayer
370
18
48
1
60
0
100
AcDbLine
10
-56
20
6.78233
30
0
11
-40
21
6.78233
31
0
39
0
210
0
220
0
230
1
0
LINE
5
BE
100
AcDbEntity
8
SK1
62
256
6
ByLayer
370
18
48
1
60
0
100
AcDbLine
10
-40
20
-6.78233
30
0
11
-56
21
-6.78233
31
0
39
0
210
0
220
0
230
1
0
LINE
5
BF
100
AcDbEntity
8
1
62
256
6
ByLayer
370
18
48
0.05
60
1
100
AcDbLine
10
-56
20
12.5
30
0
11
44.827318
21
12.5
31
0
39
0
210
0
220
0
230
1
0
LINE
5
C0
100
AcDbEntity
8
SK1
62
256
6
ByLayer
370
18
48
1
60
0
100
AcDbLine
10
-57
20
11.5
30
0
11
-57
21
4.690416
31
0
39
0
210
0
220
0
230
1
0
LINE
5
C1
100
AcDbEntity
8
SK1
62
256
6
ByLayer
370
18
48
1
60
0
100
AcDbLine
10
-57
20
-4.690416
30
0
11
-57
21
4.690416
31
0
39
0
210
0
220
0
230
1
0
LINE
5
C2
100
AcDbEntity
8
SK1
62
256
6
ByLayer
370
18
48
1
60
0
100
AcDbLine
10
-31
20
-6.78233
30
0
11
-31
21
6.78233
31
0
39
0
210
0
220
0
230
1
0
LINE
5
C3
100
AcDbEntity
8
SK1
62
256
6
ByLayer
370
18
48
1
60
0
100
AcDbLine
10
-19
20
-6.78233
30
0
11
-19
21
6.78233
31
0
39
0
210
0
220
0
230
1
0
LINE
5
C4
100
AcDbEntity
8
SK1
62
256
6
ByLayer
370
18
48
1
60
0
100
AcDbLine
10
-40
20
-6.78233
30
0
11
-40
21
6.78233
31
0
39
0
210
0
220
0
230
1
0
LINE
5
C5
100
AcDbEntity
8
1
62
256
6
ByLayer
370
13
48
1
60
0
100
AcDbLine
10
45.133664
20
12.604839
30
0
11
45.133664
21
-12.604839
31
0
39
0
210
0
220
0
230
1
0
LINE
5
C6
100
AcDbEntity
8
1
62
256
6
ByLayer
370
18
48
1
60
0
100
AcDbLine
10
67.5
20
10.381022
30
0
11
67.5
21
-4.715396
31
0
39
0
210
0
220
0
230
1
0
LINE
5
C7
100
AcDbEntity
8
1
62
256
6
ByLayer
370
18
48
1
60
0
100
AcDbLine
10
67.5
20
15.715042
30
0
11
67.5
21
15.699641
31
0
39
0
210
0
220
0
230
1
0
LINE
5
C8
100
AcDbEntity
8
1
62
256
6
ByLayer
370
13
48
1
60
0
100
AcDbLine
10
44.827318
20
12.5
30
0
11
44.827318
21
-12.5
31
0
39
0
210
0
220
0
230
1
0
LINE
5
C9
100
AcDbEntity
8
1
62
256
6
ByLayer
370
18
48
1
60
0
100
AcDbLine
10
54.324028
20
15.75
30
0
11
62.733751
21
15.75
31
0
39
0
210
0
220
0
230
1
0
LINE
5
CA
100
AcDbEntity
8
1
62
256
6
ByLayer
370
18
48
1
60
0
100
AcDbLine
10
68
20
15.204757
30
0
11
68
21
15.171219
31
0
39
0
210
0
220
0
230
1
0
LINE
5
CB
100
AcDbEntity
8
1
62
256
6
ByLayer
370
18
48
1
60
0
100
AcDbLine
10
68
20
10.297969
30
0
11
68
21
15.171219
31
0
39
0
210
0
220
0
230
1
0
LINE
5
CC
100
AcDbEntity
8
1
62
256
6
ByLayer
370
18
48
1
60
0
100
AcDbLine
10
68
20
10.297963
30
0
11
68
21
-4.569508
31
0
39
0
210
0
220
0
230
1
0
LINE
5
CD
100
AcDbEntity
8
1
62
256
6
ByLayer
370
18
48
1
60
0
100
AcDbLine
10
68
20
-4.569508
30
0
11
67.5
21
-4.715396
31
0
39
0
210
0
220
0
230
1
0
LINE
5
CE
100
AcDbEntity
8
1
62
256
6
ByLayer
370
13
48
1
60
0
100
AcDbLine
10
54.324028
20
10.381022
30
0
11
54.324028
21
-15.75
31
0
39
0
210
0
220
0
230
1
0
LINE
5
CF
100
AcDbEntity
8
1
62
256
6
ByLayer
370
13
48
1
60
0
100
AcDbLine
10
54.324028
20
15.75
30
0
11
54.324028
21
15.699641
31
0
39
0
210
0
220
0
230
1
0
LINE
5
D0
100
AcDbEntity
8
1
62
256
6
ByLayer
370
18
48
1
60
0
100
AcDbLine
10
54.324028
20
15.699641
30
0
11
67.5
21
15.699641
31
0
39
0
210
0
220
0
230
1
0
LINE
5
D1
100
AcDbEntity
8
81
62
256
6
ByLayer
370
13
48
1
60
0
100
AcDbLine
10
68
20
19.496448
30
0
11
68.461638
21
19.496448
31
0
39
0
210
0
220
0
230
1
0
LINE
5
D2
100
AcDbEntity
8
80
62
256
6
ByLayer
370
13
48
1
60
0
100
AcDbLine
10
0
20
0
30
0
11
-2.105773
21
0
31
0
39
0
210
0
220
0
230
1
0
LINE
5
D3
100
AcDbEntity
8
1
62
256
6
ByLayer
370
18
48
1
60
0
100
AcDbLine
10
0
20
12.5
30
0
11
44.827318
21
12.5
31
0
39
0
210
0
220
0
230
1
0
LINE
5
D4
100
AcDbEntity
8
1
62
256
6
ByLayer
370
18
48
1
60
0
100
AcDbLine
10
0
20
-12.5
30
0
11
44.827318
21
-12.5
31
0
39
0
210
0
220
0
230
1
0
LINE
5
D5
100
AcDbEntity
8
SK1
62
256
6
ByLayer
370
18
48
1
60
0
100
AcDbLine
10
-56
20
12.5
30
0
11
0
21
12.5
31
0
39
0
210
0
220
0
230
1
0
LINE
5
D6
100
AcDbEntity
8
SK1
62
256
6
ByLayer
370
18
48
1
60
0
100
AcDbLine
10
-56
20
-12.5
30
0
11
0
21
-12.5
31
0
39
0
210
0
220
0
230
1
0
LINE
5
D7
100
AcDbEntity
8
4
62
256
6
ByLayer
370
13
48
0.05
60
0
100
AcDbLine
10
0
20
0
30
0
11
68
21
0
31
0
39
0
210
0
220
0
230
1
0
LINE
5
D9
100
AcDbEntity
8
SK4
62
256
6
ByLayer
370
13
48
0.05
60
0
100
AcDbLine
10
-62
20
0
30
0
11
72
21
0
31
0
39
0
210
0
220
0
230
1
0
MTEXT
5
116
100
AcDbEntity
8
SK6
62
256
6
ByLayer
370
18
48
1
60
0
100
AcDbMText
10
-9.471038
20
-41.555928
30
0
210
0
220
0
230
1
1
\W0.7201;328-039B25-13M
40
3.5
41
0
44
1.084337
50
0
71
7
72
5
7
iso_b_vert
0
DIMENSION
5
124
100
AcDbEntity
8
SK2
62
256
6
ByLayer
370
13
48
1
60
0
100
AcDbDimension
2
DimnDraft3D1
10
-57
20
51.693428
30
0
11
2.607895
21
51.693428
31
0
70
32
71
5
72
1
41
1
210
0
220
0
230
1
3
Standard
100
AcDbAlignedDimension
13
68
23
21.083948
33
0
14
-57
24
6.277916
34
0
50
0
100
AcDbRotatedDimension
1001
ACAD
1000
DSTYLE
1002
{
1070
   279
1070
     0
1070
   172
1070
     1
1070
   173
1070
     1
1070
   340
1005
117
1070
   271
1070
     6
1070
   272
1070
     2
1070
    77
1070
     1
1070
    73
1070
     0
1070
   171
1070
     3
1070
   274
1070
     4
1070
   177
1070
     7
1070
   176
1070
     7
1070
   178
1070
     7
1070
    78
1070
     8
1070
    48
1040
-0.005
1070
    41
1041
3.5
1070
   147
1041
1.75
1070
    42
1041
1.5875
1070
    44
1041
2.0
1070
   140
1041
3.5
1070
   343
1005
0
1070
   344
1005
0
1002
}
0
DIMENSION
5
12F
100
AcDbEntity
8
2
62
256
6
ByLayer
370
13
48
1
60
0
100
AcDbDimension
2
DimnDraft3D2
10
0
20
38.855525
30
0
11
31.955263
21
38.855525
31
0
70
32
71
5
72
1
41
1
210
0
220
0
230
1
3
Standard
100
AcDbAlignedDimension
13
68
23
21.083948
33
0
14
0
24
1.5875
34
0
50
0
100
AcDbRotatedDimension
1001
ACAD
1000
DSTYLE
1002
{
1070
   279
1070
     0
1070
   172
1070
     1
1070
   173
1070
     1
1070
   340
1005
117
1070
   271
1070
     6
1070
   272
1070
     2
1070
    77
1070
     1
1070
    73
1070
     0
1070
   171
1070
     3
1070
   274
1070
     4
1070
   177
1070
     7
1070
   176
1070
     7
1070
   178
1070
     7
1070
    78
1070
     8
1070
    48
1040
-0.005
1070
    41
1041
3.5
1070
   147
1041
1.75
1070
    42
1041
1.5875
1070
    44
1041
2.0
1070
   140
1041
3.5
1070
   343
1005
0
1070
   344
1005
0
1002
}
0
DIMENSION
5
139
100
AcDbEntity
8
2
62
256
6
ByLayer
370
13
48
1
60
0
100
AcDbDimension
2
DimnDraft3D3
10
90.135596
20
-19.498255
30
0
11
90.135596
21
-6.069737
31
0
70
32
71
5
72
1
41
1
210
0
220
0
230
1
3
Standard
100
AcDbAlignedDimension
13
69.687485
23
19.498255
33
0
14
69.687485
24
-19.498255
34
0
50
90
100
AcDbRotatedDimension
1001
ACAD
1000
DSTYLE
1002
{
1070
    74
1070
     0
1070
   279
1070
     0
1070
   172
1070
     1
1070
   173
1070
     1
1070
   340
1005
117
1070
   271
1070
     6
1070
   272
1070
     2
1070
    77
1070
     1
1070
    73
1070
     0
1070
   171
1070
     3
1070
   274
1070
     4
1070
   177
1070
     7
1070
   176
1070
     7
1070
   178
1070
     7
1070
    78
1070
     8
1070
    48
1040
-0.005
1070
    41
1041
3.5
1070
   147
1041
1.75
1070
    42
1041
1.5875
1070
    44
1041
2.0
1070
   140
1041
3.5
1070
   343
1005
0
1070
   344
1005
0
1002
}
0
DIMENSION
5
143
100
AcDbEntity
8
SK2
62
256
6
ByLayer
370
13
48
1
60
0
100
AcDbDimension
2
DimnDraft3D4
10
-73.365244
20
-12.5
30
0
11
-73.365244
21
-6.64445
31
0
70
32
71
5
72
1
41
1
210
0
220
0
230
1
3
Standard
100
AcDbAlignedDimension
13
-57.5875
23
12.5
33
0
14
-57.5875
24
-12.5
34
0
50
90
100
AcDbRotatedDimension
1001
ACAD
1000
DSTYLE
1002
{
1070
    74
1070
     0
1070
   279
1070
     0
1070
   172
1070
     1
1070
   173
1070
     1
1070
   340
1005
117
1070
   271
1070
     6
1070
   272
1070
     2
1070
    77
1070
     1
1070
    73
1070
     0
1070
   171
1070
     3
1070
   274
1070
     4
1070
   177
1070
     7
1070
   176
1070
     7
1070
   178
1070
     7
1070
    78
1070
     8
1070
    48
1040
-0.005
1070
    41
1041
3.5
1070
   147
1041
1.75
1070
    42
1041
1.5875
1070
    44
1041
2.0
1070
   140
1041
3.5
1070
   343
1005
0
1070
   344
1005
0
1002
}
0
DIMENSION
5
14D
100
AcDbEntity
8
SK2
62
256
6
ByLayer
370
13
48
1
60
0
100
AcDbDimension
2
DimnDraft3D5
10
41.119696
20
16.521211
30
0
11
41.119696
21
27.145881
31
0
70
32
71
5
72
1
41
1
210
0
220
0
230
1
3
Standard
100
AcDbAlignedDimension
13
65.197307
23
19.521211
33
0
14
65.197307
24
16.521211
34
0
50
90
100
AcDbRotatedDimension
1001
ACAD
1000
DSTYLE
1002
{
1070
    74
1070
     0
1070
   279
1070
     0
1070
   172
1070
     1
1070
   173
1070
     1
1070
   340
1005
117
1070
   271
1070
     6
1070
   272
1070
     2
1070
    77
1070
     1
1070
    73
1070
     0
1070
   171
1070
     3
1070
   274
1070
     4
1070
   177
1070
     7
1070
   176
1070
     7
1070
   178
1070
     7
1070
    78
1070
     8
1070
    48
1040
-0.005
1070
    41
1041
3.5
1070
   147
1041
1.75
1070
    42
1041
1.5875
1070
    44
1041
2.0
1070
   140
1041
3.5
1070
   343
1005
0
1070
   344
1005
0
1002
}
0
ENDSEC
0
SECTION
2
OBJECTS
0
DICTIONARY
5
1b8
330
0
100
AcDbDictionary
280
0
281
1
3
ACAD_GROUP
350
1b9
3
ACAD_MLINESTYLE
350
1ba
0
DICTIONARY
5
1b9
330
0
100
AcDbDictionary
280
0
281
1
0
DICTIONARY
5
1ba
330
0
100
AcDbDictionary
280
0
281
1
3
Standard
350
18
0
MLINESTYLE
5
18
330
1ba
100
AcDbMlineStyle
2
Standard
70
0
3

62
256
51
90
52
90
71
2
49
-0.5
62
256
6
ByLayer
49
0.5
62
256
6
ByLayer
0
RASTERVARIABLES
5
1a6
330

100
AcDbRasterVariables
90
0
70
1
71
1
72
1
0
ENDSEC
0
EOF
