  0
SECTION
  2
HEADER
  9
$ACADVER
  1
AC1015
  9
$ACADMAINTVER
 70
     6
  9
$DWGCODEPAGE
  3
ANSI_1252
  9
$INSBASE
 10
0.0
 20
0.0
 30
0.0
  9
$EXTMIN
 10
1.000000000000000E+20
 20
1.000000000000000E+20
 30
1.000000000000000E+20
  9
$EXTMAX
 10
-1.000000000000000E+20
 20
-1.000000000000000E+20
 30
-1.000000000000000E+20
  9
$LIMMIN
 10
-170.0
 20
-170.0
  9
$LIMMAX
 10
519.0
 20
260.0
  9
$ORTHOMODE
 70
     0
  9
$REGENMODE
 70
     1
  9
$FILLMODE
 70
     1
  9
$QTEXTMODE
 70
     0
  9
$MIRRTEXT
 70
     0
  9
$LTSCALE
 40
1.0
  9
$ATTMODE
 70
     1
  9
$TEXTSIZE
 40
3.5
  9
$TRACEWID
 40
1.0
  9
$TEXTSTYLE
  7
SIMPLEX
  9
$CLAYER
  8
1
  9
$CELTYPE
  6
BYLAYER
  9
$CECOLOR
 62
   256
  9
$CELTSCALE
 40
1.0
  9
$DISPSILH
 70
     0
  9
$DIMSCALE
 40
1.0
  9
$DIMASZ
 40
2.5
  9
$DIMEXO
 40
0.0
  9
$DIMDLI
 40
3.75
  9
$DIMRND
 40
0.0
  9
$DIMDLE
 40
0.0
  9
$DIMEXE
 40
1.25
  9
$DIMTP
 40
0.0
  9
$DIMTM
 40
0.0
  9
$DIMTXT
 40
3.5
  9
$DIMCEN
 40
0.0
  9
$DIMTSZ
 40
0.0
  9
$DIMTOL
 70
     0
  9
$DIMLIM
 70
     0
  9
$DIMTIH
 70
     0
  9
$DIMTOH
 70
     0
  9
$DIMSE1
 70
     0
  9
$DIMSE2
 70
     0
  9
$DIMTAD
 70
     1
  9
$DIMZIN
 70
     8
  9
$DIMBLK
  1

  9
$DIMASO
 70
     1
  9
$DIMSHO
 70
     1
  9
$DIMPOST
  1

  9
$DIMAPOST
  1

  9
$DIMALT
 70
     0
  9
$DIMALTD
 70
     3
  9
$DIMALTF
 40
0.039370078
  9
$DIMLFAC
 40
1.0
  9
$DIMTOFL
 70
     0
  9
$DIMTVP
 40
0.0
  9
$DIMTIX
 70
     0
  9
$DIMSOXD
 70
     0
  9
$DIMSAH
 70
     0
  9
$DIMBLK1
  1

  9
$DIMBLK2
  1

  9
$DIMSTYLE
  2
STANDARD
  9
$DIMCLRD
 70
     0
  9
$DIMCLRE
 70
     0
  9
$DIMCLRT
 70
     0
  9
$DIMTFAC
 40
1.0
  9
$DIMGAP
 40
0.625
  9
$DIMJUST
 70
     0
  9
$DIMSD1
 70
     0
  9
$DIMSD2
 70
     0
  9
$DIMTOLJ
 70
     0
  9
$DIMTZIN
 70
     8
  9
$DIMALTZ
 70
     0
  9
$DIMALTTZ
 70
     0
  9
$DIMUPT
 70
     0
  9
$DIMDEC
 70
     2
  9
$DIMTDEC
 70
     2
  9
$DIMALTU
 70
     2
  9
$DIMALTTD
 70
     3
  9
$DIMTXSTY
  7
SIMPLEX
  9
$DIMAUNIT
 70
     0
  9
$DIMADEC
 70
     2
  9
$DIMALTRND
 40
0.0
  9
$DIMAZIN
 70
     2
  9
$DIMDSEP
 70
    46
  9
$DIMATFIT
 70
     3
  9
$DIMFRAC
 70
     0
  9
$DIMLDRBLK
  1

  9
$DIMLUNIT
 70
     2
  9
$DIMLWD
 70
    -2
  9
$DIMLWE
 70
    -2
  9
$DIMTMOVE
 70
     0
  9
$LUNITS
 70
     2
  9
$LUPREC
 70
     4
  9
$SKETCHINC
 40
1.0
  9
$FILLETRAD
 40
0.0
  9
$AUNITS
 70
     0
  9
$AUPREC
 70
     0
  9
$MENU
  1
c:\tdm21\cad\caduti13\tdm13
  9
$ELEVATION
 40
0.0
  9
$PELEVATION
 40
0.0
  9
$THICKNESS
 40
0.0
  9
$LIMCHECK
 70
     0
  9
$CHAMFERA
 40
0.0
  9
$CHAMFERB
 40
0.0
  9
$CHAMFERC
 40
0.0
  9
$CHAMFERD
 40
0.0
  9
$SKPOLY
 70
     0
  9
$TDCREATE
 40
2454957.551975972
  9
$TDUCREATE
 40
2454957.510309306
  9
$TDUPDATE
 40
2456961.559552292
  9
$TDUUPDATE
 40
2456961.517885625
  9
$TDINDWG
 40
0.0009643519
  9
$TDUSRTIMER
 40
0.0009475231
  9
$USRTIMER
 70
     1
  9
$ANGBASE
 50
0.0
  9
$ANGDIR
 70
     0
  9
$PDMODE
 70
     1
  9
$PDSIZE
 40
0.0
  9
$PLINEWID
 40
0.0
  9
$SPLFRAME
 70
     0
  9
$SPLINETYPE
 70
     6
  9
$SPLINESEGS
 70
     8
  9
$HANDSEED
  5
5F3
  9
$SURFTAB1
 70
     6
  9
$SURFTAB2
 70
     6
  9
$SURFTYPE
 70
     6
  9
$SURFU
 70
     6
  9
$SURFV
 70
     6
  9
$UCSBASE
  2

  9
$UCSNAME
  2

  9
$UCSORG
 10
0.0
 20
0.0
 30
0.0
  9
$UCSXDIR
 10
1.0
 20
0.0
 30
0.0
  9
$UCSYDIR
 10
0.0
 20
1.0
 30
0.0
  9
$UCSORTHOREF
  2

  9
$UCSORTHOVIEW
 70
     0
  9
$UCSORGTOP
 10
0.0
 20
0.0
 30
0.0
  9
$UCSORGBOTTOM
 10
0.0
 20
0.0
 30
0.0
  9
$UCSORGLEFT
 10
0.0
 20
0.0
 30
0.0
  9
$UCSORGRIGHT
 10
0.0
 20
0.0
 30
0.0
  9
$UCSORGFRONT
 10
0.0
 20
0.0
 30
0.0
  9
$UCSORGBACK
 10
0.0
 20
0.0
 30
0.0
  9
$PUCSBASE
  2

  9
$PUCSNAME
  2

  9
$PUCSORG
 10
0.0
 20
0.0
 30
0.0
  9
$PUCSXDIR
 10
1.0
 20
0.0
 30
0.0
  9
$PUCSYDIR
 10
0.0
 20
1.0
 30
0.0
  9
$PUCSORTHOREF
  2

  9
$PUCSORTHOVIEW
 70
     0
  9
$PUCSORGTOP
 10
0.0
 20
0.0
 30
0.0
  9
$PUCSORGBOTTOM
 10
0.0
 20
0.0
 30
0.0
  9
$PUCSORGLEFT
 10
0.0
 20
0.0
 30
0.0
  9
$PUCSORGRIGHT
 10
0.0
 20
0.0
 30
0.0
  9
$PUCSORGFRONT
 10
0.0
 20
0.0
 30
0.0
  9
$PUCSORGBACK
 10
0.0
 20
0.0
 30
0.0
  9
$USERI1
 70
     0
  9
$USERI2
 70
     0
  9
$USERI3
 70
     0
  9
$USERI4
 70
     0
  9
$USERI5
 70
     0
  9
$USERR1
 40
0.0
  9
$USERR2
 40
0.0
  9
$USERR3
 40
0.0
  9
$USERR4
 40
0.0
  9
$USERR5
 40
0.0
  9
$WORLDVIEW
 70
     1
  9
$SHADEDGE
 70
     3
  9
$SHADEDIF
 70
    70
  9
$TILEMODE
 70
     1
  9
$MAXACTVP
 70
    64
  9
$PINSBASE
 10
0.0
 20
0.0
 30
0.0
  9
$PLIMCHECK
 70
     0
  9
$PEXTMIN
 10
0.0
 20
0.0
 30
0.0
  9
$PEXTMAX
 10
0.0
 20
0.0
 30
0.0
  9
$PLIMMIN
 10
0.0
 20
0.0
  9
$PLIMMAX
 10
12.0
 20
9.0
  9
$UNITMODE
 70
     0
  9
$VISRETAIN
 70
     0
  9
$PLINEGEN
 70
     0
  9
$PSLTSCALE
 70
     1
  9
$TREEDEPTH
 70
  3020
  9
$CMLSTYLE
  2
STANDARD
  9
$CMLJUST
 70
     0
  9
$CMLSCALE
 40
20.0
  9
$PROXYGRAPHICS
 70
     1
  9
$MEASUREMENT
 70
     1
  9
$CELWEIGHT
370
    -1
  9
$ENDCAPS
280
     0
  9
$JOINSTYLE
280
     0
  9
$LWDISPLAY
290
     0
  9
$INSUNITS
 70
     4
  9
$HYPERLINKBASE
  1

  9
$STYLESHEET
  1
MONOCHROME.CTB
  9
$XEDIT
290
     1
  9
$CEPSNTYPE
380
     0
  9
$PSTYLEMODE
290
     1
  9
$FINGERPRINTGUID
  2
{46B44192-1510-48B1-B61B-CBE2ADA013A7}
  9
$VERSIONGUID
  2
{6160D478-9A74-4C97-9D8A-D4A65CE74B12}
  9
$EXTNAMES
290
     1
  9
$PSVPSCALE
 40
0.0
  9
$OLESTARTUP
290
     0
  0
ENDSEC
  0
SECTION
  2
CLASSES
  0
CLASS
  1
ACDBDICTIONARYWDFLT
  2
AcDbDictionaryWithDefault
  3
ObjectDBX Classes
 90
        0
280
     0
281
     0
  0
CLASS
  1
ACDBPLACEHOLDER
  2
AcDbPlaceHolder
  3
ObjectDBX Classes
 90
        0
280
     0
281
     0
  0
CLASS
  1
LAYOUT
  2
AcDbLayout
  3
ObjectDBX Classes
 90
        0
280
     0
281
     0
  0
CLASS
  1
DICTIONARYVAR
  2
AcDbDictionaryVar
  3
ObjectDBX Classes
 90
        0
280
     0
281
     0
  0
CLASS
  1
TABLESTYLE
  2
AcDbTableStyle
  3
ObjectDBX Classes
 90
     4095
280
     0
281
     0
  0
CLASS
  1
SCALE
  2
AcDbScale
  3
ObjectDBX Classes
 90
     1153
280
     0
281
     0
  0
CLASS
  1
MATERIAL
  2
AcDbMaterial
  3
ObjectDBX Classes
 90
     1153
280
     0
281
     0
  0
CLASS
  1
VISUALSTYLE
  2
AcDbVisualStyle
  3
ObjectDBX Classes
 90
     4095
280
     0
281
     0
  0
ENDSEC
  0
SECTION
  2
TABLES
  0
TABLE
  2
VPORT
  5
8
330
0
100
AcDbSymbolTable
 70
     1
  0
VPORT
  5
39A
330
8
100
AcDbSymbolTableRecord
100
AcDbViewportTableRecord
  2
*Active
 70
     0
 10
0.0
 20
0.0
 11
1.0
 21
1.0
 12
218.9201881351169
 22
109.7549380673833
 13
0.0
 23
0.0
 14
5.0
 24
5.0
 15
5.0
 25
5.0
 16
0.0
 26
0.0
 36
1.0
 17
0.0
 27
0.0
 37
0.0
 40
564.6711112651689
 41
1.066073697585768
 42
50.0
 43
0.0
 44
0.0
 50
0.0
 51
0.0
 71
     0
 72
  2000
 73
     1
 74
     1
 75
     0
 76
     0
 77
     0
 78
     0
281
     0
 65
     1
110
0.0
120
0.0
130
0.0
111
1.0
121
0.0
131
0.0
112
0.0
122
1.0
132
0.0
 79
     0
146
0.0
  0
ENDTAB
  0
TABLE
  2
LTYPE
  5
5
330
0
100
AcDbSymbolTable
 70
     3
  0
LTYPE
  5
12
330
5
100
AcDbSymbolTableRecord
100
AcDbLinetypeTableRecord
  2
BYBLOCK
 70
     0
  3

 72
    65
 73
     0
 40
0.0
  0
LTYPE
  5
13
330
5
100
AcDbSymbolTableRecord
100
AcDbLinetypeTableRecord
  2
BYLAYER
 70
     0
  3

 72
    65
 73
     0
 40
0.0
  0
LTYPE
  5
14
330
5
100
AcDbSymbolTableRecord
100
AcDbLinetypeTableRecord
  2
CONTINUOUS
 70
     0
  3
Solid line
 72
    65
 73
     0
 40
0.0
  0
LTYPE
  5
20
330
5
100
AcDbSymbolTableRecord
100
AcDbLinetypeTableRecord
  2
HIDDEN
 70
     0
  3
Hidden __ __ __ __ __ __ __ __ __ __ __ __ __ _
 72
    65
 73
     2
 40
9.524999999999997
 49
6.349999999999998
 74
     0
 49
-3.174999999999998
 74
     0
  0
LTYPE
  5
351
330
5
100
AcDbSymbolTableRecord
100
AcDbLinetypeTableRecord
  2
CENTER
 70
     0
  3
Dash dot __ . __ . __ . __ . __ . __ . __ . __
 72
    65
 73
     4
 40
25.4
 49
12.7
 74
     0
 49
-6.349999999999998
 74
     0
 49
0.0
 74
     0
 49
-6.349999999999998
 74
     0
  0
ENDTAB
  0
TABLE
  2
LAYER
  5
2
330
0
100
AcDbSymbolTable
 70
    16
  0
LAYER
  5
F
330
2
100
AcDbSymbolTableRecord
100
AcDbLayerTableRecord
  2
0
 70
     0
 62
     7
  6
CONTINUOUS
370
    -3
390
300
  0
LAYER
  5
23
330
2
100
AcDbSymbolTableRecord
100
AcDbLayerTableRecord
  2
1
 70
     0
 62
     4
  6
CONTINUOUS
370
    -3
390
300
  0
LAYER
  5
24
330
2
100
AcDbSymbolTableRecord
100
AcDbLayerTableRecord
  2
SK1
 70
     0
 62
     4
  6
CONTINUOUS
370
    -3
390
300
  0
LAYER
  5
25
330
2
100
AcDbSymbolTableRecord
100
AcDbLayerTableRecord
  2
2
 70
     0
 62
     7
  6
CONTINUOUS
370
    -3
390
300
  0
LAYER
  5
26
330
2
100
AcDbSymbolTableRecord
100
AcDbLayerTableRecord
  2
2L
 70
     0
 62
     7
  6
CONTINUOUS
370
    -3
390
300
  0
LAYER
  5
27
330
2
100
AcDbSymbolTableRecord
100
AcDbLayerTableRecord
  2
SK2
 70
     0
 62
     7
  6
CONTINUOUS
370
    -3
390
300
  0
LAYER
  5
28
330
2
100
AcDbSymbolTableRecord
100
AcDbLayerTableRecord
  2
3
 70
     0
 62
     1
  6
HIDDEN
370
    -3
390
300
  0
LAYER
  5
29
330
2
100
AcDbSymbolTableRecord
100
AcDbLayerTableRecord
  2
SK3
 70
     0
 62
     1
  6
HIDDEN
370
    -3
390
300
  0
LAYER
  5
2A
330
2
100
AcDbSymbolTableRecord
100
AcDbLayerTableRecord
  2
4
 70
     0
 62
     2
  6
CENTER
370
    -3
390
300
  0
LAYER
  5
2B
330
2
100
AcDbSymbolTableRecord
100
AcDbLayerTableRecord
  2
SK4
 70
     0
 62
     2
  6
CENTER
370
    -3
390
300
  0
LAYER
  5
2C
330
2
100
AcDbSymbolTableRecord
100
AcDbLayerTableRecord
  2
5
 70
     0
 62
    -7
  6
CONTINUOUS
370
    -3
390
300
  0
LAYER
  5
2D
330
2
100
AcDbSymbolTableRecord
100
AcDbLayerTableRecord
  2
6
 70
     0
 62
     5
  6
CONTINUOUS
370
    -3
390
300
  0
LAYER
  5
2E
330
2
100
AcDbSymbolTableRecord
100
AcDbLayerTableRecord
  2
SK6
 70
     0
 62
     5
  6
CONTINUOUS
370
    -3
390
300
  0
LAYER
  5
2F
330
2
100
AcDbSymbolTableRecord
100
AcDbLayerTableRecord
  2
DEFPOINTS
 70
     0
 62
     7
  6
CONTINUOUS
290
     0
370
    -3
390
300
  0
LAYER
  5
375
330
2
100
AcDbSymbolTableRecord
100
AcDbLayerTableRecord
  2
CUT
 70
     0
 62
     1
  6
CONTINUOUS
370
    -3
390
300
  0
LAYER
  5
376
330
2
100
AcDbSymbolTableRecord
100
AcDbLayerTableRecord
  2
NOCUT
 70
     0
 62
     7
  6
CONTINUOUS
370
    -3
390
300
  0
ENDTAB
  0
TABLE
  2
STYLE
  5
3
330
0
100
AcDbSymbolTable
 70
     4
  0
STYLE
  5
10
330
3
100
AcDbSymbolTableRecord
100
AcDbTextStyleTableRecord
  2
STANDARD
 70
     0
 40
0.0
 41
1.0
 50
0.0
 71
     0
 42
5.0
  3
txt
  4

  0
STYLE
  5
1D
330
3
100
AcDbSymbolTableRecord
100
AcDbTextStyleTableRecord
  2
TXT
 70
     0
 40
8.0
 41
1.0
 50
0.0
 71
     0
 42
8.0
  3
txt
  4

  0
STYLE
  5
1E
330
3
100
AcDbSymbolTableRecord
100
AcDbTextStyleTableRecord
  2
SIMPLEX
 70
     0
 40
0.0
 41
1.0
 50
0.0
 71
     0
 42
3.5
  3
simplex
  4

  0
STYLE
  5
34C
330
3
100
AcDbSymbolTableRecord
100
AcDbTextStyleTableRecord
  2

 70
     1
 40
0.0
 41
1.0
 50
0.0
 71
     0
 42
2.5
  3
ltypeshp.shx
  4

  0
ENDTAB
  0
TABLE
  2
VIEW
  5
6
330
0
100
AcDbSymbolTable
 70
     0
  0
ENDTAB
  0
TABLE
  2
UCS
  5
7
330
0
100
AcDbSymbolTable
 70
     0
  0
ENDTAB
  0
TABLE
  2
APPID
  5
9
330
0
100
AcDbSymbolTable
 70
     1
  0
APPID
  5
11
330
9
100
AcDbSymbolTableRecord
100
AcDbRegAppTableRecord
  2
ACAD
 70
     0
  0
ENDTAB
  0
TABLE
  2
DIMSTYLE
  5
A
330
0
100
AcDbSymbolTable
 70
     1
100
AcDbDimStyleTable
  0
DIMSTYLE
105
3F
102
{ACAD_REACTORS
330
57C
330
58A
330
597
330
5A4
330
5B2
330
5BF
102
}
330
A
100
AcDbSymbolTableRecord
100
AcDbDimStyleTableRecord
  2
STANDARD
 70
     0
 41
2.5
 42
0.0
 43
3.75
 44
1.25
 73
     0
 74
     0
 77
     1
 78
     8
 79
     2
140
3.5
141
0.0
143
0.039370078
147
0.625
171
     3
178
     0
179
     2
271
     2
272
     2
274
     3
283
     0
284
     8
340
1E
  0
ENDTAB
  0
TABLE
  2
BLOCK_RECORD
  5
1
330
0
100
AcDbSymbolTable
 70
     6
  0
BLOCK_RECORD
  5
18
330
1
100
AcDbSymbolTableRecord
100
AcDbBlockTableRecord
  2
*MODEL_SPACE
340
303
  0
BLOCK_RECORD
  5
338
330
1
100
AcDbSymbolTableRecord
100
AcDbBlockTableRecord
  2
*Paper_Space
340
33B
  0
BLOCK_RECORD
  5
57D
330
1
100
AcDbSymbolTableRecord
100
AcDbBlockTableRecord
  2
*D0
340
0
  0
BLOCK_RECORD
  5
58B
330
1
100
AcDbSymbolTableRecord
100
AcDbBlockTableRecord
  2
*D1
340
0
  0
BLOCK_RECORD
  5
598
330
1
100
AcDbSymbolTableRecord
100
AcDbBlockTableRecord
  2
*D2
340
0
  0
BLOCK_RECORD
  5
5A5
330
1
100
AcDbSymbolTableRecord
100
AcDbBlockTableRecord
  2
*D3
340
0
  0
BLOCK_RECORD
  5
5B3
330
1
100
AcDbSymbolTableRecord
100
AcDbBlockTableRecord
  2
*D4
340
0
  0
BLOCK_RECORD
  5
5C0
330
1
100
AcDbSymbolTableRecord
100
AcDbBlockTableRecord
  2
*D5
340
0
  0
ENDTAB
  0
ENDSEC
  0
SECTION
  2
BLOCKS
  0
BLOCK
  5
32
330
18
100
AcDbEntity
  8
0
100
AcDbBlockBegin
  2
*MODEL_SPACE
 70
     0
 10
0.0
 20
0.0
 30
0.0
  3
*MODEL_SPACE
  1

  0
ENDBLK
  5
33
330
18
100
AcDbEntity
  8
0
100
AcDbBlockEnd
  0
BLOCK
  5
339
330
338
100
AcDbEntity
 67
     1
  8
0
100
AcDbBlockBegin
  2
*Paper_Space
 70
     0
 10
0.0
 20
0.0
 30
0.0
  3
*Paper_Space
  1

  0
ENDBLK
  5
33A
330
338
100
AcDbEntity
 67
     1
  8
0
100
AcDbBlockEnd
  0
BLOCK
  5
57E
330
57D
100
AcDbEntity
  8
0
100
AcDbBlockBegin
  2
*D0
 70
     1
 10
0.0
 20
0.0
 30
0.0
  3
*D0
  1

  0
LINE
  5
580
330
57D
100
AcDbEntity
  8
2
 62
     0
370
    -2
100
AcDbLine
 10
40.48
 20
7.9375
 30
0.0
 11
56.72999999999997
 21
7.937500000000057
 31
0.0
  0
LINE
  5
581
330
57D
100
AcDbEntity
  8
2
 62
     0
370
    -2
100
AcDbLine
 10
40.48
 20
-7.9375
 30
0.0
 11
56.73000000000003
 21
-7.937499999999943
 31
0.0
  0
LINE
  5
582
330
57D
100
AcDbEntity
  8
2
 62
     0
370
    -2
100
AcDbLine
 10
55.48000000000003
 20
-7.937499999999948
 30
0.0
 11
55.4800000000001
 21
-28.48749999999994
 31
0.0
  0
LINE
  5
583
330
57D
100
AcDbEntity
  8
2
 62
     0
370
    -2
100
AcDbLine
 10
55.47999999999998
 20
5.437500000000052
 30
0.0
 11
55.48000000000002
 21
-5.437499999999948
 31
0.0
  0
SOLID
  5
584
330
57D
100
AcDbEntity
  8
2
 62
     0
100
AcDbTrace
 10
55.89666666666664
 20
5.437500000000054
 30
0.0
 11
55.06333333333331
 21
5.437500000000051
 31
0.0
 12
55.47999999999997
 22
7.937500000000052
 32
0.0
 13
55.47999999999997
 23
7.937500000000052
 33
0.0
  0
SOLID
  5
585
330
57D
100
AcDbEntity
  8
2
 62
     0
100
AcDbTrace
 10
55.06333333333335
 20
-5.437499999999949
 30
0.0
 11
55.89666666666668
 21
-5.437499999999946
 31
0.0
 12
55.48000000000003
 22
-7.937499999999948
 32
0.0
 13
55.48000000000003
 23
-7.937499999999948
 33
0.0
  0
MTEXT
  5
586
330
57D
100
AcDbEntity
  8
2
 62
     0
100
AcDbMText
 10
53.08225000000007
 20
-19.46249999999995
 30
0.0
 40
3.5
 41
0.0
 71
     5
 72
     1
  1
%%c15.88
  7
SIMPLEX
 11
-3.580687802255623E-15
 21
1.0
 31
0.0
 73
     1
 44
1.0
  0
POINT
  5
587
330
57D
100
AcDbEntity
  8
DEFPOINTS
 62
     0
100
AcDbPoint
 10
40.48
 20
7.9375
 30
0.0
  0
POINT
  5
588
330
57D
100
AcDbEntity
  8
DEFPOINTS
 62
     0
100
AcDbPoint
 10
40.48
 20
-7.9375
 30
0.0
  0
POINT
  5
589
330
57D
100
AcDbEntity
  8
DEFPOINTS
 62
     0
100
AcDbPoint
 10
55.48000000000003
 20
-7.937499999999948
 30
0.0
  0
ENDBLK
  5
57F
330
57D
100
AcDbEntity
  8
0
100
AcDbBlockEnd
  0
BLOCK
  5
58C
330
58B
100
AcDbEntity
  8
0
100
AcDbBlockBegin
  2
*D1
 70
     1
 10
0.0
 20
0.0
 30
0.0
  3
*D1
  1

  0
LINE
  5
58E
330
58B
100
AcDbEntity
  8
2
 62
     0
370
    -2
100
AcDbLine
 10
0.0
 20
0.0
 30
0.0
 11
0.0
 21
76.25
 31
0.0
  0
LINE
  5
58F
330
58B
100
AcDbEntity
  8
2
 62
     0
370
    -2
100
AcDbLine
 10
40.48
 20
0.0
 30
0.0
 11
40.48
 21
76.25
 31
0.0
  0
LINE
  5
590
330
58B
100
AcDbEntity
  8
2
 62
     0
370
    -2
100
AcDbLine
 10
2.5
 20
75.0
 30
0.0
 11
37.98
 21
75.0
 31
0.0
  0
SOLID
  5
591
330
58B
100
AcDbEntity
  8
2
 62
     0
100
AcDbTrace
 10
2.5
 20
75.41666666666667
 30
0.0
 11
2.5
 21
74.58333333333333
 31
0.0
 12
0.0
 22
75.0
 32
0.0
 13
0.0
 23
75.0
 33
0.0
  0
SOLID
  5
592
330
58B
100
AcDbEntity
  8
2
 62
     0
100
AcDbTrace
 10
37.98
 20
74.58333333333333
 30
0.0
 11
37.98
 21
75.41666666666667
 31
0.0
 12
40.48
 22
75.0
 32
0.0
 13
40.48
 23
75.0
 33
0.0
  0
MTEXT
  5
593
330
58B
100
AcDbEntity
  8
2
 62
     0
100
AcDbMText
 10
20.24
 20
77.438
 30
0.0
 40
3.5
 41
0.0
 71
     5
 72
     1
  1
40.48
  7
SIMPLEX
 73
     1
 44
1.0
  0
POINT
  5
594
330
58B
100
AcDbEntity
  8
DEFPOINTS
 62
     0
100
AcDbPoint
 10
0.0
 20
0.0
 30
0.0
  0
POINT
  5
595
330
58B
100
AcDbEntity
  8
DEFPOINTS
 62
     0
100
AcDbPoint
 10
40.48
 20
0.0
 30
0.0
  0
POINT
  5
596
330
58B
100
AcDbEntity
  8
DEFPOINTS
 62
     0
100
AcDbPoint
 10
40.48
 20
75.0
 30
0.0
  0
ENDBLK
  5
58D
330
58B
100
AcDbEntity
  8
0
100
AcDbBlockEnd
  0
BLOCK
  5
599
330
598
100
AcDbEntity
  8
0
100
AcDbBlockBegin
  2
*D2
 70
     1
 10
0.0
 20
0.0
 30
0.0
  3
*D2
  1

  0
LINE
  5
59B
330
598
100
AcDbEntity
  8
2
 62
     0
370
    -2
100
AcDbLine
 10
7.079999999999998
 20
7.9375
 30
0.0
 11
7.079999999999998
 21
61.25
 31
0.0
  0
LINE
  5
59C
330
598
100
AcDbEntity
  8
2
 62
     0
370
    -2
100
AcDbLine
 10
40.48
 20
7.9375
 30
0.0
 11
40.48
 21
61.25
 31
0.0
  0
LINE
  5
59D
330
598
100
AcDbEntity
  8
2
 62
     0
370
    -2
100
AcDbLine
 10
9.579999999999998
 20
60.0
 30
0.0
 11
37.98
 21
60.0
 31
0.0
  0
SOLID
  5
59E
330
598
100
AcDbEntity
  8
2
 62
     0
100
AcDbTrace
 10
9.579999999999998
 20
60.41666666666666
 30
0.0
 11
9.579999999999998
 21
59.58333333333334
 31
0.0
 12
7.079999999999998
 22
60.0
 32
0.0
 13
7.079999999999998
 23
60.0
 33
0.0
  0
SOLID
  5
59F
330
598
100
AcDbEntity
  8
2
 62
     0
100
AcDbTrace
 10
37.98
 20
59.58333333333334
 30
0.0
 11
37.98
 21
60.41666666666666
 31
0.0
 12
40.48
 22
60.0
 32
0.0
 13
40.48
 23
60.0
 33
0.0
  0
MTEXT
  5
5A0
330
598
100
AcDbEntity
  8
2
 62
     0
100
AcDbMText
 10
23.78
 20
62.438
 30
0.0
 40
3.5
 41
0.0
 71
     5
 72
     1
  1
33.4
  7
SIMPLEX
 73
     1
 44
1.0
  0
POINT
  5
5A1
330
598
100
AcDbEntity
  8
DEFPOINTS
 62
     0
100
AcDbPoint
 10
7.079999999999998
 20
7.9375
 30
0.0
  0
POINT
  5
5A2
330
598
100
AcDbEntity
  8
DEFPOINTS
 62
     0
100
AcDbPoint
 10
40.48
 20
7.9375
 30
0.0
  0
POINT
  5
5A3
330
598
100
AcDbEntity
  8
DEFPOINTS
 62
     0
100
AcDbPoint
 10
40.48
 20
60.0
 30
0.0
  0
ENDBLK
  5
59A
330
598
100
AcDbEntity
  8
0
100
AcDbBlockEnd
  0
BLOCK
  5
5A6
330
5A5
100
AcDbEntity
  8
0
100
AcDbBlockBegin
  2
*D3
 70
     1
 10
0.0
 20
0.0
 30
0.0
  3
*D3
  1

  0
LINE
  5
5A8
330
5A5
100
AcDbEntity
  8
SK2
 62
     0
370
    -2
100
AcDbLine
 10
-48.42000000000001
 20
7.9375
 30
0.0
 11
-64.67000000004052
 21
7.93749999991707
 31
0.0
  0
LINE
  5
5A9
330
5A5
100
AcDbEntity
  8
SK2
 62
     0
370
    -2
100
AcDbLine
 10
-48.42000000000001
 20
-7.9375
 30
0.0
 11
-64.6699999999595
 21
-7.93750000008293
 31
0.0
  0
LINE
  5
5AA
330
5A5
100
AcDbEntity
  8
SK2
 62
     0
370
    -2
100
AcDbLine
 10
-63.4199999999595
 20
-7.937500000076551
 30
0.0
 11
-63.41999999985462
 21
-28.48750000007655
 31
0.0
  0
LINE
  5
5AB
330
5A5
100
AcDbEntity
  8
SK2
 62
     0
370
    -2
100
AcDbLine
 10
-63.42000000002776
 20
5.437499999923449
 30
0.0
 11
-63.41999999997226
 21
-5.437500000076551
 31
0.0
  0
SOLID
  5
5AC
330
5A5
100
AcDbEntity
  8
SK2
 62
     0
100
AcDbTrace
 10
-63.00333333336109
 20
5.437499999925575
 30
0.0
 11
-63.83666666669442
 21
5.437499999921322
 31
0.0
 12
-63.42000000004052
 22
7.937499999923449
 32
0.0
 13
-63.42000000004052
 23
7.937499999923449
 33
0.0
  0
SOLID
  5
5AD
330
5A5
100
AcDbEntity
  8
SK2
 62
     0
100
AcDbTrace
 10
-63.83666666663893
 20
-5.437500000078678
 30
0.0
 11
-63.0033333333056
 21
-5.437500000074425
 31
0.0
 12
-63.4199999999595
 22
-7.937500000076551
 32
0.0
 13
-63.4199999999595
 23
-7.937500000076551
 33
0.0
  0
MTEXT
  5
5AE
330
5A5
100
AcDbEntity
  8
SK2
 62
     0
100
AcDbMText
 10
-65.81774999990068
 20
-19.46250000008878
 30
0.0
 40
3.5
 41
0.0
 71
     5
 72
     1
  1
%%c15.88
  7
SIMPLEX
 11
-5.103375290164826E-12
 21
1.0
 31
0.0
 73
     1
 44
1.0
  0
POINT
  5
5AF
330
5A5
100
AcDbEntity
  8
DEFPOINTS
 62
     0
100
AcDbPoint
 10
-48.42000000000001
 20
7.9375
 30
0.0
  0
POINT
  5
5B0
330
5A5
100
AcDbEntity
  8
DEFPOINTS
 62
     0
100
AcDbPoint
 10
-48.42000000000001
 20
-7.9375
 30
0.0
  0
POINT
  5
5B1
330
5A5
100
AcDbEntity
  8
DEFPOINTS
 62
     0
100
AcDbPoint
 10
-63.4199999999595
 20
-7.937500000076551
 30
0.0
  0
ENDBLK
  5
5A7
330
5A5
100
AcDbEntity
  8
0
100
AcDbBlockEnd
  0
BLOCK
  5
5B4
330
5B3
100
AcDbEntity
  8
0
100
AcDbBlockBegin
  2
*D4
 70
     1
 10
0.0
 20
0.0
 30
0.0
  3
*D4
  1

  0
LINE
  5
5B6
330
5B3
100
AcDbEntity
  8
SK2
 62
     0
370
    -2
100
AcDbLine
 10
-48.42000000000001
 20
0.0
 30
0.0
 11
-48.42000000000001
 21
91.25
 31
0.0
  0
LINE
  5
5B7
330
5B3
100
AcDbEntity
  8
SK2
 62
     0
370
    -2
100
AcDbLine
 10
40.48
 20
0.0
 30
0.0
 11
40.48
 21
91.25
 31
0.0
  0
LINE
  5
5B8
330
5B3
100
AcDbEntity
  8
SK2
 62
     0
370
    -2
100
AcDbLine
 10
-45.92000000000001
 20
90.0
 30
0.0
 11
37.98
 21
90.0
 31
0.0
  0
SOLID
  5
5B9
330
5B3
100
AcDbEntity
  8
SK2
 62
     0
100
AcDbTrace
 10
-45.92000000000001
 20
90.41666666666667
 30
0.0
 11
-45.92000000000001
 21
89.58333333333333
 31
0.0
 12
-48.42000000000001
 22
90.0
 32
0.0
 13
-48.42000000000001
 23
90.0
 33
0.0
  0
SOLID
  5
5BA
330
5B3
100
AcDbEntity
  8
SK2
 62
     0
100
AcDbTrace
 10
37.98
 20
89.58333333333333
 30
0.0
 11
37.98
 21
90.41666666666667
 31
0.0
 12
40.48
 22
90.0
 32
0.0
 13
40.48
 23
90.0
 33
0.0
  0
MTEXT
  5
5BB
330
5B3
100
AcDbEntity
  8
SK2
 62
     0
100
AcDbMText
 10
-3.970000000000006
 20
92.39775
 30
0.0
 40
3.5
 41
0.0
 71
     5
 72
     1
  1
88.9
  7
SIMPLEX
 73
     1
 44
1.0
  0
POINT
  5
5BC
330
5B3
100
AcDbEntity
  8
DEFPOINTS
 62
     0
100
AcDbPoint
 10
-48.42000000000001
 20
0.0
 30
0.0
  0
POINT
  5
5BD
330
5B3
100
AcDbEntity
  8
DEFPOINTS
 62
     0
100
AcDbPoint
 10
40.48
 20
0.0
 30
0.0
  0
POINT
  5
5BE
330
5B3
100
AcDbEntity
  8
DEFPOINTS
 62
     0
100
AcDbPoint
 10
40.48
 20
90.0
 30
0.0
  0
ENDBLK
  5
5B5
330
5B3
100
AcDbEntity
  8
0
100
AcDbBlockEnd
  0
BLOCK
  5
5C1
330
5C0
100
AcDbEntity
  8
0
100
AcDbBlockBegin
  2
*D5
 70
     1
 10
0.0
 20
0.0
 30
0.0
  3
*D5
  1

  0
LINE
  5
5C3
330
5C0
100
AcDbEntity
  8
2
 62
     0
370
    -2
100
AcDbLine
 10
39.65476026693172
 20
-10.37636639812113
 30
0.0
 11
43.55803811097402
 21
-32.51295507195483
 31
0.0
  0
MTEXT
  5
5C4
330
5C0
100
AcDbEntity
  8
2
 62
     0
100
AcDbMText
 10
44.66852966497972
 20
-25.00277370706876
 30
0.0
 40
3.5
 41
0.0
 71
     5
 72
     1
  1
R1.52
  7
SIMPLEX
 11
0.17364817766693
 21
-0.9848077530122081
 31
0.0
 73
     1
 44
1.0
  0
SOLID
  5
5C5
330
5C0
100
AcDbEntity
  8
2
 62
     0
100
AcDbTrace
 10
40.06509683068681
 20
-10.30401299075991
 30
0.0
 11
39.24442370317664
 21
-10.44871980548235
 31
0.0
 12
39.2206398227644
 22
-7.914347015590605
 32
0.0
 13
39.2206398227644
 23
-7.914347015590605
 33
0.0
  0
POINT
  5
5C6
330
5C0
100
AcDbEntity
  8
DEFPOINTS
 62
     0
100
AcDbPoint
 10
39.2206398227644
 20
-7.914347015590605
 30
0.0
  0
POINT
  5
5C7
330
5C0
100
AcDbEntity
  8
DEFPOINTS
 62
     0
100
AcDbPoint
 10
38.956
 20
-6.4135
 30
0.0
  0
ENDBLK
  5
5C2
330
5C0
100
AcDbEntity
  8
0
100
AcDbBlockEnd
  0
ENDSEC
  0
SECTION
  2
ENTITIES
  0
LINE
  5
3D6
330
18
100
AcDbEntity
  8
SK4
100
AcDbLine
 10
-50.42000000000001
 20
0.0
 30
0.0
 11
7.079999999999998
 21
0.0
 31
0.0
  0
LINE
  5
3D7
330
18
100
AcDbEntity
  8
4
100
AcDbLine
 10
5.079999999999998
 20
0.0
 30
0.0
 11
42.48
 21
0.0
 31
0.0
  0
LINE
  5
3D8
330
18
100
AcDbEntity
  8
SK4
100
AcDbLine
 10
5.079999999999998
 20
0.0
 30
0.0
 11
42.48
 21
0.0
 31
0.0
  0
ARC
  5
3D9
330
18
100
AcDbEntity
  8
1
100
AcDbCircle
 10
-6.768935188937972
 20
-28.56675720925404
 30
0.0
 40
34.26166437241515
100
AcDbArc
 50
66.15832509533953
 51
67.97418950726937
  0
LINE
  5
3DA
330
18
100
AcDbEntity
  8
1
100
AcDbLine
 10
6.079999999999998
 20
7.9375
 30
0.0
 11
6.079999999999997
 21
7.937377097176648
 31
0.0
  0
LINE
  5
3DB
330
18
100
AcDbEntity
  8
1
100
AcDbLine
 10
6.079999999999997
 20
7.937377097176648
 30
0.0
 11
6.079999999999998
 21
7.900719103007953
 31
0.0
  0
LINE
  5
3DC
330
18
100
AcDbEntity
  8
1
100
AcDbLine
 10
6.079999999999998
 20
7.900719103007953
 30
0.0
 11
6.079999999999997
 21
7.372986042803159
 31
0.0
  0
ARC
  5
3DD
330
18
100
AcDbEntity
  8
1
100
AcDbCircle
 10
1.888441208918168
 20
5.294955007473994
 30
0.0
 40
13.34340200658116
100
AcDbArc
 50
288.3083078630922
 51
292.8966636214942
  0
LINE
  5
3DE
330
18
100
AcDbEntity
  8
1
100
AcDbLine
 10
6.079999999999998
 20
-5.934615065651631
 30
0.0
 11
6.079999999999998
 21
-7.937499999999997
 31
0.0
  0
ARC
  5
3DF
330
18
100
AcDbEntity
  8
1
100
AcDbCircle
 10
15.88210158429147
 20
10.5998509018683
 30
0.0
 40
19.22157761294624
100
AcDbArc
 50
239.3393322492494
 51
242.7463529257427
  0
ARC
  5
3E0
330
18
100
AcDbEntity
  8
1
100
AcDbCircle
 10
38.81407822432446
 20
36.56623255293685
 30
0.0
 40
51.30548175876019
100
AcDbArc
 50
230.3554556037188
 51
231.7909232025489
  0
LINE
  5
3E1
330
18
100
AcDbEntity
  8
1
100
AcDbLine
 10
6.079999999999998
 20
5.271076765950262
 30
0.0
 11
6.079999999999997
 21
-2.939895076806276
 31
0.0
  0
ARC
  5
3E2
330
18
100
AcDbEntity
  8
1
100
AcDbCircle
 10
-9.949713146167879
 20
-18.75196079397726
 30
0.0
 40
28.88008000671681
100
AcDbArc
 50
53.86654477440206
 51
56.28623672653465
  0
ARC
  5
3E3
330
18
100
AcDbEntity
  8
1
100
AcDbCircle
 10
1.888441208917809
 20
-5.29495500747495
 30
0.0
 40
13.34340200658218
100
AcDbArc
 50
67.10333637850592
 51
71.69169213690762
  0
LINE
  5
3E4
330
18
100
AcDbEntity
  8
1
100
AcDbLine
 10
6.079999999999998
 20
7.9375
 30
0.0
 11
-0.0000000000000062
 21
7.9375
 31
0.0
  0
LINE
  5
3E5
330
18
100
AcDbEntity
  8
1
100
AcDbLine
 10
7.079999999999993
 20
6.99718273211826
 30
0.0
 11
7.079999999999992
 21
4.572984337384793
 31
0.0
  0
LINE
  5
3E6
330
18
100
AcDbEntity
  8
1
100
AcDbLine
 10
7.079999999999998
 20
2.771227741751947
 30
0.0
 11
7.079999999999998
 21
4.572984337384796
 31
0.0
  0
LINE
  5
3E7
330
18
100
AcDbEntity
  8
1
100
AcDbLine
 10
7.079999999999998
 20
-3.747444471015716
 30
0.0
 11
7.079999999999998
 21
2.771227741751947
 31
0.0
  0
LINE
  5
3E8
330
18
100
AcDbEntity
  8
1
100
AcDbLine
 10
7.079999999999993
 20
-3.747444471015751
 30
0.0
 11
7.079999999999992
 21
-6.487813229435118
 31
0.0
  0
LINE
  5
3E9
330
18
100
AcDbEntity
  8
1
100
AcDbLine
 10
7.079999999999998
 20
-6.997182732118263
 30
0.0
 11
7.079999999999998
 21
-6.487813229435119
 31
0.0
  0
LINE
  5
3EA
330
18
100
AcDbEntity
  8
1
100
AcDbLine
 10
-0.0000000000000036
 20
-7.937499999999998
 30
0.0
 11
6.079999999999996
 21
-7.937499999999998
 31
0.0
  0
LINE
  5
3EB
330
18
100
AcDbEntity
  8
1
 62
     1
100
AcDbLine
 10
40.48
 20
-5.057756493702446
 30
0.0
 11
40.4752940263657
 21
-5.22881112143632
 31
0.0
  0
LINE
  5
3EC
330
18
100
AcDbEntity
  8
1
 62
     1
100
AcDbLine
 10
40.4752940263657
 20
-5.22881112143632
 30
0.0
 11
40.4601448856871
 21
-5.400062108212175
 31
0.0
  0
LINE
  5
3ED
330
18
100
AcDbEntity
  8
1
 62
     1
100
AcDbLine
 10
40.4601448856871
 20
-5.400062108212175
 30
0.0
 11
40.44811189604546
 21
-5.485468336533079
 31
0.0
  0
LINE
  5
3EE
330
18
100
AcDbEntity
  8
1
 62
     1
100
AcDbLine
 10
40.44811189604546
 20
-5.485468336533079
 30
0.0
 11
40.43277089770174
 21
-5.570555096052262
 31
0.0
  0
LINE
  5
3EF
330
18
100
AcDbEntity
  8
1
 62
     1
100
AcDbLine
 10
40.43277089770174
 20
-5.570555096052262
 30
0.0
 11
40.41386670351744
 21
-5.655015269725562
 31
0.0
  0
LINE
  5
3F0
330
18
100
AcDbEntity
  8
1
 62
     1
100
AcDbLine
 10
40.41386670351744
 20
-5.655015269725562
 30
0.0
 11
40.3911175002516
 21
-5.738587938071547
 31
0.0
  0
LINE
  5
3F1
330
18
100
AcDbEntity
  8
1
 62
     1
100
AcDbLine
 10
40.3911175002516
 20
-5.738587938071547
 30
0.0
 11
40.36425107655349
 21
-5.820881076747364
 31
0.0
  0
LINE
  5
3F2
330
18
100
AcDbEntity
  8
1
 62
     1
100
AcDbLine
 10
40.36425107655349
 20
-5.820881076747364
 30
0.0
 11
40.33300532778567
 21
-5.90144117502268
 31
0.0
  0
LINE
  5
3F3
330
18
100
AcDbEntity
  8
1
 62
     1
100
AcDbLine
 10
40.33300532778567
 20
-5.90144117502268
 30
0.0
 11
40.29715277844385
 21
-5.979707835491274
 31
0.0
  0
LINE
  5
3F4
330
18
100
AcDbEntity
  8
1
 62
     1
100
AcDbLine
 10
40.29715277844385
 20
-5.979707835491274
 30
0.0
 11
40.25656405110424
 21
-6.054975278831509
 31
0.0
  0
LINE
  5
3F5
330
18
100
AcDbEntity
  8
1
 62
     1
100
AcDbLine
 10
40.25656405110424
 20
-6.054975278831509
 30
0.0
 11
40.23446140244261
 21
-6.091277534349755
 31
0.0
  0
LINE
  5
3F6
330
18
100
AcDbEntity
  8
1
 62
     1
100
AcDbLine
 10
40.23446140244261
 20
-6.091277534349755
 30
0.0
 11
40.21118036143726
 21
-6.126528134433219
 31
0.0
  0
LINE
  5
3F7
330
18
100
AcDbEntity
  8
1
 62
     1
100
AcDbLine
 10
40.21118036143726
 20
-6.126528134433219
 30
0.0
 11
40.1867233383904
 21
-6.160641638289048
 31
0.0
  0
LINE
  5
3F8
330
18
100
AcDbEntity
  8
1
 62
     1
100
AcDbLine
 10
40.1867233383904
 20
-6.160641638289048
 30
0.0
 11
40.16111855004335
 21
-6.193522396912555
 31
0.0
  0
LINE
  5
3F9
330
18
100
AcDbEntity
  8
1
 62
     1
100
AcDbLine
 10
40.16111855004335
 20
-6.193522396912555
 30
0.0
 11
40.13439651691076
 21
-6.225074765747493
 31
0.0
  0
LINE
  5
3FA
330
18
100
AcDbEntity
  8
1
 62
     1
100
AcDbLine
 10
40.13439651691076
 20
-6.225074765747493
 30
0.0
 11
40.10660675633433
 21
-6.255206579204382
 31
0.0
  0
LINE
  5
3FB
330
18
100
AcDbEntity
  8
1
 62
     1
100
AcDbLine
 10
40.10660675633433
 20
-6.255206579204382
 30
0.0
 11
40.07780070798734
 21
-6.283830885165216
 31
0.0
  0
LINE
  5
3FC
330
18
100
AcDbEntity
  8
1
 62
     1
100
AcDbLine
 10
40.07780070798734
 20
-6.283830885165216
 30
0.0
 11
40.04804259129445
 21
-6.310875145118448
 31
0.0
  0
LINE
  5
3FD
330
18
100
AcDbEntity
  8
1
 62
     1
100
AcDbLine
 10
40.04804259129445
 20
-6.310875145118448
 30
0.0
 11
40.01740158268799
 21
-6.336269495732015
 31
0.0
  0
LINE
  5
3FE
330
18
100
AcDbEntity
  8
1
 62
     1
100
AcDbLine
 10
40.01740158268799
 20
-6.336269495732015
 30
0.0
 11
39.98595072375021
 21
-6.359966774779388
 31
0.0
  0
LINE
  5
3FF
330
18
100
AcDbEntity
  8
1
 62
     1
100
AcDbLine
 10
39.98595072375021
 20
-6.359966774779388
 30
0.0
 11
39.95377084566989
 21
-6.381920240517172
 31
0.0
  0
LINE
  5
400
330
18
100
AcDbEntity
  8
1
 62
     1
100
AcDbLine
 10
39.95377084566989
 20
-6.381920240517172
 30
0.0
 11
39.92093704515352
 21
-6.402109724252938
 31
0.0
  0
LINE
  5
401
330
18
100
AcDbEntity
  8
1
 62
     1
100
AcDbLine
 10
39.92093704515352
 20
-6.402109724252938
 30
0.0
 11
39.88753448119463
 21
-6.420513748931227
 31
0.0
  0
LINE
  5
402
330
18
100
AcDbEntity
  8
1
 62
     1
100
AcDbLine
 10
39.88753448119463
 20
-6.420513748931227
 30
0.0
 11
39.85363428319349
 21
-6.437136779015335
 31
0.0
  0
LINE
  5
403
330
18
100
AcDbEntity
  8
1
 62
     1
100
AcDbLine
 10
39.85363428319349
 20
-6.437136779015335
 30
0.0
 11
39.81931922841891
 21
-6.451980841554739
 31
0.0
  0
LINE
  5
404
330
18
100
AcDbEntity
  8
1
 62
     1
100
AcDbLine
 10
39.81931922841891
 20
-6.451980841554739
 30
0.0
 11
39.78465232210964
 21
-6.465070001452558
 31
0.0
  0
LINE
  5
405
330
18
100
AcDbEntity
  8
1
 62
     1
100
AcDbLine
 10
39.78465232210964
 20
-6.465070001452558
 30
0.0
 11
39.74970448136807
 21
-6.476425844210446
 31
0.0
  0
LINE
  5
406
330
18
100
AcDbEntity
  8
1
 62
     1
100
AcDbLine
 10
39.74970448136807
 20
-6.476425844210446
 30
0.0
 11
39.71451905556532
 21
-6.486088730767165
 31
0.0
  0
LINE
  5
407
330
18
100
AcDbEntity
  8
1
 62
     1
100
AcDbLine
 10
39.71451905556532
 20
-6.486088730767165
 30
0.0
 11
39.67917948512645
 21
-6.49409023022411
 31
0.0
  0
LINE
  5
408
330
18
100
AcDbEntity
  8
1
 62
     1
100
AcDbLine
 10
39.67917948512645
 20
-6.49409023022411
 30
0.0
 11
39.64374062038505
 21
-6.500469313454188
 31
0.0
  0
LINE
  5
409
330
18
100
AcDbEntity
  8
1
 62
     1
100
AcDbLine
 10
39.64374062038505
 20
-6.500469313454188
 30
0.0
 11
39.60822184607166
 21
-6.505278497786316
 31
0.0
  0
LINE
  5
40A
330
18
100
AcDbEntity
  8
1
 62
     1
100
AcDbLine
 10
39.60822184607166
 20
-6.505278497786316
 30
0.0
 11
39.57268582753038
 21
-6.508562400971794
 31
0.0
  0
LINE
  5
40B
330
18
100
AcDbEntity
  8
1
 62
     1
100
AcDbLine
 10
39.57268582753038
 20
-6.508562400971794
 30
0.0
 11
39.53717427367401
 21
-6.510367596542475
 31
0.0
  0
LINE
  5
40C
330
18
100
AcDbEntity
  8
1
 62
     1
100
AcDbLine
 10
39.53717427367401
 20
-6.510367596542475
 30
0.0
 11
39.5016967738394
 21
-6.510744862287651
 31
0.0
  0
LINE
  5
40D
330
18
100
AcDbEntity
  8
1
 62
     1
100
AcDbLine
 10
39.5016967738394
 20
-6.510744862287651
 30
0.0
 11
39.46629874719089
 21
-6.509742246651331
 31
0.0
  0
LINE
  5
40E
330
18
100
AcDbEntity
  8
1
 62
     1
100
AcDbLine
 10
39.46629874719089
 20
-6.509742246651331
 30
0.0
 11
39.43101053519973
 21
-6.507407019501618
 31
0.0
  0
LINE
  5
40F
330
18
100
AcDbEntity
  8
1
 62
     1
100
AcDbLine
 10
39.43101053519973
 20
-6.507407019501618
 30
0.0
 11
39.39583513815207
 21
-6.503784727594258
 31
0.0
  0
LINE
  5
410
330
18
100
AcDbEntity
  8
1
 62
     1
100
AcDbLine
 10
39.39583513815207
 20
-6.503784727594258
 30
0.0
 11
39.32594175394901
 21
-6.49286188313796
 31
0.0
  0
LINE
  5
411
330
18
100
AcDbEntity
  8
1
 62
     1
100
AcDbLine
 10
39.32594175394901
 20
-6.49286188313796
 30
0.0
 11
39.25673606895337
 21
-6.477312526344495
 31
0.0
  0
LINE
  5
412
330
18
100
AcDbEntity
  8
1
 62
     1
100
AcDbLine
 10
39.25673606895337
 20
-6.477312526344495
 30
0.0
 11
39.1883206927405
 21
-6.457451669254817
 31
0.0
  0
LINE
  5
413
330
18
100
AcDbEntity
  8
1
 62
     1
100
AcDbLine
 10
39.1883206927405
 20
-6.457451669254817
 30
0.0
 11
39.12074894923873
 21
-6.433557844607551
 31
0.0
  0
LINE
  5
414
330
18
100
AcDbEntity
  8
1
 62
     1
100
AcDbLine
 10
39.12074894923873
 20
-6.433557844607551
 30
0.0
 11
39.05412722193079
 21
-6.405910265366535
 31
0.0
  0
LINE
  5
415
330
18
100
AcDbEntity
  8
1
 62
     1
100
AcDbLine
 10
39.05412722193079
 20
-6.405910265366535
 30
0.0
 11
39.00478017497716
 21
-6.382841830599199
 31
0.0
  0
LINE
  5
416
330
18
100
AcDbEntity
  8
1
 62
     1
100
AcDbLine
 10
39.00478017497716
 20
-6.382841830599199
 30
0.0
 11
38.956
 21
-6.357884561358341
 31
0.0
  0
LINE
  5
417
330
18
100
AcDbEntity
  8
1
 62
     1
100
AcDbLine
 10
40.47999999999999
 20
-6.413398939592492
 30
0.0
 11
40.47750268114434
 21
-6.500576964031199
 31
0.0
  0
LINE
  5
418
330
18
100
AcDbEntity
  8
1
 62
     1
100
AcDbLine
 10
40.47750268114434
 20
-6.500576964031199
 30
0.0
 11
40.47004168552699
 21
-6.587277542049921
 31
0.0
  0
LINE
  5
419
330
18
100
AcDbEntity
  8
1
 62
     1
100
AcDbLine
 10
40.47004168552699
 20
-6.587277542049921
 30
0.0
 11
40.45769160420024
 21
-6.673084394209751
 31
0.0
  0
LINE
  5
41A
330
18
100
AcDbEntity
  8
1
 62
     1
100
AcDbLine
 10
40.45769160420024
 20
-6.673084394209751
 30
0.0
 11
40.44058058478409
 21
-6.757532678434512
 31
0.0
  0
LINE
  5
41B
330
18
100
AcDbEntity
  8
1
 62
     1
100
AcDbLine
 10
40.44058058478409
 20
-6.757532678434512
 30
0.0
 11
40.41889164783168
 21
-6.840193084193688
 31
0.0
  0
LINE
  5
41C
330
18
100
AcDbEntity
  8
1
 62
     1
100
AcDbLine
 10
40.41889164783168
 20
-6.840193084193688
 30
0.0
 11
40.3928338779417
 21
-6.920699177791035
 31
0.0
  0
LINE
  5
41D
330
18
100
AcDbEntity
  8
1
 62
     1
100
AcDbLine
 10
40.3928338779417
 20
-6.920699177791035
 30
0.0
 11
40.36266361391198
 21
-6.998669452290443
 31
0.0
  0
LINE
  5
41E
330
18
100
AcDbEntity
  8
1
 62
     1
100
AcDbLine
 10
40.36266361391198
 20
-6.998669452290443
 30
0.0
 11
40.32865843131915
 21
-7.073797327028125
 31
0.0
  0
LINE
  5
41F
330
18
100
AcDbEntity
  8
1
 62
     1
100
AcDbLine
 10
40.32865843131915
 20
-7.073797327028125
 30
0.0
 11
40.29109533830702
 21
-7.145841015029859
 31
0.0
  0
LINE
  5
420
330
18
100
AcDbEntity
  8
1
 62
     1
100
AcDbLine
 10
40.29109533830702
 20
-7.145841015029859
 30
0.0
 11
40.25027733363855
 21
-7.214564862470005
 31
0.0
  0
LINE
  5
421
330
18
100
AcDbEntity
  8
1
 62
     1
100
AcDbLine
 10
40.25027733363855
 20
-7.214564862470005
 30
0.0
 11
40.20649378499429
 21
-7.279809805899093
 31
0.0
  0
LINE
  5
422
330
18
100
AcDbEntity
  8
1
 62
     1
100
AcDbLine
 10
40.20649378499429
 20
-7.279809805899093
 30
0.0
 11
40.16001519841701
 21
-7.341464950734469
 31
0.0
  0
LINE
  5
423
330
18
100
AcDbEntity
  8
1
 62
     1
100
AcDbLine
 10
40.16001519841701
 20
-7.341464950734469
 30
0.0
 11
40.11112033150443
 21
-7.399428110044941
 31
0.0
  0
LINE
  5
424
330
18
100
AcDbEntity
  8
1
 62
     1
100
AcDbLine
 10
40.11112033150443
 20
-7.399428110044941
 30
0.0
 11
40.0600566106912
 21
-7.453652919816551
 31
0.0
  0
LINE
  5
425
330
18
100
AcDbEntity
  8
1
 62
     1
100
AcDbLine
 10
40.0600566106912
 20
-7.453652919816551
 30
0.0
 11
40.00704749943678
 21
-7.504120442662972
 31
0.0
  0
LINE
  5
426
330
18
100
AcDbEntity
  8
1
 62
     1
100
AcDbLine
 10
40.00704749943678
 20
-7.504120442662972
 30
0.0
 11
39.9523171534393
 21
-7.550814930172449
 31
0.0
  0
LINE
  5
427
330
18
100
AcDbEntity
  8
1
 62
     1
100
AcDbLine
 10
39.9523171534393
 20
-7.550814930172449
 30
0.0
 11
39.89605461253957
 21
-7.593754504636959
 31
0.0
  0
LINE
  5
428
330
18
100
AcDbEntity
  8
1
 62
     1
100
AcDbLine
 10
39.89605461253957
 20
-7.593754504636959
 30
0.0
 11
39.83841160707578
 21
-7.632978894017675
 31
0.0
  0
LINE
  5
429
330
18
100
AcDbEntity
  8
1
 62
     1
100
AcDbLine
 10
39.83841160707578
 20
-7.632978894017675
 30
0.0
 11
39.77958243414748
 21
-7.668499772728599
 31
0.0
  0
LINE
  5
42A
330
18
100
AcDbEntity
  8
1
 62
     1
100
AcDbLine
 10
39.77958243414748
 20
-7.668499772728599
 30
0.0
 11
39.71969711162345
 21
-7.700363750684416
 31
0.0
  0
LINE
  5
42B
330
18
100
AcDbEntity
  8
1
 62
     1
100
AcDbLine
 10
39.71969711162345
 20
-7.700363750684416
 30
0.0
 11
39.65888244050349
 21
-7.728619812665935
 31
0.0
  0
LINE
  5
42C
330
18
100
AcDbEntity
  8
1
 62
     1
100
AcDbLine
 10
39.65888244050349
 20
-7.728619812665935
 30
0.0
 11
39.59727329019616
 21
-7.75330485541606
 31
0.0
  0
LINE
  5
42D
330
18
100
AcDbEntity
  8
1
 62
     1
100
AcDbLine
 10
39.59727329019616
 20
-7.75330485541606
 30
0.0
 11
39.53494621649379
 21
-7.774479921570432
 31
0.0
  0
LINE
  5
42E
330
18
100
AcDbEntity
  8
1
 62
     1
100
AcDbLine
 10
39.53494621649379
 20
-7.774479921570432
 30
0.0
 11
39.47203091224083
 21
-7.792179888398429
 31
0.0
  0
LINE
  5
42F
330
18
100
AcDbEntity
  8
1
 62
     1
100
AcDbLine
 10
39.47203091224083
 20
-7.792179888398429
 30
0.0
 11
39.40857887726284
 21
-7.806460958040404
 31
0.0
  0
LINE
  5
430
330
18
100
AcDbEntity
  8
1
 62
     1
100
AcDbLine
 10
39.40857887726284
 20
-7.806460958040404
 30
0.0
 11
39.34470297337013
 21
-7.817359655350534
 31
0.0
  0
LINE
  5
431
330
18
100
AcDbEntity
  8
1
 62
     1
100
AcDbLine
 10
39.34470297337013
 20
-7.817359655350534
 30
0.0
 11
39.28044885752801
 21
-7.82492128088508
 31
0.0
  0
LINE
  5
432
330
18
100
AcDbEntity
  8
1
 62
     1
100
AcDbLine
 10
39.28044885752801
 20
-7.82492128088508
 30
0.0
 11
39.21590474833909
 21
-7.829182598655839
 31
0.0
  0
LINE
  5
433
330
18
100
AcDbEntity
  8
1
 62
     1
100
AcDbLine
 10
39.21590474833909
 20
-7.829182598655839
 30
0.0
 11
39.15112558184882
 21
-7.830178262478362
 31
0.0
  0
LINE
  5
434
330
18
100
AcDbEntity
  8
1
 62
     1
100
AcDbLine
 10
39.15112558184882
 20
-7.830178262478362
 30
0.0
 11
39.0861705448104
 21
-7.827941093853755
 31
0.0
  0
LINE
  5
435
330
18
100
AcDbEntity
  8
1
 62
     1
100
AcDbLine
 10
39.0861705448104
 20
-7.827941093853755
 30
0.0
 11
39.02111477517091
 21
-7.822499573899312
 31
0.0
  0
LINE
  5
436
330
18
100
AcDbEntity
  8
1
 62
     1
100
AcDbLine
 10
39.02111477517091
 20
-7.822499573899312
 30
0.0
 11
38.956
 21
-7.813878859380154
 31
0.0
  0
LINE
  5
437
330
18
100
AcDbEntity
  8
1
 62
     1
100
AcDbLine
 10
7.08
 20
4.572984337384794
 30
0.0
 11
8.447175834578545
 21
3.527252627393861
 31
0.0
  0
LINE
  5
438
330
18
100
AcDbEntity
  8
1
 62
     1
100
AcDbLine
 10
8.447175834578545
 20
3.527252627393861
 30
0.0
 11
12.54856490782359
 21
0.0000000000007297
 31
0.0
  0
LINE
  5
439
330
18
100
AcDbEntity
  8
1
 62
     1
100
AcDbLine
 10
7.079999999999997
 20
6.997182732118263
 30
0.0
 11
8.058855649415849
 21
6.543953910635623
 31
0.0
  0
LINE
  5
43A
330
18
100
AcDbEntity
  8
1
 62
     1
100
AcDbLine
 10
8.058855649415849
 20
6.543953910635623
 30
0.0
 11
9.03766749710914
 21
6.011790104203281
 31
0.0
  0
LINE
  5
43B
330
18
100
AcDbEntity
  8
1
 62
     1
100
AcDbLine
 10
9.03766749710914
 20
6.011790104203281
 30
0.0
 11
10.0164798035007
 21
5.407095561308947
 31
0.0
  0
LINE
  5
43C
330
18
100
AcDbEntity
  8
1
 62
     1
100
AcDbLine
 10
10.0164798035007
 20
5.407095561308947
 30
0.0
 11
10.99529169506089
 21
4.737165216341374
 31
0.0
  0
LINE
  5
43D
330
18
100
AcDbEntity
  8
1
 62
     1
100
AcDbLine
 10
16.69132409126068
 20
7.9375
 30
0.0
 11
17.20977034786858
 21
7.924055466092955
 31
0.0
  0
LINE
  5
43E
330
18
100
AcDbEntity
  8
1
 62
     1
100
AcDbLine
 10
17.20977034786858
 20
7.924055466092955
 30
0.0
 11
17.7281963337636
 21
7.883773565457417
 31
0.0
  0
LINE
  5
43F
330
18
100
AcDbEntity
  8
1
 62
     1
100
AcDbLine
 10
17.7281963337636
 20
7.883773565457417
 30
0.0
 11
18.24663313889571
 21
7.816789752222595
 31
0.0
  0
LINE
  5
440
330
18
100
AcDbEntity
  8
1
 62
     1
100
AcDbLine
 10
18.24663313889571
 20
7.816789752222595
 30
0.0
 11
18.76503433364914
 21
7.723335440091719
 31
0.0
  0
LINE
  5
441
330
18
100
AcDbEntity
  8
1
 62
     1
100
AcDbLine
 10
18.76503433364914
 20
7.723335440091719
 30
0.0
 11
19.28343551639489
 21
7.603724897712567
 31
0.0
  0
LINE
  5
442
330
18
100
AcDbEntity
  8
1
 62
     1
100
AcDbLine
 10
19.28343551639489
 20
7.603724897712567
 30
0.0
 11
19.80183664189413
 21
7.458363128150022
 31
0.0
  0
LINE
  5
443
330
18
100
AcDbEntity
  8
1
 62
     1
100
AcDbLine
 10
19.80183664189413
 20
7.458363128150022
 30
0.0
 11
20.3202385460416
 21
7.287742756496733
 31
0.0
  0
LINE
  5
444
330
18
100
AcDbEntity
  8
1
 62
     1
100
AcDbLine
 10
20.3202385460416
 20
7.287742756496733
 30
0.0
 11
20.83863959888736
 21
7.092440902758528
 31
0.0
  0
LINE
  5
445
330
18
100
AcDbEntity
  8
1
 62
     1
100
AcDbLine
 10
20.83863959888736
 20
7.092440902758528
 30
0.0
 11
21.35704198632274
 21
6.873120055507814
 31
0.0
  0
LINE
  5
446
330
18
100
AcDbEntity
  8
1
 62
     1
100
AcDbLine
 10
21.35704198632274
 20
6.873120055507814
 30
0.0
 11
21.87544303051346
 21
6.630521555398974
 31
0.0
  0
LINE
  5
447
330
18
100
AcDbEntity
  8
1
 62
     1
100
AcDbLine
 10
21.87544303051346
 20
6.630521555398974
 30
0.0
 11
22.91225791442144
 21
6.07885021161941
 31
0.0
  0
LINE
  5
448
330
18
100
AcDbEntity
  8
1
 62
     1
100
AcDbLine
 10
22.91225791442144
 20
6.07885021161941
 30
0.0
 11
23.94915044460635
 21
5.444849899026389
 31
0.0
  0
LINE
  5
449
330
18
100
AcDbEntity
  8
1
 62
     1
100
AcDbLine
 10
23.94915044460635
 20
5.444849899026389
 30
0.0
 11
24.9860089958281
 21
4.737164672209174
 31
0.0
  0
LINE
  5
44A
330
18
100
AcDbEntity
  8
1
 62
     1
100
AcDbLine
 10
12.54856490782293
 20
7.937499999999999
 30
0.0
 11
12.9858092700844
 21
7.927935612368346
 31
0.0
  0
LINE
  5
44B
330
18
100
AcDbEntity
  8
1
 62
     1
100
AcDbLine
 10
12.9858092700844
 20
7.927935612368346
 30
0.0
 11
13.42303368944684
 21
7.899274277272106
 31
0.0
  0
LINE
  5
44C
330
18
100
AcDbEntity
  8
1
 62
     1
100
AcDbLine
 10
13.42303368944684
 20
7.899274277272106
 30
0.0
 11
13.86024267064534
 21
7.85158221397047
 31
0.0
  0
LINE
  5
44D
330
18
100
AcDbEntity
  8
1
 62
     1
100
AcDbLine
 10
13.86024267064534
 20
7.85158221397047
 30
0.0
 11
14.29745336741978
 21
7.78497469114001
 31
0.0
  0
LINE
  5
44E
330
18
100
AcDbEntity
  8
1
 62
     1
100
AcDbLine
 10
14.29745336741978
 20
7.78497469114001
 30
0.0
 11
14.73466457621074
 21
7.699612206287675
 31
0.0
  0
LINE
  5
44F
330
18
100
AcDbEntity
  8
1
 62
     1
100
AcDbLine
 10
14.73466457621074
 20
7.699612206287675
 30
0.0
 11
15.17187377777739
 21
7.595700993284552
 31
0.0
  0
LINE
  5
450
330
18
100
AcDbEntity
  8
1
 62
     1
100
AcDbLine
 10
15.17187377777739
 20
7.595700993284552
 30
0.0
 11
15.60908163236989
 21
7.473491556748434
 31
0.0
  0
LINE
  5
451
330
18
100
AcDbEntity
  8
1
 62
     1
100
AcDbLine
 10
15.60908163236989
 20
7.473491556748434
 30
0.0
 11
16.04628875719584
 21
7.33327832205612
 31
0.0
  0
LINE
  5
452
330
18
100
AcDbEntity
  8
1
 62
     1
100
AcDbLine
 10
16.04628875719584
 20
7.33327832205612
 30
0.0
 11
16.4834956647459
 21
7.175398913982459
 31
0.0
  0
LINE
  5
453
330
18
100
AcDbEntity
  8
1
 62
     1
100
AcDbLine
 10
16.4834956647459
 20
7.175398913982459
 30
0.0
 11
17.357911488567
 21
6.808203588800709
 31
0.0
  0
LINE
  5
454
330
18
100
AcDbEntity
  8
1
 62
     1
100
AcDbLine
 10
17.357911488567
 20
6.808203588800709
 30
0.0
 11
18.2323329604118
 21
6.375439020086202
 31
0.0
  0
LINE
  5
455
330
18
100
AcDbEntity
  8
1
 62
     1
100
AcDbLine
 10
18.2323329604118
 20
6.375439020086202
 30
0.0
 11
19.10675082331585
 21
5.881277176241911
 31
0.0
  0
LINE
  5
456
330
18
100
AcDbEntity
  8
1
 62
     1
100
AcDbLine
 10
19.10675082331585
 20
5.881277176241911
 30
0.0
 11
19.98116497396116
 21
5.330478283342974
 31
0.0
  0
LINE
  5
457
330
18
100
AcDbEntity
  8
1
 62
     1
100
AcDbLine
 10
19.98116497396116
 20
5.330478283342974
 30
0.0
 11
20.85558007385613
 21
4.728344152581085
 31
0.0
  0
LINE
  5
458
330
18
100
AcDbEntity
  8
1
 62
     1
100
AcDbLine
 10
20.85558007385613
 20
4.728344152581085
 30
0.0
 11
22.60441955633743
 21
3.393697299081284
 31
0.0
  0
LINE
  5
459
330
18
100
AcDbEntity
  8
1
 62
     1
100
AcDbLine
 10
22.60441955633743
 20
3.393697299081284
 30
0.0
 11
26.53928257267677
 21
-0.0000000000008172
 31
0.0
  0
LINE
  5
45A
330
18
100
AcDbEntity
  8
1
 62
     1
100
AcDbLine
 10
40.47999999999999
 20
3.943612747267517
 30
0.0
 11
40.47993123638941
 21
3.940045478032939
 31
0.0
  0
LINE
  5
45B
330
18
100
AcDbEntity
  8
1
 62
     1
100
AcDbLine
 10
40.47993123638941
 20
3.940045478032939
 30
0.0
 11
40.47972307856236
 21
3.936545560715015
 31
0.0
  0
LINE
  5
45C
330
18
100
AcDbEntity
  8
1
 62
     1
100
AcDbLine
 10
40.47972307856236
 20
3.936545560715015
 30
0.0
 11
40.47937272602594
 21
3.9331158024468
 31
0.0
  0
LINE
  5
45D
330
18
100
AcDbEntity
  8
1
 62
     1
100
AcDbLine
 10
40.47937272602594
 20
3.9331158024468
 30
0.0
 11
40.47887737828721
 21
3.929759010361345
 31
0.0
  0
LINE
  5
45E
330
18
100
AcDbEntity
  8
1
 62
     1
100
AcDbLine
 10
40.47887737828721
 20
3.929759010361345
 30
0.0
 11
40.47823423485325
 21
3.926477991591703
 31
0.0
  0
LINE
  5
45F
330
18
100
AcDbEntity
  8
1
 62
     1
100
AcDbLine
 10
40.47823423485325
 20
3.926477991591703
 30
0.0
 11
40.47744049523111
 21
3.923275553270926
 31
0.0
  0
LINE
  5
460
330
18
100
AcDbEntity
  8
1
 62
     1
100
AcDbLine
 10
40.47744049523111
 20
3.923275553270926
 30
0.0
 11
40.4764933589279
 21
3.920154502532067
 31
0.0
  0
LINE
  5
461
330
18
100
AcDbEntity
  8
1
 62
     1
100
AcDbLine
 10
40.4764933589279
 20
3.920154502532067
 30
0.0
 11
40.47539002545066
 21
3.917117646508177
 31
0.0
  0
LINE
  5
462
330
18
100
AcDbEntity
  8
1
 62
     1
100
AcDbLine
 10
40.47539002545066
 20
3.917117646508177
 30
0.0
 11
40.47412769430647
 21
3.914167792332308
 31
0.0
  0
LINE
  5
463
330
18
100
AcDbEntity
  8
1
 62
     1
100
AcDbLine
 10
40.47412769430647
 20
3.914167792332308
 30
0.0
 11
40.47270336837178
 21
3.911307503780357
 31
0.0
  0
LINE
  5
464
330
18
100
AcDbEntity
  8
1
 62
     1
100
AcDbLine
 10
40.47270336837178
 20
3.911307503780357
 30
0.0
 11
40.47111345226826
 21
3.908539400470988
 31
0.0
  0
LINE
  5
465
330
18
100
AcDbEntity
  8
1
 62
     1
100
AcDbLine
 10
40.47111345226826
 20
3.908539400470988
 30
0.0
 11
40.46935453494326
 21
3.905867092013603
 31
0.0
  0
LINE
  5
466
330
18
100
AcDbEntity
  8
1
 62
     1
100
AcDbLine
 10
40.46935453494326
 20
3.905867092013603
 30
0.0
 11
40.46742322268013
 21
3.903294227052781
 31
0.0
  0
LINE
  5
467
330
18
100
AcDbEntity
  8
1
 62
     1
100
AcDbLine
 10
40.46742322268013
 20
3.903294227052781
 30
0.0
 11
40.46531612176211
 21
3.900824454233101
 31
0.0
  0
LINE
  5
468
330
18
100
AcDbEntity
  8
1
 62
     1
100
AcDbLine
 10
40.46531612176211
 20
3.900824454233101
 30
0.0
 11
40.46302983847252
 21
3.89846142219914
 31
0.0
  0
LINE
  5
469
330
18
100
AcDbEntity
  8
1
 62
     1
100
AcDbLine
 10
40.46302983847252
 20
3.89846142219914
 30
0.0
 11
40.46056097909459
 21
3.896208779595472
 31
0.0
  0
LINE
  5
46A
330
18
100
AcDbEntity
  8
1
 62
     1
100
AcDbLine
 10
40.46056097909459
 20
3.896208779595472
 30
0.0
 11
40.45790614991162
 21
3.89407017506668
 31
0.0
  0
LINE
  5
46B
330
18
100
AcDbEntity
  8
1
 62
     1
100
AcDbLine
 10
40.45790614991162
 20
3.89407017506668
 30
0.0
 11
40.45506195720689
 21
3.892049257257336
 31
0.0
  0
LINE
  5
46C
330
18
100
AcDbEntity
  8
1
 62
     1
100
AcDbLine
 10
40.45506195720689
 20
3.892049257257336
 30
0.0
 11
40.4520247643012
 21
3.890149582890478
 31
0.0
  0
LINE
  5
46D
330
18
100
AcDbEntity
  8
1
 62
     1
100
AcDbLine
 10
40.4520247643012
 20
3.890149582890478
 30
0.0
 11
40.44878945833354
 21
3.88837454131719
 31
0.0
  0
LINE
  5
46E
330
18
100
AcDbEntity
  8
1
 62
     1
100
AcDbLine
 10
40.44878945833354
 20
3.88837454131719
 30
0.0
 11
40.44535198469593
 21
3.886728553033548
 31
0.0
  0
LINE
  5
46F
330
18
100
AcDbEntity
  8
1
 62
     1
100
AcDbLine
 10
40.44535198469593
 20
3.886728553033548
 30
0.0
 11
40.44170855387998
 21
3.885216186865029
 31
0.0
  0
LINE
  5
470
330
18
100
AcDbEntity
  8
1
 62
     1
100
AcDbLine
 10
40.44170855387998
 20
3.885216186865029
 30
0.0
 11
40.43785537637727
 21
3.88384201163711
 31
0.0
  0
LINE
  5
471
330
18
100
AcDbEntity
  8
1
 62
     1
100
AcDbLine
 10
40.43785537637727
 20
3.88384201163711
 30
0.0
 11
40.43378866267938
 21
3.882610596175268
 31
0.0
  0
LINE
  5
472
330
18
100
AcDbEntity
  8
1
 62
     1
100
AcDbLine
 10
40.43378866267938
 20
3.882610596175268
 30
0.0
 11
40.42950462327792
 21
3.88152650930498
 31
0.0
  0
LINE
  5
473
330
18
100
AcDbEntity
  8
1
 62
     1
100
AcDbLine
 10
40.42950462327792
 20
3.88152650930498
 30
0.0
 11
40.42499946866444
 21
3.88059431985172
 31
0.0
  0
LINE
  5
474
330
18
100
AcDbEntity
  8
1
 62
     1
100
AcDbLine
 10
40.42499946866444
 20
3.88059431985172
 30
0.0
 11
40.42026940933055
 21
3.879818596640968
 31
0.0
  0
LINE
  5
475
330
18
100
AcDbEntity
  8
1
 62
     1
100
AcDbLine
 10
40.42026940933055
 20
3.879818596640968
 30
0.0
 11
40.41531057083928
 21
3.879203910090068
 31
0.0
  0
LINE
  5
476
330
18
100
AcDbEntity
  8
1
 62
     1
100
AcDbLine
 10
40.41531057083928
 20
3.879203910090068
 30
0.0
 11
40.41011683525637
 21
3.878755008854699
 31
0.0
  0
LINE
  5
477
330
18
100
AcDbEntity
  8
1
 62
     1
100
AcDbLine
 10
40.41011683525637
 20
3.878755008854699
 30
0.0
 11
40.39900712420634
 21
3.878374915797689
 31
0.0
  0
LINE
  5
478
330
18
100
AcDbEntity
  8
1
 62
     1
100
AcDbLine
 10
40.39900712420634
 20
3.878374915797689
 30
0.0
 11
40.38691073165735
 21
3.878719200439354
 31
0.0
  0
LINE
  5
479
330
18
100
AcDbEntity
  8
1
 62
     1
100
AcDbLine
 10
40.38691073165735
 20
3.878719200439354
 30
0.0
 11
40.3737963517825
 21
3.879829195223746
 31
0.0
  0
LINE
  5
47A
330
18
100
AcDbEntity
  8
1
 62
     1
100
AcDbLine
 10
40.3737963517825
 20
3.879829195223746
 30
0.0
 11
40.35962342054763
 21
3.881747733040761
 31
0.0
  0
LINE
  5
47B
330
18
100
AcDbEntity
  8
1
 62
     1
100
AcDbLine
 10
40.35962342054763
 20
3.881747733040761
 30
0.0
 11
40.34436916161057
 21
3.884515323291848
 31
0.0
  0
LINE
  5
47C
330
18
100
AcDbEntity
  8
1
 62
     1
100
AcDbLine
 10
40.34436916161057
 20
3.884515323291848
 30
0.0
 11
40.32801001523734
 21
3.888172985063327
 31
0.0
  0
LINE
  5
47D
330
18
100
AcDbEntity
  8
1
 62
     1
100
AcDbLine
 10
40.32801001523734
 20
3.888172985063327
 30
0.0
 11
40.29185232688866
 21
3.898322958104809
 31
0.0
  0
LINE
  5
47E
330
18
100
AcDbEntity
  8
1
 62
     1
100
AcDbLine
 10
40.29185232688866
 20
3.898322958104809
 30
0.0
 11
40.2510377256452
 21
3.912479957239976
 31
0.0
  0
LINE
  5
47F
330
18
100
AcDbEntity
  8
1
 62
     1
100
AcDbLine
 10
40.2510377256452
 20
3.912479957239976
 30
0.0
 11
40.20553489819644
 21
3.930859786103459
 31
0.0
  0
LINE
  5
480
330
18
100
AcDbEntity
  8
1
 62
     1
100
AcDbLine
 10
40.20553489819644
 20
3.930859786103459
 30
0.0
 11
40.15546249449207
 21
3.953575333808677
 31
0.0
  0
LINE
  5
481
330
18
100
AcDbEntity
  8
1
 62
     1
100
AcDbLine
 10
40.15546249449207
 20
3.953575333808677
 30
0.0
 11
40.04273725138537
 21
4.011818928280438
 31
0.0
  0
LINE
  5
482
330
18
100
AcDbEntity
  8
1
 62
     1
100
AcDbLine
 10
40.04273725138537
 20
4.011818928280438
 30
0.0
 11
39.91645253774652
 21
4.085408874756325
 31
0.0
  0
LINE
  5
483
330
18
100
AcDbEntity
  8
1
 62
     1
100
AcDbLine
 10
39.91645253774652
 20
4.085408874756325
 30
0.0
 11
39.64177808961109
 21
4.264099652629143
 31
0.0
  0
LINE
  5
484
330
18
100
AcDbEntity
  8
1
 62
     1
100
AcDbLine
 10
39.64177808961109
 20
4.264099652629143
 30
0.0
 11
38.97672715469957
 21
4.737160243614792
 31
0.0
  0
LINE
  5
485
330
18
100
AcDbEntity
  8
1
 62
     1
100
AcDbLine
 10
40.48
 20
0.0360040502429383
 30
0.0
 11
40.4799999617704
 21
0.0360059903215844
 31
0.0
  0
LINE
  5
486
330
18
100
AcDbEntity
  8
1
 62
     1
100
AcDbLine
 10
40.4799999617704
 20
0.0360059903215844
 30
0.0
 11
40.47999984708358
 21
0.0360079854884414
 31
0.0
  0
LINE
  5
487
330
18
100
AcDbEntity
  8
1
 62
     1
100
AcDbLine
 10
40.47999984708358
 20
0.0360079854884414
 30
0.0
 11
40.47999938834981
 21
0.0360121411120718
 31
0.0
  0
LINE
  5
488
330
18
100
AcDbEntity
  8
1
 62
     1
100
AcDbLine
 10
40.47999938834981
 20
0.0360121411120718
 30
0.0
 11
40.47999862382198
 21
0.0360165171643967
 31
0.0
  0
LINE
  5
489
330
18
100
AcDbEntity
  8
1
 62
     1
100
AcDbLine
 10
40.47999862382198
 20
0.0360165171643967
 30
0.0
 11
40.47999755352331
 21
0.0360211136959832
 31
0.0
  0
LINE
  5
48A
330
18
100
AcDbEntity
  8
1
 62
     1
100
AcDbLine
 10
40.47999755352331
 20
0.0360211136959832
 30
0.0
 11
40.47999617747707
 21
0.0360259307573984
 31
0.0
  0
LINE
  5
48B
330
18
100
AcDbEntity
  8
1
 62
     1
100
AcDbLine
 10
40.47999617747707
 20
0.0360259307573984
 30
0.0
 11
40.47999449570648
 21
0.0360309683992095
 31
0.0
  0
LINE
  5
48C
330
18
100
AcDbEntity
  8
1
 62
     1
100
AcDbLine
 10
40.47999449570648
 20
0.0360309683992095
 30
0.0
 11
40.47999250823482
 21
0.0360362266719836
 31
0.0
  0
LINE
  5
48D
330
18
100
AcDbEntity
  8
1
 62
     1
100
AcDbLine
 10
40.47999250823482
 20
0.0360362266719836
 30
0.0
 11
40.47998761628131
 21
0.0360474053126897
 31
0.0
  0
LINE
  5
48E
330
18
100
AcDbEntity
  8
1
 62
     1
100
AcDbLine
 10
40.47998761628131
 20
0.0360474053126897
 30
0.0
 11
40.47998150180248
 21
0.0360594670840536
 31
0.0
  0
LINE
  5
48F
330
18
100
AcDbEntity
  8
1
 62
     1
100
AcDbLine
 10
40.47998150180248
 20
0.0360594670840536
 30
0.0
 11
40.47997416498443
 21
0.0360724123906127
 31
0.0
  0
LINE
  5
490
330
18
100
AcDbEntity
  8
1
 62
     1
100
AcDbLine
 10
40.47997416498443
 20
0.0360724123906127
 30
0.0
 11
40.47996560601315
 21
0.0360862416369042
 31
0.0
  0
LINE
  5
491
330
18
100
AcDbEntity
  8
1
 62
     1
100
AcDbLine
 10
40.47996560601315
 20
0.0360862416369042
 30
0.0
 11
40.4799448223549
 21
0.036116553566833
 31
0.0
  0
LINE
  5
492
330
18
100
AcDbEntity
  8
1
 62
     1
100
AcDbLine
 10
40.4799448223549
 20
0.036116553566833
 30
0.0
 11
40.47991915231594
 21
0.0361504061101376
 31
0.0
  0
LINE
  5
493
330
18
100
AcDbEntity
  8
1
 62
     1
100
AcDbLine
 10
40.47991915231594
 20
0.0361504061101376
 30
0.0
 11
40.47985315904834
 21
0.0362287459820644
 31
0.0
  0
LINE
  5
494
330
18
100
AcDbEntity
  8
1
 62
     1
100
AcDbLine
 10
40.47985315904834
 20
0.0362287459820644
 30
0.0
 11
40.47976763811551
 21
0.0363212871430651
 31
0.0
  0
LINE
  5
495
330
18
100
AcDbEntity
  8
1
 62
     1
100
AcDbLine
 10
40.47976763811551
 20
0.0363212871430651
 30
0.0
 11
40.47953806087474
 21
0.0365490768938109
 31
0.0
  0
LINE
  5
496
330
18
100
AcDbEntity
  8
1
 62
     1
100
AcDbLine
 10
40.47953806087474
 20
0.0365490768938109
 30
0.0
 11
40.47884509823692
 21
0.037176211040936
 31
0.0
  0
LINE
  5
497
330
18
100
AcDbEntity
  8
1
 62
     1
100
AcDbLine
 10
40.47884509823692
 20
0.037176211040936
 30
0.0
 11
40.47296947098362
 21
0.0420027801365644
 31
0.0
  0
LINE
  5
498
330
18
100
AcDbEntity
  8
1
 62
     1
100
AcDbLine
 10
40.47296947098362
 20
0.0420027801365644
 30
0.0
 11
38.956
 21
1.395422309170914
 31
0.0
  0
LINE
  5
499
330
18
100
AcDbEntity
  8
1
 62
     1
100
AcDbLine
 10
30.68204010033593
 20
7.9375
 30
0.0
 11
31.19914934522729
 21
7.924126176317152
 31
0.0
  0
LINE
  5
49A
330
18
100
AcDbEntity
  8
1
 62
     1
100
AcDbLine
 10
31.19914934522729
 20
7.924126176317152
 30
0.0
 11
31.71625861627208
 21
7.884049725872995
 31
0.0
  0
LINE
  5
49B
330
18
100
AcDbEntity
  8
1
 62
     1
100
AcDbLine
 10
31.71625861627208
 20
7.884049725872995
 30
0.0
 11
32.23336784111505
 21
7.817405620160799
 31
0.0
  0
LINE
  5
49C
330
18
100
AcDbEntity
  8
1
 62
     1
100
AcDbLine
 10
32.23336784111505
 20
7.817405620160799
 30
0.0
 11
32.7504779447774
 21
7.724418605076462
 31
0.0
  0
LINE
  5
49D
330
18
100
AcDbEntity
  8
1
 62
     1
100
AcDbLine
 10
32.7504779447774
 20
7.724418605076462
 30
0.0
 11
33.2675871641513
 21
7.605401580133786
 31
0.0
  0
LINE
  5
49E
330
18
100
AcDbEntity
  8
1
 62
     1
100
AcDbLine
 10
33.2675871641513
 20
7.605401580133786
 30
0.0
 11
33.78469789406927
 21
7.460756311298623
 31
0.0
  0
LINE
  5
49F
330
18
100
AcDbEntity
  8
1
 62
     1
100
AcDbLine
 10
33.78469789406927
 20
7.460756311298623
 30
0.0
 11
34.30180719168756
 21
7.290969175597397
 31
0.0
  0
LINE
  5
4A0
330
18
100
AcDbEntity
  8
1
 62
     1
100
AcDbLine
 10
34.30180719168756
 20
7.290969175597397
 30
0.0
 11
34.81891827846391
 21
7.096613641573335
 31
0.0
  0
LINE
  5
4A1
330
18
100
AcDbEntity
  8
1
 62
     1
100
AcDbLine
 10
34.81891827846391
 20
7.096613641573335
 30
0.0
 11
35.33603326094583
 21
6.878340069753831
 31
0.0
  0
LINE
  5
4A2
330
18
100
AcDbEntity
  8
1
 62
     1
100
AcDbLine
 10
35.33603326094583
 20
6.878340069753831
 30
0.0
 11
35.8531955414374
 21
6.636867255464724
 31
0.0
  0
LINE
  5
4A3
330
18
100
AcDbEntity
  8
1
 62
     1
100
AcDbLine
 10
35.8531955414374
 20
6.636867255464724
 30
0.0
 11
36.8874766644738
 21
6.08772336127303
 31
0.0
  0
LINE
  5
4A4
330
18
100
AcDbEntity
  8
1
 62
     1
100
AcDbLine
 10
36.8874766644738
 20
6.08772336127303
 30
0.0
 11
37.92178613865152
 21
5.456563987552904
 31
0.0
  0
LINE
  5
4A5
330
18
100
AcDbEntity
  8
1
 62
     1
100
AcDbLine
 10
37.92178613865152
 20
5.456563987552904
 30
0.0
 11
38.95599999999999
 21
4.751969081806132
 31
0.0
  0
LINE
  5
4A6
330
18
100
AcDbEntity
  8
1
 62
     1
100
AcDbLine
 10
26.53928257267599
 20
7.937499999999999
 30
0.0
 11
26.92732730805338
 21
7.929966104873756
 31
0.0
  0
LINE
  5
4A7
330
18
100
AcDbEntity
  8
1
 62
     1
100
AcDbLine
 10
26.92732730805338
 20
7.929966104873756
 30
0.0
 11
27.31536696976584
 21
7.907386780086524
 31
0.0
  0
LINE
  5
4A8
330
18
100
AcDbEntity
  8
1
 62
     1
100
AcDbLine
 10
27.31536696976584
 20
7.907386780086524
 30
0.0
 11
27.7034167482987
 21
7.869796160454381
 31
0.0
  0
LINE
  5
4A9
330
18
100
AcDbEntity
  8
1
 62
     1
100
AcDbLine
 10
27.7034167482987
 20
7.869796160454381
 30
0.0
 11
28.09145197490817
 21
7.817275504714781
 31
0.0
  0
LINE
  5
4AA
330
18
100
AcDbEntity
  8
1
 62
     1
100
AcDbLine
 10
28.09145197490817
 20
7.817275504714781
 30
0.0
 11
28.47950603169672
 21
7.749912866952463
 31
0.0
  0
LINE
  5
4AB
330
18
100
AcDbEntity
  8
1
 62
     1
100
AcDbLine
 10
28.47950603169672
 20
7.749912866952463
 30
0.0
 11
28.8675376162957
 21
7.667849778309087
 31
0.0
  0
LINE
  5
4AC
330
18
100
AcDbEntity
  8
1
 62
     1
100
AcDbLine
 10
28.8675376162957
 20
7.667849778309087
 30
0.0
 11
29.2555950814189
 21
7.571225914021674
 31
0.0
  0
LINE
  5
4AD
330
18
100
AcDbEntity
  8
1
 62
     1
100
AcDbLine
 10
29.2555950814189
 20
7.571225914021674
 30
0.0
 11
30.03163966637233
 21
7.335107564493959
 31
0.0
  0
LINE
  5
4AE
330
18
100
AcDbEntity
  8
1
 62
     1
100
AcDbLine
 10
30.03163966637233
 20
7.335107564493959
 30
0.0
 11
30.80767249890306
 21
7.043342159798867
 31
0.0
  0
LINE
  5
4AF
330
18
100
AcDbEntity
  8
1
 62
     1
100
AcDbLine
 10
30.80767249890306
 20
7.043342159798867
 30
0.0
 11
31.58370040730174
 21
6.69814492258478
 31
0.0
  0
LINE
  5
4B0
330
18
100
AcDbEntity
  8
1
 62
     1
100
AcDbLine
 10
31.58370040730174
 20
6.69814492258478
 30
0.0
 11
32.35973666691828
 21
6.3021275503896
 31
0.0
  0
LINE
  5
4B1
330
18
100
AcDbEntity
  8
1
 62
     1
100
AcDbLine
 10
32.35973666691828
 20
6.3021275503896
 30
0.0
 11
33.13576305689431
 21
5.858304382951681
 31
0.0
  0
LINE
  5
4B2
330
18
100
AcDbEntity
  8
1
 62
     1
100
AcDbLine
 10
33.13576305689431
 20
5.858304382951681
 30
0.0
 11
33.91179967142137
 21
5.370030792928766
 31
0.0
  0
LINE
  5
4B3
330
18
100
AcDbEntity
  8
1
 62
     1
100
AcDbLine
 10
33.91179967142137
 20
5.370030792928766
 30
0.0
 11
35.46386072442461
 21
4.275284596488208
 31
0.0
  0
LINE
  5
4B4
330
18
100
AcDbEntity
  8
1
 62
     1
100
AcDbLine
 10
35.46386072442461
 20
4.275284596488208
 30
0.0
 11
37.01592042366294
 21
3.051047690736393
 31
0.0
  0
LINE
  5
4B5
330
18
100
AcDbEntity
  8
1
 62
     1
100
AcDbLine
 10
37.01592042366294
 20
3.051047690736393
 30
0.0
 11
38.956
 21
1.395422309170915
 31
0.0
  0
LINE
  5
4B6
330
18
100
AcDbEntity
  8
1
 62
     1
100
AcDbLine
 10
40.48
 20
6.413398939592491
 30
0.0
 11
40.47750268114434
 21
6.500576964031199
 31
0.0
  0
LINE
  5
4B7
330
18
100
AcDbEntity
  8
1
 62
     1
100
AcDbLine
 10
40.47750268114434
 20
6.500576964031199
 30
0.0
 11
40.47004168552701
 21
6.587277542049921
 31
0.0
  0
LINE
  5
4B8
330
18
100
AcDbEntity
  8
1
 62
     1
100
AcDbLine
 10
40.47004168552701
 20
6.587277542049921
 30
0.0
 11
40.45769160420025
 21
6.673084394209754
 31
0.0
  0
LINE
  5
4B9
330
18
100
AcDbEntity
  8
1
 62
     1
100
AcDbLine
 10
40.45769160420025
 20
6.673084394209754
 30
0.0
 11
40.4405805847841
 21
6.757532678434512
 31
0.0
  0
LINE
  5
4BA
330
18
100
AcDbEntity
  8
1
 62
     1
100
AcDbLine
 10
40.4405805847841
 20
6.757532678434512
 30
0.0
 11
40.4188916478317
 21
6.840193084193689
 31
0.0
  0
LINE
  5
4BB
330
18
100
AcDbEntity
  8
1
 62
     1
100
AcDbLine
 10
40.4188916478317
 20
6.840193084193689
 30
0.0
 11
40.3928338779417
 21
6.920699177791035
 31
0.0
  0
LINE
  5
4BC
330
18
100
AcDbEntity
  8
1
 62
     1
100
AcDbLine
 10
40.3928338779417
 20
6.920699177791035
 30
0.0
 11
40.36266361391198
 21
6.998669452290438
 31
0.0
  0
LINE
  5
4BD
330
18
100
AcDbEntity
  8
1
 62
     1
100
AcDbLine
 10
40.36266361391198
 20
6.998669452290438
 30
0.0
 11
40.32865843131913
 21
7.073797327028117
 31
0.0
  0
LINE
  5
4BE
330
18
100
AcDbEntity
  8
1
 62
     1
100
AcDbLine
 10
40.32865843131913
 20
7.073797327028117
 30
0.0
 11
40.29109533830703
 21
7.145841015029857
 31
0.0
  0
LINE
  5
4BF
330
18
100
AcDbEntity
  8
1
 62
     1
100
AcDbLine
 10
40.29109533830703
 20
7.145841015029857
 30
0.0
 11
40.25027733363854
 21
7.214564862469999
 31
0.0
  0
LINE
  5
4C0
330
18
100
AcDbEntity
  8
1
 62
     1
100
AcDbLine
 10
40.25027733363854
 20
7.214564862469999
 30
0.0
 11
40.2064937849943
 21
7.279809805899091
 31
0.0
  0
LINE
  5
4C1
330
18
100
AcDbEntity
  8
1
 62
     1
100
AcDbLine
 10
40.2064937849943
 20
7.279809805899091
 30
0.0
 11
40.16001519841703
 21
7.341464950734472
 31
0.0
  0
LINE
  5
4C2
330
18
100
AcDbEntity
  8
1
 62
     1
100
AcDbLine
 10
40.16001519841703
 20
7.341464950734472
 30
0.0
 11
40.11112033150442
 21
7.399428110044935
 31
0.0
  0
LINE
  5
4C3
330
18
100
AcDbEntity
  8
1
 62
     1
100
AcDbLine
 10
40.11112033150442
 20
7.399428110044935
 30
0.0
 11
40.06005661069119
 21
7.453652919816542
 31
0.0
  0
LINE
  5
4C4
330
18
100
AcDbEntity
  8
1
 62
     1
100
AcDbLine
 10
40.06005661069119
 20
7.453652919816542
 30
0.0
 11
40.00704749943677
 21
7.504120442662962
 31
0.0
  0
LINE
  5
4C5
330
18
100
AcDbEntity
  8
1
 62
     1
100
AcDbLine
 10
40.00704749943677
 20
7.504120442662962
 30
0.0
 11
39.9523171534393
 21
7.55081493017244
 31
0.0
  0
LINE
  5
4C6
330
18
100
AcDbEntity
  8
1
 62
     1
100
AcDbLine
 10
39.9523171534393
 20
7.55081493017244
 30
0.0
 11
39.89605461253958
 21
7.593754504636951
 31
0.0
  0
LINE
  5
4C7
330
18
100
AcDbEntity
  8
1
 62
     1
100
AcDbLine
 10
39.89605461253958
 20
7.593754504636951
 30
0.0
 11
39.83841160707576
 21
7.632978894017669
 31
0.0
  0
LINE
  5
4C8
330
18
100
AcDbEntity
  8
1
 62
     1
100
AcDbLine
 10
39.83841160707576
 20
7.632978894017669
 30
0.0
 11
39.77958243414748
 21
7.668499772728598
 31
0.0
  0
LINE
  5
4C9
330
18
100
AcDbEntity
  8
1
 62
     1
100
AcDbLine
 10
39.77958243414748
 20
7.668499772728598
 30
0.0
 11
39.71969711162344
 21
7.700363750684415
 31
0.0
  0
LINE
  5
4CA
330
18
100
AcDbEntity
  8
1
 62
     1
100
AcDbLine
 10
39.71969711162344
 20
7.700363750684415
 30
0.0
 11
39.65888244050349
 21
7.728619812665936
 31
0.0
  0
LINE
  5
4CB
330
18
100
AcDbEntity
  8
1
 62
     1
100
AcDbLine
 10
39.65888244050349
 20
7.728619812665936
 30
0.0
 11
39.59727329019615
 21
7.753304855416057
 31
0.0
  0
LINE
  5
4CC
330
18
100
AcDbEntity
  8
1
 62
     1
100
AcDbLine
 10
39.59727329019615
 20
7.753304855416057
 30
0.0
 11
39.53494621649379
 21
7.774479921570431
 31
0.0
  0
LINE
  5
4CD
330
18
100
AcDbEntity
  8
1
 62
     1
100
AcDbLine
 10
39.53494621649379
 20
7.774479921570431
 30
0.0
 11
39.47203091224083
 21
7.792179888398427
 31
0.0
  0
LINE
  5
4CE
330
18
100
AcDbEntity
  8
1
 62
     1
100
AcDbLine
 10
39.47203091224083
 20
7.792179888398427
 30
0.0
 11
39.40857887726284
 21
7.806460958040404
 31
0.0
  0
LINE
  5
4CF
330
18
100
AcDbEntity
  8
1
 62
     1
100
AcDbLine
 10
39.40857887726284
 20
7.806460958040404
 30
0.0
 11
39.34470297337012
 21
7.817359655350533
 31
0.0
  0
LINE
  5
4D0
330
18
100
AcDbEntity
  8
1
 62
     1
100
AcDbLine
 10
39.34470297337012
 20
7.817359655350533
 30
0.0
 11
39.280448857528
 21
7.824921280885078
 31
0.0
  0
LINE
  5
4D1
330
18
100
AcDbEntity
  8
1
 62
     1
100
AcDbLine
 10
39.280448857528
 20
7.824921280885078
 30
0.0
 11
39.21590474833909
 21
7.829182598655835
 31
0.0
  0
LINE
  5
4D2
330
18
100
AcDbEntity
  8
1
 62
     1
100
AcDbLine
 10
39.21590474833909
 20
7.829182598655835
 30
0.0
 11
39.15112558184881
 21
7.830178262478356
 31
0.0
  0
LINE
  5
4D3
330
18
100
AcDbEntity
  8
1
 62
     1
100
AcDbLine
 10
39.15112558184881
 20
7.830178262478356
 30
0.0
 11
39.08617054481041
 21
7.827941093853751
 31
0.0
  0
LINE
  5
4D4
330
18
100
AcDbEntity
  8
1
 62
     1
100
AcDbLine
 10
39.08617054481041
 20
7.827941093853751
 30
0.0
 11
39.02111477517091
 21
7.822499573899311
 31
0.0
  0
LINE
  5
4D5
330
18
100
AcDbEntity
  8
1
 62
     1
100
AcDbLine
 10
39.02111477517091
 20
7.822499573899311
 30
0.0
 11
38.956
 21
7.813878859380152
 31
0.0
  0
LINE
  5
4D6
330
18
100
AcDbEntity
  8
1
 62
     1
100
AcDbLine
 10
40.48
 20
4.810054591696103
 30
0.0
 11
40.48
 21
6.413398939592492
 31
0.0
  0
LINE
  5
4D7
330
18
100
AcDbEntity
  8
1
 62
     1
100
AcDbLine
 10
40.48
 20
4.810054591696103
 30
0.0
 11
40.48
 21
3.943612747267506
 31
0.0
  0
LINE
  5
4D8
330
18
100
AcDbEntity
  8
1
 62
     1
100
AcDbLine
 10
40.47999999999999
 20
3.943612747267517
 30
0.0
 11
40.48
 21
0.0360040502429536
 31
0.0
  0
LINE
  5
4D9
330
18
100
AcDbEntity
  8
1
 62
     1
100
AcDbLine
 10
40.48
 20
0.0270030679241738
 30
0.0
 11
40.47999999999999
 21
0.036004050242938
 31
0.0
  0
LINE
  5
4DA
330
18
100
AcDbEntity
  8
1
 62
     1
100
AcDbLine
 10
40.48
 20
0.0270030679241738
 30
0.0
 11
40.47999999999999
 21
-5.057756493702446
 31
0.0
  0
LINE
  5
4DB
330
18
100
AcDbEntity
  8
1
 62
     1
100
AcDbLine
 10
40.48
 20
-5.057756493702445
 30
0.0
 11
40.48
 21
-6.413398939592493
 31
0.0
  0
LINE
  5
4DC
330
18
100
AcDbEntity
  8
1
 62
     1
100
AcDbLine
 10
7.080000000000001
 20
-6.487813229435117
 30
0.0
 11
7.763605681885893
 21
-6.819351311579958
 31
0.0
  0
LINE
  5
4DD
330
18
100
AcDbEntity
  8
1
 62
     1
100
AcDbLine
 10
7.763605681885893
 20
-6.819351311579958
 30
0.0
 11
8.447175834578749
 21
-7.110723745210208
 31
0.0
  0
LINE
  5
4DE
330
18
100
AcDbEntity
  8
1
 62
     1
100
AcDbLine
 10
8.447175834578749
 20
-7.110723745210208
 30
0.0
 11
9.130736001126305
 21
-7.360230686745169
 31
0.0
  0
LINE
  5
4DF
330
18
100
AcDbEntity
  8
1
 62
     1
100
AcDbLine
 10
9.130736001126305
 20
-7.360230686745169
 30
0.0
 11
9.81430447504188
 21
-7.566409084341178
 31
0.0
  0
LINE
  5
4E0
330
18
100
AcDbEntity
  8
1
 62
     1
100
AcDbLine
 10
9.81430447504188
 20
-7.566409084341178
 30
0.0
 11
10.49787161717829
 21
-7.728042600747544
 31
0.0
  0
LINE
  5
4E1
330
18
100
AcDbEntity
  8
1
 62
     1
100
AcDbLine
 10
10.49787161717829
 20
-7.728042600747544
 30
0.0
 11
11.18143277036172
 21
-7.844178241116636
 31
0.0
  0
LINE
  5
4E2
330
18
100
AcDbEntity
  8
1
 62
     1
100
AcDbLine
 10
11.18143277036172
 20
-7.844178241116636
 30
0.0
 11
11.86500283498729
 21
-7.914135209187249
 31
0.0
  0
LINE
  5
4E3
330
18
100
AcDbEntity
  8
1
 62
     1
100
AcDbLine
 10
11.86500283498729
 20
-7.914135209187249
 30
0.0
 11
12.54856490782441
 21
-7.937499999977716
 31
0.0
  0
LINE
  5
4E4
330
18
100
AcDbEntity
  8
1
 62
     1
100
AcDbLine
 10
7.079999999999998
 20
-3.747444471015742
 30
0.0
 11
8.281454027389879
 21
-4.654405937372595
 31
0.0
  0
LINE
  5
4E5
330
18
100
AcDbEntity
  8
1
 62
     1
100
AcDbLine
 10
8.281454027389879
 20
-4.654405937372595
 30
0.0
 11
9.482867516194046
 21
-5.476783146224445
 31
0.0
  0
LINE
  5
4E6
330
18
100
AcDbEntity
  8
1
 62
     1
100
AcDbLine
 10
9.482867516194046
 20
-5.476783146224445
 30
0.0
 11
10.68427464547237
 21
-6.199655526753091
 31
0.0
  0
LINE
  5
4E7
330
18
100
AcDbEntity
  8
1
 62
     1
100
AcDbLine
 10
10.68427464547237
 20
-6.199655526753091
 30
0.0
 11
11.28498216720728
 21
-6.519602402091124
 31
0.0
  0
LINE
  5
4E8
330
18
100
AcDbEntity
  8
1
 62
     1
100
AcDbLine
 10
11.28498216720728
 20
-6.519602402091124
 30
0.0
 11
11.88569121962788
 21
-6.809904445519694
 31
0.0
  0
LINE
  5
4E9
330
18
100
AcDbEntity
  8
1
 62
     1
100
AcDbLine
 10
11.88569121962788
 20
-6.809904445519694
 30
0.0
 11
12.48639609725141
 21
-7.069241749785874
 31
0.0
  0
LINE
  5
4EA
330
18
100
AcDbEntity
  8
1
 62
     1
100
AcDbLine
 10
12.48639609725141
 20
-7.069241749785874
 30
0.0
 11
13.08709758399298
 21
-7.296433756869793
 31
0.0
  0
LINE
  5
4EB
330
18
100
AcDbEntity
  8
1
 62
     1
100
AcDbLine
 10
13.08709758399298
 20
-7.296433756869793
 30
0.0
 11
13.68780372959697
 21
-7.490450675322164
 31
0.0
  0
LINE
  5
4EC
330
18
100
AcDbEntity
  8
1
 62
     1
100
AcDbLine
 10
13.68780372959697
 20
-7.490450675322164
 30
0.0
 11
14.28851134407066
 21
-7.650410230522555
 31
0.0
  0
LINE
  5
4ED
330
18
100
AcDbEntity
  8
1
 62
     1
100
AcDbLine
 10
14.28851134407066
 20
-7.650410230522555
 30
0.0
 11
14.88921960559046
 21
-7.775583335593183
 31
0.0
  0
LINE
  5
4EE
330
18
100
AcDbEntity
  8
1
 62
     1
100
AcDbLine
 10
14.88921960559046
 20
-7.775583335593183
 30
0.0
 11
15.48992373710463
 21
-7.865400861959177
 31
0.0
  0
LINE
  5
4EF
330
18
100
AcDbEntity
  8
1
 62
     1
100
AcDbLine
 10
15.48992373710463
 20
-7.865400861959177
 30
0.0
 11
16.09062503448458
 21
-7.919454758150501
 31
0.0
  0
LINE
  5
4F0
330
18
100
AcDbEntity
  8
1
 62
     1
100
AcDbLine
 10
16.09062503448458
 20
-7.919454758150501
 30
0.0
 11
16.69132409126075
 21
-7.937499999999798
 31
0.0
  0
LINE
  5
4F1
330
18
100
AcDbEntity
  8
1
 62
     1
100
AcDbLine
 10
30.68204010033593
 20
7.9375
 30
0.0
 11
26.53928257267599
 21
7.9375
 31
0.0
  0
ARC
  5
4F2
330
18
100
AcDbEntity
  8
1
 62
     1
100
AcDbCircle
 10
1.23606312776891
 20
6.882654328557264
 30
0.0
 40
15.05993245810225
100
AcDbArc
 50
292.8329352017717
 51
295.1004077784558
  0
LINE
  5
4F3
330
18
100
AcDbEntity
  8
1
 62
     1
100
AcDbLine
 10
7.62458155540462
 20
6.755119480108045
 30
0.0
 11
8.240080111537043
 21
7.026795039727226
 31
0.0
  0
LINE
  5
4F4
330
18
100
AcDbEntity
  8
1
 62
     1
100
AcDbLine
 10
8.240080111537043
 20
7.026795039727226
 30
0.0
 11
8.855580968426356
 21
7.264929459578807
 31
0.0
  0
LINE
  5
4F5
330
18
100
AcDbEntity
  8
1
 62
     1
100
AcDbLine
 10
8.855580968426356
 20
7.264929459578807
 30
0.0
 11
9.471079984378985
 21
7.468383779944929
 31
0.0
  0
LINE
  5
4F6
330
18
100
AcDbEntity
  8
1
 62
     1
100
AcDbLine
 10
9.471079984378985
 20
7.468383779944929
 30
0.0
 11
10.08657360694352
 21
7.636185760211141
 31
0.0
  0
LINE
  5
4F7
330
18
100
AcDbEntity
  8
1
 62
     1
100
AcDbLine
 10
10.08657360694352
 20
7.636185760211141
 30
0.0
 11
10.70207076759027
 21
7.767537112969775
 31
0.0
  0
LINE
  5
4F8
330
18
100
AcDbEntity
  8
1
 62
     1
100
AcDbLine
 10
10.70207076759027
 20
7.767537112969775
 30
0.0
 11
11.3175716178259
 21
7.861810506945336
 31
0.0
  0
LINE
  5
4F9
330
18
100
AcDbEntity
  8
1
 62
     1
100
AcDbLine
 10
11.3175716178259
 20
7.861810506945336
 30
0.0
 11
11.93307125970739
 21
7.918555136043729
 31
0.0
  0
LINE
  5
4FA
330
18
100
AcDbEntity
  8
1
 62
     1
100
AcDbLine
 10
11.93307125970739
 20
7.918555136043729
 30
0.0
 11
12.54856490782293
 21
7.9375
 31
0.0
  0
LINE
  5
4FB
330
18
100
AcDbEntity
  8
1
 62
     1
100
AcDbLine
 10
16.69132409126067
 20
7.9375
 30
0.0
 11
12.54856490782293
 21
7.9375
 31
0.0
  0
ARC
  5
4FC
330
18
100
AcDbEntity
  8
1
 62
     1
100
AcDbCircle
 10
40.53203916486905
 20
-11.78930540844975
 30
0.0
 40
16.59944895631943
100
AcDbArc
 50
90.17962227148054
 51
95.3762926549545
  0
LINE
  5
4FD
330
18
100
AcDbEntity
  8
1
 62
     1
100
AcDbLine
 10
40.48000000000002
 20
0.0270030679241752
 30
0.0
 11
36.60650226340145
 21
2.051030262602829
 31
0.0
  0
LINE
  5
4FE
330
18
100
AcDbEntity
  8
1
 62
     1
100
AcDbLine
 10
36.60650226340145
 20
2.051030262602829
 30
0.0
 11
34.66975339510217
 21
2.941389026259383
 31
0.0
  0
LINE
  5
4FF
330
18
100
AcDbEntity
  8
1
 62
     1
100
AcDbLine
 10
34.66975339510217
 20
2.941389026259383
 30
0.0
 11
33.70137896095252
 21
3.337006497950827
 31
0.0
  0
LINE
  5
500
330
18
100
AcDbEntity
  8
1
 62
     1
100
AcDbLine
 10
33.70137896095252
 20
3.337006497950827
 30
0.0
 11
32.73300452680289
 21
3.693216757857837
 31
0.0
  0
LINE
  5
501
330
18
100
AcDbEntity
  8
1
 62
     1
100
AcDbLine
 10
32.73300452680289
 20
3.693216757857837
 30
0.0
 11
31.76463009265326
 21
4.005813266173827
 31
0.0
  0
LINE
  5
502
330
18
100
AcDbEntity
  8
1
 62
     1
100
AcDbLine
 10
31.76463009265326
 20
4.005813266173827
 30
0.0
 11
30.79625565850361
 21
4.27110452581788
 31
0.0
  0
LINE
  5
503
330
18
100
AcDbEntity
  8
1
 62
     1
100
AcDbLine
 10
30.79625565850361
 20
4.27110452581788
 30
0.0
 11
29.82788122435397
 21
4.485957674248892
 31
0.0
  0
LINE
  5
504
330
18
100
AcDbEntity
  8
1
 62
     1
100
AcDbLine
 10
29.82788122435397
 20
4.485957674248892
 30
0.0
 11
28.85950679020433
 21
4.647835480310341
 31
0.0
  0
LINE
  5
505
330
18
100
AcDbEntity
  8
1
 62
     1
100
AcDbLine
 10
28.85950679020433
 20
4.647835480310341
 30
0.0
 11
27.89113235605469
 21
4.754826306595138
 31
0.0
  0
LINE
  5
506
330
18
100
AcDbEntity
  8
1
 62
     1
100
AcDbLine
 10
27.89113235605469
 20
4.754826306595138
 30
0.0
 11
26.92275792190506
 21
4.805666684242711
 31
0.0
  0
LINE
  5
507
330
18
100
AcDbEntity
  8
1
 62
     1
100
AcDbLine
 10
26.92275792190506
 20
4.805666684242711
 30
0.0
 11
25.95438348775542
 21
4.799756233371626
 31
0.0
  0
LINE
  5
508
330
18
100
AcDbEntity
  8
1
 62
     1
100
AcDbLine
 10
25.95438348775542
 20
4.799756233371626
 30
0.0
 11
24.98600905360577
 21
4.737164753010036
 31
0.0
  0
LINE
  5
509
330
18
100
AcDbEntity
  8
1
 62
     1
100
AcDbLine
 10
7.079999999999998
 20
-3.747444471015716
 30
0.0
 11
7.079999999999998
 21
2.771227741751947
 31
0.0
  0
LINE
  5
50A
330
18
100
AcDbEntity
  8
1
 62
     1
100
AcDbLine
 10
7.079999999999998
 20
2.771227741751947
 30
0.0
 11
7.079999999999998
 21
4.572984337384796
 31
0.0
  0
LINE
  5
50B
330
18
100
AcDbEntity
  8
1
 62
     1
100
AcDbLine
 10
7.079999999999993
 20
6.99718273211826
 30
0.0
 11
7.079999999999992
 21
4.572984337384793
 31
0.0
  0
LINE
  5
50C
330
18
100
AcDbEntity
  8
1
 62
     1
100
AcDbLine
 10
7.079999999999998
 20
-6.997182732118263
 30
0.0
 11
7.079999999999998
 21
-6.487813229435119
 31
0.0
  0
LINE
  5
50D
330
18
100
AcDbEntity
  8
1
 62
     1
100
AcDbLine
 10
7.079999999999993
 20
-3.747444471015751
 30
0.0
 11
7.079999999999992
 21
-6.487813229435118
 31
0.0
  0
LINE
  5
50E
330
18
100
AcDbEntity
  8
1
 62
     1
100
AcDbLine
 10
30.68204010033824
 20
-7.937499999995591
 30
0.0
 11
31.29757209375422
 21
-7.918551517163376
 31
0.0
  0
LINE
  5
50F
330
18
100
AcDbEntity
  8
1
 62
     1
100
AcDbLine
 10
31.29757209375422
 20
-7.918551517163376
 30
0.0
 11
31.91307584976775
 21
-7.861805680893973
 31
0.0
  0
LINE
  5
510
330
18
100
AcDbEntity
  8
1
 62
     1
100
AcDbLine
 10
31.91307584976775
 20
-7.861805680893973
 30
0.0
 11
32.52856356351234
 21
-7.767531948775495
 31
0.0
  0
LINE
  5
511
330
18
100
AcDbEntity
  8
1
 62
     1
100
AcDbLine
 10
32.52856356351234
 20
-7.767531948775495
 30
0.0
 11
33.1440533983364
 21
-7.636180373937614
 31
0.0
  0
LINE
  5
512
330
18
100
AcDbEntity
  8
1
 62
     1
100
AcDbLine
 10
33.1440533983364
 20
-7.636180373937614
 30
0.0
 11
33.75954800103366
 21
-7.468376904404514
 31
0.0
  0
LINE
  5
513
330
18
100
AcDbEntity
  8
1
 62
     1
100
AcDbLine
 10
33.75954800103366
 20
-7.468376904404514
 30
0.0
 11
34.37504171482592
 21
-7.264923095780537
 31
0.0
  0
LINE
  5
514
330
18
100
AcDbEntity
  8
1
 62
     1
100
AcDbLine
 10
34.37504171482592
 20
-7.264923095780537
 30
0.0
 11
34.99053219785317
 21
-7.026792801817959
 31
0.0
  0
LINE
  5
515
330
18
100
AcDbEntity
  8
1
 62
     1
100
AcDbLine
 10
34.99053219785317
 20
-7.026792801817959
 30
0.0
 11
35.60602034367017
 21
-6.755121031134437
 31
0.0
  0
LINE
  5
516
330
18
100
AcDbEntity
  8
1
 62
     1
100
AcDbLine
 10
26.5392825726728
 20
-7.937499999999998
 30
0.0
 11
30.68204010033825
 21
-7.937499999999998
 31
0.0
  0
LINE
  5
517
330
18
100
AcDbEntity
  8
1
 62
     1
100
AcDbLine
 10
16.69132409126075
 20
-7.937499999999798
 30
0.0
 11
17.30686087757873
 21
-7.91855191330265
 31
0.0
  0
LINE
  5
518
330
18
100
AcDbEntity
  8
1
 62
     1
100
AcDbLine
 10
17.30686087757873
 20
-7.91855191330265
 30
0.0
 11
17.92238615741097
 21
-7.861800620001308
 31
0.0
  0
LINE
  5
519
330
18
100
AcDbEntity
  8
1
 62
     1
100
AcDbLine
 10
17.92238615741097
 20
-7.861800620001308
 30
0.0
 11
18.5378855710616
 21
-7.767524774906675
 31
0.0
  0
LINE
  5
51A
330
18
100
AcDbEntity
  8
1
 62
     1
100
AcDbLine
 10
18.5378855710616
 20
-7.767524774906675
 30
0.0
 11
19.15336744091618
 21
-7.636172748690729
 31
0.0
  0
LINE
  5
51B
330
18
100
AcDbEntity
  8
1
 62
     1
100
AcDbLine
 10
19.15336744091618
 20
-7.636172748690729
 30
0.0
 11
19.76884721114666
 21
-7.468371805646002
 31
0.0
  0
LINE
  5
51C
330
18
100
AcDbEntity
  8
1
 62
     1
100
AcDbLine
 10
19.76884721114666
 20
-7.468371805646002
 30
0.0
 11
20.38433283461422
 21
-7.264920471101937
 31
0.0
  0
LINE
  5
51D
330
18
100
AcDbEntity
  8
1
 62
     1
100
AcDbLine
 10
20.38433283461422
 20
-7.264920471101937
 30
0.0
 11
20.99981893459452
 21
-7.026790307552721
 31
0.0
  0
LINE
  5
51E
330
18
100
AcDbEntity
  8
1
 62
     1
100
AcDbLine
 10
20.99981893459452
 20
-7.026790307552721
 30
0.0
 11
21.61530305825358
 21
-6.755120885994052
 31
0.0
  0
LINE
  5
51F
330
18
100
AcDbEntity
  8
1
 62
     1
100
AcDbLine
 10
12.5485649078244
 20
-7.937499999999998
 30
0.0
 11
16.69132409126074
 21
-7.937499999999998
 31
0.0
  0
LINE
  5
520
330
18
100
AcDbEntity
  8
1
 62
     1
100
AcDbLine
 10
35.60601901233537
 20
6.755120365338716
 30
0.0
 11
36.44351968554554
 21
7.116618280403298
 31
0.0
  0
LINE
  5
521
330
18
100
AcDbEntity
  8
1
 62
     1
100
AcDbLine
 10
36.44351968554554
 20
7.116618280403298
 30
0.0
 11
37.28101340137234
 21
7.415237745772505
 31
0.0
  0
LINE
  5
522
330
18
100
AcDbEntity
  8
1
 62
     1
100
AcDbLine
 10
37.28101340137234
 20
7.415237745772505
 30
0.0
 11
37.69975898438864
 21
7.540122498249683
 31
0.0
  0
LINE
  5
523
330
18
100
AcDbEntity
  8
1
 62
     1
100
AcDbLine
 10
37.69975898438864
 20
7.540122498249683
 30
0.0
 11
38.11850543306193
 21
7.64834438696193
 31
0.0
  0
LINE
  5
524
330
18
100
AcDbEntity
  8
1
 62
     1
100
AcDbLine
 10
38.11850543306193
 20
7.64834438696193
 30
0.0
 11
38.53725428234896
 21
7.739664197913958
 31
0.0
  0
LINE
  5
525
330
18
100
AcDbEntity
  8
1
 62
     1
100
AcDbLine
 10
38.53725428234896
 20
7.739664197913958
 30
0.0
 11
38.956
 21
7.813878859380152
 31
0.0
  0
LINE
  5
526
330
18
100
AcDbEntity
  8
1
 62
     1
100
AcDbLine
 10
38.97672715469957
 20
4.737160243614792
 30
0.0
 11
38.956
 21
4.751969081806122
 31
0.0
  0
LINE
  5
527
330
18
100
AcDbEntity
  8
1
 62
     1
100
AcDbLine
 10
21.61530306061327
 20
6.755120887098293
 30
0.0
 11
22.23080111805152
 21
7.026796955650096
 31
0.0
  0
LINE
  5
528
330
18
100
AcDbEntity
  8
1
 62
     1
100
AcDbLine
 10
22.23080111805152
 20
7.026796955650096
 30
0.0
 11
22.84629619388917
 21
7.264928863603606
 31
0.0
  0
LINE
  5
529
330
18
100
AcDbEntity
  8
1
 62
     1
100
AcDbLine
 10
22.84629619388917
 20
7.264928863603606
 30
0.0
 11
23.46179695224893
 21
7.468383312244138
 31
0.0
  0
LINE
  5
52A
330
18
100
AcDbEntity
  8
1
 62
     1
100
AcDbLine
 10
23.46179695224893
 20
7.468383312244138
 30
0.0
 11
24.07729911443779
 21
7.636187507716931
 31
0.0
  0
LINE
  5
52B
330
18
100
AcDbEntity
  8
1
 62
     1
100
AcDbLine
 10
24.07729911443779
 20
7.636187507716931
 30
0.0
 11
24.69279810282508
 21
7.767539136878066
 31
0.0
  0
LINE
  5
52C
330
18
100
AcDbEntity
  8
1
 62
     1
100
AcDbLine
 10
24.69279810282508
 20
7.767539136878066
 30
0.0
 11
25.30829270508554
 21
7.861811204348905
 31
0.0
  0
LINE
  5
52D
330
18
100
AcDbEntity
  8
1
 62
     1
100
AcDbLine
 10
25.30829270508554
 20
7.861811204348905
 30
0.0
 11
25.92379272998393
 21
7.918555201211749
 31
0.0
  0
LINE
  5
52E
330
18
100
AcDbEntity
  8
1
 62
     1
100
AcDbLine
 10
25.92379272998393
 20
7.918555201211749
 30
0.0
 11
26.53928257267598
 21
7.937499999999998
 31
0.0
  0
LINE
  5
52F
330
18
100
AcDbEntity
  8
1
 62
     1
100
AcDbLine
 10
24.9860089958281
 20
4.737164672209174
 30
0.0
 11
26.73225216526968
 21
3.405715875809155
 31
0.0
  0
LINE
  5
530
330
18
100
AcDbEntity
  8
1
 62
     1
100
AcDbLine
 10
26.73225216526968
 20
3.405715875809155
 30
0.0
 11
30.22472918359203
 21
0.4073660535867087
 31
0.0
  0
LINE
  5
531
330
18
100
AcDbEntity
  8
1
 62
     1
100
AcDbLine
 10
30.22472918359203
 20
0.4073660535867087
 30
0.0
 11
33.71724386310224
 21
-2.65285155254314
 31
0.0
  0
LINE
  5
532
330
18
100
AcDbEntity
  8
1
 62
     1
100
AcDbLine
 10
33.71724386310224
 20
-2.65285155254314
 30
0.0
 11
35.02692091697832
 21
-3.720301508887475
 31
0.0
  0
LINE
  5
533
330
18
100
AcDbEntity
  8
1
 62
     1
100
AcDbLine
 10
35.02692091697832
 20
-3.720301508887475
 30
0.0
 11
36.33660437307474
 21
-4.707461914499315
 31
0.0
  0
LINE
  5
534
330
18
100
AcDbEntity
  8
1
 62
     1
100
AcDbLine
 10
36.33660437307474
 20
-4.707461914499315
 30
0.0
 11
37.646279734513
 21
-5.593014915015913
 31
0.0
  0
LINE
  5
535
330
18
100
AcDbEntity
  8
1
 62
     1
100
AcDbLine
 10
37.646279734513
 20
-5.593014915015913
 30
0.0
 11
38.30114441448022
 21
-5.991636465267089
 31
0.0
  0
LINE
  5
536
330
18
100
AcDbEntity
  8
1
 62
     1
100
AcDbLine
 10
38.30114441448022
 20
-5.991636465267089
 30
0.0
 11
38.95599999999999
 21
-6.357884561358325
 31
0.0
  0
LINE
  5
537
330
18
100
AcDbEntity
  8
1
 62
     1
100
AcDbLine
 10
26.53928257267677
 20
-0.0000000000008172
 30
0.0
 11
29.64362088010579
 21
-2.710840275683539
 31
0.0
  0
LINE
  5
538
330
18
100
AcDbEntity
  8
1
 62
     1
100
AcDbLine
 10
29.64362088010579
 20
-2.710840275683539
 30
0.0
 11
31.19568442858925
 21
-3.963214426207243
 31
0.0
  0
LINE
  5
539
330
18
100
AcDbEntity
  8
1
 62
     1
100
AcDbLine
 10
31.19568442858925
 20
-3.963214426207243
 30
0.0
 11
32.74774912294616
 21
-5.095549264755386
 31
0.0
  0
LINE
  5
53A
330
18
100
AcDbEntity
  8
1
 62
     1
100
AcDbLine
 10
32.74774912294616
 20
-5.095549264755386
 30
0.0
 11
33.52378465720012
 21
-5.605814584292992
 31
0.0
  0
LINE
  5
53B
330
18
100
AcDbEntity
  8
1
 62
     1
100
AcDbLine
 10
33.52378465720012
 20
-5.605814584292992
 30
0.0
 11
34.29981459408091
 21
-6.07354700238394
 31
0.0
  0
LINE
  5
53C
330
18
100
AcDbEntity
  8
1
 62
     1
100
AcDbLine
 10
34.29981459408091
 20
-6.07354700238394
 30
0.0
 11
35.07584560592567
 21
-6.495203491353916
 31
0.0
  0
LINE
  5
53D
330
18
100
AcDbEntity
  8
1
 62
     1
100
AcDbLine
 10
35.07584560592567
 20
-6.495203491353916
 30
0.0
 11
35.85188006464017
 21
-6.867585001467948
 31
0.0
  0
LINE
  5
53E
330
18
100
AcDbEntity
  8
1
 62
     1
100
AcDbLine
 10
35.85188006464017
 20
-6.867585001467948
 30
0.0
 11
36.62790767856222
 21
-7.187862788013753
 31
0.0
  0
LINE
  5
53F
330
18
100
AcDbEntity
  8
1
 62
     1
100
AcDbLine
 10
36.62790767856222
 20
-7.187862788013753
 30
0.0
 11
37.40394481924979
 21
-7.453612665996512
 31
0.0
  0
LINE
  5
540
330
18
100
AcDbEntity
  8
1
 62
     1
100
AcDbLine
 10
37.40394481924979
 20
-7.453612665996512
 30
0.0
 11
38.17997143077277
 21
-7.662812349173463
 31
0.0
  0
LINE
  5
541
330
18
100
AcDbEntity
  8
1
 62
     1
100
AcDbLine
 10
38.17997143077277
 20
-7.662812349173463
 30
0.0
 11
38.56798781819423
 21
-7.74569494286785
 31
0.0
  0
LINE
  5
542
330
18
100
AcDbEntity
  8
1
 62
     1
100
AcDbLine
 10
38.56798781819423
 20
-7.74569494286785
 30
0.0
 11
38.956
 21
-7.813878859380153
 31
0.0
  0
LINE
  5
543
330
18
100
AcDbEntity
  8
1
 62
     1
100
AcDbLine
 10
26.53928257267683
 20
-0.0000000000004558
 30
0.0
 11
22.65328486216988
 21
2.032693087797102
 31
0.0
  0
LINE
  5
544
330
18
100
AcDbEntity
  8
1
 62
     1
100
AcDbLine
 10
22.65328486216988
 20
2.032693087797102
 30
0.0
 11
20.71028600691641
 21
2.928016921992528
 31
0.0
  0
LINE
  5
545
330
18
100
AcDbEntity
  8
1
 62
     1
100
AcDbLine
 10
20.71028600691641
 20
2.928016921992528
 30
0.0
 11
19.73878657928968
 21
3.326050029767614
 31
0.0
  0
LINE
  5
546
330
18
100
AcDbEntity
  8
1
 62
     1
100
AcDbLine
 10
19.73878657928968
 20
3.326050029767614
 30
0.0
 11
18.76728715166294
 21
3.684551673445615
 31
0.0
  0
LINE
  5
547
330
18
100
AcDbEntity
  8
1
 62
     1
100
AcDbLine
 10
18.76728715166294
 20
3.684551673445615
 30
0.0
 11
17.7957877240362
 21
3.999260911987104
 31
0.0
  0
LINE
  5
548
330
18
100
AcDbEntity
  8
1
 62
     1
100
AcDbLine
 10
17.7957877240362
 20
3.999260911987104
 30
0.0
 11
16.82428829640947
 21
4.266437294774634
 31
0.0
  0
LINE
  5
549
330
18
100
AcDbEntity
  8
1
 62
     1
100
AcDbLine
 10
16.82428829640947
 20
4.266437294774634
 30
0.0
 11
15.85278886878273
 21
4.482905318538503
 31
0.0
  0
LINE
  5
54A
330
18
100
AcDbEntity
  8
1
 62
     1
100
AcDbLine
 10
15.85278886878273
 20
4.482905318538503
 30
0.0
 11
14.881289441156
 21
4.646092169268884
 31
0.0
  0
LINE
  5
54B
330
18
100
AcDbEntity
  8
1
 62
     1
100
AcDbLine
 10
14.881289441156
 20
4.646092169268884
 30
0.0
 11
13.90979001352926
 21
4.754058302342718
 31
0.0
  0
LINE
  5
54C
330
18
100
AcDbEntity
  8
1
 62
     1
100
AcDbLine
 10
13.90979001352926
 20
4.754058302342718
 30
0.0
 11
12.93829058590253
 21
4.805520490960225
 31
0.0
  0
LINE
  5
54D
330
18
100
AcDbEntity
  8
1
 62
     1
100
AcDbLine
 10
12.93829058590253
 20
4.805520490960225
 30
0.0
 11
11.96679115827579
 21
4.799867091775542
 31
0.0
  0
LINE
  5
54E
330
18
100
AcDbEntity
  8
1
 62
     1
100
AcDbLine
 10
11.96679115827579
 20
4.799867091775542
 30
0.0
 11
10.99529173064906
 21
4.737165266110345
 31
0.0
  0
LINE
  5
54F
330
18
100
AcDbEntity
  8
1
 62
     1
100
AcDbLine
 10
10.99529169506089
 20
4.737165216341373
 30
0.0
 11
12.22555450525012
 21
3.815121730071753
 31
0.0
  0
LINE
  5
550
330
18
100
AcDbEntity
  8
1
 62
     1
100
AcDbLine
 10
12.22555450525012
 20
3.815121730071753
 30
0.0
 11
14.68608917983338
 21
1.771959617400136
 31
0.0
  0
LINE
  5
551
330
18
100
AcDbEntity
  8
1
 62
     1
100
AcDbLine
 10
14.68608917983338
 20
1.771959617400136
 30
0.0
 11
19.60726122122983
 21
-2.552442300487654
 31
0.0
  0
LINE
  5
552
330
18
100
AcDbEntity
  8
1
 62
     1
100
AcDbLine
 10
19.60726122122983
 20
-2.552442300487654
 30
0.0
 11
22.06779595454694
 21
-4.505660112556618
 31
0.0
  0
LINE
  5
553
330
18
100
AcDbEntity
  8
1
 62
     1
100
AcDbLine
 10
22.06779595454694
 20
-4.505660112556618
 30
0.0
 11
23.2981154823662
 21
-5.362538702089128
 31
0.0
  0
LINE
  5
554
330
18
100
AcDbEntity
  8
1
 62
     1
100
AcDbLine
 10
23.2981154823662
 20
-5.362538702089128
 30
0.0
 11
24.52846235510384
 21
-6.117274935152735
 31
0.0
  0
LINE
  5
555
330
18
100
AcDbEntity
  8
1
 62
     1
100
AcDbLine
 10
24.52846235510384
 20
-6.117274935152735
 30
0.0
 11
25.14362214821129
 21
-6.451748745730999
 31
0.0
  0
LINE
  5
556
330
18
100
AcDbEntity
  8
1
 62
     1
100
AcDbLine
 10
25.14362214821129
 20
-6.451748745730999
 30
0.0
 11
25.75875768672213
 21
-6.755447357077365
 31
0.0
  0
LINE
  5
557
330
18
100
AcDbEntity
  8
1
 62
     1
100
AcDbLine
 10
25.75875768672213
 20
-6.755447357077365
 30
0.0
 11
26.37388978212407
 21
-7.026933831145821
 31
0.0
  0
LINE
  5
558
330
18
100
AcDbEntity
  8
1
 62
     1
100
AcDbLine
 10
26.37388978212407
 20
-7.026933831145821
 30
0.0
 11
26.98902014360354
 21
-7.264916453035975
 31
0.0
  0
LINE
  5
559
330
18
100
AcDbEntity
  8
1
 62
     1
100
AcDbLine
 10
26.98902014360354
 20
-7.264916453035975
 30
0.0
 11
27.60415534302911
 21
-7.468262960113438
 31
0.0
  0
LINE
  5
55A
330
18
100
AcDbEntity
  8
1
 62
     1
100
AcDbLine
 10
27.60415534302911
 20
-7.468262960113438
 30
0.0
 11
28.2192925011648
 21
-7.636001389220721
 31
0.0
  0
LINE
  5
55B
330
18
100
AcDbEntity
  8
1
 62
     1
100
AcDbLine
 10
28.2192925011648
 20
-7.636001389220721
 30
0.0
 11
28.83442480455446
 21
-7.767331575257494
 31
0.0
  0
LINE
  5
55C
330
18
100
AcDbEntity
  8
1
 62
     1
100
AcDbLine
 10
28.83442480455446
 20
-7.767331575257494
 30
0.0
 11
29.4495539129481
 21
-7.861627392423245
 31
0.0
  0
LINE
  5
55D
330
18
100
AcDbEntity
  8
1
 62
     1
100
AcDbLine
 10
29.4495539129481
 20
-7.861627392423245
 30
0.0
 11
30.06468983885604
 21
-7.918440436974878
 31
0.0
  0
LINE
  5
55E
330
18
100
AcDbEntity
  8
1
 62
     1
100
AcDbLine
 10
30.06468983885604
 20
-7.918440436974878
 30
0.0
 11
30.67981335294708
 21
-7.937499751943936
 31
0.0
  0
LINE
  5
55F
330
18
100
AcDbEntity
  8
1
 62
     1
100
AcDbLine
 10
30.67981335294708
 20
-7.937499751943936
 30
0.0
 11
30.68204010033824
 21
-7.937499999995591
 31
0.0
  0
LINE
  5
560
330
18
100
AcDbEntity
  8
1
 62
     1
100
AcDbLine
 10
12.54856490782359
 20
0.0000000000007297
 30
0.0
 11
16.04628841490018
 21
-3.037585817819475
 31
0.0
  0
LINE
  5
561
330
18
100
AcDbEntity
  8
1
 62
     1
100
AcDbLine
 10
16.04628841490018
 20
-3.037585817819475
 30
0.0
 11
17.79512364029181
 21
-4.409867968919238
 31
0.0
  0
LINE
  5
562
330
18
100
AcDbEntity
  8
1
 62
     1
100
AcDbLine
 10
17.79512364029181
 20
-4.409867968919238
 30
0.0
 11
18.66954406749642
 21
-5.035524177091823
 31
0.0
  0
LINE
  5
563
330
18
100
AcDbEntity
  8
1
 62
     1
100
AcDbLine
 10
18.66954406749642
 20
-5.035524177091823
 30
0.0
 11
19.54395923168765
 21
-5.612682146791805
 31
0.0
  0
LINE
  5
564
330
18
100
AcDbEntity
  8
1
 62
     1
100
AcDbLine
 10
19.54395923168765
 20
-5.612682146791805
 30
0.0
 11
20.41837383905445
 21
-6.135787385605552
 31
0.0
  0
LINE
  5
565
330
18
100
AcDbEntity
  8
1
 62
     1
100
AcDbLine
 10
20.41837383905445
 20
-6.135787385605552
 30
0.0
 11
21.29279251682027
 21
-6.599804463829002
 31
0.0
  0
LINE
  5
566
330
18
100
AcDbEntity
  8
1
 62
     1
100
AcDbLine
 10
21.29279251682027
 20
-6.599804463829002
 30
0.0
 11
22.16721385811249
 21
-7.000262795844922
 31
0.0
  0
LINE
  5
567
330
18
100
AcDbEntity
  8
1
 62
     1
100
AcDbLine
 10
22.16721385811249
 20
-7.000262795844922
 30
0.0
 11
23.0416296083794
 21
-7.333302517912372
 31
0.0
  0
LINE
  5
568
330
18
100
AcDbEntity
  8
1
 62
     1
100
AcDbLine
 10
23.0416296083794
 20
-7.333302517912372
 30
0.0
 11
23.47883671460055
 21
-7.473512753334234
 31
0.0
  0
LINE
  5
569
330
18
100
AcDbEntity
  8
1
 62
     1
100
AcDbLine
 10
23.47883671460055
 20
-7.473512753334234
 30
0.0
 11
23.91604389149426
 21
-7.595719053326031
 31
0.0
  0
LINE
  5
56A
330
18
100
AcDbEntity
  8
1
 62
     1
100
AcDbLine
 10
23.91604389149426
 20
-7.595719053326031
 30
0.0
 11
24.35325192990471
 21
-7.699627010313576
 31
0.0
  0
LINE
  5
56B
330
18
100
AcDbEntity
  8
1
 62
     1
100
AcDbLine
 10
24.35325192990471
 20
-7.699627010313576
 30
0.0
 11
24.79046119317206
 21
-7.784986312379215
 31
0.0
  0
LINE
  5
56C
330
18
100
AcDbEntity
  8
1
 62
     1
100
AcDbLine
 10
24.79046119317206
 20
-7.784986312379215
 30
0.0
 11
25.22767232956648
 21
-7.851591107556355
 31
0.0
  0
LINE
  5
56D
330
18
100
AcDbEntity
  8
1
 62
     1
100
AcDbLine
 10
25.22767232956648
 20
-7.851591107556355
 30
0.0
 11
25.66488297921951
 21
-7.899280463653574
 31
0.0
  0
LINE
  5
56E
330
18
100
AcDbEntity
  8
1
 62
     1
100
AcDbLine
 10
25.66488297921951
 20
-7.899280463653574
 30
0.0
 11
26.10209186382188
 21
-7.92793956996378
 31
0.0
  0
LINE
  5
56F
330
18
100
AcDbEntity
  8
1
 62
     1
100
AcDbLine
 10
26.10209186382188
 20
-7.92793956996378
 30
0.0
 11
26.5392825726728
 21
-7.937499999891319
 31
0.0
  0
LINE
  5
570
330
18
100
AcDbEntity
  8
1
 62
     1
100
AcDbLine
 10
12.54856490782293
 20
-0.0000000000000012
 30
0.0
 11
9.814282453911465
 21
1.453572002857
 31
0.0
  0
LINE
  5
571
330
18
100
AcDbEntity
  8
1
 62
     1
100
AcDbLine
 10
9.814282453911465
 20
1.453572002857
 30
0.0
 11
7.079999999999998
 21
2.77122774175195
 31
0.0
  0
LINE
  5
572
330
18
100
AcDbEntity
  8
SK1
100
AcDbLine
 10
-47.62625000000001
 20
7.9375
 30
0.0
 11
-48.42000000000001
 21
7.14375
 31
0.0
  0
LINE
  5
573
330
18
100
AcDbEntity
  8
SK1
100
AcDbLine
 10
-48.42000000000001
 20
7.14375
 30
0.0
 11
-48.42000000000001
 21
7.136647731653629
 31
0.0
  0
LINE
  5
574
330
18
100
AcDbEntity
  8
SK1
100
AcDbLine
 10
-48.42000000000001
 20
7.136647731653629
 30
0.0
 11
-48.42000000000001
 21
6.502765513787307
 31
0.0
  0
LINE
  5
575
330
18
100
AcDbEntity
  8
SK1
100
AcDbLine
 10
-48.42000000000001
 20
6.502765513787307
 30
0.0
 11
-48.42000000000001
 21
-7.14375
 31
0.0
  0
LINE
  5
576
330
18
100
AcDbEntity
  8
SK1
100
AcDbLine
 10
-0.0000000000000009
 20
7.9375
 30
0.0
 11
-47.62625000000001
 21
7.9375
 31
0.0
  0
LINE
  5
577
330
18
100
AcDbEntity
  8
SK1
100
AcDbLine
 10
-47.62625000000001
 20
7.9375
 30
0.0
 11
-47.62625000000001
 21
7.929608590726255
 31
0.0
  0
LINE
  5
578
330
18
100
AcDbEntity
  8
SK1
100
AcDbLine
 10
-47.62625000000001
 20
7.929608590726255
 30
0.0
 11
-47.62625000000001
 21
7.225295015319229
 31
0.0
  0
LINE
  5
579
330
18
100
AcDbEntity
  8
SK1
100
AcDbLine
 10
-47.62625000000001
 20
7.225295015319229
 30
0.0
 11
-47.62625000000001
 21
-7.9375
 31
0.0
  0
LINE
  5
57A
330
18
100
AcDbEntity
  8
SK1
100
AcDbLine
 10
-48.42000000000001
 20
-7.14375
 30
0.0
 11
-47.62625000000001
 21
-7.9375
 31
0.0
  0
LINE
  5
57B
330
18
100
AcDbEntity
  8
SK1
100
AcDbLine
 10
-47.62625000000001
 20
-7.937499999999998
 30
0.0
 11
-0.0000000000000036
 21
-7.937499999999998
 31
0.0
  0
DIMENSION
  5
57C
330
18
100
AcDbEntity
  8
2
100
AcDbDimension
  2
*D0
 10
55.48000000000003
 20
-7.937499999999948
 30
0.0
 11
53.08225000000007
 21
-19.46249999999995
 31
0.0
 70
    32
  1
%%c<>
 71
     5
 42
15.875
  3
STANDARD
100
AcDbAlignedDimension
 13
40.48
 23
7.9375
 33
0.0
 14
40.48
 24
-7.9375
 34
0.0
 50
90.0000000000002
100
AcDbRotatedDimension
  0
DIMENSION
  5
58A
330
18
100
AcDbEntity
  8
2
100
AcDbDimension
  2
*D1
 10
40.48
 20
75.0
 30
0.0
 11
20.24
 21
77.438
 31
0.0
 70
    32
  1
<>
 71
     5
 42
40.48
  3
STANDARD
100
AcDbAlignedDimension
 13
0.0
 23
0.0
 33
0.0
 14
40.48
 24
0.0
 34
0.0
100
AcDbRotatedDimension
  0
DIMENSION
  5
597
330
18
100
AcDbEntity
  8
2
100
AcDbDimension
  2
*D2
 10
40.48
 20
60.0
 30
0.0
 11
23.78
 21
62.438
 31
0.0
 70
    32
  1
<>
 71
     5
 42
33.4
  3
STANDARD
100
AcDbAlignedDimension
 13
7.079999999999998
 23
7.9375
 33
0.0
 14
40.48
 24
7.9375
 34
0.0
100
AcDbRotatedDimension
  0
DIMENSION
  5
5A4
330
18
100
AcDbEntity
  8
SK2
100
AcDbDimension
  2
*D3
 10
-63.4199999999595
 20
-7.937500000076551
 30
0.0
 11
-65.81774999990068
 21
-19.46250000008878
 31
0.0
 70
    32
  1
%%c<>
 71
     5
 42
15.875
  3
STANDARD
100
AcDbAlignedDimension
 13
-48.42000000000001
 23
7.9375
 33
0.0
 14
-48.42000000000001
 24
-7.9375
 34
0.0
 50
90.0000000002924
100
AcDbRotatedDimension
  0
DIMENSION
  5
5B2
330
18
100
AcDbEntity
  8
SK2
100
AcDbDimension
  2
*D4
 10
40.48
 20
90.0
 30
0.0
 11
-3.970000000000006
 21
92.39775
 31
0.0
 70
    32
  1
<>
 71
     5
 42
88.9
  3
STANDARD
100
AcDbAlignedDimension
 13
-48.42000000000001
 23
0.0
 33
0.0
 14
40.48
 24
0.0
 34
0.0
100
AcDbRotatedDimension
  0
DIMENSION
  5
5BF
330
18
100
AcDbEntity
  8
2
100
AcDbDimension
  2
*D5
 10
38.956
 20
-6.4135
 30
0.0
 11
42.3072068751947
 21
-25.41913862506964
 31
0.0
 70
   164
  1
<>
 71
     5
 42
1.524
  3
STANDARD
100
AcDbRadialDimension
 15
39.2206398227644
 25
-7.914347015590605
 35
0.0
 40
0.0
  0
ENDSEC
  0
SECTION
  2
OBJECTS
  0
DICTIONARY
  5
C
330
0
100
AcDbDictionary
281
     1
  3
ACAD_COLOR
350
387
  3
ACAD_GROUP
350
D
  3
ACAD_LAYOUT
350
301
  3
ACAD_MATERIAL
350
386
  3
ACAD_MLEADERSTYLE
350
5C8
  3
ACAD_MLINESTYLE
350
E
  3
ACAD_PLOTSETTINGS
350
302
  3
ACAD_PLOTSTYLENAME
350
2FF
  3
ACAD_SCALELIST
350
3A0
  3
ACAD_TABLESTYLE
350
388
  3
ACAD_VISUALSTYLE
350
3C5
  3
ACDBHEADERROUNDTRIPXREC
350
5C9
  3
AcDbVariableDictionary
350
357
  0
DICTIONARY
  5
387
102
{ACAD_REACTORS
330
C
102
}
330
C
100
AcDbDictionary
281
     1
  0
DICTIONARY
  5
D
102
{ACAD_REACTORS
330
C
102
}
330
C
100
AcDbDictionary
281
     1
  0
DICTIONARY
  5
301
102
{ACAD_REACTORS
330
C
102
}
330
C
100
AcDbDictionary
281
     1
  3
Layout1
350
33B
  3
Model
350
303
  0
DICTIONARY
  5
386
102
{ACAD_REACTORS
330
C
102
}
330
C
100
AcDbDictionary
281
     1
  3
ByBlock
350
3C3
  3
ByLayer
350
3C2
  3
Global
350
3C4
  0
DICTIONARY
  5
5C8
102
{ACAD_REACTORS
330
C
102
}
330
C
100
AcDbDictionary
281
     1
  0
DICTIONARY
  5
E
102
{ACAD_REACTORS
330
C
102
}
330
C
100
AcDbDictionary
281
     1
  3
STANDARD
350
1B
  0
DICTIONARY
  5
302
102
{ACAD_REACTORS
330
C
102
}
330
C
100
AcDbDictionary
281
     1
  0
ACDBDICTIONARYWDFLT
  5
2FF
102
{ACAD_REACTORS
330
C
102
}
330
C
100
AcDbDictionary
281
     1
  3
Normal
350
300
100
AcDbDictionaryWithDefault
340
300
  0
DICTIONARY
  5
3A0
102
{ACAD_REACTORS
330
C
102
}
330
C
100
AcDbDictionary
281
     1
  3
A0
350
3A1
  3
A1
350
3A2
  3
A2
350
3A3
  3
A3
350
3A4
  3
A4
350
3A5
  3
A5
350
3A6
  3
A6
350
3A7
  3
A7
350
3A8
  3
A8
350
3A9
  3
A9
350
3AA
  3
B0
350
3AB
  3
B1
350
3AC
  3
B2
350
3AD
  3
B3
350
3AE
  3
B4
350
3AF
  3
B5
350
3B0
  3
B6
350
3B1
  3
B7
350
3B2
  3
B8
350
3B3
  3
B9
350
3B4
  3
C0
350
3B5
  3
C1
350
3B6
  3
C2
350
3B7
  3
C3
350
3B8
  3
C4
350
3B9
  3
C5
350
3BA
  3
C6
350
3BB
  3
C7
350
3BC
  3
C8
350
3BD
  3
C9
350
3BE
  3
D0
350
3BF
  3
D1
350
3C0
  3
D2
350
3C1
  0
DICTIONARY
  5
388
102
{ACAD_REACTORS
330
C
102
}
330
C
100
AcDbDictionary
281
     1
  3
Standard
350
389
  0
DICTIONARY
  5
3C5
102
{ACAD_REACTORS
330
C
102
}
330
C
100
AcDbDictionary
281
     1
  3
2dWireframe
350
3CA
  3
3D Hidden
350
3CC
  3
3dWireframe
350
3CB
  3
Basic
350
3CD
  3
Brighten
350
3D1
  3
ColorChange
350
3D5
  3
Conceptual
350
3CF
  3
Dim
350
3D0
  3
Facepattern
350
3D4
  3
Flat
350
3C6
  3
FlatWithEdges
350
3C7
  3
Gouraud
350
3C8
  3
GouraudWithEdges
350
3C9
  3
Linepattern
350
3D3
  3
Realistic
350
3CE
  3
Thicken
350
3D2
  0
DICTIONARY
  5
5C9
102
{ACAD_REACTORS
330
C
102
}
330
C
100
AcDbDictionary
281
     1
  3
COLORDICT
350
5CA
  3
MATERIALDICT
350
5CB
  0
DICTIONARY
  5
357
102
{ACAD_REACTORS
330
C
102
}
330
C
100
AcDbDictionary
281
     1
  3
CANNOSCALE
350
5CC
  3
CTABLESTYLE
350
38D
  3
DIMASSOC
350
359
  3
HIDETEXT
350
358
  3
PROJECTNAME
350
38E
  0
LAYOUT
  5
33B
102
{ACAD_REACTORS
330
301
102
}
330
301
100
AcDbPlotSettings
  1

  2
Lexmark Optra PS2
  4

  6

 40
0.0
 41
0.0
 42
0.0
 43
0.0
 44
0.0
 45
0.0
 46
0.0
 47
0.0
 48
0.0
 49
0.0
140
0.0
141
0.0
142
1.0
143
1.0
 70
   688
 72
     0
 73
     0
 74
     5
  7
monochrome.ctb
 75
    16
147
1.0
148
0.0
149
0.0
100
AcDbLayout
  1
Layout1
 70
     1
 71
     1
 10
0.0
 20
0.0
 11
12.0
 21
9.0
 12
0.0
 22
0.0
 32
0.0
 14
0.0
 24
0.0
 34
0.0
 15
0.0
 25
0.0
 35
0.0
146
0.0
 13
0.0
 23
0.0
 33
0.0
 16
1.0
 26
0.0
 36
0.0
 17
0.0
 27
1.0
 37
0.0
 76
     0
330
338
  0
LAYOUT
  5
303
102
{ACAD_REACTORS
330
301
102
}
330
301
100
AcDbPlotSettings
  1

  2
Lexmark Optra Rx
  4
A4
  6

 40
6.805083274841307
 41
5.535083293914794
 42
6.974411010742187
 43
7.14373779296875
 44
209.9733276367186
 45
296.9259948730469
 46
0.0
 47
0.0
 48
0.0
 49
0.0
140
0.0
141
0.0
142
1.0
143
2.976565420630886
 70
 11952
 72
     1
 73
     1
 74
     0
  7
monochrome.ctb
 75
     0
147
0.335957675604539
148
204.1199660668592
149
172.3933209647495
100
AcDbLayout
  1
Model
 70
     1
 71
     0
 10
0.0
 20
0.0
 11
12.0
 21
9.0
 12
0.0
 22
0.0
 32
0.0
 14
0.0
 24
0.0
 34
0.0
 15
0.0
 25
0.0
 35
0.0
146
0.0
 13
0.0
 23
0.0
 33
0.0
 16
1.0
 26
0.0
 36
0.0
 17
0.0
 27
1.0
 37
0.0
 76
     0
330
18
331
39A
  0
MATERIAL
  5
3C3
102
{ACAD_REACTORS
330
386
102
}
102
{ACAD_XDICTIONARY
360
5CF
102
}
330
386
100
AcDbMaterial
  1
ByBlock
  0
MATERIAL
  5
3C2
102
{ACAD_REACTORS
330
386
102
}
102
{ACAD_XDICTIONARY
360
5CD
102
}
330
386
100
AcDbMaterial
  1
ByLayer
  0
MATERIAL
  5
3C4
102
{ACAD_REACTORS
330
386
102
}
102
{ACAD_XDICTIONARY
360
5D1
102
}
330
386
100
AcDbMaterial
  1
Global
  0
MLINESTYLE
  5
1B
102
{ACAD_REACTORS
330
E
102
}
330
E
100
AcDbMlineStyle
  2
STANDARD
 70
     0
  3

 62
     0
 51
90.0
 52
90.0
 71
     2
 49
0.5
 62
   256
  6
BYLAYER
 49
-0.5
 62
   256
  6
BYLAYER
  0
ACDBPLACEHOLDER
  5
300
102
{ACAD_REACTORS
330
2FF
102
}
330
2FF
  0
SCALE
  5
3A1
102
{ACAD_REACTORS
330
3A0
102
}
330
3A0
100
AcDbScale
 70
     0
300
1:1
140
1.0
141
1.0
290
     1
  0
SCALE
  5
3A2
102
{ACAD_REACTORS
330
3A0
102
}
330
3A0
100
AcDbScale
 70
     0
300
1:2
140
1.0
141
2.0
290
     0
  0
SCALE
  5
3A3
102
{ACAD_REACTORS
330
3A0
102
}
330
3A0
100
AcDbScale
 70
     0
300
1:4
140
1.0
141
4.0
290
     0
  0
SCALE
  5
3A4
102
{ACAD_REACTORS
330
3A0
102
}
330
3A0
100
AcDbScale
 70
     0
300
1:5
140
1.0
141
5.0
290
     0
  0
SCALE
  5
3A5
102
{ACAD_REACTORS
330
3A0
102
}
330
3A0
100
AcDbScale
 70
     0
300
1:8
140
1.0
141
8.0
290
     0
  0
SCALE
  5
3A6
102
{ACAD_REACTORS
330
3A0
102
}
330
3A0
100
AcDbScale
 70
     0
300
1:10
140
1.0
141
10.0
290
     0
  0
SCALE
  5
3A7
102
{ACAD_REACTORS
330
3A0
102
}
330
3A0
100
AcDbScale
 70
     0
300
1:16
140
1.0
141
16.0
290
     0
  0
SCALE
  5
3A8
102
{ACAD_REACTORS
330
3A0
102
}
330
3A0
100
AcDbScale
 70
     0
300
1:20
140
1.0
141
20.0
290
     0
  0
SCALE
  5
3A9
102
{ACAD_REACTORS
330
3A0
102
}
330
3A0
100
AcDbScale
 70
     0
300
1:30
140
1.0
141
30.0
290
     0
  0
SCALE
  5
3AA
102
{ACAD_REACTORS
330
3A0
102
}
330
3A0
100
AcDbScale
 70
     0
300
1:40
140
1.0
141
40.0
290
     0
  0
SCALE
  5
3AB
102
{ACAD_REACTORS
330
3A0
102
}
330
3A0
100
AcDbScale
 70
     0
300
1:50
140
1.0
141
50.0
290
     0
  0
SCALE
  5
3AC
102
{ACAD_REACTORS
330
3A0
102
}
330
3A0
100
AcDbScale
 70
     0
300
1:100
140
1.0
141
100.0
290
     0
  0
SCALE
  5
3AD
102
{ACAD_REACTORS
330
3A0
102
}
330
3A0
100
AcDbScale
 70
     0
300
2:1
140
2.0
141
1.0
290
     0
  0
SCALE
  5
3AE
102
{ACAD_REACTORS
330
3A0
102
}
330
3A0
100
AcDbScale
 70
     0
300
4:1
140
4.0
141
1.0
290
     0
  0
SCALE
  5
3AF
102
{ACAD_REACTORS
330
3A0
102
}
330
3A0
100
AcDbScale
 70
     0
300
8:1
140
8.0
141
1.0
290
     0
  0
SCALE
  5
3B0
102
{ACAD_REACTORS
330
3A0
102
}
330
3A0
100
AcDbScale
 70
     0
300
10:1
140
10.0
141
1.0
290
     0
  0
SCALE
  5
3B1
102
{ACAD_REACTORS
330
3A0
102
}
330
3A0
100
AcDbScale
 70
     0
300
100:1
140
100.0
141
1.0
290
     0
  0
SCALE
  5
3B2
102
{ACAD_REACTORS
330
3A0
102
}
330
3A0
100
AcDbScale
 70
     0
300
1/128" = 1'-0"
140
0.0078125
141
12.0
290
     0
  0
SCALE
  5
3B3
102
{ACAD_REACTORS
330
3A0
102
}
330
3A0
100
AcDbScale
 70
     0
300
1/64" = 1'-0"
140
0.015625
141
12.0
290
     0
  0
SCALE
  5
3B4
102
{ACAD_REACTORS
330
3A0
102
}
330
3A0
100
AcDbScale
 70
     0
300
1/32" = 1'-0"
140
0.03125
141
12.0
290
     0
  0
SCALE
  5
3B5
102
{ACAD_REACTORS
330
3A0
102
}
330
3A0
100
AcDbScale
 70
     0
300
1/16" = 1'-0"
140
0.0625
141
12.0
290
     0
  0
SCALE
  5
3B6
102
{ACAD_REACTORS
330
3A0
102
}
330
3A0
100
AcDbScale
 70
     0
300
3/32" = 1'-0"
140
0.09375
141
12.0
290
     0
  0
SCALE
  5
3B7
102
{ACAD_REACTORS
330
3A0
102
}
330
3A0
100
AcDbScale
 70
     0
300
1/8" = 1'-0"
140
0.125
141
12.0
290
     0
  0
SCALE
  5
3B8
102
{ACAD_REACTORS
330
3A0
102
}
330
3A0
100
AcDbScale
 70
     0
300
3/16" = 1'-0"
140
0.1875
141
12.0
290
     0
  0
SCALE
  5
3B9
102
{ACAD_REACTORS
330
3A0
102
}
330
3A0
100
AcDbScale
 70
     0
300
1/4" = 1'-0"
140
0.25
141
12.0
290
     0
  0
SCALE
  5
3BA
102
{ACAD_REACTORS
330
3A0
102
}
330
3A0
100
AcDbScale
 70
     0
300
3/8" = 1'-0"
140
0.375
141
12.0
290
     0
  0
SCALE
  5
3BB
102
{ACAD_REACTORS
330
3A0
102
}
330
3A0
100
AcDbScale
 70
     0
300
1/2" = 1'-0"
140
0.5
141
12.0
290
     0
  0
SCALE
  5
3BC
102
{ACAD_REACTORS
330
3A0
102
}
330
3A0
100
AcDbScale
 70
     0
300
3/4" = 1'-0"
140
0.75
141
12.0
290
     0
  0
SCALE
  5
3BD
102
{ACAD_REACTORS
330
3A0
102
}
330
3A0
100
AcDbScale
 70
     0
300
1" = 1'-0"
140
1.0
141
12.0
290
     0
  0
SCALE
  5
3BE
102
{ACAD_REACTORS
330
3A0
102
}
330
3A0
100
AcDbScale
 70
     0
300
1-1/2" = 1'-0"
140
1.5
141
12.0
290
     0
  0
SCALE
  5
3BF
102
{ACAD_REACTORS
330
3A0
102
}
330
3A0
100
AcDbScale
 70
     0
300
3" = 1'-0"
140
3.0
141
12.0
290
     0
  0
SCALE
  5
3C0
102
{ACAD_REACTORS
330
3A0
102
}
330
3A0
100
AcDbScale
 70
     0
300
6" = 1'-0"
140
6.0
141
12.0
290
     0
  0
SCALE
  5
3C1
102
{ACAD_REACTORS
330
3A0
102
}
330
3A0
100
AcDbScale
 70
     0
300
1'-0" = 1'-0"
140
12.0
141
12.0
290
     0
  0
TABLESTYLE
  5
389
102
{ACAD_REACTORS
330
388
102
}
330
388
100
AcDbTableStyle
  3
Standard
 70
     0
 71
     0
 40
1.5
 41
1.5
280
     0
281
     0
  7
STANDARD
140
4.5
170
     2
 62
     0
 63
   257
283
     0
274
    -2
284
     1
 64
     0
275
    -2
285
     1
 65
     0
276
    -2
286
     1
 66
     0
277
    -2
287
     1
 67
     0
278
    -2
288
     1
 68
     0
279
    -2
289
     1
 69
     0
  7
STANDARD
140
6.0
170
     5
 62
     0
 63
   257
283
     0
274
    -2
284
     1
 64
     0
275
    -2
285
     1
 65
     0
276
    -2
286
     1
 66
     0
277
    -2
287
     1
 67
     0
278
    -2
288
     1
 68
     0
279
    -2
289
     1
 69
     0
  7
STANDARD
140
4.5
170
     5
 62
     0
 63
   257
283
     0
274
    -2
284
     1
 64
     0
275
    -2
285
     1
 65
     0
276
    -2
286
     1
 66
     0
277
    -2
287
     1
 67
     0
278
    -2
288
     1
 68
     0
279
    -2
289
     1
 69
     0
  0
VISUALSTYLE
  5
3CA
102
{ACAD_REACTORS
330
3C5
102
}
102
{ACAD_XDICTIONARY
360
5DB
102
}
330
3C5
100
AcDbVisualStyle
  2
2dWireframe
 70
     4
 71
     0
 72
     2
 73
     0
 90
        0
 40
-0.6
 41
-30.0
 62
     5
 63
     7
 74
     1
 91
        4
 64
     7
 65
   257
 75
     1
175
     1
 42
1.0
 92
        0
 66
   257
 43
1.0
 76
     1
 77
     6
 78
     2
 67
     7
 79
     5
170
     0
171
     0
290
     0
174
     0
 93
        1
 44
0.0
173
     0
291
     0
 45
0.0
1001
ACAD
1000
AcDbSavedByObjectVersion
1070
     0
  0
VISUALSTYLE
  5
3CC
102
{ACAD_REACTORS
330
3C5
102
}
102
{ACAD_XDICTIONARY
360
5DF
102
}
330
3C5
100
AcDbVisualStyle
  2
3D Hidden
 70
     6
 71
     1
 72
     2
 73
     2
 90
        0
 40
-0.6
 41
-30.0
 62
     5
 63
     7
 74
     2
 91
        2
 64
     7
 65
   257
 75
     2
175
     1
 42
40.0
 92
        0
 66
   257
 43
1.0
 76
     1
 77
     6
 78
     2
 67
     7
 79
     3
170
     0
171
     0
290
     0
174
     0
 93
        1
 44
0.0
173
     0
291
     0
 45
0.0
1001
ACAD
1000
AcDbSavedByObjectVersion
1070
     0
  0
VISUALSTYLE
  5
3CB
102
{ACAD_REACTORS
330
3C5
102
}
102
{ACAD_XDICTIONARY
360
5DD
102
}
330
3C5
100
AcDbVisualStyle
  2
3dWireframe
 70
     5
 71
     0
 72
     2
 73
     0
 90
        0
 40
-0.6
 41
-30.0
 62
     5
 63
     7
 74
     1
 91
        4
 64
     7
 65
   257
 75
     1
175
     1
 42
1.0
 92
        0
 66
   257
 43
1.0
 76
     1
 77
     6
 78
     2
 67
     7
 79
     5
170
     0
171
     0
290
     0
174
     0
 93
        1
 44
0.0
173
     0
291
     0
 45
0.0
1001
ACAD
1000
AcDbSavedByObjectVersion
1070
     0
  0
VISUALSTYLE
  5
3CD
102
{ACAD_REACTORS
330
3C5
102
}
102
{ACAD_XDICTIONARY
360
5E1
102
}
330
3C5
100
AcDbVisualStyle
  2
Basic
 70
     7
 71
     1
 72
     0
 73
     1
 90
        0
 40
-0.6
 41
-30.0
 62
     5
 63
     7
 74
     0
 91
        4
 64
     7
 65
   257
 75
     1
175
     1
 42
1.0
 92
        8
 66
     7
 43
1.0
 76
     1
 77
     6
 78
     2
 67
     7
 79
     5
170
     0
171
     0
290
     0
174
     0
 93
        1
 44
0.0
173
     0
291
     1
 45
0.0
1001
ACAD
1000
AcDbSavedByObjectVersion
1070
     0
  0
VISUALSTYLE
  5
3D1
102
{ACAD_REACTORS
330
3C5
102
}
102
{ACAD_XDICTIONARY
360
5E9
102
}
330
3C5
100
AcDbVisualStyle
  2
Brighten
 70
    12
 71
     2
 72
     2
 73
     0
 90
        0
 40
-0.6
 41
-30.0
 62
     5
 63
     7
 74
     1
 91
        4
 64
     7
 65
   257
 75
     1
175
     1
 42
1.0
 92
        8
 66
     7
 43
1.0
 76
     1
 77
     6
 78
     2
 67
     7
 79
     5
170
     0
171
     0
290
     0
174
     0
 93
        1
 44
50.0
173
     0
291
     1
 45
0.0
1001
ACAD
1000
AcDbSavedByObjectVersion
1070
     0
  0
VISUALSTYLE
  5
3D5
102
{ACAD_REACTORS
330
3C5
102
}
102
{ACAD_XDICTIONARY
360
5F1
102
}
330
3C5
100
AcDbVisualStyle
  2
ColorChange
 70
    16
 71
     2
 72
     2
 73
     3
 90
        0
 40
-0.6
 41
-30.0
 62
     5
 63
     8
 74
     1
 91
        4
 64
     7
 65
   257
 75
     1
175
     1
 42
1.0
 92
        8
 66
     8
 43
1.0
 76
     1
 77
     6
 78
     2
 67
     7
 79
     5
170
     0
171
     0
290
     0
174
     0
 93
        1
 44
0.0
173
     0
291
     1
 45
0.0
1001
ACAD
1000
AcDbSavedByObjectVersion
1070
     0
  0
VISUALSTYLE
  5
3CF
102
{ACAD_REACTORS
330
3C5
102
}
102
{ACAD_XDICTIONARY
360
5E5
102
}
330
3C5
100
AcDbVisualStyle
  2
Conceptual
 70
     9
 71
     3
 72
     2
 73
     0
 90
        0
 40
-0.6
 41
-30.0
 62
     5
 63
     7
 74
     2
 91
        2
 64
     7
 65
   257
 75
     1
175
     1
 42
40.0
 92
        8
 66
     7
 43
1.0
 76
     1
 77
     6
 78
     2
 67
     7
 79
     3
170
     0
171
     0
290
     0
174
     0
 93
        1
 44
0.0
173
     0
291
     0
 45
0.0
1001
ACAD
1000
AcDbSavedByObjectVersion
1070
     0
  0
VISUALSTYLE
  5
3D0
102
{ACAD_REACTORS
330
3C5
102
}
102
{ACAD_XDICTIONARY
360
5E7
102
}
330
3C5
100
AcDbVisualStyle
  2
Dim
 70
    11
 71
     2
 72
     2
 73
     0
 90
        0
 40
-0.6
 41
-30.0
 62
     5
 63
     7
 74
     1
 91
        4
 64
     7
 65
   257
 75
     1
175
     1
 42
1.0
 92
        8
 66
     7
 43
1.0
 76
     1
 77
     6
 78
     2
 67
     7
 79
     5
170
     0
171
     0
290
     0
174
     0
 93
        1
 44
-50.0
173
     0
291
     1
 45
0.0
1001
ACAD
1000
AcDbSavedByObjectVersion
1070
     0
  0
VISUALSTYLE
  5
3D4
102
{ACAD_REACTORS
330
3C5
102
}
102
{ACAD_XDICTIONARY
360
5EF
102
}
330
3C5
100
AcDbVisualStyle
  2
Facepattern
 70
    15
 71
     2
 72
     2
 73
     0
 90
        0
 40
-0.6
 41
-30.0
 62
     5
 63
     7
 74
     1
 91
        4
 64
     7
 65
   257
 75
     1
175
     1
 42
1.0
 92
        8
 66
     7
 43
1.0
 76
     1
 77
     6
 78
     2
 67
     7
 79
     5
170
     0
171
     0
290
     0
174
     0
 93
        1
 44
0.0
173
     0
291
     1
 45
0.0
1001
ACAD
1000
AcDbSavedByObjectVersion
1070
     0
  0
VISUALSTYLE
  5
3C6
102
{ACAD_REACTORS
330
3C5
102
}
102
{ACAD_XDICTIONARY
360
5D3
102
}
330
3C5
100
AcDbVisualStyle
  2
Flat
 70
     0
 71
     2
 72
     1
 73
     1
 90
        2
 40
-0.6
 41
30.0
 62
     5
 63
     7
 74
     0
 91
        4
 64
     7
 65
   257
 75
     1
175
     1
 42
1.0
 92
        8
 66
     7
 43
1.0
 76
     1
 77
     6
 78
     2
 67
     7
 79
     5
170
     0
171
     0
290
     0
174
     0
 93
       13
 44
0.0
173
     0
291
     1
 45
0.0
1001
ACAD
1000
AcDbSavedByObjectVersion
1070
     0
  0
VISUALSTYLE
  5
3C7
102
{ACAD_REACTORS
330
3C5
102
}
102
{ACAD_XDICTIONARY
360
5D5
102
}
330
3C5
100
AcDbVisualStyle
  2
FlatWithEdges
 70
     1
 71
     2
 72
     1
 73
     1
 90
        2
 40
-0.6
 41
30.0
 62
     5
 63
     7
 74
     1
 91
        4
 64
     7
 65
   257
 75
     1
175
     1
 42
1.0
 92
        0
 66
   257
 43
1.0
 76
     1
 77
     6
 78
     2
 67
     7
 79
     5
170
     0
171
     0
290
     0
174
     0
 93
       13
 44
0.0
173
     0
291
     1
 45
0.0
1001
ACAD
1000
AcDbSavedByObjectVersion
1070
     0
  0
VISUALSTYLE
  5
3C8
102
{ACAD_REACTORS
330
3C5
102
}
102
{ACAD_XDICTIONARY
360
5D7
102
}
330
3C5
100
AcDbVisualStyle
  2
Gouraud
 70
     2
 71
     2
 72
     2
 73
     1
 90
        2
 40
-0.6
 41
30.0
 62
     5
 63
     7
 74
     0
 91
        4
 64
     7
 65
   257
 75
     1
175
     1
 42
1.0
 92
        0
 66
     7
 43
1.0
 76
     1
 77
     6
 78
     2
 67
     7
 79
     5
170
     0
171
     0
290
     0
174
     0
 93
       13
 44
0.0
173
     0
291
     1
 45
0.0
1001
ACAD
1000
AcDbSavedByObjectVersion
1070
     0
  0
VISUALSTYLE
  5
3C9
102
{ACAD_REACTORS
330
3C5
102
}
102
{ACAD_XDICTIONARY
360
5D9
102
}
330
3C5
100
AcDbVisualStyle
  2
GouraudWithEdges
 70
     3
 71
     2
 72
     2
 73
     1
 90
        2
 40
-0.6
 41
30.0
 62
     5
 63
     7
 74
     1
 91
        4
 64
     7
 65
   257
 75
     1
175
     1
 42
1.0
 92
        0
 66
   257
 43
1.0
 76
     1
 77
     6
 78
     2
 67
     7
 79
     5
170
     0
171
     0
290
     0
174
     0
 93
       13
 44
0.0
173
     0
291
     1
 45
0.0
1001
ACAD
1000
AcDbSavedByObjectVersion
1070
     0
  0
VISUALSTYLE
  5
3D3
102
{ACAD_REACTORS
330
3C5
102
}
102
{ACAD_XDICTIONARY
360
5ED
102
}
330
3C5
100
AcDbVisualStyle
  2
Linepattern
 70
    14
 71
     2
 72
     2
 73
     0
 90
        0
 40
-0.6
 41
-30.0
 62
     5
 63
     7
 74
     1
 91
        4
 64
     7
 65
   257
 75
     7
175
     7
 42
1.0
 92
        8
 66
     7
 43
1.0
 76
     1
 77
     6
 78
     2
 67
     7
 79
     5
170
     0
171
     0
290
     0
174
     0
 93
        1
 44
0.0
173
     0
291
     1
 45
0.0
1001
ACAD
1000
AcDbSavedByObjectVersion
1070
     0
  0
VISUALSTYLE
  5
3CE
102
{ACAD_REACTORS
330
3C5
102
}
102
{ACAD_XDICTIONARY
360
5E3
102
}
330
3C5
100
AcDbVisualStyle
  2
Realistic
 70
     8
 71
     2
 72
     2
 73
     0
 90
        0
 40
-0.6
 41
-30.0
 62
     5
 63
     7
 74
     1
 91
        0
 64
     7
 65
   257
 75
     1
175
     1
 42
1.0
 92
        8
 66
     8
 43
1.0
 76
     1
 77
     6
 78
     2
 67
     7
 79
     5
170
     0
171
     0
290
     0
174
     0
 93
       13
 44
0.0
173
     0
291
     0
 45
0.0
1001
ACAD
1000
AcDbSavedByObjectVersion
1070
     0
  0
VISUALSTYLE
  5
3D2
102
{ACAD_REACTORS
330
3C5
102
}
102
{ACAD_XDICTIONARY
360
5EB
102
}
330
3C5
100
AcDbVisualStyle
  2
Thicken
 70
    13
 71
     2
 72
     2
 73
     0
 90
        0
 40
-0.6
 41
-30.0
 62
     5
 63
     7
 74
     1
 91
        4
 64
     7
 65
   257
 75
     1
175
     1
 42
1.0
 92
       12
 66
     7
 43
1.0
 76
     1
 77
     6
 78
     2
 67
     7
 79
     5
170
     0
171
     0
290
     0
174
     0
 93
        1
 44
0.0
173
     0
291
     1
 45
0.0
1001
ACAD
1000
AcDbSavedByObjectVersion
1070
     0
  0
XRECORD
  5
5CA
102
{ACAD_REACTORS
330
5C9
102
}
330
5C9
100
AcDbXrecord
280
     1
340
387
  0
XRECORD
  5
5CB
102
{ACAD_REACTORS
330
5C9
102
}
330
5C9
100
AcDbXrecord
280
     1
340
386
  0
DICTIONARYVAR
  5
5CC
102
{ACAD_REACTORS
330
357
102
}
330
357
100
DictionaryVariables
280
     0
  1
1:1
  0
DICTIONARYVAR
  5
38D
102
{ACAD_REACTORS
330
357
102
}
330
357
100
DictionaryVariables
280
     0
  1
Standard
  0
DICTIONARYVAR
  5
359
102
{ACAD_REACTORS
330
357
102
}
330
357
100
DictionaryVariables
280
     0
  1
2
  0
DICTIONARYVAR
  5
358
102
{ACAD_REACTORS
330
357
102
}
330
357
100
DictionaryVariables
280
     0
  1
1
  0
DICTIONARYVAR
  5
38E
102
{ACAD_REACTORS
330
357
102
}
330
357
100
DictionaryVariables
280
     0
  1

  0
DICTIONARY
  5
5CF
330
3C3
100
AcDbDictionary
280
     1
281
     1
  3
ACAD_XREC_ROUNDTRIP
360
5D0
  0
DICTIONARY
  5
5CD
330
3C2
100
AcDbDictionary
280
     1
281
     1
  3
ACAD_XREC_ROUNDTRIP
360
5CE
  0
DICTIONARY
  5
5D1
330
3C4
100
AcDbDictionary
280
     1
281
     1
  3
ACAD_XREC_ROUNDTRIP
360
5D2
  0
DICTIONARY
  5
5DB
330
3CA
100
AcDbDictionary
280
     1
281
     1
  3
ACAD_XREC_ROUNDTRIP
360
5DC
  0
DICTIONARY
  5
5DF
330
3CC
100
AcDbDictionary
280
     1
281
     1
  3
ACAD_XREC_ROUNDTRIP
360
5E0
  0
DICTIONARY
  5
5DD
330
3CB
100
AcDbDictionary
280
     1
281
     1
  3
ACAD_XREC_ROUNDTRIP
360
5DE
  0
DICTIONARY
  5
5E1
330
3CD
100
AcDbDictionary
280
     1
281
     1
  3
ACAD_XREC_ROUNDTRIP
360
5E2
  0
DICTIONARY
  5
5E9
330
3D1
100
AcDbDictionary
280
     1
281
     1
  3
ACAD_XREC_ROUNDTRIP
360
5EA
  0
DICTIONARY
  5
5F1
330
3D5
100
AcDbDictionary
280
     1
281
     1
  3
ACAD_XREC_ROUNDTRIP
360
5F2
  0
DICTIONARY
  5
5E5
330
3CF
100
AcDbDictionary
280
     1
281
     1
  3
ACAD_XREC_ROUNDTRIP
360
5E6
  0
DICTIONARY
  5
5E7
330
3D0
100
AcDbDictionary
280
     1
281
     1
  3
ACAD_XREC_ROUNDTRIP
360
5E8
  0
DICTIONARY
  5
5EF
330
3D4
100
AcDbDictionary
280
     1
281
     1
  3
ACAD_XREC_ROUNDTRIP
360
5F0
  0
DICTIONARY
  5
5D3
330
3C6
100
AcDbDictionary
280
     1
281
     1
  3
ACAD_XREC_ROUNDTRIP
360
5D4
  0
DICTIONARY
  5
5D5
330
3C7
100
AcDbDictionary
280
     1
281
     1
  3
ACAD_XREC_ROUNDTRIP
360
5D6
  0
DICTIONARY
  5
5D7
330
3C8
100
AcDbDictionary
280
     1
281
     1
  3
ACAD_XREC_ROUNDTRIP
360
5D8
  0
DICTIONARY
  5
5D9
330
3C9
100
AcDbDictionary
280
     1
281
     1
  3
ACAD_XREC_ROUNDTRIP
360
5DA
  0
DICTIONARY
  5
5ED
330
3D3
100
AcDbDictionary
280
     1
281
     1
  3
ACAD_XREC_ROUNDTRIP
360
5EE
  0
DICTIONARY
  5
5E3
330
3CE
100
AcDbDictionary
280
     1
281
     1
  3
ACAD_XREC_ROUNDTRIP
360
5E4
  0
DICTIONARY
  5
5EB
330
3D2
100
AcDbDictionary
280
     1
281
     1
  3
ACAD_XREC_ROUNDTRIP
360
5EC
  0
XRECORD
  5
5D0
102
{ACAD_REACTORS
330
5CF
102
}
330
5CF
100
AcDbXrecord
280
     1
102
MATERIAL
148
0.0
149
0.0
149
0.0
 93
        0
 94
      127
282
     0
 72
     1
 77
     1
171
     1
175
     1
179
     1
273
     0
  0
XRECORD
  5
5CE
102
{ACAD_REACTORS
330
5CD
102
}
330
5CD
100
AcDbXrecord
280
     1
102
MATERIAL
148
0.0
149
0.0
149
0.0
 93
        0
 94
      127
282
     0
 72
     1
 77
     1
171
     1
175
     1
179
     1
273
     0
  0
XRECORD
  5
5D2
102
{ACAD_REACTORS
330
5D1
102
}
330
5D1
100
AcDbXrecord
280
     1
102
MATERIAL
148
0.0
149
0.0
149
0.0
 93
        0
 94
      127
282
     0
 72
     1
 77
     1
171
     1
175
     1
179
     1
273
     0
  0
XRECORD
  5
5DC
102
{ACAD_REACTORS
330
5DB
102
}
330
5DB
100
AcDbXrecord
280
     1
102
RTVSPropertyOp0
 70
     1
102
RTVSPropertyOp1
 70
     1
102
RTVSPropertyOp2
 70
     1
102
RTVSPropertyOp3
 70
     1
102
RTVSPropertyOp4
 70
     1
102
RTVSPropertyOp5
 70
     1
102
RTVSPropertyOp6
 70
     1
102
RTVSPropertyOp7
 70
     1
102
RTVSPropertyOp8
 70
     1
102
RTVSPropertyOp9
 70
     1
102
RTVSPropertyOp10
 70
     1
102
RTVSPropertyOp11
 70
     1
102
RTVSPropertyOp12
 70
     1
102
RTVSPropertyOp13
 70
     1
102
RTVSPropertyOp14
 70
     1
102
RTVSPropertyOp15
 70
     1
102
RTVSPropertyOp16
 70
     1
102
RTVSPropertyOp17
 70
     1
102
RTVSPropertyOp18
 70
     1
102
RTVSPropertyOp19
 70
     1
102
RTVSPropertyOp20
 70
     1
102
RTVSPropertyOp21
 70
     1
102
RTVSPropertyOp22
 70
     1
102
RTVSPropertyOp23
 70
     1
102
RTVSPropertyOp24
 70
     1
102
RTVSPropertyOp25
 70
     1
102
RTVSPropertyOp26
 70
     1
102
RTVSPropertyOp27
 70
     1
102
RTVSPropertyOp28
 70
     1
102
RTVSPropertyOp29
 70
     1
102
RTVSPropertyOp30
 70
     1
102
RTVSPropertyOp31
 70
     1
102
RTVSPropertyOp32
 70
     1
  0
XRECORD
  5
5E0
102
{ACAD_REACTORS
330
5DF
102
}
330
5DF
100
AcDbXrecord
280
     1
102
RTVSPropertyOp0
 70
     1
102
RTVSPropertyOp1
 70
     1
102
RTVSPropertyOp2
 70
     1
102
RTVSPropertyOp3
 70
     1
102
RTVSPropertyOp4
 70
     1
102
RTVSPropertyOp5
 70
     1
102
RTVSPropertyOp6
 70
     1
102
RTVSPropertyOp7
 70
     1
102
RTVSPropertyOp8
 70
     1
102
RTVSPropertyOp9
 70
     1
102
RTVSPropertyOp10
 70
     1
102
RTVSPropertyOp11
 70
     1
102
RTVSPropertyOp12
 70
     1
102
RTVSPropertyOp13
 70
     1
102
RTVSPropertyOp14
 70
     1
102
RTVSPropertyOp15
 70
     1
102
RTVSPropertyOp16
 70
     1
102
RTVSPropertyOp17
 70
     1
102
RTVSPropertyOp18
 70
     1
102
RTVSPropertyOp19
 70
     1
102
RTVSPropertyOp20
 70
     1
102
RTVSPropertyOp21
 70
     1
102
RTVSPropertyOp22
 70
     1
102
RTVSPropertyOp23
 70
     1
102
RTVSPropertyOp24
 70
     1
102
RTVSPropertyOp25
 70
     1
102
RTVSPropertyOp26
 70
     1
102
RTVSPropertyOp27
 70
     1
102
RTVSPropertyOp28
 70
     1
102
RTVSPropertyOp29
 70
     1
102
RTVSPropertyOp30
 70
     1
102
RTVSPropertyOp31
 70
     1
102
RTVSPropertyOp32
 70
     1
  0
XRECORD
  5
5DE
102
{ACAD_REACTORS
330
5DD
102
}
330
5DD
100
AcDbXrecord
280
     1
102
RTVSPropertyOp0
 70
     1
102
RTVSPropertyOp1
 70
     1
102
RTVSPropertyOp2
 70
     1
102
RTVSPropertyOp3
 70
     1
102
RTVSPropertyOp4
 70
     1
102
RTVSPropertyOp5
 70
     1
102
RTVSPropertyOp6
 70
     1
102
RTVSPropertyOp7
 70
     1
102
RTVSPropertyOp8
 70
     1
102
RTVSPropertyOp9
 70
     1
102
RTVSPropertyOp10
 70
     1
102
RTVSPropertyOp11
 70
     1
102
RTVSPropertyOp12
 70
     1
102
RTVSPropertyOp13
 70
     1
102
RTVSPropertyOp14
 70
     1
102
RTVSPropertyOp15
 70
     1
102
RTVSPropertyOp16
 70
     1
102
RTVSPropertyOp17
 70
     1
102
RTVSPropertyOp18
 70
     1
102
RTVSPropertyOp19
 70
     1
102
RTVSPropertyOp20
 70
     1
102
RTVSPropertyOp21
 70
     1
102
RTVSPropertyOp22
 70
     1
102
RTVSPropertyOp23
 70
     1
102
RTVSPropertyOp24
 70
     1
102
RTVSPropertyOp25
 70
     1
102
RTVSPropertyOp26
 70
     1
102
RTVSPropertyOp27
 70
     1
102
RTVSPropertyOp28
 70
     1
102
RTVSPropertyOp29
 70
     1
102
RTVSPropertyOp30
 70
     1
102
RTVSPropertyOp31
 70
     1
102
RTVSPropertyOp32
 70
     1
  0
XRECORD
  5
5E2
102
{ACAD_REACTORS
330
5E1
102
}
330
5E1
100
AcDbXrecord
280
     1
102
RTVSPropertyOp0
 70
     1
102
RTVSPropertyOp1
 70
     1
102
RTVSPropertyOp2
 70
     1
102
RTVSPropertyOp3
 70
     1
102
RTVSPropertyOp4
 70
     1
102
RTVSPropertyOp5
 70
     1
102
RTVSPropertyOp6
 70
     1
102
RTVSPropertyOp7
 70
     1
102
RTVSPropertyOp8
 70
     1
102
RTVSPropertyOp9
 70
     1
102
RTVSPropertyOp10
 70
     1
102
RTVSPropertyOp11
 70
     1
102
RTVSPropertyOp12
 70
     1
102
RTVSPropertyOp13
 70
     1
102
RTVSPropertyOp14
 70
     1
102
RTVSPropertyOp15
 70
     1
102
RTVSPropertyOp16
 70
     1
102
RTVSPropertyOp17
 70
     1
102
RTVSPropertyOp18
 70
     1
102
RTVSPropertyOp19
 70
     1
102
RTVSPropertyOp20
 70
     1
102
RTVSPropertyOp21
 70
     1
102
RTVSPropertyOp22
 70
     1
102
RTVSPropertyOp23
 70
     1
102
RTVSPropertyOp24
 70
     1
102
RTVSPropertyOp25
 70
     1
102
RTVSPropertyOp26
 70
     1
102
RTVSPropertyOp27
 70
     1
102
RTVSPropertyOp28
 70
     1
102
RTVSPropertyOp29
 70
     1
102
RTVSPropertyOp30
 70
     1
102
RTVSPropertyOp31
 70
     1
102
RTVSPropertyOp32
 70
     1
  0
XRECORD
  5
5EA
102
{ACAD_REACTORS
330
5E9
102
}
330
5E9
100
AcDbXrecord
280
     1
102
RTVSPropertyOp0
 70
     1
102
RTVSPropertyOp1
 70
     1
102
RTVSPropertyOp2
 70
     1
102
RTVSPropertyOp3
 70
     1
102
RTVSPropertyOp4
 70
     1
102
RTVSPropertyOp5
 70
     1
102
RTVSPropertyOp6
 70
     1
102
RTVSPropertyOp7
 70
     1
102
RTVSPropertyOp8
 70
     1
102
RTVSPropertyOp9
 70
     1
102
RTVSPropertyOp10
 70
     1
102
RTVSPropertyOp11
 70
     1
102
RTVSPropertyOp12
 70
     1
102
RTVSPropertyOp13
 70
     1
102
RTVSPropertyOp14
 70
     1
102
RTVSPropertyOp15
 70
     1
102
RTVSPropertyOp16
 70
     1
102
RTVSPropertyOp17
 70
     1
102
RTVSPropertyOp18
 70
     1
102
RTVSPropertyOp19
 70
     1
102
RTVSPropertyOp20
 70
     1
102
RTVSPropertyOp21
 70
     1
102
RTVSPropertyOp22
 70
     1
102
RTVSPropertyOp23
 70
     1
102
RTVSPropertyOp24
 70
     1
102
RTVSPropertyOp25
 70
     1
102
RTVSPropertyOp26
 70
     1
102
RTVSPropertyOp27
 70
     1
102
RTVSPropertyOp28
 70
     1
102
RTVSPropertyOp29
 70
     1
102
RTVSPropertyOp30
 70
     1
102
RTVSPropertyOp31
 70
     1
102
RTVSPropertyOp32
 70
     1
  0
XRECORD
  5
5F2
102
{ACAD_REACTORS
330
5F1
102
}
330
5F1
100
AcDbXrecord
280
     1
102
RTVSPropertyOp0
 70
     1
102
RTVSPropertyOp1
 70
     1
102
RTVSPropertyOp2
 70
     1
102
RTVSPropertyOp3
 70
     1
102
RTVSPropertyOp4
 70
     1
102
RTVSPropertyOp5
 70
     1
102
RTVSPropertyOp6
 70
     1
102
RTVSPropertyOp7
 70
     1
102
RTVSPropertyOp8
 70
     1
102
RTVSPropertyOp9
 70
     1
102
RTVSPropertyOp10
 70
     1
102
RTVSPropertyOp11
 70
     1
102
RTVSPropertyOp12
 70
     1
102
RTVSPropertyOp13
 70
     1
102
RTVSPropertyOp14
 70
     1
102
RTVSPropertyOp15
 70
     1
102
RTVSPropertyOp16
 70
     1
102
RTVSPropertyOp17
 70
     1
102
RTVSPropertyOp18
 70
     1
102
RTVSPropertyOp19
 70
     1
102
RTVSPropertyOp20
 70
     1
102
RTVSPropertyOp21
 70
     1
102
RTVSPropertyOp22
 70
     1
102
RTVSPropertyOp23
 70
     1
102
RTVSPropertyOp24
 70
     1
102
RTVSPropertyOp25
 70
     1
102
RTVSPropertyOp26
 70
     1
102
RTVSPropertyOp27
 70
     1
102
RTVSPropertyOp28
 70
     1
102
RTVSPropertyOp29
 70
     1
102
RTVSPropertyOp30
 70
     1
102
RTVSPropertyOp31
 70
     1
102
RTVSPropertyOp32
 70
     1
  0
XRECORD
  5
5E6
102
{ACAD_REACTORS
330
5E5
102
}
330
5E5
100
AcDbXrecord
280
     1
102
RTVSPropertyOp0
 70
     1
102
RTVSPropertyOp1
 70
     1
102
RTVSPropertyOp2
 70
     1
102
RTVSPropertyOp3
 70
     1
102
RTVSPropertyOp4
 70
     1
102
RTVSPropertyOp5
 70
     1
102
RTVSPropertyOp6
 70
     1
102
RTVSPropertyOp7
 70
     1
102
RTVSPropertyOp8
 70
     1
102
RTVSPropertyOp9
 70
     1
102
RTVSPropertyOp10
 70
     1
102
RTVSPropertyOp11
 70
     1
102
RTVSPropertyOp12
 70
     1
102
RTVSPropertyOp13
 70
     1
102
RTVSPropertyOp14
 70
     1
102
RTVSPropertyOp15
 70
     1
102
RTVSPropertyOp16
 70
     1
102
RTVSPropertyOp17
 70
     1
102
RTVSPropertyOp18
 70
     1
102
RTVSPropertyOp19
 70
     1
102
RTVSPropertyOp20
 70
     1
102
RTVSPropertyOp21
 70
     1
102
RTVSPropertyOp22
 70
     1
102
RTVSPropertyOp23
 70
     1
102
RTVSPropertyOp24
 70
     1
102
RTVSPropertyOp25
 70
     1
102
RTVSPropertyOp26
 70
     1
102
RTVSPropertyOp27
 70
     1
102
RTVSPropertyOp28
 70
     1
102
RTVSPropertyOp29
 70
     1
102
RTVSPropertyOp30
 70
     1
102
RTVSPropertyOp31
 70
     1
102
RTVSPropertyOp32
 70
     1
  0
XRECORD
  5
5E8
102
{ACAD_REACTORS
330
5E7
102
}
330
5E7
100
AcDbXrecord
280
     1
102
RTVSPropertyOp0
 70
     1
102
RTVSPropertyOp1
 70
     1
102
RTVSPropertyOp2
 70
     1
102
RTVSPropertyOp3
 70
     1
102
RTVSPropertyOp4
 70
     1
102
RTVSPropertyOp5
 70
     1
102
RTVSPropertyOp6
 70
     1
102
RTVSPropertyOp7
 70
     1
102
RTVSPropertyOp8
 70
     1
102
RTVSPropertyOp9
 70
     1
102
RTVSPropertyOp10
 70
     1
102
RTVSPropertyOp11
 70
     1
102
RTVSPropertyOp12
 70
     1
102
RTVSPropertyOp13
 70
     1
102
RTVSPropertyOp14
 70
     1
102
RTVSPropertyOp15
 70
     1
102
RTVSPropertyOp16
 70
     1
102
RTVSPropertyOp17
 70
     1
102
RTVSPropertyOp18
 70
     1
102
RTVSPropertyOp19
 70
     1
102
RTVSPropertyOp20
 70
     1
102
RTVSPropertyOp21
 70
     1
102
RTVSPropertyOp22
 70
     1
102
RTVSPropertyOp23
 70
     1
102
RTVSPropertyOp24
 70
     1
102
RTVSPropertyOp25
 70
     1
102
RTVSPropertyOp26
 70
     1
102
RTVSPropertyOp27
 70
     1
102
RTVSPropertyOp28
 70
     1
102
RTVSPropertyOp29
 70
     1
102
RTVSPropertyOp30
 70
     1
102
RTVSPropertyOp31
 70
     1
102
RTVSPropertyOp32
 70
     1
  0
XRECORD
  5
5F0
102
{ACAD_REACTORS
330
5EF
102
}
330
5EF
100
AcDbXrecord
280
     1
102
RTVSPropertyOp0
 70
     1
102
RTVSPropertyOp1
 70
     1
102
RTVSPropertyOp2
 70
     1
102
RTVSPropertyOp3
 70
     1
102
RTVSPropertyOp4
 70
     1
102
RTVSPropertyOp5
 70
     1
102
RTVSPropertyOp6
 70
     1
102
RTVSPropertyOp7
 70
     1
102
RTVSPropertyOp8
 70
     1
102
RTVSPropertyOp9
 70
     1
102
RTVSPropertyOp10
 70
     1
102
RTVSPropertyOp11
 70
     1
102
RTVSPropertyOp12
 70
     1
102
RTVSPropertyOp13
 70
     1
102
RTVSPropertyOp14
 70
     1
102
RTVSPropertyOp15
 70
     1
102
RTVSPropertyOp16
 70
     1
102
RTVSPropertyOp17
 70
     1
102
RTVSPropertyOp18
 70
     1
102
RTVSPropertyOp19
 70
     1
102
RTVSPropertyOp20
 70
     1
102
RTVSPropertyOp21
 70
     1
102
RTVSPropertyOp22
 70
     1
102
RTVSPropertyOp23
 70
     1
102
RTVSPropertyOp24
 70
     1
102
RTVSPropertyOp25
 70
     1
102
RTVSPropertyOp26
 70
     1
102
RTVSPropertyOp27
 70
     1
102
RTVSPropertyOp28
 70
     1
102
RTVSPropertyOp29
 70
     1
102
RTVSPropertyOp30
 70
     1
102
RTVSPropertyOp31
 70
     1
102
RTVSPropertyOp32
 70
     1
  0
XRECORD
  5
5D4
102
{ACAD_REACTORS
330
5D3
102
}
330
5D3
100
AcDbXrecord
280
     1
102
RTVSPropertyOp0
 70
     1
102
RTVSPropertyOp1
 70
     1
102
RTVSPropertyOp2
 70
     1
102
RTVSPropertyOp3
 70
     1
102
RTVSPropertyOp4
 70
     1
102
RTVSPropertyOp5
 70
     1
102
RTVSPropertyOp6
 70
     1
102
RTVSPropertyOp7
 70
     1
102
RTVSPropertyOp8
 70
     1
102
RTVSPropertyOp9
 70
     1
102
RTVSPropertyOp10
 70
     1
102
RTVSPropertyOp11
 70
     1
102
RTVSPropertyOp12
 70
     1
102
RTVSPropertyOp13
 70
     1
102
RTVSPropertyOp14
 70
     1
102
RTVSPropertyOp15
 70
     1
102
RTVSPropertyOp16
 70
     1
102
RTVSPropertyOp17
 70
     1
102
RTVSPropertyOp18
 70
     1
102
RTVSPropertyOp19
 70
     1
102
RTVSPropertyOp20
 70
     1
102
RTVSPropertyOp21
 70
     1
102
RTVSPropertyOp22
 70
     1
102
RTVSPropertyOp23
 70
     1
102
RTVSPropertyOp24
 70
     1
102
RTVSPropertyOp25
 70
     1
102
RTVSPropertyOp26
 70
     1
102
RTVSPropertyOp27
 70
     1
102
RTVSPropertyOp28
 70
     1
102
RTVSPropertyOp29
 70
     1
102
RTVSPropertyOp30
 70
     1
102
RTVSPropertyOp31
 70
     1
102
RTVSPropertyOp32
 70
     1
  0
XRECORD
  5
5D6
102
{ACAD_REACTORS
330
5D5
102
}
330
5D5
100
AcDbXrecord
280
     1
102
RTVSPropertyOp0
 70
     1
102
RTVSPropertyOp1
 70
     1
102
RTVSPropertyOp2
 70
     1
102
RTVSPropertyOp3
 70
     1
102
RTVSPropertyOp4
 70
     1
102
RTVSPropertyOp5
 70
     1
102
RTVSPropertyOp6
 70
     1
102
RTVSPropertyOp7
 70
     1
102
RTVSPropertyOp8
 70
     1
102
RTVSPropertyOp9
 70
     1
102
RTVSPropertyOp10
 70
     1
102
RTVSPropertyOp11
 70
     1
102
RTVSPropertyOp12
 70
     1
102
RTVSPropertyOp13
 70
     1
102
RTVSPropertyOp14
 70
     1
102
RTVSPropertyOp15
 70
     1
102
RTVSPropertyOp16
 70
     1
102
RTVSPropertyOp17
 70
     1
102
RTVSPropertyOp18
 70
     1
102
RTVSPropertyOp19
 70
     1
102
RTVSPropertyOp20
 70
     1
102
RTVSPropertyOp21
 70
     1
102
RTVSPropertyOp22
 70
     1
102
RTVSPropertyOp23
 70
     1
102
RTVSPropertyOp24
 70
     1
102
RTVSPropertyOp25
 70
     1
102
RTVSPropertyOp26
 70
     1
102
RTVSPropertyOp27
 70
     1
102
RTVSPropertyOp28
 70
     1
102
RTVSPropertyOp29
 70
     1
102
RTVSPropertyOp30
 70
     1
102
RTVSPropertyOp31
 70
     1
102
RTVSPropertyOp32
 70
     1
  0
XRECORD
  5
5D8
102
{ACAD_REACTORS
330
5D7
102
}
330
5D7
100
AcDbXrecord
280
     1
102
RTVSPropertyOp0
 70
     1
102
RTVSPropertyOp1
 70
     1
102
RTVSPropertyOp2
 70
     1
102
RTVSPropertyOp3
 70
     1
102
RTVSPropertyOp4
 70
     1
102
RTVSPropertyOp5
 70
     1
102
RTVSPropertyOp6
 70
     1
102
RTVSPropertyOp7
 70
     1
102
RTVSPropertyOp8
 70
     1
102
RTVSPropertyOp9
 70
     1
102
RTVSPropertyOp10
 70
     1
102
RTVSPropertyOp11
 70
     1
102
RTVSPropertyOp12
 70
     1
102
RTVSPropertyOp13
 70
     1
102
RTVSPropertyOp14
 70
     1
102
RTVSPropertyOp15
 70
     1
102
RTVSPropertyOp16
 70
     1
102
RTVSPropertyOp17
 70
     1
102
RTVSPropertyOp18
 70
     1
102
RTVSPropertyOp19
 70
     1
102
RTVSPropertyOp20
 70
     1
102
RTVSPropertyOp21
 70
     1
102
RTVSPropertyOp22
 70
     1
102
RTVSPropertyOp23
 70
     1
102
RTVSPropertyOp24
 70
     1
102
RTVSPropertyOp25
 70
     1
102
RTVSPropertyOp26
 70
     1
102
RTVSPropertyOp27
 70
     1
102
RTVSPropertyOp28
 70
     1
102
RTVSPropertyOp29
 70
     1
102
RTVSPropertyOp30
 70
     1
102
RTVSPropertyOp31
 70
     1
102
RTVSPropertyOp32
 70
     1
  0
XRECORD
  5
5DA
102
{ACAD_REACTORS
330
5D9
102
}
330
5D9
100
AcDbXrecord
280
     1
102
RTVSPropertyOp0
 70
     1
102
RTVSPropertyOp1
 70
     1
102
RTVSPropertyOp2
 70
     1
102
RTVSPropertyOp3
 70
     1
102
RTVSPropertyOp4
 70
     1
102
RTVSPropertyOp5
 70
     1
102
RTVSPropertyOp6
 70
     1
102
RTVSPropertyOp7
 70
     1
102
RTVSPropertyOp8
 70
     1
102
RTVSPropertyOp9
 70
     1
102
RTVSPropertyOp10
 70
     1
102
RTVSPropertyOp11
 70
     1
102
RTVSPropertyOp12
 70
     1
102
RTVSPropertyOp13
 70
     1
102
RTVSPropertyOp14
 70
     1
102
RTVSPropertyOp15
 70
     1
102
RTVSPropertyOp16
 70
     1
102
RTVSPropertyOp17
 70
     1
102
RTVSPropertyOp18
 70
     1
102
RTVSPropertyOp19
 70
     1
102
RTVSPropertyOp20
 70
     1
102
RTVSPropertyOp21
 70
     1
102
RTVSPropertyOp22
 70
     1
102
RTVSPropertyOp23
 70
     1
102
RTVSPropertyOp24
 70
     1
102
RTVSPropertyOp25
 70
     1
102
RTVSPropertyOp26
 70
     1
102
RTVSPropertyOp27
 70
     1
102
RTVSPropertyOp28
 70
     1
102
RTVSPropertyOp29
 70
     1
102
RTVSPropertyOp30
 70
     1
102
RTVSPropertyOp31
 70
     1
102
RTVSPropertyOp32
 70
     1
  0
XRECORD
  5
5EE
102
{ACAD_REACTORS
330
5ED
102
}
330
5ED
100
AcDbXrecord
280
     1
102
RTVSPropertyOp0
 70
     1
102
RTVSPropertyOp1
 70
     1
102
RTVSPropertyOp2
 70
     1
102
RTVSPropertyOp3
 70
     1
102
RTVSPropertyOp4
 70
     1
102
RTVSPropertyOp5
 70
     1
102
RTVSPropertyOp6
 70
     1
102
RTVSPropertyOp7
 70
     1
102
RTVSPropertyOp8
 70
     1
102
RTVSPropertyOp9
 70
     1
102
RTVSPropertyOp10
 70
     1
102
RTVSPropertyOp11
 70
     1
102
RTVSPropertyOp12
 70
     1
102
RTVSPropertyOp13
 70
     1
102
RTVSPropertyOp14
 70
     1
102
RTVSPropertyOp15
 70
     1
102
RTVSPropertyOp16
 70
     1
102
RTVSPropertyOp17
 70
     1
102
RTVSPropertyOp18
 70
     1
102
RTVSPropertyOp19
 70
     1
102
RTVSPropertyOp20
 70
     1
102
RTVSPropertyOp21
 70
     1
102
RTVSPropertyOp22
 70
     1
102
RTVSPropertyOp23
 70
     1
102
RTVSPropertyOp24
 70
     1
102
RTVSPropertyOp25
 70
     1
102
RTVSPropertyOp26
 70
     1
102
RTVSPropertyOp27
 70
     1
102
RTVSPropertyOp28
 70
     1
102
RTVSPropertyOp29
 70
     1
102
RTVSPropertyOp30
 70
     1
102
RTVSPropertyOp31
 70
     1
102
RTVSPropertyOp32
 70
     1
  0
XRECORD
  5
5E4
102
{ACAD_REACTORS
330
5E3
102
}
330
5E3
100
AcDbXrecord
280
     1
102
RTVSPropertyOp0
 70
     1
102
RTVSPropertyOp1
 70
     1
102
RTVSPropertyOp2
 70
     1
102
RTVSPropertyOp3
 70
     1
102
RTVSPropertyOp4
 70
     1
102
RTVSPropertyOp5
 70
     1
102
RTVSPropertyOp6
 70
     1
102
RTVSPropertyOp7
 70
     1
102
RTVSPropertyOp8
 70
     1
102
RTVSPropertyOp9
 70
     1
102
RTVSPropertyOp10
 70
     1
102
RTVSPropertyOp11
 70
     1
102
RTVSPropertyOp12
 70
     1
102
RTVSPropertyOp13
 70
     1
102
RTVSPropertyOp14
 70
     1
102
RTVSPropertyOp15
 70
     1
102
RTVSPropertyOp16
 70
     1
102
RTVSPropertyOp17
 70
     1
102
RTVSPropertyOp18
 70
     1
102
RTVSPropertyOp19
 70
     1
102
RTVSPropertyOp20
 70
     1
102
RTVSPropertyOp21
 70
     1
102
RTVSPropertyOp22
 70
     1
102
RTVSPropertyOp23
 70
     1
102
RTVSPropertyOp24
 70
     1
102
RTVSPropertyOp25
 70
     1
102
RTVSPropertyOp26
 70
     1
102
RTVSPropertyOp27
 70
     1
102
RTVSPropertyOp28
 70
     1
102
RTVSPropertyOp29
 70
     1
102
RTVSPropertyOp30
 70
     1
102
RTVSPropertyOp31
 70
     1
102
RTVSPropertyOp32
 70
     1
  0
XRECORD
  5
5EC
102
{ACAD_REACTORS
330
5EB
102
}
330
5EB
100
AcDbXrecord
280
     1
102
RTVSPropertyOp0
 70
     1
102
RTVSPropertyOp1
 70
     1
102
RTVSPropertyOp2
 70
     1
102
RTVSPropertyOp3
 70
     1
102
RTVSPropertyOp4
 70
     1
102
RTVSPropertyOp5
 70
     1
102
RTVSPropertyOp6
 70
     1
102
RTVSPropertyOp7
 70
     1
102
RTVSPropertyOp8
 70
     1
102
RTVSPropertyOp9
 70
     1
102
RTVSPropertyOp10
 70
     1
102
RTVSPropertyOp11
 70
     1
102
RTVSPropertyOp12
 70
     1
102
RTVSPropertyOp13
 70
     1
102
RTVSPropertyOp14
 70
     1
102
RTVSPropertyOp15
 70
     1
102
RTVSPropertyOp16
 70
     1
102
RTVSPropertyOp17
 70
     1
102
RTVSPropertyOp18
 70
     1
102
RTVSPropertyOp19
 70
     1
102
RTVSPropertyOp20
 70
     1
102
RTVSPropertyOp21
 70
     1
102
RTVSPropertyOp22
 70
     1
102
RTVSPropertyOp23
 70
     1
102
RTVSPropertyOp24
 70
     1
102
RTVSPropertyOp25
 70
     1
102
RTVSPropertyOp26
 70
     1
102
RTVSPropertyOp27
 70
     1
102
RTVSPropertyOp28
 70
     1
102
RTVSPropertyOp29
 70
     1
102
RTVSPropertyOp30
 70
     1
102
RTVSPropertyOp31
 70
     1
102
RTVSPropertyOp32
 70
     1
  0
ENDSEC
  0
EOF
